  0
SECTION
  2
HEADER
  9
$ACADVER
  1
AC1015
  9
$ACADMAINTVER
 70
    18
  9
$DWGCODEPAGE
  3
ANSI_932
  9
$INSBASE
 10
0.0
 20
0.0
 30
0.0
  9
$EXTMIN
 10
-57.25521421065894
 20
0.0
 30
0.0
  9
$EXTMAX
 10
519.9962535749234
 20
242.4834350042019
 30
0.0
  9
$LIMMIN
 10
0.0
 20
0.0
  9
$LIMMAX
 10
420.0
 20
297.0
  9
$ORTHOMODE
 70
     1
  9
$REGENMODE
 70
     1
  9
$FILLMODE
 70
     1
  9
$QTEXTMODE
 70
     0
  9
$MIRRTEXT
 70
     1
  9
$LTSCALE
 40
1.0
  9
$ATTMODE
 70
     1
  9
$TEXTSIZE
 40
30.0
  9
$TRACEWID
 40
0.05
  9
$TEXTSTYLE
  7
SUNPOU
  9
$CLAYER
  8
0
  9
$CELTYPE
  6
BYLAYER
  9
$CECOLOR
 62
     3
  9
$CELTSCALE
 40
1.0
  9
$DISPSILH
 70
     0
  9
$DIMSCALE
 40
1.0
  9
$DIMASZ
 40
3.0
  9
$DIMEXO
 40
2.0
  9
$DIMDLI
 40
0.38
  9
$DIMRND
 40
0.0
  9
$DIMDLE
 40
0.0
  9
$DIMEXE
 40
0.0
  9
$DIMTP
 40
0.0
  9
$DIMTM
 40
0.0
  9
$DIMTXT
 40
7.0
  9
$DIMCEN
 40
1.0
  9
$DIMTSZ
 40
0.0
  9
$DIMTOL
 70
     0
  9
$DIMLIM
 70
     0
  9
$DIMTIH
 70
     0
  9
$DIMTOH
 70
     0
  9
$DIMSE1
 70
     0
  9
$DIMSE2
 70
     0
  9
$DIMTAD
 70
     1
  9
$DIMZIN
 70
     0
  9
$DIMBLK
  1

  9
$DIMASO
 70
     1
  9
$DIMSHO
 70
     1
  9
$DIMPOST
  1

  9
$DIMAPOST
  1

  9
$DIMALT
 70
     0
  9
$DIMALTD
 70
     2
  9
$DIMALTF
 40
25.4
  9
$DIMLFAC
 40
1.0
  9
$DIMTOFL
 70
     0
  9
$DIMTVP
 40
0.0
  9
$DIMTIX
 70
     1
  9
$DIMSOXD
 70
     0
  9
$DIMSAH
 70
     1
  9
$DIMBLK1
  1
DOTSMALL
  9
$DIMBLK2
  1
DOTSMALL
  9
$DIMSTYLE
  2
1
  9
$DIMCLRD
 70
    60
  9
$DIMCLRE
 70
    70
  9
$DIMCLRT
 70
    60
  9
$DIMTFAC
 40
0.0642857142857143
  9
$DIMGAP
 40
1.0
  9
$DIMJUST
 70
     0
  9
$DIMSD1
 70
     0
  9
$DIMSD2
 70
     0
  9
$DIMTOLJ
 70
     1
  9
$DIMTZIN
 70
     0
  9
$DIMALTZ
 70
     0
  9
$DIMALTTZ
 70
     0
  9
$DIMUPT
 70
     0
  9
$DIMDEC
 70
     0
  9
$DIMTDEC
 70
     4
  9
$DIMALTU
 70
     2
  9
$DIMALTTD
 70
     2
  9
$DIMTXSTY
  7
STANDARD
  9
$DIMAUNIT
 70
     0
  9
$DIMADEC
 70
     0
  9
$DIMALTRND
 40
0.0
  9
$DIMAZIN
 70
     0
  9
$DIMDSEP
 70
    46
  9
$DIMATFIT
 70
     3
  9
$DIMFRAC
 70
     0
  9
$DIMLDRBLK
  1
DOTSMALL
  9
$DIMLUNIT
 70
     2
  9
$DIMLWD
 70
    -2
  9
$DIMLWE
 70
    -2
  9
$DIMTMOVE
 70
     0
  9
$LUNITS
 70
     4
  9
$LUPREC
 70
     4
  9
$SKETCHINC
 40
0.1
  9
$FILLETRAD
 40
1.0
  9
$AUNITS
 70
     0
  9
$AUPREC
 70
     2
  9
$MENU
  1
acad
  9
$ELEVATION
 40
0.0
  9
$PELEVATION
 40
0.0
  9
$THICKNESS
 40
0.0
  9
$LIMCHECK
 70
     0
  9
$CHAMFERA
 40
0.0
  9
$CHAMFERB
 40
0.0
  9
$CHAMFERC
 40
0.0
  9
$CHAMFERD
 40
0.0
  9
$SKPOLY
 70
     0
  9
$TDCREATE
 40
2450623.676023380
  9
$TDUCREATE
 40
2450623.301023380
  9
$TDUPDATE
 40
2454910.610416181
  9
$TDUUPDATE
 40
2454910.235416181
  9
$TDINDWG
 40
5.3854768981
  9
$TDUSRTIMER
 40
5.3854765162
  9
$USRTIMER
 70
     1
  9
$ANGBASE
 50
0.0
  9
$ANGDIR
 70
     0
  9
$PDMODE
 70
     0
  9
$PDSIZE
 40
0.0
  9
$PLINEWID
 40
0.0
  9
$SPLFRAME
 70
     0
  9
$SPLINETYPE
 70
     6
  9
$SPLINESEGS
 70
     8
  9
$HANDSEED
  5
1EC
  9
$SURFTAB1
 70
     6
  9
$SURFTAB2
 70
     6
  9
$SURFTYPE
 70
     6
  9
$SURFU
 70
     6
  9
$SURFV
 70
     6
  9
$UCSBASE
  2

  9
$UCSNAME
  2

  9
$UCSORG
 10
0.0
 20
0.0
 30
0.0
  9
$UCSXDIR
 10
1.0
 20
0.0
 30
0.0
  9
$UCSYDIR
 10
0.0
 20
1.0
 30
0.0
  9
$UCSORTHOREF
  2

  9
$UCSORTHOVIEW
 70
     0
  9
$UCSORGTOP
 10
0.0
 20
0.0
 30
0.0
  9
$UCSORGBOTTOM
 10
0.0
 20
0.0
 30
0.0
  9
$UCSORGLEFT
 10
0.0
 20
0.0
 30
0.0
  9
$UCSORGRIGHT
 10
0.0
 20
0.0
 30
0.0
  9
$UCSORGFRONT
 10
0.0
 20
0.0
 30
0.0
  9
$UCSORGBACK
 10
0.0
 20
0.0
 30
0.0
  9
$PUCSBASE
  2

  9
$PUCSNAME
  2

  9
$PUCSORG
 10
0.0
 20
0.0
 30
0.0
  9
$PUCSXDIR
 10
1.0
 20
0.0
 30
0.0
  9
$PUCSYDIR
 10
0.0
 20
1.0
 30
0.0
  9
$PUCSORTHOREF
  2

  9
$PUCSORTHOVIEW
 70
     0
  9
$PUCSORGTOP
 10
0.0
 20
0.0
 30
0.0
  9
$PUCSORGBOTTOM
 10
0.0
 20
0.0
 30
0.0
  9
$PUCSORGLEFT
 10
0.0
 20
0.0
 30
0.0
  9
$PUCSORGRIGHT
 10
0.0
 20
0.0
 30
0.0
  9
$PUCSORGFRONT
 10
0.0
 20
0.0
 30
0.0
  9
$PUCSORGBACK
 10
0.0
 20
0.0
 30
0.0
  9
$USERI1
 70
     0
  9
$USERI2
 70
     0
  9
$USERI3
 70
     0
  9
$USERI4
 70
     0
  9
$USERI5
 70
     0
  9
$USERR1
 40
0.0
  9
$USERR2
 40
0.0
  9
$USERR3
 40
0.0
  9
$USERR4
 40
0.0
  9
$USERR5
 40
0.0
  9
$WORLDVIEW
 70
     1
  9
$SHADEDGE
 70
     3
  9
$SHADEDIF
 70
    70
  9
$TILEMODE
 70
     1
  9
$MAXACTVP
 70
    16
  9
$PINSBASE
 10
0.0
 20
0.0
 30
0.0
  9
$PLIMCHECK
 70
     0
  9
$PEXTMIN
 10
1.000000000000000E+20
 20
1.000000000000000E+20
 30
1.000000000000000E+20
  9
$PEXTMAX
 10
-1.000000000000000E+20
 20
-1.000000000000000E+20
 30
-1.000000000000000E+20
  9
$PLIMMIN
 10
0.0
 20
0.0
  9
$PLIMMAX
 10
12.0
 20
9.0
  9
$UNITMODE
 70
     0
  9
$VISRETAIN
 70
     0
  9
$PLINEGEN
 70
     0
  9
$PSLTSCALE
 70
     1
  9
$TREEDEPTH
 70
  3020
  9
$CMLSTYLE
  2
STANDARD
  9
$CMLJUST
 70
     0
  9
$CMLSCALE
 40
1.0
  9
$PROXYGRAPHICS
 70
     1
  9
$MEASUREMENT
 70
     0
  9
$CELWEIGHT
370
    -1
  9
$ENDCAPS
280
     0
  9
$JOINSTYLE
280
     0
  9
$LWDISPLAY
290
     0
  9
$INSUNITS
 70
     0
  9
$HYPERLINKBASE
  1

  9
$STYLESHEET
  1

  9
$XEDIT
290
     1
  9
$CEPSNTYPE
380
     0
  9
$PSTYLEMODE
290
     1
  9
$FINGERPRINTGUID
  2
{69467B02-0F22-4561-BA18-8A79F2AE8416}
  9
$VERSIONGUID
  2
{859E6B45-C2F2-4172-9DD0-2ED1455AB439}
  9
$EXTNAMES
290
     1
  9
$PSVPSCALE
 40
0.0
  9
$OLESTARTUP
290
     0
  0
ENDSEC
  0
SECTION
  2
CLASSES
  0
CLASS
  1
DICTIONARYVAR
  2
AcDbDictionaryVar
  3
ObjectDBX Classes
 90
        0
280
     0
281
     0
  0
CLASS
  1
RASTERVARIABLES
  2
AcDbRasterVariables
  3
ISM
 90
    32768
280
     0
281
     0
  0
CLASS
  1
ACDBDICTIONARYWDFLT
  2
AcDbDictionaryWithDefault
  3
ObjectDBX Classes
 90
        0
280
     0
281
     0
  0
CLASS
  1
ACDBPLACEHOLDER
  2
AcDbPlaceHolder
  3
ObjectDBX Classes
 90
        0
280
     0
281
     0
  0
CLASS
  1
LAYOUT
  2
AcDbLayout
  3
ObjectDBX Classes
 90
        0
280
     0
281
     0
  0
CLASS
  1
AEC_VARS_DWG_SETUP
  2
AecDbVarsDwgSetup
  3
AecBase
 90
    32897
280
     1
281
     0
  0
CLASS
  1
AEC_DISP_REP_MASS_ELEM_MODEL
  2
AecDbDispRepMassElemModel
  3
AecBase
 90
    32897
280
     1
281
     0
  0
CLASS
  1
AEC_DISP_PROPS_MASS_ELEM_MODEL
  2
AecDbDispPropsMassElem
  3
AecBase
 90
    32897
280
     1
281
     0
  0
CLASS
  1
AEC_DISP_REP_MASS_ELEM_SCHEM
  2
AecDbDispRepMassElemSchem
  3
AecBase
 90
    32897
280
     1
281
     0
  0
CLASS
  1
AEC_DISP_REP_DOOR_ELEV
  2
AecDbDispRepDoorElev
  3
AecArchBase
 90
    32897
280
     1
281
     0
  0
CLASS
  1
AEC_DISP_PROPS_DOOR
  2
AecDbDispPropsDoor
  3
AecArchBase
 90
    32897
280
     1
281
     0
  0
CLASS
  1
AEC_DISP_REP_MASKBLOCK_REF
  2
AecDbDispRepMaskBlockRef
  3
AecBase
 90
    32897
280
     1
281
     0
  0
CLASS
  1
AEC_DISP_PROPS_MASKBLOCK
  2
AecDbDispPropsMaskBlock
  3
AecBase
 90
    32897
280
     1
281
     0
  0
CLASS
  1
AEC_DISP_REP_LAYOUT_GRID3D
  2
AecDbDispRepLayoutGrid3d
  3
AecBase
 90
    32897
280
     1
281
     0
  0
CLASS
  1
AEC_DISP_PROPS_LAYOUT_GRID3D
  2
AecDbDispPropsLayoutGrid3d
  3
AecBase
 90
    32897
280
     1
281
     0
  0
CLASS
  1
AEC_DISP_REP_ENT_REF
  2
AecDbDispRepEntRef
  3
AecBase
 90
    32897
280
     1
281
     0
  0
CLASS
  1
AEC_DISP_PROPS_ENT_REF
  2
AecDbDispPropsEntRef
  3
AecBase
 90
    32897
280
     1
281
     0
  0
CLASS
  1
AEC_DISP_REP_CLIP_VOLUME_RESULT_SUBDIV
  2
AecDbDispRepClipVolResSubDiv
  3
AecBase
 90
    32897
280
     1
281
     0
  0
CLASS
  1
AEC_DISP_PROPS_CLIP_VOLUME_RESULT
  2
AecDbDispPropsClipVolResSubDiv
  3
AecBase
 90
    32897
280
     1
281
     0
  0
CLASS
  1
AEC_DISP_REP_CLIP_VOLUME_RESULT
  2
AecDbDispRepClipVolResult
  3
AecBase
 90
    32897
280
     1
281
     0
  0
CLASS
  1
AEC_DISP_REP_CLIP_VOLUME_PLAN
  2
AecDbDispRepClipVolPlan
  3
AecBase
 90
    32897
280
     1
281
     0
  0
CLASS
  1
AEC_DISP_PROPS_CLIP_VOLUME
  2
AecDbDispPropsClipVol
  3
AecBase
 90
    32897
280
     1
281
     0
  0
CLASS
  1
AEC_DISP_REP_CLIP_VOLUME_MODEL
  2
AecDbDispRepClipVolModel
  3
AecBase
 90
    32897
280
     1
281
     0
  0
CLASS
  1
AEC_DISP_REP_ANCHOR_ENT_TO_NODE
  2
AecDbDispRepAnchorEntToNode
  3
AecBase
 90
    32897
280
     1
281
     0
  0
CLASS
  1
AEC_DISP_PROPS_ENT
  2
AecDbDispPropsEnt
  3
AecBase
 90
    32897
280
     1
281
     0
  0
CLASS
  1
AEC_DISP_REP_LAYOUT_GRID2D
  2
AecDbDispRepLayoutGrid2d
  3
AecBase
 90
    32897
280
     1
281
     0
  0
CLASS
  1
AEC_DISP_PROPS_LAYOUT_GRID2D
  2
AecDbDispPropsLayoutGrid2d
  3
AecBase
 90
    32897
280
     1
281
     0
  0
CLASS
  1
AEC_DISP_REP_LAYOUT_CURVE
  2
AecDbDispRepLayoutCurve
  3
AecBase
 90
    32897
280
     1
281
     0
  0
CLASS
  1
AEC_DISP_PROPS_LAYOUT_CURVE
  2
AecDbDispPropsLayoutCurve
  3
AecBase
 90
    32897
280
     1
281
     0
  0
CLASS
  1
AEC_DISP_REP_ANCHOR
  2
AecDbDispRepAnchor
  3
AecBase
 90
    32897
280
     1
281
     0
  0
CLASS
  1
AEC_DISP_REP_CAMERA
  2
AecDbDispRepCamera
  3
AecBase
 90
    32897
280
     1
281
     0
  0
CLASS
  1
AEC_DISP_PROPS_CAMERA
  2
AecDbDispPropsCamera
  3
AecBase
 90
    32897
280
     1
281
     0
  0
CLASS
  1
AEC_DISP_REP_SLICE
  2
AecDbDispRepSlice
  3
AecBase
 90
    32897
280
     1
281
     0
  0
CLASS
  1
AEC_DISP_PROPS_SLICE
  2
AecDbDispPropsSlice
  3
AecBase
 90
    32897
280
     1
281
     0
  0
CLASS
  1
AEC_DISP_REP_MVBLOCK_REF
  2
AecDbDispRepMvBlockRef
  3
AecBase
 90
    32897
280
     1
281
     0
  0
CLASS
  1
AEC_DISP_REP_MVBLOCK_REF_MODEL
  2
AecDbDispRepMvBlockRefModel
  3
AecBase
 90
    32897
280
     1
281
     0
  0
CLASS
  1
AEC_DISP_REP_MASS_GROUP_MODEL
  2
AecDbDispRepMassGroupModel
  3
AecBase
 90
    32897
280
     1
281
     0
  0
CLASS
  1
AEC_DISP_PROPS_MASS_GROUP
  2
AecDbDispPropsMassGroup
  3
AecBase
 90
    32897
280
     1
281
     0
  0
CLASS
  1
AEC_DISP_REP_MASS_GROUP_PLAN
  2
AecDbDispRepMassGroupPlan
  3
AecBase
 90
    32897
280
     1
281
     0
  0
CLASS
  1
AEC_DISP_REP_DOOR_RCP
  2
AecDbDispRepDoorRcp
  3
AecArchBase
 90
    32897
280
     1
281
     0
  0
CLASS
  1
AEC_DISP_REP_DOOR_NOMINAL
  2
AecDbDispRepDoorNominal
  3
AecArchBase
 90
    32897
280
     1
281
     0
  0
CLASS
  1
AEC_DISP_PROPS_DOOR_NOMINAL
  2
AecDbDispPropsDoorNominal
  3
AecArchBase
 90
    32897
280
     1
281
     0
  0
CLASS
  1
AEC_DISP_REP_DOOR_PLAN
  2
AecDbDispRepDoorPlan
  3
AecArchBase
 90
    32897
280
     1
281
     0
  0
CLASS
  1
AEC_DISP_REP_DOOR_MODEL
  2
AecDbDispRepDoorModel
  3
AecArchBase
 90
    32897
280
     1
281
     0
  0
CLASS
  1
AEC_DISP_REP_MVBLOCK_REF_RCP
  2
AecDbDispRepMvBlockRefRcp
  3
AecArchBase
 90
    32897
280
     1
281
     0
  0
CLASS
  1
AEC_DISP_REP_MASS_GROUP_RCP
  2
AecDbDispRepMassGroupRcp
  3
AecArchBase
 90
    32897
280
     1
281
     0
  0
CLASS
  1
AEC_DISP_REP_MASS_ELEM_RCP
  2
AecDbDispRepMassElemRcp
  3
AecArchBase
 90
    32897
280
     1
281
     0
  0
CLASS
  1
AEC_DISP_REP_MASKBLOCK_REF_RCP
  2
AecDbDispRepMaskBlockRefRcp
  3
AecArchBase
 90
    32897
280
     1
281
     0
  0
CLASS
  1
AEC_DISP_REP_COLUMN_GRID_RCP
  2
AecDbDispRepColumnGridRcp
  3
AecArchBase
 90
    32897
280
     1
281
     0
  0
CLASS
  1
AEC_DISP_REP_COLUMN_GRID_MODEL
  2
AecDbDispRepColumnGridModel
  3
AecArchBase
 90
    32897
280
     1
281
     0
  0
CLASS
  1
AEC_DISP_REP_COLUMN_GRID
  2
AecDbDispRepColumnGrid
  3
AecArchBase
 90
    32897
280
     1
281
     0
  0
CLASS
  1
AEC_DISP_REP_CEILING_GRID_RCP
  2
AecDbDispRepCeilingGridRcp
  3
AecArchBase
 90
    32897
280
     1
281
     0
  0
CLASS
  1
AEC_DISP_REP_CEILING_GRID_MODEL
  2
AecDbDispRepCeilingGridModel
  3
AecArchBase
 90
    32897
280
     1
281
     0
  0
CLASS
  1
AEC_DISP_REP_CEILING_GRID
  2
AecDbDispRepCeilingGrid
  3
AecArchBase
 90
    33661
280
     1
281
     0
  0
CLASS
  1
AEC_DISP_REP_BDG_SECTION_SUBDIV
  2
AecDbDispRepBdgSectionSubDiv
  3
AecArchBase
 90
    32897
280
     1
281
     0
  0
CLASS
  1
AEC_DISP_REP_BDG_SECTION_MODEL
  2
AecDbDispRepBdgSectionModel
  3
AecArchBase
 90
    32897
280
     1
281
     0
  0
CLASS
  1
AEC_DISP_REP_BDG_SECTIONLINE_RCP
  2
AecDbDispRepBdgSectionLineRcp
  3
AecArchBase
 90
    32897
280
     1
281
     0
  0
CLASS
  1
AEC_DISP_REP_BDG_SECTIONLINE_PLAN
  2
AecDbDispRepBdgSectionLinePlan
  3
AecArchBase
 90
    32897
280
     1
281
     0
  0
CLASS
  1
AEC_DISP_REP_BDG_ELEVLINE_RCP
  2
AecDbDispRepBdgElevLineRcp
  3
AecArchBase
 90
    32897
280
     1
281
     0
  0
CLASS
  1
AEC_DISP_REP_BDG_ELEVLINE_PLAN
  2
AecDbDispRepBdgElevLinePlan
  3
AecArchBase
 90
    32897
280
     1
281
     0
  0
CLASS
  1
AEC_DISP_REP_BDG_SECTIONLINE_MODEL
  2
AecDbDispRepBdgSectionLineModel
  3
AecArchBase
 90
    32897
280
     1
281
     0
  0
CLASS
  1
AEC_DISP_REP_BDG_ELEVLINE_MODEL
  2
AecDbDispRepBdgElevLineModel
  3
AecArchBase
 90
    32897
280
     1
281
     0
  0
CLASS
  1
AEC_DISP_REP_ANCHOR_BUB_TO_GRID_RCP
  2
AecDbDispRepAnchorBubToGridRcp
  3
AecArchBase
 90
    32897
280
     1
281
     0
  0
CLASS
  1
AEC_DISP_REP_ANCHOR_BUB_TO_GRID_MODEL
  2
AecDbDispRepAnchorBubToGridMdl
  3
AecArchBase
 90
    32897
280
     1
281
     0
  0
CLASS
  1
AEC_DISP_REP_ANCHOR_BUB_TO_GRID
  2
AecDbDispRepAnchorBubToGrid
  3
AecArchBase
 90
    32897
280
     1
281
     0
  0
CLASS
  1
AEC_DISP_REP_WINDOW_RCP
  2
AecDbDispRepWindowRcp
  3
AecArchBase
 90
    32897
280
     1
281
     0
  0
CLASS
  1
AEC_DISP_PROPS_WINDOW
  2
AecDbDispPropsWindow
  3
AecArchBase
 90
    32897
280
     1
281
     0
  0
CLASS
  1
AEC_DISP_REP_ROOF_RCP
  2
AecDbDispRepRoofRcp
  3
AecArchBase
 90
    32897
280
     1
281
     0
  0
CLASS
  1
AEC_DISP_PROPS_ROOF
  2
AecDbDispPropsRoof
  3
AecArchBase
 90
    32897
280
     1
281
     0
  0
CLASS
  1
AEC_DISP_REP_ROOF_PLAN
  2
AecDbDispRepRoofPlan
  3
AecArchBase
 90
    32897
280
     1
281
     0
  0
CLASS
  1
AEC_DISP_REP_WINDOW_SILL_PLAN
  2
AecDbDispRepWindowSillPlan
  3
AecArchBase
 90
    32897
280
     1
281
     0
  0
CLASS
  1
AEC_DISP_PROPS_WINDOW_SILL_PLAN
  2
AecDbDispPropsWindowSillPlan
  3
AecArchBase
 90
    32897
280
     1
281
     0
  0
CLASS
  1
AEC_DISP_REP_SPACE_PLAN
  2
AecDbDispRepSpacePlan
  3
AecArchBase
 90
    32897
280
     1
281
     0
  0
CLASS
  1
AEC_DISP_PROPS_SPACE_PLAN
  2
AecDbDispPropsSpacePlan
  3
AecArchBase
 90
    32897
280
     1
281
     0
  0
CLASS
  1
AEC_DISP_REP_SPACE_MODEL
  2
AecDbDispRepSpaceModel
  3
AecArchBase
 90
    32897
280
     1
281
     0
  0
CLASS
  1
AEC_DISP_PROPS_SPACE_MODEL
  2
AecDbDispPropsSpaceModel
  3
AecArchBase
 90
    32897
280
     1
281
     0
  0
CLASS
  1
AEC_DISP_REP_WINDOW_MODEL
  2
AecDbDispRepWindowModel
  3
AecArchBase
 90
    32897
280
     1
281
     0
  0
CLASS
  1
AEC_DISP_REP_WINDOW_NOMINAL
  2
AecDbDispRepWindowNominal
  3
AecArchBase
 90
    32897
280
     1
281
     0
  0
CLASS
  1
AEC_DISP_PROPS_WINDOW_NOMINAL
  2
AecDbDispPropsWindowNominal
  3
AecArchBase
 90
    32897
280
     1
281
     0
  0
CLASS
  1
AEC_DISP_REP_OPENING
  2
AecDbDispRepOpening
  3
AecArchBase
 90
    32897
280
     1
281
     0
  0
CLASS
  1
AEC_DISP_PROPS_OPENING
  2
AecDbDispPropsOpening
  3
AecArchBase
 90
    32897
280
     1
281
     0
  0
CLASS
  1
AEC_DISP_REP_OPENING_MODEL
  2
AecDbDispRepOpeningModel
  3
AecArchBase
 90
    32897
280
     1
281
     0
  0
CLASS
  1
AEC_DISP_REP_RAILING_PLAN
  2
AecDbDispRepRailingPlan
  3
AecArchBase
 90
    32897
280
     1
281
     0
  0
CLASS
  1
AEC_DISP_PROPS_RAILING_PLAN
  2
AecDbDispPropsRailingPlan
  3
AecArchBase
 90
    32897
280
     1
281
     0
  0
CLASS
  1
AEC_DISP_REP_RAILING_MODEL
  2
AecDbDispRepRailingModel
  3
AecArchBase
 90
    32897
280
     1
281
     0
  0
CLASS
  1
AEC_DISP_PROPS_RAILING_MODEL
  2
AecDbDispPropsRailingModel
  3
AecArchBase
 90
    32897
280
     1
281
     0
  0
CLASS
  1
AEC_DISP_REP_WINDOW_ELEV
  2
AecDbDispRepWindowElev
  3
AecArchBase
 90
    32897
280
     1
281
     0
  0
CLASS
  1
AEC_DISP_REP_DOOR_THRESHOLD_PLAN
  2
AecDbDispRepDoorThresholdPlan
  3
AecArchBase
 90
    32897
280
     1
281
     0
  0
CLASS
  1
AEC_DISP_PROPS_DOOR_THRESHOLD_PLAN
  2
AecDbDispPropsDoorThresholdPlan
  3
AecArchBase
 90
    32897
280
     1
281
     0
  0
CLASS
  1
AEC_DISP_REP_ROOF_MODEL
  2
AecDbDispRepRoofModel
  3
AecArchBase
 90
    32897
280
     1
281
     0
  0
CLASS
  1
AEC_DISP_REP_WINDOW_PLAN
  2
AecDbDispRepWindowPlan
  3
AecArchBase
 90
    32897
280
     1
281
     0
  0
CLASS
  1
AEC_DISP_REP_WALL_SCHEM
  2
AecDbDispRepWallSchem
  3
AecArchBase
 90
    32897
280
     1
281
     0
  0
CLASS
  1
AEC_DISP_PROPS_WALL_SCHEM
  2
AecDbDispPropsWallSchem
  3
AecArchBase
 90
    32897
280
     1
281
     0
  0
CLASS
  1
AEC_DISP_REP_WALL_RCP
  2
AecDbDispRepWallRcp
  3
AecArchBase
 90
    32897
280
     1
281
     0
  0
CLASS
  1
AEC_DISP_PROPS_WALL_PLAN
  2
AecDbDispPropsWallPlan
  3
AecArchBase
 90
    32897
280
     1
281
     0
  0
CLASS
  1
AEC_DISP_REP_WALL_PLAN
  2
AecDbDispRepWallPlan
  3
AecArchBase
 90
    32897
280
     1
281
     0
  0
CLASS
  1
AEC_DISP_REP_WALL_MODEL
  2
AecDbDispRepWallModel
  3
AecArchBase
 90
    32897
280
     1
281
     0
  0
CLASS
  1
AEC_DISP_PROPS_WALL
  2
AecDbDispPropsWall
  3
AecArchBase
 90
    32897
280
     1
281
     0
  0
CLASS
  1
AEC_DISP_REP_WALL_GRAPH
  2
AecDbDispRepWallGraph
  3
AecArchBase
 90
    32897
280
     1
281
     0
  0
CLASS
  1
AEC_DISP_REP_STAIR_RCP
  2
AecDbDispRepStairRcp
  3
AecArchBase
 90
    32897
280
     1
281
     0
  0
CLASS
  1
AEC_DISP_PROPS_STAIR_PLAN
  2
AecDbDispPropsStairPlan
  3
AecArchBase
 90
    32897
280
     1
281
     0
  0
CLASS
  1
AEC_DISP_REP_STAIR_PLAN
  2
AecDbDispRepStairPlan
  3
AecArchBase
 90
    32897
280
     1
281
     0
  0
CLASS
  1
AEC_DISP_REP_STAIR_MODEL
  2
AecDbDispRepStairModel
  3
AecArchBase
 90
    32897
280
     1
281
     0
  0
CLASS
  1
AEC_DISP_PROPS_STAIR_MODEL
  2
AecDbDispPropsStairModel
  3
AecArchBase
 90
    32897
280
     1
281
     0
  0
CLASS
  1
AEC_DISP_REP_SPACE_BOUNDARY_SCHEM
  2
AecDbDispRepSpaceBoundarySketch
  3
AecArchBase
 90
    32897
280
     1
281
     0
  0
CLASS
  1
AEC_DISP_REP_SPACE_BOUNDARY_PLAN
  2
AecDbDispRepSpaceBoundaryPlan
  3
AecArchBase
 90
    32897
280
     1
281
     0
  0
CLASS
  1
AEC_DISP_REP_SPACE_BOUNDARY_MODEL
  2
AecDbDispRepSpaceBoundaryModel
  3
AecArchBase
 90
    32897
280
     1
281
     0
  0
CLASS
  1
AEC_DISP_REP_SPACE_BOUNDARY_DIAGRAM
  2
AecDbDispRepSpaceBoundaryDgrm
  3
AecArchBase
 90
    32897
280
     1
281
     0
  0
CLASS
  1
AEC_DISP_REP_SPACE_VOLUME
  2
AecDbDispRepSpaceVolume
  3
AecArchBase
 90
    32897
280
     1
281
     0
  0
CLASS
  1
AEC_DISP_REP_SPACE_RCP
  2
AecDbDispRepSpaceRcp
  3
AecArchBase
 90
    32897
280
     1
281
     0
  0
CLASS
  1
AEC_DISP_REP_ANCHOR_TAG_TO_ENT
  2
AecDbDispRepAnchorTagToEnt
  3
AecScheduleData
 90
    32897
280
     1
281
     0
  0
CLASS
  1
AEC_DISP_REP_SCHEDULE_TABLE
  2
AecDbDispRepScheduleTable
  3
AecSchedule
 90
    32897
280
     1
281
     0
  0
CLASS
  1
AEC_DISP_PROPS_SCHEDULE_TABLE
  2
AecDbDispPropsScheduleTable
  3
AecSchedule
 90
    32897
280
     1
281
     0
  0
CLASS
  1
AEC_DISP_REP_SET
  2
AecDbDispRepSet
  3
AecBase
 90
    32897
280
     1
281
     0
  0
CLASS
  1
AEC_DISP_REP_CONFIG
  2
AecDbDispRepConfig
  3
AecBase
 90
    32897
280
     1
281
     0
  0
CLASS
  1
IMAGEDEF
  2
AcDbRasterImageDef
  3
ISM
 90
    32768
280
     0
281
     0
  0
CLASS
  1
IMAGEDEF_REACTOR
  2
AcDbRasterImageDefReactor
  3
ISM
 90
    32769
280
     0
281
     0
  0
CLASS
  1
IMAGE
  2
AcDbRasterImage
  3
ISM
 90
    34943
280
     0
281
     1
  0
CLASS
  1
TABLESTYLE
  2
AcDbTableStyle
  3
ObjectDBX Classes
 90
     4095
280
     0
281
     0
  0
CLASS
  1
MATERIAL
  2
AcDbMaterial
  3
ObjectDBX Classes
 90
     1153
280
     0
281
     0
  0
CLASS
  1
VISUALSTYLE
  2
AcDbVisualStyle
  3
ObjectDBX Classes
 90
     4095
280
     0
281
     0
  0
CLASS
  1
SCALE
  2
AcDbScale
  3
ObjectDBX Classes
 90
     1153
280
     0
281
     0
  0
CLASS
  1
MLEADERSTYLE
  2
AcDbMLeaderStyle
  3
ACDB_MLEADERSTYLE_CLASS
 90
    36863
280
     0
281
     0
  0
CLASS
  1
SORTENTSTABLE
  2
AcDbSortentsTable
  3
ObjectDBX Classes
 90
        0
280
     0
281
     0
  0
CLASS
  1
CELLSTYLEMAP
  2
AcDbCellStyleMap
  3
ObjectDBX Classes
 90
     1152
280
     0
281
     0
  0
CLASS
  1
ACDBSECTIONVIEWSTYLE
  2
AcDbSectionViewStyle
  3
ObjectDBX Classes
 90
    33793
280
     0
281
     0
  0
CLASS
  1
ACDBDETAILVIEWSTYLE
  2
AcDbDetailViewStyle
  3
ObjectDBX Classes
 90
    33793
280
     0
281
     0
  0
CLASS
  1
EXACXREFPANELOBJECT
  2
ExAcXREFPanelObject
  3
EXAC_ESW
 90
    33793
280
     0
281
     0
  0
CLASS
  1
NPOCOLLECTION
  2
AcDbImpNonPersistentObjectsCollection
  3
ObjectDBX Classes
 90
    33921
280
     0
281
     0
  0
ENDSEC
  0
SECTION
  2
TABLES
  0
TABLE
  2
VPORT
  5
34
330
0
100
AcDbSymbolTable
 70
     1
  0
VPORT
  5
35
330
34
100
AcDbSymbolTableRecord
100
AcDbViewportTableRecord
  2
*Active
 70
     0
 10
0.0
 20
0.0
 11
1.0
 21
1.0
 12
193.005485877674
 22
101.2714290027361
 13
0.0
 23
0.0
 14
1.0
 24
1.0
 15
0.0
 25
0.0
 16
0.0
 26
0.0
 36
1.0
 17
0.0
 27
0.0
 37
0.0
 40
381.349300481214
 41
2.095558546433378
 42
50.0
 43
0.0
 44
0.0
 50
0.0
 51
0.0
 71
     0
 72
 20000
 73
     1
 74
     1
 75
     0
 76
     0
 77
     0
 78
     0
281
     0
 65
     1
110
0.0
120
0.0
130
0.0
111
1.0
121
0.0
131
0.0
112
0.0
122
1.0
132
0.0
 79
     0
146
0.0
1001
ACAD_NAV_VCDISPLAY
1070
     3
  0
ENDTAB
  0
TABLE
  2
LTYPE
  5
2F
330
0
100
AcDbSymbolTable
 70
     1
  0
LTYPE
  5
30
330
2F
100
AcDbSymbolTableRecord
100
AcDbLinetypeTableRecord
  2
BYBLOCK
 70
     0
  3

 72
    65
 73
     0
 40
0.0
  0
LTYPE
  5
31
330
2F
100
AcDbSymbolTableRecord
100
AcDbLinetypeTableRecord
  2
BYLAYER
 70
     0
  3

 72
    65
 73
     0
 40
0.0
  0
LTYPE
  5
18
330
2F
100
AcDbSymbolTableRecord
100
AcDbLinetypeTableRecord
  2
CONTINUOUS
 70
     0
  3
Solid line
 72
    65
 73
     0
 40
0.0
  0
ENDTAB
  0
TABLE
  2
LAYER
  5
2B
330
0
100
AcDbSymbolTable
 70
     6
  0
LAYER
  5
7
102
{ACAD_XDICTIONARY
360
8
102
}
330
2B
100
AcDbSymbolTableRecord
100
AcDbLayerTableRecord
  2
0
 70
     0
 62
     7
  6
CONTINUOUS
370
    -3
390
A
  0
LAYER
  5
8C
330
2B
100
AcDbSymbolTableRecord
100
AcDbLayerTableRecord
  2
DEFPOINTS
 70
     0
 62
     7
  6
CONTINUOUS
290
     0
370
    -3
390
A
  0
LAYER
  5
7A
102
{ACAD_XDICTIONARY
360
7B
102
}
330
2B
100
AcDbSymbolTableRecord
100
AcDbLayerTableRecord
  2
SUNPOU
 70
     0
 62
    70
  6
CONTINUOUS
370
    -3
390
A
  0
LAYER
  5
9F
102
{ACAD_XDICTIONARY
360
A0
102
}
330
2B
100
AcDbSymbolTableRecord
100
AcDbLayerTableRecord
  2
KIJUN
 70
     0
 62
     7
  6
CONTINUOUS
370
    -3
390
A
  0
LAYER
  5
1C5
102
{ACAD_XDICTIONARY
360
1C6
102
}
330
2B
100
AcDbSymbolTableRecord
100
AcDbLayerTableRecord
  2
HOJO
 70
     0
 62
     3
  6
CONTINUOUS
370
    -3
390
A
  0
LAYER
  5
1C9
102
{ACAD_XDICTIONARY
360
1CA
102
}
330
2B
100
AcDbSymbolTableRecord
100
AcDbLayerTableRecord
  2
WAKU
 70
     0
 62
     1
  6
CONTINUOUS
370
    -3
390
A
  0
ENDTAB
  0
TABLE
  2
STYLE
  5
2C
330
0
100
AcDbSymbolTable
 70
     3
  0
STYLE
  5
2D
330
2C
100
AcDbSymbolTableRecord
100
AcDbTextStyleTableRecord
  2
STANDARD
 70
     0
 40
0.0
 41
1.0
 50
0.0
 71
     0
 42
0.2
  3
txt
  4

  0
STYLE
  5
51
330
2C
100
AcDbSymbolTableRecord
100
AcDbTextStyleTableRecord
  2
SUNPOU
 70
     0
 40
0.0
 41
1.0
 50
0.0
 71
     0
 42
30.0
  3
txt
  4
bigfont
  0
STYLE
  5
8A
330
2C
100
AcDbSymbolTableRecord
100
AcDbTextStyleTableRecord
  2
LIFE
 70
     0
 40
0.0
 41
0.7
 50
0.0
 71
     0
 42
10.0
  3
romans
  4
extfont
  0
ENDTAB
  0
TABLE
  2
VIEW
  5
32
330
0
100
AcDbSymbolTable
 70
     0
  0
ENDTAB
  0
TABLE
  2
UCS
  5
33
330
0
100
AcDbSymbolTable
 70
     0
  0
ENDTAB
  0
TABLE
  2
APPID
  5
39
330
0
100
AcDbSymbolTable
 70
     2
  0
APPID
  5
D
330
39
100
AcDbSymbolTableRecord
100
AcDbRegAppTableRecord
  2
ACAD
 70
     0
  0
APPID
  5
38
330
39
100
AcDbSymbolTableRecord
100
AcDbRegAppTableRecord
  2
ACAD_NAV_VCDISPLAY
 70
     0
  0
ENDTAB
  0
TABLE
  2
DIMSTYLE
  5
3A
330
0
100
AcDbSymbolTable
 70
     3
100
AcDbDimStyleTable
 71
     1
340
3B
  0
DIMSTYLE
105
3B
330
3A
100
AcDbSymbolTableRecord
100
AcDbDimStyleTableRecord
  2
STANDARD
 70
     0
 41
3.0
 42
2.0
 44
0.0
 73
     0
 74
     0
 77
     1
140
2.799999999999998
141
1.0
146
0.0642857142857143
147
1.0
173
     1
174
     1
176
    60
177
    70
178
    60
271
     0
340
2D
341
3C
343
3C
344
3C
  0
DIMSTYLE
105
90
102
{ACAD_REACTORS
330
79
330
91
102
}
330
3A
100
AcDbSymbolTableRecord
100
AcDbDimStyleTableRecord
  2
STANDARD$0
 70
     0
 40
2.0
 41
1.0
 42
2.0
 43
0.0
 44
1.0
 73
     0
 74
     0
 77
     3
 78
     9
140
4.5
141
0.0
147
1.0
172
     1
173
     1
178
     3
271
     2
340
8A
341
83
343
83
344
83
  0
DIMSTYLE
105
57
330
3A
100
AcDbSymbolTableRecord
100
AcDbDimStyleTableRecord
  2
1
 70
     0
 41
3.0
 42
2.0
 44
0.0
 73
     0
 74
     0
 77
     1
140
7.0
141
1.0
146
0.0642857142857143
147
1.0
173
     1
174
     1
176
    60
177
    70
178
    60
271
     0
340
2D
341
3C
343
3C
344
3C
  0
ENDTAB
  0
TABLE
  2
BLOCK_RECORD
  5
1
330
0
100
AcDbSymbolTable
 70
     4
  0
BLOCK_RECORD
  5
2
102
{ACAD_XDICTIONARY
360
3
102
}
330
1
100
AcDbSymbolTableRecord
100
AcDbBlockTableRecord
  2
*MODEL_SPACE
340
23
  0
BLOCK_RECORD
  5
25
102
{ACAD_XDICTIONARY
360
26
102
}
330
1
100
AcDbSymbolTableRecord
100
AcDbBlockTableRecord
  2
*PAPER_SPACE
340
2A
  0
BLOCK_RECORD
  5
3C
330
1
100
AcDbSymbolTableRecord
100
AcDbBlockTableRecord
  2
_DOTSMALL
340
0
  0
BLOCK_RECORD
  5
83
330
1
100
AcDbSymbolTableRecord
100
AcDbBlockTableRecord
  2
_DOT
340
0
102
{BLKREFS
331
82
331
88
331
97
331
98
102
}
  0
BLOCK_RECORD
  5
7D
330
1
100
AcDbSymbolTableRecord
100
AcDbBlockTableRecord
  2
*D2
340
0
  0
BLOCK_RECORD
  5
92
330
1
100
AcDbSymbolTableRecord
100
AcDbBlockTableRecord
  2
*D3
340
0
  0
ENDTAB
  0
ENDSEC
  0
SECTION
  2
BLOCKS
  0
BLOCK
  5
6
330
2
100
AcDbEntity
  8
0
100
AcDbBlockBegin
  2
*MODEL_SPACE
 70
     0
 10
0.0
 20
0.0
 30
0.0
  3
*MODEL_SPACE
  1

  0
ENDBLK
  5
22
330
2
100
AcDbEntity
  8
0
100
AcDbBlockEnd
  0
BLOCK
  5
28
330
25
100
AcDbEntity
 67
     1
  8
0
100
AcDbBlockBegin
  2
*PAPER_SPACE
 70
     0
 10
0.0
 20
0.0
 30
0.0
  3
*PAPER_SPACE
  1

  0
ENDBLK
  5
29
330
25
100
AcDbEntity
 67
     1
  8
0
100
AcDbBlockEnd
  0
BLOCK
  5
3D
330
3C
100
AcDbEntity
  8
0
100
AcDbBlockBegin
  2
_DOTSMALL
 70
     0
 10
0.0
 20
0.0
 30
0.0
  3
_DOTSMALL
  1

  0
LWPOLYLINE
  5
3E
330
3C
100
AcDbEntity
  8
0
  6
ByBlock
 62
     0
100
AcDbPolyline
 90
        2
 70
     1
 43
0.5
 10
-0.0625
 20
0.0
 42
1.0
 10
0.0625
 20
0.0
 42
1.0
  0
ENDBLK
  5
3F
330
3C
100
AcDbEntity
  8
0
100
AcDbBlockEnd
  0
BLOCK
  5
84
330
83
100
AcDbEntity
  8
0
100
AcDbBlockBegin
  2
_DOT
 70
     0
 10
0.0
 20
0.0
 30
0.0
  3
_DOT
  1

  0
LWPOLYLINE
  5
85
330
83
100
AcDbEntity
  8
0
  6
ByBlock
 62
     0
100
AcDbPolyline
 90
        2
 70
     1
 43
0.5
 10
-0.25
 20
0.0
 42
1.0
 10
0.25
 20
0.0
 42
1.0
  0
LINE
  5
86
330
83
100
AcDbEntity
  8
0
  6
ByBlock
 62
     0
100
AcDbLine
 10
-0.5
 20
0.0
 30
0.0
 11
-1.0
 21
0.0
 31
0.0
  0
ENDBLK
  5
87
330
83
100
AcDbEntity
  8
0
100
AcDbBlockEnd
  0
BLOCK
  5
7E
330
7D
100
AcDbEntity
  8
0
 62
     7
100
AcDbBlockBegin
  2
*D2
 70
     1
 10
0.0
 20
0.0
 30
0.0
  3
*D2
  1

  0
LINE
  5
7F
330
7D
100
AcDbEntity
  8
SUNPOU
 62
    70
370
    -2
100
AcDbLine
 10
124.01684641311
 20
132.3910114620066
 30
0.0
 11
124.01684641311
 21
150.5744911728615
 31
0.0
  0
LINE
  5
80
330
7D
100
AcDbEntity
  8
SUNPOU
 62
    70
370
    -2
100
AcDbLine
 10
34.01684641310999
 20
132.3910114620066
 30
0.0
 11
34.01684641310999
 21
150.5744911728615
 31
0.0
  0
LINE
  5
81
330
7D
100
AcDbEntity
  8
SUNPOU
 62
    60
370
    -2
100
AcDbLine
 10
123.01684641311
 20
150.5744911728615
 30
0.0
 11
35.01684641310999
 21
150.5744911728615
 31
0.0
  0
INSERT
  5
82
330
7D
100
AcDbEntity
  8
SUNPOU
 62
    60
370
    -2
100
AcDbBlockReference
  2
_DOT
 10
124.01684641311
 20
150.5744911728615
 30
0.0
  0
INSERT
  5
88
330
7D
100
AcDbEntity
  8
SUNPOU
 62
    60
370
    -2
100
AcDbBlockReference
  2
_DOT
 10
34.01684641310999
 20
150.5744911728615
 30
0.0
 50
180.0
  0
MTEXT
  5
89
330
7D
100
AcDbEntity
  8
SUNPOU
 62
    60
100
AcDbMText
 10
79.01684641310999
 20
155.5744911728615
 30
0.0
 40
6.0
 41
0.0
 71
     5
 72
     1
  1
\A1;90
  7
LIFE
 73
     1
 44
1.0
1001
ACAD
1000
MTEXTBEGIN
1070
    73
1070
     1
1070
    44
1040
1.0
1070
    74
1070
     0
1000
MTEXTEND
  0
POINT
  5
8B
330
7D
100
AcDbEntity
  8
DEFPOINTS
 62
     0
100
AcDbPoint
 10
124.01684641311
 20
130.3910114620066
 30
0.0
  0
POINT
  5
8D
330
7D
100
AcDbEntity
  8
DEFPOINTS
 62
     0
100
AcDbPoint
 10
34.01684641310999
 20
130.3910114620066
 30
0.0
  0
POINT
  5
8E
330
7D
100
AcDbEntity
  8
DEFPOINTS
 62
     0
100
AcDbPoint
 10
34.01684641310999
 20
150.5744911728615
 30
0.0
  0
ENDBLK
  5
8F
330
7D
100
AcDbEntity
  8
0
 62
     7
100
AcDbBlockEnd
  0
BLOCK
  5
93
330
92
100
AcDbEntity
  8
0
 62
     7
100
AcDbBlockBegin
  2
*D3
 70
     1
 10
0.0
 20
0.0
 30
0.0
  3
*D3
  1

  0
LINE
  5
94
330
92
100
AcDbEntity
  8
SUNPOU
 62
    70
370
    -2
100
AcDbLine
 10
32.01684641311
 20
130.3910114620066
 30
0.0
 11
12.53815984670184
 21
130.3910114620066
 31
0.0
  0
LINE
  5
95
330
92
100
AcDbEntity
  8
SUNPOU
 62
    70
370
    -2
100
AcDbLine
 10
32.01684641310999
 20
30.39101146200671
 30
0.0
 11
12.53815984670182
 21
30.39101146200672
 31
0.0
  0
LINE
  5
96
330
92
100
AcDbEntity
  8
SUNPOU
 62
    60
370
    -2
100
AcDbLine
 10
12.53815984670184
 20
129.3910114620066
 30
0.0
 11
12.53815984670182
 21
31.39101146200671
 31
0.0
  0
INSERT
  5
97
330
92
100
AcDbEntity
  8
SUNPOU
 62
    60
370
    -2
100
AcDbBlockReference
  2
_DOT
 10
12.53815984670184
 20
130.3910114620066
 30
0.0
 50
90.0
  0
INSERT
  5
98
330
92
100
AcDbEntity
  8
SUNPOU
 62
    60
370
    -2
100
AcDbBlockReference
  2
_DOT
 10
12.53815984670182
 20
30.39101146200672
 30
0.0
 50
270.0
  0
MTEXT
  5
99
330
92
100
AcDbEntity
  8
SUNPOU
 62
    60
100
AcDbMText
 10
7.538159846701821
 20
80.39101146200668
 30
0.0
 40
6.0
 41
0.0
 71
     5
 72
     1
  1
\A1;100
  7
LIFE
 11
0.0000000000000001
 21
1.0
 31
0.0
 73
     1
 44
1.0
1001
ACAD
1000
MTEXTBEGIN
1070
    73
1070
     1
1070
    44
1040
1.0
1070
    74
1070
     0
1000
MTEXTEND
  0
POINT
  5
9A
330
92
100
AcDbEntity
  8
DEFPOINTS
 62
     0
100
AcDbPoint
 10
34.01684641311
 20
130.3910114620066
 30
0.0
  0
POINT
  5
9B
330
92
100
AcDbEntity
  8
DEFPOINTS
 62
     0
100
AcDbPoint
 10
34.01684641310999
 20
30.39101146200671
 30
0.0
  0
POINT
  5
9C
330
92
100
AcDbEntity
  8
DEFPOINTS
 62
     0
100
AcDbPoint
 10
12.53815984670182
 20
30.39101146200672
 30
0.0
  0
ENDBLK
  5
9D
330
92
100
AcDbEntity
  8
0
 62
     7
100
AcDbBlockEnd
  0
ENDSEC
  0
SECTION
  2
ENTITIES
  0
DIMENSION
  5
79
330
2
100
AcDbEntity
  8
SUNPOU
100
AcDbDimension
  2
*D2
 10
34.01684641310999
 20
150.5744911728615
 30
0.0
 11
79.01684641310999
 21
155.5744911728615
 31
0.0
 71
     5
 42
90.0
  3
STANDARD$0
100
AcDbAlignedDimension
 13
124.01684641311
 23
130.3910114620066
 33
0.0
 14
34.01684641310999
 24
130.3910114620066
 34
0.0
 50
180.0
100
AcDbRotatedDimension
1001
ACAD
1000
DSTYLE
1002
{
1070
    41
1040
0.5
1070
    42
1040
1.0
1070
    44
1040
0.0
1070
    77
1070
     1
1070
    78
1070
     0
1070
   140
1040
3.0
1070
   141
1040
1.0
1070
   146
1040
0.0642857142857143
1070
   172
1070
     0
1070
   176
1070
    60
1070
   177
1070
    70
1070
   178
1070
    60
1070
   271
1070
     0
1070
   272
1070
     0
1070
   341
1005
0
1002
}
  0
DIMENSION
  5
91
330
2
100
AcDbEntity
  8
SUNPOU
100
AcDbDimension
  2
*D3
 10
12.53815984670182
 20
30.39101146200672
 30
0.0
 11
7.538159846701821
 21
80.39101146200668
 31
0.0
 71
     5
 42
99.99999999999991
  3
STANDARD$0
100
AcDbAlignedDimension
 13
34.01684641311
 23
130.3910114620066
 33
0.0
 14
34.01684641310999
 24
30.39101146200671
 34
0.0
 50
90.0
100
AcDbRotatedDimension
1001
ACAD
1000
DSTYLE
1002
{
1070
    41
1040
0.5
1070
    42
1040
1.0
1070
    44
1040
0.0
1070
    77
1070
     1
1070
    78
1070
     0
1070
   140
1040
3.0
1070
   141
1040
1.0
1070
   146
1040
0.0642857142857143
1070
   172
1070
     0
1070
   176
1070
    60
1070
   177
1070
    70
1070
   178
1070
    60
1070
   271
1070
     0
1070
   272
1070
     0
1070
   341
1005
0
1002
}
  0
LINE
  5
9E
330
2
100
AcDbEntity
  8
KIJUN
100
AcDbLine
 10
163.4357379815635
 20
130.3910114620066
 30
0.0
 11
441.122810788513
 21
130.3910114620066
 31
0.0
  0
LINE
  5
A2
330
2
100
AcDbEntity
  8
KIJUN
100
AcDbLine
 10
153.1228107885132
 20
30.3910114620067
 30
0.0
 11
441.122810788513
 21
30.3910114620067
 31
0.0
  0
LINE
  5
A3
330
2
100
AcDbEntity
  8
KIJUN
100
AcDbLine
 10
153.1228107885132
 20
130.3910114620066
 30
0.0
 11
441.122810788513
 21
130.3910114620066
 31
0.0
  0
LINE
  5
A4
330
2
100
AcDbEntity
  8
KIJUN
100
AcDbLine
 10
153.1228107885132
 20
123.3910114620067
 30
0.0
 11
441.122810788513
 21
123.3910114620067
 31
0.0
  0
LINE
  5
A5
330
2
100
AcDbEntity
  8
KIJUN
100
AcDbLine
 10
153.1228107885132
 20
111.3910114620066
 30
0.0
 11
441.122810788513
 21
111.3910114620066
 31
0.0
  0
LINE
  5
A6
330
2
100
AcDbEntity
  8
KIJUN
100
AcDbLine
 10
153.1228107885132
 20
104.3433653888128
 30
0.0
 11
441.122810788513
 21
104.3433653888128
 31
0.0
  0
LINE
  5
A7
330
2
100
AcDbEntity
  8
KIJUN
100
AcDbLine
 10
153.1228107885132
 20
42.3910114620067
 30
0.0
 11
441.122810788513
 21
42.3910114620067
 31
0.0
  0
LINE
  5
A8
330
2
100
AcDbEntity
  8
KIJUN
100
AcDbLine
 10
153.1228107885132
 20
62.3910114620067
 30
0.0
 11
441.122810788513
 21
62.3910114620067
 31
0.0
  0
LINE
  5
A9
330
2
100
AcDbEntity
  8
KIJUN
100
AcDbLine
 10
153.1228107885131
 20
96.89847531912867
 30
0.0
 11
314.0265929187188
 21
96.89847531912867
 31
0.0
  0
ARC
  5
AA
330
2
100
AcDbEntity
  8
KIJUN
100
AcDbCircle
 10
189.1228107885132
 20
140.4491634537286
 30
0.0
 40
56.50364976704765
100
AcDbArc
 50
230.4220819364499
 51
309.5779180635505
  0
ARC
  5
AB
330
2
100
AcDbEntity
  8
KIJUN
100
AcDbCircle
 10
189.1228107885132
 20
121.9177152595134
 30
0.0
 40
46.26026660877874
100
AcDbArc
 50
218.9034229320125
 51
317.3254016329935
  0
LINE
  5
AC
330
2
100
AcDbEntity
  8
KIJUN
100
AcDbLine
 10
225.1228107885132
 20
67.14652241317338
 30
0.0
 11
222.2645435470433
 21
89.64330098942246
 31
0.0
  0
LINE
  5
AD
330
2
100
AcDbEntity
  8
KIJUN
100
AcDbLine
 10
225.1228107885132
 20
67.14652241317338
 30
0.0
 11
227.2038957330219
 21
90.46108689324295
 31
0.0
  0
ARC
  5
AE
330
2
100
AcDbEntity
  8
KIJUN
100
AcDbCircle
 10
261.1228107885132
 20
121.9177152595134
 30
0.0
 40
46.26026660877874
100
AcDbArc
 50
220.560511797433
 51
321.0965770679875
  0
ARC
  5
AF
330
2
100
AcDbEntity
  8
KIJUN
100
AcDbCircle
 10
261.1228107885132
 20
140.4491634537286
 30
0.0
 40
56.50364976704765
100
AcDbArc
 50
230.4220819364499
 51
309.5779180635501
  0
ARC
  5
B0
330
2
100
AcDbEntity
  8
KIJUN
100
AcDbCircle
 10
226.1828377083659
 20
84.63722604554876
 30
0.0
 40
9.428432294272036
100
AcDbArc
 50
129.8257371026884
 51
178.9032619304508
  0
ARC
  5
B1
330
2
100
AcDbEntity
  8
KIJUN
100
AcDbCircle
 10
213.7423380794181
 20
97.89243093495224
 30
0.0
 40
8.783876856909097
100
AcDbArc
 50
263.9986812004665
 51
316.7889932615147
  0
ARC
  5
B2
330
2
100
AcDbEntity
  8
KIJUN
100
AcDbCircle
 10
234.0944916482089
 20
80.7587250545553
 30
0.0
 40
20.44172106418944
100
AcDbArc
 50
185.4154186581054
 51
243.9668764346825
  0
ARC
  5
B3
330
2
100
AcDbEntity
  8
KIJUN
100
AcDbCircle
 10
205.4944522455717
 20
72.74392411965279
 30
0.0
 40
12.4439982809615
100
AcDbArc
 50
303.699361088388
 51
342.5450090069495
  0
ARC
  5
B4
330
2
100
AcDbEntity
  8
KIJUN
100
AcDbCircle
 10
219.3031875561965
 20
72.74392411965279
 30
0.0
 40
12.4439982809615
100
AcDbArc
 50
190.1390785579932
 51
236.300638911612
  0
ARC
  5
B5
330
2
100
AcDbEntity
  8
KIJUN
100
AcDbCircle
 10
180.4231278041105
 20
86.82413163341136
 30
0.0
 40
31.88954640405213
100
AcDbArc
 50
309.9879503546646
 51
350.6580719472929
  0
ARC
  5
B6
330
2
100
AcDbEntity
  8
KIJUN
100
AcDbCircle
 10
219.8205199048017
 20
85.57185147177058
 30
0.0
 40
29.87492159091346
100
AcDbArc
 50
199.2453948725854
 51
230.8894018059904
  0
ARC
  5
B7
330
2
100
AcDbEntity
  8
KIJUN
100
AcDbCircle
 10
196.02759649047
 20
72.74392411965279
 30
0.0
 40
12.4439982809615
100
AcDbArc
 50
192.9168459833731
 51
236.300638911612
  0
ARC
  5
B8
330
2
100
AcDbEntity
  8
KIJUN
100
AcDbCircle
 10
182.2188611798452
 20
72.74392411965279
 30
0.0
 40
12.4439982809615
100
AcDbArc
 50
303.699361088388
 51
347.0831540166269
  0
ARC
  5
B9
330
2
100
AcDbEntity
  8
KIJUN
100
AcDbCircle
 10
158.4259377655135
 20
85.57185147177058
 30
0.0
 40
29.87492159091346
100
AcDbArc
 50
309.1105981940097
 51
340.7546051274147
  0
ARC
  5
BA
330
2
100
AcDbEntity
  8
KIJUN
100
AcDbCircle
 10
197.8233298662047
 20
86.82413163341136
 30
0.0
 40
31.88954640405213
100
AcDbArc
 50
189.3419280527072
 51
230.0120496453355
  0
ARC
  5
BB
330
2
100
AcDbEntity
  8
KIJUN
100
AcDbCircle
 10
158.9432701141186
 20
72.74392411965279
 30
0.0
 40
12.4439982809615
100
AcDbArc
 50
303.699361088388
 51
345.3757083066217
  0
ARC
  5
BC
330
2
100
AcDbEntity
  8
KIJUN
100
AcDbCircle
 10
172.7520054247433
 20
72.74392411965279
 30
0.0
 40
12.4439982809615
100
AcDbArc
 50
197.4549909930505
 51
236.300638911612
  0
ARC
  5
BD
330
2
100
AcDbEntity
  8
KIJUN
100
AcDbCircle
 10
136.1509859697565
 20
85.17927923779661
 30
0.0
 40
28.41436901738957
100
AcDbArc
 50
306.6786746850173
 51
355.1516108634674
  0
ARC
  5
BE
330
2
100
AcDbEntity
  8
KIJUN
100
AcDbCircle
 10
270.9532539895713
 20
72.73108234802286
 30
0.0
 40
69.93941451608829
100
AcDbArc
 50
176.2946268610442
 51
183.2973842162347
  0
ARC
  5
BF
330
2
100
AcDbEntity
  8
KIJUN
100
AcDbCircle
 10
118.9461284297236
 20
61.63342646396158
 30
0.0
 40
82.48746033948988
100
AcDbArc
 50
16.21791479955658
 51
23.78539328679691
  0
LINE
  5
C0
330
2
100
AcDbEntity
  8
KIJUN
100
AcDbLine
 10
189.1232288351576
 20
95.75617703256318
 30
0.0
 11
189.1232288351576
 21
85.7639265837297
 31
0.0
  0
ARC
  5
C1
330
2
100
AcDbEntity
  8
KIJUN
100
AcDbCircle
 10
257.45021677459
 20
61.63342646396158
 30
0.0
 40
82.48746033948988
100
AcDbArc
 50
168.9689477235501
 51
175.0797655321506
  0
ARC
  5
C2
330
2
100
AcDbEntity
  8
KIJUN
100
AcDbCircle
 10
105.4430912147423
 20
72.73108234802286
 30
0.0
 40
69.93941451608829
100
AcDbArc
 50
10.91513625990249
 51
18.29354274218471
  0
ARC
  5
C3
330
2
100
AcDbEntity
  8
KIJUN
100
AcDbCircle
 10
270.9532539895713
 20
72.73108234802286
 30
0.0
 40
69.93941451608829
100
AcDbArc
 50
161.7064572578153
 51
169.5004084032843
  0
ARC
  5
C4
330
2
100
AcDbEntity
  8
KIJUN
100
AcDbCircle
 10
118.9461284297236
 20
61.63342646396158
 30
0.0
 40
82.48746033948988
100
AcDbArc
 50
4.920234467849353
 51
10.70382579074639
  0
ARC
  5
C5
330
2
100
AcDbEntity
  8
KIJUN
100
AcDbCircle
 10
257.45021677459
 20
61.63342646396158
 30
0.0
 40
82.48746033948988
100
AcDbArc
 50
156.2146067132031
 51
163.5554986850976
  0
ARC
  5
C6
330
2
100
AcDbEntity
  8
KIJUN
100
AcDbCircle
 10
105.4430912147423
 20
72.73108234802286
 30
0.0
 40
69.93941451608829
100
AcDbArc
 50
356.7026157837655
 51
4.158536272192045
  0
LINE
  5
C7
330
2
100
AcDbEntity
  8
KIJUN
100
AcDbLine
 10
211.9775647298305
 20
95.75617703256318
 30
0.0
 11
211.9775647298305
 21
88.7739986327141
 31
0.0
  0
LINE
  5
C8
330
2
100
AcDbEntity
  8
KIJUN
100
AcDbLine
 10
165.3982516407231
 20
95.75617703256318
 30
0.0
 11
165.3982516407231
 21
89.1541805085329
 31
0.0
  0
ARC
  5
C9
330
2
100
AcDbEntity
  8
KIJUN
100
AcDbCircle
 10
164.5041195908971
 20
97.89243093495224
 30
0.0
 40
8.783876856909097
100
AcDbArc
 50
223.2110067384854
 51
276.0013187995339
  0
ARC
  5
CA
330
2
100
AcDbEntity
  8
KIJUN
100
AcDbCircle
 10
152.0636199619493
 20
84.63722604554876
 30
0.0
 40
9.428432294272036
100
AcDbArc
 50
1.096738069549184
 51
50.17426289731159
  0
LINE
  5
CB
330
2
100
AcDbEntity
  8
KIJUN
100
AcDbLine
 10
153.1236468818019
 20
67.14652241317338
 30
0.0
 11
154.9026895110187
 21
90.78902163981807
 31
0.0
  0
ELLIPSE
  5
CC
330
2
100
AcDbEntity
  8
KIJUN
100
AcDbEllipse
 10
194.0701127928774
 20
98.73330066795769
 30
0.0
 11
-2.389963804805883
 21
0.0373592278348856
 31
0.0
210
0.0
220
0.0
230
-1.0
 40
0.5510643409297816
 41
0.0
 42
6.283185307179584
  0
ELLIPSE
  5
CD
330
2
100
AcDbEntity
  8
KIJUN
100
AcDbEllipse
 10
221.0120396295634
 20
102.3849637693643
 30
0.0
 11
-1.873453727249495
 21
0.0
 31
0.0
210
0.0
220
0.0
230
-1.0
 40
0.4684402150475738
 41
0.0
 42
6.283185307179584
  0
ARC
  5
CE
330
2
100
AcDbEntity
  8
KIJUN
100
AcDbCircle
 10
219.0698432340744
 20
109.1581084859219
 30
0.0
 40
10.50323071534851
100
AcDbArc
 50
242.2461021220273
 51
304.6773232919325
  0
ARC
  5
CF
330
2
100
AcDbEntity
  8
KIJUN
100
AcDbCircle
 10
200.4319460549154
 20
80.07837371032639
 30
0.0
 40
24.09179432853961
100
AcDbArc
 50
55.20783620553148
 51
85.92115862272438
  0
ARC
  5
D0
330
2
100
AcDbEntity
  8
KIJUN
100
AcDbCircle
 10
221.7048226680518
 20
99.84391700617589
 30
0.0
 40
3.408712577525101
100
AcDbArc
 50
137.2387660958082
 51
141.6154591953374
  0
ARC
  5
D1
330
2
100
AcDbEntity
  8
KIJUN
100
AcDbCircle
 10
221.7048226680518
 20
99.84391700617589
 30
0.0
 40
3.408712577525101
100
AcDbArc
 50
11.44973132918588
 51
94.72181038945906
  0
ARC
  5
D2
330
2
100
AcDbEntity
  8
KIJUN
100
AcDbCircle
 10
218.1408143307128
 20
105.8160364962599
 30
0.0
 40
8.701687079061214
100
AcDbArc
 50
241.984105840116
 51
322.5148470676276
  0
ARC
  5
D3
330
2
100
AcDbEntity
  8
KIJUN
100
AcDbCircle
 10
193.0526842128876
 20
57.20360368255789
 30
0.0
 40
46.00363140674708
100
AcDbArc
 50
62.83830636414627
 51
76.1794372811734
  0
ARC
  5
D4
330
2
100
AcDbEntity
  8
KIJUN
100
AcDbCircle
 10
199.2738441403304
 20
85.37198952793261
 30
0.0
 40
17.17841416680007
100
AcDbArc
 50
73.8845436522146
 51
109.9967082267006
  0
ARC
  5
D5
330
2
100
AcDbEntity
  8
KIJUN
100
AcDbCircle
 10
193.895233718069
 20
99.26820377291662
 30
0.0
 40
2.300617424274385
100
AcDbArc
 50
102.4459536269807
 51
199.5655944024836
  0
ARC
  5
D6
330
2
100
AcDbEntity
  8
KIJUN
100
AcDbCircle
 10
198.9987598870355
 20
76.64983156664928
 30
0.0
 40
27.63903771957594
100
AcDbArc
 50
83.46247268018364
 51
108.6575165607909
  0
ARC
  5
D7
330
2
100
AcDbEntity
  8
KIJUN
100
AcDbCircle
 10
193.6504712842833
 20
102.2217911723121
 30
0.0
 40
4.191228366718862
100
AcDbArc
 50
185.987168317984
 51
242.6890865958176
  0
ARC
  5
D8
330
2
100
AcDbEntity
  8
KIJUN
100
AcDbCircle
 10
190.4766501744102
 20
101.8889277602726
 30
0.0
 40
0.9999999999999998
100
AcDbArc
 50
108.6575165607913
 51
185.9871683179838
  0
ARC
  5
D9
330
2
100
AcDbEntity
  8
KIJUN
100
AcDbCircle
 10
196.9935328155945
 20
89.2025632351441
 30
0.0
 40
12.53345335305288
100
AcDbArc
 50
61.70567040525062
 51
87.68925099372033
  0
ARC
  5
DA
330
2
100
AcDbEntity
  8
KIJUN
100
AcDbCircle
 10
202.3293481714082
 20
99.1398626962426
 30
0.0
 40
1.254295007565215
100
AcDbArc
 50
334.6747873779846
 51
61.15861846023179
  0
ARC
  5
DB
330
2
100
AcDbEntity
  8
KIJUN
100
AcDbCircle
 10
204.6509772664071
 20
99.04650854008849
 30
0.0
 40
1.916063292979293
100
AcDbArc
 50
251.9404519607387
 51
287.8122513174801
  0
ARC
  5
DC
330
2
100
AcDbEntity
  8
KIJUN
100
AcDbCircle
 10
208.5720865545917
 20
131.1625948538451
 30
0.0
 40
34.02359959944309
100
AcDbArc
 50
265.0384569195011
 51
280.741110906474
  0
ARC
  5
DD
330
2
100
AcDbEntity
  8
KIJUN
100
AcDbCircle
 10
204.3669928186349
 20
98.17557525322461
 30
0.0
 40
0.9999999999999998
100
AcDbArc
 50
154.6747873779849
 51
251.9404519607391
  0
ARC
  5
DE
330
2
100
AcDbEntity
  8
KIJUN
100
AcDbCircle
 10
205.5429977845675
 20
96.2702296413029
 30
0.0
 40
0.9999999999999998
100
AcDbArc
 50
85.03845691949903
 51
107.8122513174801
  0
ARC
  5
DF
330
2
100
AcDbEntity
  8
KIJUN
100
AcDbCircle
 10
172.7034598857478
 20
96.2702296413029
 30
0.0
 40
0.9999999999999998
100
AcDbArc
 50
72.18774868251988
 51
94.96154308050099
  0
ARC
  5
E0
330
2
100
AcDbEntity
  8
KIJUN
100
AcDbCircle
 10
177.8145116153998
 20
80.07837371032639
 30
0.0
 40
24.09179432853961
100
AcDbArc
 50
94.07884137727565
 51
124.7921637944685
  0
ARC
  5
E1
330
2
100
AcDbEntity
  8
KIJUN
100
AcDbCircle
 10
185.1937734574276
 20
57.20360368255789
 30
0.0
 40
46.00363140674708
100
AcDbArc
 50
103.8205627188266
 51
117.1616936358537
  0
ELLIPSE
  5
E2
330
2
100
AcDbEntity
  8
KIJUN
100
AcDbEllipse
 10
157.2344180407518
 20
102.3849637693643
 30
0.0
 11
1.873453727249495
 21
0.0
 31
0.0
210
0.0
220
0.0
230
1.0
 40
0.4684402150475738
 41
0.0
 42
6.283185307179584
  0
ARC
  5
E3
330
2
100
AcDbEntity
  8
KIJUN
100
AcDbCircle
 10
160.1056433396023
 20
105.8160364962599
 30
0.0
 40
8.701687079061214
100
AcDbArc
 50
217.4851529323724
 51
298.015894159884
  0
ARC
  5
E4
330
2
100
AcDbEntity
  8
KIJUN
100
AcDbCircle
 10
156.5416350022635
 20
99.84391700617589
 30
0.0
 40
3.408712577525101
100
AcDbArc
 50
85.27818961054093
 51
168.5502686708141
  0
ARC
  5
E5
330
2
100
AcDbEntity
  8
KIJUN
100
AcDbCircle
 10
159.1766144362408
 20
109.1581084859219
 30
0.0
 40
10.50323071534851
100
AcDbArc
 50
235.3226767080675
 51
297.7538978779727
  0
ARC
  5
E6
330
2
100
AcDbEntity
  8
KIJUN
100
AcDbCircle
 10
156.5416350022635
 20
99.84391700617589
 30
0.0
 40
3.408712577525101
100
AcDbArc
 50
38.38454080466265
 51
42.76123390419174
  0
ARC
  5
E7
330
2
100
AcDbEntity
  8
KIJUN
100
AcDbCircle
 10
169.6743711157236
 20
131.1625948538451
 30
0.0
 40
34.02359959944309
100
AcDbArc
 50
259.258889093526
 51
274.9615430804989
  0
ELLIPSE
  5
E8
330
2
100
AcDbEntity
  8
KIJUN
100
AcDbEllipse
 10
184.1763448774377
 20
98.73330066795769
 30
0.0
 11
2.389963804805883
 21
0.0373592278348856
 31
0.0
210
0.0
220
0.0
230
1.0
 40
0.5510643409297816
 41
0.0
 42
6.283185307179584
  0
ARC
  5
E9
330
2
100
AcDbEntity
  8
KIJUN
100
AcDbCircle
 10
187.769807495905
 20
101.8889277602726
 30
0.0
 40
0.9999999999999998
100
AcDbArc
 50
354.0128316820163
 51
71.34248343920869
  0
ARC
  5
EA
330
2
100
AcDbEntity
  8
KIJUN
100
AcDbCircle
 10
178.9726135299849
 20
85.37198952793261
 30
0.0
 40
17.17841416680007
100
AcDbArc
 50
70.00329177329934
 51
106.1154563477854
  0
ARC
  5
EB
330
2
100
AcDbEntity
  8
KIJUN
100
AcDbCircle
 10
181.2529248547207
 20
89.2025632351441
 30
0.0
 40
12.53345335305288
100
AcDbArc
 50
92.31074900627966
 51
118.2943295947494
  0
ARC
  5
EC
330
2
100
AcDbEntity
  8
KIJUN
100
AcDbCircle
 10
173.5954804039081
 20
99.04650854008849
 30
0.0
 40
1.916063292979293
100
AcDbArc
 50
252.1877486825198
 51
288.0595480392612
  0
ARC
  5
ED
330
2
100
AcDbEntity
  8
KIJUN
100
AcDbCircle
 10
175.917109498907
 20
99.1398626962426
 30
0.0
 40
1.254295007565215
100
AcDbArc
 50
118.8413815397682
 51
205.3252126220153
  0
ARC
  5
EE
330
2
100
AcDbEntity
  8
KIJUN
100
AcDbCircle
 10
173.8794648516803
 20
98.17557525322461
 30
0.0
 40
0.9999999999999998
100
AcDbArc
 50
288.0595480392608
 51
25.32521262201515
  0
ARC
  5
EF
330
2
100
AcDbEntity
  8
KIJUN
100
AcDbCircle
 10
184.595986386032
 20
102.2217911723121
 30
0.0
 40
4.191228366718862
100
AcDbArc
 50
297.3109134041824
 51
354.0128316820162
  0
ARC
  5
F0
330
2
100
AcDbEntity
  8
KIJUN
100
AcDbCircle
 10
184.3512239522462
 20
99.26820377291662
 30
0.0
 40
2.300617424274385
100
AcDbArc
 50
340.4344055975163
 51
77.55404637301971
  0
ARC
  5
F1
330
2
100
AcDbEntity
  8
KIJUN
100
AcDbCircle
 10
179.2476977832797
 20
76.64983156664928
 30
0.0
 40
27.63903771957594
100
AcDbArc
 50
71.34248343920912
 51
96.53752731981636
  0
ARC
  5
F2
330
2
100
AcDbEntity
  8
KIJUN
100
AcDbCircle
 10
244.7026237924588
 20
96.2702296413029
 30
0.0
 40
0.9999999999999998
100
AcDbArc
 50
72.18774868251988
 51
94.96154308050099
  0
ARC
  5
F3
330
2
100
AcDbEntity
  8
KIJUN
100
AcDbCircle
 10
249.813675522111
 20
80.07837371032639
 30
0.0
 40
24.09179432853961
100
AcDbArc
 50
94.07884137727565
 51
124.7921637944685
  0
ARC
  5
F4
330
2
100
AcDbEntity
  8
KIJUN
100
AcDbCircle
 10
257.1929373641388
 20
57.20360368255789
 30
0.0
 40
46.00363140674708
100
AcDbArc
 50
103.8205627188266
 51
117.1616936358537
  0
ARC
  5
F5
330
2
100
AcDbEntity
  8
KIJUN
100
AcDbCircle
 10
269.8224937729159
 20
86.82413163341136
 30
0.0
 40
31.88954640405213
100
AcDbArc
 50
189.3419280527072
 51
230.0120496453355
  0
ARC
  5
F6
330
2
100
AcDbEntity
  8
KIJUN
100
AcDbCircle
 10
261.1228107885132
 20
121.9177152595134
 30
0.0
 40
46.26026660877874
100
AcDbArc
 50
222.674598367007
 51
321.0965770679875
  0
ARC
  5
F7
330
2
100
AcDbEntity
  8
KIJUN
100
AcDbCircle
 10
261.1228107885132
 20
140.4491634537286
 30
0.0
 40
56.50364976704765
100
AcDbArc
 50
230.4220819364499
 51
309.5779180635501
  0
ARC
  5
F8
330
2
100
AcDbEntity
  8
KIJUN
100
AcDbCircle
 10
244.7511693314546
 20
72.74392411965279
 30
0.0
 40
12.4439982809615
100
AcDbArc
 50
197.4549909930505
 51
236.300638911612
  0
ARC
  5
F9
330
2
100
AcDbEntity
  8
KIJUN
100
AcDbCircle
 10
230.9424340208297
 20
72.74392411965279
 30
0.0
 40
12.4439982809615
100
AcDbArc
 50
303.699361088388
 51
349.8609214420068
  0
ARC
  5
FA
330
2
100
AcDbEntity
  8
KIJUN
100
AcDbCircle
 10
216.1511299288173
 20
80.7587250545553
 30
0.0
 40
20.44172106418944
100
AcDbArc
 50
296.0331235653175
 51
354.5845813418946
  0
ELLIPSE
  5
FB
330
2
100
AcDbEntity
  8
KIJUN
100
AcDbEllipse
 10
229.2335819474629
 20
102.3849637693643
 30
0.0
 11
1.873453727249495
 21
0.0
 31
0.0
210
0.0
220
0.0
230
1.0
 40
0.4684402150475738
 41
0.0
 42
6.283185307179584
  0
LINE
  5
FC
330
2
100
AcDbEntity
  8
KIJUN
100
AcDbLine
 10
238.2680568471959
 20
95.75617703256318
 30
0.0
 11
238.2680568471959
 21
88.7739986327141
 31
0.0
  0
ARC
  5
FD
330
2
100
AcDbEntity
  8
KIJUN
100
AcDbCircle
 10
236.5032834976083
 20
97.89243093495224
 30
0.0
 40
8.783876856909097
100
AcDbArc
 50
223.2110067384854
 51
276.0013187995339
  0
ARC
  5
FE
330
2
100
AcDbEntity
  8
KIJUN
100
AcDbCircle
 10
224.0627838686604
 20
84.63722604554876
 30
0.0
 40
9.428432294272036
100
AcDbArc
 50
1.096738069549184
 51
50.17426289731159
  0
LINE
  5
FF
330
2
100
AcDbEntity
  8
KIJUN
100
AcDbLine
 10
225.1228107885132
 20
67.14652241317338
 30
0.0
 11
227.9810780299829
 21
89.64330098942246
 31
0.0
  0
ARC
  5
100
330
2
100
AcDbEntity
  8
KIJUN
100
AcDbCircle
 10
232.1048072463135
 20
105.8160364962599
 30
0.0
 40
8.701687079061214
100
AcDbArc
 50
217.4851529323724
 51
298.015894159884
  0
ARC
  5
101
330
2
100
AcDbEntity
  8
KIJUN
100
AcDbCircle
 10
228.5407989089744
 20
99.84391700617589
 30
0.0
 40
3.408712577525101
100
AcDbArc
 50
85.27818961054093
 51
168.5502686708141
  0
ARC
  5
102
330
2
100
AcDbEntity
  8
KIJUN
100
AcDbCircle
 10
231.1757783429519
 20
109.1581084859219
 30
0.0
 40
10.50323071534851
100
AcDbArc
 50
235.3226767080675
 51
297.7538978779727
  0
ARC
  5
103
330
2
100
AcDbEntity
  8
KIJUN
100
AcDbCircle
 10
228.5407989089744
 20
99.84391700617589
 30
0.0
 40
3.408712577525101
100
AcDbArc
 50
38.38454080466265
 51
42.76123390419174
  0
ARC
  5
104
330
2
100
AcDbEntity
  8
KIJUN
100
AcDbCircle
 10
241.6735350224347
 20
131.1625948538451
 30
0.0
 40
34.02359959944309
100
AcDbArc
 50
259.258889093526
 51
274.9615430804989
  0
ARC
  5
105
330
2
100
AcDbEntity
  8
KIJUN
100
AcDbCircle
 10
314.0946356072699
 20
85.17927923779661
 30
0.0
 40
28.41436901738957
100
AcDbArc
 50
184.8483891365326
 51
233.3213253149827
  0
ARC
  5
106
330
2
100
AcDbEntity
  8
KIJUN
100
AcDbCircle
 10
291.3023514629077
 20
72.74392411965279
 30
0.0
 40
12.4439982809615
100
AcDbArc
 50
194.6242916933784
 51
236.300638911612
  0
ARC
  5
107
330
2
100
AcDbEntity
  8
KIJUN
100
AcDbCircle
 10
254.2180250865564
 20
72.74392411965279
 30
0.0
 40
12.4439982809615
100
AcDbArc
 50
303.699361088388
 51
347.0831540166269
  0
ARC
  5
108
330
2
100
AcDbEntity
  8
KIJUN
100
AcDbCircle
 10
277.493616152283
 20
72.74392411965279
 30
0.0
 40
12.4439982809615
100
AcDbArc
 50
303.699361088388
 51
342.5450090069495
  0
ARC
  5
109
330
2
100
AcDbEntity
  8
KIJUN
100
AcDbCircle
 10
252.4222917108217
 20
86.82413163341136
 30
0.0
 40
31.88954640405213
100
AcDbArc
 50
309.9879503546646
 51
350.6580719472929
  0
ARC
  5
10A
330
2
100
AcDbEntity
  8
KIJUN
100
AcDbCircle
 10
291.8196838115128
 20
85.57185147177058
 30
0.0
 40
29.87492159091346
100
AcDbArc
 50
199.2453948725854
 51
230.8894018059904
  0
ARC
  5
10B
330
2
100
AcDbEntity
  8
KIJUN
100
AcDbCircle
 10
268.0267603971811
 20
72.74392411965279
 30
0.0
 40
12.4439982809615
100
AcDbArc
 50
192.9168459833731
 51
236.300638911612
  0
ARC
  5
10C
330
2
100
AcDbEntity
  8
KIJUN
100
AcDbCircle
 10
230.4251016722246
 20
85.57185147177058
 30
0.0
 40
29.87492159091346
100
AcDbArc
 50
309.1105981940097
 51
340.7546051274147
  0
ELLIPSE
  5
10D
330
2
100
AcDbEntity
  8
KIJUN
100
AcDbEllipse
 10
266.0692766995886
 20
98.73330066795769
 30
0.0
 11
-2.389963804805883
 21
0.0373592278348856
 31
0.0
210
0.0
220
0.0
230
-1.0
 40
0.5510643409297816
 41
0.0
 42
6.283185307179584
  0
ELLIPSE
  5
10E
330
2
100
AcDbEntity
  8
KIJUN
100
AcDbEllipse
 10
293.0112035362746
 20
102.3849637693643
 30
0.0
 11
-1.873453727249495
 21
0.0
 31
0.0
210
0.0
220
0.0
230
-1.0
 40
0.4684402150475738
 41
0.0
 42
6.283185307179584
  0
ELLIPSE
  5
10F
330
2
100
AcDbEntity
  8
KIJUN
100
AcDbEllipse
 10
256.1755087841488
 20
98.73330066795769
 30
0.0
 11
2.389963804805883
 21
0.0373592278348856
 31
0.0
210
0.0
220
0.0
230
1.0
 40
0.5510643409297816
 41
0.0
 42
6.283185307179584
  0
ARC
  5
110
330
2
100
AcDbEntity
  8
KIJUN
100
AcDbCircle
 10
280.5712504613028
 20
131.1625948538451
 30
0.0
 40
34.02359959944309
100
AcDbArc
 50
265.0384569195011
 51
280.741110906474
  0
ARC
  5
111
330
2
100
AcDbEntity
  8
KIJUN
100
AcDbCircle
 10
265.0518481195988
 20
57.20360368255789
 30
0.0
 40
46.00363140674708
100
AcDbArc
 50
62.83830636414627
 51
76.1794372811734
  0
ARC
  5
112
330
2
100
AcDbEntity
  8
KIJUN
100
AcDbCircle
 10
272.4311099616265
 20
80.07837371032639
 30
0.0
 40
24.09179432853961
100
AcDbArc
 50
55.20783620553148
 51
85.92115862272438
  0
ARC
  5
113
330
2
100
AcDbEntity
  8
KIJUN
100
AcDbCircle
 10
344.802530362284
 20
72.73108234802286
 30
0.0
 40
69.93941451608829
100
AcDbArc
 50
161.7064572578153
 51
169.0848637400975
  0
ARC
  5
114
330
2
100
AcDbEntity
  8
KIJUN
100
AcDbCircle
 10
192.7954048024365
 20
61.63342646396158
 30
0.0
 40
82.48746033948988
100
AcDbArc
 50
16.44450131490245
 51
23.78539328679691
  0
ARC
  5
115
330
2
100
AcDbEntity
  8
KIJUN
100
AcDbCircle
 10
331.2994931473026
 20
61.63342646396158
 30
0.0
 40
82.48746033948988
100
AcDbArc
 50
156.2146067132031
 51
163.7820852004434
  0
ARC
  5
116
330
2
100
AcDbEntity
  8
KIJUN
100
AcDbCircle
 10
179.2923675874551
 20
72.73108234802286
 30
0.0
 40
69.93941451608829
100
AcDbArc
 50
10.49959159671569
 51
18.29354274218471
  0
LINE
  5
117
330
2
100
AcDbEntity
  8
KIJUN
100
AcDbLine
 10
261.1223927418688
 20
95.75617703256318
 30
0.0
 11
261.1223927418688
 21
85.7639265837297
 31
0.0
  0
ARC
  5
118
330
2
100
AcDbEntity
  8
KIJUN
100
AcDbCircle
 10
179.2923675874551
 20
72.73108234802286
 30
0.0
 40
69.93941451608829
100
AcDbArc
 50
356.7026157837655
 51
3.70537313895591
  0
ARC
  5
119
330
2
100
AcDbEntity
  8
KIJUN
100
AcDbCircle
 10
331.2994931473026
 20
61.63342646396158
 30
0.0
 40
82.48746033948988
100
AcDbArc
 50
169.2961742092536
 51
175.0797655321506
  0
ARC
  5
11A
330
2
100
AcDbEntity
  8
KIJUN
100
AcDbCircle
 10
344.802530362284
 20
72.73108234802286
 30
0.0
 40
69.93941451608829
100
AcDbArc
 50
175.8414637278079
 51
183.2973842162347
  0
ARC
  5
11B
330
2
100
AcDbEntity
  8
KIJUN
100
AcDbCircle
 10
192.7954048024365
 20
61.63342646396158
 30
0.0
 40
82.48746033948988
100
AcDbArc
 50
4.920234467849353
 51
11.03105227644989
  0
ARC
  5
11C
330
2
100
AcDbEntity
  8
KIJUN
100
AcDbCircle
 10
270.9979237937466
 20
76.64983156664928
 30
0.0
 40
27.63903771957594
100
AcDbArc
 50
83.46247268018364
 51
108.6575165607909
  0
ARC
  5
11D
330
2
100
AcDbEntity
  8
KIJUN
100
AcDbCircle
 10
265.8943976247801
 20
99.26820377291662
 30
0.0
 40
2.300617424274385
100
AcDbArc
 50
102.4459536269807
 51
199.5655944024836
  0
ARC
  5
11E
330
2
100
AcDbEntity
  8
KIJUN
100
AcDbCircle
 10
262.4758140811213
 20
101.8889277602726
 30
0.0
 40
0.9999999999999998
100
AcDbArc
 50
108.6575165607913
 51
185.9871683179838
  0
ARC
  5
11F
330
2
100
AcDbEntity
  8
KIJUN
100
AcDbCircle
 10
259.7689714026163
 20
101.8889277602726
 30
0.0
 40
0.9999999999999998
100
AcDbArc
 50
354.0128316820163
 51
71.34248343920869
  0
ARC
  5
120
330
2
100
AcDbEntity
  8
KIJUN
100
AcDbCircle
 10
250.971777436696
 20
85.37198952793261
 30
0.0
 40
17.17841416680007
100
AcDbArc
 50
70.00329177329934
 51
106.1154563477854
  0
ARC
  5
121
330
2
100
AcDbEntity
  8
KIJUN
100
AcDbCircle
 10
253.2520887614318
 20
89.2025632351441
 30
0.0
 40
12.53345335305288
100
AcDbArc
 50
92.31074900627966
 51
118.2943295947494
  0
ARC
  5
122
330
2
100
AcDbEntity
  8
KIJUN
100
AcDbCircle
 10
245.5946443106192
 20
99.04650854008849
 30
0.0
 40
1.916063292979293
100
AcDbArc
 50
252.1877486825198
 51
288.0595480392612
  0
ARC
  5
123
330
2
100
AcDbEntity
  8
KIJUN
100
AcDbCircle
 10
247.9162734056181
 20
99.1398626962426
 30
0.0
 40
1.254295007565215
100
AcDbArc
 50
118.8413815397682
 51
205.3252126220153
  0
ARC
  5
124
330
2
100
AcDbEntity
  8
KIJUN
100
AcDbCircle
 10
245.8786287583915
 20
98.17557525322461
 30
0.0
 40
0.9999999999999998
100
AcDbArc
 50
288.0595480392608
 51
25.32521262201515
  0
ARC
  5
125
330
2
100
AcDbEntity
  8
KIJUN
100
AcDbCircle
 10
256.595150292743
 20
102.2217911723121
 30
0.0
 40
4.191228366718862
100
AcDbArc
 50
297.3109134041824
 51
354.0128316820162
  0
ARC
  5
126
330
2
100
AcDbEntity
  8
KIJUN
100
AcDbCircle
 10
256.3503878589573
 20
99.26820377291662
 30
0.0
 40
2.300617424274385
100
AcDbArc
 50
340.4344055975163
 51
77.55404637301971
  0
ARC
  5
127
330
2
100
AcDbEntity
  8
KIJUN
100
AcDbCircle
 10
265.6496351909944
 20
102.2217911723121
 30
0.0
 40
4.191228366718862
100
AcDbArc
 50
185.987168317984
 51
242.6890865958176
  0
ARC
  5
128
330
2
100
AcDbEntity
  8
KIJUN
100
AcDbCircle
 10
251.2468616899909
 20
76.64983156664928
 30
0.0
 40
27.63903771957594
100
AcDbArc
 50
71.34248343920912
 51
96.53752731981636
  0
ARC
  5
129
330
2
100
AcDbEntity
  8
KIJUN
100
AcDbCircle
 10
268.9926967223057
 20
89.2025632351441
 30
0.0
 40
12.53345335305288
100
AcDbArc
 50
61.70567040525062
 51
87.68925099372033
  0
ARC
  5
12A
330
2
100
AcDbEntity
  8
KIJUN
100
AcDbCircle
 10
271.2730080470414
 20
85.37198952793261
 30
0.0
 40
17.17841416680007
100
AcDbArc
 50
73.8845436522146
 51
109.9967082267006
  0
ARC
  5
12B
330
2
100
AcDbEntity
  8
KIJUN
100
AcDbCircle
 10
276.366156725346
 20
98.17557525322461
 30
0.0
 40
0.9999999999999998
100
AcDbArc
 50
154.6747873779849
 51
251.9404519607391
  0
ARC
  5
12C
330
2
100
AcDbEntity
  8
KIJUN
100
AcDbCircle
 10
274.3285120781194
 20
99.1398626962426
 30
0.0
 40
1.254295007565215
100
AcDbArc
 50
334.6747873779846
 51
61.15861846023179
  0
ARC
  5
12D
330
2
100
AcDbEntity
  8
KIJUN
100
AcDbCircle
 10
276.6501411731184
 20
99.04650854008849
 30
0.0
 40
1.916063292979293
100
AcDbArc
 50
251.9404519607387
 51
287.8122513174801
  0
ARC
  5
12E
330
2
100
AcDbEntity
  8
KIJUN
100
AcDbCircle
 10
277.5421616912786
 20
96.2702296413029
 30
0.0
 40
0.9999999999999998
100
AcDbArc
 50
85.03845691949903
 51
107.8122513174801
  0
LINE
  5
12F
330
2
100
AcDbEntity
  8
KIJUN
100
AcDbLine
 10
297.1219746952244
 20
67.14652241317338
 30
0.0
 11
295.3429320660076
 21
90.78902163981807
 31
0.0
  0
LINE
  5
130
330
2
100
AcDbEntity
  8
KIJUN
100
AcDbLine
 10
284.8473699363032
 20
95.75617703256318
 30
0.0
 11
284.8473699363032
 21
89.1541805085329
 31
0.0
  0
ARC
  5
131
330
2
100
AcDbEntity
  8
KIJUN
100
AcDbCircle
 10
298.182001615077
 20
84.63722604554876
 30
0.0
 40
9.428432294272036
100
AcDbArc
 50
129.8257371026884
 51
178.9032619304508
  0
ARC
  5
132
330
2
100
AcDbEntity
  8
KIJUN
100
AcDbCircle
 10
285.7415019861292
 20
97.89243093495224
 30
0.0
 40
8.783876856909097
100
AcDbArc
 50
263.9986812004665
 51
316.7889932615147
  0
ARC
  5
133
330
2
100
AcDbEntity
  8
KIJUN
100
AcDbCircle
 10
293.7039865747629
 20
99.84391700617589
 30
0.0
 40
3.408712577525101
100
AcDbArc
 50
11.44973132918588
 51
94.72181038945906
  0
ARC
  5
134
330
2
100
AcDbEntity
  8
KIJUN
100
AcDbCircle
 10
291.0690071407858
 20
109.1581084859219
 30
0.0
 40
10.50323071534851
100
AcDbArc
 50
242.2461021220273
 51
304.6773232919325
  0
ARC
  5
135
330
2
100
AcDbEntity
  8
KIJUN
100
AcDbCircle
 10
290.1399782374239
 20
105.8160364962599
 30
0.0
 40
8.701687079061214
100
AcDbArc
 50
241.984105840116
 51
322.5148470676276
  0
ARC
  5
136
330
2
100
AcDbEntity
  8
KIJUN
100
AcDbCircle
 10
293.7039865747629
 20
99.84391700617589
 30
0.0
 40
3.408712577525101
100
AcDbArc
 50
137.2387660958082
 51
141.6154591953374
  0
ARC
  5
137
330
2
100
AcDbEntity
  8
KIJUN
100
AcDbCircle
 10
321.8145116153998
 20
80.07837371032639
 30
0.0
 40
24.09179432853961
100
AcDbArc
 50
94.07884137727565
 51
124.7921637944685
  0
ARC
  5
138
330
2
100
AcDbEntity
  8
KIJUN
100
AcDbCircle
 10
329.1937734574276
 20
57.20360368255789
 30
0.0
 40
46.00363140674708
100
AcDbArc
 50
103.8205627188266
 51
117.1616936358537
  0
ARC
  5
139
330
2
100
AcDbEntity
  8
KIJUN
100
AcDbCircle
 10
313.6743711157234
 20
131.1625948538451
 30
0.0
 40
34.02359959944309
100
AcDbArc
 50
259.258889093526
 51
274.9615430804989
  0
ARC
  5
13A
330
2
100
AcDbEntity
  8
KIJUN
100
AcDbCircle
 10
341.8233298662047
 20
86.82413163341136
 30
0.0
 40
31.88954640405213
100
AcDbArc
 50
189.3419280527072
 51
230.0120496453355
  0
ARC
  5
13B
330
2
100
AcDbEntity
  8
KIJUN
100
AcDbCircle
 10
302.9432701141187
 20
72.74392411965279
 30
0.0
 40
12.4439982809615
100
AcDbArc
 50
303.699361088388
 51
345.3757083066217
  0
ARC
  5
13C
330
2
100
AcDbEntity
  8
KIJUN
100
AcDbCircle
 10
280.1509859697564
 20
85.17927923779661
 30
0.0
 40
28.41436901738957
100
AcDbArc
 50
306.6786746850173
 51
355.1516108634674
  0
ARC
  5
13D
330
2
100
AcDbEntity
  8
KIJUN
100
AcDbCircle
 10
333.1228107885131
 20
140.4491634537286
 30
0.0
 40
56.50364976704765
100
AcDbArc
 50
230.4220819364499
 51
309.5779180635501
  0
ARC
  5
13E
330
2
100
AcDbEntity
  8
KIJUN
100
AcDbCircle
 10
333.1228107885131
 20
121.9177152595134
 30
0.0
 40
46.26026660877874
100
AcDbArc
 50
218.9034229320125
 51
317.3254016329935
  0
ARC
  5
13F
330
2
100
AcDbEntity
  8
KIJUN
100
AcDbCircle
 10
333.1228107885131
 20
121.9177152595134
 30
0.0
 40
46.26026660877874
100
AcDbArc
 50
218.9034229320125
 51
319.439488202567
  0
ARC
  5
140
330
2
100
AcDbEntity
  8
KIJUN
100
AcDbCircle
 10
333.1228107885131
 20
140.4491634537286
 30
0.0
 40
56.50364976704765
100
AcDbArc
 50
230.4220819364499
 51
309.5779180635501
  0
ARC
  5
141
330
2
100
AcDbEntity
  8
KIJUN
100
AcDbCircle
 10
316.7520054247434
 20
72.74392411965279
 30
0.0
 40
12.4439982809615
100
AcDbArc
 50
197.4549909930505
 51
236.300638911612
  0
ELLIPSE
  5
142
330
2
100
AcDbEntity
  8
KIJUN
100
AcDbEllipse
 10
301.2344180407518
 20
102.3849637693643
 30
0.0
 11
1.873453727249495
 21
0.0
 31
0.0
210
0.0
220
0.0
230
1.0
 40
0.4684402150475738
 41
0.0
 42
6.283185307179584
  0
ARC
  5
143
330
2
100
AcDbEntity
  8
KIJUN
100
AcDbCircle
 10
308.5041195908972
 20
97.89243093495224
 30
0.0
 40
8.783876856909097
100
AcDbArc
 50
223.2110067384854
 51
276.0013187995339
  0
ARC
  5
144
330
2
100
AcDbEntity
  8
KIJUN
100
AcDbCircle
 10
296.0636199619494
 20
84.63722604554876
 30
0.0
 40
9.428432294272036
100
AcDbArc
 50
1.096738069549184
 51
50.17426289731159
  0
LINE
  5
145
330
2
100
AcDbEntity
  8
KIJUN
100
AcDbLine
 10
309.3982516407232
 20
95.75617703256318
 30
0.0
 11
309.3982516407232
 21
89.1541805085329
 31
0.0
  0
LINE
  5
146
330
2
100
AcDbEntity
  8
KIJUN
100
AcDbLine
 10
297.123646881802
 20
67.14652241317338
 30
0.0
 11
298.9026895110187
 21
90.78902163981807
 31
0.0
  0
ARC
  5
147
330
2
100
AcDbEntity
  8
KIJUN
100
AcDbCircle
 10
300.5416350022634
 20
99.84391700617589
 30
0.0
 40
3.408712577525101
100
AcDbArc
 50
85.27818961054093
 51
168.5502686708141
  0
ARC
  5
148
330
2
100
AcDbEntity
  8
KIJUN
100
AcDbCircle
 10
304.1056433396024
 20
105.8160364962599
 30
0.0
 40
8.701687079061214
100
AcDbArc
 50
217.4851529323724
 51
298.015894159884
  0
ARC
  5
149
330
2
100
AcDbEntity
  8
KIJUN
100
AcDbCircle
 10
303.1766144362407
 20
109.1581084859219
 30
0.0
 40
10.50323071534851
100
AcDbArc
 50
235.3226767080675
 51
297.7538978779727
  0
ARC
  5
14A
330
2
100
AcDbEntity
  8
KIJUN
100
AcDbCircle
 10
300.5416350022634
 20
99.84391700617589
 30
0.0
 40
3.408712577525101
100
AcDbArc
 50
38.38454080466265
 51
42.76123390419174
  0
ARC
  5
14B
330
2
100
AcDbEntity
  8
KIJUN
100
AcDbCircle
 10
388.7026237924589
 20
96.2702296413029
 30
0.0
 40
0.9999999999999998
100
AcDbArc
 50
72.18774868251988
 51
94.96154308050099
  0
ARC
  5
14C
330
2
100
AcDbEntity
  8
KIJUN
100
AcDbCircle
 10
393.8136755221109
 20
80.07837371032639
 30
0.0
 40
24.09179432853961
100
AcDbArc
 50
94.07884137727565
 51
124.7921637944685
  0
ARC
  5
14D
330
2
100
AcDbEntity
  8
KIJUN
100
AcDbCircle
 10
401.1929373641386
 20
57.20360368255789
 30
0.0
 40
46.00363140674708
100
AcDbArc
 50
103.8205627188266
 51
117.1616936358537
  0
ARC
  5
14E
330
2
100
AcDbEntity
  8
KIJUN
100
AcDbCircle
 10
413.8224937729157
 20
86.82413163341136
 30
0.0
 40
31.88954640405213
100
AcDbArc
 50
189.3419280527072
 51
230.0120496453355
  0
ARC
  5
14F
330
2
100
AcDbEntity
  8
KIJUN
100
AcDbCircle
 10
405.122810788513
 20
121.9177152595134
 30
0.0
 40
46.26026660877874
100
AcDbArc
 50
222.674598367007
 51
321.0965770679875
  0
ARC
  5
150
330
2
100
AcDbEntity
  8
KIJUN
100
AcDbCircle
 10
405.122810788513
 20
140.4491634537286
 30
0.0
 40
56.50364976704765
100
AcDbArc
 50
230.4220819364499
 51
309.5779180635501
  0
ARC
  5
151
330
2
100
AcDbEntity
  8
KIJUN
100
AcDbCircle
 10
363.8205199048018
 20
85.57185147177058
 30
0.0
 40
29.87492159091346
100
AcDbArc
 50
199.2453948725854
 51
230.8894018059904
  0
ARC
  5
152
330
2
100
AcDbEntity
  8
KIJUN
100
AcDbCircle
 10
326.2188611798452
 20
72.74392411965279
 30
0.0
 40
12.4439982809615
100
AcDbArc
 50
303.699361088388
 51
347.0831540166269
  0
ARC
  5
153
330
2
100
AcDbEntity
  8
KIJUN
100
AcDbCircle
 10
302.4259377655134
 20
85.57185147177058
 30
0.0
 40
29.87492159091346
100
AcDbArc
 50
309.1105981940097
 51
340.7546051274147
  0
ARC
  5
154
330
2
100
AcDbEntity
  8
KIJUN
100
AcDbCircle
 10
340.0275964904699
 20
72.74392411965279
 30
0.0
 40
12.4439982809615
100
AcDbArc
 50
192.9168459833731
 51
236.300638911612
  0
ARC
  5
155
330
2
100
AcDbEntity
  8
KIJUN
100
AcDbCircle
 10
378.0944916482089
 20
80.7587250545553
 30
0.0
 40
20.44172106418944
100
AcDbArc
 50
185.4154186581054
 51
243.9668764346825
  0
ARC
  5
156
330
2
100
AcDbEntity
  8
KIJUN
100
AcDbCircle
 10
363.3031875561965
 20
72.74392411965279
 30
0.0
 40
12.4439982809615
100
AcDbArc
 50
190.1390785579932
 51
236.300638911612
  0
ARC
  5
157
330
2
100
AcDbEntity
  8
KIJUN
100
AcDbCircle
 10
349.4944522455718
 20
72.74392411965279
 30
0.0
 40
12.4439982809615
100
AcDbArc
 50
303.699361088388
 51
342.5450090069495
  0
ARC
  5
158
330
2
100
AcDbEntity
  8
KIJUN
100
AcDbCircle
 10
324.4231278041105
 20
86.82413163341136
 30
0.0
 40
31.88954640405213
100
AcDbArc
 50
309.9879503546646
 51
350.6580719472929
  0
ARC
  5
159
330
2
100
AcDbEntity
  8
KIJUN
100
AcDbCircle
 10
388.7511693314546
 20
72.74392411965279
 30
0.0
 40
12.4439982809615
100
AcDbArc
 50
197.4549909930505
 51
236.300638911612
  0
ARC
  5
15A
330
2
100
AcDbEntity
  8
KIJUN
100
AcDbCircle
 10
374.9424340208297
 20
72.74392411965279
 30
0.0
 40
12.4439982809615
100
AcDbArc
 50
303.699361088388
 51
349.8609214420068
  0
ARC
  5
15B
330
2
100
AcDbEntity
  8
KIJUN
100
AcDbCircle
 10
360.1511299288173
 20
80.7587250545553
 30
0.0
 40
20.44172106418944
100
AcDbArc
 50
296.0331235653175
 51
354.5845813418946
  0
ELLIPSE
  5
15C
330
2
100
AcDbEntity
  8
KIJUN
100
AcDbEllipse
 10
338.0701127928773
 20
98.73330066795769
 30
0.0
 11
-2.389963804805883
 21
0.0373592278348856
 31
0.0
210
0.0
220
0.0
230
-1.0
 40
0.5510643409297816
 41
0.0
 42
6.283185307179584
  0
ELLIPSE
  5
15D
330
2
100
AcDbEntity
  8
KIJUN
100
AcDbEllipse
 10
328.1763448774378
 20
98.73330066795769
 30
0.0
 11
2.389963804805883
 21
0.0373592278348856
 31
0.0
210
0.0
220
0.0
230
1.0
 40
0.5510643409297816
 41
0.0
 42
6.283185307179584
  0
ELLIPSE
  5
15E
330
2
100
AcDbEntity
  8
KIJUN
100
AcDbEllipse
 10
365.0120396295634
 20
102.3849637693643
 30
0.0
 11
-1.873453727249495
 21
0.0
 31
0.0
210
0.0
220
0.0
230
-1.0
 40
0.4684402150475738
 41
0.0
 42
6.283185307179584
  0
ELLIPSE
  5
15F
330
2
100
AcDbEntity
  8
KIJUN
100
AcDbEllipse
 10
373.2335819474629
 20
102.3849637693643
 30
0.0
 11
1.873453727249495
 21
0.0
 31
0.0
210
0.0
220
0.0
230
1.0
 40
0.4684402150475738
 41
0.0
 42
6.283185307179584
  0
ARC
  5
160
330
2
100
AcDbEntity
  8
KIJUN
100
AcDbCircle
 10
352.5720865545917
 20
131.1625948538451
 30
0.0
 40
34.02359959944309
100
AcDbArc
 50
265.0384569195011
 51
280.741110906474
  0
ARC
  5
161
330
2
100
AcDbEntity
  8
KIJUN
100
AcDbCircle
 10
337.0526842128877
 20
57.20360368255789
 30
0.0
 40
46.00363140674708
100
AcDbArc
 50
62.83830636414627
 51
76.1794372811734
  0
ARC
  5
162
330
2
100
AcDbEntity
  8
KIJUN
100
AcDbCircle
 10
344.4319460549154
 20
80.07837371032639
 30
0.0
 40
24.09179432853961
100
AcDbArc
 50
55.20783620553148
 51
85.92115862272438
  0
LINE
  5
163
330
2
100
AcDbEntity
  8
KIJUN
100
AcDbLine
 10
333.1232288351576
 20
95.75617703256318
 30
0.0
 11
333.1232288351576
 21
85.7639265837297
 31
0.0
  0
ARC
  5
164
330
2
100
AcDbEntity
  8
KIJUN
100
AcDbCircle
 10
414.9532539895712
 20
72.73108234802286
 30
0.0
 40
69.93941451608829
100
AcDbArc
 50
161.7064572578153
 51
169.5004084032843
  0
ARC
  5
165
330
2
100
AcDbEntity
  8
KIJUN
100
AcDbCircle
 10
262.9461284297237
 20
61.63342646396158
 30
0.0
 40
82.48746033948988
100
AcDbArc
 50
16.21791479955658
 51
23.78539328679691
  0
ARC
  5
166
330
2
100
AcDbEntity
  8
KIJUN
100
AcDbCircle
 10
401.4502167745898
 20
61.63342646396158
 30
0.0
 40
82.48746033948988
100
AcDbArc
 50
156.2146067132031
 51
163.5554986850976
  0
ARC
  5
167
330
2
100
AcDbEntity
  8
KIJUN
100
AcDbCircle
 10
249.4430912147423
 20
72.73108234802286
 30
0.0
 40
69.93941451608829
100
AcDbArc
 50
10.91513625990249
 51
18.29354274218471
  0
ARC
  5
168
330
2
100
AcDbEntity
  8
KIJUN
100
AcDbCircle
 10
401.4502167745898
 20
61.63342646396158
 30
0.0
 40
82.48746033948988
100
AcDbArc
 50
168.9689477235501
 51
175.0797655321506
  0
ARC
  5
169
330
2
100
AcDbEntity
  8
KIJUN
100
AcDbCircle
 10
249.4430912147423
 20
72.73108234802286
 30
0.0
 40
69.93941451608829
100
AcDbArc
 50
356.7026157837655
 51
4.158536272192045
  0
ARC
  5
16A
330
2
100
AcDbEntity
  8
KIJUN
100
AcDbCircle
 10
414.9532539895712
 20
72.73108234802286
 30
0.0
 40
69.93941451608829
100
AcDbArc
 50
176.2946268610442
 51
183.2973842162347
  0
ARC
  5
16B
330
2
100
AcDbEntity
  8
KIJUN
100
AcDbCircle
 10
262.9461284297237
 20
61.63342646396158
 30
0.0
 40
82.48746033948988
100
AcDbArc
 50
4.920234467849353
 51
10.70382579074639
  0
ARC
  5
16C
330
2
100
AcDbEntity
  8
KIJUN
100
AcDbCircle
 10
328.3512239522462
 20
99.26820377291662
 30
0.0
 40
2.300617424274385
100
AcDbArc
 50
340.4344055975163
 51
77.55404637301971
  0
ARC
  5
16D
330
2
100
AcDbEntity
  8
KIJUN
100
AcDbCircle
 10
323.2476977832797
 20
76.64983156664928
 30
0.0
 40
27.63903771957594
100
AcDbArc
 50
71.34248343920912
 51
96.53752731981636
  0
ARC
  5
16E
330
2
100
AcDbEntity
  8
KIJUN
100
AcDbCircle
 10
322.9726135299848
 20
85.37198952793261
 30
0.0
 40
17.17841416680007
100
AcDbArc
 50
70.00329177329934
 51
106.1154563477854
  0
ARC
  5
16F
330
2
100
AcDbEntity
  8
KIJUN
100
AcDbCircle
 10
325.2529248547207
 20
89.2025632351441
 30
0.0
 40
12.53345335305288
100
AcDbArc
 50
92.31074900627966
 51
118.2943295947494
  0
ARC
  5
170
330
2
100
AcDbEntity
  8
KIJUN
100
AcDbCircle
 10
316.7034598857478
 20
96.2702296413029
 30
0.0
 40
0.9999999999999998
100
AcDbArc
 50
72.18774868251988
 51
94.96154308050099
  0
ARC
  5
171
330
2
100
AcDbEntity
  8
KIJUN
100
AcDbCircle
 10
317.5954804039081
 20
99.04650854008849
 30
0.0
 40
1.916063292979293
100
AcDbArc
 50
252.1877486825198
 51
288.0595480392612
  0
ARC
  5
172
330
2
100
AcDbEntity
  8
KIJUN
100
AcDbCircle
 10
319.9171094989069
 20
99.1398626962426
 30
0.0
 40
1.254295007565215
100
AcDbArc
 50
118.8413815397682
 51
205.3252126220153
  0
ARC
  5
173
330
2
100
AcDbEntity
  8
KIJUN
100
AcDbCircle
 10
317.8794648516804
 20
98.17557525322461
 30
0.0
 40
0.9999999999999998
100
AcDbArc
 50
288.0595480392608
 51
25.32521262201515
  0
ARC
  5
174
330
2
100
AcDbEntity
  8
KIJUN
100
AcDbCircle
 10
334.4766501744101
 20
101.8889277602726
 30
0.0
 40
0.9999999999999998
100
AcDbArc
 50
108.6575165607913
 51
185.9871683179838
  0
ARC
  5
175
330
2
100
AcDbEntity
  8
KIJUN
100
AcDbCircle
 10
331.7698074959051
 20
101.8889277602726
 30
0.0
 40
0.9999999999999998
100
AcDbArc
 50
354.0128316820163
 51
71.34248343920869
  0
ARC
  5
176
330
2
100
AcDbEntity
  8
KIJUN
100
AcDbCircle
 10
343.2738441403302
 20
85.37198952793261
 30
0.0
 40
17.17841416680007
100
AcDbArc
 50
73.8845436522146
 51
109.9967082267006
  0
ARC
  5
177
330
2
100
AcDbEntity
  8
KIJUN
100
AcDbCircle
 10
337.6504712842833
 20
102.2217911723121
 30
0.0
 40
4.191228366718862
100
AcDbArc
 50
185.987168317984
 51
242.6890865958176
  0
ARC
  5
178
330
2
100
AcDbEntity
  8
KIJUN
100
AcDbCircle
 10
328.5959863860319
 20
102.2217911723121
 30
0.0
 40
4.191228366718862
100
AcDbArc
 50
297.3109134041824
 51
354.0128316820162
  0
ARC
  5
179
330
2
100
AcDbEntity
  8
KIJUN
100
AcDbCircle
 10
337.8952337180689
 20
99.26820377291662
 30
0.0
 40
2.300617424274385
100
AcDbArc
 50
102.4459536269807
 51
199.5655944024836
  0
ARC
  5
17A
330
2
100
AcDbEntity
  8
KIJUN
100
AcDbCircle
 10
340.9935328155945
 20
89.2025632351441
 30
0.0
 40
12.53345335305288
100
AcDbArc
 50
61.70567040525062
 51
87.68925099372033
  0
ARC
  5
17B
330
2
100
AcDbEntity
  8
KIJUN
100
AcDbCircle
 10
348.3669928186348
 20
98.17557525322461
 30
0.0
 40
0.9999999999999998
100
AcDbArc
 50
154.6747873779849
 51
251.9404519607391
  0
ARC
  5
17C
330
2
100
AcDbEntity
  8
KIJUN
100
AcDbCircle
 10
346.3293481714081
 20
99.1398626962426
 30
0.0
 40
1.254295007565215
100
AcDbArc
 50
334.6747873779846
 51
61.15861846023179
  0
ARC
  5
17D
330
2
100
AcDbEntity
  8
KIJUN
100
AcDbCircle
 10
348.6509772664071
 20
99.04650854008849
 30
0.0
 40
1.916063292979293
100
AcDbArc
 50
251.9404519607387
 51
287.8122513174801
  0
ARC
  5
17E
330
2
100
AcDbEntity
  8
KIJUN
100
AcDbCircle
 10
349.5429977845675
 20
96.2702296413029
 30
0.0
 40
0.9999999999999998
100
AcDbArc
 50
85.03845691949903
 51
107.8122513174801
  0
ARC
  5
17F
330
2
100
AcDbEntity
  8
KIJUN
100
AcDbCircle
 10
342.9987598870355
 20
76.64983156664928
 30
0.0
 40
27.63903771957594
100
AcDbArc
 50
83.46247268018364
 51
108.6575165607909
  0
ARC
  5
180
330
2
100
AcDbEntity
  8
KIJUN
100
AcDbCircle
 10
370.1828377083659
 20
84.63722604554876
 30
0.0
 40
9.428432294272036
100
AcDbArc
 50
129.8257371026884
 51
178.9032619304508
  0
ARC
  5
181
330
2
100
AcDbEntity
  8
KIJUN
100
AcDbCircle
 10
357.7423380794181
 20
97.89243093495224
 30
0.0
 40
8.783876856909097
100
AcDbArc
 50
263.9986812004665
 51
316.7889932615147
  0
LINE
  5
182
330
2
100
AcDbEntity
  8
KIJUN
100
AcDbLine
 10
355.9775647298306
 20
95.75617703256318
 30
0.0
 11
355.9775647298306
 21
88.7739986327141
 31
0.0
  0
LINE
  5
183
330
2
100
AcDbEntity
  8
KIJUN
100
AcDbLine
 10
382.2680568471959
 20
95.75617703256318
 30
0.0
 11
382.2680568471959
 21
88.7739986327141
 31
0.0
  0
ARC
  5
184
330
2
100
AcDbEntity
  8
KIJUN
100
AcDbCircle
 10
380.5032834976084
 20
97.89243093495224
 30
0.0
 40
8.783876856909097
100
AcDbArc
 50
223.2110067384854
 51
276.0013187995339
  0
ARC
  5
185
330
2
100
AcDbEntity
  8
KIJUN
100
AcDbCircle
 10
368.0627838686604
 20
84.63722604554876
 30
0.0
 40
9.428432294272036
100
AcDbArc
 50
1.096738069549184
 51
50.17426289731159
  0
LINE
  5
186
330
2
100
AcDbEntity
  8
KIJUN
100
AcDbLine
 10
369.1228107885133
 20
67.14652241317338
 30
0.0
 11
367.0417258440044
 21
90.46108689324295
 31
0.0
  0
LINE
  5
187
330
2
100
AcDbEntity
  8
KIJUN
100
AcDbLine
 10
369.1228107885133
 20
67.14652241317338
 30
0.0
 11
371.9810780299829
 21
89.64330098942246
 31
0.0
  0
LINE
  5
188
330
2
100
AcDbEntity
  8
KIJUN
100
AcDbLine
 10
369.1228107885133
 20
67.14652241317338
 30
0.0
 11
366.2645435470434
 21
89.64330098942246
 31
0.0
  0
ARC
  5
189
330
2
100
AcDbEntity
  8
KIJUN
100
AcDbCircle
 10
365.7048226680518
 20
99.84391700617589
 30
0.0
 40
3.408712577525101
100
AcDbArc
 50
11.44973132918588
 51
94.72181038945906
  0
ARC
  5
18A
330
2
100
AcDbEntity
  8
KIJUN
100
AcDbCircle
 10
362.1408143307129
 20
105.8160364962599
 30
0.0
 40
8.701687079061214
100
AcDbArc
 50
241.984105840116
 51
322.5148470676276
  0
ARC
  5
18B
330
2
100
AcDbEntity
  8
KIJUN
100
AcDbCircle
 10
376.1048072463136
 20
105.8160364962599
 30
0.0
 40
8.701687079061214
100
AcDbArc
 50
217.4851529323724
 51
298.015894159884
  0
ARC
  5
18C
330
2
100
AcDbEntity
  8
KIJUN
100
AcDbCircle
 10
372.5407989089745
 20
99.84391700617589
 30
0.0
 40
3.408712577525101
100
AcDbArc
 50
85.27818961054093
 51
168.5502686708141
  0
ARC
  5
18D
330
2
100
AcDbEntity
  8
KIJUN
100
AcDbCircle
 10
375.1757783429519
 20
109.1581084859219
 30
0.0
 40
10.50323071534851
100
AcDbArc
 50
235.3226767080675
 51
297.7538978779727
  0
ARC
  5
18E
330
2
100
AcDbEntity
  8
KIJUN
100
AcDbCircle
 10
363.0698432340745
 20
109.1581084859219
 30
0.0
 40
10.50323071534851
100
AcDbArc
 50
242.2461021220273
 51
304.6773232919325
  0
ARC
  5
18F
330
2
100
AcDbEntity
  8
KIJUN
100
AcDbCircle
 10
365.7048226680518
 20
99.84391700617589
 30
0.0
 40
3.408712577525101
100
AcDbArc
 50
137.2387660958082
 51
141.6154591953374
  0
ARC
  5
190
330
2
100
AcDbEntity
  8
KIJUN
100
AcDbCircle
 10
372.5407989089745
 20
99.84391700617589
 30
0.0
 40
3.408712577525101
100
AcDbArc
 50
38.38454080466265
 51
42.76123390419174
  0
ARC
  5
191
330
2
100
AcDbEntity
  8
KIJUN
100
AcDbCircle
 10
385.6735350224346
 20
131.1625948538451
 30
0.0
 40
34.02359959944309
100
AcDbArc
 50
259.258889093526
 51
274.9615430804989
  0
ARC
  5
192
330
2
100
AcDbEntity
  8
KIJUN
100
AcDbCircle
 10
458.0946356072699
 20
85.17927923779661
 30
0.0
 40
28.41436901738957
100
AcDbArc
 50
184.8483891365326
 51
233.3213253149827
  0
ARC
  5
193
330
2
100
AcDbEntity
  8
KIJUN
100
AcDbCircle
 10
435.3023514629076
 20
72.74392411965279
 30
0.0
 40
12.4439982809615
100
AcDbArc
 50
194.6242916933784
 51
236.300638911612
  0
ARC
  5
194
330
2
100
AcDbEntity
  8
KIJUN
100
AcDbCircle
 10
398.2180250865564
 20
72.74392411965279
 30
0.0
 40
12.4439982809615
100
AcDbArc
 50
303.699361088388
 51
347.0831540166269
  0
ARC
  5
195
330
2
100
AcDbEntity
  8
KIJUN
100
AcDbCircle
 10
421.4936161522829
 20
72.74392411965279
 30
0.0
 40
12.4439982809615
100
AcDbArc
 50
303.699361088388
 51
342.5450090069495
  0
ARC
  5
196
330
2
100
AcDbEntity
  8
KIJUN
100
AcDbCircle
 10
396.4222917108216
 20
86.82413163341136
 30
0.0
 40
31.88954640405213
100
AcDbArc
 50
309.9879503546646
 51
350.6580719472929
  0
ARC
  5
197
330
2
100
AcDbEntity
  8
KIJUN
100
AcDbCircle
 10
435.8196838115129
 20
85.57185147177058
 30
0.0
 40
29.87492159091346
100
AcDbArc
 50
199.2453948725854
 51
230.8894018059904
  0
ARC
  5
198
330
2
100
AcDbEntity
  8
KIJUN
100
AcDbCircle
 10
412.0267603971811
 20
72.74392411965279
 30
0.0
 40
12.4439982809615
100
AcDbArc
 50
192.9168459833731
 51
236.300638911612
  0
ARC
  5
199
330
2
100
AcDbEntity
  8
KIJUN
100
AcDbCircle
 10
374.4251016722246
 20
85.57185147177058
 30
0.0
 40
29.87492159091346
100
AcDbArc
 50
309.1105981940097
 51
340.7546051274147
  0
ELLIPSE
  5
19A
330
2
100
AcDbEntity
  8
KIJUN
100
AcDbEllipse
 10
410.0692766995885
 20
98.73330066795769
 30
0.0
 11
-2.389963804805883
 21
0.0373592278348856
 31
0.0
210
0.0
220
0.0
230
-1.0
 40
0.5510643409297816
 41
0.0
 42
6.283185307179584
  0
ELLIPSE
  5
19B
330
2
100
AcDbEntity
  8
KIJUN
100
AcDbEllipse
 10
437.0112035362744
 20
102.3849637693643
 30
0.0
 11
-1.873453727249495
 21
0.0
 31
0.0
210
0.0
220
0.0
230
-1.0
 40
0.4684402150475738
 41
0.0
 42
6.283185307179584
  0
ELLIPSE
  5
19C
330
2
100
AcDbEntity
  8
KIJUN
100
AcDbEllipse
 10
400.1755087841488
 20
98.73330066795769
 30
0.0
 11
2.389963804805883
 21
0.0373592278348856
 31
0.0
210
0.0
220
0.0
230
1.0
 40
0.5510643409297816
 41
0.0
 42
6.283185307179584
  0
ARC
  5
19D
330
2
100
AcDbEntity
  8
KIJUN
100
AcDbCircle
 10
424.5712504613027
 20
131.1625948538451
 30
0.0
 40
34.02359959944309
100
AcDbArc
 50
265.0384569195011
 51
280.741110906474
  0
ARC
  5
19E
330
2
100
AcDbEntity
  8
KIJUN
100
AcDbCircle
 10
409.0518481195986
 20
57.20360368255789
 30
0.0
 40
46.00363140674708
100
AcDbArc
 50
62.83830636414627
 51
76.1794372811734
  0
ARC
  5
19F
330
2
100
AcDbEntity
  8
KIJUN
100
AcDbCircle
 10
416.4311099616265
 20
80.07837371032639
 30
0.0
 40
24.09179432853961
100
AcDbArc
 50
55.20783620553148
 51
85.92115862272438
  0
ARC
  5
1A0
330
2
100
AcDbEntity
  8
KIJUN
100
AcDbCircle
 10
488.8025303622838
 20
72.73108234802286
 30
0.0
 40
69.93941451608829
100
AcDbArc
 50
161.7064572578153
 51
169.0848637400975
  0
ARC
  5
1A1
330
2
100
AcDbEntity
  8
KIJUN
100
AcDbCircle
 10
336.7954048024363
 20
61.63342646396158
 30
0.0
 40
82.48746033948988
100
AcDbArc
 50
16.44450131490245
 51
23.78539328679691
  0
ARC
  5
1A2
330
2
100
AcDbEntity
  8
KIJUN
100
AcDbCircle
 10
475.2994931473025
 20
61.63342646396158
 30
0.0
 40
82.48746033948988
100
AcDbArc
 50
156.2146067132031
 51
163.7820852004434
  0
ARC
  5
1A3
330
2
100
AcDbEntity
  8
KIJUN
100
AcDbCircle
 10
323.2923675874551
 20
72.73108234802286
 30
0.0
 40
69.93941451608829
100
AcDbArc
 50
10.49959159671569
 51
18.29354274218471
  0
LINE
  5
1A4
330
2
100
AcDbEntity
  8
KIJUN
100
AcDbLine
 10
405.1223927418686
 20
95.75617703256318
 30
0.0
 11
405.1223927418686
 21
85.7639265837297
 31
0.0
  0
ARC
  5
1A5
330
2
100
AcDbEntity
  8
KIJUN
100
AcDbCircle
 10
323.2923675874551
 20
72.73108234802286
 30
0.0
 40
69.93941451608829
100
AcDbArc
 50
356.7026157837655
 51
3.70537313895591
  0
ARC
  5
1A6
330
2
100
AcDbEntity
  8
KIJUN
100
AcDbCircle
 10
475.2994931473025
 20
61.63342646396158
 30
0.0
 40
82.48746033948988
100
AcDbArc
 50
169.2961742092536
 51
175.0797655321506
  0
ARC
  5
1A7
330
2
100
AcDbEntity
  8
KIJUN
100
AcDbCircle
 10
488.8025303622838
 20
72.73108234802286
 30
0.0
 40
69.93941451608829
100
AcDbArc
 50
175.8414637278079
 51
183.2973842162347
  0
ARC
  5
1A8
330
2
100
AcDbEntity
  8
KIJUN
100
AcDbCircle
 10
336.7954048024363
 20
61.63342646396158
 30
0.0
 40
82.48746033948988
100
AcDbArc
 50
4.920234467849353
 51
11.03105227644989
  0
ARC
  5
1A9
330
2
100
AcDbEntity
  8
KIJUN
100
AcDbCircle
 10
414.9979237937466
 20
76.64983156664928
 30
0.0
 40
27.63903771957594
100
AcDbArc
 50
83.46247268018364
 51
108.6575165607909
  0
ARC
  5
1AA
330
2
100
AcDbEntity
  8
KIJUN
100
AcDbCircle
 10
409.8943976247801
 20
99.26820377291662
 30
0.0
 40
2.300617424274385
100
AcDbArc
 50
102.4459536269807
 51
199.5655944024836
  0
ARC
  5
1AB
330
2
100
AcDbEntity
  8
KIJUN
100
AcDbCircle
 10
406.4758140811212
 20
101.8889277602726
 30
0.0
 40
0.9999999999999998
100
AcDbArc
 50
108.6575165607913
 51
185.9871683179838
  0
ARC
  5
1AC
330
2
100
AcDbEntity
  8
KIJUN
100
AcDbCircle
 10
403.768971402616
 20
101.8889277602726
 30
0.0
 40
0.9999999999999998
100
AcDbArc
 50
354.0128316820163
 51
71.34248343920869
  0
ARC
  5
1AD
330
2
100
AcDbEntity
  8
KIJUN
100
AcDbCircle
 10
394.9717774366959
 20
85.37198952793261
 30
0.0
 40
17.17841416680007
100
AcDbArc
 50
70.00329177329934
 51
106.1154563477854
  0
ARC
  5
1AE
330
2
100
AcDbEntity
  8
KIJUN
100
AcDbCircle
 10
397.2520887614318
 20
89.2025632351441
 30
0.0
 40
12.53345335305288
100
AcDbArc
 50
92.31074900627966
 51
118.2943295947494
  0
ARC
  5
1AF
330
2
100
AcDbEntity
  8
KIJUN
100
AcDbCircle
 10
389.5946443106192
 20
99.04650854008849
 30
0.0
 40
1.916063292979293
100
AcDbArc
 50
252.1877486825198
 51
288.0595480392612
  0
ARC
  5
1B0
330
2
100
AcDbEntity
  8
KIJUN
100
AcDbCircle
 10
391.9162734056182
 20
99.1398626962426
 30
0.0
 40
1.254295007565215
100
AcDbArc
 50
118.8413815397682
 51
205.3252126220153
  0
ARC
  5
1B1
330
2
100
AcDbEntity
  8
KIJUN
100
AcDbCircle
 10
389.8786287583915
 20
98.17557525322461
 30
0.0
 40
0.9999999999999998
100
AcDbArc
 50
288.0595480392608
 51
25.32521262201515
  0
ARC
  5
1B2
330
2
100
AcDbEntity
  8
KIJUN
100
AcDbCircle
 10
400.5951502927429
 20
102.2217911723121
 30
0.0
 40
4.191228366718862
100
AcDbArc
 50
297.3109134041824
 51
354.0128316820162
  0
ARC
  5
1B3
330
2
100
AcDbEntity
  8
KIJUN
100
AcDbCircle
 10
400.3503878589572
 20
99.26820377291662
 30
0.0
 40
2.300617424274385
100
AcDbArc
 50
340.4344055975163
 51
77.55404637301971
  0
ARC
  5
1B4
330
2
100
AcDbEntity
  8
KIJUN
100
AcDbCircle
 10
409.6496351909943
 20
102.2217911723121
 30
0.0
 40
4.191228366718862
100
AcDbArc
 50
185.987168317984
 51
242.6890865958176
  0
ARC
  5
1B5
330
2
100
AcDbEntity
  8
KIJUN
100
AcDbCircle
 10
395.2468616899908
 20
76.64983156664928
 30
0.0
 40
27.63903771957594
100
AcDbArc
 50
71.34248343920912
 51
96.53752731981636
  0
ARC
  5
1B6
330
2
100
AcDbEntity
  8
KIJUN
100
AcDbCircle
 10
412.9926967223055
 20
89.2025632351441
 30
0.0
 40
12.53345335305288
100
AcDbArc
 50
61.70567040525062
 51
87.68925099372033
  0
ARC
  5
1B7
330
2
100
AcDbEntity
  8
KIJUN
100
AcDbCircle
 10
415.2730080470415
 20
85.37198952793261
 30
0.0
 40
17.17841416680007
100
AcDbArc
 50
73.8845436522146
 51
109.9967082267006
  0
ARC
  5
1B8
330
2
100
AcDbEntity
  8
KIJUN
100
AcDbCircle
 10
420.3661567253459
 20
98.17557525322461
 30
0.0
 40
0.9999999999999998
100
AcDbArc
 50
154.6747873779849
 51
251.9404519607391
  0
ARC
  5
1B9
330
2
100
AcDbEntity
  8
KIJUN
100
AcDbCircle
 10
418.3285120781193
 20
99.1398626962426
 30
0.0
 40
1.254295007565215
100
AcDbArc
 50
334.6747873779846
 51
61.15861846023179
  0
ARC
  5
1BA
330
2
100
AcDbEntity
  8
KIJUN
100
AcDbCircle
 10
420.6501411731182
 20
99.04650854008849
 30
0.0
 40
1.916063292979293
100
AcDbArc
 50
251.9404519607387
 51
287.8122513174801
  0
ARC
  5
1BB
330
2
100
AcDbEntity
  8
KIJUN
100
AcDbCircle
 10
421.5421616912784
 20
96.2702296413029
 30
0.0
 40
0.9999999999999998
100
AcDbArc
 50
85.03845691949903
 51
107.8122513174801
  0
LINE
  5
1BC
330
2
100
AcDbEntity
  8
KIJUN
100
AcDbLine
 10
441.1219746952242
 20
67.14652241317338
 30
0.0
 11
439.3429320660074
 21
90.78902163981807
 31
0.0
  0
LINE
  5
1BD
330
2
100
AcDbEntity
  8
KIJUN
100
AcDbLine
 10
428.8473699363031
 20
95.75617703256318
 30
0.0
 11
428.8473699363031
 21
89.1541805085329
 31
0.0
  0
ARC
  5
1BE
330
2
100
AcDbEntity
  8
KIJUN
100
AcDbCircle
 10
442.1820016150769
 20
84.63722604554876
 30
0.0
 40
9.428432294272036
100
AcDbArc
 50
129.8257371026884
 51
178.9032619304508
  0
ARC
  5
1BF
330
2
100
AcDbEntity
  8
KIJUN
100
AcDbCircle
 10
429.7415019861292
 20
97.89243093495224
 30
0.0
 40
8.783876856909097
100
AcDbArc
 50
263.9986812004665
 51
316.7889932615147
  0
ARC
  5
1C0
330
2
100
AcDbEntity
  8
KIJUN
100
AcDbCircle
 10
437.7039865747629
 20
99.84391700617589
 30
0.0
 40
3.408712577525101
100
AcDbArc
 50
11.44973132918588
 51
94.72181038945906
  0
ARC
  5
1C1
330
2
100
AcDbEntity
  8
KIJUN
100
AcDbCircle
 10
435.0690071407856
 20
109.1581084859219
 30
0.0
 40
10.50323071534851
100
AcDbArc
 50
242.2461021220273
 51
304.6773232919325
  0
ARC
  5
1C2
330
2
100
AcDbEntity
  8
KIJUN
100
AcDbCircle
 10
434.1399782374238
 20
105.8160364962599
 30
0.0
 40
8.701687079061214
100
AcDbArc
 50
241.984105840116
 51
322.5148470676276
  0
ARC
  5
1C3
330
2
100
AcDbEntity
  8
KIJUN
100
AcDbCircle
 10
437.7039865747629
 20
99.84391700617589
 30
0.0
 40
3.408712577525101
100
AcDbArc
 50
137.2387660958082
 51
141.6154591953374
  0
TEXT
  5
1C4
330
2
100
AcDbEntity
  8
HOJO
100
AcDbText
 10
0.0935079188265036
 20
1.18331300000001
 30
0.0
 40
4.5
  1
PM807
  7
SUNPOU
100
AcDbText
  0
LINE
  5
1C8
330
2
100
AcDbEntity
  8
WAKU
100
AcDbLine
 10
0.0
 20
0.0
 30
0.0
 11
44.67747103027135
 21
0.0
 31
0.0
  0
LINE
  5
1CC
330
2
100
AcDbEntity
  8
WAKU
100
AcDbLine
 10
0.0
 20
7.0
 30
0.0
 11
44.67747103027135
 21
7.0
 31
0.0
  0
TEXT
  5
1CD
330
2
100
AcDbEntity
  8
HOJO
100
AcDbText
 10
29.12850347503536
 20
2.522193000000015
 30
0.0
 40
3.0
  1
100\U+00D790
  7
SUNPOU
100
AcDbText
  0
LWPOLYLINE
  5
1CE
330
2
100
AcDbEntity
  8
KIJUN
100
AcDbPolyline
 90
       15
 70
     1
 43
0.0
 10
124.01684641311
 20
123.3910114620067
 10
119.0168464131101
 20
123.3910114620066
 42
-0.4142135623730951
 10
107.0168464131101
 20
111.3910114620066
 10
107.0168464131094
 20
104.3433653888127
 42
0.4003288264487872
 10
67.01684641311238
 20
62.3910114620067
 10
60.01684641311015
 20
62.3910114620067
 10
60.01684641311015
 20
54.3910114620067
 42
-0.4142135623730951
 10
48.01684641311016
 20
42.3910114620067
 10
48.01684641311016
 20
30.3910114620067
 10
39.01684641311016
 20
30.39101146200807
 10
39.01684641311016
 20
35.3910114620067
 10
34.01684641310999
 20
35.3910114620067
 10
34.01684641310999
 20
59.5833715335487
 10
97.74365526787079
 20
130.3910114620066
 10
124.01684641311
 20
130.3910114620066
  0
ENDSEC
  0
SECTION
  2
OBJECTS
  0
DICTIONARY
  5
C
330
0
100
AcDbDictionary
281
     1
  3
ACAD_COLOR
350
4D
  3
ACAD_GROUP
350
41
  3
ACAD_LAYOUT
350
24
  3
ACAD_MATERIAL
350
F
  3
ACAD_MLEADERSTYLE
350
50
  3
ACAD_MLINESTYLE
350
42
  3
ACAD_PLOTSETTINGS
350
43
  3
ACAD_PLOTSTYLENAME
350
B
  3
ACAD_SCALELIST
350
4E
  3
ACAD_TABLESTYLE
350
4F
  3
ACAD_VISUALSTYLE
350
37
  3
ACDB_RECOMPOSE_DATA
350
1E0
  3
AcDbVariableDictionary
350
1D4
  0
DICTIONARY
  5
8
330
7
100
AcDbDictionary
280
     1
281
     1
  3
ADSK_XREC_LAYER_RECONCILED
360
9
  0
DICTIONARY
  5
7B
330
7A
100
AcDbDictionary
280
     1
281
     1
  3
ADSK_XREC_LAYER_RECONCILED
360
7C
  0
DICTIONARY
  5
A0
330
9F
100
AcDbDictionary
280
     1
281
     1
  3
ADSK_XREC_LAYER_RECONCILED
360
A1
  0
DICTIONARY
  5
1C6
330
1C5
100
AcDbDictionary
280
     1
281
     1
  3
ADSK_XREC_LAYER_RECONCILED
360
1C7
  0
DICTIONARY
  5
1CA
330
1C9
100
AcDbDictionary
280
     1
281
     1
  3
ADSK_XREC_LAYER_RECONCILED
360
1CB
  0
DICTIONARY
  5
3
330
2
100
AcDbDictionary
280
     1
281
     1
  3
ACAD_LAYOUTSELFREF
360
4
  3
ACAD_SORTENTS
360
1CF
  0
DICTIONARY
  5
26
330
25
100
AcDbDictionary
280
     1
281
     1
  3
ACAD_LAYOUTSELFREF
360
27
  0
DICTIONARY
  5
4D
102
{ACAD_REACTORS
330
C
102
}
330
C
100
AcDbDictionary
281
     1
  0
DICTIONARY
  5
41
102
{ACAD_REACTORS
330
C
102
}
330
C
100
AcDbDictionary
281
     1
  0
DICTIONARY
  5
24
102
{ACAD_REACTORS
330
C
102
}
330
C
100
AcDbDictionary
281
     1
  3
Model
350
23
  3
ﾚｲｱｳﾄ1
350
2A
  0
DICTIONARY
  5
F
102
{ACAD_REACTORS
330
C
102
}
330
C
100
AcDbDictionary
281
     1
  3
ByBlock
350
44
  3
ByLayer
350
19
  3
Global
350
E
  0
DICTIONARY
  5
50
102
{ACAD_REACTORS
330
C
102
}
330
C
100
AcDbDictionary
281
     1
  0
DICTIONARY
  5
42
102
{ACAD_REACTORS
330
C
102
}
330
C
100
AcDbDictionary
281
     1
  3
STANDARD
350
52
  0
DICTIONARY
  5
43
102
{ACAD_REACTORS
330
C
102
}
330
C
100
AcDbDictionary
281
     1
  0
ACDBDICTIONARYWDFLT
  5
B
102
{ACAD_REACTORS
330
C
102
}
330
C
100
AcDbDictionary
281
     1
  3
Normal
350
A
100
AcDbDictionaryWithDefault
340
A
  0
DICTIONARY
  5
4E
102
{ACAD_REACTORS
330
C
102
}
330
C
100
AcDbDictionary
281
     1
  3
A0
350
58
  3
A1
350
59
  3
A2
350
5A
  3
A3
350
5B
  3
A4
350
5C
  3
A5
350
5D
  3
A6
350
5E
  3
A7
350
5F
  3
A8
350
60
  3
A9
350
61
  3
B0
350
62
  3
B1
350
63
  3
B2
350
64
  3
B3
350
65
  3
B4
350
66
  3
B5
350
67
  3
B6
350
68
  3
B7
350
69
  3
B8
350
6A
  3
B9
350
6B
  3
C0
350
6C
  3
C1
350
6D
  3
C2
350
6E
  3
C3
350
6F
  3
C4
350
70
  3
C5
350
71
  3
C6
350
72
  3
C7
350
73
  3
C8
350
74
  3
C9
350
75
  3
D0
350
76
  3
D1
350
77
  3
D2
350
78
  0
DICTIONARY
  5
4F
102
{ACAD_REACTORS
330
C
102
}
330
C
100
AcDbDictionary
281
     1
  3
Standard
350
53
  0
DICTIONARY
  5
37
102
{ACAD_REACTORS
330
C
102
}
330
C
100
AcDbDictionary
281
     1
  3
2dWireframe
350
36
  3
Realistic
350
55
  3
Wireframe
350
56
  0
XRECORD
  5
1E0
102
{ACAD_REACTORS
330
C
102
}
330
C
100
AcDbXrecord
280
     1
 90
        1
330
53
  0
DICTIONARY
  5
1D4
102
{ACAD_REACTORS
330
C
102
}
330
C
100
AcDbDictionary
281
     1
  3
CANNOSCALE
350
1D9
  3
CMLEADERSTYLE
350
1D6
  3
CTABLESTYLE
350
1D5
  3
CVIEWDETAILSTYLE
350
1D7
  3
CVIEWSECTIONSTYLE
350
1D8
  3
DIMASSOC
350
1DD
  3
HIDETEXT
350
1DC
  3
INDEXCTL
350
1DB
  3
SORTENTS
350
1DA
  3
XCLIPFRAME
350
1DE
  0
XRECORD
  5
9
102
{ACAD_REACTORS
330
8
102
}
330
8
100
AcDbXrecord
280
     1
290
     1
  0
XRECORD
  5
7C
102
{ACAD_REACTORS
330
7B
102
}
330
7B
100
AcDbXrecord
280
     1
290
     1
  0
XRECORD
  5
A1
102
{ACAD_REACTORS
330
A0
102
}
330
A0
100
AcDbXrecord
280
     1
290
     1
  0
XRECORD
  5
1C7
102
{ACAD_REACTORS
330
1C6
102
}
330
1C6
100
AcDbXrecord
280
     1
290
     1
  0
XRECORD
  5
1CB
102
{ACAD_REACTORS
330
1CA
102
}
330
1CA
100
AcDbXrecord
280
     1
290
     1
  0
XRECORD
  5
4
102
{ACAD_REACTORS
330
3
102
}
330
3
100
AcDbXrecord
280
     1
340
2
  0
SORTENTSTABLE
  5
1CF
102
{ACAD_REACTORS
330
3
102
}
330
3
100
AcDbSortentsTable
330
2
  0
XRECORD
  5
27
102
{ACAD_REACTORS
330
26
102
}
330
26
100
AcDbXrecord
280
     1
340
25
  0
LAYOUT
  5
23
102
{ACAD_XDICTIONARY
360
1E1
102
}
102
{ACAD_REACTORS
330
24
102
}
330
24
100
AcDbPlotSettings
  1

  2
なし
  4

  6

 40
0.0
 41
0.0
 42
0.0
 43
0.0
 44
0.0
 45
0.0
 46
0.0
 47
0.0
 48
0.0
 49
0.0
140
0.0
141
0.0
142
1.0
143
1.0
 70
  1712
 72
     0
 73
     0
 74
     0
  7
monochrome.ctb
 75
     0
147
1.0
148
0.0
149
0.0
100
AcDbLayout
  1
Model
 70
     1
 71
     0
 10
0.0
 20
0.0
 11
12.0
 21
9.0
 12
0.0
 22
0.0
 32
0.0
 14
0.0
 24
0.0
 34
0.0
 15
0.0
 25
0.0
 35
0.0
146
0.0
 13
0.0
 23
0.0
 33
0.0
 16
1.0
 26
0.0
 36
0.0
 17
0.0
 27
1.0
 37
0.0
 76
     0
330
2
331
35
  0
LAYOUT
  5
2A
102
{ACAD_XDICTIONARY
360
1E3
102
}
102
{ACAD_REACTORS
330
24
102
}
330
24
100
AcDbPlotSettings
  1

  2
なし
  4

  6

 40
0.0
 41
0.0
 42
0.0
 43
0.0
 44
0.0
 45
0.0
 46
0.0
 47
0.0
 48
0.0
 49
0.0
140
0.0
141
0.0
142
1.0
143
1.0
 70
   688
 72
     0
 73
     0
 74
     5
  7
monochrome.ctb
 75
    16
147
1.0
148
0.0
149
0.0
100
AcDbLayout
  1
ﾚｲｱｳﾄ1
 70
     1
 71
     1
 10
0.0
 20
0.0
 11
12.0
 21
9.0
 12
0.0
 22
0.0
 32
0.0
 14
1.000000000000000E+20
 24
1.000000000000000E+20
 34
1.000000000000000E+20
 15
-1.000000000000000E+20
 25
-1.000000000000000E+20
 35
-1.000000000000000E+20
146
0.0
 13
0.0
 23
0.0
 33
0.0
 16
1.0
 26
0.0
 36
0.0
 17
0.0
 27
1.0
 37
0.0
 76
     0
330
25
  0
MATERIAL
  5
44
102
{ACAD_XDICTIONARY
360
45
102
}
102
{ACAD_REACTORS
330
F
102
}
330
F
100
AcDbMaterial
  1
ByBlock
 72
     0
 43
0.0208333333333333
 43
0.0
 43
0.0
 43
0.0
 43
0.0
 43
0.0208333333333333
 43
0.0
 43
0.0
 43
0.0
 43
0.0
 43
1.0
 43
0.0
 43
0.0
 43
0.0
 43
0.0
 43
1.0
 77
     0
 47
0.0208333333333333
 47
0.0
 47
0.0
 47
0.0
 47
0.0
 47
0.0208333333333333
 47
0.0
 47
0.0
 47
0.0
 47
0.0
 47
1.0
 47
0.0
 47
0.0
 47
0.0
 47
0.0
 47
1.0
171
     0
 49
0.0208333333333333
 49
0.0
 49
0.0
 49
0.0
 49
0.0
 49
0.0208333333333333
 49
0.0
 49
0.0
 49
0.0
 49
0.0
 49
1.0
 49
0.0
 49
0.0
 49
0.0
 49
0.0
 49
1.0
175
     0
142
0.0208333333333333
142
0.0
142
0.0
142
0.0
142
0.0
142
0.0208333333333333
142
0.0
142
0.0
142
0.0
142
0.0
142
1.0
142
0.0
142
0.0
142
0.0
142
0.0
142
1.0
179
     0
144
0.0208333333333333
144
0.0
144
0.0
144
0.0
144
0.0
144
0.0208333333333333
144
0.0
144
0.0
144
0.0
144
0.0
144
1.0
144
0.0
144
0.0
144
0.0
144
0.0
144
1.0
147
0.0208333333333333
147
0.0
147
0.0
147
0.0
147
0.0
147
0.0208333333333333
147
0.0
147
0.0
147
0.0
147
0.0
147
1.0
147
0.0
147
0.0
147
0.0
147
0.0
147
1.0
  0
MATERIAL
  5
19
102
{ACAD_XDICTIONARY
360
1A
102
}
102
{ACAD_REACTORS
330
F
102
}
330
F
100
AcDbMaterial
  1
ByLayer
 72
     0
 43
0.0208333333333333
 43
0.0
 43
0.0
 43
0.0
 43
0.0
 43
0.0208333333333333
 43
0.0
 43
0.0
 43
0.0
 43
0.0
 43
1.0
 43
0.0
 43
0.0
 43
0.0
 43
0.0
 43
1.0
 77
     0
 47
0.0208333333333333
 47
0.0
 47
0.0
 47
0.0
 47
0.0
 47
0.0208333333333333
 47
0.0
 47
0.0
 47
0.0
 47
0.0
 47
1.0
 47
0.0
 47
0.0
 47
0.0
 47
0.0
 47
1.0
171
     0
 49
0.0208333333333333
 49
0.0
 49
0.0
 49
0.0
 49
0.0
 49
0.0208333333333333
 49
0.0
 49
0.0
 49
0.0
 49
0.0
 49
1.0
 49
0.0
 49
0.0
 49
0.0
 49
0.0
 49
1.0
175
     0
142
0.0208333333333333
142
0.0
142
0.0
142
0.0
142
0.0
142
0.0208333333333333
142
0.0
142
0.0
142
0.0
142
0.0
142
1.0
142
0.0
142
0.0
142
0.0
142
0.0
142
1.0
179
     0
144
0.0208333333333333
144
0.0
144
0.0
144
0.0
144
0.0
144
0.0208333333333333
144
0.0
144
0.0
144
0.0
144
0.0
144
1.0
144
0.0
144
0.0
144
0.0
144
0.0
144
1.0
147
0.0208333333333333
147
0.0
147
0.0
147
0.0
147
0.0
147
0.0208333333333333
147
0.0
147
0.0
147
0.0
147
0.0
147
1.0
147
0.0
147
0.0
147
0.0
147
0.0
147
1.0
  0
MATERIAL
  5
E
102
{ACAD_XDICTIONARY
360
10
102
}
102
{ACAD_REACTORS
330
F
102
}
330
F
100
AcDbMaterial
  1
Global
 72
     0
 43
0.0208333333333333
 43
0.0
 43
0.0
 43
0.0
 43
0.0
 43
0.0208333333333333
 43
0.0
 43
0.0
 43
0.0
 43
0.0
 43
1.0
 43
0.0
 43
0.0
 43
0.0
 43
0.0
 43
1.0
 77
     0
 47
0.0208333333333333
 47
0.0
 47
0.0
 47
0.0
 47
0.0
 47
0.0208333333333333
 47
0.0
 47
0.0
 47
0.0
 47
0.0
 47
1.0
 47
0.0
 47
0.0
 47
0.0
 47
0.0
 47
1.0
171
     0
 49
0.0208333333333333
 49
0.0
 49
0.0
 49
0.0
 49
0.0
 49
0.0208333333333333
 49
0.0
 49
0.0
 49
0.0
 49
0.0
 49
1.0
 49
0.0
 49
0.0
 49
0.0
 49
0.0
 49
1.0
175
     0
142
0.0208333333333333
142
0.0
142
0.0
142
0.0
142
0.0
142
0.0208333333333333
142
0.0
142
0.0
142
0.0
142
0.0
142
1.0
142
0.0
142
0.0
142
0.0
142
0.0
142
1.0
179
     0
144
0.0208333333333333
144
0.0
144
0.0
144
0.0
144
0.0
144
0.0208333333333333
144
0.0
144
0.0
144
0.0
144
0.0
144
1.0
144
0.0
144
0.0
144
0.0
144
0.0
144
1.0
147
0.0208333333333333
147
0.0
147
0.0
147
0.0
147
0.0
147
0.0208333333333333
147
0.0
147
0.0
147
0.0
147
0.0
147
1.0
147
0.0
147
0.0
147
0.0
147
0.0
147
1.0
  0
MLINESTYLE
  5
52
102
{ACAD_REACTORS
330
42
102
}
330
42
100
AcDbMlineStyle
  2
STANDARD
 70
     0
  3

 62
   256
 51
90.0
 52
90.0
 71
     2
 49
0.5
 62
   256
  6
BYLAYER
 49
-0.5
 62
   256
  6
BYLAYER
  0
ACDBPLACEHOLDER
  5
A
102
{ACAD_REACTORS
330
B
102
}
330
B
  0
SCALE
  5
58
102
{ACAD_REACTORS
330
4E
102
}
330
4E
100
AcDbScale
 70
     0
300
1:1
140
1.0
141
1.0
290
     1
  0
SCALE
  5
59
102
{ACAD_REACTORS
330
4E
102
}
330
4E
100
AcDbScale
 70
     0
300
1:2
140
1.0
141
2.0
290
     0
  0
SCALE
  5
5A
102
{ACAD_REACTORS
330
4E
102
}
330
4E
100
AcDbScale
 70
     0
300
1:4
140
1.0
141
4.0
290
     0
  0
SCALE
  5
5B
102
{ACAD_REACTORS
330
4E
102
}
330
4E
100
AcDbScale
 70
     0
300
1:5
140
1.0
141
5.0
290
     0
  0
SCALE
  5
5C
102
{ACAD_REACTORS
330
4E
102
}
330
4E
100
AcDbScale
 70
     0
300
1:8
140
1.0
141
8.0
290
     0
  0
SCALE
  5
5D
102
{ACAD_REACTORS
330
4E
102
}
330
4E
100
AcDbScale
 70
     0
300
1:10
140
1.0
141
10.0
290
     0
  0
SCALE
  5
5E
102
{ACAD_REACTORS
330
4E
102
}
330
4E
100
AcDbScale
 70
     0
300
1:16
140
1.0
141
16.0
290
     0
  0
SCALE
  5
5F
102
{ACAD_REACTORS
330
4E
102
}
330
4E
100
AcDbScale
 70
     0
300
1:20
140
1.0
141
20.0
290
     0
  0
SCALE
  5
60
102
{ACAD_REACTORS
330
4E
102
}
330
4E
100
AcDbScale
 70
     0
300
1:30
140
1.0
141
30.0
290
     0
  0
SCALE
  5
61
102
{ACAD_REACTORS
330
4E
102
}
330
4E
100
AcDbScale
 70
     0
300
1:40
140
1.0
141
40.0
290
     0
  0
SCALE
  5
62
102
{ACAD_REACTORS
330
4E
102
}
330
4E
100
AcDbScale
 70
     0
300
1:50
140
1.0
141
50.0
290
     0
  0
SCALE
  5
63
102
{ACAD_REACTORS
330
4E
102
}
330
4E
100
AcDbScale
 70
     0
300
1:100
140
1.0
141
100.0
290
     0
  0
SCALE
  5
64
102
{ACAD_REACTORS
330
4E
102
}
330
4E
100
AcDbScale
 70
     0
300
2:1
140
2.0
141
1.0
290
     0
  0
SCALE
  5
65
102
{ACAD_REACTORS
330
4E
102
}
330
4E
100
AcDbScale
 70
     0
300
4:1
140
4.0
141
1.0
290
     0
  0
SCALE
  5
66
102
{ACAD_REACTORS
330
4E
102
}
330
4E
100
AcDbScale
 70
     0
300
8:1
140
8.0
141
1.0
290
     0
  0
SCALE
  5
67
102
{ACAD_REACTORS
330
4E
102
}
330
4E
100
AcDbScale
 70
     0
300
10:1
140
10.0
141
1.0
290
     0
  0
SCALE
  5
68
102
{ACAD_REACTORS
330
4E
102
}
330
4E
100
AcDbScale
 70
     0
300
100:1
140
100.0
141
1.0
290
     0
  0
SCALE
  5
69
102
{ACAD_REACTORS
330
4E
102
}
330
4E
100
AcDbScale
 70
     0
300
1/128" = 1'-0"
140
0.0078125
141
12.0
290
     0
  0
SCALE
  5
6A
102
{ACAD_REACTORS
330
4E
102
}
330
4E
100
AcDbScale
 70
     0
300
1/64" = 1'-0"
140
0.015625
141
12.0
290
     0
  0
SCALE
  5
6B
102
{ACAD_REACTORS
330
4E
102
}
330
4E
100
AcDbScale
 70
     0
300
1/32" = 1'-0"
140
0.03125
141
12.0
290
     0
  0
SCALE
  5
6C
102
{ACAD_REACTORS
330
4E
102
}
330
4E
100
AcDbScale
 70
     0
300
1/16" = 1'-0"
140
0.0625
141
12.0
290
     0
  0
SCALE
  5
6D
102
{ACAD_REACTORS
330
4E
102
}
330
4E
100
AcDbScale
 70
     0
300
3/32" = 1'-0"
140
0.09375
141
12.0
290
     0
  0
SCALE
  5
6E
102
{ACAD_REACTORS
330
4E
102
}
330
4E
100
AcDbScale
 70
     0
300
1/8" = 1'-0"
140
0.125
141
12.0
290
     0
  0
SCALE
  5
6F
102
{ACAD_REACTORS
330
4E
102
}
330
4E
100
AcDbScale
 70
     0
300
3/16" = 1'-0"
140
0.1875
141
12.0
290
     0
  0
SCALE
  5
70
102
{ACAD_REACTORS
330
4E
102
}
330
4E
100
AcDbScale
 70
     0
300
1/4" = 1'-0"
140
0.25
141
12.0
290
     0
  0
SCALE
  5
71
102
{ACAD_REACTORS
330
4E
102
}
330
4E
100
AcDbScale
 70
     0
300
3/8" = 1'-0"
140
0.375
141
12.0
290
     0
  0
SCALE
  5
72
102
{ACAD_REACTORS
330
4E
102
}
330
4E
100
AcDbScale
 70
     0
300
1/2" = 1'-0"
140
0.5
141
12.0
290
     0
  0
SCALE
  5
73
102
{ACAD_REACTORS
330
4E
102
}
330
4E
100
AcDbScale
 70
     0
300
3/4" = 1'-0"
140
0.75
141
12.0
290
     0
  0
SCALE
  5
74
102
{ACAD_REACTORS
330
4E
102
}
330
4E
100
AcDbScale
 70
     0
300
1" = 1'-0"
140
1.0
141
12.0
290
     0
  0
SCALE
  5
75
102
{ACAD_REACTORS
330
4E
102
}
330
4E
100
AcDbScale
 70
     0
300
1-1/2" = 1'-0"
140
1.5
141
12.0
290
     0
  0
SCALE
  5
76
102
{ACAD_REACTORS
330
4E
102
}
330
4E
100
AcDbScale
 70
     0
300
3" = 1'-0"
140
3.0
141
12.0
290
     0
  0
SCALE
  5
77
102
{ACAD_REACTORS
330
4E
102
}
330
4E
100
AcDbScale
 70
     0
300
6" = 1'-0"
140
6.0
141
12.0
290
     0
  0
SCALE
  5
78
102
{ACAD_REACTORS
330
4E
102
}
330
4E
100
AcDbScale
 70
     0
300
1'-0" = 1'-0"
140
12.0
141
12.0
290
     0
  0
TABLESTYLE
  5
53
102
{ACAD_XDICTIONARY
360
54
102
}
102
{ACAD_REACTORS
330
4F
102
}
330
4F
100
AcDbTableStyle
  3
Standard
 70
     0
 71
     0
 40
0.06
 41
0.06
280
     0
281
     0
  7
STANDARD
140
0.18
170
     2
 62
     0
 63
     7
283
     0
274
    -2
284
     1
 64
     0
275
    -2
285
     1
 65
     0
276
    -2
286
     1
 66
     0
277
    -2
287
     1
 67
     0
278
    -2
288
     1
 68
     0
279
    -2
289
     1
 69
     0
  7
STANDARD
140
0.25
170
     5
 62
     0
 63
     7
283
     0
274
    -2
284
     1
 64
     0
275
    -2
285
     1
 65
     0
276
    -2
286
     1
 66
     0
277
    -2
287
     1
 67
     0
278
    -2
288
     1
 68
     0
279
    -2
289
     1
 69
     0
  7
STANDARD
140
0.18
170
     5
 62
     0
 63
     7
283
     0
274
    -2
284
     1
 64
     0
275
    -2
285
     1
 65
     0
276
    -2
286
     1
 66
     0
277
    -2
287
     1
 67
     0
278
    -2
288
     1
 68
     0
279
    -2
289
     1
 69
     0
  0
VISUALSTYLE
  5
36
102
{ACAD_XDICTIONARY
360
1E5
102
}
102
{ACAD_REACTORS
330
37
102
}
330
37
100
AcDbVisualStyle
  2

 70
     4
 71
     0
 72
     2
 73
     0
 90
        0
 40
-0.6
 41
-30.0
 62
     5
 63
     7
 74
     1
 91
        4
 64
     7
 65
   257
 75
     1
175
     1
 42
1.0
 92
        0
 66
   257
 43
1.0
 76
     1
 77
     6
 78
     2
 67
     7
 79
     5
170
     0
171
     0
290
     0
174
     0
 93
        1
 44
0.0
173
     0
291
     0
 45
0.0
1001
ACAD
1000
AcDbSavedByObjectVersion
1070
     0
  0
VISUALSTYLE
  5
55
102
{ACAD_XDICTIONARY
360
1E8
102
}
102
{ACAD_REACTORS
330
37
102
}
330
37
100
AcDbVisualStyle
  2

 70
     8
 71
     2
 72
     2
 73
     0
 90
        0
 40
-0.6
 41
-30.0
 62
     5
 63
     7
 74
     1
 91
        0
 64
     7
 65
   257
 75
     1
175
     1
 42
1.0
 92
        8
 66
     8
 43
1.0
 76
     1
 77
     6
 78
     2
 67
     7
 79
     5
170
     0
171
     0
290
     0
174
     0
 93
       13
 44
0.0
173
     0
291
     0
 45
0.0
1001
ACAD
1000
AcDbSavedByObjectVersion
1070
     0
  0
VISUALSTYLE
  5
56
102
{ACAD_XDICTIONARY
360
1EA
102
}
102
{ACAD_REACTORS
330
37
102
}
330
37
100
AcDbVisualStyle
  2
Wireframe
 70
     5
 71
     0
 72
     2
 73
     0
 90
        0
 40
-0.6
 41
-30.0
 62
     5
 63
     7
 74
     1
 91
        4
 64
     7
 65
   257
 75
     1
175
     1
 42
1.0
 92
        0
 66
   257
 43
1.0
 76
     1
 77
     6
 78
     2
 67
     7
 79
     3
170
     0
171
     0
290
     0
174
     0
 93
        1
 44
0.0
173
     0
291
     0
 45
0.0
1001
ACAD
1000
AcDbSavedByObjectVersion
1070
     0
  0
DICTIONARYVAR
  5
1D9
102
{ACAD_REACTORS
330
1D4
102
}
330
1D4
100
DictionaryVariables
280
     0
  1
1:1
  0
DICTIONARYVAR
  5
1D6
102
{ACAD_REACTORS
330
1D4
102
}
330
1D4
100
DictionaryVariables
280
     0
  1
STANDARD
  0
DICTIONARYVAR
  5
1D5
102
{ACAD_REACTORS
330
1D4
102
}
330
1D4
100
DictionaryVariables
280
     0
  1
STANDARD
  0
DICTIONARYVAR
  5
1D7
102
{ACAD_REACTORS
330
1D4
102
}
330
1D4
100
DictionaryVariables
280
     0
  1

  0
DICTIONARYVAR
  5
1D8
102
{ACAD_REACTORS
330
1D4
102
}
330
1D4
100
DictionaryVariables
280
     0
  1

  0
DICTIONARYVAR
  5
1DD
102
{ACAD_REACTORS
330
1D4
102
}
330
1D4
100
DictionaryVariables
280
     0
  1
1
  0
DICTIONARYVAR
  5
1DC
102
{ACAD_REACTORS
330
1D4
102
}
330
1D4
100
DictionaryVariables
280
     0
  1
1
  0
DICTIONARYVAR
  5
1DB
102
{ACAD_REACTORS
330
1D4
102
}
330
1D4
100
DictionaryVariables
280
     0
  1
0
  0
DICTIONARYVAR
  5
1DA
102
{ACAD_REACTORS
330
1D4
102
}
330
1D4
100
DictionaryVariables
280
     0
  1
127
  0
DICTIONARYVAR
  5
1DE
102
{ACAD_REACTORS
330
1D4
102
}
330
1D4
100
DictionaryVariables
280
     0
  1
2
  0
DICTIONARY
  5
1E1
330
23
100
AcDbDictionary
280
     1
281
     1
  3
ACAD_XREC_ROUNDTRIP
360
1E2
  0
DICTIONARY
  5
1E3
330
2A
100
AcDbDictionary
280
     1
281
     1
  3
ACAD_XREC_ROUNDTRIP
360
1E4
  0
DICTIONARY
  5
45
330
44
100
AcDbDictionary
280
     1
281
     1
  3
ACAD_XREC_ROUNDTRIP
360
46
  3
BUMPTILE
360
47
  3
DIFFUSETILE
360
48
  3
OPACITYTILE
360
49
  3
REFLECTIONTILE
360
4A
  3
REFRACTIONTILE
360
4B
  3
SPECULARTILE
360
4C
  0
DICTIONARY
  5
1A
330
19
100
AcDbDictionary
280
     1
281
     1
  3
ACAD_XREC_ROUNDTRIP
360
1B
  3
BUMPTILE
360
1C
  3
DIFFUSETILE
360
1D
  3
OPACITYTILE
360
1E
  3
REFLECTIONTILE
360
1F
  3
REFRACTIONTILE
360
20
  3
SPECULARTILE
360
21
  0
DICTIONARY
  5
10
330
E
100
AcDbDictionary
280
     1
281
     1
  3
ACAD_XREC_ROUNDTRIP
360
11
  3
BUMPTILE
360
12
  3
DIFFUSETILE
360
13
  3
OPACITYTILE
360
14
  3
REFLECTIONTILE
360
15
  3
REFRACTIONTILE
360
16
  3
SPECULARTILE
360
17
  0
DICTIONARY
  5
54
330
53
100
AcDbDictionary
280
     1
281
     1
  3
ACAD_ROUNDTRIP_2008_TABLESTYLE_CELLSTYLEMAP
360
1DF
  3
ACAD_XREC_ROUNDTRIP
360
1E7
  0
DICTIONARY
  5
1E5
330
36
100
AcDbDictionary
280
     1
281
     1
  3
ACAD_XREC_ROUNDTRIP
360
1E6
  0
DICTIONARY
  5
1E8
330
55
100
AcDbDictionary
280
     1
281
     1
  3
ACAD_XREC_ROUNDTRIP
360
1E9
  0
DICTIONARY
  5
1EA
330
56
100
AcDbDictionary
280
     1
281
     1
  3
ACAD_XREC_ROUNDTRIP
360
1EB
  0
XRECORD
  5
1E2
102
{ACAD_REACTORS
330
1E1
102
}
330
1E1
100
AcDbXrecord
280
     1
102
SHADEPLOT
 70
     0
102
SHADEPLOTRESLEVEL
 70
     2
102
SHADEPLOTCUSTOMDPI
 70
   300
  0
XRECORD
  5
1E4
102
{ACAD_REACTORS
330
1E3
102
}
330
1E3
100
AcDbXrecord
280
     1
102
SHADEPLOT
 70
     0
102
SHADEPLOTRESLEVEL
 70
     2
102
SHADEPLOTCUSTOMDPI
 70
   300
  0
XRECORD
  5
46
102
{ACAD_REACTORS
330
45
102
}
330
45
100
AcDbXrecord
280
     1
102
MATERIAL
148
0.0
149
0.0
149
0.0
 93
        0
 94
      127
282
     0
 72
     0
 77
     0
171
     0
175
     0
179
     0
273
     0
  0
XRECORD
  5
47
102
{ACAD_REACTORS
330
45
102
}
330
45
100
AcDbXrecord
280
     1
270
     1
271
     1
  0
XRECORD
  5
48
102
{ACAD_REACTORS
330
45
102
}
330
45
100
AcDbXrecord
280
     1
270
     1
271
     1
  0
XRECORD
  5
49
102
{ACAD_REACTORS
330
45
102
}
330
45
100
AcDbXrecord
280
     1
270
     1
271
     1
  0
XRECORD
  5
4A
102
{ACAD_REACTORS
330
45
102
}
330
45
100
AcDbXrecord
280
     1
270
     1
271
     1
  0
XRECORD
  5
4B
102
{ACAD_REACTORS
330
45
102
}
330
45
100
AcDbXrecord
280
     1
270
     1
271
     1
  0
XRECORD
  5
4C
102
{ACAD_REACTORS
330
45
102
}
330
45
100
AcDbXrecord
280
     1
270
     1
271
     1
  0
XRECORD
  5
1B
102
{ACAD_REACTORS
330
1A
102
}
330
1A
100
AcDbXrecord
280
     1
102
MATERIAL
148
0.0
149
0.0
149
0.0
 93
        0
 94
      127
282
     0
 72
     0
 77
     0
171
     0
175
     0
179
     0
273
     0
  0
XRECORD
  5
1C
102
{ACAD_REACTORS
330
1A
102
}
330
1A
100
AcDbXrecord
280
     1
270
     1
271
     1
  0
XRECORD
  5
1D
102
{ACAD_REACTORS
330
1A
102
}
330
1A
100
AcDbXrecord
280
     1
270
     1
271
     1
  0
XRECORD
  5
1E
102
{ACAD_REACTORS
330
1A
102
}
330
1A
100
AcDbXrecord
280
     1
270
     1
271
     1
  0
XRECORD
  5
1F
102
{ACAD_REACTORS
330
1A
102
}
330
1A
100
AcDbXrecord
280
     1
270
     1
271
     1
  0
XRECORD
  5
20
102
{ACAD_REACTORS
330
1A
102
}
330
1A
100
AcDbXrecord
280
     1
270
     1
271
     1
  0
XRECORD
  5
21
102
{ACAD_REACTORS
330
1A
102
}
330
1A
100
AcDbXrecord
280
     1
270
     1
271
     1
  0
XRECORD
  5
11
102
{ACAD_REACTORS
330
10
102
}
330
10
100
AcDbXrecord
280
     1
102
MATERIAL
148
0.0
149
0.0
149
0.0
 93
        0
 94
      127
282
     0
 72
     0
 77
     0
171
     0
175
     0
179
     0
273
     0
  0
XRECORD
  5
12
102
{ACAD_REACTORS
330
10
102
}
330
10
100
AcDbXrecord
280
     1
270
     1
271
     1
  0
XRECORD
  5
13
102
{ACAD_REACTORS
330
10
102
}
330
10
100
AcDbXrecord
280
     1
270
     1
271
     1
  0
XRECORD
  5
14
102
{ACAD_REACTORS
330
10
102
}
330
10
100
AcDbXrecord
280
     1
270
     1
271
     1
  0
XRECORD
  5
15
102
{ACAD_REACTORS
330
10
102
}
330
10
100
AcDbXrecord
280
     1
270
     1
271
     1
  0
XRECORD
  5
16
102
{ACAD_REACTORS
330
10
102
}
330
10
100
AcDbXrecord
280
     1
270
     1
271
     1
  0
XRECORD
  5
17
102
{ACAD_REACTORS
330
10
102
}
330
10
100
AcDbXrecord
280
     1
270
     1
271
     1
  0
CELLSTYLEMAP
  5
1DF
102
{ACAD_REACTORS
330
54
102
}
330
54
100
AcDbCellStyleMap
 90
        3
300
CELLSTYLE
  1
TABLEFORMAT_BEGIN
 90
        5
170
     1
 91
        0
 92
    32768
 62
   257
 93
        1
300
CONTENTFORMAT
  1
CONTENTFORMAT_BEGIN
 90
        0
 91
        0
 92
        4
 93
        0
300

 40
0.0
140
1.0
 94
        5
 62
     0
340
2D
144
0.25
309
CONTENTFORMAT_END
171
     1
301
MARGIN
  1
CELLMARGIN_BEGIN
 40
0.06
 40
0.06
 40
0.06
 40
0.06
 40
0.18
 40
0.18
309
CELLMARGIN_END
 94
        6
 95
        1
302
GRIDFORMAT
  1
GRIDFORMAT_BEGIN
 90
        0
 91
        1
 62
     0
 92
       -2
340
0
 93
        0
 40
0.045
309
GRIDFORMAT_END
 95
        2
302
GRIDFORMAT
  1
GRIDFORMAT_BEGIN
 90
        0
 91
        1
 62
     0
 92
       -2
340
0
 93
        0
 40
0.045
309
GRIDFORMAT_END
 95
        4
302
GRIDFORMAT
  1
GRIDFORMAT_BEGIN
 90
        0
 91
        1
 62
     0
 92
       -2
340
0
 93
        0
 40
0.045
309
GRIDFORMAT_END
 95
        8
302
GRIDFORMAT
  1
GRIDFORMAT_BEGIN
 90
        0
 91
        1
 62
     0
 92
       -2
340
0
 93
        0
 40
0.045
309
GRIDFORMAT_END
 95
       16
302
GRIDFORMAT
  1
GRIDFORMAT_BEGIN
 90
        0
 91
        1
 62
     0
 92
       -2
340
0
 93
        0
 40
0.045
309
GRIDFORMAT_END
 95
       32
302
GRIDFORMAT
  1
GRIDFORMAT_BEGIN
 90
        0
 91
        1
 62
     0
 92
       -2
340
0
 93
        0
 40
0.045
309
GRIDFORMAT_END
309
TABLEFORMAT_END
  1
CELLSTYLE_BEGIN
 90
        1
 91
        1
300
_TITLE
309
CELLSTYLE_END
300
CELLSTYLE
  1
TABLEFORMAT_BEGIN
 90
        5
170
     1
 91
        0
 92
        0
 62
   257
 93
        1
300
CONTENTFORMAT
  1
CONTENTFORMAT_BEGIN
 90
        0
 91
        0
 92
        4
 93
        0
300

 40
0.0
140
1.0
 94
        5
 62
     0
340
2D
144
0.18
309
CONTENTFORMAT_END
171
     1
301
MARGIN
  1
CELLMARGIN_BEGIN
 40
0.06
 40
0.06
 40
0.06
 40
0.06
 40
0.18
 40
0.18
309
CELLMARGIN_END
 94
        6
 95
        1
302
GRIDFORMAT
  1
GRIDFORMAT_BEGIN
 90
        0
 91
        1
 62
     0
 92
       -2
340
0
 93
        0
 40
0.045
309
GRIDFORMAT_END
 95
        2
302
GRIDFORMAT
  1
GRIDFORMAT_BEGIN
 90
        0
 91
        1
 62
     0
 92
       -2
340
0
 93
        0
 40
0.045
309
GRIDFORMAT_END
 95
        4
302
GRIDFORMAT
  1
GRIDFORMAT_BEGIN
 90
        0
 91
        1
 62
     0
 92
       -2
340
0
 93
        0
 40
0.045
309
GRIDFORMAT_END
 95
        8
302
GRIDFORMAT
  1
GRIDFORMAT_BEGIN
 90
        0
 91
        1
 62
     0
 92
       -2
340
0
 93
        0
 40
0.045
309
GRIDFORMAT_END
 95
       16
302
GRIDFORMAT
  1
GRIDFORMAT_BEGIN
 90
        0
 91
        1
 62
     0
 92
       -2
340
0
 93
        0
 40
0.045
309
GRIDFORMAT_END
 95
       32
302
GRIDFORMAT
  1
GRIDFORMAT_BEGIN
 90
        0
 91
        1
 62
     0
 92
       -2
340
0
 93
        0
 40
0.045
309
GRIDFORMAT_END
309
TABLEFORMAT_END
  1
CELLSTYLE_BEGIN
 90
        2
 91
        1
300
_HEADER
309
CELLSTYLE_END
300
CELLSTYLE
  1
TABLEFORMAT_BEGIN
 90
        5
170
     1
 91
        0
 92
        0
 62
   257
 93
        1
300
CONTENTFORMAT
  1
CONTENTFORMAT_BEGIN
 90
        0
 91
        0
 92
        4
 93
        0
300

 40
0.0
140
1.0
 94
        2
 62
     0
340
2D
144
0.18
309
CONTENTFORMAT_END
171
     1
301
MARGIN
  1
CELLMARGIN_BEGIN
 40
0.06
 40
0.06
 40
0.06
 40
0.06
 40
0.18
 40
0.18
309
CELLMARGIN_END
 94
        6
 95
        1
302
GRIDFORMAT
  1
GRIDFORMAT_BEGIN
 90
        0
 91
        1
 62
     0
 92
       -2
340
0
 93
        0
 40
0.045
309
GRIDFORMAT_END
 95
        2
302
GRIDFORMAT
  1
GRIDFORMAT_BEGIN
 90
        0
 91
        1
 62
     0
 92
       -2
340
0
 93
        0
 40
0.045
309
GRIDFORMAT_END
 95
        4
302
GRIDFORMAT
  1
GRIDFORMAT_BEGIN
 90
        0
 91
        1
 62
     0
 92
       -2
340
0
 93
        0
 40
0.045
309
GRIDFORMAT_END
 95
        8
302
GRIDFORMAT
  1
GRIDFORMAT_BEGIN
 90
        0
 91
        1
 62
     0
 92
       -2
340
0
 93
        0
 40
0.045
309
GRIDFORMAT_END
 95
       16
302
GRIDFORMAT
  1
GRIDFORMAT_BEGIN
 90
        0
 91
        1
 62
     0
 92
       -2
340
0
 93
        0
 40
0.045
309
GRIDFORMAT_END
 95
       32
302
GRIDFORMAT
  1
GRIDFORMAT_BEGIN
 90
        0
 91
        1
 62
     0
 92
       -2
340
0
 93
        0
 40
0.045
309
GRIDFORMAT_END
309
TABLEFORMAT_END
  1
CELLSTYLE_BEGIN
 90
        3
 91
        2
300
_DATA
309
CELLSTYLE_END
  0
XRECORD
  5
1E7
102
{ACAD_REACTORS
330
54
102
}
330
54
100
AcDbXrecord
280
     1
102
ACAD_ROUNDTRIP_PRE2007_TABLESTYLE
 90
        4
 91
        0
  1

 92
        4
 93
        0
  2

 94
        4
 95
        0
  3

  0
XRECORD
  5
1E6
102
{ACAD_REACTORS
330
1E5
102
}
330
1E5
100
AcDbXrecord
280
     1
102
RTVSPost2010Prop28
280
     1
102
RTVSPost2010PropOp28
 70
     1
102
RTVSPost2010Prop29
280
     1
102
RTVSPost2010PropOp29
 70
     1
102
RTVSPost2010Prop30
280
     0
102
RTVSPost2010PropOp30
 70
     1
102
RTVSPost2010Prop31
280
     0
102
RTVSPost2010PropOp31
 70
     1
102
RTVSPost2010Prop32
280
     0
102
RTVSPost2010PropOp32
 70
     1
102
RTVSPost2010Prop33
280
     0
102
RTVSPost2010PropOp33
 70
     1
102
RTVSPost2010Prop34
280
     0
102
RTVSPost2010PropOp34
 70
     1
102
RTVSPost2010Prop35
280
     0
102
RTVSPost2010PropOp35
 70
     1
102
RTVSPost2010Prop36
280
     0
102
RTVSPost2010PropOp36
 70
     1
102
RTVSPost2010Prop37
 90
       50
102
RTVSPost2010PropOp37
 70
     1
102
RTVSPost2010Prop38
140
0.0
102
RTVSPost2010PropOp38
 70
     1
102
RTVSPost2010Prop39
140
1.0
102
RTVSPost2010PropOp39
 70
     1
102
RTVSPost2010Prop40
 90
        0
102
RTVSPost2010PropOp40
 70
     1
102
RTVSPost2010Prop41ColorIndex
 90
       18
102
RTVSPost2010Prop41ColorRGB
 90
        0
102
RTVSPost2010PropOp41
 70
     1
102
RTVSPost2010Prop42
 90
       50
102
RTVSPost2010PropOp42
 70
     1
102
RTVSPost2010Prop43
 90
        3
102
RTVSPost2010PropOp43
 70
     1
102
RTVSPost2010Prop44ColorIndex
 90
        5
102
RTVSPost2010Prop44ColorRGB
 90
      255
102
RTVSPost2010PropOp44
 70
     1
102
RTVSPost2010Prop45
280
     0
102
RTVSPost2010PropOp45
 70
     1
102
RTVSPost2010Prop46
 90
       50
102
RTVSPost2010PropOp46
 70
     1
102
RTVSPost2010Prop47
 90
       50
102
RTVSPost2010PropOp47
 70
     1
102
RTVSPost2010Prop48
 90
       50
102
RTVSPost2010PropOp48
 70
     1
102
RTVSPost2010Prop49
280
     0
102
RTVSPost2010PropOp49
 70
     1
102
RTVSPost2010Prop50
 90
       50
102
RTVSPost2010PropOp50
 70
     1
102
RTVSPost2010Prop51ColorIndex
 90
      256
102
RTVSPost2010Prop51ColorRGB
 90
-16777216
102
RTVSPost2010PropOp51
 70
     0
102
RTVSPost2010Prop52
140
1.0
102
RTVSPost2010PropOp52
 70
     0
102
RTVSPost2010Prop53
 90
        2
102
RTVSPost2010PropOp53
 70
     1
102
RTVSPost2010Prop54
  1
strokes_ogs.tif
102
RTVSPost2010PropOp54
 70
     1
102
RTVSPost2010Prop55
280
     0
102
RTVSPost2010PropOp55
 70
     1
102
RTVSPost2010Prop56
140
1.0
102
RTVSPost2010PropOp56
 70
     1
102
RTVSPost2010Prop57
140
1.0
102
RTVSPost2010PropOp57
 70
     1
102
RTVSPropertyOp0
 70
     1
102
RTVSPropertyOp1
 70
     1
102
RTVSPropertyOp2
 70
     1
102
RTVSPropertyOp3
 70
     1
102
RTVSPropertyOp4
 70
     1
102
RTVSPropertyOp5
 70
     1
102
RTVSPropertyOp6
 70
     1
102
RTVSPropertyOp7
 70
     1
102
RTVSPropertyOp8
 70
     1
102
RTVSPropertyOp9
 70
     1
102
RTVSPropertyOp10
 70
     1
102
RTVSPropertyOp11
 70
     1
102
RTVSPropertyOp12
 70
     1
102
RTVSPropertyOp13
 70
     1
102
RTVSPropertyOp14
 70
     1
102
RTVSPropertyOp15
 70
     1
102
RTVSPropertyOp16
 70
     1
102
RTVSPropertyOp17
 70
     1
102
RTVSPropertyOp18
 70
     1
102
RTVSPropertyOp19
 70
     1
102
RTVSPropertyOp20
 70
     1
102
RTVSPropertyOp21
 70
     1
102
RTVSPropertyOp22
 70
     1
102
RTVSPropertyOp23
 70
     1
102
RTVSPropertyOp24
 70
     1
102
RTVSPropertyOp25
 70
     1
102
RTVSPropertyOp26
 70
     1
102
RTVSPropertyOp27
 70
     1
102
RTVSPropertyOp28
 70
     1
102
RTVSPropertyOp29
 70
     1
102
RTVSPropertyOp30
 70
     1
102
RTVSPropertyOp31
 70
     1
102
RTVSPropertyOp32
 70
     1
102
RTVSPropertyOp33
 70
     1
102
RTVSPropertyOp34
 70
     1
102
RTVSPropertyOp35
 70
     1
102
RTVSPropertyOp36
 70
     1
102
RTVSPropertyOp37
 70
     1
102
RTVSPropertyOp38
 70
     1
102
RTVSPropertyOp39
 70
     1
102
RTVSPropertyOp40
 70
     1
102
RTVSPropertyOp41
 70
     1
102
RTVSPropertyOp42
 70
     1
102
RTVSPropertyOp43
 70
     1
102
RTVSPropertyOp44
 70
     1
102
RTVSPropertyOp45
 70
     1
102
RTVSPropertyOp46
 70
     1
102
RTVSPropertyOp47
 70
     1
102
RTVSPropertyOp48
 70
     1
102
RTVSPropertyOp49
 70
     1
102
RTVSPropertyOp50
 70
     1
102
RTVSPropertyOp51
 70
     0
102
RTVSPropertyOp52
 70
     0
102
RTVSPropertyOp53
 70
     1
102
RTVSPropertyOp54
 70
     1
102
RTVSPropertyOp55
 70
     1
102
RTVSPropertyOp56
 70
     1
102
RTVSPropertyOp57
 70
     1
102
RTVSPropertyOp58
 70
     1
102
RTVSPropertyOp59
 70
     1
102
RTVSPropertyOp60
 70
     1
102
RTVSPropertyOp61
 70
     1
102
RTVSPropertyOp62
 70
     1
  0
XRECORD
  5
1E9
102
{ACAD_REACTORS
330
1E8
102
}
330
1E8
100
AcDbXrecord
280
     1
102
RTVSPost2010Prop28
280
     0
102
RTVSPost2010PropOp28
 70
     1
102
RTVSPost2010Prop29
280
     1
102
RTVSPost2010PropOp29
 70
     1
102
RTVSPost2010Prop30
280
     1
102
RTVSPost2010PropOp30
 70
     1
102
RTVSPost2010Prop31
280
     0
102
RTVSPost2010PropOp31
 70
     1
102
RTVSPost2010Prop32
280
     0
102
RTVSPost2010PropOp32
 70
     1
102
RTVSPost2010Prop33
280
     0
102
RTVSPost2010PropOp33
 70
     1
102
RTVSPost2010Prop34
280
     0
102
RTVSPost2010PropOp34
 70
     1
102
RTVSPost2010Prop35
280
     0
102
RTVSPost2010PropOp35
 70
     1
102
RTVSPost2010Prop36
280
     0
102
RTVSPost2010PropOp36
 70
     1
102
RTVSPost2010Prop37
 90
       50
102
RTVSPost2010PropOp37
 70
     1
102
RTVSPost2010Prop38
140
0.0
102
RTVSPost2010PropOp38
 70
     1
102
RTVSPost2010Prop39
140
1.0
102
RTVSPost2010PropOp39
 70
     1
102
RTVSPost2010Prop40
 90
        0
102
RTVSPost2010PropOp40
 70
     1
102
RTVSPost2010Prop41ColorIndex
 90
       18
102
RTVSPost2010Prop41ColorRGB
 90
        0
102
RTVSPost2010PropOp41
 70
     1
102
RTVSPost2010Prop42
 90
       50
102
RTVSPost2010PropOp42
 70
     1
102
RTVSPost2010Prop43
 90
        3
102
RTVSPost2010PropOp43
 70
     1
102
RTVSPost2010Prop44ColorIndex
 90
        5
102
RTVSPost2010Prop44ColorRGB
 90
      255
102
RTVSPost2010PropOp44
 70
     1
102
RTVSPost2010Prop45
280
     0
102
RTVSPost2010PropOp45
 70
     1
102
RTVSPost2010Prop46
 90
       50
102
RTVSPost2010PropOp46
 70
     1
102
RTVSPost2010Prop47
 90
       50
102
RTVSPost2010PropOp47
 70
     1
102
RTVSPost2010Prop48
 90
       50
102
RTVSPost2010PropOp48
 70
     1
102
RTVSPost2010Prop49
280
     0
102
RTVSPost2010PropOp49
 70
     1
102
RTVSPost2010Prop50
 90
       50
102
RTVSPost2010PropOp50
 70
     1
102
RTVSPost2010Prop51ColorIndex
 90
      256
102
RTVSPost2010Prop51ColorRGB
 90
-16777216
102
RTVSPost2010PropOp51
 70
     0
102
RTVSPost2010Prop52
140
1.0
102
RTVSPost2010PropOp52
 70
     0
102
RTVSPost2010Prop53
 90
        2
102
RTVSPost2010PropOp53
 70
     1
102
RTVSPost2010Prop54
  1
strokes_ogs.tif
102
RTVSPost2010PropOp54
 70
     1
102
RTVSPost2010Prop55
280
     0
102
RTVSPost2010PropOp55
 70
     1
102
RTVSPost2010Prop56
140
1.0
102
RTVSPost2010PropOp56
 70
     1
102
RTVSPost2010Prop57
140
1.0
102
RTVSPost2010PropOp57
 70
     1
102
RTVSPropertyOp0
 70
     1
102
RTVSPropertyOp1
 70
     1
102
RTVSPropertyOp2
 70
     1
102
RTVSPropertyOp3
 70
     1
102
RTVSPropertyOp4
 70
     1
102
RTVSPropertyOp5
 70
     1
102
RTVSPropertyOp6
 70
     1
102
RTVSPropertyOp7
 70
     1
102
RTVSPropertyOp8
 70
     1
102
RTVSPropertyOp9
 70
     1
102
RTVSPropertyOp10
 70
     1
102
RTVSPropertyOp11
 70
     1
102
RTVSPropertyOp12
 70
     1
102
RTVSPropertyOp13
 70
     1
102
RTVSPropertyOp14
 70
     1
102
RTVSPropertyOp15
 70
     1
102
RTVSPropertyOp16
 70
     1
102
RTVSPropertyOp17
 70
     1
102
RTVSPropertyOp18
 70
     1
102
RTVSPropertyOp19
 70
     1
102
RTVSPropertyOp20
 70
     1
102
RTVSPropertyOp21
 70
     1
102
RTVSPropertyOp22
 70
     1
102
RTVSPropertyOp23
 70
     1
102
RTVSPropertyOp24
 70
     1
102
RTVSPropertyOp25
 70
     1
102
RTVSPropertyOp26
 70
     1
102
RTVSPropertyOp27
 70
     1
102
RTVSPropertyOp28
 70
     1
102
RTVSPropertyOp29
 70
     1
102
RTVSPropertyOp30
 70
     1
102
RTVSPropertyOp31
 70
     1
102
RTVSPropertyOp32
 70
     1
102
RTVSPropertyOp33
 70
     1
102
RTVSPropertyOp34
 70
     1
102
RTVSPropertyOp35
 70
     1
102
RTVSPropertyOp36
 70
     1
102
RTVSPropertyOp37
 70
     1
102
RTVSPropertyOp38
 70
     1
102
RTVSPropertyOp39
 70
     1
102
RTVSPropertyOp40
 70
     1
102
RTVSPropertyOp41
 70
     1
102
RTVSPropertyOp42
 70
     1
102
RTVSPropertyOp43
 70
     1
102
RTVSPropertyOp44
 70
     1
102
RTVSPropertyOp45
 70
     1
102
RTVSPropertyOp46
 70
     1
102
RTVSPropertyOp47
 70
     1
102
RTVSPropertyOp48
 70
     1
102
RTVSPropertyOp49
 70
     1
102
RTVSPropertyOp50
 70
     1
102
RTVSPropertyOp51
 70
     0
102
RTVSPropertyOp52
 70
     0
102
RTVSPropertyOp53
 70
     1
102
RTVSPropertyOp54
 70
     1
102
RTVSPropertyOp55
 70
     1
102
RTVSPropertyOp56
 70
     1
102
RTVSPropertyOp57
 70
     1
102
RTVSPropertyOp58
 70
     1
102
RTVSPropertyOp59
 70
     1
102
RTVSPropertyOp60
 70
     1
102
RTVSPropertyOp61
 70
     1
102
RTVSPropertyOp62
 70
     1
  0
XRECORD
  5
1EB
102
{ACAD_REACTORS
330
1EA
102
}
330
1EA
100
AcDbXrecord
280
     1
102
RTVSPost2010Prop28
280
     0
102
RTVSPost2010PropOp28
 70
     1
102
RTVSPost2010Prop29
280
     1
102
RTVSPost2010PropOp29
 70
     1
102
RTVSPost2010Prop30
280
     1
102
RTVSPost2010PropOp30
 70
     1
102
RTVSPost2010Prop31
280
     0
102
RTVSPost2010PropOp31
 70
     1
102
RTVSPost2010Prop32
280
     0
102
RTVSPost2010PropOp32
 70
     1
102
RTVSPost2010Prop33
280
     0
102
RTVSPost2010PropOp33
 70
     1
102
RTVSPost2010Prop34
280
     0
102
RTVSPost2010PropOp34
 70
     1
102
RTVSPost2010Prop35
280
     0
102
RTVSPost2010PropOp35
 70
     1
102
RTVSPost2010Prop36
280
     0
102
RTVSPost2010PropOp36
 70
     1
102
RTVSPost2010Prop37
 90
       50
102
RTVSPost2010PropOp37
 70
     1
102
RTVSPost2010Prop38
140
0.0
102
RTVSPost2010PropOp38
 70
     1
102
RTVSPost2010Prop39
140
1.0
102
RTVSPost2010PropOp39
 70
     1
102
RTVSPost2010Prop40
 90
        0
102
RTVSPost2010PropOp40
 70
     1
102
RTVSPost2010Prop41ColorIndex
 90
       18
102
RTVSPost2010Prop41ColorRGB
 90
        0
102
RTVSPost2010PropOp41
 70
     1
102
RTVSPost2010Prop42
 90
       50
102
RTVSPost2010PropOp42
 70
     1
102
RTVSPost2010Prop43
 90
        3
102
RTVSPost2010PropOp43
 70
     1
102
RTVSPost2010Prop44ColorIndex
 90
        5
102
RTVSPost2010Prop44ColorRGB
 90
      255
102
RTVSPost2010PropOp44
 70
     1
102
RTVSPost2010Prop45
280
     0
102
RTVSPost2010PropOp45
 70
     1
102
RTVSPost2010Prop46
 90
       50
102
RTVSPost2010PropOp46
 70
     1
102
RTVSPost2010Prop47
 90
       50
102
RTVSPost2010PropOp47
 70
     1
102
RTVSPost2010Prop48
 90
       50
102
RTVSPost2010PropOp48
 70
     1
102
RTVSPost2010Prop49
280
     0
102
RTVSPost2010PropOp49
 70
     1
102
RTVSPost2010Prop50
 90
       50
102
RTVSPost2010PropOp50
 70
     1
102
RTVSPost2010Prop51ColorIndex
 90
      256
102
RTVSPost2010Prop51ColorRGB
 90
-16777216
102
RTVSPost2010PropOp51
 70
     0
102
RTVSPost2010Prop52
140
1.0
102
RTVSPost2010PropOp52
 70
     0
102
RTVSPost2010Prop53
 90
        2
102
RTVSPost2010PropOp53
 70
     1
102
RTVSPost2010Prop54
  1
strokes_ogs.tif
102
RTVSPost2010PropOp54
 70
     1
102
RTVSPost2010Prop55
280
     0
102
RTVSPost2010PropOp55
 70
     1
102
RTVSPost2010Prop56
140
1.0
102
RTVSPost2010PropOp56
 70
     1
102
RTVSPost2010Prop57
140
1.0
102
RTVSPost2010PropOp57
 70
     1
102
RTVSPropertyOp0
 70
     1
102
RTVSPropertyOp1
 70
     1
102
RTVSPropertyOp2
 70
     1
102
RTVSPropertyOp3
 70
     1
102
RTVSPropertyOp4
 70
     1
102
RTVSPropertyOp5
 70
     1
102
RTVSPropertyOp6
 70
     1
102
RTVSPropertyOp7
 70
     1
102
RTVSPropertyOp8
 70
     1
102
RTVSPropertyOp9
 70
     1
102
RTVSPropertyOp10
 70
     1
102
RTVSPropertyOp11
 70
     1
102
RTVSPropertyOp12
 70
     1
102
RTVSPropertyOp13
 70
     1
102
RTVSPropertyOp14
 70
     1
102
RTVSPropertyOp15
 70
     1
102
RTVSPropertyOp16
 70
     1
102
RTVSPropertyOp17
 70
     1
102
RTVSPropertyOp18
 70
     1
102
RTVSPropertyOp19
 70
     1
102
RTVSPropertyOp20
 70
     1
102
RTVSPropertyOp21
 70
     1
102
RTVSPropertyOp22
 70
     1
102
RTVSPropertyOp23
 70
     1
102
RTVSPropertyOp24
 70
     1
102
RTVSPropertyOp25
 70
     1
102
RTVSPropertyOp26
 70
     1
102
RTVSPropertyOp27
 70
     1
102
RTVSPropertyOp28
 70
     1
102
RTVSPropertyOp29
 70
     1
102
RTVSPropertyOp30
 70
     1
102
RTVSPropertyOp31
 70
     1
102
RTVSPropertyOp32
 70
     1
102
RTVSPropertyOp33
 70
     1
102
RTVSPropertyOp34
 70
     1
102
RTVSPropertyOp35
 70
     1
102
RTVSPropertyOp36
 70
     1
102
RTVSPropertyOp37
 70
     1
102
RTVSPropertyOp38
 70
     1
102
RTVSPropertyOp39
 70
     1
102
RTVSPropertyOp40
 70
     1
102
RTVSPropertyOp41
 70
     1
102
RTVSPropertyOp42
 70
     1
102
RTVSPropertyOp43
 70
     1
102
RTVSPropertyOp44
 70
     1
102
RTVSPropertyOp45
 70
     1
102
RTVSPropertyOp46
 70
     1
102
RTVSPropertyOp47
 70
     1
102
RTVSPropertyOp48
 70
     1
102
RTVSPropertyOp49
 70
     1
102
RTVSPropertyOp50
 70
     1
102
RTVSPropertyOp51
 70
     0
102
RTVSPropertyOp52
 70
     0
102
RTVSPropertyOp53
 70
     1
102
RTVSPropertyOp54
 70
     1
102
RTVSPropertyOp55
 70
     1
102
RTVSPropertyOp56
 70
     1
102
RTVSPropertyOp57
 70
     1
102
RTVSPropertyOp58
 70
     1
102
RTVSPropertyOp59
 70
     1
102
RTVSPropertyOp60
 70
     1
102
RTVSPropertyOp61
 70
     1
102
RTVSPropertyOp62
 70
     1
  0
ENDSEC
  0
EOF
