  0
SECTION
  2
HEADER
  9
$ACADVER
  1
AC1015
  9
$ACADMAINTVER
 70
    18
  9
$DWGCODEPAGE
  3
ANSI_932
  9
$INSBASE
 10
0.0
 20
0.0
 30
0.0
  9
$EXTMIN
 10
-20.89457975315117
 20
0.0
 30
0.0
  9
$EXTMAX
 10
434.6660277617304
 20
127.0948454794304
 30
0.0
  9
$LIMMIN
 10
0.0
 20
0.0
  9
$LIMMAX
 10
420.0
 20
297.0
  9
$ORTHOMODE
 70
     1
  9
$REGENMODE
 70
     1
  9
$FILLMODE
 70
     1
  9
$QTEXTMODE
 70
     0
  9
$MIRRTEXT
 70
     1
  9
$LTSCALE
 40
1.0
  9
$ATTMODE
 70
     1
  9
$TEXTSIZE
 40
30.0
  9
$TRACEWID
 40
0.05
  9
$TEXTSTYLE
  7
SUNPOU
  9
$CLAYER
  8
0
  9
$CELTYPE
  6
BYLAYER
  9
$CECOLOR
 62
     7
  9
$CELTSCALE
 40
1.0
  9
$DISPSILH
 70
     0
  9
$DIMSCALE
 40
1.0
  9
$DIMASZ
 40
3.0
  9
$DIMEXO
 40
2.0
  9
$DIMDLI
 40
0.38
  9
$DIMRND
 40
0.0
  9
$DIMDLE
 40
0.0
  9
$DIMEXE
 40
0.0
  9
$DIMTP
 40
0.0
  9
$DIMTM
 40
0.0
  9
$DIMTXT
 40
7.0
  9
$DIMCEN
 40
1.0
  9
$DIMTSZ
 40
0.0
  9
$DIMTOL
 70
     0
  9
$DIMLIM
 70
     0
  9
$DIMTIH
 70
     0
  9
$DIMTOH
 70
     0
  9
$DIMSE1
 70
     0
  9
$DIMSE2
 70
     0
  9
$DIMTAD
 70
     1
  9
$DIMZIN
 70
     0
  9
$DIMBLK
  1

  9
$DIMASO
 70
     1
  9
$DIMSHO
 70
     1
  9
$DIMPOST
  1

  9
$DIMAPOST
  1

  9
$DIMALT
 70
     0
  9
$DIMALTD
 70
     2
  9
$DIMALTF
 40
25.4
  9
$DIMLFAC
 40
1.0
  9
$DIMTOFL
 70
     0
  9
$DIMTVP
 40
0.0
  9
$DIMTIX
 70
     1
  9
$DIMSOXD
 70
     0
  9
$DIMSAH
 70
     1
  9
$DIMBLK1
  1
DOTSMALL
  9
$DIMBLK2
  1
DOTSMALL
  9
$DIMSTYLE
  2
1
  9
$DIMCLRD
 70
    60
  9
$DIMCLRE
 70
    70
  9
$DIMCLRT
 70
    60
  9
$DIMTFAC
 40
0.0642857142857143
  9
$DIMGAP
 40
1.0
  9
$DIMJUST
 70
     0
  9
$DIMSD1
 70
     0
  9
$DIMSD2
 70
     0
  9
$DIMTOLJ
 70
     1
  9
$DIMTZIN
 70
     0
  9
$DIMALTZ
 70
     0
  9
$DIMALTTZ
 70
     0
  9
$DIMUPT
 70
     0
  9
$DIMDEC
 70
     0
  9
$DIMTDEC
 70
     4
  9
$DIMALTU
 70
     2
  9
$DIMALTTD
 70
     2
  9
$DIMTXSTY
  7
STANDARD
  9
$DIMAUNIT
 70
     0
  9
$DIMADEC
 70
     0
  9
$DIMALTRND
 40
0.0
  9
$DIMAZIN
 70
     0
  9
$DIMDSEP
 70
    46
  9
$DIMATFIT
 70
     3
  9
$DIMFRAC
 70
     0
  9
$DIMLDRBLK
  1
DOTSMALL
  9
$DIMLUNIT
 70
     2
  9
$DIMLWD
 70
    -2
  9
$DIMLWE
 70
    -2
  9
$DIMTMOVE
 70
     0
  9
$LUNITS
 70
     4
  9
$LUPREC
 70
     4
  9
$SKETCHINC
 40
0.1
  9
$FILLETRAD
 40
0.0
  9
$AUNITS
 70
     0
  9
$AUPREC
 70
     2
  9
$MENU
  1
acad
  9
$ELEVATION
 40
0.0
  9
$PELEVATION
 40
0.0
  9
$THICKNESS
 40
0.0
  9
$LIMCHECK
 70
     0
  9
$CHAMFERA
 40
0.0
  9
$CHAMFERB
 40
0.0
  9
$CHAMFERC
 40
0.0
  9
$CHAMFERD
 40
0.0
  9
$SKPOLY
 70
     0
  9
$TDCREATE
 40
2450623.676023380
  9
$TDUCREATE
 40
2450623.301023380
  9
$TDUPDATE
 40
2453882.356910451
  9
$TDUUPDATE
 40
2453881.981910452
  9
$TDINDWG
 40
5.5654896181
  9
$TDUSRTIMER
 40
5.5654894213
  9
$USRTIMER
 70
     1
  9
$ANGBASE
 50
0.0
  9
$ANGDIR
 70
     0
  9
$PDMODE
 70
     0
  9
$PDSIZE
 40
0.0
  9
$PLINEWID
 40
0.0
  9
$SPLFRAME
 70
     0
  9
$SPLINETYPE
 70
     6
  9
$SPLINESEGS
 70
     8
  9
$HANDSEED
  5
134
  9
$SURFTAB1
 70
     6
  9
$SURFTAB2
 70
     6
  9
$SURFTYPE
 70
     6
  9
$SURFU
 70
     6
  9
$SURFV
 70
     6
  9
$UCSBASE
  2

  9
$UCSNAME
  2

  9
$UCSORG
 10
0.0
 20
0.0
 30
0.0
  9
$UCSXDIR
 10
1.0
 20
0.0
 30
0.0
  9
$UCSYDIR
 10
0.0
 20
1.0
 30
0.0
  9
$UCSORTHOREF
  2

  9
$UCSORTHOVIEW
 70
     0
  9
$UCSORGTOP
 10
0.0
 20
0.0
 30
0.0
  9
$UCSORGBOTTOM
 10
0.0
 20
0.0
 30
0.0
  9
$UCSORGLEFT
 10
0.0
 20
0.0
 30
0.0
  9
$UCSORGRIGHT
 10
0.0
 20
0.0
 30
0.0
  9
$UCSORGFRONT
 10
0.0
 20
0.0
 30
0.0
  9
$UCSORGBACK
 10
0.0
 20
0.0
 30
0.0
  9
$PUCSBASE
  2

  9
$PUCSNAME
  2

  9
$PUCSORG
 10
0.0
 20
0.0
 30
0.0
  9
$PUCSXDIR
 10
1.0
 20
0.0
 30
0.0
  9
$PUCSYDIR
 10
0.0
 20
1.0
 30
0.0
  9
$PUCSORTHOREF
  2

  9
$PUCSORTHOVIEW
 70
     0
  9
$PUCSORGTOP
 10
0.0
 20
0.0
 30
0.0
  9
$PUCSORGBOTTOM
 10
0.0
 20
0.0
 30
0.0
  9
$PUCSORGLEFT
 10
0.0
 20
0.0
 30
0.0
  9
$PUCSORGRIGHT
 10
0.0
 20
0.0
 30
0.0
  9
$PUCSORGFRONT
 10
0.0
 20
0.0
 30
0.0
  9
$PUCSORGBACK
 10
0.0
 20
0.0
 30
0.0
  9
$USERI1
 70
     0
  9
$USERI2
 70
     0
  9
$USERI3
 70
     0
  9
$USERI4
 70
     0
  9
$USERI5
 70
     0
  9
$USERR1
 40
0.0
  9
$USERR2
 40
0.0
  9
$USERR3
 40
0.0
  9
$USERR4
 40
0.0
  9
$USERR5
 40
0.0
  9
$WORLDVIEW
 70
     1
  9
$SHADEDGE
 70
     3
  9
$SHADEDIF
 70
    70
  9
$TILEMODE
 70
     1
  9
$MAXACTVP
 70
    16
  9
$PINSBASE
 10
0.0
 20
0.0
 30
0.0
  9
$PLIMCHECK
 70
     0
  9
$PEXTMIN
 10
1.000000000000000E+20
 20
1.000000000000000E+20
 30
1.000000000000000E+20
  9
$PEXTMAX
 10
-1.000000000000000E+20
 20
-1.000000000000000E+20
 30
-1.000000000000000E+20
  9
$PLIMMIN
 10
0.0
 20
0.0
  9
$PLIMMAX
 10
12.0
 20
9.0
  9
$UNITMODE
 70
     0
  9
$VISRETAIN
 70
     0
  9
$PLINEGEN
 70
     0
  9
$PSLTSCALE
 70
     1
  9
$TREEDEPTH
 70
  3020
  9
$CMLSTYLE
  2
STANDARD
  9
$CMLJUST
 70
     0
  9
$CMLSCALE
 40
1.0
  9
$PROXYGRAPHICS
 70
     1
  9
$MEASUREMENT
 70
     0
  9
$CELWEIGHT
370
    -1
  9
$ENDCAPS
280
     0
  9
$JOINSTYLE
280
     0
  9
$LWDISPLAY
290
     0
  9
$INSUNITS
 70
     0
  9
$HYPERLINKBASE
  1

  9
$STYLESHEET
  1

  9
$XEDIT
290
     1
  9
$CEPSNTYPE
380
     0
  9
$PSTYLEMODE
290
     1
  9
$FINGERPRINTGUID
  2
{7A7C4D28-1D40-4ED7-A3AB-97DD2448221D}
  9
$VERSIONGUID
  2
{A96B9E51-1649-456D-AEDD-1FF8CA7611D7}
  9
$EXTNAMES
290
     1
  9
$PSVPSCALE
 40
0.0
  9
$OLESTARTUP
290
     0
  0
ENDSEC
  0
SECTION
  2
CLASSES
  0
CLASS
  1
DICTIONARYVAR
  2
AcDbDictionaryVar
  3
ObjectDBX Classes
 90
        0
280
     0
281
     0
  0
CLASS
  1
RASTERVARIABLES
  2
AcDbRasterVariables
  3
ISM
 90
    32768
280
     0
281
     0
  0
CLASS
  1
ACDBDICTIONARYWDFLT
  2
AcDbDictionaryWithDefault
  3
ObjectDBX Classes
 90
        0
280
     0
281
     0
  0
CLASS
  1
ACDBPLACEHOLDER
  2
AcDbPlaceHolder
  3
ObjectDBX Classes
 90
        0
280
     0
281
     0
  0
CLASS
  1
LAYOUT
  2
AcDbLayout
  3
ObjectDBX Classes
 90
        0
280
     0
281
     0
  0
CLASS
  1
AEC_VARS_DWG_SETUP
  2
AecDbVarsDwgSetup
  3
AecBase
 90
    32897
280
     1
281
     0
  0
CLASS
  1
AEC_DISP_REP_MASS_ELEM_MODEL
  2
AecDbDispRepMassElemModel
  3
AecBase
 90
    32897
280
     1
281
     0
  0
CLASS
  1
AEC_DISP_PROPS_MASS_ELEM_MODEL
  2
AecDbDispPropsMassElem
  3
AecBase
 90
    32897
280
     1
281
     0
  0
CLASS
  1
AEC_DISP_REP_MASS_ELEM_SCHEM
  2
AecDbDispRepMassElemSchem
  3
AecBase
 90
    32897
280
     1
281
     0
  0
CLASS
  1
AEC_DISP_REP_DOOR_ELEV
  2
AecDbDispRepDoorElev
  3
AecArchBase
 90
    32897
280
     1
281
     0
  0
CLASS
  1
AEC_DISP_PROPS_DOOR
  2
AecDbDispPropsDoor
  3
AecArchBase
 90
    32897
280
     1
281
     0
  0
CLASS
  1
AEC_DISP_REP_MASKBLOCK_REF
  2
AecDbDispRepMaskBlockRef
  3
AecBase
 90
    32897
280
     1
281
     0
  0
CLASS
  1
AEC_DISP_PROPS_MASKBLOCK
  2
AecDbDispPropsMaskBlock
  3
AecBase
 90
    32897
280
     1
281
     0
  0
CLASS
  1
AEC_DISP_REP_LAYOUT_GRID3D
  2
AecDbDispRepLayoutGrid3d
  3
AecBase
 90
    32897
280
     1
281
     0
  0
CLASS
  1
AEC_DISP_PROPS_LAYOUT_GRID3D
  2
AecDbDispPropsLayoutGrid3d
  3
AecBase
 90
    32897
280
     1
281
     0
  0
CLASS
  1
AEC_DISP_REP_ENT_REF
  2
AecDbDispRepEntRef
  3
AecBase
 90
    32897
280
     1
281
     0
  0
CLASS
  1
AEC_DISP_PROPS_ENT_REF
  2
AecDbDispPropsEntRef
  3
AecBase
 90
    32897
280
     1
281
     0
  0
CLASS
  1
AEC_DISP_REP_CLIP_VOLUME_RESULT_SUBDIV
  2
AecDbDispRepClipVolResSubDiv
  3
AecBase
 90
    32897
280
     1
281
     0
  0
CLASS
  1
AEC_DISP_PROPS_CLIP_VOLUME_RESULT
  2
AecDbDispPropsClipVolResSubDiv
  3
AecBase
 90
    32897
280
     1
281
     0
  0
CLASS
  1
AEC_DISP_REP_CLIP_VOLUME_RESULT
  2
AecDbDispRepClipVolResult
  3
AecBase
 90
    32897
280
     1
281
     0
  0
CLASS
  1
AEC_DISP_REP_CLIP_VOLUME_PLAN
  2
AecDbDispRepClipVolPlan
  3
AecBase
 90
    32897
280
     1
281
     0
  0
CLASS
  1
AEC_DISP_PROPS_CLIP_VOLUME
  2
AecDbDispPropsClipVol
  3
AecBase
 90
    32897
280
     1
281
     0
  0
CLASS
  1
AEC_DISP_REP_CLIP_VOLUME_MODEL
  2
AecDbDispRepClipVolModel
  3
AecBase
 90
    32897
280
     1
281
     0
  0
CLASS
  1
AEC_DISP_REP_ANCHOR_ENT_TO_NODE
  2
AecDbDispRepAnchorEntToNode
  3
AecBase
 90
    32897
280
     1
281
     0
  0
CLASS
  1
AEC_DISP_PROPS_ENT
  2
AecDbDispPropsEnt
  3
AecBase
 90
    32897
280
     1
281
     0
  0
CLASS
  1
AEC_DISP_REP_LAYOUT_GRID2D
  2
AecDbDispRepLayoutGrid2d
  3
AecBase
 90
    32897
280
     1
281
     0
  0
CLASS
  1
AEC_DISP_PROPS_LAYOUT_GRID2D
  2
AecDbDispPropsLayoutGrid2d
  3
AecBase
 90
    32897
280
     1
281
     0
  0
CLASS
  1
AEC_DISP_REP_LAYOUT_CURVE
  2
AecDbDispRepLayoutCurve
  3
AecBase
 90
    32897
280
     1
281
     0
  0
CLASS
  1
AEC_DISP_PROPS_LAYOUT_CURVE
  2
AecDbDispPropsLayoutCurve
  3
AecBase
 90
    32897
280
     1
281
     0
  0
CLASS
  1
AEC_DISP_REP_ANCHOR
  2
AecDbDispRepAnchor
  3
AecBase
 90
    32897
280
     1
281
     0
  0
CLASS
  1
AEC_DISP_REP_CAMERA
  2
AecDbDispRepCamera
  3
AecBase
 90
    32897
280
     1
281
     0
  0
CLASS
  1
AEC_DISP_PROPS_CAMERA
  2
AecDbDispPropsCamera
  3
AecBase
 90
    32897
280
     1
281
     0
  0
CLASS
  1
AEC_DISP_REP_SLICE
  2
AecDbDispRepSlice
  3
AecBase
 90
    32897
280
     1
281
     0
  0
CLASS
  1
AEC_DISP_PROPS_SLICE
  2
AecDbDispPropsSlice
  3
AecBase
 90
    32897
280
     1
281
     0
  0
CLASS
  1
AEC_DISP_REP_MVBLOCK_REF
  2
AecDbDispRepMvBlockRef
  3
AecBase
 90
    32897
280
     1
281
     0
  0
CLASS
  1
AEC_DISP_REP_MVBLOCK_REF_MODEL
  2
AecDbDispRepMvBlockRefModel
  3
AecBase
 90
    32897
280
     1
281
     0
  0
CLASS
  1
AEC_DISP_REP_MASS_GROUP_MODEL
  2
AecDbDispRepMassGroupModel
  3
AecBase
 90
    32897
280
     1
281
     0
  0
CLASS
  1
AEC_DISP_PROPS_MASS_GROUP
  2
AecDbDispPropsMassGroup
  3
AecBase
 90
    32897
280
     1
281
     0
  0
CLASS
  1
AEC_DISP_REP_MASS_GROUP_PLAN
  2
AecDbDispRepMassGroupPlan
  3
AecBase
 90
    32897
280
     1
281
     0
  0
CLASS
  1
AEC_DISP_REP_DOOR_RCP
  2
AecDbDispRepDoorRcp
  3
AecArchBase
 90
    32897
280
     1
281
     0
  0
CLASS
  1
AEC_DISP_REP_DOOR_NOMINAL
  2
AecDbDispRepDoorNominal
  3
AecArchBase
 90
    32897
280
     1
281
     0
  0
CLASS
  1
AEC_DISP_PROPS_DOOR_NOMINAL
  2
AecDbDispPropsDoorNominal
  3
AecArchBase
 90
    32897
280
     1
281
     0
  0
CLASS
  1
AEC_DISP_REP_DOOR_PLAN
  2
AecDbDispRepDoorPlan
  3
AecArchBase
 90
    32897
280
     1
281
     0
  0
CLASS
  1
AEC_DISP_REP_DOOR_MODEL
  2
AecDbDispRepDoorModel
  3
AecArchBase
 90
    32897
280
     1
281
     0
  0
CLASS
  1
AEC_DISP_REP_MVBLOCK_REF_RCP
  2
AecDbDispRepMvBlockRefRcp
  3
AecArchBase
 90
    32897
280
     1
281
     0
  0
CLASS
  1
AEC_DISP_REP_MASS_GROUP_RCP
  2
AecDbDispRepMassGroupRcp
  3
AecArchBase
 90
    32897
280
     1
281
     0
  0
CLASS
  1
AEC_DISP_REP_MASS_ELEM_RCP
  2
AecDbDispRepMassElemRcp
  3
AecArchBase
 90
    32897
280
     1
281
     0
  0
CLASS
  1
AEC_DISP_REP_MASKBLOCK_REF_RCP
  2
AecDbDispRepMaskBlockRefRcp
  3
AecArchBase
 90
    32897
280
     1
281
     0
  0
CLASS
  1
AEC_DISP_REP_COLUMN_GRID_RCP
  2
AecDbDispRepColumnGridRcp
  3
AecArchBase
 90
    32897
280
     1
281
     0
  0
CLASS
  1
AEC_DISP_REP_COLUMN_GRID_MODEL
  2
AecDbDispRepColumnGridModel
  3
AecArchBase
 90
    32897
280
     1
281
     0
  0
CLASS
  1
AEC_DISP_REP_COLUMN_GRID
  2
AecDbDispRepColumnGrid
  3
AecArchBase
 90
    32897
280
     1
281
     0
  0
CLASS
  1
AEC_DISP_REP_CEILING_GRID_RCP
  2
AecDbDispRepCeilingGridRcp
  3
AecArchBase
 90
    32897
280
     1
281
     0
  0
CLASS
  1
AEC_DISP_REP_CEILING_GRID_MODEL
  2
AecDbDispRepCeilingGridModel
  3
AecArchBase
 90
    32897
280
     1
281
     0
  0
CLASS
  1
AEC_DISP_REP_CEILING_GRID
  2
AecDbDispRepCeilingGrid
  3
AecArchBase
 90
    33661
280
     1
281
     0
  0
CLASS
  1
AEC_DISP_REP_BDG_SECTION_SUBDIV
  2
AecDbDispRepBdgSectionSubDiv
  3
AecArchBase
 90
    32897
280
     1
281
     0
  0
CLASS
  1
AEC_DISP_REP_BDG_SECTION_MODEL
  2
AecDbDispRepBdgSectionModel
  3
AecArchBase
 90
    32897
280
     1
281
     0
  0
CLASS
  1
AEC_DISP_REP_BDG_SECTIONLINE_RCP
  2
AecDbDispRepBdgSectionLineRcp
  3
AecArchBase
 90
    32897
280
     1
281
     0
  0
CLASS
  1
AEC_DISP_REP_BDG_SECTIONLINE_PLAN
  2
AecDbDispRepBdgSectionLinePlan
  3
AecArchBase
 90
    32897
280
     1
281
     0
  0
CLASS
  1
AEC_DISP_REP_BDG_ELEVLINE_RCP
  2
AecDbDispRepBdgElevLineRcp
  3
AecArchBase
 90
    32897
280
     1
281
     0
  0
CLASS
  1
AEC_DISP_REP_BDG_ELEVLINE_PLAN
  2
AecDbDispRepBdgElevLinePlan
  3
AecArchBase
 90
    32897
280
     1
281
     0
  0
CLASS
  1
AEC_DISP_REP_BDG_SECTIONLINE_MODEL
  2
AecDbDispRepBdgSectionLineModel
  3
AecArchBase
 90
    32897
280
     1
281
     0
  0
CLASS
  1
AEC_DISP_REP_BDG_ELEVLINE_MODEL
  2
AecDbDispRepBdgElevLineModel
  3
AecArchBase
 90
    32897
280
     1
281
     0
  0
CLASS
  1
AEC_DISP_REP_ANCHOR_BUB_TO_GRID_RCP
  2
AecDbDispRepAnchorBubToGridRcp
  3
AecArchBase
 90
    32897
280
     1
281
     0
  0
CLASS
  1
AEC_DISP_REP_ANCHOR_BUB_TO_GRID_MODEL
  2
AecDbDispRepAnchorBubToGridMdl
  3
AecArchBase
 90
    32897
280
     1
281
     0
  0
CLASS
  1
AEC_DISP_REP_ANCHOR_BUB_TO_GRID
  2
AecDbDispRepAnchorBubToGrid
  3
AecArchBase
 90
    32897
280
     1
281
     0
  0
CLASS
  1
AEC_DISP_REP_WINDOW_RCP
  2
AecDbDispRepWindowRcp
  3
AecArchBase
 90
    32897
280
     1
281
     0
  0
CLASS
  1
AEC_DISP_PROPS_WINDOW
  2
AecDbDispPropsWindow
  3
AecArchBase
 90
    32897
280
     1
281
     0
  0
CLASS
  1
AEC_DISP_REP_ROOF_RCP
  2
AecDbDispRepRoofRcp
  3
AecArchBase
 90
    32897
280
     1
281
     0
  0
CLASS
  1
AEC_DISP_PROPS_ROOF
  2
AecDbDispPropsRoof
  3
AecArchBase
 90
    32897
280
     1
281
     0
  0
CLASS
  1
AEC_DISP_REP_ROOF_PLAN
  2
AecDbDispRepRoofPlan
  3
AecArchBase
 90
    32897
280
     1
281
     0
  0
CLASS
  1
AEC_DISP_REP_WINDOW_SILL_PLAN
  2
AecDbDispRepWindowSillPlan
  3
AecArchBase
 90
    32897
280
     1
281
     0
  0
CLASS
  1
AEC_DISP_PROPS_WINDOW_SILL_PLAN
  2
AecDbDispPropsWindowSillPlan
  3
AecArchBase
 90
    32897
280
     1
281
     0
  0
CLASS
  1
AEC_DISP_REP_SPACE_PLAN
  2
AecDbDispRepSpacePlan
  3
AecArchBase
 90
    32897
280
     1
281
     0
  0
CLASS
  1
AEC_DISP_PROPS_SPACE_PLAN
  2
AecDbDispPropsSpacePlan
  3
AecArchBase
 90
    32897
280
     1
281
     0
  0
CLASS
  1
AEC_DISP_REP_SPACE_MODEL
  2
AecDbDispRepSpaceModel
  3
AecArchBase
 90
    32897
280
     1
281
     0
  0
CLASS
  1
AEC_DISP_PROPS_SPACE_MODEL
  2
AecDbDispPropsSpaceModel
  3
AecArchBase
 90
    32897
280
     1
281
     0
  0
CLASS
  1
AEC_DISP_REP_WINDOW_MODEL
  2
AecDbDispRepWindowModel
  3
AecArchBase
 90
    32897
280
     1
281
     0
  0
CLASS
  1
AEC_DISP_REP_WINDOW_NOMINAL
  2
AecDbDispRepWindowNominal
  3
AecArchBase
 90
    32897
280
     1
281
     0
  0
CLASS
  1
AEC_DISP_PROPS_WINDOW_NOMINAL
  2
AecDbDispPropsWindowNominal
  3
AecArchBase
 90
    32897
280
     1
281
     0
  0
CLASS
  1
AEC_DISP_REP_OPENING
  2
AecDbDispRepOpening
  3
AecArchBase
 90
    32897
280
     1
281
     0
  0
CLASS
  1
AEC_DISP_PROPS_OPENING
  2
AecDbDispPropsOpening
  3
AecArchBase
 90
    32897
280
     1
281
     0
  0
CLASS
  1
AEC_DISP_REP_OPENING_MODEL
  2
AecDbDispRepOpeningModel
  3
AecArchBase
 90
    32897
280
     1
281
     0
  0
CLASS
  1
AEC_DISP_REP_RAILING_PLAN
  2
AecDbDispRepRailingPlan
  3
AecArchBase
 90
    32897
280
     1
281
     0
  0
CLASS
  1
AEC_DISP_PROPS_RAILING_PLAN
  2
AecDbDispPropsRailingPlan
  3
AecArchBase
 90
    32897
280
     1
281
     0
  0
CLASS
  1
AEC_DISP_REP_RAILING_MODEL
  2
AecDbDispRepRailingModel
  3
AecArchBase
 90
    32897
280
     1
281
     0
  0
CLASS
  1
AEC_DISP_PROPS_RAILING_MODEL
  2
AecDbDispPropsRailingModel
  3
AecArchBase
 90
    32897
280
     1
281
     0
  0
CLASS
  1
AEC_DISP_REP_WINDOW_ELEV
  2
AecDbDispRepWindowElev
  3
AecArchBase
 90
    32897
280
     1
281
     0
  0
CLASS
  1
AEC_DISP_REP_DOOR_THRESHOLD_PLAN
  2
AecDbDispRepDoorThresholdPlan
  3
AecArchBase
 90
    32897
280
     1
281
     0
  0
CLASS
  1
AEC_DISP_PROPS_DOOR_THRESHOLD_PLAN
  2
AecDbDispPropsDoorThresholdPlan
  3
AecArchBase
 90
    32897
280
     1
281
     0
  0
CLASS
  1
AEC_DISP_REP_ROOF_MODEL
  2
AecDbDispRepRoofModel
  3
AecArchBase
 90
    32897
280
     1
281
     0
  0
CLASS
  1
AEC_DISP_REP_WINDOW_PLAN
  2
AecDbDispRepWindowPlan
  3
AecArchBase
 90
    32897
280
     1
281
     0
  0
CLASS
  1
AEC_DISP_REP_WALL_SCHEM
  2
AecDbDispRepWallSchem
  3
AecArchBase
 90
    32897
280
     1
281
     0
  0
CLASS
  1
AEC_DISP_PROPS_WALL_SCHEM
  2
AecDbDispPropsWallSchem
  3
AecArchBase
 90
    32897
280
     1
281
     0
  0
CLASS
  1
AEC_DISP_REP_WALL_RCP
  2
AecDbDispRepWallRcp
  3
AecArchBase
 90
    32897
280
     1
281
     0
  0
CLASS
  1
AEC_DISP_PROPS_WALL_PLAN
  2
AecDbDispPropsWallPlan
  3
AecArchBase
 90
    32897
280
     1
281
     0
  0
CLASS
  1
AEC_DISP_REP_WALL_PLAN
  2
AecDbDispRepWallPlan
  3
AecArchBase
 90
    32897
280
     1
281
     0
  0
CLASS
  1
AEC_DISP_REP_WALL_MODEL
  2
AecDbDispRepWallModel
  3
AecArchBase
 90
    32897
280
     1
281
     0
  0
CLASS
  1
AEC_DISP_PROPS_WALL
  2
AecDbDispPropsWall
  3
AecArchBase
 90
    32897
280
     1
281
     0
  0
CLASS
  1
AEC_DISP_REP_WALL_GRAPH
  2
AecDbDispRepWallGraph
  3
AecArchBase
 90
    32897
280
     1
281
     0
  0
CLASS
  1
AEC_DISP_REP_STAIR_RCP
  2
AecDbDispRepStairRcp
  3
AecArchBase
 90
    32897
280
     1
281
     0
  0
CLASS
  1
AEC_DISP_PROPS_STAIR_PLAN
  2
AecDbDispPropsStairPlan
  3
AecArchBase
 90
    32897
280
     1
281
     0
  0
CLASS
  1
AEC_DISP_REP_STAIR_PLAN
  2
AecDbDispRepStairPlan
  3
AecArchBase
 90
    32897
280
     1
281
     0
  0
CLASS
  1
AEC_DISP_REP_STAIR_MODEL
  2
AecDbDispRepStairModel
  3
AecArchBase
 90
    32897
280
     1
281
     0
  0
CLASS
  1
AEC_DISP_PROPS_STAIR_MODEL
  2
AecDbDispPropsStairModel
  3
AecArchBase
 90
    32897
280
     1
281
     0
  0
CLASS
  1
AEC_DISP_REP_SPACE_BOUNDARY_SCHEM
  2
AecDbDispRepSpaceBoundarySketch
  3
AecArchBase
 90
    32897
280
     1
281
     0
  0
CLASS
  1
AEC_DISP_REP_SPACE_BOUNDARY_PLAN
  2
AecDbDispRepSpaceBoundaryPlan
  3
AecArchBase
 90
    32897
280
     1
281
     0
  0
CLASS
  1
AEC_DISP_REP_SPACE_BOUNDARY_MODEL
  2
AecDbDispRepSpaceBoundaryModel
  3
AecArchBase
 90
    32897
280
     1
281
     0
  0
CLASS
  1
AEC_DISP_REP_SPACE_BOUNDARY_DIAGRAM
  2
AecDbDispRepSpaceBoundaryDgrm
  3
AecArchBase
 90
    32897
280
     1
281
     0
  0
CLASS
  1
AEC_DISP_REP_SPACE_VOLUME
  2
AecDbDispRepSpaceVolume
  3
AecArchBase
 90
    32897
280
     1
281
     0
  0
CLASS
  1
AEC_DISP_REP_SPACE_RCP
  2
AecDbDispRepSpaceRcp
  3
AecArchBase
 90
    32897
280
     1
281
     0
  0
CLASS
  1
AEC_DISP_REP_ANCHOR_TAG_TO_ENT
  2
AecDbDispRepAnchorTagToEnt
  3
AecScheduleData
 90
    32897
280
     1
281
     0
  0
CLASS
  1
AEC_DISP_REP_SCHEDULE_TABLE
  2
AecDbDispRepScheduleTable
  3
AecSchedule
 90
    32897
280
     1
281
     0
  0
CLASS
  1
AEC_DISP_PROPS_SCHEDULE_TABLE
  2
AecDbDispPropsScheduleTable
  3
AecSchedule
 90
    32897
280
     1
281
     0
  0
CLASS
  1
AEC_DISP_REP_SET
  2
AecDbDispRepSet
  3
AecBase
 90
    32897
280
     1
281
     0
  0
CLASS
  1
AEC_DISP_REP_CONFIG
  2
AecDbDispRepConfig
  3
AecBase
 90
    32897
280
     1
281
     0
  0
CLASS
  1
TABLESTYLE
  2
AcDbTableStyle
  3
ObjectDBX Classes
 90
     4095
280
     0
281
     0
  0
CLASS
  1
MATERIAL
  2
AcDbMaterial
  3
ObjectDBX Classes
 90
     1153
280
     0
281
     0
  0
CLASS
  1
VISUALSTYLE
  2
AcDbVisualStyle
  3
ObjectDBX Classes
 90
     4095
280
     0
281
     0
  0
CLASS
  1
SCALE
  2
AcDbScale
  3
ObjectDBX Classes
 90
     1153
280
     0
281
     0
  0
CLASS
  1
MLEADERSTYLE
  2
AcDbMLeaderStyle
  3
ACDB_MLEADERSTYLE_CLASS
 90
    36863
280
     0
281
     0
  0
CLASS
  1
ACDBSECTIONVIEWSTYLE
  2
AcDbSectionViewStyle
  3
ObjectDBX Classes
 90
    33793
280
     0
281
     0
  0
CLASS
  1
ACDBDETAILVIEWSTYLE
  2
AcDbDetailViewStyle
  3
ObjectDBX Classes
 90
    33793
280
     0
281
     0
  0
CLASS
  1
EXACXREFPANELOBJECT
  2
ExAcXREFPanelObject
  3
EXAC_ESW
 90
    33793
280
     0
281
     0
  0
CLASS
  1
NPOCOLLECTION
  2
AcDbImpNonPersistentObjectsCollection
  3
ObjectDBX Classes
 90
    33921
280
     0
281
     0
  0
CLASS
  1
CELLSTYLEMAP
  2
AcDbCellStyleMap
  3
ObjectDBX Classes
 90
     1152
280
     0
281
     0
  0
ENDSEC
  0
SECTION
  2
TABLES
  0
TABLE
  2
VPORT
  5
2F
330
0
100
AcDbSymbolTable
 70
     1
  0
VPORT
  5
30
330
2F
100
AcDbSymbolTableRecord
100
AcDbViewportTableRecord
  2
*Active
 70
     0
 10
0.0
 20
0.0
 11
1.0
 21
1.0
 12
319.1157864124063
 22
86.92416173139424
 13
0.0
 23
0.0
 14
1.0
 24
1.0
 15
0.0
 25
0.0
 16
0.0
 26
0.0
 36
1.0
 17
0.0
 27
0.0
 37
0.0
 40
448.6693686751317
 41
2.095558546433378
 42
50.0
 43
0.0
 44
0.0
 50
0.0
 51
0.0
 71
     0
 72
 20000
 73
     1
 74
     1
 75
     0
 76
     0
 77
     0
 78
     0
281
     0
 65
     1
110
0.0
120
0.0
130
0.0
111
1.0
121
0.0
131
0.0
112
0.0
122
1.0
132
0.0
 79
     0
146
0.0
1001
ACAD_NAV_VCDISPLAY
1070
     3
  0
ENDTAB
  0
TABLE
  2
LTYPE
  5
2A
330
0
100
AcDbSymbolTable
 70
     1
  0
LTYPE
  5
2B
330
2A
100
AcDbSymbolTableRecord
100
AcDbLinetypeTableRecord
  2
BYBLOCK
 70
     0
  3

 72
    65
 73
     0
 40
0.0
  0
LTYPE
  5
2C
330
2A
100
AcDbSymbolTableRecord
100
AcDbLinetypeTableRecord
  2
BYLAYER
 70
     0
  3

 72
    65
 73
     0
 40
0.0
  0
LTYPE
  5
14
330
2A
100
AcDbSymbolTableRecord
100
AcDbLinetypeTableRecord
  2
CONTINUOUS
 70
     0
  3
Solid line
 72
    65
 73
     0
 40
0.0
  0
ENDTAB
  0
TABLE
  2
LAYER
  5
26
330
0
100
AcDbSymbolTable
 70
     6
  0
LAYER
  5
6
330
26
100
AcDbSymbolTableRecord
100
AcDbLayerTableRecord
  2
0
 70
     0
 62
     7
  6
CONTINUOUS
370
    -3
390
7
  0
LAYER
  5
95
330
26
100
AcDbSymbolTableRecord
100
AcDbLayerTableRecord
  2
DEFPOINTS
 70
     0
 62
     7
  6
CONTINUOUS
290
     0
370
    -3
390
7
  0
LAYER
  5
85
330
26
100
AcDbSymbolTableRecord
100
AcDbLayerTableRecord
  2
SUNPOU
 70
     0
 62
    70
  6
CONTINUOUS
370
    -3
390
7
  0
LAYER
  5
63
330
26
100
AcDbSymbolTableRecord
100
AcDbLayerTableRecord
  2
KIJUN
 70
     0
 62
     7
  6
CONTINUOUS
370
    -3
390
7
  0
LAYER
  5
10E
330
26
100
AcDbSymbolTableRecord
100
AcDbLayerTableRecord
  2
HOJO
 70
     0
 62
     3
  6
CONTINUOUS
370
    -3
390
7
  0
LAYER
  5
110
330
26
100
AcDbSymbolTableRecord
100
AcDbLayerTableRecord
  2
WAKU
 70
     0
 62
     1
  6
CONTINUOUS
370
    -3
390
7
  0
ENDTAB
  0
TABLE
  2
STYLE
  5
27
330
0
100
AcDbSymbolTable
 70
     3
  0
STYLE
  5
28
330
27
100
AcDbSymbolTableRecord
100
AcDbTextStyleTableRecord
  2
STANDARD
 70
     0
 40
0.0
 41
1.0
 50
0.0
 71
     0
 42
0.2
  3
txt
  4

  0
STYLE
  5
4B
330
27
100
AcDbSymbolTableRecord
100
AcDbTextStyleTableRecord
  2
SUNPOU
 70
     0
 40
0.0
 41
1.0
 50
0.0
 71
     0
 42
30.0
  3
txt
  4
bigfont
  0
STYLE
  5
93
330
27
100
AcDbSymbolTableRecord
100
AcDbTextStyleTableRecord
  2
LIFE
 70
     0
 40
0.0
 41
0.7
 50
0.0
 71
     0
 42
10.0
  3
romans
  4
extfont
  0
ENDTAB
  0
TABLE
  2
VIEW
  5
2D
330
0
100
AcDbSymbolTable
 70
     0
  0
ENDTAB
  0
TABLE
  2
UCS
  5
2E
330
0
100
AcDbSymbolTable
 70
     0
  0
ENDTAB
  0
TABLE
  2
APPID
  5
34
330
0
100
AcDbSymbolTable
 70
     2
  0
APPID
  5
A
330
34
100
AcDbSymbolTableRecord
100
AcDbRegAppTableRecord
  2
ACAD
 70
     0
  0
APPID
  5
33
330
34
100
AcDbSymbolTableRecord
100
AcDbRegAppTableRecord
  2
ACAD_NAV_VCDISPLAY
 70
     0
  0
ENDTAB
  0
TABLE
  2
DIMSTYLE
  5
35
330
0
100
AcDbSymbolTable
 70
     3
100
AcDbDimStyleTable
 71
     1
340
36
  0
DIMSTYLE
105
36
330
35
100
AcDbSymbolTableRecord
100
AcDbDimStyleTableRecord
  2
STANDARD
 70
     0
 41
3.0
 42
2.0
 44
0.0
 73
     0
 74
     0
 77
     1
140
2.799999999999998
141
1.0
146
0.0642857142857143
147
1.0
173
     1
174
     1
176
    60
177
    70
178
    60
271
     0
340
28
341
37
343
37
344
37
  0
DIMSTYLE
105
99
102
{ACAD_REACTORS
330
84
330
100
102
}
330
35
100
AcDbSymbolTableRecord
100
AcDbDimStyleTableRecord
  2
STANDARD$0
 70
     0
 40
2.0
 41
1.0
 42
2.0
 43
0.0
 44
1.0
 73
     0
 74
     0
 77
     3
 78
     9
140
4.5
141
0.0
147
1.0
172
     1
173
     1
178
     3
271
     2
340
93
341
8C
343
8C
344
8C
  0
DIMSTYLE
105
50
330
35
100
AcDbSymbolTableRecord
100
AcDbDimStyleTableRecord
  2
1
 70
     0
 41
3.0
 42
2.0
 44
0.0
 73
     0
 74
     0
 77
     1
140
7.0
141
1.0
146
0.0642857142857143
147
1.0
173
     1
174
     1
176
    60
177
    70
178
    60
271
     0
340
28
341
37
343
37
344
37
  0
ENDTAB
  0
TABLE
  2
BLOCK_RECORD
  5
1
330
0
100
AcDbSymbolTable
 70
     4
  0
BLOCK_RECORD
  5
2
102
{ACAD_XDICTIONARY
360
3
102
}
330
1
100
AcDbSymbolTableRecord
100
AcDbBlockTableRecord
  2
*MODEL_SPACE
340
1E
  0
BLOCK_RECORD
  5
20
102
{ACAD_XDICTIONARY
360
21
102
}
330
1
100
AcDbSymbolTableRecord
100
AcDbBlockTableRecord
  2
*PAPER_SPACE
340
25
  0
BLOCK_RECORD
  5
37
330
1
100
AcDbSymbolTableRecord
100
AcDbBlockTableRecord
  2
_DOTSMALL
340
0
  0
BLOCK_RECORD
  5
8C
330
1
100
AcDbSymbolTableRecord
100
AcDbBlockTableRecord
  2
_DOT
340
0
102
{BLKREFS
331
8B
331
91
331
106
331
107
102
}
  0
BLOCK_RECORD
  5
101
330
1
100
AcDbSymbolTableRecord
100
AcDbBlockTableRecord
  2
*D2
340
0
  0
BLOCK_RECORD
  5
86
330
1
100
AcDbSymbolTableRecord
100
AcDbBlockTableRecord
  2
*D3
340
0
  0
ENDTAB
  0
ENDSEC
  0
SECTION
  2
BLOCKS
  0
BLOCK
  5
5
330
2
100
AcDbEntity
  8
0
100
AcDbBlockBegin
  2
*MODEL_SPACE
 70
     0
 10
0.0
 20
0.0
 30
0.0
  3
*MODEL_SPACE
  1

  0
ENDBLK
  5
1D
330
2
100
AcDbEntity
  8
0
100
AcDbBlockEnd
  0
BLOCK
  5
23
330
20
100
AcDbEntity
 67
     1
  8
0
100
AcDbBlockBegin
  2
*PAPER_SPACE
 70
     0
 10
0.0
 20
0.0
 30
0.0
  3
*PAPER_SPACE
  1

  0
ENDBLK
  5
24
330
20
100
AcDbEntity
 67
     1
  8
0
100
AcDbBlockEnd
  0
BLOCK
  5
38
330
37
100
AcDbEntity
  8
0
100
AcDbBlockBegin
  2
_DOTSMALL
 70
     0
 10
0.0
 20
0.0
 30
0.0
  3
_DOTSMALL
  1

  0
LWPOLYLINE
  5
39
330
37
100
AcDbEntity
  8
0
  6
ByBlock
 62
     0
100
AcDbPolyline
 90
        2
 70
     1
 43
0.5
 10
-0.0625
 20
0.0
 42
1.0
 10
0.0625
 20
0.0
 42
1.0
  0
ENDBLK
  5
3A
330
37
100
AcDbEntity
  8
0
100
AcDbBlockEnd
  0
BLOCK
  5
8D
330
8C
100
AcDbEntity
  8
0
100
AcDbBlockBegin
  2
_DOT
 70
     0
 10
0.0
 20
0.0
 30
0.0
  3
_DOT
  1

  0
LWPOLYLINE
  5
8E
330
8C
100
AcDbEntity
  8
0
  6
ByBlock
 62
     0
100
AcDbPolyline
 90
        2
 70
     1
 43
0.5
 10
-0.25
 20
0.0
 42
1.0
 10
0.25
 20
0.0
 42
1.0
  0
LINE
  5
8F
330
8C
100
AcDbEntity
  8
0
  6
ByBlock
 62
     0
100
AcDbLine
 10
-0.5
 20
0.0
 30
0.0
 11
-1.0
 21
0.0
 31
0.0
  0
ENDBLK
  5
90
330
8C
100
AcDbEntity
  8
0
100
AcDbBlockEnd
  0
BLOCK
  5
102
330
101
100
AcDbEntity
  8
0
 62
     7
100
AcDbBlockBegin
  2
*D2
 70
     1
 10
0.0
 20
0.0
 30
0.0
  3
*D2
  1

  0
LINE
  5
103
330
101
100
AcDbEntity
  8
SUNPOU
 62
    70
370
    -2
100
AcDbLine
 10
27.45954617797247
 20
106.3390856235108
 30
0.0
 11
27.45954617797247
 21
118.1332433036515
 31
0.0
  0
LINE
  5
104
330
101
100
AcDbEntity
  8
SUNPOU
 62
    70
370
    -2
100
AcDbLine
 10
63.57565104683345
 20
106.3390856235108
 30
0.0
 11
63.57565104683345
 21
118.1332433036515
 31
0.0
  0
LINE
  5
105
330
101
100
AcDbEntity
  8
SUNPOU
 62
    60
370
    -2
100
AcDbLine
 10
28.45954617797247
 20
118.1332433036515
 30
0.0
 11
62.57565104683345
 21
118.1332433036515
 31
0.0
  0
INSERT
  5
106
330
101
100
AcDbEntity
  8
SUNPOU
 62
    60
370
    -2
100
AcDbBlockReference
  2
_DOT
 10
27.45954617797247
 20
118.1332433036515
 30
0.0
 50
180.0
  0
INSERT
  5
107
330
101
100
AcDbEntity
  8
SUNPOU
 62
    60
370
    -2
100
AcDbBlockReference
  2
_DOT
 10
63.57565104683345
 20
118.1332433036515
 30
0.0
  0
MTEXT
  5
108
330
101
100
AcDbEntity
  8
SUNPOU
 62
    60
100
AcDbMText
 10
45.51759861240296
 20
123.1332433036515
 30
0.0
 40
6.0
 41
0.0
 71
     5
 72
     1
  1
\A1;36
  7
LIFE
 73
     1
 44
1.0
1001
ACAD
1000
MTEXTBEGIN
1070
    73
1070
     1
1070
    44
1040
1.0
1070
    74
1070
     0
1000
MTEXTEND
  0
POINT
  5
109
330
101
100
AcDbEntity
  8
DEFPOINTS
 62
     0
100
AcDbPoint
 10
27.45954617797247
 20
104.3390856235108
 30
0.0
  0
POINT
  5
10A
330
101
100
AcDbEntity
  8
DEFPOINTS
 62
     0
100
AcDbPoint
 10
63.57565104683345
 20
104.3390856235108
 30
0.0
  0
POINT
  5
10B
330
101
100
AcDbEntity
  8
DEFPOINTS
 62
     0
100
AcDbPoint
 10
63.57565104683345
 20
118.1332433036515
 30
0.0
  0
ENDBLK
  5
10C
330
101
100
AcDbEntity
  8
0
 62
     7
100
AcDbBlockEnd
  0
BLOCK
  5
87
330
86
100
AcDbEntity
  8
0
 62
     7
100
AcDbBlockBegin
  2
*D3
 70
     1
 10
0.0
 20
0.0
 30
0.0
  3
*D3
  1

  0
LINE
  5
88
330
86
100
AcDbEntity
  8
SUNPOU
 62
    70
370
    -2
100
AcDbLine
 10
25.45954617797247
 20
104.3390856235108
 30
0.0
 11
12.08653810886002
 21
104.3390856235108
 31
0.0
  0
LINE
  5
89
330
86
100
AcDbEntity
  8
SUNPOU
 62
    70
370
    -2
100
AcDbLine
 10
25.45954617797246
 20
22.15119219380581
 30
0.0
 11
12.08653810886
 21
22.15119219380582
 31
0.0
  0
LINE
  5
8A
330
86
100
AcDbEntity
  8
SUNPOU
 62
    60
370
    -2
100
AcDbLine
 10
12.08653810886002
 20
103.3390856235108
 30
0.0
 11
12.08653810886
 21
23.15119219380582
 31
0.0
  0
INSERT
  5
8B
330
86
100
AcDbEntity
  8
SUNPOU
 62
    60
370
    -2
100
AcDbBlockReference
  2
_DOT
 10
12.08653810886002
 20
104.3390856235108
 30
0.0
 50
90.0
  0
INSERT
  5
91
330
86
100
AcDbEntity
  8
SUNPOU
 62
    60
370
    -2
100
AcDbBlockReference
  2
_DOT
 10
12.08653810886
 20
22.15119219380582
 30
0.0
 50
270.0
  0
MTEXT
  5
92
330
86
100
AcDbEntity
  8
SUNPOU
 62
    60
100
AcDbMText
 10
7.086538108859999
 20
63.24513890865832
 30
0.0
 40
6.0
 41
0.0
 71
     5
 72
     1
  1
\A1;82
  7
LIFE
 11
0.0000000000000001
 21
1.0
 31
0.0
 73
     1
 44
1.0
1001
ACAD
1000
MTEXTBEGIN
1070
    73
1070
     1
1070
    44
1040
1.0
1070
    74
1070
     0
1000
MTEXTEND
  0
POINT
  5
94
330
86
100
AcDbEntity
  8
DEFPOINTS
 62
     0
100
AcDbPoint
 10
27.45954617797247
 20
104.3390856235108
 30
0.0
  0
POINT
  5
96
330
86
100
AcDbEntity
  8
DEFPOINTS
 62
     0
100
AcDbPoint
 10
27.45954617797246
 20
22.15119219380581
 30
0.0
  0
POINT
  5
97
330
86
100
AcDbEntity
  8
DEFPOINTS
 62
     0
100
AcDbPoint
 10
12.08653810886
 20
22.15119219380582
 30
0.0
  0
ENDBLK
  5
98
330
86
100
AcDbEntity
  8
0
 62
     7
100
AcDbBlockEnd
  0
ENDSEC
  0
SECTION
  2
ENTITIES
  0
LINE
  5
62
330
2
100
AcDbEntity
  8
KIJUN
 62
     7
100
AcDbLine
 10
84.66602776172948
 20
42.15119219380613
 30
0.0
 11
434.6660277617304
 21
42.15119219380567
 31
0.0
  0
ARC
  5
64
330
2
100
AcDbEntity
  8
KIJUN
  6
Continuous
 62
     7
100
AcDbCircle
 10
368.1358952401777
 20
69.34387883377104
 30
0.0
 40
18.44776526373733
100
AcDbArc
 50
205.9614259999989
 51
250.3721010000063
  0
ARC
  5
65
330
2
100
AcDbEntity
  8
KIJUN
  6
Continuous
 62
     7
100
AcDbCircle
 10
367.8368693599884
 20
80.55279470244867
 30
0.0
 40
29.63107630629947
100
AcDbArc
 50
231.864471000009
 51
258.188506999999
  0
LINE
  5
66
330
2
100
AcDbEntity
  8
KIJUN
 62
     7
100
AcDbLine
 10
84.66602776172953
 20
33.99502025262092
 30
0.0
 11
434.0701373396193
 21
33.99502025262092
 31
0.0
  0
LINE
  5
67
330
2
100
AcDbEntity
  8
KIJUN
 62
     7
100
AcDbLine
 10
84.66602776172953
 20
82.3390856235108
 30
0.0
 11
434.0701373396193
 21
82.3390856235108
 31
0.0
  0
LINE
  5
68
330
2
100
AcDbEntity
  8
KIJUN
  6
Continuous
 62
     7
100
AcDbLine
 10
308.6473803740807
 20
30.29241296707579
 30
0.0
 11
434.0701373396193
 21
30.29241296707579
 31
0.0
  0
LINE
  5
69
330
2
100
AcDbEntity
  8
KIJUN
  6
Continuous
 62
     7
100
AcDbLine
 10
308.6473803740807
 20
22.3685998981112
 30
0.0
 11
434.0701373396193
 21
22.3685998981112
 31
0.0
  0
LINE
  5
6A
330
2
100
AcDbEntity
  8
KIJUN
  6
Continuous
 62
     7
100
AcDbLine
 10
434.0701373396193
 20
104.3390856235108
 30
0.0
 11
308.6473803740807
 21
104.3390856235108
 31
0.0
  0
ARC
  5
6B
330
2
100
AcDbEntity
  8
KIJUN
  6
Continuous
 62
     7
100
AcDbCircle
 10
363.9935822298773
 20
84.07452961684777
 30
0.0
 40
36.89500033681073
100
AcDbArc
 50
254.9262287081953
 51
271.0443264392848
  0
ARC
  5
6C
330
2
100
AcDbEntity
  8
KIJUN
  6
Continuous
 62
     7
100
AcDbCircle
 10
437.2409789378776
 20
80.55279470244867
 30
0.0
 40
29.63107630629947
100
AcDbArc
 50
231.864471000009
 51
258.188506999999
  0
ARC
  5
6D
330
2
100
AcDbEntity
  8
KIJUN
  6
Continuous
 62
     7
100
AcDbCircle
 10
437.540004818067
 20
69.34387883377104
 30
0.0
 40
18.44776526373733
100
AcDbArc
 50
205.9614259999989
 51
250.3721010000063
  0
ARC
  5
6E
330
2
100
AcDbEntity
  8
KIJUN
  6
Continuous
 62
     7
100
AcDbCircle
 10
434.4420410648218
 20
74.70549379359026
 30
0.0
 40
23.34605239342392
100
AcDbArc
 50
187.9171749999919
 51
228.4035029999995
  0
ARC
  5
6F
330
2
100
AcDbEntity
  8
KIJUN
  6
Continuous
 62
     7
100
AcDbCircle
 10
452.6530065857975
 20
76.58606093700409
 30
0.0
 40
35.2062294532023
100
AcDbArc
 50
183.6615599999978
 51
205.7951969999888
  0
ARC
  5
70
330
2
100
AcDbEntity
  8
KIJUN
  6
Continuous
 62
     7
100
AcDbCircle
 10
508.2983615830396
 20
81.10791645148704
 30
0.0
 40
91.0318185917491
100
AcDbArc
 50
179.5674612524079
 51
184.2650450000076
  0
ARC
  5
71
330
2
100
AcDbEntity
  8
KIJUN
  6
Continuous
 62
     7
100
AcDbCircle
 10
463.1916568409776
 20
79.5437731501127
 30
0.0
 40
52.49465831666427
100
AcDbArc
 50
177.541982273497
 51
188.8257450000002
  0
ARC
  5
72
330
2
100
AcDbEntity
  8
KIJUN
  6
Continuous
 62
     7
100
AcDbCircle
 10
346.0831585155509
 20
76.58606093700409
 30
0.0
 40
35.2062294532023
100
AcDbArc
 50
334.2048030000114
 51
356.3384400000022
  0
ARC
  5
73
330
2
100
AcDbEntity
  8
KIJUN
  6
Continuous
 62
     7
100
AcDbCircle
 10
290.437803518309
 20
81.10791645148704
 30
0.0
 40
91.0318185917491
100
AcDbArc
 50
355.7349549999925
 51
0.4325387475920923
  0
ARC
  5
74
330
2
100
AcDbEntity
  8
KIJUN
  6
Continuous
 62
     7
100
AcDbCircle
 10
335.5445082603709
 20
79.5437731501127
 30
0.0
 40
52.49465831666427
100
AcDbArc
 50
351.1742549999997
 51
2.458017726502983
  0
ARC
  5
75
330
2
100
AcDbEntity
  8
KIJUN
  6
Continuous
 62
     7
100
AcDbCircle
 10
364.2941240365264
 20
74.70549379359026
 30
0.0
 40
23.34605239342392
100
AcDbArc
 50
311.5964970000005
 51
352.0828250000083
  0
ARC
  5
76
330
2
100
AcDbEntity
  8
KIJUN
  6
Continuous
 62
     7
100
AcDbCircle
 10
361.4951861634706
 20
80.55279470244867
 30
0.0
 40
29.63107630629947
100
AcDbArc
 50
281.8114930000012
 51
308.1355289999911
  0
ARC
  5
77
330
2
100
AcDbEntity
  8
KIJUN
  6
Continuous
 62
     7
100
AcDbCircle
 10
361.1961602832814
 20
69.34387883377104
 30
0.0
 40
18.44776526373733
100
AcDbArc
 50
289.6278989999937
 51
334.0385740000011
  0
LINE
  5
78
330
2
100
AcDbEntity
  8
KIJUN
  6
Continuous
 62
     7
100
AcDbLine
 10
361.9389782959472
 20
51.96808237110264
 30
0.0
 11
361.7714086504733
 21
51.54915561254193
 31
0.0
  0
ARC
  5
79
330
2
100
AcDbEntity
  8
KIJUN
  6
Continuous
 62
     7
100
AcDbCircle
 10
434.4943020069784
 20
84.07448223227566
 30
0.0
 40
36.89490375275539
100
AcDbArc
 50
254.9254608755682
 51
269.3412808227324
  0
CIRCLE
  5
7A
330
2
100
AcDbEntity
  8
KIJUN
  6
Continuous
 62
     7
100
AcDbCircle
 10
400.3408342170016
 20
74.27302768410601
 30
0.0
 40
2.573852264230787
  0
ARC
  5
7B
330
2
100
AcDbEntity
  8
KIJUN
  6
Continuous
 62
     7
100
AcDbCircle
 10
400.1923393816229
 20
53.37695075279254
 30
0.0
 40
4.943668851193159
100
AcDbArc
 50
229.3981480000006
 51
310.6011049999978
  0
ARC
  5
7C
330
2
100
AcDbEntity
  8
KIJUN
  6
Continuous
 62
     7
100
AcDbCircle
 10
417.3764400262591
 20
34.61203260110352
 30
0.0
 40
20.50402436634226
100
AcDbArc
 50
97.6143110000018
 51
132.9368590000048
  0
LINE
  5
7D
330
2
100
AcDbEntity
  8
KIJUN
  6
Continuous
 62
     7
100
AcDbLine
 10
400.2418359252753
 20
67.83840235592953
 30
0.0
 11
400.2418359252753
 21
48.43551229577116
 31
0.0
  0
LINE
  5
7E
330
2
100
AcDbEntity
  8
KIJUN
  6
Continuous
 62
     7
100
AcDbLine
 10
405.4035564164216
 20
67.79902380918684
 30
0.0
 11
396.5480075493717
 21
67.79902380918684
 31
0.0
  0
ARC
  5
7F
330
2
100
AcDbEntity
  8
KIJUN
  6
Continuous
 62
     7
100
AcDbCircle
 10
383.9562864556786
 20
35.77079881836727
 30
0.0
 40
19.01009411578321
100
AcDbArc
 50
46.77745399999233
 51
83.86870600000198
  0
ARC
  5
80
330
2
100
AcDbEntity
  8
KIJUN
  6
Continuous
 62
     7
100
AcDbCircle
 10
361.0455980972341
 20
85.70922679350706
 30
0.0
 40
39.76426091684521
100
AcDbArc
 50
290.441742000005
 51
333.2366939999931
  0
LINE
  5
81
330
2
100
AcDbEntity
  8
KIJUN
  6
Continuous
 62
     7
100
AcDbLine
 10
367.3930772275119
 20
51.96808237110264
 30
0.0
 11
367.5606468729859
 21
51.54915561254193
 31
0.0
  0
ARC
  5
82
330
2
100
AcDbEntity
  8
KIJUN
  6
Continuous
 62
     7
100
AcDbCircle
 10
365.3384732935818
 20
84.07452961684777
 30
0.0
 40
36.89500033681073
100
AcDbArc
 50
268.9556735607156
 51
285.0737712918046
  0
ARC
  5
83
330
2
100
AcDbEntity
  8
KIJUN
  6
Continuous
 62
     7
100
AcDbCircle
 10
438.6455871976129
 20
81.79512963089093
 30
0.0
 40
36.06831835045829
100
AcDbArc
 50
202.8328654682683
 51
247.5963129999978
  0
DIMENSION
  5
84
330
2
100
AcDbEntity
  8
SUNPOU
100
AcDbDimension
  2
*D3
 10
12.08653810886
 20
22.15119219380582
 30
0.0
 11
7.086538108859999
 21
63.24513890865832
 31
0.0
 71
     5
 42
82.18789342970499
  3
STANDARD$0
100
AcDbAlignedDimension
 13
27.45954617797247
 23
104.3390856235108
 33
0.0
 14
27.45954617797246
 24
22.15119219380581
 34
0.0
 50
90.0
100
AcDbRotatedDimension
1001
ACAD
1000
DSTYLE
1002
{
1070
    41
1040
0.5
1070
    42
1040
1.0
1070
    44
1040
0.0
1070
    77
1070
     1
1070
    78
1070
     0
1070
   140
1040
3.0
1070
   141
1040
1.0
1070
   146
1040
0.0642857142857143
1070
   172
1070
     0
1070
   176
1070
    60
1070
   177
1070
    70
1070
   178
1070
    60
1070
   271
1070
     0
1070
   272
1070
     0
1070
   341
1005
0
1002
}
  0
ARC
  5
9A
330
2
100
AcDbEntity
  8
KIJUN
  6
Continuous
 62
     7
100
AcDbCircle
 10
154.8900144586372
 20
74.70549379359026
 30
0.0
 40
23.34605239342392
100
AcDbArc
 50
311.5964970000005
 51
352.0828250000083
  0
ARC
  5
9B
330
2
100
AcDbEntity
  8
KIJUN
  6
Continuous
 62
     7
100
AcDbCircle
 10
150.6864683258461
 20
81.79512963089093
 30
0.0
 40
36.06831835045829
100
AcDbArc
 50
292.4036870000022
 51
337.1671345317318
  0
LINE
  5
9C
330
2
100
AcDbEntity
  8
KIJUN
  6
Continuous
 62
     7
100
AcDbLine
 10
231.9546492789602
 20
22.3685998981112
 30
0.0
 11
155.2619181838397
 21
22.3685998981112
 31
0.0
  0
LINE
  5
9D
330
2
100
AcDbEntity
  8
KIJUN
  6
Continuous
 62
     7
100
AcDbLine
 10
231.9546492789602
 20
30.29241296707579
 30
0.0
 11
155.2619181838397
 21
30.29241296707579
 31
0.0
  0
ARC
  5
9E
330
2
100
AcDbEntity
  8
KIJUN
  6
Continuous
 62
     7
100
AcDbCircle
 10
277.3764400262591
 20
34.61203260110352
 30
0.0
 40
20.50402436634226
100
AcDbArc
 50
97.6143110000018
 51
132.9368590000048
  0
LINE
  5
9F
330
2
100
AcDbEntity
  8
KIJUN
  6
Continuous
 62
     7
100
AcDbLine
 10
265.4035564164217
 20
67.79902380918684
 30
0.0
 11
256.5480075493718
 21
67.79902380918684
 31
0.0
  0
ARC
  5
A0
330
2
100
AcDbEntity
  8
KIJUN
  6
Continuous
 62
     7
100
AcDbCircle
 10
298.6455871976131
 20
81.79512963089093
 30
0.0
 40
36.06831835045829
100
AcDbArc
 50
202.8328654682683
 51
247.5963129999978
  0
LINE
  5
A1
330
2
100
AcDbEntity
  8
KIJUN
  6
Continuous
 62
     7
100
AcDbLine
 10
231.9546492789602
 20
30.29241296707579
 30
0.0
 11
308.6473803740807
 21
30.29241296707579
 31
0.0
  0
LINE
  5
A2
330
2
100
AcDbEntity
  8
KIJUN
  6
Continuous
 62
     7
100
AcDbLine
 10
231.9546492789602
 20
22.3685998981112
 30
0.0
 11
308.6473803740807
 21
22.3685998981112
 31
0.0
  0
ARC
  5
A3
330
2
100
AcDbEntity
  8
KIJUN
  6
Continuous
 62
     7
100
AcDbCircle
 10
368.8942520051498
 20
81.10791645148704
 30
0.0
 40
91.0318185917491
100
AcDbArc
 50
179.5674612524079
 51
184.2650450000076
  0
ARC
  5
A4
330
2
100
AcDbEntity
  8
KIJUN
  6
Continuous
 62
     7
100
AcDbCircle
 10
323.7875472630879
 20
79.5437731501127
 30
0.0
 40
52.49465831666427
100
AcDbArc
 50
177.541982273497
 51
188.8257450000002
  0
ARC
  5
A5
330
2
100
AcDbEntity
  8
KIJUN
  6
Continuous
 62
     7
100
AcDbCircle
 10
295.0379314869323
 20
74.70549379359026
 30
0.0
 40
23.34605239342392
100
AcDbArc
 50
187.9171749999919
 51
228.4035029999995
  0
ARC
  5
A6
330
2
100
AcDbEntity
  8
KIJUN
  6
Continuous
 62
     7
100
AcDbCircle
 10
313.2488970079078
 20
76.58606093700409
 30
0.0
 40
35.2062294532023
100
AcDbArc
 50
183.6615599999978
 51
205.7951969999888
  0
ARC
  5
A7
330
2
100
AcDbEntity
  8
KIJUN
  6
Continuous
 62
     7
100
AcDbCircle
 10
297.836869359988
 20
80.55279470244867
 30
0.0
 40
29.63107630629947
100
AcDbArc
 50
231.864471000009
 51
258.188506999999
  0
ARC
  5
A8
330
2
100
AcDbEntity
  8
KIJUN
  6
Continuous
 62
     7
100
AcDbCircle
 10
298.1358952401772
 20
69.34387883377104
 30
0.0
 40
18.44776526373733
100
AcDbArc
 50
205.9614259999989
 51
250.3721010000063
  0
LINE
  5
A9
330
2
100
AcDbEntity
  8
KIJUN
  6
Continuous
 62
     7
100
AcDbLine
 10
297.3930772275115
 20
51.96808237110264
 30
0.0
 11
297.5606468729854
 21
51.54915561254193
 31
0.0
  0
LINE
  5
AA
330
2
100
AcDbEntity
  8
KIJUN
  6
Continuous
 62
     7
100
AcDbLine
 10
291.9389782959468
 20
51.96808237110264
 30
0.0
 11
291.7714086504727
 21
51.54915561254193
 31
0.0
  0
ARC
  5
AB
330
2
100
AcDbEntity
  8
KIJUN
  6
Continuous
 62
     7
100
AcDbCircle
 10
291.4951861634703
 20
80.55279470244867
 30
0.0
 40
29.63107630629947
100
AcDbArc
 50
281.8114930000012
 51
308.1355289999911
  0
ARC
  5
AC
330
2
100
AcDbEntity
  8
KIJUN
  6
Continuous
 62
     7
100
AcDbCircle
 10
291.196160283281
 20
69.34387883377104
 30
0.0
 40
18.44776526373733
100
AcDbArc
 50
289.6278989999937
 51
334.0385740000011
  0
ARC
  5
AD
330
2
100
AcDbEntity
  8
KIJUN
  6
Continuous
 62
     7
100
AcDbCircle
 10
294.2941240365261
 20
74.70549379359026
 30
0.0
 40
23.34605239342392
100
AcDbArc
 50
311.5964970000005
 51
352.0828250000083
  0
ARC
  5
AE
330
2
100
AcDbEntity
  8
KIJUN
  6
Continuous
 62
     7
100
AcDbCircle
 10
265.5445082603703
 20
79.5437731501127
 30
0.0
 40
52.49465831666427
100
AcDbArc
 50
351.1742549999997
 51
2.458017726502983
  0
ARC
  5
AF
330
2
100
AcDbEntity
  8
KIJUN
  6
Continuous
 62
     7
100
AcDbCircle
 10
220.4378035183083
 20
81.10791645148704
 30
0.0
 40
91.0318185917491
100
AcDbArc
 50
355.7349549999925
 51
0.4325387475920923
  0
ARC
  5
B0
330
2
100
AcDbEntity
  8
KIJUN
  6
Continuous
 62
     7
100
AcDbCircle
 10
276.0831585155504
 20
76.58606093700409
 30
0.0
 40
35.2062294532023
100
AcDbArc
 50
334.2048030000114
 51
356.3384400000022
  0
ARC
  5
B1
330
2
100
AcDbEntity
  8
KIJUN
  6
Continuous
 62
     7
100
AcDbCircle
 10
393.7875472630884
 20
79.5437731501127
 30
0.0
 40
52.49465831666427
100
AcDbArc
 50
177.541982273497
 51
188.8257450000002
  0
ARC
  5
B2
330
2
100
AcDbEntity
  8
KIJUN
  6
Continuous
 62
     7
100
AcDbCircle
 10
438.8942520051501
 20
81.10791645148704
 30
0.0
 40
91.0318185917491
100
AcDbArc
 50
179.5674612524079
 51
184.2650450000076
  0
ARC
  5
B3
330
2
100
AcDbEntity
  8
KIJUN
  6
Continuous
 62
     7
100
AcDbCircle
 10
383.2488970079083
 20
76.58606093700409
 30
0.0
 40
35.2062294532023
100
AcDbArc
 50
183.6615599999978
 51
205.7951969999888
  0
ARC
  5
B4
330
2
100
AcDbEntity
  8
KIJUN
  6
Continuous
 62
     7
100
AcDbCircle
 10
365.0379314869326
 20
74.70549379359026
 30
0.0
 40
23.34605239342392
100
AcDbArc
 50
187.9171749999919
 51
228.4035029999995
  0
ARC
  5
B5
330
2
100
AcDbEntity
  8
KIJUN
  6
Continuous
 62
     7
100
AcDbCircle
 10
368.2864574262252
 20
85.70922679350706
 30
0.0
 40
39.76426091684521
100
AcDbArc
 50
206.7633060000069
 51
249.558257999995
  0
ARC
  5
B6
330
2
100
AcDbEntity
  8
KIJUN
  6
Continuous
 62
     7
100
AcDbCircle
 10
345.3757690677806
 20
35.77079881836727
 30
0.0
 40
19.01009411578321
100
AcDbArc
 50
96.13129399999804
 51
133.2225460000077
  0
LINE
  5
B7
330
2
100
AcDbEntity
  8
KIJUN
  6
Continuous
 62
     7
100
AcDbLine
 10
329.0902195981838
 20
67.83840235592953
 30
0.0
 11
329.0902195981838
 21
48.43551229577116
 31
0.0
  0
ARC
  5
B8
330
2
100
AcDbEntity
  8
KIJUN
  6
Continuous
 62
     7
100
AcDbCircle
 10
329.139716141836
 20
53.37695075279254
 30
0.0
 40
4.943668851193159
100
AcDbArc
 50
229.3988950000021
 51
310.6018519999993
  0
CIRCLE
  5
B9
330
2
100
AcDbEntity
  8
KIJUN
  6
Continuous
 62
     7
100
AcDbCircle
 10
328.9912213064575
 20
74.27302768410601
 30
0.0
 40
2.573852264230787
  0
ARC
  5
BA
330
2
100
AcDbEntity
  8
KIJUN
  6
Continuous
 62
     7
100
AcDbCircle
 10
294.8377535164805
 20
84.07448223227566
 30
0.0
 40
36.89490375275539
100
AcDbArc
 50
269.7333182768792
 51
285.0745391244317
  0
ARC
  5
BB
330
2
100
AcDbEntity
  8
KIJUN
  6
Continuous
 62
     7
100
AcDbCircle
 10
290.6864683258461
 20
81.79512963089093
 30
0.0
 40
36.06831835045829
100
AcDbArc
 50
292.4036870000022
 51
337.1671345317318
  0
LINE
  5
BC
330
2
100
AcDbEntity
  8
KIJUN
  6
Continuous
 62
     7
100
AcDbLine
 10
323.9284991070374
 20
67.79902380918684
 30
0.0
 11
332.7840479740873
 21
67.79902380918684
 31
0.0
  0
ARC
  5
BD
330
2
100
AcDbEntity
  8
KIJUN
  6
Continuous
 62
     7
100
AcDbCircle
 10
311.9556154972
 20
34.61203260110352
 30
0.0
 40
20.50402436634226
100
AcDbArc
 50
47.06314099999519
 51
82.38568899999823
  0
ARC
  5
BE
330
2
100
AcDbEntity
  8
KIJUN
  6
Continuous
 62
     7
100
AcDbCircle
 10
294.4943020069786
 20
84.07448223227566
 30
0.0
 40
36.89490375275539
100
AcDbArc
 50
254.9254608755682
 51
270.2666817231208
  0
ARC
  5
BF
330
2
100
AcDbEntity
  8
KIJUN
  6
Continuous
 62
     7
100
AcDbCircle
 10
126.1403986824815
 20
79.5437731501127
 30
0.0
 40
52.49465831666427
100
AcDbArc
 50
351.1742549999997
 51
2.458017726502983
  0
CIRCLE
  5
C0
330
2
100
AcDbEntity
  8
KIJUN
  6
Continuous
 62
     7
100
AcDbCircle
 10
260.3408342170016
 20
74.27302768410601
 30
0.0
 40
2.573852264230787
  0
ARC
  5
C1
330
2
100
AcDbEntity
  8
KIJUN
  6
Continuous
 62
     7
100
AcDbCircle
 10
260.1923393816231
 20
53.37695075279254
 30
0.0
 40
4.943668851193159
100
AcDbArc
 50
229.3981480000006
 51
310.6011049999978
  0
LINE
  5
C2
330
2
100
AcDbEntity
  8
KIJUN
  6
Continuous
 62
     7
100
AcDbLine
 10
260.2418359252754
 20
67.83840235592953
 30
0.0
 11
260.2418359252754
 21
48.43551229577116
 31
0.0
  0
ARC
  5
C3
330
2
100
AcDbEntity
  8
KIJUN
  6
Continuous
 62
     7
100
AcDbCircle
 10
206.0831585155508
 20
76.58606093700409
 30
0.0
 40
35.2062294532023
100
AcDbArc
 50
334.2048030000114
 51
356.3384400000022
  0
ARC
  5
C4
330
2
100
AcDbEntity
  8
KIJUN
  6
Continuous
 62
     7
100
AcDbCircle
 10
224.2941240365265
 20
74.70549379359026
 30
0.0
 40
23.34605239342392
100
AcDbArc
 50
311.5964970000005
 51
352.0828250000083
  0
ARC
  5
C5
330
2
100
AcDbEntity
  8
KIJUN
  6
Continuous
 62
     7
100
AcDbCircle
 10
150.4378035183088
 20
81.10791645148704
 30
0.0
 40
91.0318185917491
100
AcDbArc
 50
355.7349549999925
 51
0.4325387475920923
  0
ARC
  5
C6
330
2
100
AcDbEntity
  8
KIJUN
  6
Continuous
 62
     7
100
AcDbCircle
 10
195.5445082603707
 20
79.5437731501127
 30
0.0
 40
52.49465831666427
100
AcDbArc
 50
351.1742549999997
 51
2.458017726502983
  0
ARC
  5
C7
330
2
100
AcDbEntity
  8
KIJUN
  6
Continuous
 62
     7
100
AcDbCircle
 10
243.9562864556785
 20
35.77079881836727
 30
0.0
 40
19.01009411578321
100
AcDbArc
 50
46.77745399999233
 51
83.86870600000198
  0
ARC
  5
C8
330
2
100
AcDbEntity
  8
KIJUN
  6
Continuous
 62
     7
100
AcDbCircle
 10
221.045598097234
 20
85.70922679350706
 30
0.0
 40
39.76426091684521
100
AcDbArc
 50
290.441742000005
 51
333.2366939999931
  0
LINE
  5
C9
330
2
100
AcDbEntity
  8
KIJUN
  6
Continuous
 62
     7
100
AcDbLine
 10
227.3930772275119
 20
51.96808237110264
 30
0.0
 11
227.5606468729859
 21
51.54915561254193
 31
0.0
  0
ARC
  5
CA
330
2
100
AcDbEntity
  8
KIJUN
  6
Continuous
 62
     7
100
AcDbCircle
 10
221.4951861634706
 20
80.55279470244867
 30
0.0
 40
29.63107630629947
100
AcDbArc
 50
281.8114930000012
 51
308.1355289999911
  0
ARC
  5
CB
330
2
100
AcDbEntity
  8
KIJUN
  6
Continuous
 62
     7
100
AcDbCircle
 10
221.1961602832814
 20
69.34387883377104
 30
0.0
 40
18.44776526373733
100
AcDbArc
 50
289.6278989999937
 51
334.0385740000011
  0
ARC
  5
CC
330
2
100
AcDbEntity
  8
KIJUN
  6
Continuous
 62
     7
100
AcDbCircle
 10
225.3384732935818
 20
84.07452961684777
 30
0.0
 40
36.89500033681073
100
AcDbArc
 50
268.9556735607156
 51
285.0737712918046
  0
ARC
  5
CD
330
2
100
AcDbEntity
  8
KIJUN
  6
Continuous
 62
     7
100
AcDbCircle
 10
223.9935822298774
 20
84.07452961684777
 30
0.0
 40
36.89500033681073
100
AcDbArc
 50
254.9262287081953
 51
271.0443264392848
  0
ARC
  5
CE
330
2
100
AcDbEntity
  8
KIJUN
  6
Continuous
 62
     7
100
AcDbCircle
 10
228.1358952401778
 20
69.34387883377104
 30
0.0
 40
18.44776526373733
100
AcDbArc
 50
205.9614259999989
 51
250.3721010000063
  0
ARC
  5
CF
330
2
100
AcDbEntity
  8
KIJUN
  6
Continuous
 62
     7
100
AcDbCircle
 10
227.8368693599885
 20
80.55279470244867
 30
0.0
 40
29.63107630629947
100
AcDbArc
 50
231.864471000009
 51
258.188506999999
  0
LINE
  5
D0
330
2
100
AcDbEntity
  8
KIJUN
  6
Continuous
 62
     7
100
AcDbLine
 10
221.9389782959474
 20
51.96808237110264
 30
0.0
 11
221.7714086504732
 21
51.54915561254193
 31
0.0
  0
ARC
  5
D1
330
2
100
AcDbEntity
  8
KIJUN
  6
Continuous
 62
     7
100
AcDbCircle
 10
228.2864574262251
 20
85.70922679350706
 30
0.0
 40
39.76426091684521
100
AcDbArc
 50
206.7633060000069
 51
249.558257999995
  0
ARC
  5
D2
330
2
100
AcDbEntity
  8
KIJUN
  6
Continuous
 62
     7
100
AcDbCircle
 10
205.3757690677805
 20
35.77079881836727
 30
0.0
 40
19.01009411578321
100
AcDbArc
 50
96.13129399999804
 51
133.2225460000077
  0
ARC
  5
D3
330
2
100
AcDbEntity
  8
KIJUN
  6
Continuous
 62
     7
100
AcDbCircle
 10
253.7875472630884
 20
79.5437731501127
 30
0.0
 40
52.49465831666427
100
AcDbArc
 50
177.541982273497
 51
188.8257450000002
  0
ARC
  5
D4
330
2
100
AcDbEntity
  8
KIJUN
  6
Continuous
 62
     7
100
AcDbCircle
 10
298.8942520051504
 20
81.10791645148704
 30
0.0
 40
91.0318185917491
100
AcDbArc
 50
179.5674612524079
 51
184.2650450000076
  0
ARC
  5
D5
330
2
100
AcDbEntity
  8
KIJUN
  6
Continuous
 62
     7
100
AcDbCircle
 10
225.0379314869326
 20
74.70549379359026
 30
0.0
 40
23.34605239342392
100
AcDbArc
 50
187.9171749999919
 51
228.4035029999995
  0
ARC
  5
D6
330
2
100
AcDbEntity
  8
KIJUN
  6
Continuous
 62
     7
100
AcDbCircle
 10
243.2488970079082
 20
76.58606093700409
 30
0.0
 40
35.2062294532023
100
AcDbArc
 50
183.6615599999978
 51
205.7951969999888
  0
LINE
  5
D7
330
2
100
AcDbEntity
  8
KIJUN
  6
Continuous
 62
     7
100
AcDbLine
 10
183.9284991070374
 20
67.79902380918684
 30
0.0
 11
192.7840479740873
 21
67.79902380918684
 31
0.0
  0
LINE
  5
D8
330
2
100
AcDbEntity
  8
KIJUN
  6
Continuous
 62
     7
100
AcDbLine
 10
189.0902195981837
 20
67.83840235592953
 30
0.0
 11
189.0902195981837
 21
48.43551229577116
 31
0.0
  0
ARC
  5
D9
330
2
100
AcDbEntity
  8
KIJUN
  6
Continuous
 62
     7
100
AcDbCircle
 10
171.9556154971999
 20
34.61203260110352
 30
0.0
 40
20.50402436634226
100
AcDbArc
 50
47.06314099999519
 51
82.38568899999823
  0
ARC
  5
DA
330
2
100
AcDbEntity
  8
KIJUN
  6
Continuous
 62
     7
100
AcDbCircle
 10
189.139716141836
 20
53.37695075279254
 30
0.0
 40
4.943668851193159
100
AcDbArc
 50
229.3988950000021
 51
310.6018519999993
  0
CIRCLE
  5
DB
330
2
100
AcDbEntity
  8
KIJUN
  6
Continuous
 62
     7
100
AcDbCircle
 10
188.9912213064574
 20
74.27302768410601
 30
0.0
 40
2.573852264230787
  0
LINE
  5
DC
330
2
100
AcDbEntity
  8
KIJUN
  6
Continuous
 62
     7
100
AcDbLine
 10
152.5348687180579
 20
51.96808237110264
 30
0.0
 11
152.3672990725839
 21
51.54915561254193
 31
0.0
  0
LINE
  5
DD
330
2
100
AcDbEntity
  8
KIJUN
  6
Continuous
 62
     7
100
AcDbLine
 10
157.9889676496226
 20
51.96808237110264
 30
0.0
 11
158.1565372950967
 21
51.54915561254193
 31
0.0
  0
ARC
  5
DE
330
2
100
AcDbEntity
  8
KIJUN
  6
Continuous
 62
     7
100
AcDbCircle
 10
158.4327597820992
 20
80.55279470244867
 30
0.0
 40
29.63107630629947
100
AcDbArc
 50
231.864471000009
 51
258.188506999999
  0
ARC
  5
DF
330
2
100
AcDbEntity
  8
KIJUN
  6
Continuous
 62
     7
100
AcDbCircle
 10
158.7317856622884
 20
69.34387883377104
 30
0.0
 40
18.44776526373733
100
AcDbArc
 50
205.9614259999989
 51
250.3721010000063
  0
ARC
  5
E0
330
2
100
AcDbEntity
  8
KIJUN
  6
Continuous
 62
     7
100
AcDbCircle
 10
173.8447874300189
 20
76.58606093700409
 30
0.0
 40
35.2062294532023
100
AcDbArc
 50
183.6615599999978
 51
205.7951969999888
  0
ARC
  5
E1
330
2
100
AcDbEntity
  8
KIJUN
  6
Continuous
 62
     7
100
AcDbCircle
 10
155.6338219090434
 20
74.70549379359026
 30
0.0
 40
23.34605239342392
100
AcDbArc
 50
187.9171749999919
 51
228.4035029999995
  0
ARC
  5
E2
330
2
100
AcDbEntity
  8
KIJUN
  6
Continuous
 62
     7
100
AcDbCircle
 10
229.4901424272609
 20
81.10791645148704
 30
0.0
 40
91.0318185917491
100
AcDbArc
 50
179.5674612524079
 51
184.2650450000076
  0
ARC
  5
E3
330
2
100
AcDbEntity
  8
KIJUN
  6
Continuous
 62
     7
100
AcDbCircle
 10
184.383437685199
 20
79.5437731501127
 30
0.0
 40
52.49465831666427
100
AcDbArc
 50
177.541982273497
 51
188.8257450000002
  0
ARC
  5
E4
330
2
100
AcDbEntity
  8
KIJUN
  6
Continuous
 62
     7
100
AcDbCircle
 10
151.7920507053922
 20
69.34387883377104
 30
0.0
 40
18.44776526373733
100
AcDbArc
 50
289.6278989999937
 51
334.0385740000011
  0
ARC
  5
E5
330
2
100
AcDbEntity
  8
KIJUN
  6
Continuous
 62
     7
100
AcDbCircle
 10
152.0910765855814
 20
80.55279470244867
 30
0.0
 40
29.63107630629947
100
AcDbArc
 50
281.8114930000012
 51
308.1355289999911
  0
ARC
  5
E6
330
2
100
AcDbEntity
  8
KIJUN
  6
Continuous
 62
     7
100
AcDbCircle
 10
136.6790489376617
 20
76.58606093700409
 30
0.0
 40
35.2062294532023
100
AcDbArc
 50
334.2048030000114
 51
356.3384400000022
  0
ARC
  5
E7
330
2
100
AcDbEntity
  8
KIJUN
  6
Continuous
 62
     7
100
AcDbCircle
 10
81.03369394041958
 20
81.10791645148704
 30
0.0
 40
91.0318185917491
100
AcDbArc
 50
355.7349549999925
 51
0.4325387475920923
  0
LINE
  5
E8
330
2
100
AcDbEntity
  8
KIJUN
  6
Continuous
 62
     7
100
AcDbLine
 10
155.2619181838397
 20
22.3685998981112
 30
0.0
 11
84.66602776172971
 21
22.3685998981112
 31
0.0
  0
LINE
  5
E9
330
2
100
AcDbEntity
  8
KIJUN
  6
Continuous
 62
     7
100
AcDbLine
 10
155.2619181838397
 20
30.29241296707579
 30
0.0
 11
84.66602776172971
 21
30.29241296707579
 31
0.0
  0
ARC
  5
EA
330
2
100
AcDbEntity
  8
KIJUN
  6
Continuous
 62
     7
100
AcDbCircle
 10
154.4943020069786
 20
84.07448223227566
 30
0.0
 40
36.89490375275539
100
AcDbArc
 50
254.9254608755682
 51
270.2666817231208
  0
CIRCLE
  5
EB
330
2
100
AcDbEntity
  8
KIJUN
  6
Continuous
 62
     7
100
AcDbCircle
 10
120.3408342170016
 20
74.27302768410601
 30
0.0
 40
2.573852264230787
  0
ARC
  5
EC
330
2
100
AcDbEntity
  8
KIJUN
  6
Continuous
 62
     7
100
AcDbCircle
 10
120.192339381623
 20
53.37695075279254
 30
0.0
 40
4.943668851193159
100
AcDbArc
 50
229.3981480000006
 51
310.6011049999978
  0
ARC
  5
ED
330
2
100
AcDbEntity
  8
KIJUN
  6
Continuous
 62
     7
100
AcDbCircle
 10
137.3764400262592
 20
34.61203260110352
 30
0.0
 40
20.50402436634226
100
AcDbArc
 50
97.6143110000018
 51
132.9368590000048
  0
LINE
  5
EE
330
2
100
AcDbEntity
  8
KIJUN
  6
Continuous
 62
     7
100
AcDbLine
 10
120.2418359252754
 20
67.83840235592953
 30
0.0
 11
120.2418359252754
 21
48.43551229577116
 31
0.0
  0
LINE
  5
EF
330
2
100
AcDbEntity
  8
KIJUN
  6
Continuous
 62
     7
100
AcDbLine
 10
125.4035564164217
 20
67.79902380918684
 30
0.0
 11
116.5480075493717
 21
67.79902380918684
 31
0.0
  0
ARC
  5
F0
330
2
100
AcDbEntity
  8
KIJUN
  6
Continuous
 62
     7
100
AcDbCircle
 10
66.08315851555085
 20
76.58606093700409
 30
0.0
 40
35.2062294532023
100
AcDbArc
 50
334.2048030000114
 51
356.3384400000022
  0
ARC
  5
F1
330
2
100
AcDbEntity
  8
KIJUN
  6
Continuous
 62
     7
100
AcDbCircle
 10
84.29412403652646
 20
74.70549379359026
 30
0.0
 40
23.34605239342392
100
AcDbArc
 50
311.5964970000005
 51
352.0828250000083
  0
ARC
  5
F2
330
2
100
AcDbEntity
  8
KIJUN
  6
Continuous
 62
     7
100
AcDbCircle
 10
10.43780351830872
 20
81.10791645148704
 30
0.0
 40
91.0318185917491
100
AcDbArc
 50
355.7349549999925
 51
0.4325387475920923
  0
ARC
  5
F3
330
2
100
AcDbEntity
  8
KIJUN
  6
Continuous
 62
     7
100
AcDbCircle
 10
55.54450826037089
 20
79.5437731501127
 30
0.0
 40
52.49465831666427
100
AcDbArc
 50
351.1742549999997
 51
2.458017726502983
  0
ARC
  5
F4
330
2
100
AcDbEntity
  8
KIJUN
  6
Continuous
 62
     7
100
AcDbCircle
 10
103.9562864556786
 20
35.77079881836727
 30
0.0
 40
19.01009411578321
100
AcDbArc
 50
46.77745399999233
 51
83.86870600000198
  0
ARC
  5
F5
330
2
100
AcDbEntity
  8
KIJUN
  6
Continuous
 62
     7
100
AcDbCircle
 10
81.04559809723404
 20
85.70922679350706
 30
0.0
 40
39.76426091684521
100
AcDbArc
 50
290.441742000005
 51
333.2366939999931
  0
LINE
  5
F6
330
2
100
AcDbEntity
  8
KIJUN
  6
Continuous
 62
     7
100
AcDbLine
 10
87.39307722751192
 20
51.96808237110264
 30
0.0
 11
87.56064687298595
 21
51.54915561254193
 31
0.0
  0
ARC
  5
F7
330
2
100
AcDbEntity
  8
KIJUN
  6
Continuous
 62
     7
100
AcDbCircle
 10
81.49518616347075
 20
80.55279470244867
 30
0.0
 40
29.63107630629947
100
AcDbArc
 50
281.8114930000012
 51
308.1355289999911
  0
ARC
  5
F8
330
2
100
AcDbEntity
  8
KIJUN
  6
Continuous
 62
     7
100
AcDbCircle
 10
81.19616028328142
 20
69.34387883377104
 30
0.0
 40
18.44776526373733
100
AcDbArc
 50
289.6278989999937
 51
334.0385740000011
  0
ARC
  5
F9
330
2
100
AcDbEntity
  8
KIJUN
  6
Continuous
 62
     7
100
AcDbCircle
 10
85.3384732935819
 20
84.07452961684777
 30
0.0
 40
36.89500033681073
100
AcDbArc
 50
268.9556735607156
 51
285.0737712918046
  0
ARC
  5
FA
330
2
100
AcDbEntity
  8
KIJUN
  6
Continuous
 62
     7
100
AcDbCircle
 10
158.6455871976129
 20
81.79512963089093
 30
0.0
 40
36.06831835045829
100
AcDbArc
 50
202.8328654682683
 51
247.5963129999978
  0
ARC
  5
FB
330
2
100
AcDbEntity
  8
KIJUN
  6
Continuous
 62
     7
100
AcDbCircle
 10
154.8377535164804
 20
84.07448223227566
 30
0.0
 40
36.89490375275539
100
AcDbArc
 50
269.7333182768792
 51
285.0745391244317
  0
LINE
  5
FC
330
2
100
AcDbEntity
  8
KIJUN
 62
     7
100
AcDbLine
 10
84.66602776172953
 20
104.3390856235108
 30
0.0
 11
354.7986449952343
 21
104.3390856235108
 31
0.0
  0
LINE
  5
FD
330
2
100
AcDbEntity
  8
KIJUN
  6
Continuous
 62
     7
100
AcDbLine
 10
155.2619181838397
 20
104.3390856235108
 30
0.0
 11
231.9546492789602
 21
104.3390856235108
 31
0.0
  0
LINE
  5
FE
330
2
100
AcDbEntity
  8
KIJUN
  6
Continuous
 62
     7
100
AcDbLine
 10
308.6473803740807
 20
104.3390856235108
 30
0.0
 11
231.9546492789602
 21
104.3390856235108
 31
0.0
  0
LINE
  5
FF
330
2
100
AcDbEntity
  8
KIJUN
  6
Continuous
 62
     7
100
AcDbLine
 10
84.66602776172971
 20
104.3390856235103
 30
0.0
 11
155.2619181838397
 21
104.3390856235108
 31
0.0
  0
DIMENSION
  5
100
330
2
100
AcDbEntity
  8
SUNPOU
100
AcDbDimension
  2
*D2
 10
63.57565104683345
 20
118.1332433036515
 30
0.0
 11
45.51759861240296
 21
123.1332433036515
 31
0.0
 71
     5
 42
36.11610486886098
  3
STANDARD$0
100
AcDbAlignedDimension
 13
27.45954617797247
 23
104.3390856235108
 33
0.0
 14
63.57565104683345
 24
104.3390856235108
 34
0.0
 50
0.000000000000007
100
AcDbRotatedDimension
1001
ACAD
1000
DSTYLE
1002
{
1070
    41
1040
0.5
1070
    42
1040
1.0
1070
    44
1040
0.0
1070
    77
1070
     1
1070
    78
1070
     0
1070
   140
1040
3.0
1070
   141
1040
1.0
1070
   146
1040
0.0642857142857143
1070
   172
1070
     0
1070
   176
1070
    60
1070
   177
1070
    70
1070
   178
1070
    60
1070
   271
1070
     0
1070
   272
1070
     0
1070
   341
1005
0
1002
}
  0
TEXT
  5
10D
330
2
100
AcDbEntity
  8
HOJO
100
AcDbText
 10
0.4059404057301208
 20
1.183313000000011
 30
0.0
 40
4.5
  1
PM805
  7
SUNPOU
100
AcDbText
  0
LINE
  5
10F
330
2
100
AcDbEntity
  8
WAKU
100
AcDbLine
 10
0.0
 20
0.0
 30
0.0
 11
44.67747103027135
 21
0.0
 31
0.0
  0
LINE
  5
111
330
2
100
AcDbEntity
  8
WAKU
100
AcDbLine
 10
0.0
 20
7.0
 30
0.0
 11
44.67747103027135
 21
7.0
 31
0.0
  0
TEXT
  5
112
330
2
100
AcDbEntity
  8
HOJO
100
AcDbText
 10
29.70912488818431
 20
2.522193000000015
 30
0.0
 40
3.0
  1
82\U+00D736
  7
SUNPOU
100
AcDbText
  0
LWPOLYLINE
  5
113
330
2
100
AcDbEntity
  8
KIJUN
  6
Continuous
 62
     7
100
AcDbPolyline
 90
       17
 70
     0
 43
0.0
 10
35.04065526235308
 20
38.00159564405106
 42
0.1162557969515416
 10
39.12876897637737
 20
33.99502025262092
 10
39.12876897637737
 20
30.12369809669127
 42
-0.024878057912524
 10
41.26576795677107
 20
29.81837586292792
 42
-0.8402669367418702
 10
41.29980859109117
 20
22.18485549447924
 42
-0.033544005898272
 10
27.45954617797246
 20
22.15119219380579
 10
27.45954617797247
 20
104.3390856235108
 10
63.57565104683345
 20
104.3390856235108
 10
63.57565104683345
 20
82.3390856235108
 10
58.57565104683345
 20
82.3390856235108
 10
57.76050164349617
 20
73.98994457992768
 42
-0.0538805093257307
 10
54.12621475390458
 20
64.14997824344948
 42
-0.1912787466291456
 10
39.12876897637739
 20
50.74664291760364
 10
39.12876897637737
 20
47.15119219380567
 10
34.45954617797258
 20
47.15119219380567
 10
34.45954617797258
 20
40.79805284836067
 42
0.0566016911618334
 10
35.04065803495667
 20
38.00159228879007
  0
ENDSEC
  0
SECTION
  2
OBJECTS
  0
DICTIONARY
  5
9
330
0
100
AcDbDictionary
281
     1
  3
ACAD_COLOR
350
47
  3
ACAD_GROUP
350
3C
  3
ACAD_LAYOUT
350
1F
  3
ACAD_MATERIAL
350
C
  3
ACAD_MLEADERSTYLE
350
4A
  3
ACAD_MLINESTYLE
350
3D
  3
ACAD_PLOTSETTINGS
350
3E
  3
ACAD_PLOTSTYLENAME
350
8
  3
ACAD_SCALELIST
350
48
  3
ACAD_TABLESTYLE
350
49
  3
ACAD_VISUALSTYLE
350
32
  3
ACDB_RECOMPOSE_DATA
350
125
  3
AcDbVariableDictionary
350
118
  0
DICTIONARY
  5
3
330
2
100
AcDbDictionary
280
     1
281
     1
  3
ACAD_LAYOUTSELFREF
360
4
  0
DICTIONARY
  5
21
330
20
100
AcDbDictionary
280
     1
281
     1
  3
ACAD_LAYOUTSELFREF
360
22
  0
DICTIONARY
  5
47
102
{ACAD_REACTORS
330
9
102
}
330
9
100
AcDbDictionary
281
     1
  0
DICTIONARY
  5
3C
102
{ACAD_REACTORS
330
9
102
}
330
9
100
AcDbDictionary
281
     1
  0
DICTIONARY
  5
1F
102
{ACAD_REACTORS
330
9
102
}
330
9
100
AcDbDictionary
281
     1
  3
Model
350
1E
  3
ﾚｲｱｳﾄ1
350
25
  0
DICTIONARY
  5
C
102
{ACAD_REACTORS
330
9
102
}
330
9
100
AcDbDictionary
281
     1
  3
ByBlock
350
3F
  3
ByLayer
350
15
  3
Global
350
B
  0
DICTIONARY
  5
4A
102
{ACAD_REACTORS
330
9
102
}
330
9
100
AcDbDictionary
281
     1
  0
DICTIONARY
  5
3D
102
{ACAD_REACTORS
330
9
102
}
330
9
100
AcDbDictionary
281
     1
  3
STANDARD
350
4C
  0
DICTIONARY
  5
3E
102
{ACAD_REACTORS
330
9
102
}
330
9
100
AcDbDictionary
281
     1
  0
ACDBDICTIONARYWDFLT
  5
8
102
{ACAD_REACTORS
330
9
102
}
330
9
100
AcDbDictionary
281
     1
  3
Normal
350
7
100
AcDbDictionaryWithDefault
340
7
  0
DICTIONARY
  5
48
102
{ACAD_REACTORS
330
9
102
}
330
9
100
AcDbDictionary
281
     1
  3
A0
350
51
  3
A1
350
52
  3
A2
350
53
  3
A3
350
54
  3
A4
350
55
  3
A5
350
56
  3
A6
350
57
  3
A7
350
58
  3
A8
350
59
  3
A9
350
5A
  3
B0
350
5B
  3
B1
350
5C
  3
B2
350
5D
  3
B3
350
5E
  3
B4
350
5F
  3
B5
350
60
  3
B6
350
61
  0
DICTIONARY
  5
49
102
{ACAD_REACTORS
330
9
102
}
330
9
100
AcDbDictionary
281
     1
  3
Standard
350
4D
  0
DICTIONARY
  5
32
102
{ACAD_REACTORS
330
9
102
}
330
9
100
AcDbDictionary
281
     1
  3
2dWireframe
350
31
  3
Realistic
350
4E
  3
Wireframe
350
4F
  0
XRECORD
  5
125
102
{ACAD_REACTORS
330
9
102
}
330
9
100
AcDbXrecord
280
     1
 90
        1
330
4D
  0
DICTIONARY
  5
118
102
{ACAD_REACTORS
330
9
102
}
330
9
100
AcDbDictionary
281
     1
  3
CANNOSCALE
350
11D
  3
CMLEADERSTYLE
350
11A
  3
CTABLESTYLE
350
119
  3
CVIEWDETAILSTYLE
350
11B
  3
CVIEWSECTIONSTYLE
350
11C
  3
DIMASSOC
350
121
  3
HIDETEXT
350
120
  3
INDEXCTL
350
11F
  3
SORTENTS
350
11E
  3
XCLIPFRAME
350
122
  0
XRECORD
  5
4
102
{ACAD_REACTORS
330
3
102
}
330
3
100
AcDbXrecord
280
     1
340
2
  0
XRECORD
  5
22
102
{ACAD_REACTORS
330
21
102
}
330
21
100
AcDbXrecord
280
     1
340
20
  0
LAYOUT
  5
1E
102
{ACAD_XDICTIONARY
360
128
102
}
102
{ACAD_REACTORS
330
1F
102
}
330
1F
100
AcDbPlotSettings
  1

  2
なし
  4

  6

 40
0.0
 41
0.0
 42
0.0
 43
0.0
 44
0.0
 45
0.0
 46
0.0
 47
0.0
 48
0.0
 49
0.0
140
0.0
141
0.0
142
1.0
143
1.0
 70
  1712
 72
     0
 73
     0
 74
     0
  7
monochrome.ctb
 75
     0
147
1.0
148
0.0
149
0.0
100
AcDbLayout
  1
Model
 70
     1
 71
     0
 10
0.0
 20
0.0
 11
12.0
 21
9.0
 12
0.0
 22
0.0
 32
0.0
 14
0.0
 24
0.0
 34
0.0
 15
0.0
 25
0.0
 35
0.0
146
0.0
 13
0.0
 23
0.0
 33
0.0
 16
1.0
 26
0.0
 36
0.0
 17
0.0
 27
1.0
 37
0.0
 76
     0
330
2
  0
LAYOUT
  5
25
102
{ACAD_XDICTIONARY
360
12A
102
}
102
{ACAD_REACTORS
330
1F
102
}
330
1F
100
AcDbPlotSettings
  1

  2
なし
  4

  6

 40
0.0
 41
0.0
 42
0.0
 43
0.0
 44
0.0
 45
0.0
 46
0.0
 47
0.0
 48
0.0
 49
0.0
140
0.0
141
0.0
142
1.0
143
1.0
 70
   688
 72
     0
 73
     0
 74
     5
  7
monochrome.ctb
 75
    16
147
1.0
148
0.0
149
0.0
100
AcDbLayout
  1
ﾚｲｱｳﾄ1
 70
     1
 71
     1
 10
0.0
 20
0.0
 11
12.0
 21
9.0
 12
0.0
 22
0.0
 32
0.0
 14
1.000000000000000E+20
 24
1.000000000000000E+20
 34
1.000000000000000E+20
 15
-1.000000000000000E+20
 25
-1.000000000000000E+20
 35
-1.000000000000000E+20
146
0.0
 13
0.0
 23
0.0
 33
0.0
 16
1.0
 26
0.0
 36
0.0
 17
0.0
 27
1.0
 37
0.0
 76
     0
330
20
  0
MATERIAL
  5
3F
102
{ACAD_XDICTIONARY
360
40
102
}
102
{ACAD_REACTORS
330
C
102
}
330
C
100
AcDbMaterial
  1
ByBlock
 72
     0
 43
0.0208333333333333
 43
0.0
 43
0.0
 43
0.0
 43
0.0
 43
0.0208333333333333
 43
0.0
 43
0.0
 43
0.0
 43
0.0
 43
1.0
 43
0.0
 43
0.0
 43
0.0
 43
0.0
 43
1.0
 77
     0
 47
0.0208333333333333
 47
0.0
 47
0.0
 47
0.0
 47
0.0
 47
0.0208333333333333
 47
0.0
 47
0.0
 47
0.0
 47
0.0
 47
1.0
 47
0.0
 47
0.0
 47
0.0
 47
0.0
 47
1.0
171
     0
 49
0.0208333333333333
 49
0.0
 49
0.0
 49
0.0
 49
0.0
 49
0.0208333333333333
 49
0.0
 49
0.0
 49
0.0
 49
0.0
 49
1.0
 49
0.0
 49
0.0
 49
0.0
 49
0.0
 49
1.0
175
     0
142
0.0208333333333333
142
0.0
142
0.0
142
0.0
142
0.0
142
0.0208333333333333
142
0.0
142
0.0
142
0.0
142
0.0
142
1.0
142
0.0
142
0.0
142
0.0
142
0.0
142
1.0
179
     0
144
0.0208333333333333
144
0.0
144
0.0
144
0.0
144
0.0
144
0.0208333333333333
144
0.0
144
0.0
144
0.0
144
0.0
144
1.0
144
0.0
144
0.0
144
0.0
144
0.0
144
1.0
147
0.0208333333333333
147
0.0
147
0.0
147
0.0
147
0.0
147
0.0208333333333333
147
0.0
147
0.0
147
0.0
147
0.0
147
1.0
147
0.0
147
0.0
147
0.0
147
0.0
147
1.0
  0
MATERIAL
  5
15
102
{ACAD_XDICTIONARY
360
16
102
}
102
{ACAD_REACTORS
330
C
102
}
330
C
100
AcDbMaterial
  1
ByLayer
 72
     0
 43
0.0208333333333333
 43
0.0
 43
0.0
 43
0.0
 43
0.0
 43
0.0208333333333333
 43
0.0
 43
0.0
 43
0.0
 43
0.0
 43
1.0
 43
0.0
 43
0.0
 43
0.0
 43
0.0
 43
1.0
 77
     0
 47
0.0208333333333333
 47
0.0
 47
0.0
 47
0.0
 47
0.0
 47
0.0208333333333333
 47
0.0
 47
0.0
 47
0.0
 47
0.0
 47
1.0
 47
0.0
 47
0.0
 47
0.0
 47
0.0
 47
1.0
171
     0
 49
0.0208333333333333
 49
0.0
 49
0.0
 49
0.0
 49
0.0
 49
0.0208333333333333
 49
0.0
 49
0.0
 49
0.0
 49
0.0
 49
1.0
 49
0.0
 49
0.0
 49
0.0
 49
0.0
 49
1.0
175
     0
142
0.0208333333333333
142
0.0
142
0.0
142
0.0
142
0.0
142
0.0208333333333333
142
0.0
142
0.0
142
0.0
142
0.0
142
1.0
142
0.0
142
0.0
142
0.0
142
0.0
142
1.0
179
     0
144
0.0208333333333333
144
0.0
144
0.0
144
0.0
144
0.0
144
0.0208333333333333
144
0.0
144
0.0
144
0.0
144
0.0
144
1.0
144
0.0
144
0.0
144
0.0
144
0.0
144
1.0
147
0.0208333333333333
147
0.0
147
0.0
147
0.0
147
0.0
147
0.0208333333333333
147
0.0
147
0.0
147
0.0
147
0.0
147
1.0
147
0.0
147
0.0
147
0.0
147
0.0
147
1.0
  0
MATERIAL
  5
B
102
{ACAD_XDICTIONARY
360
D
102
}
102
{ACAD_REACTORS
330
C
102
}
330
C
100
AcDbMaterial
  1
Global
 72
     0
 43
0.0208333333333333
 43
0.0
 43
0.0
 43
0.0
 43
0.0
 43
0.0208333333333333
 43
0.0
 43
0.0
 43
0.0
 43
0.0
 43
1.0
 43
0.0
 43
0.0
 43
0.0
 43
0.0
 43
1.0
 77
     0
 47
0.0208333333333333
 47
0.0
 47
0.0
 47
0.0
 47
0.0
 47
0.0208333333333333
 47
0.0
 47
0.0
 47
0.0
 47
0.0
 47
1.0
 47
0.0
 47
0.0
 47
0.0
 47
0.0
 47
1.0
171
     0
 49
0.0208333333333333
 49
0.0
 49
0.0
 49
0.0
 49
0.0
 49
0.0208333333333333
 49
0.0
 49
0.0
 49
0.0
 49
0.0
 49
1.0
 49
0.0
 49
0.0
 49
0.0
 49
0.0
 49
1.0
175
     0
142
0.0208333333333333
142
0.0
142
0.0
142
0.0
142
0.0
142
0.0208333333333333
142
0.0
142
0.0
142
0.0
142
0.0
142
1.0
142
0.0
142
0.0
142
0.0
142
0.0
142
1.0
179
     0
144
0.0208333333333333
144
0.0
144
0.0
144
0.0
144
0.0
144
0.0208333333333333
144
0.0
144
0.0
144
0.0
144
0.0
144
1.0
144
0.0
144
0.0
144
0.0
144
0.0
144
1.0
147
0.0208333333333333
147
0.0
147
0.0
147
0.0
147
0.0
147
0.0208333333333333
147
0.0
147
0.0
147
0.0
147
0.0
147
1.0
147
0.0
147
0.0
147
0.0
147
0.0
147
1.0
  0
MLINESTYLE
  5
4C
102
{ACAD_REACTORS
330
3D
102
}
330
3D
100
AcDbMlineStyle
  2
STANDARD
 70
     0
  3

 62
   256
 51
90.0
 52
90.0
 71
     2
 49
0.5
 62
   256
  6
BYLAYER
 49
-0.5
 62
   256
  6
BYLAYER
  0
ACDBPLACEHOLDER
  5
7
102
{ACAD_REACTORS
330
8
102
}
330
8
  0
SCALE
  5
51
102
{ACAD_REACTORS
330
48
102
}
330
48
100
AcDbScale
 70
     0
300
1:1
140
1.0
141
1.0
290
     1
  0
SCALE
  5
52
102
{ACAD_REACTORS
330
48
102
}
330
48
100
AcDbScale
 70
     0
300
1/128" = 1'-0"
140
0.0078125
141
12.0
290
     0
  0
SCALE
  5
53
102
{ACAD_REACTORS
330
48
102
}
330
48
100
AcDbScale
 70
     0
300
1/64" = 1'-0"
140
0.015625
141
12.0
290
     0
  0
SCALE
  5
54
102
{ACAD_REACTORS
330
48
102
}
330
48
100
AcDbScale
 70
     0
300
1/32" = 1'-0"
140
0.03125
141
12.0
290
     0
  0
SCALE
  5
55
102
{ACAD_REACTORS
330
48
102
}
330
48
100
AcDbScale
 70
     0
300
1/16" = 1'-0"
140
0.0625
141
12.0
290
     0
  0
SCALE
  5
56
102
{ACAD_REACTORS
330
48
102
}
330
48
100
AcDbScale
 70
     0
300
3/32" = 1'-0"
140
0.09375
141
12.0
290
     0
  0
SCALE
  5
57
102
{ACAD_REACTORS
330
48
102
}
330
48
100
AcDbScale
 70
     0
300
1/8" = 1'-0"
140
0.125
141
12.0
290
     0
  0
SCALE
  5
58
102
{ACAD_REACTORS
330
48
102
}
330
48
100
AcDbScale
 70
     0
300
3/16" = 1'-0"
140
0.1875
141
12.0
290
     0
  0
SCALE
  5
59
102
{ACAD_REACTORS
330
48
102
}
330
48
100
AcDbScale
 70
     0
300
1/4" = 1'-0"
140
0.25
141
12.0
290
     0
  0
SCALE
  5
5A
102
{ACAD_REACTORS
330
48
102
}
330
48
100
AcDbScale
 70
     0
300
3/8" = 1'-0"
140
0.375
141
12.0
290
     0
  0
SCALE
  5
5B
102
{ACAD_REACTORS
330
48
102
}
330
48
100
AcDbScale
 70
     0
300
1/2" = 1'-0"
140
0.5
141
12.0
290
     0
  0
SCALE
  5
5C
102
{ACAD_REACTORS
330
48
102
}
330
48
100
AcDbScale
 70
     0
300
3/4" = 1'-0"
140
0.75
141
12.0
290
     0
  0
SCALE
  5
5D
102
{ACAD_REACTORS
330
48
102
}
330
48
100
AcDbScale
 70
     0
300
1" = 1'-0"
140
1.0
141
12.0
290
     0
  0
SCALE
  5
5E
102
{ACAD_REACTORS
330
48
102
}
330
48
100
AcDbScale
 70
     0
300
1-1/2" = 1'-0"
140
1.5
141
12.0
290
     0
  0
SCALE
  5
5F
102
{ACAD_REACTORS
330
48
102
}
330
48
100
AcDbScale
 70
     0
300
3" = 1'-0"
140
3.0
141
12.0
290
     0
  0
SCALE
  5
60
102
{ACAD_REACTORS
330
48
102
}
330
48
100
AcDbScale
 70
     0
300
6" = 1'-0"
140
6.0
141
12.0
290
     0
  0
SCALE
  5
61
102
{ACAD_REACTORS
330
48
102
}
330
48
100
AcDbScale
 70
     0
300
1'-0" = 1'-0"
140
12.0
141
12.0
290
     0
  0
TABLESTYLE
  5
4D
102
{ACAD_XDICTIONARY
360
123
102
}
102
{ACAD_REACTORS
330
49
102
}
330
49
100
AcDbTableStyle
  3
Standard
 70
     0
 71
     0
 40
0.06
 41
0.06
280
     0
281
     0
  7
STANDARD
140
0.18
170
     2
 62
     0
 63
     7
283
     0
274
    -2
284
     1
 64
     0
275
    -2
285
     1
 65
     0
276
    -2
286
     1
 66
     0
277
    -2
287
     1
 67
     0
278
    -2
288
     1
 68
     0
279
    -2
289
     1
 69
     0
  7
STANDARD
140
0.25
170
     5
 62
     0
 63
     7
283
     0
274
    -2
284
     1
 64
     0
275
    -2
285
     1
 65
     0
276
    -2
286
     1
 66
     0
277
    -2
287
     1
 67
     0
278
    -2
288
     1
 68
     0
279
    -2
289
     1
 69
     0
  7
STANDARD
140
0.18
170
     5
 62
     0
 63
     7
283
     0
274
    -2
284
     1
 64
     0
275
    -2
285
     1
 65
     0
276
    -2
286
     1
 66
     0
277
    -2
287
     1
 67
     0
278
    -2
288
     1
 68
     0
279
    -2
289
     1
 69
     0
  0
VISUALSTYLE
  5
31
102
{ACAD_XDICTIONARY
360
12C
102
}
102
{ACAD_REACTORS
330
32
102
}
330
32
100
AcDbVisualStyle
  2
2dWireframe
 70
     4
 71
     0
 72
     2
 73
     0
 90
        0
 40
-0.6
 41
-30.0
 62
     5
 63
     7
 74
     1
 91
        4
 64
     7
 65
   257
 75
     1
175
     1
 42
1.0
 92
        0
 66
   257
 43
1.0
 76
     1
 77
     6
 78
     2
 67
     7
 79
     5
170
     0
171
     0
290
     0
174
     0
 93
        1
 44
0.0
173
     0
291
     0
 45
0.0
1001
ACAD
1000
AcDbSavedByObjectVersion
1070
     0
  0
VISUALSTYLE
  5
4E
102
{ACAD_XDICTIONARY
360
130
102
}
102
{ACAD_REACTORS
330
32
102
}
330
32
100
AcDbVisualStyle
  2
Realistic
 70
     8
 71
     2
 72
     3
 73
     0
 90
        2
 40
-0.6
 41
30.0
 62
     5
 63
     7
 74
     0
 91
        0
 64
     7
 65
   257
 75
     1
175
     1
 42
1.0
 92
        8
 66
   257
 43
1.0
 76
     1
 77
     6
 78
     2
 67
     7
 79
     3
170
     0
171
     0
290
     0
174
     0
 93
       13
 44
0.0
173
     0
291
     0
 45
0.0
1001
ACAD
1000
AcDbSavedByObjectVersion
1070
     0
  0
VISUALSTYLE
  5
4F
102
{ACAD_XDICTIONARY
360
132
102
}
102
{ACAD_REACTORS
330
32
102
}
330
32
100
AcDbVisualStyle
  2
Wireframe
 70
     5
 71
     0
 72
     2
 73
     0
 90
        0
 40
-0.6
 41
-30.0
 62
     5
 63
     7
 74
     1
 91
        4
 64
     7
 65
   257
 75
     1
175
     1
 42
1.0
 92
        0
 66
   257
 43
1.0
 76
     1
 77
     6
 78
     2
 67
     7
 79
     3
170
     0
171
     0
290
     0
174
     0
 93
        1
 44
0.0
173
     0
291
     0
 45
0.0
1001
ACAD
1000
AcDbSavedByObjectVersion
1070
     0
  0
DICTIONARYVAR
  5
11D
102
{ACAD_REACTORS
330
118
102
}
330
118
100
DictionaryVariables
280
     0
  1
1:1
  0
DICTIONARYVAR
  5
11A
102
{ACAD_REACTORS
330
118
102
}
330
118
100
DictionaryVariables
280
     0
  1
STANDARD
  0
DICTIONARYVAR
  5
119
102
{ACAD_REACTORS
330
118
102
}
330
118
100
DictionaryVariables
280
     0
  1
STANDARD
  0
DICTIONARYVAR
  5
11B
102
{ACAD_REACTORS
330
118
102
}
330
118
100
DictionaryVariables
280
     0
  1

  0
DICTIONARYVAR
  5
11C
102
{ACAD_REACTORS
330
118
102
}
330
118
100
DictionaryVariables
280
     0
  1

  0
DICTIONARYVAR
  5
121
102
{ACAD_REACTORS
330
118
102
}
330
118
100
DictionaryVariables
280
     0
  1
1
  0
DICTIONARYVAR
  5
120
102
{ACAD_REACTORS
330
118
102
}
330
118
100
DictionaryVariables
280
     0
  1
1
  0
DICTIONARYVAR
  5
11F
102
{ACAD_REACTORS
330
118
102
}
330
118
100
DictionaryVariables
280
     0
  1
0
  0
DICTIONARYVAR
  5
11E
102
{ACAD_REACTORS
330
118
102
}
330
118
100
DictionaryVariables
280
     0
  1
127
  0
DICTIONARYVAR
  5
122
102
{ACAD_REACTORS
330
118
102
}
330
118
100
DictionaryVariables
280
     0
  1
2
  0
DICTIONARY
  5
128
330
1E
100
AcDbDictionary
280
     1
281
     1
  3
ACAD_XREC_ROUNDTRIP
360
129
  0
DICTIONARY
  5
12A
330
25
100
AcDbDictionary
280
     1
281
     1
  3
ACAD_XREC_ROUNDTRIP
360
12B
  0
DICTIONARY
  5
40
330
3F
100
AcDbDictionary
280
     1
281
     1
  3
ACAD_XREC_ROUNDTRIP
360
12E
  3
BUMPTILE
360
41
  3
DIFFUSETILE
360
42
  3
OPACITYTILE
360
43
  3
REFLECTIONTILE
360
44
  3
REFRACTIONTILE
360
45
  3
SPECULARTILE
360
46
  0
DICTIONARY
  5
16
330
15
100
AcDbDictionary
280
     1
281
     1
  3
ACAD_XREC_ROUNDTRIP
360
127
  3
BUMPTILE
360
17
  3
DIFFUSETILE
360
18
  3
OPACITYTILE
360
19
  3
REFLECTIONTILE
360
1A
  3
REFRACTIONTILE
360
1B
  3
SPECULARTILE
360
1C
  0
DICTIONARY
  5
D
330
B
100
AcDbDictionary
280
     1
281
     1
  3
ACAD_XREC_ROUNDTRIP
360
126
  3
BUMPTILE
360
E
  3
DIFFUSETILE
360
F
  3
OPACITYTILE
360
10
  3
REFLECTIONTILE
360
11
  3
REFRACTIONTILE
360
12
  3
SPECULARTILE
360
13
  0
DICTIONARY
  5
123
330
4D
100
AcDbDictionary
280
     1
281
     1
  3
ACAD_ROUNDTRIP_2008_TABLESTYLE_CELLSTYLEMAP
360
124
  3
ACAD_XREC_ROUNDTRIP
360
12F
  0
DICTIONARY
  5
12C
330
31
100
AcDbDictionary
280
     1
281
     1
  3
ACAD_XREC_ROUNDTRIP
360
12D
  0
DICTIONARY
  5
130
330
4E
100
AcDbDictionary
280
     1
281
     1
  3
ACAD_XREC_ROUNDTRIP
360
131
  0
DICTIONARY
  5
132
330
4F
100
AcDbDictionary
280
     1
281
     1
  3
ACAD_XREC_ROUNDTRIP
360
133
  0
XRECORD
  5
129
102
{ACAD_REACTORS
330
128
102
}
330
128
100
AcDbXrecord
280
     1
102
SHADEPLOT
 70
     0
102
SHADEPLOTRESLEVEL
 70
     2
102
SHADEPLOTCUSTOMDPI
 70
   300
  0
XRECORD
  5
12B
102
{ACAD_REACTORS
330
12A
102
}
330
12A
100
AcDbXrecord
280
     1
102
SHADEPLOT
 70
     0
102
SHADEPLOTRESLEVEL
 70
     2
102
SHADEPLOTCUSTOMDPI
 70
   300
  0
XRECORD
  5
12E
102
{ACAD_REACTORS
330
40
102
}
330
40
100
AcDbXrecord
280
     1
102
MATERIAL
148
0.0
149
0.0
149
0.0
 93
        0
 94
      127
282
     0
 72
     0
 77
     0
171
     0
175
     0
179
     0
273
     0
  0
XRECORD
  5
41
102
{ACAD_REACTORS
330
40
102
}
330
40
100
AcDbXrecord
280
     1
270
     1
271
     1
  0
XRECORD
  5
42
102
{ACAD_REACTORS
330
40
102
}
330
40
100
AcDbXrecord
280
     1
270
     1
271
     1
  0
XRECORD
  5
43
102
{ACAD_REACTORS
330
40
102
}
330
40
100
AcDbXrecord
280
     1
270
     1
271
     1
  0
XRECORD
  5
44
102
{ACAD_REACTORS
330
40
102
}
330
40
100
AcDbXrecord
280
     1
270
     1
271
     1
  0
XRECORD
  5
45
102
{ACAD_REACTORS
330
40
102
}
330
40
100
AcDbXrecord
280
     1
270
     1
271
     1
  0
XRECORD
  5
46
102
{ACAD_REACTORS
330
40
102
}
330
40
100
AcDbXrecord
280
     1
270
     1
271
     1
  0
XRECORD
  5
127
102
{ACAD_REACTORS
330
16
102
}
330
16
100
AcDbXrecord
280
     1
102
MATERIAL
148
0.0
149
0.0
149
0.0
 93
        0
 94
      127
282
     0
 72
     0
 77
     0
171
     0
175
     0
179
     0
273
     0
  0
XRECORD
  5
17
102
{ACAD_REACTORS
330
16
102
}
330
16
100
AcDbXrecord
280
     1
270
     1
271
     1
  0
XRECORD
  5
18
102
{ACAD_REACTORS
330
16
102
}
330
16
100
AcDbXrecord
280
     1
270
     1
271
     1
  0
XRECORD
  5
19
102
{ACAD_REACTORS
330
16
102
}
330
16
100
AcDbXrecord
280
     1
270
     1
271
     1
  0
XRECORD
  5
1A
102
{ACAD_REACTORS
330
16
102
}
330
16
100
AcDbXrecord
280
     1
270
     1
271
     1
  0
XRECORD
  5
1B
102
{ACAD_REACTORS
330
16
102
}
330
16
100
AcDbXrecord
280
     1
270
     1
271
     1
  0
XRECORD
  5
1C
102
{ACAD_REACTORS
330
16
102
}
330
16
100
AcDbXrecord
280
     1
270
     1
271
     1
  0
XRECORD
  5
126
102
{ACAD_REACTORS
330
D
102
}
330
D
100
AcDbXrecord
280
     1
102
MATERIAL
148
0.0
149
0.0
149
0.0
 93
        0
 94
      127
282
     0
 72
     0
 77
     0
171
     0
175
     0
179
     0
273
     0
  0
XRECORD
  5
E
102
{ACAD_REACTORS
330
D
102
}
330
D
100
AcDbXrecord
280
     1
270
     1
271
     1
  0
XRECORD
  5
F
102
{ACAD_REACTORS
330
D
102
}
330
D
100
AcDbXrecord
280
     1
270
     1
271
     1
  0
XRECORD
  5
10
102
{ACAD_REACTORS
330
D
102
}
330
D
100
AcDbXrecord
280
     1
270
     1
271
     1
  0
XRECORD
  5
11
102
{ACAD_REACTORS
330
D
102
}
330
D
100
AcDbXrecord
280
     1
270
     1
271
     1
  0
XRECORD
  5
12
102
{ACAD_REACTORS
330
D
102
}
330
D
100
AcDbXrecord
280
     1
270
     1
271
     1
  0
XRECORD
  5
13
102
{ACAD_REACTORS
330
D
102
}
330
D
100
AcDbXrecord
280
     1
270
     1
271
     1
  0
CELLSTYLEMAP
  5
124
102
{ACAD_REACTORS
330
123
102
}
330
123
100
AcDbCellStyleMap
 90
        3
300
CELLSTYLE
  1
TABLEFORMAT_BEGIN
 90
        5
170
     1
 91
        0
 92
    32768
 62
   257
 93
        1
300
CONTENTFORMAT
  1
CONTENTFORMAT_BEGIN
 90
        0
 91
        0
 92
        4
 93
        0
300

 40
0.0
140
1.0
 94
        5
 62
     0
340
28
144
0.25
309
CONTENTFORMAT_END
171
     0
 94
        6
 95
        1
302
GRIDFORMAT
  1
GRIDFORMAT_BEGIN
 90
        0
 91
        1
 62
     0
 92
       -2
340
0
 93
        0
 40
0.045
309
GRIDFORMAT_END
 95
        2
302
GRIDFORMAT
  1
GRIDFORMAT_BEGIN
 90
        0
 91
        1
 62
     0
 92
       -2
340
0
 93
        0
 40
0.045
309
GRIDFORMAT_END
 95
        4
302
GRIDFORMAT
  1
GRIDFORMAT_BEGIN
 90
        0
 91
        1
 62
     0
 92
       -2
340
0
 93
        0
 40
0.045
309
GRIDFORMAT_END
 95
        8
302
GRIDFORMAT
  1
GRIDFORMAT_BEGIN
 90
        0
 91
        1
 62
     0
 92
       -2
340
0
 93
        0
 40
0.045
309
GRIDFORMAT_END
 95
       16
302
GRIDFORMAT
  1
GRIDFORMAT_BEGIN
 90
        0
 91
        1
 62
     0
 92
       -2
340
0
 93
        0
 40
0.045
309
GRIDFORMAT_END
 95
       32
302
GRIDFORMAT
  1
GRIDFORMAT_BEGIN
 90
        0
 91
        1
 62
     0
 92
       -2
340
0
 93
        0
 40
0.045
309
GRIDFORMAT_END
309
TABLEFORMAT_END
  1
CELLSTYLE_BEGIN
 90
        1
 91
        1
300
_TITLE
309
CELLSTYLE_END
300
CELLSTYLE
  1
TABLEFORMAT_BEGIN
 90
        5
170
     1
 91
        0
 92
        0
 62
   257
 93
        1
300
CONTENTFORMAT
  1
CONTENTFORMAT_BEGIN
 90
        0
 91
        0
 92
        4
 93
        0
300

 40
0.0
140
1.0
 94
        5
 62
     0
340
28
144
0.18
309
CONTENTFORMAT_END
171
     0
 94
        6
 95
        1
302
GRIDFORMAT
  1
GRIDFORMAT_BEGIN
 90
        0
 91
        1
 62
     0
 92
       -2
340
0
 93
        0
 40
0.045
309
GRIDFORMAT_END
 95
        2
302
GRIDFORMAT
  1
GRIDFORMAT_BEGIN
 90
        0
 91
        1
 62
     0
 92
       -2
340
0
 93
        0
 40
0.045
309
GRIDFORMAT_END
 95
        4
302
GRIDFORMAT
  1
GRIDFORMAT_BEGIN
 90
        0
 91
        1
 62
     0
 92
       -2
340
0
 93
        0
 40
0.045
309
GRIDFORMAT_END
 95
        8
302
GRIDFORMAT
  1
GRIDFORMAT_BEGIN
 90
        0
 91
        1
 62
     0
 92
       -2
340
0
 93
        0
 40
0.045
309
GRIDFORMAT_END
 95
       16
302
GRIDFORMAT
  1
GRIDFORMAT_BEGIN
 90
        0
 91
        1
 62
     0
 92
       -2
340
0
 93
        0
 40
0.045
309
GRIDFORMAT_END
 95
       32
302
GRIDFORMAT
  1
GRIDFORMAT_BEGIN
 90
        0
 91
        1
 62
     0
 92
       -2
340
0
 93
        0
 40
0.045
309
GRIDFORMAT_END
309
TABLEFORMAT_END
  1
CELLSTYLE_BEGIN
 90
        2
 91
        1
300
_HEADER
309
CELLSTYLE_END
300
CELLSTYLE
  1
TABLEFORMAT_BEGIN
 90
        5
170
     1
 91
        0
 92
        0
 62
   257
 93
        1
300
CONTENTFORMAT
  1
CONTENTFORMAT_BEGIN
 90
        0
 91
        0
 92
        4
 93
        0
300

 40
0.0
140
1.0
 94
        2
 62
     0
340
28
144
0.18
309
CONTENTFORMAT_END
171
     0
 94
        6
 95
        1
302
GRIDFORMAT
  1
GRIDFORMAT_BEGIN
 90
        0
 91
        1
 62
     0
 92
       -2
340
0
 93
        0
 40
0.045
309
GRIDFORMAT_END
 95
        2
302
GRIDFORMAT
  1
GRIDFORMAT_BEGIN
 90
        0
 91
        1
 62
     0
 92
       -2
340
0
 93
        0
 40
0.045
309
GRIDFORMAT_END
 95
        4
302
GRIDFORMAT
  1
GRIDFORMAT_BEGIN
 90
        0
 91
        1
 62
     0
 92
       -2
340
0
 93
        0
 40
0.045
309
GRIDFORMAT_END
 95
        8
302
GRIDFORMAT
  1
GRIDFORMAT_BEGIN
 90
        0
 91
        1
 62
     0
 92
       -2
340
0
 93
        0
 40
0.045
309
GRIDFORMAT_END
 95
       16
302
GRIDFORMAT
  1
GRIDFORMAT_BEGIN
 90
        0
 91
        1
 62
     0
 92
       -2
340
0
 93
        0
 40
0.045
309
GRIDFORMAT_END
 95
       32
302
GRIDFORMAT
  1
GRIDFORMAT_BEGIN
 90
        0
 91
        1
 62
     0
 92
       -2
340
0
 93
        0
 40
0.045
309
GRIDFORMAT_END
309
TABLEFORMAT_END
  1
CELLSTYLE_BEGIN
 90
        3
 91
        2
300
_DATA
309
CELLSTYLE_END
  0
XRECORD
  5
12F
102
{ACAD_REACTORS
330
123
102
}
330
123
100
AcDbXrecord
280
     1
102
ACAD_ROUNDTRIP_PRE2007_TABLESTYLE
 90
        4
 91
        0
  1

 92
        4
 93
        0
  2

 94
        4
 95
        0
  3

  0
XRECORD
  5
12D
102
{ACAD_REACTORS
330
12C
102
}
330
12C
100
AcDbXrecord
280
     1
102
RTVSPost2010Prop28
280
     1
102
RTVSPost2010PropOp28
 70
     1
102
RTVSPost2010Prop29
280
     1
102
RTVSPost2010PropOp29
 70
     1
102
RTVSPost2010Prop30
280
     0
102
RTVSPost2010PropOp30
 70
     1
102
RTVSPost2010Prop31
280
     0
102
RTVSPost2010PropOp31
 70
     1
102
RTVSPost2010Prop32
280
     0
102
RTVSPost2010PropOp32
 70
     1
102
RTVSPost2010Prop33
280
     0
102
RTVSPost2010PropOp33
 70
     1
102
RTVSPost2010Prop34
280
     0
102
RTVSPost2010PropOp34
 70
     1
102
RTVSPost2010Prop35
280
     0
102
RTVSPost2010PropOp35
 70
     1
102
RTVSPost2010Prop36
280
     0
102
RTVSPost2010PropOp36
 70
     1
102
RTVSPost2010Prop37
 90
       50
102
RTVSPost2010PropOp37
 70
     1
102
RTVSPost2010Prop38
140
0.0
102
RTVSPost2010PropOp38
 70
     1
102
RTVSPost2010Prop39
140
1.0
102
RTVSPost2010PropOp39
 70
     1
102
RTVSPost2010Prop40
 90
        0
102
RTVSPost2010PropOp40
 70
     1
102
RTVSPost2010Prop41ColorIndex
 90
       18
102
RTVSPost2010Prop41ColorRGB
 90
        0
102
RTVSPost2010PropOp41
 70
     1
102
RTVSPost2010Prop42
 90
       50
102
RTVSPost2010PropOp42
 70
     1
102
RTVSPost2010Prop43
 90
        3
102
RTVSPost2010PropOp43
 70
     1
102
RTVSPost2010Prop44ColorIndex
 90
        5
102
RTVSPost2010Prop44ColorRGB
 90
      255
102
RTVSPost2010PropOp44
 70
     1
102
RTVSPost2010Prop45
280
     0
102
RTVSPost2010PropOp45
 70
     1
102
RTVSPost2010Prop46
 90
       50
102
RTVSPost2010PropOp46
 70
     1
102
RTVSPost2010Prop47
 90
       50
102
RTVSPost2010PropOp47
 70
     1
102
RTVSPost2010Prop48
 90
       50
102
RTVSPost2010PropOp48
 70
     1
102
RTVSPost2010Prop49
280
     0
102
RTVSPost2010PropOp49
 70
     1
102
RTVSPost2010Prop50
 90
       50
102
RTVSPost2010PropOp50
 70
     1
102
RTVSPost2010Prop51ColorIndex
 90
      256
102
RTVSPost2010Prop51ColorRGB
 90
-16777216
102
RTVSPost2010PropOp51
 70
     0
102
RTVSPost2010Prop52
140
1.0
102
RTVSPost2010PropOp52
 70
     0
102
RTVSPost2010Prop53
 90
        2
102
RTVSPost2010PropOp53
 70
     1
102
RTVSPost2010Prop54
  1
strokes_ogs.tif
102
RTVSPost2010PropOp54
 70
     1
102
RTVSPost2010Prop55
280
     0
102
RTVSPost2010PropOp55
 70
     1
102
RTVSPost2010Prop56
140
1.0
102
RTVSPost2010PropOp56
 70
     1
102
RTVSPost2010Prop57
140
1.0
102
RTVSPost2010PropOp57
 70
     1
102
RTVSPropertyOp0
 70
     1
102
RTVSPropertyOp1
 70
     1
102
RTVSPropertyOp2
 70
     1
102
RTVSPropertyOp3
 70
     1
102
RTVSPropertyOp4
 70
     1
102
RTVSPropertyOp5
 70
     1
102
RTVSPropertyOp6
 70
     1
102
RTVSPropertyOp7
 70
     1
102
RTVSPropertyOp8
 70
     1
102
RTVSPropertyOp9
 70
     1
102
RTVSPropertyOp10
 70
     1
102
RTVSPropertyOp11
 70
     1
102
RTVSPropertyOp12
 70
     1
102
RTVSPropertyOp13
 70
     1
102
RTVSPropertyOp14
 70
     1
102
RTVSPropertyOp15
 70
     1
102
RTVSPropertyOp16
 70
     1
102
RTVSPropertyOp17
 70
     1
102
RTVSPropertyOp18
 70
     1
102
RTVSPropertyOp19
 70
     1
102
RTVSPropertyOp20
 70
     1
102
RTVSPropertyOp21
 70
     1
102
RTVSPropertyOp22
 70
     1
102
RTVSPropertyOp23
 70
     1
102
RTVSPropertyOp24
 70
     1
102
RTVSPropertyOp25
 70
     1
102
RTVSPropertyOp26
 70
     1
102
RTVSPropertyOp27
 70
     1
102
RTVSPropertyOp28
 70
     1
102
RTVSPropertyOp29
 70
     1
102
RTVSPropertyOp30
 70
     1
102
RTVSPropertyOp31
 70
     1
102
RTVSPropertyOp32
 70
     1
102
RTVSPropertyOp33
 70
     1
102
RTVSPropertyOp34
 70
     1
102
RTVSPropertyOp35
 70
     1
102
RTVSPropertyOp36
 70
     1
102
RTVSPropertyOp37
 70
     1
102
RTVSPropertyOp38
 70
     1
102
RTVSPropertyOp39
 70
     1
102
RTVSPropertyOp40
 70
     1
102
RTVSPropertyOp41
 70
     1
102
RTVSPropertyOp42
 70
     1
102
RTVSPropertyOp43
 70
     1
102
RTVSPropertyOp44
 70
     1
102
RTVSPropertyOp45
 70
     1
102
RTVSPropertyOp46
 70
     1
102
RTVSPropertyOp47
 70
     1
102
RTVSPropertyOp48
 70
     1
102
RTVSPropertyOp49
 70
     1
102
RTVSPropertyOp50
 70
     1
102
RTVSPropertyOp51
 70
     0
102
RTVSPropertyOp52
 70
     0
102
RTVSPropertyOp53
 70
     1
102
RTVSPropertyOp54
 70
     1
102
RTVSPropertyOp55
 70
     1
102
RTVSPropertyOp56
 70
     1
102
RTVSPropertyOp57
 70
     1
102
RTVSPropertyOp58
 70
     1
102
RTVSPropertyOp59
 70
     1
102
RTVSPropertyOp60
 70
     1
102
RTVSPropertyOp61
 70
     1
102
RTVSPropertyOp62
 70
     1
  0
XRECORD
  5
131
102
{ACAD_REACTORS
330
130
102
}
330
130
100
AcDbXrecord
280
     1
102
RTVSPost2010Prop28
280
     0
102
RTVSPost2010PropOp28
 70
     1
102
RTVSPost2010Prop29
280
     1
102
RTVSPost2010PropOp29
 70
     1
102
RTVSPost2010Prop30
280
     1
102
RTVSPost2010PropOp30
 70
     1
102
RTVSPost2010Prop31
280
     0
102
RTVSPost2010PropOp31
 70
     1
102
RTVSPost2010Prop32
280
     0
102
RTVSPost2010PropOp32
 70
     1
102
RTVSPost2010Prop33
280
     0
102
RTVSPost2010PropOp33
 70
     1
102
RTVSPost2010Prop34
280
     0
102
RTVSPost2010PropOp34
 70
     1
102
RTVSPost2010Prop35
280
     0
102
RTVSPost2010PropOp35
 70
     1
102
RTVSPost2010Prop36
280
     0
102
RTVSPost2010PropOp36
 70
     1
102
RTVSPost2010Prop37
 90
       50
102
RTVSPost2010PropOp37
 70
     1
102
RTVSPost2010Prop38
140
0.0
102
RTVSPost2010PropOp38
 70
     1
102
RTVSPost2010Prop39
140
1.0
102
RTVSPost2010PropOp39
 70
     1
102
RTVSPost2010Prop40
 90
        0
102
RTVSPost2010PropOp40
 70
     1
102
RTVSPost2010Prop41ColorIndex
 90
       18
102
RTVSPost2010Prop41ColorRGB
 90
        0
102
RTVSPost2010PropOp41
 70
     1
102
RTVSPost2010Prop42
 90
       50
102
RTVSPost2010PropOp42
 70
     1
102
RTVSPost2010Prop43
 90
        3
102
RTVSPost2010PropOp43
 70
     1
102
RTVSPost2010Prop44ColorIndex
 90
        5
102
RTVSPost2010Prop44ColorRGB
 90
      255
102
RTVSPost2010PropOp44
 70
     1
102
RTVSPost2010Prop45
280
     0
102
RTVSPost2010PropOp45
 70
     1
102
RTVSPost2010Prop46
 90
       50
102
RTVSPost2010PropOp46
 70
     1
102
RTVSPost2010Prop47
 90
       50
102
RTVSPost2010PropOp47
 70
     1
102
RTVSPost2010Prop48
 90
       50
102
RTVSPost2010PropOp48
 70
     1
102
RTVSPost2010Prop49
280
     0
102
RTVSPost2010PropOp49
 70
     1
102
RTVSPost2010Prop50
 90
       50
102
RTVSPost2010PropOp50
 70
     1
102
RTVSPost2010Prop51ColorIndex
 90
      256
102
RTVSPost2010Prop51ColorRGB
 90
-16777216
102
RTVSPost2010PropOp51
 70
     0
102
RTVSPost2010Prop52
140
1.0
102
RTVSPost2010PropOp52
 70
     0
102
RTVSPost2010Prop53
 90
        2
102
RTVSPost2010PropOp53
 70
     1
102
RTVSPost2010Prop54
  1
strokes_ogs.tif
102
RTVSPost2010PropOp54
 70
     1
102
RTVSPost2010Prop55
280
     0
102
RTVSPost2010PropOp55
 70
     1
102
RTVSPost2010Prop56
140
1.0
102
RTVSPost2010PropOp56
 70
     1
102
RTVSPost2010Prop57
140
1.0
102
RTVSPost2010PropOp57
 70
     1
102
RTVSPropertyOp0
 70
     1
102
RTVSPropertyOp1
 70
     1
102
RTVSPropertyOp2
 70
     1
102
RTVSPropertyOp3
 70
     1
102
RTVSPropertyOp4
 70
     1
102
RTVSPropertyOp5
 70
     1
102
RTVSPropertyOp6
 70
     1
102
RTVSPropertyOp7
 70
     1
102
RTVSPropertyOp8
 70
     1
102
RTVSPropertyOp9
 70
     1
102
RTVSPropertyOp10
 70
     1
102
RTVSPropertyOp11
 70
     1
102
RTVSPropertyOp12
 70
     1
102
RTVSPropertyOp13
 70
     1
102
RTVSPropertyOp14
 70
     1
102
RTVSPropertyOp15
 70
     1
102
RTVSPropertyOp16
 70
     1
102
RTVSPropertyOp17
 70
     1
102
RTVSPropertyOp18
 70
     1
102
RTVSPropertyOp19
 70
     1
102
RTVSPropertyOp20
 70
     1
102
RTVSPropertyOp21
 70
     1
102
RTVSPropertyOp22
 70
     1
102
RTVSPropertyOp23
 70
     1
102
RTVSPropertyOp24
 70
     1
102
RTVSPropertyOp25
 70
     1
102
RTVSPropertyOp26
 70
     1
102
RTVSPropertyOp27
 70
     1
102
RTVSPropertyOp28
 70
     1
102
RTVSPropertyOp29
 70
     1
102
RTVSPropertyOp30
 70
     1
102
RTVSPropertyOp31
 70
     1
102
RTVSPropertyOp32
 70
     1
102
RTVSPropertyOp33
 70
     1
102
RTVSPropertyOp34
 70
     1
102
RTVSPropertyOp35
 70
     1
102
RTVSPropertyOp36
 70
     1
102
RTVSPropertyOp37
 70
     1
102
RTVSPropertyOp38
 70
     1
102
RTVSPropertyOp39
 70
     1
102
RTVSPropertyOp40
 70
     1
102
RTVSPropertyOp41
 70
     1
102
RTVSPropertyOp42
 70
     1
102
RTVSPropertyOp43
 70
     1
102
RTVSPropertyOp44
 70
     1
102
RTVSPropertyOp45
 70
     1
102
RTVSPropertyOp46
 70
     1
102
RTVSPropertyOp47
 70
     1
102
RTVSPropertyOp48
 70
     1
102
RTVSPropertyOp49
 70
     1
102
RTVSPropertyOp50
 70
     1
102
RTVSPropertyOp51
 70
     0
102
RTVSPropertyOp52
 70
     0
102
RTVSPropertyOp53
 70
     1
102
RTVSPropertyOp54
 70
     1
102
RTVSPropertyOp55
 70
     1
102
RTVSPropertyOp56
 70
     1
102
RTVSPropertyOp57
 70
     1
102
RTVSPropertyOp58
 70
     1
102
RTVSPropertyOp59
 70
     1
102
RTVSPropertyOp60
 70
     1
102
RTVSPropertyOp61
 70
     1
102
RTVSPropertyOp62
 70
     1
  0
XRECORD
  5
133
102
{ACAD_REACTORS
330
132
102
}
330
132
100
AcDbXrecord
280
     1
102
RTVSPost2010Prop28
280
     0
102
RTVSPost2010PropOp28
 70
     1
102
RTVSPost2010Prop29
280
     1
102
RTVSPost2010PropOp29
 70
     1
102
RTVSPost2010Prop30
280
     1
102
RTVSPost2010PropOp30
 70
     1
102
RTVSPost2010Prop31
280
     0
102
RTVSPost2010PropOp31
 70
     1
102
RTVSPost2010Prop32
280
     0
102
RTVSPost2010PropOp32
 70
     1
102
RTVSPost2010Prop33
280
     0
102
RTVSPost2010PropOp33
 70
     1
102
RTVSPost2010Prop34
280
     0
102
RTVSPost2010PropOp34
 70
     1
102
RTVSPost2010Prop35
280
     0
102
RTVSPost2010PropOp35
 70
     1
102
RTVSPost2010Prop36
280
     0
102
RTVSPost2010PropOp36
 70
     1
102
RTVSPost2010Prop37
 90
       50
102
RTVSPost2010PropOp37
 70
     1
102
RTVSPost2010Prop38
140
0.0
102
RTVSPost2010PropOp38
 70
     1
102
RTVSPost2010Prop39
140
1.0
102
RTVSPost2010PropOp39
 70
     1
102
RTVSPost2010Prop40
 90
        0
102
RTVSPost2010PropOp40
 70
     1
102
RTVSPost2010Prop41ColorIndex
 90
       18
102
RTVSPost2010Prop41ColorRGB
 90
        0
102
RTVSPost2010PropOp41
 70
     1
102
RTVSPost2010Prop42
 90
       50
102
RTVSPost2010PropOp42
 70
     1
102
RTVSPost2010Prop43
 90
        3
102
RTVSPost2010PropOp43
 70
     1
102
RTVSPost2010Prop44ColorIndex
 90
        5
102
RTVSPost2010Prop44ColorRGB
 90
      255
102
RTVSPost2010PropOp44
 70
     1
102
RTVSPost2010Prop45
280
     0
102
RTVSPost2010PropOp45
 70
     1
102
RTVSPost2010Prop46
 90
       50
102
RTVSPost2010PropOp46
 70
     1
102
RTVSPost2010Prop47
 90
       50
102
RTVSPost2010PropOp47
 70
     1
102
RTVSPost2010Prop48
 90
       50
102
RTVSPost2010PropOp48
 70
     1
102
RTVSPost2010Prop49
280
     0
102
RTVSPost2010PropOp49
 70
     1
102
RTVSPost2010Prop50
 90
       50
102
RTVSPost2010PropOp50
 70
     1
102
RTVSPost2010Prop51ColorIndex
 90
      256
102
RTVSPost2010Prop51ColorRGB
 90
-16777216
102
RTVSPost2010PropOp51
 70
     0
102
RTVSPost2010Prop52
140
1.0
102
RTVSPost2010PropOp52
 70
     0
102
RTVSPost2010Prop53
 90
        2
102
RTVSPost2010PropOp53
 70
     1
102
RTVSPost2010Prop54
  1
strokes_ogs.tif
102
RTVSPost2010PropOp54
 70
     1
102
RTVSPost2010Prop55
280
     0
102
RTVSPost2010PropOp55
 70
     1
102
RTVSPost2010Prop56
140
1.0
102
RTVSPost2010PropOp56
 70
     1
102
RTVSPost2010Prop57
140
1.0
102
RTVSPost2010PropOp57
 70
     1
102
RTVSPropertyOp0
 70
     1
102
RTVSPropertyOp1
 70
     1
102
RTVSPropertyOp2
 70
     1
102
RTVSPropertyOp3
 70
     1
102
RTVSPropertyOp4
 70
     1
102
RTVSPropertyOp5
 70
     1
102
RTVSPropertyOp6
 70
     1
102
RTVSPropertyOp7
 70
     1
102
RTVSPropertyOp8
 70
     1
102
RTVSPropertyOp9
 70
     1
102
RTVSPropertyOp10
 70
     1
102
RTVSPropertyOp11
 70
     1
102
RTVSPropertyOp12
 70
     1
102
RTVSPropertyOp13
 70
     1
102
RTVSPropertyOp14
 70
     1
102
RTVSPropertyOp15
 70
     1
102
RTVSPropertyOp16
 70
     1
102
RTVSPropertyOp17
 70
     1
102
RTVSPropertyOp18
 70
     1
102
RTVSPropertyOp19
 70
     1
102
RTVSPropertyOp20
 70
     1
102
RTVSPropertyOp21
 70
     1
102
RTVSPropertyOp22
 70
     1
102
RTVSPropertyOp23
 70
     1
102
RTVSPropertyOp24
 70
     1
102
RTVSPropertyOp25
 70
     1
102
RTVSPropertyOp26
 70
     1
102
RTVSPropertyOp27
 70
     1
102
RTVSPropertyOp28
 70
     1
102
RTVSPropertyOp29
 70
     1
102
RTVSPropertyOp30
 70
     1
102
RTVSPropertyOp31
 70
     1
102
RTVSPropertyOp32
 70
     1
102
RTVSPropertyOp33
 70
     1
102
RTVSPropertyOp34
 70
     1
102
RTVSPropertyOp35
 70
     1
102
RTVSPropertyOp36
 70
     1
102
RTVSPropertyOp37
 70
     1
102
RTVSPropertyOp38
 70
     1
102
RTVSPropertyOp39
 70
     1
102
RTVSPropertyOp40
 70
     1
102
RTVSPropertyOp41
 70
     1
102
RTVSPropertyOp42
 70
     1
102
RTVSPropertyOp43
 70
     1
102
RTVSPropertyOp44
 70
     1
102
RTVSPropertyOp45
 70
     1
102
RTVSPropertyOp46
 70
     1
102
RTVSPropertyOp47
 70
     1
102
RTVSPropertyOp48
 70
     1
102
RTVSPropertyOp49
 70
     1
102
RTVSPropertyOp50
 70
     1
102
RTVSPropertyOp51
 70
     0
102
RTVSPropertyOp52
 70
     0
102
RTVSPropertyOp53
 70
     1
102
RTVSPropertyOp54
 70
     1
102
RTVSPropertyOp55
 70
     1
102
RTVSPropertyOp56
 70
     1
102
RTVSPropertyOp57
 70
     1
102
RTVSPropertyOp58
 70
     1
102
RTVSPropertyOp59
 70
     1
102
RTVSPropertyOp60
 70
     1
102
RTVSPropertyOp61
 70
     1
102
RTVSPropertyOp62
 70
     1
  0
ENDSEC
  0
EOF
