  0
SECTION
  2
HEADER
  9
$ACADVER
  1
AC1015
  9
$ACADMAINTVER
 70
    18
  9
$DWGCODEPAGE
  3
ANSI_932
  9
$INSBASE
 10
0.0
 20
0.0
 30
0.0
  9
$EXTMIN
 10
-12.56100285051645
 20
0.0
 30
0.0
  9
$EXTMAX
 10
309.5858977112124
 20
67.38340273150203
 30
0.0
  9
$LIMMIN
 10
0.0
 20
0.0
  9
$LIMMAX
 10
420.0
 20
297.0
  9
$ORTHOMODE
 70
     1
  9
$REGENMODE
 70
     1
  9
$FILLMODE
 70
     1
  9
$QTEXTMODE
 70
     0
  9
$MIRRTEXT
 70
     1
  9
$LTSCALE
 40
1.0
  9
$ATTMODE
 70
     1
  9
$TEXTSIZE
 40
30.0
  9
$TRACEWID
 40
0.05
  9
$TEXTSTYLE
  7
SUNPOU
  9
$CLAYER
  8
0
  9
$CELTYPE
  6
BYLAYER
  9
$CECOLOR
 62
     7
  9
$CELTSCALE
 40
1.0
  9
$DISPSILH
 70
     0
  9
$DIMSCALE
 40
1.0
  9
$DIMASZ
 40
3.0
  9
$DIMEXO
 40
2.0
  9
$DIMDLI
 40
0.38
  9
$DIMRND
 40
0.0
  9
$DIMDLE
 40
0.0
  9
$DIMEXE
 40
0.0
  9
$DIMTP
 40
0.0
  9
$DIMTM
 40
0.0
  9
$DIMTXT
 40
7.0
  9
$DIMCEN
 40
1.0
  9
$DIMTSZ
 40
0.0
  9
$DIMTOL
 70
     0
  9
$DIMLIM
 70
     0
  9
$DIMTIH
 70
     0
  9
$DIMTOH
 70
     0
  9
$DIMSE1
 70
     0
  9
$DIMSE2
 70
     0
  9
$DIMTAD
 70
     1
  9
$DIMZIN
 70
     0
  9
$DIMBLK
  1

  9
$DIMASO
 70
     1
  9
$DIMSHO
 70
     1
  9
$DIMPOST
  1

  9
$DIMAPOST
  1

  9
$DIMALT
 70
     0
  9
$DIMALTD
 70
     2
  9
$DIMALTF
 40
25.4
  9
$DIMLFAC
 40
1.0
  9
$DIMTOFL
 70
     0
  9
$DIMTVP
 40
0.0
  9
$DIMTIX
 70
     1
  9
$DIMSOXD
 70
     0
  9
$DIMSAH
 70
     1
  9
$DIMBLK1
  1
DOTSMALL
  9
$DIMBLK2
  1
DOTSMALL
  9
$DIMSTYLE
  2
1
  9
$DIMCLRD
 70
    60
  9
$DIMCLRE
 70
    70
  9
$DIMCLRT
 70
    60
  9
$DIMTFAC
 40
0.0642857142857143
  9
$DIMGAP
 40
1.0
  9
$DIMJUST
 70
     0
  9
$DIMSD1
 70
     0
  9
$DIMSD2
 70
     0
  9
$DIMTOLJ
 70
     1
  9
$DIMTZIN
 70
     0
  9
$DIMALTZ
 70
     0
  9
$DIMALTTZ
 70
     0
  9
$DIMUPT
 70
     0
  9
$DIMDEC
 70
     0
  9
$DIMTDEC
 70
     4
  9
$DIMALTU
 70
     2
  9
$DIMALTTD
 70
     2
  9
$DIMTXSTY
  7
STANDARD
  9
$DIMAUNIT
 70
     0
  9
$DIMADEC
 70
     0
  9
$DIMALTRND
 40
0.0
  9
$DIMAZIN
 70
     0
  9
$DIMDSEP
 70
    46
  9
$DIMATFIT
 70
     3
  9
$DIMFRAC
 70
     0
  9
$DIMLDRBLK
  1
DOTSMALL
  9
$DIMLUNIT
 70
     2
  9
$DIMLWD
 70
    -2
  9
$DIMLWE
 70
    -2
  9
$DIMTMOVE
 70
     0
  9
$LUNITS
 70
     4
  9
$LUPREC
 70
     4
  9
$SKETCHINC
 40
0.1
  9
$FILLETRAD
 40
3.0
  9
$AUNITS
 70
     0
  9
$AUPREC
 70
     2
  9
$MENU
  1
acad
  9
$ELEVATION
 40
0.0
  9
$PELEVATION
 40
0.0
  9
$THICKNESS
 40
0.0
  9
$LIMCHECK
 70
     0
  9
$CHAMFERA
 40
0.0
  9
$CHAMFERB
 40
0.0
  9
$CHAMFERC
 40
0.0
  9
$CHAMFERD
 40
0.0
  9
$SKPOLY
 70
     0
  9
$TDCREATE
 40
2450623.676023380
  9
$TDUCREATE
 40
2450623.301023380
  9
$TDUPDATE
 40
2453882.354983010
  9
$TDUUPDATE
 40
2453881.979983009
  9
$TDINDWG
 40
5.3577420949
  9
$TDUSRTIMER
 40
5.3577418981
  9
$USRTIMER
 70
     1
  9
$ANGBASE
 50
0.0
  9
$ANGDIR
 70
     0
  9
$PDMODE
 70
     0
  9
$PDSIZE
 40
0.0
  9
$PLINEWID
 40
0.0
  9
$SPLFRAME
 70
     0
  9
$SPLINETYPE
 70
     6
  9
$SPLINESEGS
 70
     8
  9
$HANDSEED
  5
2A6
  9
$SURFTAB1
 70
     6
  9
$SURFTAB2
 70
     6
  9
$SURFTYPE
 70
     6
  9
$SURFU
 70
     6
  9
$SURFV
 70
     6
  9
$UCSBASE
  2

  9
$UCSNAME
  2

  9
$UCSORG
 10
0.0
 20
0.0
 30
0.0
  9
$UCSXDIR
 10
1.0
 20
0.0
 30
0.0
  9
$UCSYDIR
 10
0.0
 20
1.0
 30
0.0
  9
$UCSORTHOREF
  2

  9
$UCSORTHOVIEW
 70
     0
  9
$UCSORGTOP
 10
0.0
 20
0.0
 30
0.0
  9
$UCSORGBOTTOM
 10
0.0
 20
0.0
 30
0.0
  9
$UCSORGLEFT
 10
0.0
 20
0.0
 30
0.0
  9
$UCSORGRIGHT
 10
0.0
 20
0.0
 30
0.0
  9
$UCSORGFRONT
 10
0.0
 20
0.0
 30
0.0
  9
$UCSORGBACK
 10
0.0
 20
0.0
 30
0.0
  9
$PUCSBASE
  2

  9
$PUCSNAME
  2

  9
$PUCSORG
 10
0.0
 20
0.0
 30
0.0
  9
$PUCSXDIR
 10
1.0
 20
0.0
 30
0.0
  9
$PUCSYDIR
 10
0.0
 20
1.0
 30
0.0
  9
$PUCSORTHOREF
  2

  9
$PUCSORTHOVIEW
 70
     0
  9
$PUCSORGTOP
 10
0.0
 20
0.0
 30
0.0
  9
$PUCSORGBOTTOM
 10
0.0
 20
0.0
 30
0.0
  9
$PUCSORGLEFT
 10
0.0
 20
0.0
 30
0.0
  9
$PUCSORGRIGHT
 10
0.0
 20
0.0
 30
0.0
  9
$PUCSORGFRONT
 10
0.0
 20
0.0
 30
0.0
  9
$PUCSORGBACK
 10
0.0
 20
0.0
 30
0.0
  9
$USERI1
 70
     0
  9
$USERI2
 70
     0
  9
$USERI3
 70
     0
  9
$USERI4
 70
     0
  9
$USERI5
 70
     0
  9
$USERR1
 40
0.0
  9
$USERR2
 40
0.0
  9
$USERR3
 40
0.0
  9
$USERR4
 40
0.0
  9
$USERR5
 40
0.0
  9
$WORLDVIEW
 70
     1
  9
$SHADEDGE
 70
     3
  9
$SHADEDIF
 70
    70
  9
$TILEMODE
 70
     1
  9
$MAXACTVP
 70
    16
  9
$PINSBASE
 10
0.0
 20
0.0
 30
0.0
  9
$PLIMCHECK
 70
     0
  9
$PEXTMIN
 10
1.000000000000000E+20
 20
1.000000000000000E+20
 30
1.000000000000000E+20
  9
$PEXTMAX
 10
-1.000000000000000E+20
 20
-1.000000000000000E+20
 30
-1.000000000000000E+20
  9
$PLIMMIN
 10
0.0
 20
0.0
  9
$PLIMMAX
 10
12.0
 20
9.0
  9
$UNITMODE
 70
     0
  9
$VISRETAIN
 70
     0
  9
$PLINEGEN
 70
     0
  9
$PSLTSCALE
 70
     1
  9
$TREEDEPTH
 70
  3020
  9
$CMLSTYLE
  2
STANDARD
  9
$CMLJUST
 70
     0
  9
$CMLSCALE
 40
1.0
  9
$PROXYGRAPHICS
 70
     1
  9
$MEASUREMENT
 70
     0
  9
$CELWEIGHT
370
    -1
  9
$ENDCAPS
280
     0
  9
$JOINSTYLE
280
     0
  9
$LWDISPLAY
290
     0
  9
$INSUNITS
 70
     0
  9
$HYPERLINKBASE
  1

  9
$STYLESHEET
  1

  9
$XEDIT
290
     1
  9
$CEPSNTYPE
380
     0
  9
$PSTYLEMODE
290
     1
  9
$FINGERPRINTGUID
  2
{E772AEE7-7A42-41FF-B9B9-375B4E7F4246}
  9
$VERSIONGUID
  2
{773B616A-FED0-40C2-A9DE-468C79CE4FD3}
  9
$EXTNAMES
290
     1
  9
$PSVPSCALE
 40
0.0
  9
$OLESTARTUP
290
     0
  0
ENDSEC
  0
SECTION
  2
CLASSES
  0
CLASS
  1
DICTIONARYVAR
  2
AcDbDictionaryVar
  3
ObjectDBX Classes
 90
        0
280
     0
281
     0
  0
CLASS
  1
RASTERVARIABLES
  2
AcDbRasterVariables
  3
ISM
 90
    32768
280
     0
281
     0
  0
CLASS
  1
ACDBDICTIONARYWDFLT
  2
AcDbDictionaryWithDefault
  3
ObjectDBX Classes
 90
        0
280
     0
281
     0
  0
CLASS
  1
ACDBPLACEHOLDER
  2
AcDbPlaceHolder
  3
ObjectDBX Classes
 90
        0
280
     0
281
     0
  0
CLASS
  1
LAYOUT
  2
AcDbLayout
  3
ObjectDBX Classes
 90
        0
280
     0
281
     0
  0
CLASS
  1
AEC_VARS_DWG_SETUP
  2
AecDbVarsDwgSetup
  3
AecBase
 90
    32897
280
     1
281
     0
  0
CLASS
  1
AEC_DISP_REP_MASS_ELEM_MODEL
  2
AecDbDispRepMassElemModel
  3
AecBase
 90
    32897
280
     1
281
     0
  0
CLASS
  1
AEC_DISP_PROPS_MASS_ELEM_MODEL
  2
AecDbDispPropsMassElem
  3
AecBase
 90
    32897
280
     1
281
     0
  0
CLASS
  1
AEC_DISP_REP_MASS_ELEM_SCHEM
  2
AecDbDispRepMassElemSchem
  3
AecBase
 90
    32897
280
     1
281
     0
  0
CLASS
  1
AEC_DISP_REP_DOOR_ELEV
  2
AecDbDispRepDoorElev
  3
AecArchBase
 90
    32897
280
     1
281
     0
  0
CLASS
  1
AEC_DISP_PROPS_DOOR
  2
AecDbDispPropsDoor
  3
AecArchBase
 90
    32897
280
     1
281
     0
  0
CLASS
  1
AEC_DISP_REP_MASKBLOCK_REF
  2
AecDbDispRepMaskBlockRef
  3
AecBase
 90
    32897
280
     1
281
     0
  0
CLASS
  1
AEC_DISP_PROPS_MASKBLOCK
  2
AecDbDispPropsMaskBlock
  3
AecBase
 90
    32897
280
     1
281
     0
  0
CLASS
  1
AEC_DISP_REP_LAYOUT_GRID3D
  2
AecDbDispRepLayoutGrid3d
  3
AecBase
 90
    32897
280
     1
281
     0
  0
CLASS
  1
AEC_DISP_PROPS_LAYOUT_GRID3D
  2
AecDbDispPropsLayoutGrid3d
  3
AecBase
 90
    32897
280
     1
281
     0
  0
CLASS
  1
AEC_DISP_REP_ENT_REF
  2
AecDbDispRepEntRef
  3
AecBase
 90
    32897
280
     1
281
     0
  0
CLASS
  1
AEC_DISP_PROPS_ENT_REF
  2
AecDbDispPropsEntRef
  3
AecBase
 90
    32897
280
     1
281
     0
  0
CLASS
  1
AEC_DISP_REP_CLIP_VOLUME_RESULT_SUBDIV
  2
AecDbDispRepClipVolResSubDiv
  3
AecBase
 90
    32897
280
     1
281
     0
  0
CLASS
  1
AEC_DISP_PROPS_CLIP_VOLUME_RESULT
  2
AecDbDispPropsClipVolResSubDiv
  3
AecBase
 90
    32897
280
     1
281
     0
  0
CLASS
  1
AEC_DISP_REP_CLIP_VOLUME_RESULT
  2
AecDbDispRepClipVolResult
  3
AecBase
 90
    32897
280
     1
281
     0
  0
CLASS
  1
AEC_DISP_REP_CLIP_VOLUME_PLAN
  2
AecDbDispRepClipVolPlan
  3
AecBase
 90
    32897
280
     1
281
     0
  0
CLASS
  1
AEC_DISP_PROPS_CLIP_VOLUME
  2
AecDbDispPropsClipVol
  3
AecBase
 90
    32897
280
     1
281
     0
  0
CLASS
  1
AEC_DISP_REP_CLIP_VOLUME_MODEL
  2
AecDbDispRepClipVolModel
  3
AecBase
 90
    32897
280
     1
281
     0
  0
CLASS
  1
AEC_DISP_REP_ANCHOR_ENT_TO_NODE
  2
AecDbDispRepAnchorEntToNode
  3
AecBase
 90
    32897
280
     1
281
     0
  0
CLASS
  1
AEC_DISP_PROPS_ENT
  2
AecDbDispPropsEnt
  3
AecBase
 90
    32897
280
     1
281
     0
  0
CLASS
  1
AEC_DISP_REP_LAYOUT_GRID2D
  2
AecDbDispRepLayoutGrid2d
  3
AecBase
 90
    32897
280
     1
281
     0
  0
CLASS
  1
AEC_DISP_PROPS_LAYOUT_GRID2D
  2
AecDbDispPropsLayoutGrid2d
  3
AecBase
 90
    32897
280
     1
281
     0
  0
CLASS
  1
AEC_DISP_REP_LAYOUT_CURVE
  2
AecDbDispRepLayoutCurve
  3
AecBase
 90
    32897
280
     1
281
     0
  0
CLASS
  1
AEC_DISP_PROPS_LAYOUT_CURVE
  2
AecDbDispPropsLayoutCurve
  3
AecBase
 90
    32897
280
     1
281
     0
  0
CLASS
  1
AEC_DISP_REP_ANCHOR
  2
AecDbDispRepAnchor
  3
AecBase
 90
    32897
280
     1
281
     0
  0
CLASS
  1
AEC_DISP_REP_CAMERA
  2
AecDbDispRepCamera
  3
AecBase
 90
    32897
280
     1
281
     0
  0
CLASS
  1
AEC_DISP_PROPS_CAMERA
  2
AecDbDispPropsCamera
  3
AecBase
 90
    32897
280
     1
281
     0
  0
CLASS
  1
AEC_DISP_REP_SLICE
  2
AecDbDispRepSlice
  3
AecBase
 90
    32897
280
     1
281
     0
  0
CLASS
  1
AEC_DISP_PROPS_SLICE
  2
AecDbDispPropsSlice
  3
AecBase
 90
    32897
280
     1
281
     0
  0
CLASS
  1
AEC_DISP_REP_MVBLOCK_REF
  2
AecDbDispRepMvBlockRef
  3
AecBase
 90
    32897
280
     1
281
     0
  0
CLASS
  1
AEC_DISP_REP_MVBLOCK_REF_MODEL
  2
AecDbDispRepMvBlockRefModel
  3
AecBase
 90
    32897
280
     1
281
     0
  0
CLASS
  1
AEC_DISP_REP_MASS_GROUP_MODEL
  2
AecDbDispRepMassGroupModel
  3
AecBase
 90
    32897
280
     1
281
     0
  0
CLASS
  1
AEC_DISP_PROPS_MASS_GROUP
  2
AecDbDispPropsMassGroup
  3
AecBase
 90
    32897
280
     1
281
     0
  0
CLASS
  1
AEC_DISP_REP_MASS_GROUP_PLAN
  2
AecDbDispRepMassGroupPlan
  3
AecBase
 90
    32897
280
     1
281
     0
  0
CLASS
  1
AEC_DISP_REP_DOOR_RCP
  2
AecDbDispRepDoorRcp
  3
AecArchBase
 90
    32897
280
     1
281
     0
  0
CLASS
  1
AEC_DISP_REP_DOOR_NOMINAL
  2
AecDbDispRepDoorNominal
  3
AecArchBase
 90
    32897
280
     1
281
     0
  0
CLASS
  1
AEC_DISP_PROPS_DOOR_NOMINAL
  2
AecDbDispPropsDoorNominal
  3
AecArchBase
 90
    32897
280
     1
281
     0
  0
CLASS
  1
AEC_DISP_REP_DOOR_PLAN
  2
AecDbDispRepDoorPlan
  3
AecArchBase
 90
    32897
280
     1
281
     0
  0
CLASS
  1
AEC_DISP_REP_DOOR_MODEL
  2
AecDbDispRepDoorModel
  3
AecArchBase
 90
    32897
280
     1
281
     0
  0
CLASS
  1
AEC_DISP_REP_MVBLOCK_REF_RCP
  2
AecDbDispRepMvBlockRefRcp
  3
AecArchBase
 90
    32897
280
     1
281
     0
  0
CLASS
  1
AEC_DISP_REP_MASS_GROUP_RCP
  2
AecDbDispRepMassGroupRcp
  3
AecArchBase
 90
    32897
280
     1
281
     0
  0
CLASS
  1
AEC_DISP_REP_MASS_ELEM_RCP
  2
AecDbDispRepMassElemRcp
  3
AecArchBase
 90
    32897
280
     1
281
     0
  0
CLASS
  1
AEC_DISP_REP_MASKBLOCK_REF_RCP
  2
AecDbDispRepMaskBlockRefRcp
  3
AecArchBase
 90
    32897
280
     1
281
     0
  0
CLASS
  1
AEC_DISP_REP_COLUMN_GRID_RCP
  2
AecDbDispRepColumnGridRcp
  3
AecArchBase
 90
    32897
280
     1
281
     0
  0
CLASS
  1
AEC_DISP_REP_COLUMN_GRID_MODEL
  2
AecDbDispRepColumnGridModel
  3
AecArchBase
 90
    32897
280
     1
281
     0
  0
CLASS
  1
AEC_DISP_REP_COLUMN_GRID
  2
AecDbDispRepColumnGrid
  3
AecArchBase
 90
    32897
280
     1
281
     0
  0
CLASS
  1
AEC_DISP_REP_CEILING_GRID_RCP
  2
AecDbDispRepCeilingGridRcp
  3
AecArchBase
 90
    32897
280
     1
281
     0
  0
CLASS
  1
AEC_DISP_REP_CEILING_GRID_MODEL
  2
AecDbDispRepCeilingGridModel
  3
AecArchBase
 90
    32897
280
     1
281
     0
  0
CLASS
  1
AEC_DISP_REP_CEILING_GRID
  2
AecDbDispRepCeilingGrid
  3
AecArchBase
 90
    33661
280
     1
281
     0
  0
CLASS
  1
AEC_DISP_REP_BDG_SECTION_SUBDIV
  2
AecDbDispRepBdgSectionSubDiv
  3
AecArchBase
 90
    32897
280
     1
281
     0
  0
CLASS
  1
AEC_DISP_REP_BDG_SECTION_MODEL
  2
AecDbDispRepBdgSectionModel
  3
AecArchBase
 90
    32897
280
     1
281
     0
  0
CLASS
  1
AEC_DISP_REP_BDG_SECTIONLINE_RCP
  2
AecDbDispRepBdgSectionLineRcp
  3
AecArchBase
 90
    32897
280
     1
281
     0
  0
CLASS
  1
AEC_DISP_REP_BDG_SECTIONLINE_PLAN
  2
AecDbDispRepBdgSectionLinePlan
  3
AecArchBase
 90
    32897
280
     1
281
     0
  0
CLASS
  1
AEC_DISP_REP_BDG_ELEVLINE_RCP
  2
AecDbDispRepBdgElevLineRcp
  3
AecArchBase
 90
    32897
280
     1
281
     0
  0
CLASS
  1
AEC_DISP_REP_BDG_ELEVLINE_PLAN
  2
AecDbDispRepBdgElevLinePlan
  3
AecArchBase
 90
    32897
280
     1
281
     0
  0
CLASS
  1
AEC_DISP_REP_BDG_SECTIONLINE_MODEL
  2
AecDbDispRepBdgSectionLineModel
  3
AecArchBase
 90
    32897
280
     1
281
     0
  0
CLASS
  1
AEC_DISP_REP_BDG_ELEVLINE_MODEL
  2
AecDbDispRepBdgElevLineModel
  3
AecArchBase
 90
    32897
280
     1
281
     0
  0
CLASS
  1
AEC_DISP_REP_ANCHOR_BUB_TO_GRID_RCP
  2
AecDbDispRepAnchorBubToGridRcp
  3
AecArchBase
 90
    32897
280
     1
281
     0
  0
CLASS
  1
AEC_DISP_REP_ANCHOR_BUB_TO_GRID_MODEL
  2
AecDbDispRepAnchorBubToGridMdl
  3
AecArchBase
 90
    32897
280
     1
281
     0
  0
CLASS
  1
AEC_DISP_REP_ANCHOR_BUB_TO_GRID
  2
AecDbDispRepAnchorBubToGrid
  3
AecArchBase
 90
    32897
280
     1
281
     0
  0
CLASS
  1
AEC_DISP_REP_WINDOW_RCP
  2
AecDbDispRepWindowRcp
  3
AecArchBase
 90
    32897
280
     1
281
     0
  0
CLASS
  1
AEC_DISP_PROPS_WINDOW
  2
AecDbDispPropsWindow
  3
AecArchBase
 90
    32897
280
     1
281
     0
  0
CLASS
  1
AEC_DISP_REP_ROOF_RCP
  2
AecDbDispRepRoofRcp
  3
AecArchBase
 90
    32897
280
     1
281
     0
  0
CLASS
  1
AEC_DISP_PROPS_ROOF
  2
AecDbDispPropsRoof
  3
AecArchBase
 90
    32897
280
     1
281
     0
  0
CLASS
  1
AEC_DISP_REP_ROOF_PLAN
  2
AecDbDispRepRoofPlan
  3
AecArchBase
 90
    32897
280
     1
281
     0
  0
CLASS
  1
AEC_DISP_REP_WINDOW_SILL_PLAN
  2
AecDbDispRepWindowSillPlan
  3
AecArchBase
 90
    32897
280
     1
281
     0
  0
CLASS
  1
AEC_DISP_PROPS_WINDOW_SILL_PLAN
  2
AecDbDispPropsWindowSillPlan
  3
AecArchBase
 90
    32897
280
     1
281
     0
  0
CLASS
  1
AEC_DISP_REP_SPACE_PLAN
  2
AecDbDispRepSpacePlan
  3
AecArchBase
 90
    32897
280
     1
281
     0
  0
CLASS
  1
AEC_DISP_PROPS_SPACE_PLAN
  2
AecDbDispPropsSpacePlan
  3
AecArchBase
 90
    32897
280
     1
281
     0
  0
CLASS
  1
AEC_DISP_REP_SPACE_MODEL
  2
AecDbDispRepSpaceModel
  3
AecArchBase
 90
    32897
280
     1
281
     0
  0
CLASS
  1
AEC_DISP_PROPS_SPACE_MODEL
  2
AecDbDispPropsSpaceModel
  3
AecArchBase
 90
    32897
280
     1
281
     0
  0
CLASS
  1
AEC_DISP_REP_WINDOW_MODEL
  2
AecDbDispRepWindowModel
  3
AecArchBase
 90
    32897
280
     1
281
     0
  0
CLASS
  1
AEC_DISP_REP_WINDOW_NOMINAL
  2
AecDbDispRepWindowNominal
  3
AecArchBase
 90
    32897
280
     1
281
     0
  0
CLASS
  1
AEC_DISP_PROPS_WINDOW_NOMINAL
  2
AecDbDispPropsWindowNominal
  3
AecArchBase
 90
    32897
280
     1
281
     0
  0
CLASS
  1
AEC_DISP_REP_OPENING
  2
AecDbDispRepOpening
  3
AecArchBase
 90
    32897
280
     1
281
     0
  0
CLASS
  1
AEC_DISP_PROPS_OPENING
  2
AecDbDispPropsOpening
  3
AecArchBase
 90
    32897
280
     1
281
     0
  0
CLASS
  1
AEC_DISP_REP_OPENING_MODEL
  2
AecDbDispRepOpeningModel
  3
AecArchBase
 90
    32897
280
     1
281
     0
  0
CLASS
  1
AEC_DISP_REP_RAILING_PLAN
  2
AecDbDispRepRailingPlan
  3
AecArchBase
 90
    32897
280
     1
281
     0
  0
CLASS
  1
AEC_DISP_PROPS_RAILING_PLAN
  2
AecDbDispPropsRailingPlan
  3
AecArchBase
 90
    32897
280
     1
281
     0
  0
CLASS
  1
AEC_DISP_REP_RAILING_MODEL
  2
AecDbDispRepRailingModel
  3
AecArchBase
 90
    32897
280
     1
281
     0
  0
CLASS
  1
AEC_DISP_PROPS_RAILING_MODEL
  2
AecDbDispPropsRailingModel
  3
AecArchBase
 90
    32897
280
     1
281
     0
  0
CLASS
  1
AEC_DISP_REP_WINDOW_ELEV
  2
AecDbDispRepWindowElev
  3
AecArchBase
 90
    32897
280
     1
281
     0
  0
CLASS
  1
AEC_DISP_REP_DOOR_THRESHOLD_PLAN
  2
AecDbDispRepDoorThresholdPlan
  3
AecArchBase
 90
    32897
280
     1
281
     0
  0
CLASS
  1
AEC_DISP_PROPS_DOOR_THRESHOLD_PLAN
  2
AecDbDispPropsDoorThresholdPlan
  3
AecArchBase
 90
    32897
280
     1
281
     0
  0
CLASS
  1
AEC_DISP_REP_ROOF_MODEL
  2
AecDbDispRepRoofModel
  3
AecArchBase
 90
    32897
280
     1
281
     0
  0
CLASS
  1
AEC_DISP_REP_WINDOW_PLAN
  2
AecDbDispRepWindowPlan
  3
AecArchBase
 90
    32897
280
     1
281
     0
  0
CLASS
  1
AEC_DISP_REP_WALL_SCHEM
  2
AecDbDispRepWallSchem
  3
AecArchBase
 90
    32897
280
     1
281
     0
  0
CLASS
  1
AEC_DISP_PROPS_WALL_SCHEM
  2
AecDbDispPropsWallSchem
  3
AecArchBase
 90
    32897
280
     1
281
     0
  0
CLASS
  1
AEC_DISP_REP_WALL_RCP
  2
AecDbDispRepWallRcp
  3
AecArchBase
 90
    32897
280
     1
281
     0
  0
CLASS
  1
AEC_DISP_PROPS_WALL_PLAN
  2
AecDbDispPropsWallPlan
  3
AecArchBase
 90
    32897
280
     1
281
     0
  0
CLASS
  1
AEC_DISP_REP_WALL_PLAN
  2
AecDbDispRepWallPlan
  3
AecArchBase
 90
    32897
280
     1
281
     0
  0
CLASS
  1
AEC_DISP_REP_WALL_MODEL
  2
AecDbDispRepWallModel
  3
AecArchBase
 90
    32897
280
     1
281
     0
  0
CLASS
  1
AEC_DISP_PROPS_WALL
  2
AecDbDispPropsWall
  3
AecArchBase
 90
    32897
280
     1
281
     0
  0
CLASS
  1
AEC_DISP_REP_WALL_GRAPH
  2
AecDbDispRepWallGraph
  3
AecArchBase
 90
    32897
280
     1
281
     0
  0
CLASS
  1
AEC_DISP_REP_STAIR_RCP
  2
AecDbDispRepStairRcp
  3
AecArchBase
 90
    32897
280
     1
281
     0
  0
CLASS
  1
AEC_DISP_PROPS_STAIR_PLAN
  2
AecDbDispPropsStairPlan
  3
AecArchBase
 90
    32897
280
     1
281
     0
  0
CLASS
  1
AEC_DISP_REP_STAIR_PLAN
  2
AecDbDispRepStairPlan
  3
AecArchBase
 90
    32897
280
     1
281
     0
  0
CLASS
  1
AEC_DISP_REP_STAIR_MODEL
  2
AecDbDispRepStairModel
  3
AecArchBase
 90
    32897
280
     1
281
     0
  0
CLASS
  1
AEC_DISP_PROPS_STAIR_MODEL
  2
AecDbDispPropsStairModel
  3
AecArchBase
 90
    32897
280
     1
281
     0
  0
CLASS
  1
AEC_DISP_REP_SPACE_BOUNDARY_SCHEM
  2
AecDbDispRepSpaceBoundarySketch
  3
AecArchBase
 90
    32897
280
     1
281
     0
  0
CLASS
  1
AEC_DISP_REP_SPACE_BOUNDARY_PLAN
  2
AecDbDispRepSpaceBoundaryPlan
  3
AecArchBase
 90
    32897
280
     1
281
     0
  0
CLASS
  1
AEC_DISP_REP_SPACE_BOUNDARY_MODEL
  2
AecDbDispRepSpaceBoundaryModel
  3
AecArchBase
 90
    32897
280
     1
281
     0
  0
CLASS
  1
AEC_DISP_REP_SPACE_BOUNDARY_DIAGRAM
  2
AecDbDispRepSpaceBoundaryDgrm
  3
AecArchBase
 90
    32897
280
     1
281
     0
  0
CLASS
  1
AEC_DISP_REP_SPACE_VOLUME
  2
AecDbDispRepSpaceVolume
  3
AecArchBase
 90
    32897
280
     1
281
     0
  0
CLASS
  1
AEC_DISP_REP_SPACE_RCP
  2
AecDbDispRepSpaceRcp
  3
AecArchBase
 90
    32897
280
     1
281
     0
  0
CLASS
  1
AEC_DISP_REP_ANCHOR_TAG_TO_ENT
  2
AecDbDispRepAnchorTagToEnt
  3
AecScheduleData
 90
    32897
280
     1
281
     0
  0
CLASS
  1
AEC_DISP_REP_SCHEDULE_TABLE
  2
AecDbDispRepScheduleTable
  3
AecSchedule
 90
    32897
280
     1
281
     0
  0
CLASS
  1
AEC_DISP_PROPS_SCHEDULE_TABLE
  2
AecDbDispPropsScheduleTable
  3
AecSchedule
 90
    32897
280
     1
281
     0
  0
CLASS
  1
AEC_DISP_REP_SET
  2
AecDbDispRepSet
  3
AecBase
 90
    32897
280
     1
281
     0
  0
CLASS
  1
AEC_DISP_REP_CONFIG
  2
AecDbDispRepConfig
  3
AecBase
 90
    32897
280
     1
281
     0
  0
CLASS
  1
TABLESTYLE
  2
AcDbTableStyle
  3
ObjectDBX Classes
 90
     4095
280
     0
281
     0
  0
CLASS
  1
MATERIAL
  2
AcDbMaterial
  3
ObjectDBX Classes
 90
     1153
280
     0
281
     0
  0
CLASS
  1
VISUALSTYLE
  2
AcDbVisualStyle
  3
ObjectDBX Classes
 90
     4095
280
     0
281
     0
  0
CLASS
  1
SCALE
  2
AcDbScale
  3
ObjectDBX Classes
 90
     1153
280
     0
281
     0
  0
CLASS
  1
MLEADERSTYLE
  2
AcDbMLeaderStyle
  3
ACDB_MLEADERSTYLE_CLASS
 90
    36863
280
     0
281
     0
  0
CLASS
  1
ACDBSECTIONVIEWSTYLE
  2
AcDbSectionViewStyle
  3
ObjectDBX Classes
 90
    33793
280
     0
281
     0
  0
CLASS
  1
ACDBDETAILVIEWSTYLE
  2
AcDbDetailViewStyle
  3
ObjectDBX Classes
 90
    33793
280
     0
281
     0
  0
CLASS
  1
EXACXREFPANELOBJECT
  2
ExAcXREFPanelObject
  3
EXAC_ESW
 90
    33793
280
     0
281
     0
  0
CLASS
  1
NPOCOLLECTION
  2
AcDbImpNonPersistentObjectsCollection
  3
ObjectDBX Classes
 90
    33921
280
     0
281
     0
  0
CLASS
  1
CELLSTYLEMAP
  2
AcDbCellStyleMap
  3
ObjectDBX Classes
 90
     1152
280
     0
281
     0
  0
ENDSEC
  0
SECTION
  2
TABLES
  0
TABLE
  2
VPORT
  5
2F
330
0
100
AcDbSymbolTable
 70
     1
  0
VPORT
  5
30
330
2F
100
AcDbSymbolTableRecord
100
AcDbViewportTableRecord
  2
*Active
 70
     0
 10
0.0
 20
0.0
 11
1.0
 21
1.0
 12
201.5103133877218
 22
33.23796884077753
 13
0.0
 23
0.0
 14
1.0
 24
1.0
 15
0.0
 25
0.0
 16
0.0
 26
0.0
 36
1.0
 17
0.0
 27
0.0
 37
0.0
 40
205.7562691456522
 41
2.095558546433378
 42
50.0
 43
0.0
 44
0.0
 50
0.0
 51
0.0
 71
     0
 72
 20000
 73
     1
 74
     1
 75
     0
 76
     0
 77
     0
 78
     0
281
     0
 65
     1
110
0.0
120
0.0
130
0.0
111
1.0
121
0.0
131
0.0
112
0.0
122
1.0
132
0.0
 79
     0
146
0.0
1001
ACAD_NAV_VCDISPLAY
1070
     3
  0
ENDTAB
  0
TABLE
  2
LTYPE
  5
2A
330
0
100
AcDbSymbolTable
 70
     1
  0
LTYPE
  5
2B
330
2A
100
AcDbSymbolTableRecord
100
AcDbLinetypeTableRecord
  2
BYBLOCK
 70
     0
  3

 72
    65
 73
     0
 40
0.0
  0
LTYPE
  5
2C
330
2A
100
AcDbSymbolTableRecord
100
AcDbLinetypeTableRecord
  2
BYLAYER
 70
     0
  3

 72
    65
 73
     0
 40
0.0
  0
LTYPE
  5
14
330
2A
100
AcDbSymbolTableRecord
100
AcDbLinetypeTableRecord
  2
CONTINUOUS
 70
     0
  3
Solid line
 72
    65
 73
     0
 40
0.0
  0
ENDTAB
  0
TABLE
  2
LAYER
  5
26
330
0
100
AcDbSymbolTable
 70
     6
  0
LAYER
  5
7
330
26
100
AcDbSymbolTableRecord
100
AcDbLayerTableRecord
  2
0
 70
     0
 62
     7
  6
CONTINUOUS
370
    -3
390
8
  0
LAYER
  5
249
330
26
100
AcDbSymbolTableRecord
100
AcDbLayerTableRecord
  2
DEFPOINTS
 70
     0
 62
     7
  6
CONTINUOUS
290
     0
370
    -3
390
8
  0
LAYER
  5
239
330
26
100
AcDbSymbolTableRecord
100
AcDbLayerTableRecord
  2
SUNPOU
 70
     0
 62
    70
  6
CONTINUOUS
370
    -3
390
8
  0
LAYER
  5
63
330
26
100
AcDbSymbolTableRecord
100
AcDbLayerTableRecord
  2
KIJUN
 70
     0
 62
     7
  6
CONTINUOUS
370
    -3
390
8
  0
LAYER
  5
280
330
26
100
AcDbSymbolTableRecord
100
AcDbLayerTableRecord
  2
HOJO
 70
     0
 62
     3
  6
CONTINUOUS
370
    -3
390
8
  0
LAYER
  5
282
330
26
100
AcDbSymbolTableRecord
100
AcDbLayerTableRecord
  2
WAKU
 70
     0
 62
     1
  6
CONTINUOUS
370
    -3
390
8
  0
ENDTAB
  0
TABLE
  2
STYLE
  5
27
330
0
100
AcDbSymbolTable
 70
     3
  0
STYLE
  5
28
330
27
100
AcDbSymbolTableRecord
100
AcDbTextStyleTableRecord
  2
STANDARD
 70
     0
 40
0.0
 41
1.0
 50
0.0
 71
     0
 42
0.2
  3
txt
  4

  0
STYLE
  5
4B
330
27
100
AcDbSymbolTableRecord
100
AcDbTextStyleTableRecord
  2
SUNPOU
 70
     0
 40
0.0
 41
1.0
 50
0.0
 71
     0
 42
30.0
  3
txt
  4
bigfont
  0
STYLE
  5
247
330
27
100
AcDbSymbolTableRecord
100
AcDbTextStyleTableRecord
  2
LIFE
 70
     0
 40
0.0
 41
0.7
 50
0.0
 71
     0
 42
10.0
  3
romans
  4
extfont
  0
ENDTAB
  0
TABLE
  2
VIEW
  5
2D
330
0
100
AcDbSymbolTable
 70
     0
  0
ENDTAB
  0
TABLE
  2
UCS
  5
2E
330
0
100
AcDbSymbolTable
 70
     0
  0
ENDTAB
  0
TABLE
  2
APPID
  5
34
330
0
100
AcDbSymbolTable
 70
     2
  0
APPID
  5
5
330
34
100
AcDbSymbolTableRecord
100
AcDbRegAppTableRecord
  2
ACAD
 70
     0
  0
APPID
  5
33
330
34
100
AcDbSymbolTableRecord
100
AcDbRegAppTableRecord
  2
ACAD_NAV_VCDISPLAY
 70
     0
  0
ENDTAB
  0
TABLE
  2
DIMSTYLE
  5
35
330
0
100
AcDbSymbolTable
 70
     3
100
AcDbDimStyleTable
 71
     1
340
36
  0
DIMSTYLE
105
36
330
35
100
AcDbSymbolTableRecord
100
AcDbDimStyleTableRecord
  2
STANDARD
 70
     0
 41
3.0
 42
2.0
 44
0.0
 73
     0
 74
     0
 77
     1
140
2.799999999999998
141
1.0
146
0.0642857142857143
147
1.0
173
     1
174
     1
176
    60
177
    70
178
    60
271
     0
340
28
341
37
343
37
344
37
  0
DIMSTYLE
105
24D
102
{ACAD_REACTORS
330
272
330
238
102
}
330
35
100
AcDbSymbolTableRecord
100
AcDbDimStyleTableRecord
  2
STANDARD$0
 70
     0
 40
2.0
 41
1.0
 42
2.0
 43
0.0
 44
1.0
 73
     0
 74
     0
 77
     3
 78
     9
140
4.5
141
0.0
147
1.0
172
     1
173
     1
178
     3
271
     2
340
247
341
240
343
240
344
240
  0
DIMSTYLE
105
50
330
35
100
AcDbSymbolTableRecord
100
AcDbDimStyleTableRecord
  2
1
 70
     0
 41
3.0
 42
2.0
 44
0.0
 73
     0
 74
     0
 77
     1
140
7.0
141
1.0
146
0.0642857142857143
147
1.0
173
     1
174
     1
176
    60
177
    70
178
    60
271
     0
340
28
341
37
343
37
344
37
  0
ENDTAB
  0
TABLE
  2
BLOCK_RECORD
  5
1
330
0
100
AcDbSymbolTable
 70
     4
  0
BLOCK_RECORD
  5
2
102
{ACAD_XDICTIONARY
360
3
102
}
330
1
100
AcDbSymbolTableRecord
100
AcDbBlockTableRecord
  2
*MODEL_SPACE
340
1E
  0
BLOCK_RECORD
  5
20
102
{ACAD_XDICTIONARY
360
21
102
}
330
1
100
AcDbSymbolTableRecord
100
AcDbBlockTableRecord
  2
*PAPER_SPACE
340
25
  0
BLOCK_RECORD
  5
37
330
1
100
AcDbSymbolTableRecord
100
AcDbBlockTableRecord
  2
_DOTSMALL
340
0
  0
BLOCK_RECORD
  5
240
330
1
100
AcDbSymbolTableRecord
100
AcDbBlockTableRecord
  2
_DOT
340
0
102
{BLKREFS
331
278
331
279
331
23F
331
245
102
}
  0
BLOCK_RECORD
  5
273
330
1
100
AcDbSymbolTableRecord
100
AcDbBlockTableRecord
  2
*D2
340
0
  0
BLOCK_RECORD
  5
23A
330
1
100
AcDbSymbolTableRecord
100
AcDbBlockTableRecord
  2
*D3
340
0
  0
ENDTAB
  0
ENDSEC
  0
SECTION
  2
BLOCKS
  0
BLOCK
  5
6
330
2
100
AcDbEntity
  8
0
100
AcDbBlockBegin
  2
*MODEL_SPACE
 70
     0
 10
0.0
 20
0.0
 30
0.0
  3
*MODEL_SPACE
  1

  0
ENDBLK
  5
1D
330
2
100
AcDbEntity
  8
0
100
AcDbBlockEnd
  0
BLOCK
  5
23
330
20
100
AcDbEntity
 67
     1
  8
0
100
AcDbBlockBegin
  2
*PAPER_SPACE
 70
     0
 10
0.0
 20
0.0
 30
0.0
  3
*PAPER_SPACE
  1

  0
ENDBLK
  5
24
330
20
100
AcDbEntity
 67
     1
  8
0
100
AcDbBlockEnd
  0
BLOCK
  5
38
330
37
100
AcDbEntity
  8
0
100
AcDbBlockBegin
  2
_DOTSMALL
 70
     0
 10
0.0
 20
0.0
 30
0.0
  3
_DOTSMALL
  1

  0
LWPOLYLINE
  5
39
330
37
100
AcDbEntity
  8
0
  6
ByBlock
 62
     0
100
AcDbPolyline
 90
        2
 70
     1
 43
0.5
 10
-0.0625
 20
0.0
 42
1.0
 10
0.0625
 20
0.0
 42
1.0
  0
ENDBLK
  5
3A
330
37
100
AcDbEntity
  8
0
100
AcDbBlockEnd
  0
BLOCK
  5
241
330
240
100
AcDbEntity
  8
0
100
AcDbBlockBegin
  2
_DOT
 70
     0
 10
0.0
 20
0.0
 30
0.0
  3
_DOT
  1

  0
LWPOLYLINE
  5
242
330
240
100
AcDbEntity
  8
0
  6
ByBlock
 62
     0
100
AcDbPolyline
 90
        2
 70
     1
 43
0.5
 10
-0.25
 20
0.0
 42
1.0
 10
0.25
 20
0.0
 42
1.0
  0
LINE
  5
243
330
240
100
AcDbEntity
  8
0
  6
ByBlock
 62
     0
100
AcDbLine
 10
-0.5
 20
0.0
 30
0.0
 11
-1.0
 21
0.0
 31
0.0
  0
ENDBLK
  5
244
330
240
100
AcDbEntity
  8
0
100
AcDbBlockEnd
  0
BLOCK
  5
274
330
273
100
AcDbEntity
  8
0
 62
     7
100
AcDbBlockBegin
  2
*D2
 70
     1
 10
0.0
 20
0.0
 30
0.0
  3
*D2
  1

  0
LINE
  5
275
330
273
100
AcDbEntity
  8
SUNPOU
 62
    70
370
    -2
100
AcDbLine
 10
32.832022731407
 20
51.02107477962231
 30
0.0
 11
32.832022731407
 21
57.86340273150203
 31
0.0
  0
LINE
  5
276
330
273
100
AcDbEntity
  8
SUNPOU
 62
    70
370
    -2
100
AcDbLine
 10
18.45977154760708
 20
51.02107477962231
 30
0.0
 11
18.45977154760708
 21
57.86340273150203
 31
0.0
  0
LINE
  5
277
330
273
100
AcDbEntity
  8
SUNPOU
 62
    60
370
    -2
100
AcDbLine
 10
31.83202273140699
 20
57.86340273150203
 30
0.0
 11
19.45977154760708
 21
57.86340273150203
 31
0.0
  0
INSERT
  5
278
330
273
100
AcDbEntity
  8
SUNPOU
 62
    60
370
    -2
100
AcDbBlockReference
  2
_DOT
 10
32.832022731407
 20
57.86340273150203
 30
0.0
  0
INSERT
  5
279
330
273
100
AcDbEntity
  8
SUNPOU
 62
    60
370
    -2
100
AcDbBlockReference
  2
_DOT
 10
18.45977154760708
 20
57.86340273150203
 30
0.0
 50
180.0
  0
MTEXT
  5
27A
330
273
100
AcDbEntity
  8
SUNPOU
 62
    60
100
AcDbMText
 10
25.64589713950704
 20
61.86340273150204
 30
0.0
 40
4.0
 41
0.0
 71
     5
 72
     1
  1
\A1;14
  7
LIFE
 73
     1
 44
1.0
1001
ACAD
1000
MTEXTBEGIN
1070
    73
1070
     1
1070
    44
1040
1.0
1070
    74
1070
     0
1000
MTEXTEND
  0
POINT
  5
27B
330
273
100
AcDbEntity
  8
DEFPOINTS
 62
     0
100
AcDbPoint
 10
32.832022731407
 20
49.02107477962232
 30
0.0
  0
POINT
  5
27C
330
273
100
AcDbEntity
  8
DEFPOINTS
 62
     0
100
AcDbPoint
 10
18.45977154760708
 20
49.02107477962232
 30
0.0
  0
POINT
  5
27D
330
273
100
AcDbEntity
  8
DEFPOINTS
 62
     0
100
AcDbPoint
 10
18.45977154760708
 20
57.86340273150203
 30
0.0
  0
ENDBLK
  5
27E
330
273
100
AcDbEntity
  8
0
 62
     7
100
AcDbBlockEnd
  0
BLOCK
  5
23B
330
23A
100
AcDbEntity
  8
0
 62
     7
100
AcDbBlockBegin
  2
*D3
 70
     1
 10
0.0
 20
0.0
 30
0.0
  3
*D3
  1

  0
LINE
  5
23C
330
23A
100
AcDbEntity
  8
SUNPOU
 62
    70
370
    -2
100
AcDbLine
 10
16.45979463318365
 20
23.97239211002268
 30
0.0
 11
8.527326856202696
 21
23.97239211002268
 31
0.0
  0
LINE
  5
23D
330
23A
100
AcDbEntity
  8
SUNPOU
 62
    70
370
    -2
100
AcDbLine
 10
16.45979463318365
 20
49.02107477962232
 30
0.0
 11
8.527326856202702
 21
49.02107477962232
 31
0.0
  0
LINE
  5
23E
330
23A
100
AcDbEntity
  8
SUNPOU
 62
    60
370
    -2
100
AcDbLine
 10
8.527326856202696
 20
24.97239211002268
 30
0.0
 11
8.527326856202702
 21
48.02107477962232
 31
0.0
  0
INSERT
  5
23F
330
23A
100
AcDbEntity
  8
SUNPOU
 62
    60
370
    -2
100
AcDbBlockReference
  2
_DOT
 10
8.527326856202696
 20
23.97239211002268
 30
0.0
 50
270.0
  0
INSERT
  5
245
330
23A
100
AcDbEntity
  8
SUNPOU
 62
    60
370
    -2
100
AcDbBlockReference
  2
_DOT
 10
8.527326856202702
 20
49.02107477962232
 30
0.0
 50
90.0
  0
MTEXT
  5
246
330
23A
100
AcDbEntity
  8
SUNPOU
 62
    60
100
AcDbMText
 10
4.527326856202694
 20
36.49673344482251
 30
0.0
 40
4.0
 41
0.0
 71
     5
 72
     1
  1
\A1;25
  7
LIFE
 11
0.0000000000000001
 21
1.0
 31
0.0
 73
     1
 44
1.0
1001
ACAD
1000
MTEXTBEGIN
1070
    73
1070
     1
1070
    44
1040
1.0
1070
    74
1070
     0
1000
MTEXTEND
  0
POINT
  5
248
330
23A
100
AcDbEntity
  8
DEFPOINTS
 62
     0
100
AcDbPoint
 10
18.45979463318365
 20
23.97239211002268
 30
0.0
  0
POINT
  5
24A
330
23A
100
AcDbEntity
  8
DEFPOINTS
 62
     0
100
AcDbPoint
 10
18.45979463318365
 20
49.02107477962232
 30
0.0
  0
POINT
  5
24B
330
23A
100
AcDbEntity
  8
DEFPOINTS
 62
     0
100
AcDbPoint
 10
8.527326856202702
 20
49.02107477962232
 30
0.0
  0
ENDBLK
  5
24C
330
23A
100
AcDbEntity
  8
0
 62
     7
100
AcDbBlockEnd
  0
ENDSEC
  0
SECTION
  2
ENTITIES
  0
LINE
  5
62
330
2
100
AcDbEntity
  8
KIJUN
 62
     7
100
AcDbLine
 10
309.5858977112124
 20
24.37375520373695
 30
0.0
 11
49.5858977112125
 21
24.37375520373695
 31
0.0
  0
LINE
  5
64
330
2
100
AcDbEntity
  8
KIJUN
 62
     7
100
AcDbLine
 10
49.5858977112125
 20
48.85008214733493
 30
0.0
 11
309.5858977112124
 21
48.85008214733493
 31
0.0
  0
LINE
  5
65
330
2
100
AcDbEntity
  8
KIJUN
 62
     7
100
AcDbLine
 10
49.5858977112125
 20
40.86031867553542
 30
0.0
 11
309.5858977112124
 21
40.86031867553589
 31
0.0
  0
ARC
  5
66
330
2
100
AcDbEntity
  8
KIJUN
 62
     7
100
AcDbCircle
 10
167.6956818268708
 20
39.50018892133589
 30
0.0
 40
13.51341818519999
100
AcDbArc
 50
231.8719959439014
 51
256.2896119999993
  0
CIRCLE
  5
67
330
2
100
AcDbEntity
  8
KIJUN
 62
     7
100
AcDbCircle
 10
164.5507551354749
 20
37.48642232453682
 30
0.0
 40
1.251598030199999
  0
ARC
  5
68
330
2
100
AcDbEntity
  8
KIJUN
 62
     7
100
AcDbCircle
 10
151.2084633734215
 20
38.65995461729339
 30
0.0
 40
12.73429894948618
100
AcDbArc
 50
299.3846043590814
 51
348.7795373664547
  0
CIRCLE
  5
69
330
2
100
AcDbEntity
  8
KIJUN
 62
     7
100
AcDbCircle
 10
254.6210402869501
 20
37.48642232453682
 30
0.0
 40
0.3809255526
  0
ARC
  5
6A
330
2
100
AcDbEntity
  8
KIJUN
 62
     7
100
AcDbCircle
 10
254.5842046290369
 20
37.56788502881098
 30
0.0
 40
1.646051791635366
100
AcDbArc
 50
237.4666657179525
 51
302.6574811804139
  0
ARC
  5
6B
330
2
100
AcDbEntity
  8
KIJUN
 62
     7
100
AcDbCircle
 10
267.9633320490033
 20
38.65995461729339
 30
0.0
 40
12.73429894948618
100
AcDbArc
 50
191.2204626335453
 51
240.6153956409186
  0
CIRCLE
  5
6C
330
2
100
AcDbEntity
  8
KIJUN
 62
     7
100
AcDbCircle
 10
254.6210402869501
 20
37.48642232453682
 30
0.0
 40
1.251598030199999
  0
ARC
  5
6D
330
2
100
AcDbEntity
  8
KIJUN
 62
     7
100
AcDbCircle
 10
253.3886052238708
 20
35.18342912713668
 30
0.0
 40
8.880493389599998
100
AcDbArc
 50
277.1424559999997
 51
315.4632361014535
  0
ARC
  5
6E
330
2
100
AcDbEntity
  8
KIJUN
 62
     7
100
AcDbCircle
 10
267.9633320490033
 20
38.65995461729339
 30
0.0
 40
12.73429894948618
100
AcDbArc
 50
191.2204626335453
 51
240.6153956409186
  0
LINE
  5
6F
330
2
100
AcDbEntity
  8
KIJUN
 62
     7
100
AcDbLine
 10
306.2737646406044
 20
30.48559496173634
 30
0.0
 11
305.4942215718041
 21
29.73498030853586
 31
0.0
  0
LINE
  5
70
330
2
100
AcDbEntity
  8
KIJUN
 62
     7
100
AcDbLine
 10
293.6774079690043
 20
29.73494312293638
 30
0.0
 11
292.8978648240045
 21
30.48555777613418
 31
0.0
  0
LINE
  5
71
330
2
100
AcDbEntity
  8
KIJUN
 62
     7
100
AcDbLine
 10
305.4942215718041
 20
29.73498030853586
 30
0.0
 11
304.6674626970043
 21
29.08006218733641
 31
0.0
  0
LINE
  5
72
330
2
100
AcDbEntity
  8
KIJUN
 62
     7
100
AcDbLine
 10
294.5041760640046
 20
29.08006218733641
 30
0.0
 11
293.6774079690043
 21
29.73494312293638
 31
0.0
  0
ARC
  5
73
330
2
100
AcDbEntity
  8
KIJUN
 62
     7
100
AcDbCircle
 10
299.4363587574043
 20
47.63703180433693
 30
0.0
 40
21.50690349359999
100
AcDbArc
 50
248.9602359999974
 51
291.0405579999989
  0
LINE
  5
74
330
2
100
AcDbEntity
  8
KIJUN
 62
     7
100
AcDbLine
 10
303.8000924226043
 20
28.52612384893615
 30
0.0
 11
302.8990311564047
 21
28.0775559373347
 31
0.0
  0
LINE
  5
75
330
2
100
AcDbEntity
  8
KIJUN
 62
     7
100
AcDbLine
 10
302.8990311564047
 20
28.0775559373347
 30
0.0
 11
301.9714970196046
 21
27.73796736073524
 31
0.0
  0
LINE
  5
76
330
2
100
AcDbEntity
  8
KIJUN
 62
     7
100
AcDbLine
 10
301.9714970196046
 20
27.73796736073524
 30
0.0
 11
301.0248943662045
 21
27.51003708253627
 31
0.0
  0
LINE
  5
77
330
2
100
AcDbEntity
  8
KIJUN
 62
     7
100
AcDbLine
 10
301.0248943662045
 20
27.51003708253627
 30
0.0
 11
300.0667947330039
 21
27.39562544953566
 31
0.0
  0
LINE
  5
78
330
2
100
AcDbEntity
  8
KIJUN
 62
     7
100
AcDbLine
 10
300.0667947330039
 20
27.39562544953566
 30
0.0
 11
299.1048441042039
 21
27.39562544953566
 31
0.0
  0
LINE
  5
79
330
2
100
AcDbEntity
  8
KIJUN
 62
     7
100
AcDbLine
 10
299.1048441042039
 20
27.39562544953566
 30
0.0
 11
298.1467444710042
 21
27.51003708253627
 31
0.0
  0
LINE
  5
7A
330
2
100
AcDbEntity
  8
KIJUN
 62
     7
100
AcDbLine
 10
298.1467444710042
 20
27.51003708253627
 30
0.0
 11
297.2001417414044
 21
27.73796736073524
 31
0.0
  0
LINE
  5
7B
330
2
100
AcDbEntity
  8
KIJUN
 62
     7
100
AcDbLine
 10
297.2001417414044
 20
27.73796736073524
 30
0.0
 11
296.2726076808043
 21
28.0775559373347
 31
0.0
  0
LINE
  5
7C
330
2
100
AcDbEntity
  8
KIJUN
 62
     7
100
AcDbLine
 10
296.2726076808043
 20
28.0775559373347
 30
0.0
 11
295.3715464146039
 21
28.52612384893615
 31
0.0
  0
LINE
  5
7D
330
2
100
AcDbEntity
  8
KIJUN
 62
     7
100
AcDbLine
 10
304.6674626970043
 20
29.08006218733641
 30
0.0
 11
303.8000924226043
 21
28.52612384893615
 31
0.0
  0
LINE
  5
7E
330
2
100
AcDbEntity
  8
KIJUN
 62
     7
100
AcDbLine
 10
295.3715464146039
 20
28.52612384893615
 30
0.0
 11
294.5041760640046
 21
29.08006218733641
 31
0.0
  0
ARC
  5
7F
330
2
100
AcDbEntity
  8
KIJUN
 62
     7
100
AcDbCircle
 10
302.6128253280043
 20
43.01785326013678
 30
0.0
 40
15.94276410119999
100
AcDbArc
 50
222.0184019999924
 51
234.0824889999904
  0
LINE
  5
80
330
2
100
AcDbEntity
  8
KIJUN
 62
     7
100
AcDbLine
 10
309.2610148764042
 20
35.44052975593564
 30
0.0
 11
308.8018057110048
 21
34.31479378033697
 31
0.0
  0
LINE
  5
81
330
2
100
AcDbEntity
  8
KIJUN
 62
     7
100
AcDbLine
 10
308.8018057110048
 20
34.31479378033697
 30
0.0
 11
308.2689452070044
 21
33.24821704633411
 31
0.0
  0
LINE
  5
82
330
2
100
AcDbEntity
  8
KIJUN
 62
     7
100
AcDbLine
 10
308.2689452070044
 20
33.24821704633411
 30
0.0
 11
307.6666936302044
 21
32.24924548573523
 31
0.0
  0
LINE
  5
83
330
2
100
AcDbEntity
  8
KIJUN
 62
     7
100
AcDbLine
 10
307.6666936302044
 20
32.24924548573523
 30
0.0
 11
306.9998598864044
 21
31.32591576013742
 31
0.0
  0
LINE
  5
84
330
2
100
AcDbEntity
  8
KIJUN
 62
     7
100
AcDbLine
 10
306.9998598864044
 20
31.32591576013742
 30
0.0
 11
306.2737646406044
 21
30.48559496173634
 31
0.0
  0
LINE
  5
85
330
2
100
AcDbEntity
  8
KIJUN
 62
     7
100
AcDbLine
 10
292.8978648240045
 20
30.48555777613418
 30
0.0
 11
292.1717789508047
 21
31.32587857453433
 31
0.0
  0
LINE
  5
86
330
2
100
AcDbEntity
  8
KIJUN
 62
     7
100
AcDbLine
 10
292.1717789508047
 20
31.32587857453433
 30
0.0
 11
291.5049359106042
 21
32.24924548573523
 31
0.0
  0
LINE
  5
87
330
2
100
AcDbEntity
  8
KIJUN
 62
     7
100
AcDbLine
 10
291.5049359106042
 20
32.24924548573523
 30
0.0
 11
290.9026843338042
 21
33.24817986073464
 31
0.0
  0
LINE
  5
88
330
2
100
AcDbEntity
  8
KIJUN
 62
     7
100
AcDbLine
 10
290.9026843338042
 20
33.24817986073464
 30
0.0
 11
290.3698238298042
 21
34.31479378033697
 31
0.0
  0
LINE
  5
89
330
2
100
AcDbEntity
  8
KIJUN
 62
     7
100
AcDbLine
 10
290.3698238298042
 20
34.31479378033697
 30
0.0
 11
289.9106145882042
 21
35.44052975593564
 31
0.0
  0
LINE
  5
8A
330
2
100
AcDbEntity
  8
KIJUN
 62
     7
100
AcDbLine
 10
289.9106145882042
 20
35.44052975593564
 30
0.0
 11
289.5287309730047
 21
36.61634635273506
 31
0.0
  0
LINE
  5
8B
330
2
100
AcDbEntity
  8
KIJUN
 62
     7
100
AcDbLine
 10
289.5287309730047
 20
36.61634635273506
 30
0.0
 11
289.2272238036043
 21
37.83290465113675
 31
0.0
  0
LINE
  5
8C
330
2
100
AcDbEntity
  8
KIJUN
 62
     7
100
AcDbLine
 10
289.2272238036043
 20
37.83290465113675
 30
0.0
 11
289.0085115156044
 21
37.0804935707352
 31
0.0
  0
LINE
  5
8D
330
2
100
AcDbEntity
  8
KIJUN
 62
     7
100
AcDbLine
 10
289.0085115156044
 20
37.0804935707352
 30
0.0
 11
288.8743243824042
 21
38.3490673607344
 31
0.0
  0
LINE
  5
8E
330
2
100
AcDbEntity
  8
KIJUN
 62
     7
100
AcDbLine
 10
288.8743243824042
 20
38.3490673607344
 30
0.0
 11
288.8257506162044
 21
39.62854270373515
 31
0.0
  0
ARC
  5
8F
330
2
100
AcDbEntity
  8
KIJUN
 62
     7
100
AcDbCircle
 10
293.1979476380338
 20
39.67634051269721
 30
0.0
 40
4.372458282046931
100
AcDbArc
 50
164.2892601282435
 51
180.6263449742201
  0
ARC
  5
90
330
2
100
AcDbEntity
  8
KIJUN
 62
     7
100
AcDbCircle
 10
303.2131607796044
 20
40.37034979213654
 30
0.0
 40
13.4000890494
100
AcDbArc
 50
287.1204989999995
 51
298.3967441846374
  0
ARC
  5
91
330
2
100
AcDbEntity
  8
KIJUN
 62
     7
100
AcDbCircle
 10
298.6986828642047
 20
40.02860315533559
 30
0.0
 40
12.6948611736
100
AcDbArc
 50
274.0075379999991
 51
329.0490639059968
  0
LINE
  5
92
330
2
100
AcDbEntity
  8
KIJUN
 62
     7
100
AcDbLine
 10
309.5858977112124
 20
36.4408971938888
 30
0.0
 11
309.2610148764042
 21
35.44052975593564
 31
0.0
  0
ARC
  5
93
330
2
100
AcDbEntity
  8
KIJUN
 62
     7
100
AcDbCircle
 10
287.6956818268709
 20
39.50018892133589
 30
0.0
 40
13.51341818519999
100
AcDbArc
 50
231.8719959439014
 51
256.2896119999993
  0
CIRCLE
  5
94
330
2
100
AcDbEntity
  8
KIJUN
 62
     7
100
AcDbCircle
 10
284.5507551354748
 20
37.48642232453682
 30
0.0
 40
1.251598030199999
  0
ARC
  5
95
330
2
100
AcDbEntity
  8
KIJUN
 62
     7
100
AcDbCircle
 10
271.2084633734215
 20
38.65995461729339
 30
0.0
 40
12.73429894948618
100
AcDbArc
 50
299.3846043590814
 51
348.7795373664547
  0
CIRCLE
  5
96
330
2
100
AcDbEntity
  8
KIJUN
 62
     7
100
AcDbCircle
 10
284.62104028695
 20
37.48642232453682
 30
0.0
 40
0.3809255526
  0
ARC
  5
97
330
2
100
AcDbEntity
  8
KIJUN
 62
     7
100
AcDbCircle
 10
284.5875907933881
 20
37.56788502881098
 30
0.0
 40
1.646051791635366
100
AcDbArc
 50
237.3425188195861
 51
302.5333342820478
  0
CIRCLE
  5
98
330
2
100
AcDbEntity
  8
KIJUN
 62
     7
100
AcDbCircle
 10
284.5507551354748
 20
37.48642232453682
 30
0.0
 40
0.3809255526
  0
ARC
  5
99
330
2
100
AcDbEntity
  8
KIJUN
 62
     7
100
AcDbCircle
 10
269.7354366650206
 20
47.63703180433693
 30
0.0
 40
21.50690349359999
100
AcDbArc
 50
269.601615361945
 51
291.0397640000027
  0
LINE
  5
9A
330
2
100
AcDbEntity
  8
KIJUN
 62
     7
100
AcDbLine
 10
263.6774079690043
 20
29.73494312293638
 30
0.0
 11
262.8978648240044
 21
30.48555777613418
 31
0.0
  0
LINE
  5
9B
330
2
100
AcDbEntity
  8
KIJUN
 62
     7
100
AcDbLine
 10
264.5041760640046
 20
29.08006218733641
 30
0.0
 11
263.6774079690043
 21
29.73494312293638
 31
0.0
  0
LINE
  5
9C
330
2
100
AcDbEntity
  8
KIJUN
 62
     7
100
AcDbLine
 10
269.1048441042038
 20
27.39562544953566
 30
0.0
 11
268.1467444710041
 21
27.51003708253627
 31
0.0
  0
LINE
  5
9D
330
2
100
AcDbEntity
  8
KIJUN
 62
     7
100
AcDbLine
 10
268.1467444710041
 20
27.51003708253627
 30
0.0
 11
267.2001417414044
 21
27.73796736073524
 31
0.0
  0
LINE
  5
9E
330
2
100
AcDbEntity
  8
KIJUN
 62
     7
100
AcDbLine
 10
267.2001417414044
 20
27.73796736073524
 30
0.0
 11
266.2726076808044
 21
28.0775559373347
 31
0.0
  0
LINE
  5
9F
330
2
100
AcDbEntity
  8
KIJUN
 62
     7
100
AcDbLine
 10
266.2726076808044
 20
28.0775559373347
 30
0.0
 11
265.3715464146038
 21
28.52612384893615
 31
0.0
  0
LINE
  5
A0
330
2
100
AcDbEntity
  8
KIJUN
 62
     7
100
AcDbLine
 10
265.3715464146038
 20
28.52612384893615
 30
0.0
 11
264.5041760640046
 21
29.08006218733641
 31
0.0
  0
ARC
  5
A1
330
2
100
AcDbEntity
  8
KIJUN
 62
     7
100
AcDbCircle
 10
272.6128253280044
 20
43.01785326013678
 30
0.0
 40
15.94276410119999
100
AcDbArc
 50
222.0184019999924
 51
234.0824889999904
  0
ARC
  5
A2
330
2
100
AcDbEntity
  8
KIJUN
 62
     7
100
AcDbCircle
 10
267.7231220039132
 20
41.39458374528692
 30
0.0
 40
11.41224911265322
100
AcDbArc
 50
201.1839166824209
 51
232.4538089579184
  0
ARC
  5
A3
330
2
100
AcDbEntity
  8
KIJUN
 62
     7
100
AcDbCircle
 10
268.0911478842039
 20
40.30954301813614
 30
0.0
 40
11.42081797619999
100
AcDbArc
 50
177.2499139999979
 51
195.4431149999983
  0
LINE
  5
A4
330
2
100
AcDbEntity
  8
KIJUN
 62
     7
100
AcDbLine
 10
262.8978648240044
 20
30.48555777613418
 30
0.0
 11
262.1717789508048
 21
31.32587857453433
 31
0.0
  0
LINE
  5
A5
330
2
100
AcDbEntity
  8
KIJUN
 62
     7
100
AcDbLine
 10
262.1717789508048
 20
31.32587857453433
 30
0.0
 11
261.5049359106042
 21
32.24924548573523
 31
0.0
  0
LINE
  5
A6
330
2
100
AcDbEntity
  8
KIJUN
 62
     7
100
AcDbLine
 10
261.5049359106042
 20
32.24924548573523
 30
0.0
 11
260.9026843338043
 21
33.24817986073464
 31
0.0
  0
LINE
  5
A7
330
2
100
AcDbEntity
  8
KIJUN
 62
     7
100
AcDbLine
 10
260.9026843338043
 20
33.24817986073464
 30
0.0
 11
260.3698238298044
 21
34.31479378033697
 31
0.0
  0
LINE
  5
A8
330
2
100
AcDbEntity
  8
KIJUN
 62
     7
100
AcDbLine
 10
260.3698238298044
 20
34.31479378033697
 30
0.0
 11
259.9106145882042
 21
35.44052975593564
 31
0.0
  0
LINE
  5
A9
330
2
100
AcDbEntity
  8
KIJUN
 62
     7
100
AcDbLine
 10
259.9106145882042
 20
35.44052975593564
 30
0.0
 11
259.5287309730048
 21
36.61634635273506
 31
0.0
  0
LINE
  5
AA
330
2
100
AcDbEntity
  8
KIJUN
 62
     7
100
AcDbLine
 10
259.5287309730048
 20
36.61634635273506
 30
0.0
 11
259.2272238036045
 21
37.83290465113675
 31
0.0
  0
LINE
  5
AB
330
2
100
AcDbEntity
  8
KIJUN
 62
     7
100
AcDbLine
 10
259.2272238036045
 20
37.83290465113675
 30
0.0
 11
259.0085115156043
 21
37.0804935707352
 31
0.0
  0
LINE
  5
AC
330
2
100
AcDbEntity
  8
KIJUN
 62
     7
100
AcDbLine
 10
259.0085115156043
 20
37.0804935707352
 30
0.0
 11
258.8743243824042
 21
38.3490673607344
 31
0.0
  0
LINE
  5
AD
330
2
100
AcDbEntity
  8
KIJUN
 62
     7
100
AcDbLine
 10
258.8743243824042
 20
38.3490673607344
 30
0.0
 11
258.8257506162044
 21
39.62854270373515
 31
0.0
  0
ARC
  5
AE
330
2
100
AcDbEntity
  8
KIJUN
 62
     7
100
AcDbCircle
 10
263.1979476380337
 20
39.67634051269721
 30
0.0
 40
4.372458282046931
100
AcDbArc
 50
164.2892601282435
 51
180.6263449742201
  0
ARC
  5
AF
330
2
100
AcDbEntity
  8
KIJUN
 62
     7
100
AcDbCircle
 10
269.4363587574043
 20
47.63703180433693
 30
0.0
 40
21.50690349359999
100
AcDbArc
 50
248.9602359999974
 51
270.398384638055
  0
LINE
  5
B0
330
2
100
AcDbEntity
  8
KIJUN
 62
     7
100
AcDbLine
 10
269.5858977112124
 20
27.3956254495352
 30
0.0
 11
269.1048441042038
 21
27.39562544953566
 31
0.0
  0
LINE
  5
B1
330
2
100
AcDbEntity
  8
KIJUN
 62
     7
100
AcDbLine
 10
269.5858977112124
 20
27.3956254495352
 30
0.0
 11
270.066951318221
 21
27.39562544953566
 31
0.0
  0
ARC
  5
B2
330
2
100
AcDbEntity
  8
KIJUN
 62
     7
100
AcDbCircle
 10
275.9738477843911
 20
39.67634051269721
 30
0.0
 40
4.372458282046931
100
AcDbArc
 50
359.3736550257799
 51
15.71073987175645
  0
LINE
  5
B3
330
2
100
AcDbEntity
  8
KIJUN
 62
     7
100
AcDbLine
 10
280.2974710400207
 20
38.3490673607344
 30
0.0
 11
280.3460448062206
 21
39.62854270373515
 31
0.0
  0
LINE
  5
B4
330
2
100
AcDbEntity
  8
KIJUN
 62
     7
100
AcDbLine
 10
280.1632839068206
 20
37.0804935707352
 30
0.0
 11
280.2974710400207
 21
38.3490673607344
 31
0.0
  0
LINE
  5
B5
330
2
100
AcDbEntity
  8
KIJUN
 62
     7
100
AcDbLine
 10
279.9445716188206
 20
37.83290465113675
 30
0.0
 11
280.1632839068206
 21
37.0804935707352
 31
0.0
  0
LINE
  5
B6
330
2
100
AcDbEntity
  8
KIJUN
 62
     7
100
AcDbLine
 10
279.6430644494202
 20
36.61634635273506
 30
0.0
 11
279.9445716188206
 21
37.83290465113675
 31
0.0
  0
LINE
  5
B7
330
2
100
AcDbEntity
  8
KIJUN
 62
     7
100
AcDbLine
 10
279.2611808342207
 20
35.44052975593564
 30
0.0
 11
279.6430644494202
 21
36.61634635273506
 31
0.0
  0
LINE
  5
B8
330
2
100
AcDbEntity
  8
KIJUN
 62
     7
100
AcDbLine
 10
278.8019715926207
 20
34.31479378033697
 30
0.0
 11
279.2611808342207
 21
35.44052975593564
 31
0.0
  0
LINE
  5
B9
330
2
100
AcDbEntity
  8
KIJUN
 62
     7
100
AcDbLine
 10
278.2691110886207
 20
33.24817986073464
 30
0.0
 11
278.8019715926207
 21
34.31479378033697
 31
0.0
  0
LINE
  5
BA
330
2
100
AcDbEntity
  8
KIJUN
 62
     7
100
AcDbLine
 10
277.6668595118207
 20
32.24924548573523
 30
0.0
 11
278.2691110886207
 21
33.24817986073464
 31
0.0
  0
LINE
  5
BB
330
2
100
AcDbEntity
  8
KIJUN
 62
     7
100
AcDbLine
 10
277.0000164716202
 20
31.32587857453433
 30
0.0
 11
277.6668595118207
 21
32.24924548573523
 31
0.0
  0
LINE
  5
BC
330
2
100
AcDbEntity
  8
KIJUN
 62
     7
100
AcDbLine
 10
276.2739305984204
 20
30.48555777613418
 30
0.0
 11
277.0000164716202
 21
31.32587857453433
 31
0.0
  0
ARC
  5
BD
330
2
100
AcDbEntity
  8
KIJUN
 62
     7
100
AcDbCircle
 10
271.0806475382209
 20
40.30954301813614
 30
0.0
 40
11.42081797619999
100
AcDbArc
 50
344.5568850000017
 51
2.750086000002156
  0
ARC
  5
BE
330
2
100
AcDbEntity
  8
KIJUN
 62
     7
100
AcDbCircle
 10
271.4486734185117
 20
41.39458374528692
 30
0.0
 40
11.4122491126532
100
AcDbArc
 50
307.5461910420818
 51
338.8160833175793
  0
ARC
  5
BF
330
2
100
AcDbEntity
  8
KIJUN
 62
     7
100
AcDbCircle
 10
266.5589700944205
 20
43.01785326013678
 30
0.0
 40
15.94276410119999
100
AcDbArc
 50
305.9175110000095
 51
317.9815980000076
  0
LINE
  5
C0
330
2
100
AcDbEntity
  8
KIJUN
 62
     7
100
AcDbLine
 10
273.800249007821
 20
28.52612384893615
 30
0.0
 11
274.6676193584203
 21
29.08006218733641
 31
0.0
  0
LINE
  5
C1
330
2
100
AcDbEntity
  8
KIJUN
 62
     7
100
AcDbLine
 10
272.8991877416206
 20
28.0775559373347
 30
0.0
 11
273.800249007821
 21
28.52612384893615
 31
0.0
  0
LINE
  5
C2
330
2
100
AcDbEntity
  8
KIJUN
 62
     7
100
AcDbLine
 10
271.9716536810206
 20
27.73796736073524
 30
0.0
 11
272.8991877416206
 21
28.0775559373347
 31
0.0
  0
LINE
  5
C3
330
2
100
AcDbEntity
  8
KIJUN
 62
     7
100
AcDbLine
 10
271.0250509514207
 20
27.51003708253627
 30
0.0
 11
271.9716536810206
 21
27.73796736073524
 31
0.0
  0
LINE
  5
C4
330
2
100
AcDbEntity
  8
KIJUN
 62
     7
100
AcDbLine
 10
270.066951318221
 20
27.39562544953566
 30
0.0
 11
271.0250509514207
 21
27.51003708253627
 31
0.0
  0
LINE
  5
C5
330
2
100
AcDbEntity
  8
KIJUN
 62
     7
100
AcDbLine
 10
274.6676193584203
 20
29.08006218733641
 30
0.0
 11
275.4943874534205
 21
29.73494312293638
 31
0.0
  0
LINE
  5
C6
330
2
100
AcDbEntity
  8
KIJUN
 62
     7
100
AcDbLine
 10
275.4943874534205
 20
29.73494312293638
 30
0.0
 11
276.2739305984204
 21
30.48555777613418
 31
0.0
  0
ARC
  5
C7
330
2
100
AcDbEntity
  8
KIJUN
 62
     7
100
AcDbCircle
 10
283.3886052238709
 20
35.18342912713668
 30
0.0
 40
8.880493389599998
100
AcDbArc
 50
277.1424559999997
 51
315.4632361014535
  0
ARC
  5
C8
330
2
100
AcDbEntity
  8
KIJUN
 62
     7
100
AcDbCircle
 10
297.9633320490033
 20
38.65995461729339
 30
0.0
 40
12.73429894948618
100
AcDbArc
 50
191.2204626335453
 51
240.6153956409186
  0
ARC
  5
C9
330
2
100
AcDbEntity
  8
KIJUN
 62
     7
100
AcDbCircle
 10
297.7231220039132
 20
41.39458374528692
 30
0.0
 40
11.41224911265321
100
AcDbArc
 50
201.1839166824208
 51
232.4538089579182
  0
ARC
  5
CA
330
2
100
AcDbEntity
  8
KIJUN
 62
     7
100
AcDbCircle
 10
298.0911478842039
 20
40.30954301813614
 30
0.0
 40
11.42081797619999
100
AcDbArc
 50
177.2499139999979
 51
195.4431149999983
  0
LINE
  5
CB
330
2
100
AcDbEntity
  8
KIJUN
 62
     7
100
AcDbLine
 10
203.6774079690045
 20
29.73494312293638
 30
0.0
 11
202.8978648240044
 21
30.48555777613418
 31
0.0
  0
LINE
  5
CC
330
2
100
AcDbEntity
  8
KIJUN
 62
     7
100
AcDbLine
 10
204.5041760640046
 20
29.08006218733641
 30
0.0
 11
203.6774079690045
 21
29.73494312293638
 31
0.0
  0
LINE
  5
CD
330
2
100
AcDbEntity
  8
KIJUN
 62
     7
100
AcDbLine
 10
209.104844104204
 20
27.39562544953566
 30
0.0
 11
208.1467444710041
 21
27.51003708253627
 31
0.0
  0
LINE
  5
CE
330
2
100
AcDbEntity
  8
KIJUN
 62
     7
100
AcDbLine
 10
208.1467444710041
 20
27.51003708253627
 30
0.0
 11
207.2001417414045
 21
27.73796736073524
 31
0.0
  0
LINE
  5
CF
330
2
100
AcDbEntity
  8
KIJUN
 62
     7
100
AcDbLine
 10
207.2001417414045
 20
27.73796736073524
 30
0.0
 11
206.2726076808045
 21
28.0775559373347
 31
0.0
  0
LINE
  5
D0
330
2
100
AcDbEntity
  8
KIJUN
 62
     7
100
AcDbLine
 10
206.2726076808045
 20
28.0775559373347
 30
0.0
 11
205.3715464146039
 21
28.52612384893615
 31
0.0
  0
LINE
  5
D1
330
2
100
AcDbEntity
  8
KIJUN
 62
     7
100
AcDbLine
 10
205.3715464146039
 20
28.52612384893615
 30
0.0
 11
204.5041760640046
 21
29.08006218733641
 31
0.0
  0
ARC
  5
D2
330
2
100
AcDbEntity
  8
KIJUN
 62
     7
100
AcDbCircle
 10
212.6128253280046
 20
43.01785326013678
 30
0.0
 40
15.94276410119999
100
AcDbArc
 50
222.0184019999924
 51
234.0824889999904
  0
ARC
  5
D3
330
2
100
AcDbEntity
  8
KIJUN
 62
     7
100
AcDbCircle
 10
207.7231220039134
 20
41.39458374528689
 30
0.0
 40
11.41224911265318
100
AcDbArc
 50
201.1839166824206
 51
232.4538089579182
  0
ARC
  5
D4
330
2
100
AcDbEntity
  8
KIJUN
 62
     7
100
AcDbCircle
 10
208.0911478842039
 20
40.30954301813614
 30
0.0
 40
11.42081797619999
100
AcDbArc
 50
177.2499139999979
 51
195.4431149999983
  0
LINE
  5
D5
330
2
100
AcDbEntity
  8
KIJUN
 62
     7
100
AcDbLine
 10
202.8978648240044
 20
30.48555777613418
 30
0.0
 11
202.1717789508048
 21
31.32587857453433
 31
0.0
  0
LINE
  5
D6
330
2
100
AcDbEntity
  8
KIJUN
 62
     7
100
AcDbLine
 10
202.1717789508048
 20
31.32587857453433
 30
0.0
 11
201.5049359106041
 21
32.24924548573523
 31
0.0
  0
LINE
  5
D7
330
2
100
AcDbEntity
  8
KIJUN
 62
     7
100
AcDbLine
 10
201.5049359106041
 20
32.24924548573523
 30
0.0
 11
200.9026843338041
 21
33.24817986073464
 31
0.0
  0
LINE
  5
D8
330
2
100
AcDbEntity
  8
KIJUN
 62
     7
100
AcDbLine
 10
200.9026843338041
 20
33.24817986073464
 30
0.0
 11
200.3698238298044
 21
34.31479378033697
 31
0.0
  0
LINE
  5
D9
330
2
100
AcDbEntity
  8
KIJUN
 62
     7
100
AcDbLine
 10
200.3698238298044
 20
34.31479378033697
 30
0.0
 11
199.9106145882041
 21
35.44052975593564
 31
0.0
  0
LINE
  5
DA
330
2
100
AcDbEntity
  8
KIJUN
 62
     7
100
AcDbLine
 10
199.9106145882041
 20
35.44052975593564
 30
0.0
 11
199.5287309730046
 21
36.61634635273506
 31
0.0
  0
LINE
  5
DB
330
2
100
AcDbEntity
  8
KIJUN
 62
     7
100
AcDbLine
 10
199.5287309730046
 20
36.61634635273506
 30
0.0
 11
199.2272238036044
 21
37.83290465113675
 31
0.0
  0
LINE
  5
DC
330
2
100
AcDbEntity
  8
KIJUN
 62
     7
100
AcDbLine
 10
199.2272238036044
 20
37.83290465113675
 30
0.0
 11
199.0085115156043
 21
37.0804935707352
 31
0.0
  0
LINE
  5
DD
330
2
100
AcDbEntity
  8
KIJUN
 62
     7
100
AcDbLine
 10
199.0085115156043
 20
37.0804935707352
 30
0.0
 11
198.8743243824041
 21
38.3490673607344
 31
0.0
  0
LINE
  5
DE
330
2
100
AcDbEntity
  8
KIJUN
 62
     7
100
AcDbLine
 10
198.8743243824041
 20
38.3490673607344
 30
0.0
 11
198.8257506162044
 21
39.62854270373515
 31
0.0
  0
ARC
  5
DF
330
2
100
AcDbEntity
  8
KIJUN
 62
     7
100
AcDbCircle
 10
203.1979476380339
 20
39.67634051269721
 30
0.0
 40
4.372458282046931
100
AcDbArc
 50
164.2892601282435
 51
180.6263449742201
  0
LINE
  5
E0
330
2
100
AcDbEntity
  8
KIJUN
 62
     7
100
AcDbLine
 10
209.5858977112126
 20
27.3956254495352
 30
0.0
 11
209.104844104204
 21
27.39562544953566
 31
0.0
  0
ARC
  5
E1
330
2
100
AcDbEntity
  8
KIJUN
 62
     7
100
AcDbCircle
 10
211.2084633734216
 20
38.65995461729339
 30
0.0
 40
12.73429894948618
100
AcDbArc
 50
299.3846043590814
 51
348.7795373664547
  0
ARC
  5
E2
330
2
100
AcDbEntity
  8
KIJUN
 62
     7
100
AcDbCircle
 10
225.7831901985541
 20
35.18342912713668
 30
0.0
 40
8.880493389599998
100
AcDbArc
 50
224.5367638985464
 51
262.8575440000007
  0
CIRCLE
  5
E3
330
2
100
AcDbEntity
  8
KIJUN
 62
     7
100
AcDbCircle
 10
224.550755135475
 20
37.48642232453682
 30
0.0
 40
1.251598030199999
  0
ARC
  5
E4
330
2
100
AcDbEntity
  8
KIJUN
 62
     7
100
AcDbCircle
 10
211.2084633734216
 20
38.65995461729339
 30
0.0
 40
12.73429894948618
100
AcDbArc
 50
299.3846043590814
 51
348.7795373664547
  0
CIRCLE
  5
E5
330
2
100
AcDbEntity
  8
KIJUN
 62
     7
100
AcDbCircle
 10
224.6210402869501
 20
37.48642232453682
 30
0.0
 40
0.3809255526
  0
ARC
  5
E6
330
2
100
AcDbEntity
  8
KIJUN
 62
     7
100
AcDbCircle
 10
223.3886052238708
 20
35.18342912713668
 30
0.0
 40
8.880493389599998
100
AcDbArc
 50
277.1424559999997
 51
315.4632361014535
  0
ARC
  5
E7
330
2
100
AcDbEntity
  8
KIJUN
 62
     7
100
AcDbCircle
 10
224.5875907933883
 20
37.56788502881098
 30
0.0
 40
1.646051791635366
100
AcDbArc
 50
237.3425188195861
 51
302.5333342820478
  0
CIRCLE
  5
E8
330
2
100
AcDbEntity
  8
KIJUN
 62
     7
100
AcDbCircle
 10
224.550755135475
 20
37.48642232453682
 30
0.0
 40
0.3809255526
  0
ARC
  5
E9
330
2
100
AcDbEntity
  8
KIJUN
 62
     7
100
AcDbCircle
 10
237.9633320490035
 20
38.65995461729339
 30
0.0
 40
12.73429894948618
100
AcDbArc
 50
191.2204626335453
 51
240.6153956409186
  0
LINE
  5
EA
330
2
100
AcDbEntity
  8
KIJUN
 62
     7
100
AcDbLine
 10
246.2737646406045
 20
30.48559496173634
 30
0.0
 11
245.4942215718042
 21
29.73498030853586
 31
0.0
  0
LINE
  5
EB
330
2
100
AcDbEntity
  8
KIJUN
 62
     7
100
AcDbLine
 10
233.6774079690045
 20
29.73494312293638
 30
0.0
 11
232.8978648240046
 21
30.48555777613418
 31
0.0
  0
ARC
  5
EC
330
2
100
AcDbEntity
  8
KIJUN
 62
     7
100
AcDbCircle
 10
238.6986828642047
 20
40.02860315533559
 30
0.0
 40
12.6948611736
100
AcDbArc
 50
274.0075379999991
 51
333.3732759999896
  0
LINE
  5
ED
330
2
100
AcDbEntity
  8
KIJUN
 62
     7
100
AcDbLine
 10
245.4942215718042
 20
29.73498030853586
 30
0.0
 11
244.6674626970045
 21
29.08006218733641
 31
0.0
  0
LINE
  5
EE
330
2
100
AcDbEntity
  8
KIJUN
 62
     7
100
AcDbLine
 10
234.5041760640048
 20
29.08006218733641
 30
0.0
 11
233.6774079690045
 21
29.73494312293638
 31
0.0
  0
ARC
  5
EF
330
2
100
AcDbEntity
  8
KIJUN
 62
     7
100
AcDbCircle
 10
239.4363587574044
 20
47.63703180433693
 30
0.0
 40
21.50690349359999
100
AcDbArc
 50
248.9602359999974
 51
291.0405579999989
  0
LINE
  5
F0
330
2
100
AcDbEntity
  8
KIJUN
 62
     7
100
AcDbLine
 10
243.8000924226045
 20
28.52612384893615
 30
0.0
 11
242.8990311564049
 21
28.0775559373347
 31
0.0
  0
LINE
  5
F1
330
2
100
AcDbEntity
  8
KIJUN
 62
     7
100
AcDbLine
 10
242.8990311564049
 20
28.0775559373347
 30
0.0
 11
241.9714970196046
 21
27.73796736073524
 31
0.0
  0
LINE
  5
F2
330
2
100
AcDbEntity
  8
KIJUN
 62
     7
100
AcDbLine
 10
241.9714970196046
 20
27.73796736073524
 30
0.0
 11
241.0248943662046
 21
27.51003708253627
 31
0.0
  0
LINE
  5
F3
330
2
100
AcDbEntity
  8
KIJUN
 62
     7
100
AcDbLine
 10
241.0248943662046
 20
27.51003708253627
 30
0.0
 11
240.066794733004
 21
27.39562544953566
 31
0.0
  0
LINE
  5
F4
330
2
100
AcDbEntity
  8
KIJUN
 62
     7
100
AcDbLine
 10
240.066794733004
 20
27.39562544953566
 30
0.0
 11
239.1048441042039
 21
27.39562544953566
 31
0.0
  0
LINE
  5
F5
330
2
100
AcDbEntity
  8
KIJUN
 62
     7
100
AcDbLine
 10
239.1048441042039
 20
27.39562544953566
 30
0.0
 11
238.1467444710042
 21
27.51003708253627
 31
0.0
  0
LINE
  5
F6
330
2
100
AcDbEntity
  8
KIJUN
 62
     7
100
AcDbLine
 10
238.1467444710042
 20
27.51003708253627
 30
0.0
 11
237.2001417414045
 21
27.73796736073524
 31
0.0
  0
LINE
  5
F7
330
2
100
AcDbEntity
  8
KIJUN
 62
     7
100
AcDbLine
 10
237.2001417414045
 20
27.73796736073524
 30
0.0
 11
236.2726076808045
 21
28.0775559373347
 31
0.0
  0
LINE
  5
F8
330
2
100
AcDbEntity
  8
KIJUN
 62
     7
100
AcDbLine
 10
236.2726076808045
 20
28.0775559373347
 30
0.0
 11
235.3715464146039
 21
28.52612384893615
 31
0.0
  0
LINE
  5
F9
330
2
100
AcDbEntity
  8
KIJUN
 62
     7
100
AcDbLine
 10
244.6674626970045
 20
29.08006218733641
 30
0.0
 11
243.8000924226045
 21
28.52612384893615
 31
0.0
  0
LINE
  5
FA
330
2
100
AcDbEntity
  8
KIJUN
 62
     7
100
AcDbLine
 10
235.3715464146039
 20
28.52612384893615
 30
0.0
 11
234.5041760640048
 21
29.08006218733641
 31
0.0
  0
ARC
  5
FB
330
2
100
AcDbEntity
  8
KIJUN
 62
     7
100
AcDbCircle
 10
242.6128253280044
 20
43.01785326013678
 30
0.0
 40
15.94276410119999
100
AcDbArc
 50
222.0184019999924
 51
234.0824889999904
  0
ARC
  5
FC
330
2
100
AcDbEntity
  8
KIJUN
 62
     7
100
AcDbCircle
 10
237.7231220039134
 20
41.39458374528692
 30
0.0
 40
11.41224911265323
100
AcDbArc
 50
201.1839166824208
 51
232.4538089579184
  0
ARC
  5
FD
330
2
100
AcDbEntity
  8
KIJUN
 62
     7
100
AcDbCircle
 10
238.091147884204
 20
40.30954301813614
 30
0.0
 40
11.42081797619999
100
AcDbArc
 50
177.2499139999979
 51
195.4431149999983
  0
LINE
  5
FE
330
2
100
AcDbEntity
  8
KIJUN
 62
     7
100
AcDbLine
 10
250.3084579428041
 20
40.9087250303351
 30
0.0
 11
250.3458696282042
 21
39.62857996553663
 31
0.0
  0
LINE
  5
FF
330
2
100
AcDbEntity
  8
KIJUN
 62
     7
100
AcDbLine
 10
250.3458696282042
 20
39.62857996553663
 30
0.0
 11
250.2972958620045
 21
38.3490673607344
 31
0.0
  0
LINE
  5
100
330
2
100
AcDbEntity
  8
KIJUN
 62
     7
100
AcDbLine
 10
250.2972958620045
 20
38.3490673607344
 30
0.0
 11
250.1631179490042
 21
37.0804935707352
 31
0.0
  0
LINE
  5
101
330
2
100
AcDbEntity
  8
KIJUN
 62
     7
100
AcDbLine
 10
250.1631179490042
 20
37.0804935707352
 30
0.0
 11
249.9443964408046
 21
37.83294183673621
 31
0.0
  0
LINE
  5
102
330
2
100
AcDbEntity
  8
KIJUN
 62
     7
100
AcDbLine
 10
249.9443964408046
 20
37.83294183673621
 30
0.0
 11
249.6428892714049
 21
36.61638353833729
 31
0.0
  0
LINE
  5
103
330
2
100
AcDbEntity
  8
KIJUN
 62
     7
100
AcDbLine
 10
249.6428892714049
 20
36.61638353833729
 30
0.0
 11
249.2610148764044
 21
35.44052975593564
 31
0.0
  0
LINE
  5
104
330
2
100
AcDbEntity
  8
KIJUN
 62
     7
100
AcDbLine
 10
249.2610148764044
 20
35.44052975593564
 30
0.0
 11
248.8018057110048
 21
34.31479378033697
 31
0.0
  0
LINE
  5
105
330
2
100
AcDbEntity
  8
KIJUN
 62
     7
100
AcDbLine
 10
248.8018057110048
 20
34.31479378033697
 30
0.0
 11
248.2689452070045
 21
33.24821704633411
 31
0.0
  0
LINE
  5
106
330
2
100
AcDbEntity
  8
KIJUN
 62
     7
100
AcDbLine
 10
248.2689452070045
 20
33.24821704633411
 30
0.0
 11
247.6666936302045
 21
32.24924548573523
 31
0.0
  0
LINE
  5
107
330
2
100
AcDbEntity
  8
KIJUN
 62
     7
100
AcDbLine
 10
247.6666936302045
 20
32.24924548573523
 30
0.0
 11
246.9998598864045
 21
31.32591576013742
 31
0.0
  0
LINE
  5
108
330
2
100
AcDbEntity
  8
KIJUN
 62
     7
100
AcDbLine
 10
246.9998598864045
 20
31.32591576013742
 30
0.0
 11
246.2737646406045
 21
30.48559496173634
 31
0.0
  0
LINE
  5
109
330
2
100
AcDbEntity
  8
KIJUN
 62
     7
100
AcDbLine
 10
232.8978648240046
 20
30.48555777613418
 30
0.0
 11
232.1717789508049
 21
31.32587857453433
 31
0.0
  0
LINE
  5
10A
330
2
100
AcDbEntity
  8
KIJUN
 62
     7
100
AcDbLine
 10
232.1717789508049
 20
31.32587857453433
 30
0.0
 11
231.5049359106042
 21
32.24924548573523
 31
0.0
  0
LINE
  5
10B
330
2
100
AcDbEntity
  8
KIJUN
 62
     7
100
AcDbLine
 10
231.5049359106042
 20
32.24924548573523
 30
0.0
 11
230.9026843338043
 21
33.24817986073464
 31
0.0
  0
LINE
  5
10C
330
2
100
AcDbEntity
  8
KIJUN
 62
     7
100
AcDbLine
 10
230.9026843338043
 20
33.24817986073464
 30
0.0
 11
230.3698238298044
 21
34.31479378033697
 31
0.0
  0
LINE
  5
10D
330
2
100
AcDbEntity
  8
KIJUN
 62
     7
100
AcDbLine
 10
230.3698238298044
 20
34.31479378033697
 30
0.0
 11
229.9106145882042
 21
35.44052975593564
 31
0.0
  0
LINE
  5
10E
330
2
100
AcDbEntity
  8
KIJUN
 62
     7
100
AcDbLine
 10
229.9106145882042
 20
35.44052975593564
 30
0.0
 11
229.5287309730049
 21
36.61634635273506
 31
0.0
  0
LINE
  5
10F
330
2
100
AcDbEntity
  8
KIJUN
 62
     7
100
AcDbLine
 10
229.5287309730049
 20
36.61634635273506
 30
0.0
 11
229.2272238036045
 21
37.83290465113675
 31
0.0
  0
LINE
  5
110
330
2
100
AcDbEntity
  8
KIJUN
 62
     7
100
AcDbLine
 10
229.2272238036045
 20
37.83290465113675
 30
0.0
 11
229.0085115156045
 21
37.0804935707352
 31
0.0
  0
LINE
  5
111
330
2
100
AcDbEntity
  8
KIJUN
 62
     7
100
AcDbLine
 10
229.0085115156045
 20
37.0804935707352
 30
0.0
 11
228.8743243824043
 21
38.3490673607344
 31
0.0
  0
LINE
  5
112
330
2
100
AcDbEntity
  8
KIJUN
 62
     7
100
AcDbLine
 10
228.8743243824043
 20
38.3490673607344
 30
0.0
 11
228.8257506162044
 21
39.62854270373515
 31
0.0
  0
ARC
  5
113
330
2
100
AcDbEntity
  8
KIJUN
 62
     7
100
AcDbCircle
 10
233.1979476380338
 20
39.67634051269721
 30
0.0
 40
4.372458282046931
100
AcDbArc
 50
164.2892601282435
 51
180.6263449742201
  0
LINE
  5
114
330
2
100
AcDbEntity
  8
KIJUN
 62
     7
100
AcDbLine
 10
209.5858977112126
 20
27.3956254495352
 30
0.0
 11
210.066951318221
 21
27.39562544953566
 31
0.0
  0
ARC
  5
115
330
2
100
AcDbEntity
  8
KIJUN
 62
     7
100
AcDbCircle
 10
209.7354366650206
 20
47.63703180433693
 30
0.0
 40
21.50690349359999
100
AcDbArc
 50
269.601615361945
 51
291.0397640000027
  0
ARC
  5
116
330
2
100
AcDbEntity
  8
KIJUN
 62
     7
100
AcDbCircle
 10
215.9738477843912
 20
39.67634051269721
 30
0.0
 40
4.372458282046931
100
AcDbArc
 50
359.3736550257799
 51
15.71073987175645
  0
LINE
  5
117
330
2
100
AcDbEntity
  8
KIJUN
 62
     7
100
AcDbLine
 10
220.2974710400209
 20
38.3490673607344
 30
0.0
 11
220.3460448062205
 21
39.62854270373515
 31
0.0
  0
LINE
  5
118
330
2
100
AcDbEntity
  8
KIJUN
 62
     7
100
AcDbLine
 10
220.1632839068206
 20
37.0804935707352
 30
0.0
 11
220.2974710400209
 21
38.3490673607344
 31
0.0
  0
LINE
  5
119
330
2
100
AcDbEntity
  8
KIJUN
 62
     7
100
AcDbLine
 10
219.9445716188206
 20
37.83290465113675
 30
0.0
 11
220.1632839068206
 21
37.0804935707352
 31
0.0
  0
LINE
  5
11A
330
2
100
AcDbEntity
  8
KIJUN
 62
     7
100
AcDbLine
 10
219.6430644494204
 20
36.61634635273506
 30
0.0
 11
219.9445716188206
 21
37.83290465113675
 31
0.0
  0
LINE
  5
11B
330
2
100
AcDbEntity
  8
KIJUN
 62
     7
100
AcDbLine
 10
219.2611808342209
 20
35.44052975593564
 30
0.0
 11
219.6430644494204
 21
36.61634635273506
 31
0.0
  0
LINE
  5
11C
330
2
100
AcDbEntity
  8
KIJUN
 62
     7
100
AcDbLine
 10
218.8019715926207
 20
34.31479378033697
 30
0.0
 11
219.2611808342209
 21
35.44052975593564
 31
0.0
  0
LINE
  5
11D
330
2
100
AcDbEntity
  8
KIJUN
 62
     7
100
AcDbLine
 10
218.2691110886209
 20
33.24817986073464
 30
0.0
 11
218.8019715926207
 21
34.31479378033697
 31
0.0
  0
LINE
  5
11E
330
2
100
AcDbEntity
  8
KIJUN
 62
     7
100
AcDbLine
 10
217.6668595118209
 20
32.24924548573523
 30
0.0
 11
218.2691110886209
 21
33.24817986073464
 31
0.0
  0
LINE
  5
11F
330
2
100
AcDbEntity
  8
KIJUN
 62
     7
100
AcDbLine
 10
217.0000164716202
 20
31.32587857453433
 30
0.0
 11
217.6668595118209
 21
32.24924548573523
 31
0.0
  0
LINE
  5
120
330
2
100
AcDbEntity
  8
KIJUN
 62
     7
100
AcDbLine
 10
216.2739305984207
 20
30.48555777613418
 30
0.0
 11
217.0000164716202
 21
31.32587857453433
 31
0.0
  0
ARC
  5
121
330
2
100
AcDbEntity
  8
KIJUN
 62
     7
100
AcDbCircle
 10
211.0806475382209
 20
40.30954301813614
 30
0.0
 40
11.42081797619999
100
AcDbArc
 50
344.5568850000017
 51
2.750086000002156
  0
ARC
  5
122
330
2
100
AcDbEntity
  8
KIJUN
 62
     7
100
AcDbCircle
 10
211.4486734185117
 20
41.39458374528692
 30
0.0
 40
11.41224911265318
100
AcDbArc
 50
307.5461910420818
 51
338.8160833175795
  0
ARC
  5
123
330
2
100
AcDbEntity
  8
KIJUN
 62
     7
100
AcDbCircle
 10
206.5589700944207
 20
43.01785326013678
 30
0.0
 40
15.94276410119999
100
AcDbArc
 50
305.9175110000095
 51
317.9815980000076
  0
LINE
  5
124
330
2
100
AcDbEntity
  8
KIJUN
 62
     7
100
AcDbLine
 10
213.8002490078211
 20
28.52612384893615
 30
0.0
 11
214.6676193584204
 21
29.08006218733641
 31
0.0
  0
LINE
  5
125
330
2
100
AcDbEntity
  8
KIJUN
 62
     7
100
AcDbLine
 10
212.8991877416206
 20
28.0775559373347
 30
0.0
 11
213.8002490078211
 21
28.52612384893615
 31
0.0
  0
LINE
  5
126
330
2
100
AcDbEntity
  8
KIJUN
 62
     7
100
AcDbLine
 10
211.9716536810206
 20
27.73796736073524
 30
0.0
 11
212.8991877416206
 21
28.0775559373347
 31
0.0
  0
LINE
  5
127
330
2
100
AcDbEntity
  8
KIJUN
 62
     7
100
AcDbLine
 10
211.0250509514207
 20
27.51003708253627
 30
0.0
 11
211.9716536810206
 21
27.73796736073524
 31
0.0
  0
LINE
  5
128
330
2
100
AcDbEntity
  8
KIJUN
 62
     7
100
AcDbLine
 10
210.066951318221
 20
27.39562544953566
 30
0.0
 11
211.0250509514207
 21
27.51003708253627
 31
0.0
  0
LINE
  5
129
330
2
100
AcDbEntity
  8
KIJUN
 62
     7
100
AcDbLine
 10
214.6676193584204
 20
29.08006218733641
 30
0.0
 11
215.4943874534206
 21
29.73494312293638
 31
0.0
  0
LINE
  5
12A
330
2
100
AcDbEntity
  8
KIJUN
 62
     7
100
AcDbLine
 10
215.4943874534206
 20
29.73494312293638
 30
0.0
 11
216.2739305984207
 21
30.48555777613418
 31
0.0
  0
ARC
  5
12B
330
2
100
AcDbEntity
  8
KIJUN
 62
     7
100
AcDbCircle
 10
209.4363587574044
 20
47.63703180433693
 30
0.0
 40
21.50690349359999
100
AcDbArc
 50
248.9602359999974
 51
270.398384638055
  0
ARC
  5
12C
330
2
100
AcDbEntity
  8
KIJUN
 62
     7
100
AcDbCircle
 10
245.9738477843911
 20
39.67634051269721
 30
0.0
 40
4.372458282046931
100
AcDbArc
 50
359.3736550257799
 51
15.71073987175645
  0
LINE
  5
12D
330
2
100
AcDbEntity
  8
KIJUN
 62
     7
100
AcDbLine
 10
250.2974710400208
 20
38.3490673607344
 30
0.0
 11
250.3460448062206
 21
39.62854270373515
 31
0.0
  0
LINE
  5
12E
330
2
100
AcDbEntity
  8
KIJUN
 62
     7
100
AcDbLine
 10
250.1632839068206
 20
37.0804935707352
 30
0.0
 11
250.2974710400208
 21
38.3490673607344
 31
0.0
  0
LINE
  5
12F
330
2
100
AcDbEntity
  8
KIJUN
 62
     7
100
AcDbLine
 10
249.9445716188207
 20
37.83290465113675
 30
0.0
 11
250.1632839068206
 21
37.0804935707352
 31
0.0
  0
LINE
  5
130
330
2
100
AcDbEntity
  8
KIJUN
 62
     7
100
AcDbLine
 10
249.6430644494204
 20
36.61634635273506
 30
0.0
 11
249.9445716188207
 21
37.83290465113675
 31
0.0
  0
LINE
  5
131
330
2
100
AcDbEntity
  8
KIJUN
 62
     7
100
AcDbLine
 10
249.2611808342208
 20
35.44052975593564
 30
0.0
 11
249.6430644494204
 21
36.61634635273506
 31
0.0
  0
LINE
  5
132
330
2
100
AcDbEntity
  8
KIJUN
 62
     7
100
AcDbLine
 10
248.8019715926208
 20
34.31479378033697
 30
0.0
 11
249.2611808342208
 21
35.44052975593564
 31
0.0
  0
LINE
  5
133
330
2
100
AcDbEntity
  8
KIJUN
 62
     7
100
AcDbLine
 10
248.2691110886209
 20
33.24817986073464
 30
0.0
 11
248.8019715926208
 21
34.31479378033697
 31
0.0
  0
LINE
  5
134
330
2
100
AcDbEntity
  8
KIJUN
 62
     7
100
AcDbLine
 10
247.6668595118209
 20
32.24924548573523
 30
0.0
 11
248.2691110886209
 21
33.24817986073464
 31
0.0
  0
LINE
  5
135
330
2
100
AcDbEntity
  8
KIJUN
 62
     7
100
AcDbLine
 10
247.0000164716203
 20
31.32587857453433
 30
0.0
 11
247.6668595118209
 21
32.24924548573523
 31
0.0
  0
LINE
  5
136
330
2
100
AcDbEntity
  8
KIJUN
 62
     7
100
AcDbLine
 10
246.2739305984206
 20
30.48555777613418
 30
0.0
 11
247.0000164716203
 21
31.32587857453433
 31
0.0
  0
ARC
  5
137
330
2
100
AcDbEntity
  8
KIJUN
 62
     7
100
AcDbCircle
 10
241.080647538221
 20
40.30954301813614
 30
0.0
 40
11.42081797619999
100
AcDbArc
 50
344.5568850000017
 51
2.750086000002156
  0
ARC
  5
138
330
2
100
AcDbEntity
  8
KIJUN
 62
     7
100
AcDbCircle
 10
241.4486734185116
 20
41.39458374528692
 30
0.0
 40
11.4122491126532
100
AcDbArc
 50
307.5461910420818
 51
338.8160833175793
  0
ARC
  5
139
330
2
100
AcDbEntity
  8
KIJUN
 62
     7
100
AcDbCircle
 10
236.5589700944207
 20
43.01785326013678
 30
0.0
 40
15.94276410119999
100
AcDbArc
 50
305.9175110000095
 51
317.9815980000076
  0
LINE
  5
13A
330
2
100
AcDbEntity
  8
KIJUN
 62
     7
100
AcDbLine
 10
243.8002490078211
 20
28.52612384893615
 30
0.0
 11
244.6676193584204
 21
29.08006218733641
 31
0.0
  0
LINE
  5
13B
330
2
100
AcDbEntity
  8
KIJUN
 62
     7
100
AcDbLine
 10
242.8991877416207
 20
28.0775559373347
 30
0.0
 11
243.8002490078211
 21
28.52612384893615
 31
0.0
  0
LINE
  5
13C
330
2
100
AcDbEntity
  8
KIJUN
 62
     7
100
AcDbLine
 10
241.9716536810205
 20
27.73796736073524
 30
0.0
 11
242.8991877416207
 21
28.0775559373347
 31
0.0
  0
LINE
  5
13D
330
2
100
AcDbEntity
  8
KIJUN
 62
     7
100
AcDbLine
 10
241.0250509514207
 20
27.51003708253627
 30
0.0
 11
241.9716536810205
 21
27.73796736073524
 31
0.0
  0
LINE
  5
13E
330
2
100
AcDbEntity
  8
KIJUN
 62
     7
100
AcDbLine
 10
240.0669513182211
 20
27.39562544953566
 30
0.0
 11
241.0250509514207
 21
27.51003708253627
 31
0.0
  0
LINE
  5
13F
330
2
100
AcDbEntity
  8
KIJUN
 62
     7
100
AcDbLine
 10
239.1050006894211
 20
27.39562544953566
 30
0.0
 11
240.0669513182211
 21
27.39562544953566
 31
0.0
  0
LINE
  5
140
330
2
100
AcDbEntity
  8
KIJUN
 62
     7
100
AcDbLine
 10
244.6676193584204
 20
29.08006218733641
 30
0.0
 11
245.4943874534206
 21
29.73494312293638
 31
0.0
  0
LINE
  5
141
330
2
100
AcDbEntity
  8
KIJUN
 62
     7
100
AcDbLine
 10
245.4943874534206
 20
29.73494312293638
 30
0.0
 11
246.2739305984206
 21
30.48555777613418
 31
0.0
  0
ARC
  5
142
330
2
100
AcDbEntity
  8
KIJUN
 62
     7
100
AcDbCircle
 10
241.2084633734216
 20
38.65995461729339
 30
0.0
 40
12.73429894948618
100
AcDbArc
 50
299.3846043590814
 51
348.7795373664547
  0
ARC
  5
143
330
2
100
AcDbEntity
  8
KIJUN
 62
     7
100
AcDbCircle
 10
255.7831901985542
 20
35.18342912713668
 30
0.0
 40
8.880493389599998
100
AcDbArc
 50
224.5367638985464
 51
262.8575440000007
  0
CIRCLE
  5
144
330
2
100
AcDbEntity
  8
KIJUN
 62
     7
100
AcDbCircle
 10
254.550755135475
 20
37.48642232453682
 30
0.0
 40
0.3809255526
  0
ARC
  5
145
330
2
100
AcDbEntity
  8
KIJUN
 62
     7
100
AcDbCircle
 10
185.9738477843912
 20
39.67634051269721
 30
0.0
 40
4.372458282046931
100
AcDbArc
 50
359.3736550257799
 51
15.71073987175645
  0
LINE
  5
146
330
2
100
AcDbEntity
  8
KIJUN
 62
     7
100
AcDbLine
 10
190.2974710400208
 20
38.3490673607344
 30
0.0
 11
190.3460448062205
 21
39.62854270373515
 31
0.0
  0
LINE
  5
147
330
2
100
AcDbEntity
  8
KIJUN
 62
     7
100
AcDbLine
 10
190.1632839068206
 20
37.0804935707352
 30
0.0
 11
190.2974710400208
 21
38.3490673607344
 31
0.0
  0
LINE
  5
148
330
2
100
AcDbEntity
  8
KIJUN
 62
     7
100
AcDbLine
 10
189.9445716188205
 20
37.83290465113675
 30
0.0
 11
190.1632839068206
 21
37.0804935707352
 31
0.0
  0
LINE
  5
149
330
2
100
AcDbEntity
  8
KIJUN
 62
     7
100
AcDbLine
 10
189.6430644494202
 20
36.61634635273506
 30
0.0
 11
189.9445716188205
 21
37.83290465113675
 31
0.0
  0
LINE
  5
14A
330
2
100
AcDbEntity
  8
KIJUN
 62
     7
100
AcDbLine
 10
189.2611808342207
 20
35.44052975593564
 30
0.0
 11
189.6430644494202
 21
36.61634635273506
 31
0.0
  0
LINE
  5
14B
330
2
100
AcDbEntity
  8
KIJUN
 62
     7
100
AcDbLine
 10
188.8019715926206
 20
34.31479378033697
 30
0.0
 11
189.2611808342207
 21
35.44052975593564
 31
0.0
  0
LINE
  5
14C
330
2
100
AcDbEntity
  8
KIJUN
 62
     7
100
AcDbLine
 10
188.2691110886208
 20
33.24817986073464
 30
0.0
 11
188.8019715926206
 21
34.31479378033697
 31
0.0
  0
LINE
  5
14D
330
2
100
AcDbEntity
  8
KIJUN
 62
     7
100
AcDbLine
 10
187.6668595118209
 20
32.24924548573523
 30
0.0
 11
188.2691110886208
 21
33.24817986073464
 31
0.0
  0
LINE
  5
14E
330
2
100
AcDbEntity
  8
KIJUN
 62
     7
100
AcDbLine
 10
187.0000164716201
 20
31.32587857453433
 30
0.0
 11
187.6668595118209
 21
32.24924548573523
 31
0.0
  0
LINE
  5
14F
330
2
100
AcDbEntity
  8
KIJUN
 62
     7
100
AcDbLine
 10
186.2739305984206
 20
30.48555777613418
 30
0.0
 11
187.0000164716201
 21
31.32587857453433
 31
0.0
  0
ARC
  5
150
330
2
100
AcDbEntity
  8
KIJUN
 62
     7
100
AcDbCircle
 10
181.0806475382209
 20
40.30954301813614
 30
0.0
 40
11.42081797619999
100
AcDbArc
 50
344.5568850000017
 51
2.750086000002156
  0
ARC
  5
151
330
2
100
AcDbEntity
  8
KIJUN
 62
     7
100
AcDbCircle
 10
181.4486734185117
 20
41.39458374528692
 30
0.0
 40
11.41224911265318
100
AcDbArc
 50
307.5461910420818
 51
338.8160833175795
  0
ARC
  5
152
330
2
100
AcDbEntity
  8
KIJUN
 62
     7
100
AcDbCircle
 10
176.5589700944206
 20
43.01785326013678
 30
0.0
 40
15.94276410119999
100
AcDbArc
 50
305.9175110000095
 51
317.9815980000076
  0
LINE
  5
153
330
2
100
AcDbEntity
  8
KIJUN
 62
     7
100
AcDbLine
 10
183.8002490078211
 20
28.52612384893615
 30
0.0
 11
184.6676193584203
 21
29.08006218733641
 31
0.0
  0
LINE
  5
154
330
2
100
AcDbEntity
  8
KIJUN
 62
     7
100
AcDbLine
 10
182.8991877416205
 20
28.0775559373347
 30
0.0
 11
183.8002490078211
 21
28.52612384893615
 31
0.0
  0
LINE
  5
155
330
2
100
AcDbEntity
  8
KIJUN
 62
     7
100
AcDbLine
 10
181.9716536810206
 20
27.73796736073524
 30
0.0
 11
182.8991877416205
 21
28.0775559373347
 31
0.0
  0
LINE
  5
156
330
2
100
AcDbEntity
  8
KIJUN
 62
     7
100
AcDbLine
 10
181.0250509514207
 20
27.51003708253627
 30
0.0
 11
181.9716536810206
 21
27.73796736073524
 31
0.0
  0
LINE
  5
157
330
2
100
AcDbEntity
  8
KIJUN
 62
     7
100
AcDbLine
 10
180.066951318221
 20
27.39562544953566
 30
0.0
 11
181.0250509514207
 21
27.51003708253627
 31
0.0
  0
LINE
  5
158
330
2
100
AcDbEntity
  8
KIJUN
 62
     7
100
AcDbLine
 10
184.6676193584203
 20
29.08006218733641
 30
0.0
 11
185.4943874534205
 21
29.73494312293638
 31
0.0
  0
LINE
  5
159
330
2
100
AcDbEntity
  8
KIJUN
 62
     7
100
AcDbLine
 10
185.4943874534205
 20
29.73494312293638
 30
0.0
 11
186.2739305984206
 21
30.48555777613418
 31
0.0
  0
ARC
  5
15A
330
2
100
AcDbEntity
  8
KIJUN
 62
     7
100
AcDbCircle
 10
181.2084633734215
 20
38.65995461729339
 30
0.0
 40
12.73429894948618
100
AcDbArc
 50
299.3846043590814
 51
348.7795373664547
  0
CIRCLE
  5
15B
330
2
100
AcDbEntity
  8
KIJUN
 62
     7
100
AcDbCircle
 10
194.62104028695
 20
37.48642232453682
 30
0.0
 40
0.3809255526
  0
ARC
  5
15C
330
2
100
AcDbEntity
  8
KIJUN
 62
     7
100
AcDbCircle
 10
194.5842046290367
 20
37.56788502881098
 30
0.0
 40
1.646051791635366
100
AcDbArc
 50
237.4666657179525
 51
302.6574811804139
  0
ARC
  5
15D
330
2
100
AcDbEntity
  8
KIJUN
 62
     7
100
AcDbCircle
 10
195.7831901985541
 20
35.18342912713668
 30
0.0
 40
8.880493389599998
100
AcDbArc
 50
224.5367638985464
 51
262.8575440000007
  0
CIRCLE
  5
15E
330
2
100
AcDbEntity
  8
KIJUN
 62
     7
100
AcDbCircle
 10
194.5507551354749
 20
37.48642232453682
 30
0.0
 40
0.3809255526
  0
ARC
  5
15F
330
2
100
AcDbEntity
  8
KIJUN
 62
     7
100
AcDbCircle
 10
179.7354366650205
 20
47.63703180433693
 30
0.0
 40
21.50690349359999
100
AcDbArc
 50
269.601615361945
 51
291.0397640000027
  0
LINE
  5
160
330
2
100
AcDbEntity
  8
KIJUN
 62
     7
100
AcDbLine
 10
179.5858977112124
 20
27.3956254495352
 30
0.0
 11
180.066951318221
 21
27.39562544953566
 31
0.0
  0
ARC
  5
161
330
2
100
AcDbEntity
  8
KIJUN
 62
     7
100
AcDbCircle
 10
207.9633320490034
 20
38.65995461729339
 30
0.0
 40
12.73429894948618
100
AcDbArc
 50
191.2204626335453
 51
240.6153956409186
  0
CIRCLE
  5
162
330
2
100
AcDbEntity
  8
KIJUN
 62
     7
100
AcDbCircle
 10
194.62104028695
 20
37.48642232453682
 30
0.0
 40
1.251598030199999
  0
ARC
  5
163
330
2
100
AcDbEntity
  8
KIJUN
 62
     7
100
AcDbCircle
 10
191.476113595554
 20
39.50018892133589
 30
0.0
 40
13.51341818519999
100
AcDbArc
 50
283.7103880000007
 51
308.1280040560987
  0
LINE
  5
164
330
2
100
AcDbEntity
  8
KIJUN
 62
     7
100
AcDbLine
 10
179.5858977112124
 20
27.3956254495352
 30
0.0
 11
179.1048441042038
 21
27.39562544953566
 31
0.0
  0
ARC
  5
165
330
2
100
AcDbEntity
  8
KIJUN
 62
     7
100
AcDbCircle
 10
179.4363587574045
 20
47.63703180433693
 30
0.0
 40
21.50690349359999
100
AcDbArc
 50
248.9602359999974
 51
270.3983846380554
  0
CIRCLE
  5
166
330
2
100
AcDbEntity
  8
KIJUN
 62
     7
100
AcDbCircle
 10
164.62104028695
 20
37.48642232453682
 30
0.0
 40
0.3809255526
  0
ARC
  5
167
330
2
100
AcDbEntity
  8
KIJUN
 62
     7
100
AcDbCircle
 10
163.3886052238707
 20
35.18342912713668
 30
0.0
 40
8.880493389599998
100
AcDbArc
 50
277.1424559999997
 51
315.4632361014535
  0
ARC
  5
168
330
2
100
AcDbEntity
  8
KIJUN
 62
     7
100
AcDbCircle
 10
164.5875907933883
 20
37.56788502881098
 30
0.0
 40
1.646051791635366
100
AcDbArc
 50
237.3425188195861
 51
302.5333342820478
  0
CIRCLE
  5
169
330
2
100
AcDbEntity
  8
KIJUN
 62
     7
100
AcDbCircle
 10
164.5507551354749
 20
37.48642232453682
 30
0.0
 40
0.3809255526
  0
ARC
  5
16A
330
2
100
AcDbEntity
  8
KIJUN
 62
     7
100
AcDbCircle
 10
177.9633320490035
 20
38.65995461729339
 30
0.0
 40
12.73429894948618
100
AcDbArc
 50
191.2204626335453
 51
240.6153956409186
  0
LINE
  5
16B
330
2
100
AcDbEntity
  8
KIJUN
 62
     7
100
AcDbLine
 10
173.6774079690045
 20
29.73494312293638
 30
0.0
 11
172.8978648240044
 21
30.48555777613418
 31
0.0
  0
LINE
  5
16C
330
2
100
AcDbEntity
  8
KIJUN
 62
     7
100
AcDbLine
 10
174.5041760640046
 20
29.08006218733641
 30
0.0
 11
173.6774079690045
 21
29.73494312293638
 31
0.0
  0
LINE
  5
16D
330
2
100
AcDbEntity
  8
KIJUN
 62
     7
100
AcDbLine
 10
179.1048441042038
 20
27.39562544953566
 30
0.0
 11
178.1467444710041
 21
27.51003708253627
 31
0.0
  0
LINE
  5
16E
330
2
100
AcDbEntity
  8
KIJUN
 62
     7
100
AcDbLine
 10
178.1467444710041
 20
27.51003708253627
 30
0.0
 11
177.2001417414045
 21
27.73796736073524
 31
0.0
  0
LINE
  5
16F
330
2
100
AcDbEntity
  8
KIJUN
 62
     7
100
AcDbLine
 10
177.2001417414045
 20
27.73796736073524
 30
0.0
 11
176.2726076808043
 21
28.0775559373347
 31
0.0
  0
LINE
  5
170
330
2
100
AcDbEntity
  8
KIJUN
 62
     7
100
AcDbLine
 10
176.2726076808043
 20
28.0775559373347
 30
0.0
 11
175.3715464146038
 21
28.52612384893615
 31
0.0
  0
LINE
  5
171
330
2
100
AcDbEntity
  8
KIJUN
 62
     7
100
AcDbLine
 10
175.3715464146038
 20
28.52612384893615
 30
0.0
 11
174.5041760640046
 21
29.08006218733641
 31
0.0
  0
ARC
  5
172
330
2
100
AcDbEntity
  8
KIJUN
 62
     7
100
AcDbCircle
 10
182.6128253280045
 20
43.01785326013678
 30
0.0
 40
15.94276410119999
100
AcDbArc
 50
222.0184019999924
 51
234.0824889999904
  0
ARC
  5
173
330
2
100
AcDbEntity
  8
KIJUN
 62
     7
100
AcDbCircle
 10
177.7231220039134
 20
41.39458374528689
 30
0.0
 40
11.41224911265318
100
AcDbArc
 50
201.1839166824206
 51
232.4538089579182
  0
ARC
  5
174
330
2
100
AcDbEntity
  8
KIJUN
 62
     7
100
AcDbCircle
 10
178.091147884204
 20
40.30954301813614
 30
0.0
 40
11.42081797619999
100
AcDbArc
 50
177.2499139999979
 51
195.4431149999983
  0
LINE
  5
175
330
2
100
AcDbEntity
  8
KIJUN
 62
     7
100
AcDbLine
 10
172.8978648240044
 20
30.48555777613418
 30
0.0
 11
172.1717789508047
 21
31.32587857453433
 31
0.0
  0
LINE
  5
176
330
2
100
AcDbEntity
  8
KIJUN
 62
     7
100
AcDbLine
 10
172.1717789508047
 20
31.32587857453433
 30
0.0
 11
171.5049359106041
 21
32.24924548573523
 31
0.0
  0
LINE
  5
177
330
2
100
AcDbEntity
  8
KIJUN
 62
     7
100
AcDbLine
 10
171.5049359106041
 20
32.24924548573523
 30
0.0
 11
170.9026843338041
 21
33.24817986073464
 31
0.0
  0
LINE
  5
178
330
2
100
AcDbEntity
  8
KIJUN
 62
     7
100
AcDbLine
 10
170.9026843338041
 20
33.24817986073464
 30
0.0
 11
170.3698238298044
 21
34.31479378033697
 31
0.0
  0
LINE
  5
179
330
2
100
AcDbEntity
  8
KIJUN
 62
     7
100
AcDbLine
 10
170.3698238298044
 20
34.31479378033697
 30
0.0
 11
169.9106145882041
 21
35.44052975593564
 31
0.0
  0
LINE
  5
17A
330
2
100
AcDbEntity
  8
KIJUN
 62
     7
100
AcDbLine
 10
169.9106145882041
 20
35.44052975593564
 30
0.0
 11
169.5287309730046
 21
36.61634635273506
 31
0.0
  0
LINE
  5
17B
330
2
100
AcDbEntity
  8
KIJUN
 62
     7
100
AcDbLine
 10
169.5287309730046
 20
36.61634635273506
 30
0.0
 11
169.2272238036044
 21
37.83290465113675
 31
0.0
  0
LINE
  5
17C
330
2
100
AcDbEntity
  8
KIJUN
 62
     7
100
AcDbLine
 10
169.2272238036044
 20
37.83290465113675
 30
0.0
 11
169.0085115156044
 21
37.0804935707352
 31
0.0
  0
LINE
  5
17D
330
2
100
AcDbEntity
  8
KIJUN
 62
     7
100
AcDbLine
 10
169.0085115156044
 20
37.0804935707352
 30
0.0
 11
168.8743243824042
 21
38.3490673607344
 31
0.0
  0
LINE
  5
17E
330
2
100
AcDbEntity
  8
KIJUN
 62
     7
100
AcDbLine
 10
168.8743243824042
 20
38.3490673607344
 30
0.0
 11
168.8257506162045
 21
39.62854270373515
 31
0.0
  0
ARC
  5
17F
330
2
100
AcDbEntity
  8
KIJUN
 62
     7
100
AcDbCircle
 10
173.1979476380338
 20
39.67634051269721
 30
0.0
 40
4.372458282046931
100
AcDbArc
 50
164.2892601282435
 51
180.6263449742201
  0
ARC
  5
180
330
2
100
AcDbEntity
  8
KIJUN
 62
     7
100
AcDbCircle
 10
61.08064753822112
 20
40.30954301813614
 30
0.0
 40
11.42081797619999
100
AcDbArc
 50
344.5568850000017
 51
2.750086000002156
  0
ARC
  5
181
330
2
100
AcDbEntity
  8
KIJUN
 62
     7
100
AcDbCircle
 10
61.44867341851171
 20
41.39458374528703
 30
0.0
 40
11.41224911265322
100
AcDbArc
 50
307.5461910420813
 51
338.8160833175788
  0
ARC
  5
182
330
2
100
AcDbEntity
  8
KIJUN
 62
     7
100
AcDbCircle
 10
61.2084633734215
 20
38.65995461729339
 30
0.0
 40
12.73429894948618
100
AcDbArc
 50
299.3846043590814
 51
348.7795373664547
  0
ARC
  5
183
330
2
100
AcDbEntity
  8
KIJUN
 62
     7
100
AcDbCircle
 10
75.78319019855415
 20
35.18342912713668
 30
0.0
 40
8.880493389599998
100
AcDbArc
 50
224.5367638985464
 51
262.8575440000007
  0
LINE
  5
184
330
2
100
AcDbEntity
  8
KIJUN
 62
     7
100
AcDbLine
 10
83.67740796900449
 20
29.73494312293638
 30
0.0
 11
82.89786482400449
 21
30.48555777613418
 31
0.0
  0
LINE
  5
185
330
2
100
AcDbEntity
  8
KIJUN
 62
     7
100
AcDbLine
 10
84.50417606400469
 20
29.08006218733641
 30
0.0
 11
83.67740796900449
 21
29.73494312293638
 31
0.0
  0
LINE
  5
186
330
2
100
AcDbEntity
  8
KIJUN
 62
     7
100
AcDbLine
 10
89.10484410420387
 20
27.39562544953566
 30
0.0
 11
88.1467444710042
 21
27.51003708253627
 31
0.0
  0
LINE
  5
187
330
2
100
AcDbEntity
  8
KIJUN
 62
     7
100
AcDbLine
 10
88.1467444710042
 20
27.51003708253627
 30
0.0
 11
87.20014174140453
 21
27.73796736073524
 31
0.0
  0
LINE
  5
188
330
2
100
AcDbEntity
  8
KIJUN
 62
     7
100
AcDbLine
 10
87.20014174140453
 20
27.73796736073524
 30
0.0
 11
86.27260768080452
 21
28.0775559373347
 31
0.0
  0
LINE
  5
189
330
2
100
AcDbEntity
  8
KIJUN
 62
     7
100
AcDbLine
 10
86.27260768080452
 20
28.0775559373347
 30
0.0
 11
85.37154641460393
 21
28.52612384893615
 31
0.0
  0
LINE
  5
18A
330
2
100
AcDbEntity
  8
KIJUN
 62
     7
100
AcDbLine
 10
85.37154641460393
 20
28.52612384893615
 30
0.0
 11
84.50417606400469
 21
29.08006218733641
 31
0.0
  0
ARC
  5
18B
330
2
100
AcDbEntity
  8
KIJUN
 62
     7
100
AcDbCircle
 10
92.61282532800453
 20
43.01785326013678
 30
0.0
 40
15.94276410119999
100
AcDbArc
 50
222.0184019999924
 51
234.0824889999904
  0
ARC
  5
18C
330
2
100
AcDbEntity
  8
KIJUN
 62
     7
100
AcDbCircle
 10
87.72312200391345
 20
41.39458374528699
 30
0.0
 40
11.41224911265324
100
AcDbArc
 50
201.1839166824212
 51
232.4538089579188
  0
ARC
  5
18D
330
2
100
AcDbEntity
  8
KIJUN
 62
     7
100
AcDbCircle
 10
88.09114788420409
 20
40.30954301813614
 30
0.0
 40
11.42081797619999
100
AcDbArc
 50
177.2499139999979
 51
195.4431149999983
  0
LINE
  5
18E
330
2
100
AcDbEntity
  8
KIJUN
 62
     7
100
AcDbLine
 10
82.89786482400449
 20
30.48555777613418
 30
0.0
 11
82.17177895080471
 21
31.32587857453433
 31
0.0
  0
LINE
  5
18F
330
2
100
AcDbEntity
  8
KIJUN
 62
     7
100
AcDbLine
 10
82.17177895080471
 20
31.32587857453433
 30
0.0
 11
81.50493591060433
 21
32.24924548573523
 31
0.0
  0
LINE
  5
190
330
2
100
AcDbEntity
  8
KIJUN
 62
     7
100
AcDbLine
 10
81.50493591060433
 20
32.24924548573523
 30
0.0
 11
80.90268433380419
 21
33.24817986073464
 31
0.0
  0
LINE
  5
191
330
2
100
AcDbEntity
  8
KIJUN
 62
     7
100
AcDbLine
 10
80.90268433380419
 20
33.24817986073464
 30
0.0
 11
80.36982382980438
 21
34.31479378033697
 31
0.0
  0
LINE
  5
192
330
2
100
AcDbEntity
  8
KIJUN
 62
     7
100
AcDbLine
 10
80.36982382980438
 20
34.31479378033697
 30
0.0
 11
79.91061458820415
 21
35.44052975593564
 31
0.0
  0
LINE
  5
193
330
2
100
AcDbEntity
  8
KIJUN
 62
     7
100
AcDbLine
 10
79.91061458820415
 20
35.44052975593564
 30
0.0
 11
79.52873097300465
 21
36.61634635273506
 31
0.0
  0
LINE
  5
194
330
2
100
AcDbEntity
  8
KIJUN
 62
     7
100
AcDbLine
 10
79.52873097300465
 20
36.61634635273506
 30
0.0
 11
79.22722380360437
 21
37.83290465113675
 31
0.0
  0
LINE
  5
195
330
2
100
AcDbEntity
  8
KIJUN
 62
     7
100
AcDbLine
 10
79.22722380360437
 20
37.83290465113675
 30
0.0
 11
79.00851151560437
 21
37.0804935707352
 31
0.0
  0
LINE
  5
196
330
2
100
AcDbEntity
  8
KIJUN
 62
     7
100
AcDbLine
 10
79.00851151560437
 20
37.0804935707352
 30
0.0
 11
78.87432438240423
 21
38.3490673607344
 31
0.0
  0
LINE
  5
197
330
2
100
AcDbEntity
  8
KIJUN
 62
     7
100
AcDbLine
 10
78.87432438240423
 20
38.3490673607344
 30
0.0
 11
78.82575061620435
 21
39.62854270373515
 31
0.0
  0
ARC
  5
198
330
2
100
AcDbEntity
  8
KIJUN
 62
     7
100
AcDbCircle
 10
83.1979476380339
 20
39.67634051269721
 30
0.0
 40
4.372458282046931
100
AcDbArc
 50
164.2892601282435
 51
180.6263449742201
  0
LINE
  5
199
330
2
100
AcDbEntity
  8
KIJUN
 62
     7
100
AcDbLine
 10
89.58589771121252
 20
27.3956254495352
 30
0.0
 11
89.10484410420387
 21
27.39562544953566
 31
0.0
  0
ARC
  5
19A
330
2
100
AcDbEntity
  8
KIJUN
 62
     7
100
AcDbCircle
 10
91.20846337342157
 20
38.65995461729339
 30
0.0
 40
12.73429894948618
100
AcDbArc
 50
299.3846043590814
 51
348.7795373664547
  0
ARC
  5
19B
330
2
100
AcDbEntity
  8
KIJUN
 62
     7
100
AcDbCircle
 10
105.7831901985541
 20
35.18342912713668
 30
0.0
 40
8.880493389599998
100
AcDbArc
 50
224.5367638985464
 51
262.8575440000007
  0
CIRCLE
  5
19C
330
2
100
AcDbEntity
  8
KIJUN
 62
     7
100
AcDbCircle
 10
104.5507551354749
 20
37.48642232453682
 30
0.0
 40
1.251598030199999
  0
ARC
  5
19D
330
2
100
AcDbEntity
  8
KIJUN
 62
     7
100
AcDbCircle
 10
91.20846337342157
 20
38.65995461729339
 30
0.0
 40
12.73429894948618
100
AcDbArc
 50
299.3846043590814
 51
348.7795373664547
  0
CIRCLE
  5
19E
330
2
100
AcDbEntity
  8
KIJUN
 62
     7
100
AcDbCircle
 10
104.6210402869501
 20
37.48642232453682
 30
0.0
 40
0.3809255526
  0
ARC
  5
19F
330
2
100
AcDbEntity
  8
KIJUN
 62
     7
100
AcDbCircle
 10
103.3886052238708
 20
35.18342912713668
 30
0.0
 40
8.880493389599998
100
AcDbArc
 50
277.1424559999997
 51
315.4632361014535
  0
ARC
  5
1A0
330
2
100
AcDbEntity
  8
KIJUN
 62
     7
100
AcDbCircle
 10
104.5875907933882
 20
37.56788502881098
 30
0.0
 40
1.646051791635366
100
AcDbArc
 50
237.3425188195861
 51
302.5333342820478
  0
CIRCLE
  5
1A1
330
2
100
AcDbEntity
  8
KIJUN
 62
     7
100
AcDbCircle
 10
104.5507551354749
 20
37.48642232453682
 30
0.0
 40
0.3809255526
  0
ARC
  5
1A2
330
2
100
AcDbEntity
  8
KIJUN
 62
     7
100
AcDbCircle
 10
117.9633320490033
 20
38.65995461729339
 30
0.0
 40
12.73429894948618
100
AcDbArc
 50
191.2204626335453
 51
240.6153956409186
  0
LINE
  5
1A3
330
2
100
AcDbEntity
  8
KIJUN
 62
     7
100
AcDbLine
 10
113.6774079690045
 20
29.73494312293638
 30
0.0
 11
112.8978648240045
 21
30.48555777613418
 31
0.0
  0
LINE
  5
1A4
330
2
100
AcDbEntity
  8
KIJUN
 62
     7
100
AcDbLine
 10
114.5041760640046
 20
29.08006218733641
 30
0.0
 11
113.6774079690045
 21
29.73494312293638
 31
0.0
  0
LINE
  5
1A5
330
2
100
AcDbEntity
  8
KIJUN
 62
     7
100
AcDbLine
 10
120.0667947330039
 20
27.39562544953566
 30
0.0
 11
119.1048441042038
 21
27.39562544953566
 31
0.0
  0
LINE
  5
1A6
330
2
100
AcDbEntity
  8
KIJUN
 62
     7
100
AcDbLine
 10
119.1048441042038
 20
27.39562544953566
 30
0.0
 11
118.1467444710042
 21
27.51003708253627
 31
0.0
  0
LINE
  5
1A7
330
2
100
AcDbEntity
  8
KIJUN
 62
     7
100
AcDbLine
 10
118.1467444710042
 20
27.51003708253627
 30
0.0
 11
117.2001417414045
 21
27.73796736073524
 31
0.0
  0
LINE
  5
1A8
330
2
100
AcDbEntity
  8
KIJUN
 62
     7
100
AcDbLine
 10
117.2001417414045
 20
27.73796736073524
 30
0.0
 11
116.2726076808043
 21
28.0775559373347
 31
0.0
  0
LINE
  5
1A9
330
2
100
AcDbEntity
  8
KIJUN
 62
     7
100
AcDbLine
 10
116.2726076808043
 20
28.0775559373347
 30
0.0
 11
115.3715464146038
 21
28.52612384893615
 31
0.0
  0
LINE
  5
1AA
330
2
100
AcDbEntity
  8
KIJUN
 62
     7
100
AcDbLine
 10
115.3715464146038
 20
28.52612384893615
 30
0.0
 11
114.5041760640046
 21
29.08006218733641
 31
0.0
  0
ARC
  5
1AB
330
2
100
AcDbEntity
  8
KIJUN
 62
     7
100
AcDbCircle
 10
122.6128253280044
 20
43.01785326013678
 30
0.0
 40
15.94276410119999
100
AcDbArc
 50
222.0184019999924
 51
234.0824889999904
  0
ARC
  5
1AC
330
2
100
AcDbEntity
  8
KIJUN
 62
     7
100
AcDbCircle
 10
117.7231220039133
 20
41.39458374528689
 30
0.0
 40
11.41224911265318
100
AcDbArc
 50
201.1839166824206
 51
232.4538089579182
  0
ARC
  5
1AD
330
2
100
AcDbEntity
  8
KIJUN
 62
     7
100
AcDbCircle
 10
118.091147884204
 20
40.30954301813614
 30
0.0
 40
11.42081797619999
100
AcDbArc
 50
177.2499139999979
 51
195.4431149999983
  0
LINE
  5
1AE
330
2
100
AcDbEntity
  8
KIJUN
 62
     7
100
AcDbLine
 10
112.8978648240045
 20
30.48555777613418
 30
0.0
 11
112.1717789508048
 21
31.32587857453433
 31
0.0
  0
LINE
  5
1AF
330
2
100
AcDbEntity
  8
KIJUN
 62
     7
100
AcDbLine
 10
112.1717789508048
 20
31.32587857453433
 30
0.0
 11
111.5049359106041
 21
32.24924548573523
 31
0.0
  0
LINE
  5
1B0
330
2
100
AcDbEntity
  8
KIJUN
 62
     7
100
AcDbLine
 10
111.5049359106041
 20
32.24924548573523
 30
0.0
 11
110.9026843338041
 21
33.24817986073464
 31
0.0
  0
LINE
  5
1B1
330
2
100
AcDbEntity
  8
KIJUN
 62
     7
100
AcDbLine
 10
110.9026843338041
 20
33.24817986073464
 30
0.0
 11
110.3698238298043
 21
34.31479378033697
 31
0.0
  0
LINE
  5
1B2
330
2
100
AcDbEntity
  8
KIJUN
 62
     7
100
AcDbLine
 10
110.3698238298043
 20
34.31479378033697
 30
0.0
 11
109.9106145882041
 21
35.44052975593564
 31
0.0
  0
LINE
  5
1B3
330
2
100
AcDbEntity
  8
KIJUN
 62
     7
100
AcDbLine
 10
109.9106145882041
 20
35.44052975593564
 30
0.0
 11
109.5287309730046
 21
36.61634635273506
 31
0.0
  0
LINE
  5
1B4
330
2
100
AcDbEntity
  8
KIJUN
 62
     7
100
AcDbLine
 10
109.5287309730046
 20
36.61634635273506
 30
0.0
 11
109.2272238036044
 21
37.83290465113675
 31
0.0
  0
LINE
  5
1B5
330
2
100
AcDbEntity
  8
KIJUN
 62
     7
100
AcDbLine
 10
109.2272238036044
 20
37.83290465113675
 30
0.0
 11
109.0085115156043
 21
37.0804935707352
 31
0.0
  0
LINE
  5
1B6
330
2
100
AcDbEntity
  8
KIJUN
 62
     7
100
AcDbLine
 10
109.0085115156043
 20
37.0804935707352
 30
0.0
 11
108.8743243824043
 21
38.3490673607344
 31
0.0
  0
LINE
  5
1B7
330
2
100
AcDbEntity
  8
KIJUN
 62
     7
100
AcDbLine
 10
108.8743243824043
 20
38.3490673607344
 30
0.0
 11
108.8257506162046
 21
39.62854270373515
 31
0.0
  0
ARC
  5
1B8
330
2
100
AcDbEntity
  8
KIJUN
 62
     7
100
AcDbCircle
 10
113.1979476380338
 20
39.67634051269721
 30
0.0
 40
4.372458282046931
100
AcDbArc
 50
164.2892601282435
 51
180.6263449742201
  0
LINE
  5
1B9
330
2
100
AcDbEntity
  8
KIJUN
 62
     7
100
AcDbLine
 10
89.58589771121252
 20
27.3956254495352
 30
0.0
 11
90.06695131822107
 21
27.39562544953566
 31
0.0
  0
ARC
  5
1BA
330
2
100
AcDbEntity
  8
KIJUN
 62
     7
100
AcDbCircle
 10
89.7354366650206
 20
47.63703180433693
 30
0.0
 40
21.50690349359999
100
AcDbArc
 50
269.601615361945
 51
291.0397640000027
  0
ARC
  5
1BB
330
2
100
AcDbEntity
  8
KIJUN
 62
     7
100
AcDbCircle
 10
95.97384778439119
 20
39.67634051269721
 30
0.0
 40
4.372458282046931
100
AcDbArc
 50
359.3736550257799
 51
15.71073987175645
  0
LINE
  5
1BC
330
2
100
AcDbEntity
  8
KIJUN
 62
     7
100
AcDbLine
 10
100.2974710400208
 20
38.3490673607344
 30
0.0
 11
100.3460448062205
 21
39.62854270373515
 31
0.0
  0
LINE
  5
1BD
330
2
100
AcDbEntity
  8
KIJUN
 62
     7
100
AcDbLine
 10
100.1632839068206
 20
37.0804935707352
 30
0.0
 11
100.2974710400208
 21
38.3490673607344
 31
0.0
  0
LINE
  5
1BE
330
2
100
AcDbEntity
  8
KIJUN
 62
     7
100
AcDbLine
 10
99.9445716188206
 20
37.83290465113675
 30
0.0
 11
100.1632839068206
 21
37.0804935707352
 31
0.0
  0
LINE
  5
1BF
330
2
100
AcDbEntity
  8
KIJUN
 62
     7
100
AcDbLine
 10
99.64306444942032
 20
36.61634635273506
 30
0.0
 11
99.9445716188206
 21
37.83290465113675
 31
0.0
  0
LINE
  5
1C0
330
2
100
AcDbEntity
  8
KIJUN
 62
     7
100
AcDbLine
 10
99.2611808342208
 20
35.44052975593564
 30
0.0
 11
99.64306444942032
 21
36.61634635273506
 31
0.0
  0
LINE
  5
1C1
330
2
100
AcDbEntity
  8
KIJUN
 62
     7
100
AcDbLine
 10
98.80197159262081
 20
34.31479378033697
 30
0.0
 11
99.2611808342208
 21
35.44052975593564
 31
0.0
  0
LINE
  5
1C2
330
2
100
AcDbEntity
  8
KIJUN
 62
     7
100
AcDbLine
 10
98.26911108862089
 20
33.24817986073464
 30
0.0
 11
98.80197159262081
 21
34.31479378033697
 31
0.0
  0
LINE
  5
1C3
330
2
100
AcDbEntity
  8
KIJUN
 62
     7
100
AcDbLine
 10
97.66685951182083
 20
32.24924548573523
 30
0.0
 11
98.26911108862089
 21
33.24817986073464
 31
0.0
  0
LINE
  5
1C4
330
2
100
AcDbEntity
  8
KIJUN
 62
     7
100
AcDbLine
 10
97.00001647162032
 20
31.32587857453433
 30
0.0
 11
97.66685951182083
 21
32.24924548573523
 31
0.0
  0
LINE
  5
1C5
330
2
100
AcDbEntity
  8
KIJUN
 62
     7
100
AcDbLine
 10
96.27393059842052
 20
30.48555777613418
 30
0.0
 11
97.00001647162032
 21
31.32587857453433
 31
0.0
  0
ARC
  5
1C6
330
2
100
AcDbEntity
  8
KIJUN
 62
     7
100
AcDbCircle
 10
91.08064753822096
 20
40.30954301813614
 30
0.0
 40
11.42081797619999
100
AcDbArc
 50
344.5568850000017
 51
2.750086000002156
  0
ARC
  5
1C7
330
2
100
AcDbEntity
  8
KIJUN
 62
     7
100
AcDbCircle
 10
91.44867341851179
 20
41.39458374528703
 30
0.0
 40
11.41224911265322
100
AcDbArc
 50
307.5461910420813
 51
338.8160833175788
  0
ARC
  5
1C8
330
2
100
AcDbEntity
  8
KIJUN
 62
     7
100
AcDbCircle
 10
86.5589700944206
 20
43.01785326013678
 30
0.0
 40
15.94276410119999
100
AcDbArc
 50
305.9175110000095
 51
317.9815980000076
  0
LINE
  5
1C9
330
2
100
AcDbEntity
  8
KIJUN
 62
     7
100
AcDbLine
 10
93.8002490078211
 20
28.52612384893615
 30
0.0
 11
94.66761935842036
 21
29.08006218733641
 31
0.0
  0
LINE
  5
1CA
330
2
100
AcDbEntity
  8
KIJUN
 62
     7
100
AcDbLine
 10
92.89918774162071
 20
28.0775559373347
 30
0.0
 11
93.8002490078211
 21
28.52612384893615
 31
0.0
  0
LINE
  5
1CB
330
2
100
AcDbEntity
  8
KIJUN
 62
     7
100
AcDbLine
 10
91.97165368102069
 20
27.73796736073524
 30
0.0
 11
92.89918774162071
 21
28.0775559373347
 31
0.0
  0
LINE
  5
1CC
330
2
100
AcDbEntity
  8
KIJUN
 62
     7
100
AcDbLine
 10
91.02505095142094
 20
27.51003708253627
 30
0.0
 11
91.97165368102069
 21
27.73796736073524
 31
0.0
  0
LINE
  5
1CD
330
2
100
AcDbEntity
  8
KIJUN
 62
     7
100
AcDbLine
 10
90.06695131822107
 20
27.39562544953566
 30
0.0
 11
91.02505095142094
 21
27.51003708253627
 31
0.0
  0
LINE
  5
1CE
330
2
100
AcDbEntity
  8
KIJUN
 62
     7
100
AcDbLine
 10
94.66761935842036
 20
29.08006218733641
 30
0.0
 11
95.49438745342053
 21
29.73494312293638
 31
0.0
  0
LINE
  5
1CF
330
2
100
AcDbEntity
  8
KIJUN
 62
     7
100
AcDbLine
 10
95.49438745342053
 20
29.73494312293638
 30
0.0
 11
96.27393059842052
 21
30.48555777613418
 31
0.0
  0
ARC
  5
1D0
330
2
100
AcDbEntity
  8
KIJUN
 62
     7
100
AcDbCircle
 10
89.43635875740438
 20
47.63703180433693
 30
0.0
 40
21.50690349359999
100
AcDbArc
 50
248.9602359999974
 51
270.398384638055
  0
CIRCLE
  5
1D1
330
2
100
AcDbEntity
  8
KIJUN
 62
     7
100
AcDbCircle
 10
74.62104028695017
 20
37.48642232453682
 30
0.0
 40
0.3809255526
  0
ARC
  5
1D2
330
2
100
AcDbEntity
  8
KIJUN
 62
     7
100
AcDbCircle
 10
74.58420462903688
 20
37.56788502881098
 30
0.0
 40
1.646051791635366
100
AcDbArc
 50
237.4666657179525
 51
302.6574811804139
  0
CIRCLE
  5
1D3
330
2
100
AcDbEntity
  8
KIJUN
 62
     7
100
AcDbCircle
 10
74.55075513547488
 20
37.48642232453682
 30
0.0
 40
0.3809255526
  0
ARC
  5
1D4
330
2
100
AcDbEntity
  8
KIJUN
 62
     7
100
AcDbCircle
 10
87.96333204900337
 20
38.65995461729339
 30
0.0
 40
12.73429894948618
100
AcDbArc
 50
191.2204626335453
 51
240.6153956409186
  0
CIRCLE
  5
1D5
330
2
100
AcDbEntity
  8
KIJUN
 62
     7
100
AcDbCircle
 10
74.62104028695017
 20
37.48642232453682
 30
0.0
 40
1.251598030199999
  0
ARC
  5
1D6
330
2
100
AcDbEntity
  8
KIJUN
 62
     7
100
AcDbCircle
 10
71.47611359555412
 20
39.50018892133589
 30
0.0
 40
13.51341818519999
100
AcDbArc
 50
283.7103880000007
 51
308.1280040560987
  0
ARC
  5
1D7
330
2
100
AcDbEntity
  8
KIJUN
 62
     7
100
AcDbCircle
 10
149.7354366650205
 20
47.63703180433693
 30
0.0
 40
21.50690349359999
100
AcDbArc
 50
269.601615361945
 51
291.0397640000027
  0
LINE
  5
1D8
330
2
100
AcDbEntity
  8
KIJUN
 62
     7
100
AcDbLine
 10
143.6774079690045
 20
29.73494312293638
 30
0.0
 11
142.8978648240044
 21
30.48555777613418
 31
0.0
  0
LINE
  5
1D9
330
2
100
AcDbEntity
  8
KIJUN
 62
     7
100
AcDbLine
 10
144.5041760640047
 20
29.08006218733641
 30
0.0
 11
143.6774079690045
 21
29.73494312293638
 31
0.0
  0
LINE
  5
1DA
330
2
100
AcDbEntity
  8
KIJUN
 62
     7
100
AcDbLine
 10
149.1048441042038
 20
27.39562544953566
 30
0.0
 11
148.1467444710041
 21
27.51003708253627
 31
0.0
  0
LINE
  5
1DB
330
2
100
AcDbEntity
  8
KIJUN
 62
     7
100
AcDbLine
 10
148.1467444710041
 20
27.51003708253627
 30
0.0
 11
147.2001417414045
 21
27.73796736073524
 31
0.0
  0
LINE
  5
1DC
330
2
100
AcDbEntity
  8
KIJUN
 62
     7
100
AcDbLine
 10
147.2001417414045
 20
27.73796736073524
 30
0.0
 11
146.2726076808043
 21
28.0775559373347
 31
0.0
  0
LINE
  5
1DD
330
2
100
AcDbEntity
  8
KIJUN
 62
     7
100
AcDbLine
 10
146.2726076808043
 20
28.0775559373347
 30
0.0
 11
145.3715464146039
 21
28.52612384893615
 31
0.0
  0
LINE
  5
1DE
330
2
100
AcDbEntity
  8
KIJUN
 62
     7
100
AcDbLine
 10
145.3715464146039
 20
28.52612384893615
 30
0.0
 11
144.5041760640047
 21
29.08006218733641
 31
0.0
  0
ARC
  5
1DF
330
2
100
AcDbEntity
  8
KIJUN
 62
     7
100
AcDbCircle
 10
152.6128253280045
 20
43.01785326013678
 30
0.0
 40
15.94276410119999
100
AcDbArc
 50
222.0184019999924
 51
234.0824889999904
  0
ARC
  5
1E0
330
2
100
AcDbEntity
  8
KIJUN
 62
     7
100
AcDbCircle
 10
147.7231220039133
 20
41.39458374528689
 30
0.0
 40
11.41224911265318
100
AcDbArc
 50
201.1839166824206
 51
232.4538089579182
  0
ARC
  5
1E1
330
2
100
AcDbEntity
  8
KIJUN
 62
     7
100
AcDbCircle
 10
148.0911478842039
 20
40.30954301813614
 30
0.0
 40
11.42081797619999
100
AcDbArc
 50
177.2499139999979
 51
195.4431149999983
  0
LINE
  5
1E2
330
2
100
AcDbEntity
  8
KIJUN
 62
     7
100
AcDbLine
 10
142.8978648240044
 20
30.48555777613418
 30
0.0
 11
142.1717789508046
 21
31.32587857453433
 31
0.0
  0
LINE
  5
1E3
330
2
100
AcDbEntity
  8
KIJUN
 62
     7
100
AcDbLine
 10
142.1717789508046
 20
31.32587857453433
 30
0.0
 11
141.5049359106041
 21
32.24924548573523
 31
0.0
  0
LINE
  5
1E4
330
2
100
AcDbEntity
  8
KIJUN
 62
     7
100
AcDbLine
 10
141.5049359106041
 20
32.24924548573523
 30
0.0
 11
140.9026843338041
 21
33.24817986073464
 31
0.0
  0
LINE
  5
1E5
330
2
100
AcDbEntity
  8
KIJUN
 62
     7
100
AcDbLine
 10
140.9026843338041
 20
33.24817986073464
 30
0.0
 11
140.3698238298044
 21
34.31479378033697
 31
0.0
  0
LINE
  5
1E6
330
2
100
AcDbEntity
  8
KIJUN
 62
     7
100
AcDbLine
 10
140.3698238298044
 20
34.31479378033697
 30
0.0
 11
139.9106145882043
 21
35.44052975593564
 31
0.0
  0
LINE
  5
1E7
330
2
100
AcDbEntity
  8
KIJUN
 62
     7
100
AcDbLine
 10
139.9106145882043
 20
35.44052975593564
 30
0.0
 11
139.5287309730046
 21
36.61634635273506
 31
0.0
  0
LINE
  5
1E8
330
2
100
AcDbEntity
  8
KIJUN
 62
     7
100
AcDbLine
 10
139.5287309730046
 20
36.61634635273506
 30
0.0
 11
139.2272238036042
 21
37.83290465113675
 31
0.0
  0
LINE
  5
1E9
330
2
100
AcDbEntity
  8
KIJUN
 62
     7
100
AcDbLine
 10
139.2272238036042
 20
37.83290465113675
 30
0.0
 11
139.0085115156045
 21
37.0804935707352
 31
0.0
  0
LINE
  5
1EA
330
2
100
AcDbEntity
  8
KIJUN
 62
     7
100
AcDbLine
 10
139.0085115156045
 20
37.0804935707352
 30
0.0
 11
138.8743243824042
 21
38.3490673607344
 31
0.0
  0
LINE
  5
1EB
330
2
100
AcDbEntity
  8
KIJUN
 62
     7
100
AcDbLine
 10
138.8743243824042
 20
38.3490673607344
 30
0.0
 11
138.8257506162043
 21
39.62854270373515
 31
0.0
  0
ARC
  5
1EC
330
2
100
AcDbEntity
  8
KIJUN
 62
     7
100
AcDbCircle
 10
143.1979476380338
 20
39.67634051269721
 30
0.0
 40
4.372458282046931
100
AcDbArc
 50
164.2892601282435
 51
180.6263449742201
  0
ARC
  5
1ED
330
2
100
AcDbEntity
  8
KIJUN
 62
     7
100
AcDbCircle
 10
149.4363587574042
 20
47.63703180433693
 30
0.0
 40
21.50690349359999
100
AcDbArc
 50
248.9602359999974
 51
270.398384638055
  0
LINE
  5
1EE
330
2
100
AcDbEntity
  8
KIJUN
 62
     7
100
AcDbLine
 10
149.5858977112124
 20
27.3956254495352
 30
0.0
 11
149.1048441042038
 21
27.39562544953566
 31
0.0
  0
ARC
  5
1EF
330
2
100
AcDbEntity
  8
KIJUN
 62
     7
100
AcDbCircle
 10
125.973847784391
 20
39.67634051269721
 30
0.0
 40
4.372458282046931
100
AcDbArc
 50
359.3736550257799
 51
15.71073987175645
  0
LINE
  5
1F0
330
2
100
AcDbEntity
  8
KIJUN
 62
     7
100
AcDbLine
 10
130.2974710400208
 20
38.3490673607344
 30
0.0
 11
130.3460448062204
 21
39.62854270373515
 31
0.0
  0
LINE
  5
1F1
330
2
100
AcDbEntity
  8
KIJUN
 62
     7
100
AcDbLine
 10
130.1632839068205
 20
37.0804935707352
 30
0.0
 11
130.2974710400208
 21
38.3490673607344
 31
0.0
  0
LINE
  5
1F2
330
2
100
AcDbEntity
  8
KIJUN
 62
     7
100
AcDbLine
 10
129.9445716188205
 20
37.83290465113675
 30
0.0
 11
130.1632839068205
 21
37.0804935707352
 31
0.0
  0
LINE
  5
1F3
330
2
100
AcDbEntity
  8
KIJUN
 62
     7
100
AcDbLine
 10
129.6430644494204
 20
36.61634635273506
 30
0.0
 11
129.9445716188205
 21
37.83290465113675
 31
0.0
  0
LINE
  5
1F4
330
2
100
AcDbEntity
  8
KIJUN
 62
     7
100
AcDbLine
 10
129.2611808342209
 20
35.44052975593564
 30
0.0
 11
129.6430644494204
 21
36.61634635273506
 31
0.0
  0
LINE
  5
1F5
330
2
100
AcDbEntity
  8
KIJUN
 62
     7
100
AcDbLine
 10
128.8019715926206
 20
34.31479378033697
 30
0.0
 11
129.2611808342209
 21
35.44052975593564
 31
0.0
  0
LINE
  5
1F6
330
2
100
AcDbEntity
  8
KIJUN
 62
     7
100
AcDbLine
 10
128.2691110886207
 20
33.24817986073464
 30
0.0
 11
128.8019715926206
 21
34.31479378033697
 31
0.0
  0
LINE
  5
1F7
330
2
100
AcDbEntity
  8
KIJUN
 62
     7
100
AcDbLine
 10
127.6668595118208
 20
32.24924548573523
 30
0.0
 11
128.2691110886207
 21
33.24817986073464
 31
0.0
  0
LINE
  5
1F8
330
2
100
AcDbEntity
  8
KIJUN
 62
     7
100
AcDbLine
 10
127.0000164716201
 20
31.32587857453433
 30
0.0
 11
127.6668595118208
 21
32.24924548573523
 31
0.0
  0
LINE
  5
1F9
330
2
100
AcDbEntity
  8
KIJUN
 62
     7
100
AcDbLine
 10
126.2739305984205
 20
30.48555777613418
 30
0.0
 11
127.0000164716201
 21
31.32587857453433
 31
0.0
  0
LINE
  5
1FA
330
2
100
AcDbEntity
  8
KIJUN
 62
     7
100
AcDbLine
 10
112.1719355360204
 20
31.32591576013742
 30
0.0
 11
112.8980307818205
 21
30.48559496173634
 31
0.0
  0
LINE
  5
1FB
330
2
100
AcDbEntity
  8
KIJUN
 62
     7
100
AcDbLine
 10
111.5051017922206
 20
32.24924548573523
 30
0.0
 11
112.1719355360204
 21
31.32591576013742
 31
0.0
  0
LINE
  5
1FC
330
2
100
AcDbEntity
  8
KIJUN
 62
     7
100
AcDbLine
 10
110.9028502154205
 20
33.24821704633411
 30
0.0
 11
111.5051017922206
 21
32.24924548573523
 31
0.0
  0
LINE
  5
1FD
330
2
100
AcDbEntity
  8
KIJUN
 62
     7
100
AcDbLine
 10
110.3699897114203
 20
34.31479378033697
 30
0.0
 11
110.9028502154205
 21
33.24821704633411
 31
0.0
  0
LINE
  5
1FE
330
2
100
AcDbEntity
  8
KIJUN
 62
     7
100
AcDbLine
 10
109.9107805460206
 20
35.44052975593564
 30
0.0
 11
110.3699897114203
 21
34.31479378033697
 31
0.0
  0
LINE
  5
1FF
330
2
100
AcDbEntity
  8
KIJUN
 62
     7
100
AcDbLine
 10
109.5289061510201
 20
36.61638353833729
 30
0.0
 11
109.9107805460206
 21
35.44052975593564
 31
0.0
  0
LINE
  5
200
330
2
100
AcDbEntity
  8
KIJUN
 62
     7
100
AcDbLine
 10
109.2273989816204
 20
37.83294183673621
 30
0.0
 11
109.5289061510201
 21
36.61638353833729
 31
0.0
  0
LINE
  5
201
330
2
100
AcDbEntity
  8
KIJUN
 62
     7
100
AcDbLine
 10
109.0086774734208
 20
37.0804935707352
 30
0.0
 11
109.2273989816204
 21
37.83294183673621
 31
0.0
  0
LINE
  5
202
330
2
100
AcDbEntity
  8
KIJUN
 62
     7
100
AcDbLine
 10
108.8744995604205
 20
38.3490673607344
 30
0.0
 11
109.0086774734208
 21
37.0804935707352
 31
0.0
  0
LINE
  5
203
330
2
100
AcDbEntity
  8
KIJUN
 62
     7
100
AcDbLine
 10
108.8259257942209
 20
39.62857996553663
 30
0.0
 11
108.8744995604205
 21
38.3490673607344
 31
0.0
  0
LINE
  5
204
330
2
100
AcDbEntity
  8
KIJUN
 62
     7
100
AcDbLine
 10
108.8633374796209
 20
40.9087250303351
 30
0.0
 11
108.8259257942209
 21
39.62857996553663
 31
0.0
  0
ARC
  5
205
330
2
100
AcDbEntity
  8
KIJUN
 62
     7
100
AcDbCircle
 10
121.080647538221
 20
40.30954301813614
 30
0.0
 40
11.42081797619999
100
AcDbArc
 50
344.5568850000017
 51
2.750086000002156
  0
ARC
  5
206
330
2
100
AcDbEntity
  8
KIJUN
 62
     7
100
AcDbCircle
 10
121.4486734185116
 20
41.39458374528692
 30
0.0
 40
11.41224911265318
100
AcDbArc
 50
307.5461910420818
 51
338.8160833175795
  0
ARC
  5
207
330
2
100
AcDbEntity
  8
KIJUN
 62
     7
100
AcDbCircle
 10
116.5589700944205
 20
43.01785326013678
 30
0.0
 40
15.94276410119999
100
AcDbArc
 50
305.9175110000095
 51
317.9815980000076
  0
LINE
  5
208
330
2
100
AcDbEntity
  8
KIJUN
 62
     7
100
AcDbLine
 10
123.8002490078211
 20
28.52612384893615
 30
0.0
 11
124.6676193584204
 21
29.08006218733641
 31
0.0
  0
LINE
  5
209
330
2
100
AcDbEntity
  8
KIJUN
 62
     7
100
AcDbLine
 10
114.5043327254206
 20
29.08006218733641
 30
0.0
 11
115.3717029998205
 21
28.52612384893615
 31
0.0
  0
LINE
  5
20A
330
2
100
AcDbEntity
  8
KIJUN
 62
     7
100
AcDbLine
 10
122.8991877416205
 20
28.0775559373347
 30
0.0
 11
123.8002490078211
 21
28.52612384893615
 31
0.0
  0
LINE
  5
20B
330
2
100
AcDbEntity
  8
KIJUN
 62
     7
100
AcDbLine
 10
121.9716536810206
 20
27.73796736073524
 30
0.0
 11
122.8991877416205
 21
28.0775559373347
 31
0.0
  0
LINE
  5
20C
330
2
100
AcDbEntity
  8
KIJUN
 62
     7
100
AcDbLine
 10
121.0250509514206
 20
27.51003708253627
 30
0.0
 11
121.9716536810206
 21
27.73796736073524
 31
0.0
  0
LINE
  5
20D
330
2
100
AcDbEntity
  8
KIJUN
 62
     7
100
AcDbLine
 10
120.0669513182209
 20
27.39562544953566
 30
0.0
 11
121.0250509514206
 21
27.51003708253627
 31
0.0
  0
LINE
  5
20E
330
2
100
AcDbEntity
  8
KIJUN
 62
     7
100
AcDbLine
 10
119.105000689421
 20
27.39562544953566
 30
0.0
 11
120.0669513182209
 21
27.39562544953566
 31
0.0
  0
LINE
  5
20F
330
2
100
AcDbEntity
  8
KIJUN
 62
     7
100
AcDbLine
 10
118.1469010562206
 20
27.51003708253627
 30
0.0
 11
119.105000689421
 21
27.39562544953566
 31
0.0
  0
LINE
  5
210
330
2
100
AcDbEntity
  8
KIJUN
 62
     7
100
AcDbLine
 10
117.2002984028204
 20
27.73796736073524
 30
0.0
 11
118.1469010562206
 21
27.51003708253627
 31
0.0
  0
LINE
  5
211
330
2
100
AcDbEntity
  8
KIJUN
 62
     7
100
AcDbLine
 10
116.2727642660203
 20
28.0775559373347
 30
0.0
 11
117.2002984028204
 21
27.73796736073524
 31
0.0
  0
LINE
  5
212
330
2
100
AcDbEntity
  8
KIJUN
 62
     7
100
AcDbLine
 10
115.3717029998205
 20
28.52612384893615
 30
0.0
 11
116.2727642660203
 21
28.0775559373347
 31
0.0
  0
ARC
  5
213
330
2
100
AcDbEntity
  8
KIJUN
 62
     7
100
AcDbCircle
 10
119.7354366650205
 20
47.63703180433693
 30
0.0
 40
21.50690349359999
100
AcDbArc
 50
248.9594420000011
 51
291.0397640000027
  0
LINE
  5
214
330
2
100
AcDbEntity
  8
KIJUN
 62
     7
100
AcDbLine
 10
124.6676193584204
 20
29.08006218733641
 30
0.0
 11
125.4943874534205
 21
29.73494312293638
 31
0.0
  0
LINE
  5
215
330
2
100
AcDbEntity
  8
KIJUN
 62
     7
100
AcDbLine
 10
113.6775738506209
 20
29.73498030853586
 30
0.0
 11
114.5043327254206
 21
29.08006218733641
 31
0.0
  0
ARC
  5
216
330
2
100
AcDbEntity
  8
KIJUN
 62
     7
100
AcDbCircle
 10
120.4731125582203
 20
40.02860315533559
 30
0.0
 40
12.6948611736
100
AcDbArc
 50
206.6267240000107
 51
265.9924620000008
  0
LINE
  5
217
330
2
100
AcDbEntity
  8
KIJUN
 62
     7
100
AcDbLine
 10
125.4943874534205
 20
29.73494312293638
 30
0.0
 11
126.2739305984205
 21
30.48555777613418
 31
0.0
  0
LINE
  5
218
330
2
100
AcDbEntity
  8
KIJUN
 62
     7
100
AcDbLine
 10
112.8980307818205
 20
30.48559496173634
 30
0.0
 11
113.6775738506209
 21
29.73498030853586
 31
0.0
  0
ARC
  5
219
330
2
100
AcDbEntity
  8
KIJUN
 62
     7
100
AcDbCircle
 10
121.2084633734215
 20
38.65995461729339
 30
0.0
 40
12.73429894948618
100
AcDbArc
 50
299.3846043590814
 51
348.7795373664547
  0
CIRCLE
  5
21A
330
2
100
AcDbEntity
  8
KIJUN
 62
     7
100
AcDbCircle
 10
134.62104028695
 20
37.48642232453682
 30
0.0
 40
0.3809255526
  0
ARC
  5
21B
330
2
100
AcDbEntity
  8
KIJUN
 62
     7
100
AcDbCircle
 10
134.5842046290368
 20
37.56788502881098
 30
0.0
 40
1.646051791635366
100
AcDbArc
 50
237.4666657179525
 51
302.6574811804139
  0
ARC
  5
21C
330
2
100
AcDbEntity
  8
KIJUN
 62
     7
100
AcDbCircle
 10
135.7831901985541
 20
35.18342912713668
 30
0.0
 40
8.880493389599998
100
AcDbArc
 50
224.5367638985464
 51
262.8575440000007
  0
CIRCLE
  5
21D
330
2
100
AcDbEntity
  8
KIJUN
 62
     7
100
AcDbCircle
 10
134.5507551354749
 20
37.48642232453682
 30
0.0
 40
0.3809255526
  0
ARC
  5
21E
330
2
100
AcDbEntity
  8
KIJUN
 62
     7
100
AcDbCircle
 10
147.9633320490035
 20
38.65995461729339
 30
0.0
 40
12.73429894948618
100
AcDbArc
 50
191.2204626335453
 51
240.6153956409186
  0
CIRCLE
  5
21F
330
2
100
AcDbEntity
  8
KIJUN
 62
     7
100
AcDbCircle
 10
134.62104028695
 20
37.48642232453682
 30
0.0
 40
1.251598030199999
  0
ARC
  5
220
330
2
100
AcDbEntity
  8
KIJUN
 62
     7
100
AcDbCircle
 10
133.3886052238707
 20
35.18342912713668
 30
0.0
 40
8.880493389599998
100
AcDbArc
 50
277.1424559999997
 51
315.4632361014535
  0
ARC
  5
221
330
2
100
AcDbEntity
  8
KIJUN
 62
     7
100
AcDbCircle
 10
147.9633320490035
 20
38.65995461729339
 30
0.0
 40
12.73429894948618
100
AcDbArc
 50
191.2204626335453
 51
240.6153956409186
  0
LINE
  5
222
330
2
100
AcDbEntity
  8
KIJUN
 62
     7
100
AcDbLine
 10
149.5858977112124
 20
27.3956254495352
 30
0.0
 11
150.066951318221
 21
27.39562544953566
 31
0.0
  0
ARC
  5
223
330
2
100
AcDbEntity
  8
KIJUN
 62
     7
100
AcDbCircle
 10
155.9738477843913
 20
39.67634051269721
 30
0.0
 40
4.372458282046931
100
AcDbArc
 50
359.3736550257799
 51
15.71073987175645
  0
LINE
  5
224
330
2
100
AcDbEntity
  8
KIJUN
 62
     7
100
AcDbLine
 10
160.2974710400207
 20
38.3490673607344
 30
0.0
 11
160.3460448062206
 21
39.62854270373515
 31
0.0
  0
LINE
  5
225
330
2
100
AcDbEntity
  8
KIJUN
 62
     7
100
AcDbLine
 10
160.1632839068205
 20
37.0804935707352
 30
0.0
 11
160.2974710400207
 21
38.3490673607344
 31
0.0
  0
LINE
  5
226
330
2
100
AcDbEntity
  8
KIJUN
 62
     7
100
AcDbLine
 10
159.9445716188205
 20
37.83290465113675
 30
0.0
 11
160.1632839068205
 21
37.0804935707352
 31
0.0
  0
LINE
  5
227
330
2
100
AcDbEntity
  8
KIJUN
 62
     7
100
AcDbLine
 10
159.6430644494203
 20
36.61634635273506
 30
0.0
 11
159.9445716188205
 21
37.83290465113675
 31
0.0
  0
LINE
  5
228
330
2
100
AcDbEntity
  8
KIJUN
 62
     7
100
AcDbLine
 10
159.2611808342207
 20
35.44052975593564
 30
0.0
 11
159.6430644494203
 21
36.61634635273506
 31
0.0
  0
LINE
  5
229
330
2
100
AcDbEntity
  8
KIJUN
 62
     7
100
AcDbLine
 10
158.8019715926206
 20
34.31479378033697
 30
0.0
 11
159.2611808342207
 21
35.44052975593564
 31
0.0
  0
LINE
  5
22A
330
2
100
AcDbEntity
  8
KIJUN
 62
     7
100
AcDbLine
 10
158.2691110886208
 20
33.24817986073464
 30
0.0
 11
158.8019715926206
 21
34.31479378033697
 31
0.0
  0
LINE
  5
22B
330
2
100
AcDbEntity
  8
KIJUN
 62
     7
100
AcDbLine
 10
157.6668595118208
 20
32.24924548573523
 30
0.0
 11
158.2691110886208
 21
33.24817986073464
 31
0.0
  0
LINE
  5
22C
330
2
100
AcDbEntity
  8
KIJUN
 62
     7
100
AcDbLine
 10
157.0000164716203
 20
31.32587857453433
 30
0.0
 11
157.6668595118208
 21
32.24924548573523
 31
0.0
  0
LINE
  5
22D
330
2
100
AcDbEntity
  8
KIJUN
 62
     7
100
AcDbLine
 10
156.2739305984205
 20
30.48555777613418
 30
0.0
 11
157.0000164716203
 21
31.32587857453433
 31
0.0
  0
ARC
  5
22E
330
2
100
AcDbEntity
  8
KIJUN
 62
     7
100
AcDbCircle
 10
151.0806475382209
 20
40.30954301813614
 30
0.0
 40
11.42081797619999
100
AcDbArc
 50
344.5568850000017
 51
2.750086000002156
  0
ARC
  5
22F
330
2
100
AcDbEntity
  8
KIJUN
 62
     7
100
AcDbCircle
 10
151.4486734185116
 20
41.39458374528692
 30
0.0
 40
11.41224911265318
100
AcDbArc
 50
307.5461910420818
 51
338.8160833175795
  0
ARC
  5
230
330
2
100
AcDbEntity
  8
KIJUN
 62
     7
100
AcDbCircle
 10
146.5589700944206
 20
43.01785326013678
 30
0.0
 40
15.94276410119999
100
AcDbArc
 50
305.9175110000095
 51
317.9815980000076
  0
LINE
  5
231
330
2
100
AcDbEntity
  8
KIJUN
 62
     7
100
AcDbLine
 10
153.8002490078211
 20
28.52612384893615
 30
0.0
 11
154.6676193584204
 21
29.08006218733641
 31
0.0
  0
LINE
  5
232
330
2
100
AcDbEntity
  8
KIJUN
 62
     7
100
AcDbLine
 10
152.8991877416205
 20
28.0775559373347
 30
0.0
 11
153.8002490078211
 21
28.52612384893615
 31
0.0
  0
LINE
  5
233
330
2
100
AcDbEntity
  8
KIJUN
 62
     7
100
AcDbLine
 10
151.9716536810206
 20
27.73796736073524
 30
0.0
 11
152.8991877416205
 21
28.0775559373347
 31
0.0
  0
LINE
  5
234
330
2
100
AcDbEntity
  8
KIJUN
 62
     7
100
AcDbLine
 10
151.0250509514209
 20
27.51003708253627
 30
0.0
 11
151.9716536810206
 21
27.73796736073524
 31
0.0
  0
LINE
  5
235
330
2
100
AcDbEntity
  8
KIJUN
 62
     7
100
AcDbLine
 10
150.066951318221
 20
27.39562544953566
 30
0.0
 11
151.0250509514209
 21
27.51003708253627
 31
0.0
  0
LINE
  5
236
330
2
100
AcDbEntity
  8
KIJUN
 62
     7
100
AcDbLine
 10
154.6676193584204
 20
29.08006218733641
 30
0.0
 11
155.4943874534205
 21
29.73494312293638
 31
0.0
  0
LINE
  5
237
330
2
100
AcDbEntity
  8
KIJUN
 62
     7
100
AcDbLine
 10
155.4943874534205
 20
29.73494312293638
 30
0.0
 11
156.2739305984205
 21
30.48555777613418
 31
0.0
  0
DIMENSION
  5
238
330
2
100
AcDbEntity
  8
SUNPOU
100
AcDbDimension
  2
*D3
 10
8.527326856202702
 20
49.02107477962232
 30
0.0
 11
4.527326856202694
 21
36.49673344482251
 31
0.0
 71
     5
 42
25.04868266959965
  3
STANDARD$0
100
AcDbAlignedDimension
 13
18.45979463318365
 23
23.97239211002268
 33
0.0
 14
18.45979463318365
 24
49.02107477962232
 34
0.0
 50
90.0
100
AcDbRotatedDimension
1001
ACAD
1000
DSTYLE
1002
{
1070
    41
1040
0.5
1070
    42
1040
1.0
1070
    44
1040
0.0
1070
    77
1070
     1
1070
    78
1070
     0
1070
   140
1040
2.0
1070
   141
1040
1.0
1070
   146
1040
0.0642857142857143
1070
   172
1070
     0
1070
   176
1070
    60
1070
   177
1070
    70
1070
   178
1070
    60
1070
   271
1070
     0
1070
   272
1070
     0
1070
   341
1005
0
1002
}
  0
LINE
  5
24E
330
2
100
AcDbEntity
  8
KIJUN
 62
     7
100
AcDbLine
 10
49.5858977112125
 20
36.4408971938888
 30
0.0
 11
49.9107805460207
 21
35.44052975593564
 31
0.0
  0
ARC
  5
24F
330
2
100
AcDbEntity
  8
KIJUN
 62
     7
100
AcDbCircle
 10
60.47311255822018
 20
40.02860315533559
 30
0.0
 40
12.6948611736
100
AcDbArc
 50
210.9509360940031
 51
265.9924620000008
  0
ARC
  5
250
330
2
100
AcDbEntity
  8
KIJUN
 62
     7
100
AcDbCircle
 10
55.95863464282053
 20
40.37034979213654
 30
0.0
 40
13.4000890494
100
AcDbArc
 50
241.603255815363
 51
252.8795010000004
  0
ARC
  5
251
330
2
100
AcDbEntity
  8
KIJUN
 62
     7
100
AcDbCircle
 10
65.97384778439118
 20
39.67634051269721
 30
0.0
 40
4.372458282046931
100
AcDbArc
 50
359.3736550257799
 51
15.71073987175645
  0
LINE
  5
252
330
2
100
AcDbEntity
  8
KIJUN
 62
     7
100
AcDbLine
 10
70.2974710400209
 20
38.3490673607344
 30
0.0
 11
70.34604480622068
 21
39.62854270373515
 31
0.0
  0
LINE
  5
253
330
2
100
AcDbEntity
  8
KIJUN
 62
     7
100
AcDbLine
 10
70.16328390682071
 20
37.0804935707352
 30
0.0
 11
70.2974710400209
 21
38.3490673607344
 31
0.0
  0
LINE
  5
254
330
2
100
AcDbEntity
  8
KIJUN
 62
     7
100
AcDbLine
 10
69.94457161882071
 20
37.83290465113675
 30
0.0
 11
70.16328390682071
 21
37.0804935707352
 31
0.0
  0
LINE
  5
255
330
2
100
AcDbEntity
  8
KIJUN
 62
     7
100
AcDbLine
 10
69.64306444942031
 20
36.61634635273506
 30
0.0
 11
69.94457161882071
 21
37.83290465113675
 31
0.0
  0
LINE
  5
256
330
2
100
AcDbEntity
  8
KIJUN
 62
     7
100
AcDbLine
 10
69.26118083422079
 20
35.44052975593564
 30
0.0
 11
69.64306444942031
 21
36.61634635273506
 31
0.0
  0
LINE
  5
257
330
2
100
AcDbEntity
  8
KIJUN
 62
     7
100
AcDbLine
 10
68.8019715926207
 20
34.31479378033697
 30
0.0
 11
69.26118083422079
 21
35.44052975593564
 31
0.0
  0
LINE
  5
258
330
2
100
AcDbEntity
  8
KIJUN
 62
     7
100
AcDbLine
 10
68.2691110886207
 20
33.24817986073464
 30
0.0
 11
68.8019715926207
 21
34.31479378033697
 31
0.0
  0
LINE
  5
259
330
2
100
AcDbEntity
  8
KIJUN
 62
     7
100
AcDbLine
 10
67.66685951182092
 20
32.24924548573523
 30
0.0
 11
68.2691110886207
 21
33.24817986073464
 31
0.0
  0
LINE
  5
25A
330
2
100
AcDbEntity
  8
KIJUN
 62
     7
100
AcDbLine
 10
67.00001647162018
 20
31.32587857453433
 30
0.0
 11
67.66685951182092
 21
32.24924548573523
 31
0.0
  0
LINE
  5
25B
330
2
100
AcDbEntity
  8
KIJUN
 62
     7
100
AcDbLine
 10
66.27393059842063
 20
30.48555777613418
 30
0.0
 11
67.00001647162018
 21
31.32587857453433
 31
0.0
  0
LINE
  5
25C
330
2
100
AcDbEntity
  8
KIJUN
 62
     7
100
AcDbLine
 10
52.1719355360205
 20
31.32591576013742
 30
0.0
 11
52.89803078182067
 21
30.48559496173634
 31
0.0
  0
LINE
  5
25D
330
2
100
AcDbEntity
  8
KIJUN
 62
     7
100
AcDbLine
 10
51.5051017922206
 20
32.24924548573523
 30
0.0
 11
52.1719355360205
 21
31.32591576013742
 31
0.0
  0
LINE
  5
25E
330
2
100
AcDbEntity
  8
KIJUN
 62
     7
100
AcDbLine
 10
50.90285021542051
 20
33.24821704633411
 30
0.0
 11
51.5051017922206
 21
32.24924548573523
 31
0.0
  0
LINE
  5
25F
330
2
100
AcDbEntity
  8
KIJUN
 62
     7
100
AcDbLine
 10
50.36998971142018
 20
34.31479378033697
 30
0.0
 11
50.90285021542051
 21
33.24821704633411
 31
0.0
  0
LINE
  5
260
330
2
100
AcDbEntity
  8
KIJUN
 62
     7
100
AcDbLine
 10
49.9107805460207
 20
35.44052975593564
 30
0.0
 11
50.36998971142018
 21
34.31479378033697
 31
0.0
  0
ARC
  5
261
330
2
100
AcDbEntity
  8
KIJUN
 62
     7
100
AcDbCircle
 10
56.5589700944206
 20
43.01785326013678
 30
0.0
 40
15.94276410119999
100
AcDbArc
 50
305.9175110000095
 51
317.9815980000076
  0
LINE
  5
262
330
2
100
AcDbEntity
  8
KIJUN
 62
     7
100
AcDbLine
 10
63.80024900782109
 20
28.52612384893615
 30
0.0
 11
64.66761935842038
 21
29.08006218733641
 31
0.0
  0
LINE
  5
263
330
2
100
AcDbEntity
  8
KIJUN
 62
     7
100
AcDbLine
 10
54.50433272542063
 20
29.08006218733641
 30
0.0
 11
55.37170299982069
 21
28.52612384893615
 31
0.0
  0
LINE
  5
264
330
2
100
AcDbEntity
  8
KIJUN
 62
     7
100
AcDbLine
 10
62.8991877416206
 20
28.0775559373347
 30
0.0
 11
63.80024900782109
 21
28.52612384893615
 31
0.0
  0
LINE
  5
265
330
2
100
AcDbEntity
  8
KIJUN
 62
     7
100
AcDbLine
 10
61.97165368102059
 20
27.73796736073524
 30
0.0
 11
62.8991877416206
 21
28.0775559373347
 31
0.0
  0
LINE
  5
266
330
2
100
AcDbEntity
  8
KIJUN
 62
     7
100
AcDbLine
 10
61.02505095142088
 20
27.51003708253627
 30
0.0
 11
61.97165368102059
 21
27.73796736073524
 31
0.0
  0
LINE
  5
267
330
2
100
AcDbEntity
  8
KIJUN
 62
     7
100
AcDbLine
 10
60.06695131822117
 20
27.39562544953566
 30
0.0
 11
61.02505095142088
 21
27.51003708253627
 31
0.0
  0
LINE
  5
268
330
2
100
AcDbEntity
  8
KIJUN
 62
     7
100
AcDbLine
 10
59.10500068942114
 20
27.39562544953566
 30
0.0
 11
60.06695131822117
 21
27.39562544953566
 31
0.0
  0
LINE
  5
269
330
2
100
AcDbEntity
  8
KIJUN
 62
     7
100
AcDbLine
 10
58.14690105622048
 20
27.51003708253627
 30
0.0
 11
59.10500068942114
 21
27.39562544953566
 31
0.0
  0
LINE
  5
26A
330
2
100
AcDbEntity
  8
KIJUN
 62
     7
100
AcDbLine
 10
57.20029840282039
 20
27.73796736073524
 30
0.0
 11
58.14690105622048
 21
27.51003708253627
 31
0.0
  0
LINE
  5
26B
330
2
100
AcDbEntity
  8
KIJUN
 62
     7
100
AcDbLine
 10
56.2727642660202
 20
28.0775559373347
 30
0.0
 11
57.20029840282039
 21
27.73796736073524
 31
0.0
  0
LINE
  5
26C
330
2
100
AcDbEntity
  8
KIJUN
 62
     7
100
AcDbLine
 10
55.37170299982069
 20
28.52612384893615
 30
0.0
 11
56.2727642660202
 21
28.0775559373347
 31
0.0
  0
ARC
  5
26D
330
2
100
AcDbEntity
  8
KIJUN
 62
     7
100
AcDbCircle
 10
59.73543666502068
 20
47.63703180433693
 30
0.0
 40
21.50690349359999
100
AcDbArc
 50
248.9594420000011
 51
291.0397640000027
  0
LINE
  5
26E
330
2
100
AcDbEntity
  8
KIJUN
 62
     7
100
AcDbLine
 10
64.66761935842038
 20
29.08006218733641
 30
0.0
 11
65.4943874534207
 21
29.73494312293638
 31
0.0
  0
LINE
  5
26F
330
2
100
AcDbEntity
  8
KIJUN
 62
     7
100
AcDbLine
 10
53.67757385062088
 20
29.73498030853586
 30
0.0
 11
54.50433272542063
 21
29.08006218733641
 31
0.0
  0
LINE
  5
270
330
2
100
AcDbEntity
  8
KIJUN
 62
     7
100
AcDbLine
 10
65.4943874534207
 20
29.73494312293638
 30
0.0
 11
66.27393059842063
 21
30.48555777613418
 31
0.0
  0
LINE
  5
271
330
2
100
AcDbEntity
  8
KIJUN
 62
     7
100
AcDbLine
 10
52.89803078182067
 20
30.48559496173634
 30
0.0
 11
53.67757385062088
 21
29.73498030853586
 31
0.0
  0
DIMENSION
  5
272
330
2
100
AcDbEntity
  8
SUNPOU
100
AcDbDimension
  2
*D2
 10
18.45977154760708
 20
57.86340273150203
 30
0.0
 11
25.64589713950704
 21
61.86340273150204
 31
0.0
 71
     5
 42
14.37225118379991
  3
STANDARD$0
100
AcDbAlignedDimension
 13
32.832022731407
 23
49.02107477962232
 33
0.0
 14
18.45977154760708
 24
49.02107477962232
 34
0.0
 50
180.0
100
AcDbRotatedDimension
1001
ACAD
1000
DSTYLE
1002
{
1070
    41
1040
0.5
1070
    42
1040
1.0
1070
    44
1040
0.0
1070
    77
1070
     1
1070
    78
1070
     0
1070
   140
1040
2.0
1070
   141
1040
1.0
1070
   146
1040
0.0642857142857143
1070
   172
1070
     0
1070
   176
1070
    60
1070
   177
1070
    70
1070
   178
1070
    60
1070
   271
1070
     0
1070
   272
1070
     0
1070
   341
1005
0
1002
}
  0
TEXT
  5
27F
330
2
100
AcDbEntity
  8
HOJO
100
AcDbText
 10
0.625742180363659
 20
1.183313000000011
 30
0.0
 40
4.5
  1
PM802
  7
SUNPOU
100
AcDbText
  0
LINE
  5
281
330
2
100
AcDbEntity
  8
WAKU
100
AcDbLine
 10
0.0
 20
0.0
 30
0.0
 11
44.67747103027142
 21
0.0
 31
0.0
  0
LINE
  5
283
330
2
100
AcDbEntity
  8
WAKU
100
AcDbLine
 10
0.0
 20
7.0
 30
0.0
 11
44.67747103027142
 21
7.0
 31
0.0
  0
TEXT
  5
284
330
2
100
AcDbEntity
  8
HOJO
100
AcDbText
 10
30.53210831310583
 20
2.522193000000015
 30
0.0
 40
3.0
  1
25\U+00D714
  7
SUNPOU
100
AcDbText
  0
LWPOLYLINE
  5
285
330
2
100
AcDbEntity
  8
KIJUN
 62
     7
100
AcDbPolyline
 90
        7
 70
     1
 43
0.0
 10
19.95949203458388
 20
25.61023943699871
 10
19.95949203458388
 20
23.97239211002268
 10
18.45979463318365
 20
23.97239211002268
 10
18.45979463318365
 20
49.02107477962232
 10
32.83204581698385
 20
49.02107477962232
 10
32.83204581698385
 20
41.0006285485984
 10
30.21196855778403
 20
41.0006285485984
 42
-0.296176622420697
  0
ENDSEC
  0
SECTION
  2
OBJECTS
  0
DICTIONARY
  5
A
330
0
100
AcDbDictionary
281
     1
  3
ACAD_COLOR
350
47
  3
ACAD_GROUP
350
3C
  3
ACAD_LAYOUT
350
1F
  3
ACAD_MATERIAL
350
C
  3
ACAD_MLEADERSTYLE
350
4A
  3
ACAD_MLINESTYLE
350
3D
  3
ACAD_PLOTSETTINGS
350
3E
  3
ACAD_PLOTSTYLENAME
350
9
  3
ACAD_SCALELIST
350
48
  3
ACAD_TABLESTYLE
350
49
  3
ACAD_VISUALSTYLE
350
32
  3
ACDB_RECOMPOSE_DATA
350
297
  3
AcDbVariableDictionary
350
28A
  0
DICTIONARY
  5
3
330
2
100
AcDbDictionary
280
     1
281
     1
  3
ACAD_LAYOUTSELFREF
360
4
  0
DICTIONARY
  5
21
330
20
100
AcDbDictionary
280
     1
281
     1
  3
ACAD_LAYOUTSELFREF
360
22
  0
DICTIONARY
  5
47
102
{ACAD_REACTORS
330
A
102
}
330
A
100
AcDbDictionary
281
     1
  0
DICTIONARY
  5
3C
102
{ACAD_REACTORS
330
A
102
}
330
A
100
AcDbDictionary
281
     1
  0
DICTIONARY
  5
1F
102
{ACAD_REACTORS
330
A
102
}
330
A
100
AcDbDictionary
281
     1
  3
Model
350
1E
  3
ﾚｲｱｳﾄ1
350
25
  0
DICTIONARY
  5
C
102
{ACAD_REACTORS
330
A
102
}
330
A
100
AcDbDictionary
281
     1
  3
ByBlock
350
3F
  3
ByLayer
350
15
  3
Global
350
B
  0
DICTIONARY
  5
4A
102
{ACAD_REACTORS
330
A
102
}
330
A
100
AcDbDictionary
281
     1
  0
DICTIONARY
  5
3D
102
{ACAD_REACTORS
330
A
102
}
330
A
100
AcDbDictionary
281
     1
  3
STANDARD
350
4C
  0
DICTIONARY
  5
3E
102
{ACAD_REACTORS
330
A
102
}
330
A
100
AcDbDictionary
281
     1
  0
ACDBDICTIONARYWDFLT
  5
9
102
{ACAD_REACTORS
330
A
102
}
330
A
100
AcDbDictionary
281
     1
  3
Normal
350
8
100
AcDbDictionaryWithDefault
340
8
  0
DICTIONARY
  5
48
102
{ACAD_REACTORS
330
A
102
}
330
A
100
AcDbDictionary
281
     1
  3
A0
350
51
  3
A1
350
52
  3
A2
350
53
  3
A3
350
54
  3
A4
350
55
  3
A5
350
56
  3
A6
350
57
  3
A7
350
58
  3
A8
350
59
  3
A9
350
5A
  3
B0
350
5B
  3
B1
350
5C
  3
B2
350
5D
  3
B3
350
5E
  3
B4
350
5F
  3
B5
350
60
  3
B6
350
61
  0
DICTIONARY
  5
49
102
{ACAD_REACTORS
330
A
102
}
330
A
100
AcDbDictionary
281
     1
  3
Standard
350
4D
  0
DICTIONARY
  5
32
102
{ACAD_REACTORS
330
A
102
}
330
A
100
AcDbDictionary
281
     1
  3
2dWireframe
350
31
  3
Realistic
350
4E
  3
Wireframe
350
4F
  0
XRECORD
  5
297
102
{ACAD_REACTORS
330
A
102
}
330
A
100
AcDbXrecord
280
     1
 90
        1
330
4D
  0
DICTIONARY
  5
28A
102
{ACAD_REACTORS
330
A
102
}
330
A
100
AcDbDictionary
281
     1
  3
CANNOSCALE
350
28F
  3
CMLEADERSTYLE
350
28C
  3
CTABLESTYLE
350
28B
  3
CVIEWDETAILSTYLE
350
28D
  3
CVIEWSECTIONSTYLE
350
28E
  3
DIMASSOC
350
293
  3
HIDETEXT
350
292
  3
INDEXCTL
350
291
  3
SORTENTS
350
290
  3
XCLIPFRAME
350
294
  0
XRECORD
  5
4
102
{ACAD_REACTORS
330
3
102
}
330
3
100
AcDbXrecord
280
     1
340
2
  0
XRECORD
  5
22
102
{ACAD_REACTORS
330
21
102
}
330
21
100
AcDbXrecord
280
     1
340
20
  0
LAYOUT
  5
1E
102
{ACAD_XDICTIONARY
360
29A
102
}
102
{ACAD_REACTORS
330
1F
102
}
330
1F
100
AcDbPlotSettings
  1

  2
なし
  4

  6

 40
0.0
 41
0.0
 42
0.0
 43
0.0
 44
0.0
 45
0.0
 46
0.0
 47
0.0
 48
0.0
 49
0.0
140
0.0
141
0.0
142
1.0
143
1.0
 70
  1712
 72
     0
 73
     0
 74
     0
  7
monochrome.ctb
 75
     0
147
1.0
148
0.0
149
0.0
100
AcDbLayout
  1
Model
 70
     1
 71
     0
 10
0.0
 20
0.0
 11
12.0
 21
9.0
 12
0.0
 22
0.0
 32
0.0
 14
0.0
 24
0.0
 34
0.0
 15
0.0
 25
0.0
 35
0.0
146
0.0
 13
0.0
 23
0.0
 33
0.0
 16
1.0
 26
0.0
 36
0.0
 17
0.0
 27
1.0
 37
0.0
 76
     0
330
2
  0
LAYOUT
  5
25
102
{ACAD_XDICTIONARY
360
29C
102
}
102
{ACAD_REACTORS
330
1F
102
}
330
1F
100
AcDbPlotSettings
  1

  2
なし
  4

  6

 40
0.0
 41
0.0
 42
0.0
 43
0.0
 44
0.0
 45
0.0
 46
0.0
 47
0.0
 48
0.0
 49
0.0
140
0.0
141
0.0
142
1.0
143
1.0
 70
   688
 72
     0
 73
     0
 74
     5
  7
monochrome.ctb
 75
    16
147
1.0
148
0.0
149
0.0
100
AcDbLayout
  1
ﾚｲｱｳﾄ1
 70
     1
 71
     1
 10
0.0
 20
0.0
 11
12.0
 21
9.0
 12
0.0
 22
0.0
 32
0.0
 14
1.000000000000000E+20
 24
1.000000000000000E+20
 34
1.000000000000000E+20
 15
-1.000000000000000E+20
 25
-1.000000000000000E+20
 35
-1.000000000000000E+20
146
0.0
 13
0.0
 23
0.0
 33
0.0
 16
1.0
 26
0.0
 36
0.0
 17
0.0
 27
1.0
 37
0.0
 76
     0
330
20
  0
MATERIAL
  5
3F
102
{ACAD_XDICTIONARY
360
40
102
}
102
{ACAD_REACTORS
330
C
102
}
330
C
100
AcDbMaterial
  1
ByBlock
 72
     0
 43
0.0208333333333333
 43
0.0
 43
0.0
 43
0.0
 43
0.0
 43
0.0208333333333333
 43
0.0
 43
0.0
 43
0.0
 43
0.0
 43
1.0
 43
0.0
 43
0.0
 43
0.0
 43
0.0
 43
1.0
 77
     0
 47
0.0208333333333333
 47
0.0
 47
0.0
 47
0.0
 47
0.0
 47
0.0208333333333333
 47
0.0
 47
0.0
 47
0.0
 47
0.0
 47
1.0
 47
0.0
 47
0.0
 47
0.0
 47
0.0
 47
1.0
171
     0
 49
0.0208333333333333
 49
0.0
 49
0.0
 49
0.0
 49
0.0
 49
0.0208333333333333
 49
0.0
 49
0.0
 49
0.0
 49
0.0
 49
1.0
 49
0.0
 49
0.0
 49
0.0
 49
0.0
 49
1.0
175
     0
142
0.0208333333333333
142
0.0
142
0.0
142
0.0
142
0.0
142
0.0208333333333333
142
0.0
142
0.0
142
0.0
142
0.0
142
1.0
142
0.0
142
0.0
142
0.0
142
0.0
142
1.0
179
     0
144
0.0208333333333333
144
0.0
144
0.0
144
0.0
144
0.0
144
0.0208333333333333
144
0.0
144
0.0
144
0.0
144
0.0
144
1.0
144
0.0
144
0.0
144
0.0
144
0.0
144
1.0
147
0.0208333333333333
147
0.0
147
0.0
147
0.0
147
0.0
147
0.0208333333333333
147
0.0
147
0.0
147
0.0
147
0.0
147
1.0
147
0.0
147
0.0
147
0.0
147
0.0
147
1.0
  0
MATERIAL
  5
15
102
{ACAD_XDICTIONARY
360
16
102
}
102
{ACAD_REACTORS
330
C
102
}
330
C
100
AcDbMaterial
  1
ByLayer
 72
     0
 43
0.0208333333333333
 43
0.0
 43
0.0
 43
0.0
 43
0.0
 43
0.0208333333333333
 43
0.0
 43
0.0
 43
0.0
 43
0.0
 43
1.0
 43
0.0
 43
0.0
 43
0.0
 43
0.0
 43
1.0
 77
     0
 47
0.0208333333333333
 47
0.0
 47
0.0
 47
0.0
 47
0.0
 47
0.0208333333333333
 47
0.0
 47
0.0
 47
0.0
 47
0.0
 47
1.0
 47
0.0
 47
0.0
 47
0.0
 47
0.0
 47
1.0
171
     0
 49
0.0208333333333333
 49
0.0
 49
0.0
 49
0.0
 49
0.0
 49
0.0208333333333333
 49
0.0
 49
0.0
 49
0.0
 49
0.0
 49
1.0
 49
0.0
 49
0.0
 49
0.0
 49
0.0
 49
1.0
175
     0
142
0.0208333333333333
142
0.0
142
0.0
142
0.0
142
0.0
142
0.0208333333333333
142
0.0
142
0.0
142
0.0
142
0.0
142
1.0
142
0.0
142
0.0
142
0.0
142
0.0
142
1.0
179
     0
144
0.0208333333333333
144
0.0
144
0.0
144
0.0
144
0.0
144
0.0208333333333333
144
0.0
144
0.0
144
0.0
144
0.0
144
1.0
144
0.0
144
0.0
144
0.0
144
0.0
144
1.0
147
0.0208333333333333
147
0.0
147
0.0
147
0.0
147
0.0
147
0.0208333333333333
147
0.0
147
0.0
147
0.0
147
0.0
147
1.0
147
0.0
147
0.0
147
0.0
147
0.0
147
1.0
  0
MATERIAL
  5
B
102
{ACAD_XDICTIONARY
360
D
102
}
102
{ACAD_REACTORS
330
C
102
}
330
C
100
AcDbMaterial
  1
Global
 72
     0
 43
0.0208333333333333
 43
0.0
 43
0.0
 43
0.0
 43
0.0
 43
0.0208333333333333
 43
0.0
 43
0.0
 43
0.0
 43
0.0
 43
1.0
 43
0.0
 43
0.0
 43
0.0
 43
0.0
 43
1.0
 77
     0
 47
0.0208333333333333
 47
0.0
 47
0.0
 47
0.0
 47
0.0
 47
0.0208333333333333
 47
0.0
 47
0.0
 47
0.0
 47
0.0
 47
1.0
 47
0.0
 47
0.0
 47
0.0
 47
0.0
 47
1.0
171
     0
 49
0.0208333333333333
 49
0.0
 49
0.0
 49
0.0
 49
0.0
 49
0.0208333333333333
 49
0.0
 49
0.0
 49
0.0
 49
0.0
 49
1.0
 49
0.0
 49
0.0
 49
0.0
 49
0.0
 49
1.0
175
     0
142
0.0208333333333333
142
0.0
142
0.0
142
0.0
142
0.0
142
0.0208333333333333
142
0.0
142
0.0
142
0.0
142
0.0
142
1.0
142
0.0
142
0.0
142
0.0
142
0.0
142
1.0
179
     0
144
0.0208333333333333
144
0.0
144
0.0
144
0.0
144
0.0
144
0.0208333333333333
144
0.0
144
0.0
144
0.0
144
0.0
144
1.0
144
0.0
144
0.0
144
0.0
144
0.0
144
1.0
147
0.0208333333333333
147
0.0
147
0.0
147
0.0
147
0.0
147
0.0208333333333333
147
0.0
147
0.0
147
0.0
147
0.0
147
1.0
147
0.0
147
0.0
147
0.0
147
0.0
147
1.0
  0
MLINESTYLE
  5
4C
102
{ACAD_REACTORS
330
3D
102
}
330
3D
100
AcDbMlineStyle
  2
STANDARD
 70
     0
  3

 62
   256
 51
90.0
 52
90.0
 71
     2
 49
0.5
 62
   256
  6
BYLAYER
 49
-0.5
 62
   256
  6
BYLAYER
  0
ACDBPLACEHOLDER
  5
8
102
{ACAD_REACTORS
330
9
102
}
330
9
  0
SCALE
  5
51
102
{ACAD_REACTORS
330
48
102
}
330
48
100
AcDbScale
 70
     0
300
1:1
140
1.0
141
1.0
290
     1
  0
SCALE
  5
52
102
{ACAD_REACTORS
330
48
102
}
330
48
100
AcDbScale
 70
     0
300
1/128" = 1'-0"
140
0.0078125
141
12.0
290
     0
  0
SCALE
  5
53
102
{ACAD_REACTORS
330
48
102
}
330
48
100
AcDbScale
 70
     0
300
1/64" = 1'-0"
140
0.015625
141
12.0
290
     0
  0
SCALE
  5
54
102
{ACAD_REACTORS
330
48
102
}
330
48
100
AcDbScale
 70
     0
300
1/32" = 1'-0"
140
0.03125
141
12.0
290
     0
  0
SCALE
  5
55
102
{ACAD_REACTORS
330
48
102
}
330
48
100
AcDbScale
 70
     0
300
1/16" = 1'-0"
140
0.0625
141
12.0
290
     0
  0
SCALE
  5
56
102
{ACAD_REACTORS
330
48
102
}
330
48
100
AcDbScale
 70
     0
300
3/32" = 1'-0"
140
0.09375
141
12.0
290
     0
  0
SCALE
  5
57
102
{ACAD_REACTORS
330
48
102
}
330
48
100
AcDbScale
 70
     0
300
1/8" = 1'-0"
140
0.125
141
12.0
290
     0
  0
SCALE
  5
58
102
{ACAD_REACTORS
330
48
102
}
330
48
100
AcDbScale
 70
     0
300
3/16" = 1'-0"
140
0.1875
141
12.0
290
     0
  0
SCALE
  5
59
102
{ACAD_REACTORS
330
48
102
}
330
48
100
AcDbScale
 70
     0
300
1/4" = 1'-0"
140
0.25
141
12.0
290
     0
  0
SCALE
  5
5A
102
{ACAD_REACTORS
330
48
102
}
330
48
100
AcDbScale
 70
     0
300
3/8" = 1'-0"
140
0.375
141
12.0
290
     0
  0
SCALE
  5
5B
102
{ACAD_REACTORS
330
48
102
}
330
48
100
AcDbScale
 70
     0
300
1/2" = 1'-0"
140
0.5
141
12.0
290
     0
  0
SCALE
  5
5C
102
{ACAD_REACTORS
330
48
102
}
330
48
100
AcDbScale
 70
     0
300
3/4" = 1'-0"
140
0.75
141
12.0
290
     0
  0
SCALE
  5
5D
102
{ACAD_REACTORS
330
48
102
}
330
48
100
AcDbScale
 70
     0
300
1" = 1'-0"
140
1.0
141
12.0
290
     0
  0
SCALE
  5
5E
102
{ACAD_REACTORS
330
48
102
}
330
48
100
AcDbScale
 70
     0
300
1-1/2" = 1'-0"
140
1.5
141
12.0
290
     0
  0
SCALE
  5
5F
102
{ACAD_REACTORS
330
48
102
}
330
48
100
AcDbScale
 70
     0
300
3" = 1'-0"
140
3.0
141
12.0
290
     0
  0
SCALE
  5
60
102
{ACAD_REACTORS
330
48
102
}
330
48
100
AcDbScale
 70
     0
300
6" = 1'-0"
140
6.0
141
12.0
290
     0
  0
SCALE
  5
61
102
{ACAD_REACTORS
330
48
102
}
330
48
100
AcDbScale
 70
     0
300
1'-0" = 1'-0"
140
12.0
141
12.0
290
     0
  0
TABLESTYLE
  5
4D
102
{ACAD_XDICTIONARY
360
295
102
}
102
{ACAD_REACTORS
330
49
102
}
330
49
100
AcDbTableStyle
  3
Standard
 70
     0
 71
     0
 40
0.06
 41
0.06
280
     0
281
     0
  7
STANDARD
140
0.18
170
     2
 62
     0
 63
     7
283
     0
274
    -2
284
     1
 64
     0
275
    -2
285
     1
 65
     0
276
    -2
286
     1
 66
     0
277
    -2
287
     1
 67
     0
278
    -2
288
     1
 68
     0
279
    -2
289
     1
 69
     0
  7
STANDARD
140
0.25
170
     5
 62
     0
 63
     7
283
     0
274
    -2
284
     1
 64
     0
275
    -2
285
     1
 65
     0
276
    -2
286
     1
 66
     0
277
    -2
287
     1
 67
     0
278
    -2
288
     1
 68
     0
279
    -2
289
     1
 69
     0
  7
STANDARD
140
0.18
170
     5
 62
     0
 63
     7
283
     0
274
    -2
284
     1
 64
     0
275
    -2
285
     1
 65
     0
276
    -2
286
     1
 66
     0
277
    -2
287
     1
 67
     0
278
    -2
288
     1
 68
     0
279
    -2
289
     1
 69
     0
  0
VISUALSTYLE
  5
31
102
{ACAD_XDICTIONARY
360
29E
102
}
102
{ACAD_REACTORS
330
32
102
}
330
32
100
AcDbVisualStyle
  2
2dWireframe
 70
     4
 71
     0
 72
     2
 73
     0
 90
        0
 40
-0.6
 41
-30.0
 62
     5
 63
     7
 74
     1
 91
        4
 64
     7
 65
   257
 75
     1
175
     1
 42
1.0
 92
        0
 66
   257
 43
1.0
 76
     1
 77
     6
 78
     2
 67
     7
 79
     5
170
     0
171
     0
290
     0
174
     0
 93
        1
 44
0.0
173
     0
291
     0
 45
0.0
1001
ACAD
1000
AcDbSavedByObjectVersion
1070
     0
  0
VISUALSTYLE
  5
4E
102
{ACAD_XDICTIONARY
360
2A2
102
}
102
{ACAD_REACTORS
330
32
102
}
330
32
100
AcDbVisualStyle
  2
Realistic
 70
     8
 71
     2
 72
     3
 73
     0
 90
        2
 40
-0.6
 41
30.0
 62
     5
 63
     7
 74
     0
 91
        0
 64
     7
 65
   257
 75
     1
175
     1
 42
1.0
 92
        8
 66
   257
 43
1.0
 76
     1
 77
     6
 78
     2
 67
     7
 79
     3
170
     0
171
     0
290
     0
174
     0
 93
       13
 44
0.0
173
     0
291
     0
 45
0.0
1001
ACAD
1000
AcDbSavedByObjectVersion
1070
     0
  0
VISUALSTYLE
  5
4F
102
{ACAD_XDICTIONARY
360
2A4
102
}
102
{ACAD_REACTORS
330
32
102
}
330
32
100
AcDbVisualStyle
  2
Wireframe
 70
     5
 71
     0
 72
     2
 73
     0
 90
        0
 40
-0.6
 41
-30.0
 62
     5
 63
     7
 74
     1
 91
        4
 64
     7
 65
   257
 75
     1
175
     1
 42
1.0
 92
        0
 66
   257
 43
1.0
 76
     1
 77
     6
 78
     2
 67
     7
 79
     3
170
     0
171
     0
290
     0
174
     0
 93
        1
 44
0.0
173
     0
291
     0
 45
0.0
1001
ACAD
1000
AcDbSavedByObjectVersion
1070
     0
  0
DICTIONARYVAR
  5
28F
102
{ACAD_REACTORS
330
28A
102
}
330
28A
100
DictionaryVariables
280
     0
  1
1:1
  0
DICTIONARYVAR
  5
28C
102
{ACAD_REACTORS
330
28A
102
}
330
28A
100
DictionaryVariables
280
     0
  1
STANDARD
  0
DICTIONARYVAR
  5
28B
102
{ACAD_REACTORS
330
28A
102
}
330
28A
100
DictionaryVariables
280
     0
  1
STANDARD
  0
DICTIONARYVAR
  5
28D
102
{ACAD_REACTORS
330
28A
102
}
330
28A
100
DictionaryVariables
280
     0
  1

  0
DICTIONARYVAR
  5
28E
102
{ACAD_REACTORS
330
28A
102
}
330
28A
100
DictionaryVariables
280
     0
  1

  0
DICTIONARYVAR
  5
293
102
{ACAD_REACTORS
330
28A
102
}
330
28A
100
DictionaryVariables
280
     0
  1
1
  0
DICTIONARYVAR
  5
292
102
{ACAD_REACTORS
330
28A
102
}
330
28A
100
DictionaryVariables
280
     0
  1
1
  0
DICTIONARYVAR
  5
291
102
{ACAD_REACTORS
330
28A
102
}
330
28A
100
DictionaryVariables
280
     0
  1
0
  0
DICTIONARYVAR
  5
290
102
{ACAD_REACTORS
330
28A
102
}
330
28A
100
DictionaryVariables
280
     0
  1
127
  0
DICTIONARYVAR
  5
294
102
{ACAD_REACTORS
330
28A
102
}
330
28A
100
DictionaryVariables
280
     0
  1
2
  0
DICTIONARY
  5
29A
330
1E
100
AcDbDictionary
280
     1
281
     1
  3
ACAD_XREC_ROUNDTRIP
360
29B
  0
DICTIONARY
  5
29C
330
25
100
AcDbDictionary
280
     1
281
     1
  3
ACAD_XREC_ROUNDTRIP
360
29D
  0
DICTIONARY
  5
40
330
3F
100
AcDbDictionary
280
     1
281
     1
  3
ACAD_XREC_ROUNDTRIP
360
2A0
  3
BUMPTILE
360
41
  3
DIFFUSETILE
360
42
  3
OPACITYTILE
360
43
  3
REFLECTIONTILE
360
44
  3
REFRACTIONTILE
360
45
  3
SPECULARTILE
360
46
  0
DICTIONARY
  5
16
330
15
100
AcDbDictionary
280
     1
281
     1
  3
ACAD_XREC_ROUNDTRIP
360
299
  3
BUMPTILE
360
17
  3
DIFFUSETILE
360
18
  3
OPACITYTILE
360
19
  3
REFLECTIONTILE
360
1A
  3
REFRACTIONTILE
360
1B
  3
SPECULARTILE
360
1C
  0
DICTIONARY
  5
D
330
B
100
AcDbDictionary
280
     1
281
     1
  3
ACAD_XREC_ROUNDTRIP
360
298
  3
BUMPTILE
360
E
  3
DIFFUSETILE
360
F
  3
OPACITYTILE
360
10
  3
REFLECTIONTILE
360
11
  3
REFRACTIONTILE
360
12
  3
SPECULARTILE
360
13
  0
DICTIONARY
  5
295
330
4D
100
AcDbDictionary
280
     1
281
     1
  3
ACAD_ROUNDTRIP_2008_TABLESTYLE_CELLSTYLEMAP
360
296
  3
ACAD_XREC_ROUNDTRIP
360
2A1
  0
DICTIONARY
  5
29E
330
31
100
AcDbDictionary
280
     1
281
     1
  3
ACAD_XREC_ROUNDTRIP
360
29F
  0
DICTIONARY
  5
2A2
330
4E
100
AcDbDictionary
280
     1
281
     1
  3
ACAD_XREC_ROUNDTRIP
360
2A3
  0
DICTIONARY
  5
2A4
330
4F
100
AcDbDictionary
280
     1
281
     1
  3
ACAD_XREC_ROUNDTRIP
360
2A5
  0
XRECORD
  5
29B
102
{ACAD_REACTORS
330
29A
102
}
330
29A
100
AcDbXrecord
280
     1
102
SHADEPLOT
 70
     0
102
SHADEPLOTRESLEVEL
 70
     2
102
SHADEPLOTCUSTOMDPI
 70
   300
  0
XRECORD
  5
29D
102
{ACAD_REACTORS
330
29C
102
}
330
29C
100
AcDbXrecord
280
     1
102
SHADEPLOT
 70
     0
102
SHADEPLOTRESLEVEL
 70
     2
102
SHADEPLOTCUSTOMDPI
 70
   300
  0
XRECORD
  5
2A0
102
{ACAD_REACTORS
330
40
102
}
330
40
100
AcDbXrecord
280
     1
102
MATERIAL
148
0.0
149
0.0
149
0.0
 93
        0
 94
      127
282
     0
 72
     0
 77
     0
171
     0
175
     0
179
     0
273
     0
  0
XRECORD
  5
41
102
{ACAD_REACTORS
330
40
102
}
330
40
100
AcDbXrecord
280
     1
270
     1
271
     1
  0
XRECORD
  5
42
102
{ACAD_REACTORS
330
40
102
}
330
40
100
AcDbXrecord
280
     1
270
     1
271
     1
  0
XRECORD
  5
43
102
{ACAD_REACTORS
330
40
102
}
330
40
100
AcDbXrecord
280
     1
270
     1
271
     1
  0
XRECORD
  5
44
102
{ACAD_REACTORS
330
40
102
}
330
40
100
AcDbXrecord
280
     1
270
     1
271
     1
  0
XRECORD
  5
45
102
{ACAD_REACTORS
330
40
102
}
330
40
100
AcDbXrecord
280
     1
270
     1
271
     1
  0
XRECORD
  5
46
102
{ACAD_REACTORS
330
40
102
}
330
40
100
AcDbXrecord
280
     1
270
     1
271
     1
  0
XRECORD
  5
299
102
{ACAD_REACTORS
330
16
102
}
330
16
100
AcDbXrecord
280
     1
102
MATERIAL
148
0.0
149
0.0
149
0.0
 93
        0
 94
      127
282
     0
 72
     0
 77
     0
171
     0
175
     0
179
     0
273
     0
  0
XRECORD
  5
17
102
{ACAD_REACTORS
330
16
102
}
330
16
100
AcDbXrecord
280
     1
270
     1
271
     1
  0
XRECORD
  5
18
102
{ACAD_REACTORS
330
16
102
}
330
16
100
AcDbXrecord
280
     1
270
     1
271
     1
  0
XRECORD
  5
19
102
{ACAD_REACTORS
330
16
102
}
330
16
100
AcDbXrecord
280
     1
270
     1
271
     1
  0
XRECORD
  5
1A
102
{ACAD_REACTORS
330
16
102
}
330
16
100
AcDbXrecord
280
     1
270
     1
271
     1
  0
XRECORD
  5
1B
102
{ACAD_REACTORS
330
16
102
}
330
16
100
AcDbXrecord
280
     1
270
     1
271
     1
  0
XRECORD
  5
1C
102
{ACAD_REACTORS
330
16
102
}
330
16
100
AcDbXrecord
280
     1
270
     1
271
     1
  0
XRECORD
  5
298
102
{ACAD_REACTORS
330
D
102
}
330
D
100
AcDbXrecord
280
     1
102
MATERIAL
148
0.0
149
0.0
149
0.0
 93
        0
 94
      127
282
     0
 72
     0
 77
     0
171
     0
175
     0
179
     0
273
     0
  0
XRECORD
  5
E
102
{ACAD_REACTORS
330
D
102
}
330
D
100
AcDbXrecord
280
     1
270
     1
271
     1
  0
XRECORD
  5
F
102
{ACAD_REACTORS
330
D
102
}
330
D
100
AcDbXrecord
280
     1
270
     1
271
     1
  0
XRECORD
  5
10
102
{ACAD_REACTORS
330
D
102
}
330
D
100
AcDbXrecord
280
     1
270
     1
271
     1
  0
XRECORD
  5
11
102
{ACAD_REACTORS
330
D
102
}
330
D
100
AcDbXrecord
280
     1
270
     1
271
     1
  0
XRECORD
  5
12
102
{ACAD_REACTORS
330
D
102
}
330
D
100
AcDbXrecord
280
     1
270
     1
271
     1
  0
XRECORD
  5
13
102
{ACAD_REACTORS
330
D
102
}
330
D
100
AcDbXrecord
280
     1
270
     1
271
     1
  0
CELLSTYLEMAP
  5
296
102
{ACAD_REACTORS
330
295
102
}
330
295
100
AcDbCellStyleMap
 90
        3
300
CELLSTYLE
  1
TABLEFORMAT_BEGIN
 90
        5
170
     1
 91
        0
 92
    32768
 62
   257
 93
        1
300
CONTENTFORMAT
  1
CONTENTFORMAT_BEGIN
 90
        0
 91
        0
 92
        4
 93
        0
300

 40
0.0
140
1.0
 94
        5
 62
     0
340
28
144
0.25
309
CONTENTFORMAT_END
171
     0
 94
        6
 95
        1
302
GRIDFORMAT
  1
GRIDFORMAT_BEGIN
 90
        0
 91
        1
 62
     0
 92
       -2
340
0
 93
        0
 40
0.045
309
GRIDFORMAT_END
 95
        2
302
GRIDFORMAT
  1
GRIDFORMAT_BEGIN
 90
        0
 91
        1
 62
     0
 92
       -2
340
0
 93
        0
 40
0.045
309
GRIDFORMAT_END
 95
        4
302
GRIDFORMAT
  1
GRIDFORMAT_BEGIN
 90
        0
 91
        1
 62
     0
 92
       -2
340
0
 93
        0
 40
0.045
309
GRIDFORMAT_END
 95
        8
302
GRIDFORMAT
  1
GRIDFORMAT_BEGIN
 90
        0
 91
        1
 62
     0
 92
       -2
340
0
 93
        0
 40
0.045
309
GRIDFORMAT_END
 95
       16
302
GRIDFORMAT
  1
GRIDFORMAT_BEGIN
 90
        0
 91
        1
 62
     0
 92
       -2
340
0
 93
        0
 40
0.045
309
GRIDFORMAT_END
 95
       32
302
GRIDFORMAT
  1
GRIDFORMAT_BEGIN
 90
        0
 91
        1
 62
     0
 92
       -2
340
0
 93
        0
 40
0.045
309
GRIDFORMAT_END
309
TABLEFORMAT_END
  1
CELLSTYLE_BEGIN
 90
        1
 91
        1
300
_TITLE
309
CELLSTYLE_END
300
CELLSTYLE
  1
TABLEFORMAT_BEGIN
 90
        5
170
     1
 91
        0
 92
        0
 62
   257
 93
        1
300
CONTENTFORMAT
  1
CONTENTFORMAT_BEGIN
 90
        0
 91
        0
 92
        4
 93
        0
300

 40
0.0
140
1.0
 94
        5
 62
     0
340
28
144
0.18
309
CONTENTFORMAT_END
171
     0
 94
        6
 95
        1
302
GRIDFORMAT
  1
GRIDFORMAT_BEGIN
 90
        0
 91
        1
 62
     0
 92
       -2
340
0
 93
        0
 40
0.045
309
GRIDFORMAT_END
 95
        2
302
GRIDFORMAT
  1
GRIDFORMAT_BEGIN
 90
        0
 91
        1
 62
     0
 92
       -2
340
0
 93
        0
 40
0.045
309
GRIDFORMAT_END
 95
        4
302
GRIDFORMAT
  1
GRIDFORMAT_BEGIN
 90
        0
 91
        1
 62
     0
 92
       -2
340
0
 93
        0
 40
0.045
309
GRIDFORMAT_END
 95
        8
302
GRIDFORMAT
  1
GRIDFORMAT_BEGIN
 90
        0
 91
        1
 62
     0
 92
       -2
340
0
 93
        0
 40
0.045
309
GRIDFORMAT_END
 95
       16
302
GRIDFORMAT
  1
GRIDFORMAT_BEGIN
 90
        0
 91
        1
 62
     0
 92
       -2
340
0
 93
        0
 40
0.045
309
GRIDFORMAT_END
 95
       32
302
GRIDFORMAT
  1
GRIDFORMAT_BEGIN
 90
        0
 91
        1
 62
     0
 92
       -2
340
0
 93
        0
 40
0.045
309
GRIDFORMAT_END
309
TABLEFORMAT_END
  1
CELLSTYLE_BEGIN
 90
        2
 91
        1
300
_HEADER
309
CELLSTYLE_END
300
CELLSTYLE
  1
TABLEFORMAT_BEGIN
 90
        5
170
     1
 91
        0
 92
        0
 62
   257
 93
        1
300
CONTENTFORMAT
  1
CONTENTFORMAT_BEGIN
 90
        0
 91
        0
 92
        4
 93
        0
300

 40
0.0
140
1.0
 94
        2
 62
     0
340
28
144
0.18
309
CONTENTFORMAT_END
171
     0
 94
        6
 95
        1
302
GRIDFORMAT
  1
GRIDFORMAT_BEGIN
 90
        0
 91
        1
 62
     0
 92
       -2
340
0
 93
        0
 40
0.045
309
GRIDFORMAT_END
 95
        2
302
GRIDFORMAT
  1
GRIDFORMAT_BEGIN
 90
        0
 91
        1
 62
     0
 92
       -2
340
0
 93
        0
 40
0.045
309
GRIDFORMAT_END
 95
        4
302
GRIDFORMAT
  1
GRIDFORMAT_BEGIN
 90
        0
 91
        1
 62
     0
 92
       -2
340
0
 93
        0
 40
0.045
309
GRIDFORMAT_END
 95
        8
302
GRIDFORMAT
  1
GRIDFORMAT_BEGIN
 90
        0
 91
        1
 62
     0
 92
       -2
340
0
 93
        0
 40
0.045
309
GRIDFORMAT_END
 95
       16
302
GRIDFORMAT
  1
GRIDFORMAT_BEGIN
 90
        0
 91
        1
 62
     0
 92
       -2
340
0
 93
        0
 40
0.045
309
GRIDFORMAT_END
 95
       32
302
GRIDFORMAT
  1
GRIDFORMAT_BEGIN
 90
        0
 91
        1
 62
     0
 92
       -2
340
0
 93
        0
 40
0.045
309
GRIDFORMAT_END
309
TABLEFORMAT_END
  1
CELLSTYLE_BEGIN
 90
        3
 91
        2
300
_DATA
309
CELLSTYLE_END
  0
XRECORD
  5
2A1
102
{ACAD_REACTORS
330
295
102
}
330
295
100
AcDbXrecord
280
     1
102
ACAD_ROUNDTRIP_PRE2007_TABLESTYLE
 90
        4
 91
        0
  1

 92
        4
 93
        0
  2

 94
        4
 95
        0
  3

  0
XRECORD
  5
29F
102
{ACAD_REACTORS
330
29E
102
}
330
29E
100
AcDbXrecord
280
     1
102
RTVSPost2010Prop28
280
     1
102
RTVSPost2010PropOp28
 70
     1
102
RTVSPost2010Prop29
280
     1
102
RTVSPost2010PropOp29
 70
     1
102
RTVSPost2010Prop30
280
     0
102
RTVSPost2010PropOp30
 70
     1
102
RTVSPost2010Prop31
280
     0
102
RTVSPost2010PropOp31
 70
     1
102
RTVSPost2010Prop32
280
     0
102
RTVSPost2010PropOp32
 70
     1
102
RTVSPost2010Prop33
280
     0
102
RTVSPost2010PropOp33
 70
     1
102
RTVSPost2010Prop34
280
     0
102
RTVSPost2010PropOp34
 70
     1
102
RTVSPost2010Prop35
280
     0
102
RTVSPost2010PropOp35
 70
     1
102
RTVSPost2010Prop36
280
     0
102
RTVSPost2010PropOp36
 70
     1
102
RTVSPost2010Prop37
 90
       50
102
RTVSPost2010PropOp37
 70
     1
102
RTVSPost2010Prop38
140
0.0
102
RTVSPost2010PropOp38
 70
     1
102
RTVSPost2010Prop39
140
1.0
102
RTVSPost2010PropOp39
 70
     1
102
RTVSPost2010Prop40
 90
        0
102
RTVSPost2010PropOp40
 70
     1
102
RTVSPost2010Prop41ColorIndex
 90
       18
102
RTVSPost2010Prop41ColorRGB
 90
        0
102
RTVSPost2010PropOp41
 70
     1
102
RTVSPost2010Prop42
 90
       50
102
RTVSPost2010PropOp42
 70
     1
102
RTVSPost2010Prop43
 90
        3
102
RTVSPost2010PropOp43
 70
     1
102
RTVSPost2010Prop44ColorIndex
 90
        5
102
RTVSPost2010Prop44ColorRGB
 90
      255
102
RTVSPost2010PropOp44
 70
     1
102
RTVSPost2010Prop45
280
     0
102
RTVSPost2010PropOp45
 70
     1
102
RTVSPost2010Prop46
 90
       50
102
RTVSPost2010PropOp46
 70
     1
102
RTVSPost2010Prop47
 90
       50
102
RTVSPost2010PropOp47
 70
     1
102
RTVSPost2010Prop48
 90
       50
102
RTVSPost2010PropOp48
 70
     1
102
RTVSPost2010Prop49
280
     0
102
RTVSPost2010PropOp49
 70
     1
102
RTVSPost2010Prop50
 90
       50
102
RTVSPost2010PropOp50
 70
     1
102
RTVSPost2010Prop51ColorIndex
 90
      256
102
RTVSPost2010Prop51ColorRGB
 90
-16777216
102
RTVSPost2010PropOp51
 70
     0
102
RTVSPost2010Prop52
140
1.0
102
RTVSPost2010PropOp52
 70
     0
102
RTVSPost2010Prop53
 90
        2
102
RTVSPost2010PropOp53
 70
     1
102
RTVSPost2010Prop54
  1
strokes_ogs.tif
102
RTVSPost2010PropOp54
 70
     1
102
RTVSPost2010Prop55
280
     0
102
RTVSPost2010PropOp55
 70
     1
102
RTVSPost2010Prop56
140
1.0
102
RTVSPost2010PropOp56
 70
     1
102
RTVSPost2010Prop57
140
1.0
102
RTVSPost2010PropOp57
 70
     1
102
RTVSPropertyOp0
 70
     1
102
RTVSPropertyOp1
 70
     1
102
RTVSPropertyOp2
 70
     1
102
RTVSPropertyOp3
 70
     1
102
RTVSPropertyOp4
 70
     1
102
RTVSPropertyOp5
 70
     1
102
RTVSPropertyOp6
 70
     1
102
RTVSPropertyOp7
 70
     1
102
RTVSPropertyOp8
 70
     1
102
RTVSPropertyOp9
 70
     1
102
RTVSPropertyOp10
 70
     1
102
RTVSPropertyOp11
 70
     1
102
RTVSPropertyOp12
 70
     1
102
RTVSPropertyOp13
 70
     1
102
RTVSPropertyOp14
 70
     1
102
RTVSPropertyOp15
 70
     1
102
RTVSPropertyOp16
 70
     1
102
RTVSPropertyOp17
 70
     1
102
RTVSPropertyOp18
 70
     1
102
RTVSPropertyOp19
 70
     1
102
RTVSPropertyOp20
 70
     1
102
RTVSPropertyOp21
 70
     1
102
RTVSPropertyOp22
 70
     1
102
RTVSPropertyOp23
 70
     1
102
RTVSPropertyOp24
 70
     1
102
RTVSPropertyOp25
 70
     1
102
RTVSPropertyOp26
 70
     1
102
RTVSPropertyOp27
 70
     1
102
RTVSPropertyOp28
 70
     1
102
RTVSPropertyOp29
 70
     1
102
RTVSPropertyOp30
 70
     1
102
RTVSPropertyOp31
 70
     1
102
RTVSPropertyOp32
 70
     1
102
RTVSPropertyOp33
 70
     1
102
RTVSPropertyOp34
 70
     1
102
RTVSPropertyOp35
 70
     1
102
RTVSPropertyOp36
 70
     1
102
RTVSPropertyOp37
 70
     1
102
RTVSPropertyOp38
 70
     1
102
RTVSPropertyOp39
 70
     1
102
RTVSPropertyOp40
 70
     1
102
RTVSPropertyOp41
 70
     1
102
RTVSPropertyOp42
 70
     1
102
RTVSPropertyOp43
 70
     1
102
RTVSPropertyOp44
 70
     1
102
RTVSPropertyOp45
 70
     1
102
RTVSPropertyOp46
 70
     1
102
RTVSPropertyOp47
 70
     1
102
RTVSPropertyOp48
 70
     1
102
RTVSPropertyOp49
 70
     1
102
RTVSPropertyOp50
 70
     1
102
RTVSPropertyOp51
 70
     0
102
RTVSPropertyOp52
 70
     0
102
RTVSPropertyOp53
 70
     1
102
RTVSPropertyOp54
 70
     1
102
RTVSPropertyOp55
 70
     1
102
RTVSPropertyOp56
 70
     1
102
RTVSPropertyOp57
 70
     1
102
RTVSPropertyOp58
 70
     1
102
RTVSPropertyOp59
 70
     1
102
RTVSPropertyOp60
 70
     1
102
RTVSPropertyOp61
 70
     1
102
RTVSPropertyOp62
 70
     1
  0
XRECORD
  5
2A3
102
{ACAD_REACTORS
330
2A2
102
}
330
2A2
100
AcDbXrecord
280
     1
102
RTVSPost2010Prop28
280
     0
102
RTVSPost2010PropOp28
 70
     1
102
RTVSPost2010Prop29
280
     1
102
RTVSPost2010PropOp29
 70
     1
102
RTVSPost2010Prop30
280
     1
102
RTVSPost2010PropOp30
 70
     1
102
RTVSPost2010Prop31
280
     0
102
RTVSPost2010PropOp31
 70
     1
102
RTVSPost2010Prop32
280
     0
102
RTVSPost2010PropOp32
 70
     1
102
RTVSPost2010Prop33
280
     0
102
RTVSPost2010PropOp33
 70
     1
102
RTVSPost2010Prop34
280
     0
102
RTVSPost2010PropOp34
 70
     1
102
RTVSPost2010Prop35
280
     0
102
RTVSPost2010PropOp35
 70
     1
102
RTVSPost2010Prop36
280
     0
102
RTVSPost2010PropOp36
 70
     1
102
RTVSPost2010Prop37
 90
       50
102
RTVSPost2010PropOp37
 70
     1
102
RTVSPost2010Prop38
140
0.0
102
RTVSPost2010PropOp38
 70
     1
102
RTVSPost2010Prop39
140
1.0
102
RTVSPost2010PropOp39
 70
     1
102
RTVSPost2010Prop40
 90
        0
102
RTVSPost2010PropOp40
 70
     1
102
RTVSPost2010Prop41ColorIndex
 90
       18
102
RTVSPost2010Prop41ColorRGB
 90
        0
102
RTVSPost2010PropOp41
 70
     1
102
RTVSPost2010Prop42
 90
       50
102
RTVSPost2010PropOp42
 70
     1
102
RTVSPost2010Prop43
 90
        3
102
RTVSPost2010PropOp43
 70
     1
102
RTVSPost2010Prop44ColorIndex
 90
        5
102
RTVSPost2010Prop44ColorRGB
 90
      255
102
RTVSPost2010PropOp44
 70
     1
102
RTVSPost2010Prop45
280
     0
102
RTVSPost2010PropOp45
 70
     1
102
RTVSPost2010Prop46
 90
       50
102
RTVSPost2010PropOp46
 70
     1
102
RTVSPost2010Prop47
 90
       50
102
RTVSPost2010PropOp47
 70
     1
102
RTVSPost2010Prop48
 90
       50
102
RTVSPost2010PropOp48
 70
     1
102
RTVSPost2010Prop49
280
     0
102
RTVSPost2010PropOp49
 70
     1
102
RTVSPost2010Prop50
 90
       50
102
RTVSPost2010PropOp50
 70
     1
102
RTVSPost2010Prop51ColorIndex
 90
      256
102
RTVSPost2010Prop51ColorRGB
 90
-16777216
102
RTVSPost2010PropOp51
 70
     0
102
RTVSPost2010Prop52
140
1.0
102
RTVSPost2010PropOp52
 70
     0
102
RTVSPost2010Prop53
 90
        2
102
RTVSPost2010PropOp53
 70
     1
102
RTVSPost2010Prop54
  1
strokes_ogs.tif
102
RTVSPost2010PropOp54
 70
     1
102
RTVSPost2010Prop55
280
     0
102
RTVSPost2010PropOp55
 70
     1
102
RTVSPost2010Prop56
140
1.0
102
RTVSPost2010PropOp56
 70
     1
102
RTVSPost2010Prop57
140
1.0
102
RTVSPost2010PropOp57
 70
     1
102
RTVSPropertyOp0
 70
     1
102
RTVSPropertyOp1
 70
     1
102
RTVSPropertyOp2
 70
     1
102
RTVSPropertyOp3
 70
     1
102
RTVSPropertyOp4
 70
     1
102
RTVSPropertyOp5
 70
     1
102
RTVSPropertyOp6
 70
     1
102
RTVSPropertyOp7
 70
     1
102
RTVSPropertyOp8
 70
     1
102
RTVSPropertyOp9
 70
     1
102
RTVSPropertyOp10
 70
     1
102
RTVSPropertyOp11
 70
     1
102
RTVSPropertyOp12
 70
     1
102
RTVSPropertyOp13
 70
     1
102
RTVSPropertyOp14
 70
     1
102
RTVSPropertyOp15
 70
     1
102
RTVSPropertyOp16
 70
     1
102
RTVSPropertyOp17
 70
     1
102
RTVSPropertyOp18
 70
     1
102
RTVSPropertyOp19
 70
     1
102
RTVSPropertyOp20
 70
     1
102
RTVSPropertyOp21
 70
     1
102
RTVSPropertyOp22
 70
     1
102
RTVSPropertyOp23
 70
     1
102
RTVSPropertyOp24
 70
     1
102
RTVSPropertyOp25
 70
     1
102
RTVSPropertyOp26
 70
     1
102
RTVSPropertyOp27
 70
     1
102
RTVSPropertyOp28
 70
     1
102
RTVSPropertyOp29
 70
     1
102
RTVSPropertyOp30
 70
     1
102
RTVSPropertyOp31
 70
     1
102
RTVSPropertyOp32
 70
     1
102
RTVSPropertyOp33
 70
     1
102
RTVSPropertyOp34
 70
     1
102
RTVSPropertyOp35
 70
     1
102
RTVSPropertyOp36
 70
     1
102
RTVSPropertyOp37
 70
     1
102
RTVSPropertyOp38
 70
     1
102
RTVSPropertyOp39
 70
     1
102
RTVSPropertyOp40
 70
     1
102
RTVSPropertyOp41
 70
     1
102
RTVSPropertyOp42
 70
     1
102
RTVSPropertyOp43
 70
     1
102
RTVSPropertyOp44
 70
     1
102
RTVSPropertyOp45
 70
     1
102
RTVSPropertyOp46
 70
     1
102
RTVSPropertyOp47
 70
     1
102
RTVSPropertyOp48
 70
     1
102
RTVSPropertyOp49
 70
     1
102
RTVSPropertyOp50
 70
     1
102
RTVSPropertyOp51
 70
     0
102
RTVSPropertyOp52
 70
     0
102
RTVSPropertyOp53
 70
     1
102
RTVSPropertyOp54
 70
     1
102
RTVSPropertyOp55
 70
     1
102
RTVSPropertyOp56
 70
     1
102
RTVSPropertyOp57
 70
     1
102
RTVSPropertyOp58
 70
     1
102
RTVSPropertyOp59
 70
     1
102
RTVSPropertyOp60
 70
     1
102
RTVSPropertyOp61
 70
     1
102
RTVSPropertyOp62
 70
     1
  0
XRECORD
  5
2A5
102
{ACAD_REACTORS
330
2A4
102
}
330
2A4
100
AcDbXrecord
280
     1
102
RTVSPost2010Prop28
280
     0
102
RTVSPost2010PropOp28
 70
     1
102
RTVSPost2010Prop29
280
     1
102
RTVSPost2010PropOp29
 70
     1
102
RTVSPost2010Prop30
280
     1
102
RTVSPost2010PropOp30
 70
     1
102
RTVSPost2010Prop31
280
     0
102
RTVSPost2010PropOp31
 70
     1
102
RTVSPost2010Prop32
280
     0
102
RTVSPost2010PropOp32
 70
     1
102
RTVSPost2010Prop33
280
     0
102
RTVSPost2010PropOp33
 70
     1
102
RTVSPost2010Prop34
280
     0
102
RTVSPost2010PropOp34
 70
     1
102
RTVSPost2010Prop35
280
     0
102
RTVSPost2010PropOp35
 70
     1
102
RTVSPost2010Prop36
280
     0
102
RTVSPost2010PropOp36
 70
     1
102
RTVSPost2010Prop37
 90
       50
102
RTVSPost2010PropOp37
 70
     1
102
RTVSPost2010Prop38
140
0.0
102
RTVSPost2010PropOp38
 70
     1
102
RTVSPost2010Prop39
140
1.0
102
RTVSPost2010PropOp39
 70
     1
102
RTVSPost2010Prop40
 90
        0
102
RTVSPost2010PropOp40
 70
     1
102
RTVSPost2010Prop41ColorIndex
 90
       18
102
RTVSPost2010Prop41ColorRGB
 90
        0
102
RTVSPost2010PropOp41
 70
     1
102
RTVSPost2010Prop42
 90
       50
102
RTVSPost2010PropOp42
 70
     1
102
RTVSPost2010Prop43
 90
        3
102
RTVSPost2010PropOp43
 70
     1
102
RTVSPost2010Prop44ColorIndex
 90
        5
102
RTVSPost2010Prop44ColorRGB
 90
      255
102
RTVSPost2010PropOp44
 70
     1
102
RTVSPost2010Prop45
280
     0
102
RTVSPost2010PropOp45
 70
     1
102
RTVSPost2010Prop46
 90
       50
102
RTVSPost2010PropOp46
 70
     1
102
RTVSPost2010Prop47
 90
       50
102
RTVSPost2010PropOp47
 70
     1
102
RTVSPost2010Prop48
 90
       50
102
RTVSPost2010PropOp48
 70
     1
102
RTVSPost2010Prop49
280
     0
102
RTVSPost2010PropOp49
 70
     1
102
RTVSPost2010Prop50
 90
       50
102
RTVSPost2010PropOp50
 70
     1
102
RTVSPost2010Prop51ColorIndex
 90
      256
102
RTVSPost2010Prop51ColorRGB
 90
-16777216
102
RTVSPost2010PropOp51
 70
     0
102
RTVSPost2010Prop52
140
1.0
102
RTVSPost2010PropOp52
 70
     0
102
RTVSPost2010Prop53
 90
        2
102
RTVSPost2010PropOp53
 70
     1
102
RTVSPost2010Prop54
  1
strokes_ogs.tif
102
RTVSPost2010PropOp54
 70
     1
102
RTVSPost2010Prop55
280
     0
102
RTVSPost2010PropOp55
 70
     1
102
RTVSPost2010Prop56
140
1.0
102
RTVSPost2010PropOp56
 70
     1
102
RTVSPost2010Prop57
140
1.0
102
RTVSPost2010PropOp57
 70
     1
102
RTVSPropertyOp0
 70
     1
102
RTVSPropertyOp1
 70
     1
102
RTVSPropertyOp2
 70
     1
102
RTVSPropertyOp3
 70
     1
102
RTVSPropertyOp4
 70
     1
102
RTVSPropertyOp5
 70
     1
102
RTVSPropertyOp6
 70
     1
102
RTVSPropertyOp7
 70
     1
102
RTVSPropertyOp8
 70
     1
102
RTVSPropertyOp9
 70
     1
102
RTVSPropertyOp10
 70
     1
102
RTVSPropertyOp11
 70
     1
102
RTVSPropertyOp12
 70
     1
102
RTVSPropertyOp13
 70
     1
102
RTVSPropertyOp14
 70
     1
102
RTVSPropertyOp15
 70
     1
102
RTVSPropertyOp16
 70
     1
102
RTVSPropertyOp17
 70
     1
102
RTVSPropertyOp18
 70
     1
102
RTVSPropertyOp19
 70
     1
102
RTVSPropertyOp20
 70
     1
102
RTVSPropertyOp21
 70
     1
102
RTVSPropertyOp22
 70
     1
102
RTVSPropertyOp23
 70
     1
102
RTVSPropertyOp24
 70
     1
102
RTVSPropertyOp25
 70
     1
102
RTVSPropertyOp26
 70
     1
102
RTVSPropertyOp27
 70
     1
102
RTVSPropertyOp28
 70
     1
102
RTVSPropertyOp29
 70
     1
102
RTVSPropertyOp30
 70
     1
102
RTVSPropertyOp31
 70
     1
102
RTVSPropertyOp32
 70
     1
102
RTVSPropertyOp33
 70
     1
102
RTVSPropertyOp34
 70
     1
102
RTVSPropertyOp35
 70
     1
102
RTVSPropertyOp36
 70
     1
102
RTVSPropertyOp37
 70
     1
102
RTVSPropertyOp38
 70
     1
102
RTVSPropertyOp39
 70
     1
102
RTVSPropertyOp40
 70
     1
102
RTVSPropertyOp41
 70
     1
102
RTVSPropertyOp42
 70
     1
102
RTVSPropertyOp43
 70
     1
102
RTVSPropertyOp44
 70
     1
102
RTVSPropertyOp45
 70
     1
102
RTVSPropertyOp46
 70
     1
102
RTVSPropertyOp47
 70
     1
102
RTVSPropertyOp48
 70
     1
102
RTVSPropertyOp49
 70
     1
102
RTVSPropertyOp50
 70
     1
102
RTVSPropertyOp51
 70
     0
102
RTVSPropertyOp52
 70
     0
102
RTVSPropertyOp53
 70
     1
102
RTVSPropertyOp54
 70
     1
102
RTVSPropertyOp55
 70
     1
102
RTVSPropertyOp56
 70
     1
102
RTVSPropertyOp57
 70
     1
102
RTVSPropertyOp58
 70
     1
102
RTVSPropertyOp59
 70
     1
102
RTVSPropertyOp60
 70
     1
102
RTVSPropertyOp61
 70
     1
102
RTVSPropertyOp62
 70
     1
  0
ENDSEC
  0
EOF
