  0
SECTION
  2
HEADER
  9
$ACADVER
  1
AC1015
  9
$ACADMAINTVER
 70
    18
  9
$DWGCODEPAGE
  3
ANSI_932
  9
$INSBASE
 10
0.0
 20
0.0
 30
0.0
  9
$EXTMIN
 10
-14.97158221973131
 20
0.0
 30
0.0
  9
$EXTMAX
 10
445.5923634016342
 20
115.2697306787878
 30
0.0
  9
$LIMMIN
 10
0.0
 20
0.0
  9
$LIMMAX
 10
420.0
 20
297.0
  9
$ORTHOMODE
 70
     1
  9
$REGENMODE
 70
     1
  9
$FILLMODE
 70
     1
  9
$QTEXTMODE
 70
     0
  9
$MIRRTEXT
 70
     1
  9
$LTSCALE
 40
1.0
  9
$ATTMODE
 70
     1
  9
$TEXTSIZE
 40
30.0
  9
$TRACEWID
 40
0.05
  9
$TEXTSTYLE
  7
SUNPOU
  9
$CLAYER
  8
0
  9
$CELTYPE
  6
BYLAYER
  9
$CECOLOR
 62
     1
  9
$CELTSCALE
 40
1.0
  9
$DISPSILH
 70
     0
  9
$DIMSCALE
 40
1.0
  9
$DIMASZ
 40
3.0
  9
$DIMEXO
 40
2.0
  9
$DIMDLI
 40
0.38
  9
$DIMRND
 40
0.0
  9
$DIMDLE
 40
0.0
  9
$DIMEXE
 40
0.0
  9
$DIMTP
 40
0.0
  9
$DIMTM
 40
0.0
  9
$DIMTXT
 40
7.0
  9
$DIMCEN
 40
1.0
  9
$DIMTSZ
 40
0.0
  9
$DIMTOL
 70
     0
  9
$DIMLIM
 70
     0
  9
$DIMTIH
 70
     0
  9
$DIMTOH
 70
     0
  9
$DIMSE1
 70
     0
  9
$DIMSE2
 70
     0
  9
$DIMTAD
 70
     1
  9
$DIMZIN
 70
     0
  9
$DIMBLK
  1

  9
$DIMASO
 70
     1
  9
$DIMSHO
 70
     1
  9
$DIMPOST
  1

  9
$DIMAPOST
  1

  9
$DIMALT
 70
     0
  9
$DIMALTD
 70
     2
  9
$DIMALTF
 40
25.4
  9
$DIMLFAC
 40
1.0
  9
$DIMTOFL
 70
     0
  9
$DIMTVP
 40
0.0
  9
$DIMTIX
 70
     1
  9
$DIMSOXD
 70
     0
  9
$DIMSAH
 70
     1
  9
$DIMBLK1
  1
DOTSMALL
  9
$DIMBLK2
  1
DOTSMALL
  9
$DIMSTYLE
  2
1
  9
$DIMCLRD
 70
    60
  9
$DIMCLRE
 70
    70
  9
$DIMCLRT
 70
    60
  9
$DIMTFAC
 40
0.0642857142857143
  9
$DIMGAP
 40
1.0
  9
$DIMJUST
 70
     0
  9
$DIMSD1
 70
     0
  9
$DIMSD2
 70
     0
  9
$DIMTOLJ
 70
     1
  9
$DIMTZIN
 70
     0
  9
$DIMALTZ
 70
     0
  9
$DIMALTTZ
 70
     0
  9
$DIMUPT
 70
     0
  9
$DIMDEC
 70
     0
  9
$DIMTDEC
 70
     4
  9
$DIMALTU
 70
     2
  9
$DIMALTTD
 70
     2
  9
$DIMTXSTY
  7
STANDARD
  9
$DIMAUNIT
 70
     0
  9
$DIMADEC
 70
     0
  9
$DIMALTRND
 40
0.0
  9
$DIMAZIN
 70
     0
  9
$DIMDSEP
 70
    46
  9
$DIMATFIT
 70
     3
  9
$DIMFRAC
 70
     0
  9
$DIMLDRBLK
  1
DOTSMALL
  9
$DIMLUNIT
 70
     2
  9
$DIMLWD
 70
    -2
  9
$DIMLWE
 70
    -2
  9
$DIMTMOVE
 70
     0
  9
$LUNITS
 70
     4
  9
$LUPREC
 70
     4
  9
$SKETCHINC
 40
0.1
  9
$FILLETRAD
 40
0.5
  9
$AUNITS
 70
     0
  9
$AUPREC
 70
     2
  9
$MENU
  1
acad
  9
$ELEVATION
 40
0.0
  9
$PELEVATION
 40
0.0
  9
$THICKNESS
 40
0.0
  9
$LIMCHECK
 70
     0
  9
$CHAMFERA
 40
0.0
  9
$CHAMFERB
 40
0.0
  9
$CHAMFERC
 40
0.0
  9
$CHAMFERD
 40
0.0
  9
$SKPOLY
 70
     0
  9
$TDCREATE
 40
2450623.676023380
  9
$TDUCREATE
 40
2450623.301023380
  9
$TDUPDATE
 40
2453882.351318530
  9
$TDUUPDATE
 40
2453881.976318530
  9
$TDINDWG
 40
5.6897982523
  9
$TDUSRTIMER
 40
5.6897980671
  9
$USRTIMER
 70
     1
  9
$ANGBASE
 50
0.0
  9
$ANGDIR
 70
     0
  9
$PDMODE
 70
     0
  9
$PDSIZE
 40
0.0
  9
$PLINEWID
 40
0.0
  9
$SPLFRAME
 70
     0
  9
$SPLINETYPE
 70
     6
  9
$SPLINESEGS
 70
     8
  9
$HANDSEED
  5
1B0
  9
$SURFTAB1
 70
     6
  9
$SURFTAB2
 70
     6
  9
$SURFTYPE
 70
     6
  9
$SURFU
 70
     6
  9
$SURFV
 70
     6
  9
$UCSBASE
  2

  9
$UCSNAME
  2

  9
$UCSORG
 10
0.0
 20
0.0
 30
0.0
  9
$UCSXDIR
 10
1.0
 20
0.0
 30
0.0
  9
$UCSYDIR
 10
0.0
 20
1.0
 30
0.0
  9
$UCSORTHOREF
  2

  9
$UCSORTHOVIEW
 70
     0
  9
$UCSORGTOP
 10
0.0
 20
0.0
 30
0.0
  9
$UCSORGBOTTOM
 10
0.0
 20
0.0
 30
0.0
  9
$UCSORGLEFT
 10
0.0
 20
0.0
 30
0.0
  9
$UCSORGRIGHT
 10
0.0
 20
0.0
 30
0.0
  9
$UCSORGFRONT
 10
0.0
 20
0.0
 30
0.0
  9
$UCSORGBACK
 10
0.0
 20
0.0
 30
0.0
  9
$PUCSBASE
  2

  9
$PUCSNAME
  2

  9
$PUCSORG
 10
0.0
 20
0.0
 30
0.0
  9
$PUCSXDIR
 10
1.0
 20
0.0
 30
0.0
  9
$PUCSYDIR
 10
0.0
 20
1.0
 30
0.0
  9
$PUCSORTHOREF
  2

  9
$PUCSORTHOVIEW
 70
     0
  9
$PUCSORGTOP
 10
0.0
 20
0.0
 30
0.0
  9
$PUCSORGBOTTOM
 10
0.0
 20
0.0
 30
0.0
  9
$PUCSORGLEFT
 10
0.0
 20
0.0
 30
0.0
  9
$PUCSORGRIGHT
 10
0.0
 20
0.0
 30
0.0
  9
$PUCSORGFRONT
 10
0.0
 20
0.0
 30
0.0
  9
$PUCSORGBACK
 10
0.0
 20
0.0
 30
0.0
  9
$USERI1
 70
     0
  9
$USERI2
 70
     0
  9
$USERI3
 70
     0
  9
$USERI4
 70
     0
  9
$USERI5
 70
     0
  9
$USERR1
 40
0.0
  9
$USERR2
 40
0.0
  9
$USERR3
 40
0.0
  9
$USERR4
 40
0.0
  9
$USERR5
 40
0.0
  9
$WORLDVIEW
 70
     1
  9
$SHADEDGE
 70
     3
  9
$SHADEDIF
 70
    70
  9
$TILEMODE
 70
     1
  9
$MAXACTVP
 70
    16
  9
$PINSBASE
 10
0.0
 20
0.0
 30
0.0
  9
$PLIMCHECK
 70
     0
  9
$PEXTMIN
 10
1.000000000000000E+20
 20
1.000000000000000E+20
 30
1.000000000000000E+20
  9
$PEXTMAX
 10
-1.000000000000000E+20
 20
-1.000000000000000E+20
 30
-1.000000000000000E+20
  9
$PLIMMIN
 10
0.0
 20
0.0
  9
$PLIMMAX
 10
12.0
 20
9.0
  9
$UNITMODE
 70
     0
  9
$VISRETAIN
 70
     0
  9
$PLINEGEN
 70
     0
  9
$PSLTSCALE
 70
     1
  9
$TREEDEPTH
 70
  3020
  9
$CMLSTYLE
  2
STANDARD
  9
$CMLJUST
 70
     0
  9
$CMLSCALE
 40
1.0
  9
$PROXYGRAPHICS
 70
     1
  9
$MEASUREMENT
 70
     0
  9
$CELWEIGHT
370
    -1
  9
$ENDCAPS
280
     0
  9
$JOINSTYLE
280
     0
  9
$LWDISPLAY
290
     0
  9
$INSUNITS
 70
     0
  9
$HYPERLINKBASE
  1

  9
$STYLESHEET
  1

  9
$XEDIT
290
     1
  9
$CEPSNTYPE
380
     0
  9
$PSTYLEMODE
290
     1
  9
$FINGERPRINTGUID
  2
{37FE17B4-BB23-492F-B06B-4C789DF21A82}
  9
$VERSIONGUID
  2
{1291DFB2-F957-4306-BF28-40C1BE95EED7}
  9
$EXTNAMES
290
     1
  9
$PSVPSCALE
 40
0.0
  9
$OLESTARTUP
290
     0
  0
ENDSEC
  0
SECTION
  2
CLASSES
  0
CLASS
  1
DICTIONARYVAR
  2
AcDbDictionaryVar
  3
ObjectDBX Classes
 90
        0
280
     0
281
     0
  0
CLASS
  1
RASTERVARIABLES
  2
AcDbRasterVariables
  3
ISM
 90
    32768
280
     0
281
     0
  0
CLASS
  1
ACDBDICTIONARYWDFLT
  2
AcDbDictionaryWithDefault
  3
ObjectDBX Classes
 90
        0
280
     0
281
     0
  0
CLASS
  1
ACDBPLACEHOLDER
  2
AcDbPlaceHolder
  3
ObjectDBX Classes
 90
        0
280
     0
281
     0
  0
CLASS
  1
LAYOUT
  2
AcDbLayout
  3
ObjectDBX Classes
 90
        0
280
     0
281
     0
  0
CLASS
  1
AEC_VARS_DWG_SETUP
  2
AecDbVarsDwgSetup
  3
AecBase
 90
    32897
280
     1
281
     0
  0
CLASS
  1
AEC_DISP_REP_MASS_ELEM_MODEL
  2
AecDbDispRepMassElemModel
  3
AecBase
 90
    32897
280
     1
281
     0
  0
CLASS
  1
AEC_DISP_PROPS_MASS_ELEM_MODEL
  2
AecDbDispPropsMassElem
  3
AecBase
 90
    32897
280
     1
281
     0
  0
CLASS
  1
AEC_DISP_REP_MASS_ELEM_SCHEM
  2
AecDbDispRepMassElemSchem
  3
AecBase
 90
    32897
280
     1
281
     0
  0
CLASS
  1
AEC_DISP_REP_DOOR_ELEV
  2
AecDbDispRepDoorElev
  3
AecArchBase
 90
    32897
280
     1
281
     0
  0
CLASS
  1
AEC_DISP_PROPS_DOOR
  2
AecDbDispPropsDoor
  3
AecArchBase
 90
    32897
280
     1
281
     0
  0
CLASS
  1
AEC_DISP_REP_MASKBLOCK_REF
  2
AecDbDispRepMaskBlockRef
  3
AecBase
 90
    32897
280
     1
281
     0
  0
CLASS
  1
AEC_DISP_PROPS_MASKBLOCK
  2
AecDbDispPropsMaskBlock
  3
AecBase
 90
    32897
280
     1
281
     0
  0
CLASS
  1
AEC_DISP_REP_LAYOUT_GRID3D
  2
AecDbDispRepLayoutGrid3d
  3
AecBase
 90
    32897
280
     1
281
     0
  0
CLASS
  1
AEC_DISP_PROPS_LAYOUT_GRID3D
  2
AecDbDispPropsLayoutGrid3d
  3
AecBase
 90
    32897
280
     1
281
     0
  0
CLASS
  1
AEC_DISP_REP_ENT_REF
  2
AecDbDispRepEntRef
  3
AecBase
 90
    32897
280
     1
281
     0
  0
CLASS
  1
AEC_DISP_PROPS_ENT_REF
  2
AecDbDispPropsEntRef
  3
AecBase
 90
    32897
280
     1
281
     0
  0
CLASS
  1
AEC_DISP_REP_CLIP_VOLUME_RESULT_SUBDIV
  2
AecDbDispRepClipVolResSubDiv
  3
AecBase
 90
    32897
280
     1
281
     0
  0
CLASS
  1
AEC_DISP_PROPS_CLIP_VOLUME_RESULT
  2
AecDbDispPropsClipVolResSubDiv
  3
AecBase
 90
    32897
280
     1
281
     0
  0
CLASS
  1
AEC_DISP_REP_CLIP_VOLUME_RESULT
  2
AecDbDispRepClipVolResult
  3
AecBase
 90
    32897
280
     1
281
     0
  0
CLASS
  1
AEC_DISP_REP_CLIP_VOLUME_PLAN
  2
AecDbDispRepClipVolPlan
  3
AecBase
 90
    32897
280
     1
281
     0
  0
CLASS
  1
AEC_DISP_PROPS_CLIP_VOLUME
  2
AecDbDispPropsClipVol
  3
AecBase
 90
    32897
280
     1
281
     0
  0
CLASS
  1
AEC_DISP_REP_CLIP_VOLUME_MODEL
  2
AecDbDispRepClipVolModel
  3
AecBase
 90
    32897
280
     1
281
     0
  0
CLASS
  1
AEC_DISP_REP_ANCHOR_ENT_TO_NODE
  2
AecDbDispRepAnchorEntToNode
  3
AecBase
 90
    32897
280
     1
281
     0
  0
CLASS
  1
AEC_DISP_PROPS_ENT
  2
AecDbDispPropsEnt
  3
AecBase
 90
    32897
280
     1
281
     0
  0
CLASS
  1
AEC_DISP_REP_LAYOUT_GRID2D
  2
AecDbDispRepLayoutGrid2d
  3
AecBase
 90
    32897
280
     1
281
     0
  0
CLASS
  1
AEC_DISP_PROPS_LAYOUT_GRID2D
  2
AecDbDispPropsLayoutGrid2d
  3
AecBase
 90
    32897
280
     1
281
     0
  0
CLASS
  1
AEC_DISP_REP_LAYOUT_CURVE
  2
AecDbDispRepLayoutCurve
  3
AecBase
 90
    32897
280
     1
281
     0
  0
CLASS
  1
AEC_DISP_PROPS_LAYOUT_CURVE
  2
AecDbDispPropsLayoutCurve
  3
AecBase
 90
    32897
280
     1
281
     0
  0
CLASS
  1
AEC_DISP_REP_ANCHOR
  2
AecDbDispRepAnchor
  3
AecBase
 90
    32897
280
     1
281
     0
  0
CLASS
  1
AEC_DISP_REP_CAMERA
  2
AecDbDispRepCamera
  3
AecBase
 90
    32897
280
     1
281
     0
  0
CLASS
  1
AEC_DISP_PROPS_CAMERA
  2
AecDbDispPropsCamera
  3
AecBase
 90
    32897
280
     1
281
     0
  0
CLASS
  1
AEC_DISP_REP_SLICE
  2
AecDbDispRepSlice
  3
AecBase
 90
    32897
280
     1
281
     0
  0
CLASS
  1
AEC_DISP_PROPS_SLICE
  2
AecDbDispPropsSlice
  3
AecBase
 90
    32897
280
     1
281
     0
  0
CLASS
  1
AEC_DISP_REP_MVBLOCK_REF
  2
AecDbDispRepMvBlockRef
  3
AecBase
 90
    32897
280
     1
281
     0
  0
CLASS
  1
AEC_DISP_REP_MVBLOCK_REF_MODEL
  2
AecDbDispRepMvBlockRefModel
  3
AecBase
 90
    32897
280
     1
281
     0
  0
CLASS
  1
AEC_DISP_REP_MASS_GROUP_MODEL
  2
AecDbDispRepMassGroupModel
  3
AecBase
 90
    32897
280
     1
281
     0
  0
CLASS
  1
AEC_DISP_PROPS_MASS_GROUP
  2
AecDbDispPropsMassGroup
  3
AecBase
 90
    32897
280
     1
281
     0
  0
CLASS
  1
AEC_DISP_REP_MASS_GROUP_PLAN
  2
AecDbDispRepMassGroupPlan
  3
AecBase
 90
    32897
280
     1
281
     0
  0
CLASS
  1
AEC_DISP_REP_DOOR_RCP
  2
AecDbDispRepDoorRcp
  3
AecArchBase
 90
    32897
280
     1
281
     0
  0
CLASS
  1
AEC_DISP_REP_DOOR_NOMINAL
  2
AecDbDispRepDoorNominal
  3
AecArchBase
 90
    32897
280
     1
281
     0
  0
CLASS
  1
AEC_DISP_PROPS_DOOR_NOMINAL
  2
AecDbDispPropsDoorNominal
  3
AecArchBase
 90
    32897
280
     1
281
     0
  0
CLASS
  1
AEC_DISP_REP_DOOR_PLAN
  2
AecDbDispRepDoorPlan
  3
AecArchBase
 90
    32897
280
     1
281
     0
  0
CLASS
  1
AEC_DISP_REP_DOOR_MODEL
  2
AecDbDispRepDoorModel
  3
AecArchBase
 90
    32897
280
     1
281
     0
  0
CLASS
  1
AEC_DISP_REP_MVBLOCK_REF_RCP
  2
AecDbDispRepMvBlockRefRcp
  3
AecArchBase
 90
    32897
280
     1
281
     0
  0
CLASS
  1
AEC_DISP_REP_MASS_GROUP_RCP
  2
AecDbDispRepMassGroupRcp
  3
AecArchBase
 90
    32897
280
     1
281
     0
  0
CLASS
  1
AEC_DISP_REP_MASS_ELEM_RCP
  2
AecDbDispRepMassElemRcp
  3
AecArchBase
 90
    32897
280
     1
281
     0
  0
CLASS
  1
AEC_DISP_REP_MASKBLOCK_REF_RCP
  2
AecDbDispRepMaskBlockRefRcp
  3
AecArchBase
 90
    32897
280
     1
281
     0
  0
CLASS
  1
AEC_DISP_REP_COLUMN_GRID_RCP
  2
AecDbDispRepColumnGridRcp
  3
AecArchBase
 90
    32897
280
     1
281
     0
  0
CLASS
  1
AEC_DISP_REP_COLUMN_GRID_MODEL
  2
AecDbDispRepColumnGridModel
  3
AecArchBase
 90
    32897
280
     1
281
     0
  0
CLASS
  1
AEC_DISP_REP_COLUMN_GRID
  2
AecDbDispRepColumnGrid
  3
AecArchBase
 90
    32897
280
     1
281
     0
  0
CLASS
  1
AEC_DISP_REP_CEILING_GRID_RCP
  2
AecDbDispRepCeilingGridRcp
  3
AecArchBase
 90
    32897
280
     1
281
     0
  0
CLASS
  1
AEC_DISP_REP_CEILING_GRID_MODEL
  2
AecDbDispRepCeilingGridModel
  3
AecArchBase
 90
    32897
280
     1
281
     0
  0
CLASS
  1
AEC_DISP_REP_CEILING_GRID
  2
AecDbDispRepCeilingGrid
  3
AecArchBase
 90
    33661
280
     1
281
     0
  0
CLASS
  1
AEC_DISP_REP_BDG_SECTION_SUBDIV
  2
AecDbDispRepBdgSectionSubDiv
  3
AecArchBase
 90
    32897
280
     1
281
     0
  0
CLASS
  1
AEC_DISP_REP_BDG_SECTION_MODEL
  2
AecDbDispRepBdgSectionModel
  3
AecArchBase
 90
    32897
280
     1
281
     0
  0
CLASS
  1
AEC_DISP_REP_BDG_SECTIONLINE_RCP
  2
AecDbDispRepBdgSectionLineRcp
  3
AecArchBase
 90
    32897
280
     1
281
     0
  0
CLASS
  1
AEC_DISP_REP_BDG_SECTIONLINE_PLAN
  2
AecDbDispRepBdgSectionLinePlan
  3
AecArchBase
 90
    32897
280
     1
281
     0
  0
CLASS
  1
AEC_DISP_REP_BDG_ELEVLINE_RCP
  2
AecDbDispRepBdgElevLineRcp
  3
AecArchBase
 90
    32897
280
     1
281
     0
  0
CLASS
  1
AEC_DISP_REP_BDG_ELEVLINE_PLAN
  2
AecDbDispRepBdgElevLinePlan
  3
AecArchBase
 90
    32897
280
     1
281
     0
  0
CLASS
  1
AEC_DISP_REP_BDG_SECTIONLINE_MODEL
  2
AecDbDispRepBdgSectionLineModel
  3
AecArchBase
 90
    32897
280
     1
281
     0
  0
CLASS
  1
AEC_DISP_REP_BDG_ELEVLINE_MODEL
  2
AecDbDispRepBdgElevLineModel
  3
AecArchBase
 90
    32897
280
     1
281
     0
  0
CLASS
  1
AEC_DISP_REP_ANCHOR_BUB_TO_GRID_RCP
  2
AecDbDispRepAnchorBubToGridRcp
  3
AecArchBase
 90
    32897
280
     1
281
     0
  0
CLASS
  1
AEC_DISP_REP_ANCHOR_BUB_TO_GRID_MODEL
  2
AecDbDispRepAnchorBubToGridMdl
  3
AecArchBase
 90
    32897
280
     1
281
     0
  0
CLASS
  1
AEC_DISP_REP_ANCHOR_BUB_TO_GRID
  2
AecDbDispRepAnchorBubToGrid
  3
AecArchBase
 90
    32897
280
     1
281
     0
  0
CLASS
  1
AEC_DISP_REP_WINDOW_RCP
  2
AecDbDispRepWindowRcp
  3
AecArchBase
 90
    32897
280
     1
281
     0
  0
CLASS
  1
AEC_DISP_PROPS_WINDOW
  2
AecDbDispPropsWindow
  3
AecArchBase
 90
    32897
280
     1
281
     0
  0
CLASS
  1
AEC_DISP_REP_ROOF_RCP
  2
AecDbDispRepRoofRcp
  3
AecArchBase
 90
    32897
280
     1
281
     0
  0
CLASS
  1
AEC_DISP_PROPS_ROOF
  2
AecDbDispPropsRoof
  3
AecArchBase
 90
    32897
280
     1
281
     0
  0
CLASS
  1
AEC_DISP_REP_ROOF_PLAN
  2
AecDbDispRepRoofPlan
  3
AecArchBase
 90
    32897
280
     1
281
     0
  0
CLASS
  1
AEC_DISP_REP_WINDOW_SILL_PLAN
  2
AecDbDispRepWindowSillPlan
  3
AecArchBase
 90
    32897
280
     1
281
     0
  0
CLASS
  1
AEC_DISP_PROPS_WINDOW_SILL_PLAN
  2
AecDbDispPropsWindowSillPlan
  3
AecArchBase
 90
    32897
280
     1
281
     0
  0
CLASS
  1
AEC_DISP_REP_SPACE_PLAN
  2
AecDbDispRepSpacePlan
  3
AecArchBase
 90
    32897
280
     1
281
     0
  0
CLASS
  1
AEC_DISP_PROPS_SPACE_PLAN
  2
AecDbDispPropsSpacePlan
  3
AecArchBase
 90
    32897
280
     1
281
     0
  0
CLASS
  1
AEC_DISP_REP_SPACE_MODEL
  2
AecDbDispRepSpaceModel
  3
AecArchBase
 90
    32897
280
     1
281
     0
  0
CLASS
  1
AEC_DISP_PROPS_SPACE_MODEL
  2
AecDbDispPropsSpaceModel
  3
AecArchBase
 90
    32897
280
     1
281
     0
  0
CLASS
  1
AEC_DISP_REP_WINDOW_MODEL
  2
AecDbDispRepWindowModel
  3
AecArchBase
 90
    32897
280
     1
281
     0
  0
CLASS
  1
AEC_DISP_REP_WINDOW_NOMINAL
  2
AecDbDispRepWindowNominal
  3
AecArchBase
 90
    32897
280
     1
281
     0
  0
CLASS
  1
AEC_DISP_PROPS_WINDOW_NOMINAL
  2
AecDbDispPropsWindowNominal
  3
AecArchBase
 90
    32897
280
     1
281
     0
  0
CLASS
  1
AEC_DISP_REP_OPENING
  2
AecDbDispRepOpening
  3
AecArchBase
 90
    32897
280
     1
281
     0
  0
CLASS
  1
AEC_DISP_PROPS_OPENING
  2
AecDbDispPropsOpening
  3
AecArchBase
 90
    32897
280
     1
281
     0
  0
CLASS
  1
AEC_DISP_REP_OPENING_MODEL
  2
AecDbDispRepOpeningModel
  3
AecArchBase
 90
    32897
280
     1
281
     0
  0
CLASS
  1
AEC_DISP_REP_RAILING_PLAN
  2
AecDbDispRepRailingPlan
  3
AecArchBase
 90
    32897
280
     1
281
     0
  0
CLASS
  1
AEC_DISP_PROPS_RAILING_PLAN
  2
AecDbDispPropsRailingPlan
  3
AecArchBase
 90
    32897
280
     1
281
     0
  0
CLASS
  1
AEC_DISP_REP_RAILING_MODEL
  2
AecDbDispRepRailingModel
  3
AecArchBase
 90
    32897
280
     1
281
     0
  0
CLASS
  1
AEC_DISP_PROPS_RAILING_MODEL
  2
AecDbDispPropsRailingModel
  3
AecArchBase
 90
    32897
280
     1
281
     0
  0
CLASS
  1
AEC_DISP_REP_WINDOW_ELEV
  2
AecDbDispRepWindowElev
  3
AecArchBase
 90
    32897
280
     1
281
     0
  0
CLASS
  1
AEC_DISP_REP_DOOR_THRESHOLD_PLAN
  2
AecDbDispRepDoorThresholdPlan
  3
AecArchBase
 90
    32897
280
     1
281
     0
  0
CLASS
  1
AEC_DISP_PROPS_DOOR_THRESHOLD_PLAN
  2
AecDbDispPropsDoorThresholdPlan
  3
AecArchBase
 90
    32897
280
     1
281
     0
  0
CLASS
  1
AEC_DISP_REP_ROOF_MODEL
  2
AecDbDispRepRoofModel
  3
AecArchBase
 90
    32897
280
     1
281
     0
  0
CLASS
  1
AEC_DISP_REP_WINDOW_PLAN
  2
AecDbDispRepWindowPlan
  3
AecArchBase
 90
    32897
280
     1
281
     0
  0
CLASS
  1
AEC_DISP_REP_WALL_SCHEM
  2
AecDbDispRepWallSchem
  3
AecArchBase
 90
    32897
280
     1
281
     0
  0
CLASS
  1
AEC_DISP_PROPS_WALL_SCHEM
  2
AecDbDispPropsWallSchem
  3
AecArchBase
 90
    32897
280
     1
281
     0
  0
CLASS
  1
AEC_DISP_REP_WALL_RCP
  2
AecDbDispRepWallRcp
  3
AecArchBase
 90
    32897
280
     1
281
     0
  0
CLASS
  1
AEC_DISP_PROPS_WALL_PLAN
  2
AecDbDispPropsWallPlan
  3
AecArchBase
 90
    32897
280
     1
281
     0
  0
CLASS
  1
AEC_DISP_REP_WALL_PLAN
  2
AecDbDispRepWallPlan
  3
AecArchBase
 90
    32897
280
     1
281
     0
  0
CLASS
  1
AEC_DISP_REP_WALL_MODEL
  2
AecDbDispRepWallModel
  3
AecArchBase
 90
    32897
280
     1
281
     0
  0
CLASS
  1
AEC_DISP_PROPS_WALL
  2
AecDbDispPropsWall
  3
AecArchBase
 90
    32897
280
     1
281
     0
  0
CLASS
  1
AEC_DISP_REP_WALL_GRAPH
  2
AecDbDispRepWallGraph
  3
AecArchBase
 90
    32897
280
     1
281
     0
  0
CLASS
  1
AEC_DISP_REP_STAIR_RCP
  2
AecDbDispRepStairRcp
  3
AecArchBase
 90
    32897
280
     1
281
     0
  0
CLASS
  1
AEC_DISP_PROPS_STAIR_PLAN
  2
AecDbDispPropsStairPlan
  3
AecArchBase
 90
    32897
280
     1
281
     0
  0
CLASS
  1
AEC_DISP_REP_STAIR_PLAN
  2
AecDbDispRepStairPlan
  3
AecArchBase
 90
    32897
280
     1
281
     0
  0
CLASS
  1
AEC_DISP_REP_STAIR_MODEL
  2
AecDbDispRepStairModel
  3
AecArchBase
 90
    32897
280
     1
281
     0
  0
CLASS
  1
AEC_DISP_PROPS_STAIR_MODEL
  2
AecDbDispPropsStairModel
  3
AecArchBase
 90
    32897
280
     1
281
     0
  0
CLASS
  1
AEC_DISP_REP_SPACE_BOUNDARY_SCHEM
  2
AecDbDispRepSpaceBoundarySketch
  3
AecArchBase
 90
    32897
280
     1
281
     0
  0
CLASS
  1
AEC_DISP_REP_SPACE_BOUNDARY_PLAN
  2
AecDbDispRepSpaceBoundaryPlan
  3
AecArchBase
 90
    32897
280
     1
281
     0
  0
CLASS
  1
AEC_DISP_REP_SPACE_BOUNDARY_MODEL
  2
AecDbDispRepSpaceBoundaryModel
  3
AecArchBase
 90
    32897
280
     1
281
     0
  0
CLASS
  1
AEC_DISP_REP_SPACE_BOUNDARY_DIAGRAM
  2
AecDbDispRepSpaceBoundaryDgrm
  3
AecArchBase
 90
    32897
280
     1
281
     0
  0
CLASS
  1
AEC_DISP_REP_SPACE_VOLUME
  2
AecDbDispRepSpaceVolume
  3
AecArchBase
 90
    32897
280
     1
281
     0
  0
CLASS
  1
AEC_DISP_REP_SPACE_RCP
  2
AecDbDispRepSpaceRcp
  3
AecArchBase
 90
    32897
280
     1
281
     0
  0
CLASS
  1
AEC_DISP_REP_ANCHOR_TAG_TO_ENT
  2
AecDbDispRepAnchorTagToEnt
  3
AecScheduleData
 90
    32897
280
     1
281
     0
  0
CLASS
  1
AEC_DISP_REP_SCHEDULE_TABLE
  2
AecDbDispRepScheduleTable
  3
AecSchedule
 90
    32897
280
     1
281
     0
  0
CLASS
  1
AEC_DISP_PROPS_SCHEDULE_TABLE
  2
AecDbDispPropsScheduleTable
  3
AecSchedule
 90
    32897
280
     1
281
     0
  0
CLASS
  1
AEC_DISP_REP_SET
  2
AecDbDispRepSet
  3
AecBase
 90
    32897
280
     1
281
     0
  0
CLASS
  1
AEC_DISP_REP_CONFIG
  2
AecDbDispRepConfig
  3
AecBase
 90
    32897
280
     1
281
     0
  0
CLASS
  1
TABLESTYLE
  2
AcDbTableStyle
  3
ObjectDBX Classes
 90
     4095
280
     0
281
     0
  0
CLASS
  1
MATERIAL
  2
AcDbMaterial
  3
ObjectDBX Classes
 90
     1153
280
     0
281
     0
  0
CLASS
  1
VISUALSTYLE
  2
AcDbVisualStyle
  3
ObjectDBX Classes
 90
     4095
280
     0
281
     0
  0
CLASS
  1
SCALE
  2
AcDbScale
  3
ObjectDBX Classes
 90
     1153
280
     0
281
     0
  0
CLASS
  1
MLEADERSTYLE
  2
AcDbMLeaderStyle
  3
ACDB_MLEADERSTYLE_CLASS
 90
    36863
280
     0
281
     0
  0
CLASS
  1
ACDBSECTIONVIEWSTYLE
  2
AcDbSectionViewStyle
  3
ObjectDBX Classes
 90
    33793
280
     0
281
     0
  0
CLASS
  1
ACDBDETAILVIEWSTYLE
  2
AcDbDetailViewStyle
  3
ObjectDBX Classes
 90
    33793
280
     0
281
     0
  0
CLASS
  1
EXACXREFPANELOBJECT
  2
ExAcXREFPanelObject
  3
EXAC_ESW
 90
    33793
280
     0
281
     0
  0
CLASS
  1
NPOCOLLECTION
  2
AcDbImpNonPersistentObjectsCollection
  3
ObjectDBX Classes
 90
    33921
280
     0
281
     0
  0
CLASS
  1
CELLSTYLEMAP
  2
AcDbCellStyleMap
  3
ObjectDBX Classes
 90
     1152
280
     0
281
     0
  0
ENDSEC
  0
SECTION
  2
TABLES
  0
TABLE
  2
VPORT
  5
2F
330
0
100
AcDbSymbolTable
 70
     1
  0
VPORT
  5
30
330
2F
100
AcDbSymbolTableRecord
100
AcDbViewportTableRecord
  2
*Active
 70
     0
 10
0.0
 20
0.0
 11
1.0
 21
1.0
 12
281.0990071439708
 22
68.8737370474837
 13
0.0
 23
0.0
 14
1.0
 24
1.0
 15
0.0
 25
0.0
 16
0.0
 26
0.0
 36
1.0
 17
0.0
 27
0.0
 37
0.0
 40
286.5075588044297
 41
2.095558546433378
 42
50.0
 43
0.0
 44
0.0
 50
0.0
 51
0.0
 71
     0
 72
 20000
 73
     1
 74
     1
 75
     0
 76
     0
 77
     0
 78
     0
281
     0
 65
     1
110
0.0
120
0.0
130
0.0
111
1.0
121
0.0
131
0.0
112
0.0
122
1.0
132
0.0
 79
     0
146
0.0
1001
ACAD_NAV_VCDISPLAY
1070
     3
  0
ENDTAB
  0
TABLE
  2
LTYPE
  5
2A
330
0
100
AcDbSymbolTable
 70
     1
  0
LTYPE
  5
2B
330
2A
100
AcDbSymbolTableRecord
100
AcDbLinetypeTableRecord
  2
BYBLOCK
 70
     0
  3

 72
    65
 73
     0
 40
0.0
  0
LTYPE
  5
2C
330
2A
100
AcDbSymbolTableRecord
100
AcDbLinetypeTableRecord
  2
BYLAYER
 70
     0
  3

 72
    65
 73
     0
 40
0.0
  0
LTYPE
  5
14
330
2A
100
AcDbSymbolTableRecord
100
AcDbLinetypeTableRecord
  2
CONTINUOUS
 70
     0
  3
Solid line
 72
    65
 73
     0
 40
0.0
  0
ENDTAB
  0
TABLE
  2
LAYER
  5
26
330
0
100
AcDbSymbolTable
 70
     6
  0
LAYER
  5
7
330
26
100
AcDbSymbolTableRecord
100
AcDbLayerTableRecord
  2
0
 70
     0
 62
     7
  6
CONTINUOUS
370
    -3
390
8
  0
LAYER
  5
176
330
26
100
AcDbSymbolTableRecord
100
AcDbLayerTableRecord
  2
DEFPOINTS
 70
     0
 62
     7
  6
CONTINUOUS
290
     0
370
    -3
390
8
  0
LAYER
  5
166
330
26
100
AcDbSymbolTableRecord
100
AcDbLayerTableRecord
  2
SUNPOU
 70
     0
 62
    70
  6
CONTINUOUS
370
    -3
390
8
  0
LAYER
  5
63
330
26
100
AcDbSymbolTableRecord
100
AcDbLayerTableRecord
  2
KIJUN
 70
     0
 62
     7
  6
CONTINUOUS
370
    -3
390
8
  0
LAYER
  5
18A
330
26
100
AcDbSymbolTableRecord
100
AcDbLayerTableRecord
  2
HOJO
 70
     0
 62
     3
  6
CONTINUOUS
370
    -3
390
8
  0
LAYER
  5
18C
330
26
100
AcDbSymbolTableRecord
100
AcDbLayerTableRecord
  2
WAKU
 70
     0
 62
     1
  6
CONTINUOUS
370
    -3
390
8
  0
ENDTAB
  0
TABLE
  2
STYLE
  5
27
330
0
100
AcDbSymbolTable
 70
     3
  0
STYLE
  5
28
330
27
100
AcDbSymbolTableRecord
100
AcDbTextStyleTableRecord
  2
STANDARD
 70
     0
 40
0.0
 41
1.0
 50
0.0
 71
     0
 42
0.2
  3
txt
  4

  0
STYLE
  5
4B
330
27
100
AcDbSymbolTableRecord
100
AcDbTextStyleTableRecord
  2
SUNPOU
 70
     0
 40
0.0
 41
1.0
 50
0.0
 71
     0
 42
30.0
  3
txt
  4
bigfont
  0
STYLE
  5
174
330
27
100
AcDbSymbolTableRecord
100
AcDbTextStyleTableRecord
  2
LIFE
 70
     0
 40
0.0
 41
0.7
 50
0.0
 71
     0
 42
10.0
  3
romans
  4
extfont
  0
ENDTAB
  0
TABLE
  2
VIEW
  5
2D
330
0
100
AcDbSymbolTable
 70
     0
  0
ENDTAB
  0
TABLE
  2
UCS
  5
2E
330
0
100
AcDbSymbolTable
 70
     0
  0
ENDTAB
  0
TABLE
  2
APPID
  5
34
330
0
100
AcDbSymbolTable
 70
     2
  0
APPID
  5
5
330
34
100
AcDbSymbolTableRecord
100
AcDbRegAppTableRecord
  2
ACAD
 70
     0
  0
APPID
  5
33
330
34
100
AcDbSymbolTableRecord
100
AcDbRegAppTableRecord
  2
ACAD_NAV_VCDISPLAY
 70
     0
  0
ENDTAB
  0
TABLE
  2
DIMSTYLE
  5
35
330
0
100
AcDbSymbolTable
 70
     3
100
AcDbDimStyleTable
 71
     1
340
36
  0
DIMSTYLE
105
36
330
35
100
AcDbSymbolTableRecord
100
AcDbDimStyleTableRecord
  2
STANDARD
 70
     0
 41
3.0
 42
2.0
 44
0.0
 73
     0
 74
     0
 77
     1
140
2.799999999999998
141
1.0
146
0.0642857142857143
147
1.0
173
     1
174
     1
176
    60
177
    70
178
    60
271
     0
340
28
341
37
343
37
344
37
  0
DIMSTYLE
105
17A
102
{ACAD_REACTORS
330
165
330
17B
102
}
330
35
100
AcDbSymbolTableRecord
100
AcDbDimStyleTableRecord
  2
STANDARD$0
 70
     0
 40
2.0
 41
1.0
 42
2.0
 43
0.0
 44
1.0
 73
     0
 74
     0
 77
     3
 78
     9
140
4.5
141
0.0
147
1.0
172
     1
173
     1
178
     3
271
     2
340
174
341
16D
343
16D
344
16D
  0
DIMSTYLE
105
50
330
35
100
AcDbSymbolTableRecord
100
AcDbDimStyleTableRecord
  2
1
 70
     0
 41
3.0
 42
2.0
 44
0.0
 73
     0
 74
     0
 77
     1
140
7.0
141
1.0
146
0.0642857142857143
147
1.0
173
     1
174
     1
176
    60
177
    70
178
    60
271
     0
340
28
341
37
343
37
344
37
  0
ENDTAB
  0
TABLE
  2
BLOCK_RECORD
  5
1
330
0
100
AcDbSymbolTable
 70
     4
  0
BLOCK_RECORD
  5
2
102
{ACAD_XDICTIONARY
360
3
102
}
330
1
100
AcDbSymbolTableRecord
100
AcDbBlockTableRecord
  2
*MODEL_SPACE
340
1E
  0
BLOCK_RECORD
  5
20
102
{ACAD_XDICTIONARY
360
21
102
}
330
1
100
AcDbSymbolTableRecord
100
AcDbBlockTableRecord
  2
*PAPER_SPACE
340
25
  0
BLOCK_RECORD
  5
37
330
1
100
AcDbSymbolTableRecord
100
AcDbBlockTableRecord
  2
_DOTSMALL
340
0
  0
BLOCK_RECORD
  5
16D
330
1
100
AcDbSymbolTableRecord
100
AcDbBlockTableRecord
  2
_DOT
340
0
102
{BLKREFS
331
16C
331
172
331
181
331
182
102
}
  0
BLOCK_RECORD
  5
167
330
1
100
AcDbSymbolTableRecord
100
AcDbBlockTableRecord
  2
*D2
340
0
  0
BLOCK_RECORD
  5
17C
330
1
100
AcDbSymbolTableRecord
100
AcDbBlockTableRecord
  2
*D3
340
0
  0
ENDTAB
  0
ENDSEC
  0
SECTION
  2
BLOCKS
  0
BLOCK
  5
6
330
2
100
AcDbEntity
  8
0
100
AcDbBlockBegin
  2
*MODEL_SPACE
 70
     0
 10
0.0
 20
0.0
 30
0.0
  3
*MODEL_SPACE
  1

  0
ENDBLK
  5
1D
330
2
100
AcDbEntity
  8
0
100
AcDbBlockEnd
  0
BLOCK
  5
23
330
20
100
AcDbEntity
 67
     1
  8
0
100
AcDbBlockBegin
  2
*PAPER_SPACE
 70
     0
 10
0.0
 20
0.0
 30
0.0
  3
*PAPER_SPACE
  1

  0
ENDBLK
  5
24
330
20
100
AcDbEntity
 67
     1
  8
0
100
AcDbBlockEnd
  0
BLOCK
  5
38
330
37
100
AcDbEntity
  8
0
100
AcDbBlockBegin
  2
_DOTSMALL
 70
     0
 10
0.0
 20
0.0
 30
0.0
  3
_DOTSMALL
  1

  0
LWPOLYLINE
  5
39
330
37
100
AcDbEntity
  8
0
  6
ByBlock
 62
     0
100
AcDbPolyline
 90
        2
 70
     1
 43
0.5
 10
-0.0625
 20
0.0
 42
1.0
 10
0.0625
 20
0.0
 42
1.0
  0
ENDBLK
  5
3A
330
37
100
AcDbEntity
  8
0
100
AcDbBlockEnd
  0
BLOCK
  5
16E
330
16D
100
AcDbEntity
  8
0
100
AcDbBlockBegin
  2
_DOT
 70
     0
 10
0.0
 20
0.0
 30
0.0
  3
_DOT
  1

  0
LWPOLYLINE
  5
16F
330
16D
100
AcDbEntity
  8
0
  6
ByBlock
 62
     0
100
AcDbPolyline
 90
        2
 70
     1
 43
0.5
 10
-0.25
 20
0.0
 42
1.0
 10
0.25
 20
0.0
 42
1.0
  0
LINE
  5
170
330
16D
100
AcDbEntity
  8
0
  6
ByBlock
 62
     0
100
AcDbLine
 10
-0.5
 20
0.0
 30
0.0
 11
-1.0
 21
0.0
 31
0.0
  0
ENDBLK
  5
171
330
16D
100
AcDbEntity
  8
0
100
AcDbBlockEnd
  0
BLOCK
  5
168
330
167
100
AcDbEntity
  8
0
 62
     1
100
AcDbBlockBegin
  2
*D2
 70
     1
 10
0.0
 20
0.0
 30
0.0
  3
*D2
  1

  0
LINE
  5
169
330
167
100
AcDbEntity
  8
SUNPOU
 62
    70
370
    -2
100
AcDbLine
 10
60.67368408112071
 20
93.78821508826339
 30
0.0
 11
60.67368408112071
 21
107.2697306787878
 31
0.0
  0
LINE
  5
16A
330
167
100
AcDbEntity
  8
SUNPOU
 62
    70
370
    -2
100
AcDbLine
 10
31.67368408112071
 20
94.788215088263
 30
0.0
 11
31.67368408112071
 21
107.2697306787878
 31
0.0
  0
LINE
  5
16B
330
167
100
AcDbEntity
  8
SUNPOU
 62
    60
370
    -2
100
AcDbLine
 10
59.67368408112071
 20
107.2697306787878
 30
0.0
 11
32.67368408112071
 21
107.2697306787878
 31
0.0
  0
INSERT
  5
16C
330
167
100
AcDbEntity
  8
SUNPOU
 62
    60
370
    -2
100
AcDbBlockReference
  2
_DOT
 10
60.67368408112071
 20
107.2697306787878
 30
0.0
  0
INSERT
  5
172
330
167
100
AcDbEntity
  8
SUNPOU
 62
    60
370
    -2
100
AcDbBlockReference
  2
_DOT
 10
31.67368408112071
 20
107.2697306787878
 30
0.0
 50
180.0
  0
MTEXT
  5
173
330
167
100
AcDbEntity
  8
SUNPOU
 62
    60
100
AcDbMText
 10
46.17368408112071
 20
112.2697306787878
 30
0.0
 40
6.0
 41
0.0
 71
     5
 72
     1
  1
\A1;29
  7
LIFE
 73
     1
 44
1.0
1001
ACAD
1000
MTEXTBEGIN
1070
    73
1070
     1
1070
    44
1040
1.0
1070
    74
1070
     0
1000
MTEXTEND
  0
POINT
  5
175
330
167
100
AcDbEntity
  8
DEFPOINTS
 62
     0
100
AcDbPoint
 10
60.67368408112071
 20
91.7882150882634
 30
0.0
  0
POINT
  5
177
330
167
100
AcDbEntity
  8
DEFPOINTS
 62
     0
100
AcDbPoint
 10
31.67368408112071
 20
92.788215088263
 30
0.0
  0
POINT
  5
178
330
167
100
AcDbEntity
  8
DEFPOINTS
 62
     0
100
AcDbPoint
 10
31.67368408112071
 20
107.2697306787878
 30
0.0
  0
ENDBLK
  5
179
330
167
100
AcDbEntity
  8
0
 62
     1
100
AcDbBlockEnd
  0
BLOCK
  5
17D
330
17C
100
AcDbEntity
  8
0
 62
     1
100
AcDbBlockBegin
  2
*D3
 70
     1
 10
0.0
 20
0.0
 30
0.0
  3
*D3
  1

  0
LINE
  5
17E
330
17C
100
AcDbEntity
  8
SUNPOU
 62
    70
370
    -2
100
AcDbLine
 10
29.67368408112071
 20
92.788215088263
 30
0.0
 11
11.52812132948977
 21
92.788215088263
 31
0.0
  0
LINE
  5
17F
330
17C
100
AcDbEntity
  8
SUNPOU
 62
    70
370
    -2
100
AcDbLine
 10
29.67368408112071
 20
21.78821508826302
 30
0.0
 11
11.52812132948975
 21
21.78821508826302
 31
0.0
  0
LINE
  5
180
330
17C
100
AcDbEntity
  8
SUNPOU
 62
    60
370
    -2
100
AcDbLine
 10
11.52812132948976
 20
91.78821508826301
 30
0.0
 11
11.52812132948975
 21
22.78821508826302
 31
0.0
  0
INSERT
  5
181
330
17C
100
AcDbEntity
  8
SUNPOU
 62
    60
370
    -2
100
AcDbBlockReference
  2
_DOT
 10
11.52812132948976
 20
92.788215088263
 30
0.0
 50
90.0
  0
INSERT
  5
182
330
17C
100
AcDbEntity
  8
SUNPOU
 62
    60
370
    -2
100
AcDbBlockReference
  2
_DOT
 10
11.52812132948975
 20
21.78821508826302
 30
0.0
 50
270.0
  0
MTEXT
  5
183
330
17C
100
AcDbEntity
  8
SUNPOU
 62
    60
100
AcDbMText
 10
6.528121329489747
 20
57.28821508826301
 30
0.0
 40
6.0
 41
0.0
 71
     5
 72
     1
  1
\A1;71
  7
LIFE
 11
0.0000000000000001
 21
1.0
 31
0.0
 73
     1
 44
1.0
1001
ACAD
1000
MTEXTBEGIN
1070
    73
1070
     1
1070
    44
1040
1.0
1070
    74
1070
     0
1000
MTEXTEND
  0
POINT
  5
184
330
17C
100
AcDbEntity
  8
DEFPOINTS
 62
     0
100
AcDbPoint
 10
31.67368408112071
 20
92.788215088263
 30
0.0
  0
POINT
  5
185
330
17C
100
AcDbEntity
  8
DEFPOINTS
 62
     0
100
AcDbPoint
 10
31.67368408112071
 20
21.78821508826302
 30
0.0
  0
POINT
  5
186
330
17C
100
AcDbEntity
  8
DEFPOINTS
 62
     0
100
AcDbPoint
 10
11.52812132948975
 20
21.78821508826302
 30
0.0
  0
ENDBLK
  5
187
330
17C
100
AcDbEntity
  8
0
 62
     1
100
AcDbBlockEnd
  0
ENDSEC
  0
SECTION
  2
ENTITIES
  0
ARC
  5
62
330
2
100
AcDbEntity
  8
KIJUN
 62
     7
100
AcDbCircle
 10
266.8414269300438
 20
68.22176103251759
 30
0.0
 40
1.953994544675378
100
AcDbArc
 50
319.8725659444966
 51
112.2283223286274
  0
ARC
  5
64
330
2
100
AcDbEntity
  8
KIJUN
 62
     7
100
AcDbCircle
 10
265.4845318190164
 20
68.22101400544369
 30
0.0
 40
3.116394520905575
100
AcDbArc
 50
229.1407858244053
 51
336.1803827102953
  0
CIRCLE
  5
65
330
2
100
AcDbEntity
  8
KIJUN
 62
     7
100
AcDbCircle
 10
266.743403933986
 20
62.38092077726649
 30
0.0
 40
1.0
  0
ARC
  5
66
330
2
100
AcDbEntity
  8
KIJUN
 62
     7
100
AcDbCircle
 10
243.4397447411669
 20
46.10240267446549
 30
0.0
 40
20.54084268423458
100
AcDbArc
 50
11.15722279201754
 51
120.2104538967165
  0
ARC
  5
67
330
2
100
AcDbEntity
  8
KIJUN
 62
     7
100
AcDbCircle
 10
268.9601899414374
 20
22.99987402254072
 30
0.0
 40
19.90686140874996
100
AcDbArc
 50
88.9834409060543
 51
118.2237226213093
  0
ARC
  5
68
330
2
100
AcDbEntity
  8
KIJUN
 62
     7
100
AcDbCircle
 10
271.8657942131926
 20
47.41049414554757
 30
0.0
 40
5.179475771283343
100
AcDbArc
 50
172.3313563141208
 51
285.9485791861701
  0
LINE
  5
69
330
2
100
AcDbEntity
  8
KIJUN
 62
     7
100
AcDbLine
 10
445.4457784335644
 20
92.7882150882638
 30
0.0
 11
81.44577843356456
 21
92.7882150882638
 31
0.0
  0
LINE
  5
6A
330
2
100
AcDbEntity
  8
KIJUN
 62
     7
100
AcDbLine
 10
445.4457784335649
 20
72.7882150882624
 30
0.0
 11
81.44577843356456
 21
72.7882150882624
 31
0.0
  0
LINE
  5
6B
330
2
100
AcDbEntity
  8
KIJUN
 62
     7
100
AcDbLine
 10
445.4457784335649
 20
38.78821508826348
 30
0.0
 11
81.44577843356456
 21
38.78821508826393
 31
0.0
  0
ARC
  5
6C
330
2
100
AcDbEntity
  8
KIJUN
 62
     7
100
AcDbCircle
 10
182.1130880217555
 20
51.69323803801089
 30
0.0
 40
9.264524716408926
100
AcDbArc
 50
271.0878709243384
 51
43.39236372580515
  0
ARC
  5
6D
330
2
100
AcDbEntity
  8
KIJUN
 62
     7
100
AcDbCircle
 10
170.474376980197
 20
42.43395681909867
 30
0.0
 40
26.82608525038729
100
AcDbArc
 50
9.729345103582275
 51
69.39642877007353
  0
ARC
  5
6E
330
2
100
AcDbEntity
  8
KIJUN
 62
     7
100
AcDbCircle
 10
121.6226525971591
 20
56.48676656337868
 30
0.0
 40
8.770315857434011
100
AcDbArc
 50
143.6740512121199
 51
272.013392456594
  0
ARC
  5
6F
330
2
100
AcDbEntity
  8
KIJUN
 62
     7
100
AcDbCircle
 10
91.11308802175562
 20
51.69323803801089
 30
0.0
 40
9.264524716408926
100
AcDbArc
 50
271.0878709243384
 51
43.39236372580515
  0
ARC
  5
70
330
2
100
AcDbEntity
  8
KIJUN
 62
     7
100
AcDbCircle
 10
79.47437698019712
 20
42.43395681909867
 30
0.0
 40
26.82608525038729
100
AcDbArc
 50
9.729345103582275
 51
69.39642877007353
  0
ARC
  5
71
330
2
100
AcDbEntity
  8
KIJUN
 62
     7
100
AcDbCircle
 10
176.7657700135178
 20
50.70777166105969
 30
0.0
 40
2.803418495465912
100
AcDbArc
 50
45.2277833167747
 51
248.3753540951096
  0
ARC
  5
72
330
2
100
AcDbEntity
  8
KIJUN
 62
     7
100
AcDbCircle
 10
178.9012169455899
 20
49.31045784646689
 30
0.0
 40
3.39132030746521
100
AcDbArc
 50
92.72155015210952
 51
200.8815872597771
  0
ARC
  5
73
330
2
100
AcDbEntity
  8
KIJUN
 62
     7
100
AcDbCircle
 10
154.3421410596747
 20
52.60097153388159
 30
0.0
 40
15.949162050947
100
AcDbArc
 50
149.0845658896863
 51
205.6165521424791
  0
ARC
  5
74
330
2
100
AcDbEntity
  8
KIJUN
 62
     7
100
AcDbCircle
 10
150.1079713794515
 20
48.6128093613449
 30
0.0
 40
5.917621452263361
100
AcDbArc
 50
237.6546283278201
 51
25.1348800740229
  0
CIRCLE
  5
75
330
2
100
AcDbEntity
  8
KIJUN
 62
     7
100
AcDbCircle
 10
148.0327472489188
 20
48.26951476675559
 30
0.0
 40
1.0
  0
ARC
  5
76
330
2
100
AcDbEntity
  8
KIJUN
 62
     7
100
AcDbCircle
 10
117.6490307194499
 20
54.2348009784546
 30
0.0
 40
11.46167143011274
100
AcDbArc
 50
274.39081436711
 51
346.8651139707426
  0
ARC
  5
77
330
2
100
AcDbEntity
  8
KIJUN
 62
     7
100
AcDbCircle
 10
241.1079713794515
 20
48.6128093613449
 30
0.0
 40
5.917621452263361
100
AcDbArc
 50
237.6546283278201
 51
25.1348800740229
  0
ARC
  5
78
330
2
100
AcDbEntity
  8
KIJUN
 62
     7
100
AcDbCircle
 10
245.3421410596748
 20
52.60097153388159
 30
0.0
 40
15.949162050947
100
AcDbArc
 50
149.0845658896863
 51
205.6165521424791
  0
CIRCLE
  5
79
330
2
100
AcDbEntity
  8
KIJUN
 62
     7
100
AcDbCircle
 10
239.0327472489189
 20
48.26951476675559
 30
0.0
 40
1.0
  0
CIRCLE
  5
7A
330
2
100
AcDbEntity
  8
KIJUN
 62
     7
100
AcDbCircle
 10
239.0327472489189
 20
48.26951476675559
 30
0.0
 40
1.0
  0
ARC
  5
7B
330
2
100
AcDbEntity
  8
KIJUN
 62
     7
100
AcDbCircle
 10
241.1079713794515
 20
48.6128093613449
 30
0.0
 40
5.917621452263361
100
AcDbArc
 50
237.6546283278201
 51
25.1348800740229
  0
ARC
  5
7C
330
2
100
AcDbEntity
  8
KIJUN
 62
     7
100
AcDbCircle
 10
212.6226525971592
 20
56.48676656337868
 30
0.0
 40
8.770315857434011
100
AcDbArc
 50
143.6740512121199
 51
272.013392456594
  0
ARC
  5
7D
330
2
100
AcDbEntity
  8
KIJUN
 62
     7
100
AcDbCircle
 10
245.3421410596748
 20
52.60097153388159
 30
0.0
 40
15.949162050947
100
AcDbArc
 50
149.0845658896863
 51
205.6165521424791
  0
ARC
  5
7E
330
2
100
AcDbEntity
  8
KIJUN
 62
     7
100
AcDbCircle
 10
208.6490307194499
 20
54.2348009784546
 30
0.0
 40
11.46167143011274
100
AcDbArc
 50
274.39081436711
 51
346.8651139707426
  0
ARC
  5
7F
330
2
100
AcDbEntity
  8
KIJUN
 62
     7
100
AcDbCircle
 10
89.86579421319266
 20
47.41049414554757
 30
0.0
 40
5.179475771283343
100
AcDbArc
 50
172.3313563141208
 51
285.9485791861701
  0
ARC
  5
80
330
2
100
AcDbEntity
  8
KIJUN
 62
     7
100
AcDbCircle
 10
86.96018994143742
 20
22.99987402254072
 30
0.0
 40
19.90686140874996
100
AcDbArc
 50
88.9834409060543
 51
106.0818683546417
  0
ARC
  5
81
330
2
100
AcDbEntity
  8
KIJUN
 62
     7
100
AcDbCircle
 10
80.63974430676035
 20
40.6508220628113
 30
0.0
 40
3.095805542659225
100
AcDbArc
 50
37.35066467984685
 51
74.90838022506633
  0
ARC
  5
82
330
2
100
AcDbEntity
  8
KIJUN
 62
     7
100
AcDbCircle
 10
180.8657942131923
 20
47.41049414554757
 30
0.0
 40
5.179475771283343
100
AcDbArc
 50
172.3313563141208
 51
285.9485791861701
  0
ARC
  5
83
330
2
100
AcDbEntity
  8
KIJUN
 62
     7
100
AcDbCircle
 10
177.9601899414371
 20
22.99987402254072
 30
0.0
 40
19.90686140874996
100
AcDbArc
 50
88.9834409060543
 51
118.2237226213093
  0
ARC
  5
84
330
2
100
AcDbEntity
  8
KIJUN
 62
     7
100
AcDbCircle
 10
154.7962069197827
 20
56.6576188179648
 30
0.0
 40
15.22636413932551
100
AcDbArc
 50
238.9467209827576
 51
329.7364536045764
  0
ARC
  5
85
330
2
100
AcDbEntity
  8
KIJUN
 62
     7
100
AcDbCircle
 10
171.6397443067604
 20
40.6508220628113
 30
0.0
 40
3.095805542659225
100
AcDbArc
 50
37.35066467984685
 51
182.0521621721226
  0
ARC
  5
86
330
2
100
AcDbEntity
  8
KIJUN
 62
     7
100
AcDbCircle
 10
113.7902853134942
 20
49.6452580282381
 30
0.0
 40
8.318468306262642
100
AcDbArc
 50
198.7788378747852
 51
304.7059308776249
  0
ARC
  5
87
330
2
100
AcDbEntity
  8
KIJUN
 62
     7
100
AcDbCircle
 10
116.5670485140613
 20
47.20502379307859
 30
0.0
 40
4.814997380489558
100
AcDbArc
 50
158.319416619836
 51
294.0135798861163
  0
ARC
  5
88
330
2
100
AcDbEntity
  8
KIJUN
 62
     7
100
AcDbCircle
 10
103.1401334134448
 20
43.671515840707
 30
0.0
 40
4.308214684517666
100
AcDbArc
 50
49.90925664469991
 51
130.2136258838275
  0
ARC
  5
89
330
2
100
AcDbEntity
  8
KIJUN
 62
     7
100
AcDbCircle
 10
102.0804735957676
 20
42.6291950682632
 30
0.0
 40
4.661905497286094
100
AcDbArc
 50
14.78869283746075
 51
111.6757757997115
  0
ARC
  5
8A
330
2
100
AcDbEntity
  8
KIJUN
 62
     7
100
AcDbCircle
 10
128.9215823082048
 20
47.91296747103809
 30
0.0
 40
5.047331931325386
100
AcDbArc
 50
185.0205343929949
 51
297.5656585280928
  0
CIRCLE
  5
8B
330
2
100
AcDbEntity
  8
KIJUN
 62
     7
100
AcDbCircle
 10
130.4957250158913
 20
44.55531288288368
 30
0.0
 40
1.0
  0
ARC
  5
8C
330
2
100
AcDbEntity
  8
KIJUN
 62
     7
100
AcDbCircle
 10
129.5647654234453
 20
49.64663356228829
 30
0.0
 40
12.98562496590368
100
AcDbArc
 50
185.155557015119
 51
211.784500008484
  0
ARC
  5
8D
330
2
100
AcDbEntity
  8
KIJUN
 62
     7
100
AcDbCircle
 10
130.5164698922548
 20
45.02675330521259
 30
0.0
 40
1.752445408573749
100
AcDbArc
 50
295.0080978542925
 51
103.3343506066375
  0
ARC
  5
8E
330
2
100
AcDbEntity
  8
KIJUN
 62
     7
100
AcDbCircle
 10
144.2985038991595
 20
47.48660722686007
 30
0.0
 40
4.689302183894001
100
AcDbArc
 50
202.3239270992243
 51
17.00251091849769
  0
ARC
  5
8F
330
2
100
AcDbEntity
  8
KIJUN
 62
     7
100
AcDbCircle
 10
262.6397443067604
 20
40.6508220628113
 30
0.0
 40
3.095805542659225
100
AcDbArc
 50
37.35066467984685
 51
182.0521621721226
  0
ARC
  5
90
330
2
100
AcDbEntity
  8
KIJUN
 62
     7
100
AcDbCircle
 10
262.6397443067604
 20
40.6508220628113
 30
0.0
 40
3.095805542659225
100
AcDbArc
 50
37.35066467984685
 51
182.0521621721226
  0
ARC
  5
91
330
2
100
AcDbEntity
  8
KIJUN
 62
     7
100
AcDbCircle
 10
245.7962069197828
 20
56.6576188179648
 30
0.0
 40
15.22636413932551
100
AcDbArc
 50
238.9467209827576
 51
329.7364536045764
  0
ARC
  5
92
330
2
100
AcDbEntity
  8
KIJUN
 62
     7
100
AcDbCircle
 10
245.7962069197828
 20
56.6576188179648
 30
0.0
 40
15.22636413932551
100
AcDbArc
 50
238.9467209827576
 51
329.7364536045764
  0
ARC
  5
93
330
2
100
AcDbEntity
  8
KIJUN
 62
     7
100
AcDbCircle
 10
193.0804735957677
 20
42.6291950682632
 30
0.0
 40
4.661905497286094
100
AcDbArc
 50
14.78869283746075
 51
111.6757757997115
  0
ARC
  5
94
330
2
100
AcDbEntity
  8
KIJUN
 62
     7
100
AcDbCircle
 10
221.5164698922549
 20
45.02675330521259
 30
0.0
 40
1.752445408573749
100
AcDbArc
 50
295.0080978542925
 51
103.3343506066375
  0
ARC
  5
95
330
2
100
AcDbEntity
  8
KIJUN
 62
     7
100
AcDbCircle
 10
194.1401334134446
 20
43.671515840707
 30
0.0
 40
4.308214684517666
100
AcDbArc
 50
49.90925664469991
 51
130.2136258838275
  0
ARC
  5
96
330
2
100
AcDbEntity
  8
KIJUN
 62
     7
100
AcDbCircle
 10
219.9215823082049
 20
47.91296747103809
 30
0.0
 40
5.047331931325386
100
AcDbArc
 50
185.0205343929949
 51
297.5656585280928
  0
CIRCLE
  5
97
330
2
100
AcDbEntity
  8
KIJUN
 62
     7
100
AcDbCircle
 10
221.4957250158914
 20
44.55531288288368
 30
0.0
 40
1.0
  0
ARC
  5
98
330
2
100
AcDbEntity
  8
KIJUN
 62
     7
100
AcDbCircle
 10
220.5647654234453
 20
49.64663356228829
 30
0.0
 40
12.98562496590368
100
AcDbArc
 50
185.155557015119
 51
211.784500008484
  0
ARC
  5
99
330
2
100
AcDbEntity
  8
KIJUN
 62
     7
100
AcDbCircle
 10
207.5670485140613
 20
47.20502379307859
 30
0.0
 40
4.814997380489558
100
AcDbArc
 50
158.319416619836
 51
294.0135798861163
  0
ARC
  5
9A
330
2
100
AcDbEntity
  8
KIJUN
 62
     7
100
AcDbCircle
 10
204.7902853134942
 20
49.6452580282381
 30
0.0
 40
8.318468306262642
100
AcDbArc
 50
198.7788378747852
 51
304.7059308776249
  0
ARC
  5
9B
330
2
100
AcDbEntity
  8
KIJUN
 62
     7
100
AcDbCircle
 10
235.2985038991595
 20
47.48660722686007
 30
0.0
 40
4.689302183894001
100
AcDbArc
 50
202.3239270992243
 51
17.00251091849769
  0
ARC
  5
9C
330
2
100
AcDbEntity
  8
KIJUN
 62
     7
100
AcDbCircle
 10
235.2985038991595
 20
47.48660722686007
 30
0.0
 40
4.689302183894001
100
AcDbArc
 50
202.3239270992243
 51
17.00251091849769
  0
CIRCLE
  5
9D
330
2
100
AcDbEntity
  8
KIJUN
 62
     7
100
AcDbCircle
 10
84.74340393398597
 20
62.38092077726649
 30
0.0
 40
1.0
  0
ARC
  5
9E
330
2
100
AcDbEntity
  8
KIJUN
 62
     7
100
AcDbCircle
 10
83.48453181901641
 20
68.22101400544369
 30
0.0
 40
3.116394520905575
100
AcDbArc
 50
229.1407858244053
 51
336.1803827102953
  0
ARC
  5
9F
330
2
100
AcDbEntity
  8
KIJUN
 62
     7
100
AcDbCircle
 10
84.84142693004377
 20
68.22176103251759
 30
0.0
 40
1.953994544675378
100
AcDbArc
 50
319.8725659444966
 51
112.2283223286274
  0
ARC
  5
A0
330
2
100
AcDbEntity
  8
KIJUN
 62
     7
100
AcDbCircle
 10
81.44577843356456
 20
66.86402451814419
 30
0.0
 40
1.0
100
AcDbArc
 50
270.000000000026
 51
90.0
  0
ARC
  5
A1
330
2
100
AcDbEntity
  8
KIJUN
 62
     7
100
AcDbCircle
 10
175.8414269300437
 20
68.22176103251759
 30
0.0
 40
1.953994544675378
100
AcDbArc
 50
319.8725659444966
 51
112.2283223286274
  0
ARC
  5
A2
330
2
100
AcDbEntity
  8
KIJUN
 62
     7
100
AcDbCircle
 10
174.4845318190163
 20
68.22101400544369
 30
0.0
 40
3.116394520905575
100
AcDbArc
 50
229.1407858244053
 51
336.1803827102953
  0
CIRCLE
  5
A3
330
2
100
AcDbEntity
  8
KIJUN
 62
     7
100
AcDbCircle
 10
175.7434039339858
 20
62.38092077726649
 30
0.0
 40
1.0
  0
ARC
  5
A4
330
2
100
AcDbEntity
  8
KIJUN
 62
     7
100
AcDbCircle
 10
152.4397447411668
 20
46.10240267446549
 30
0.0
 40
20.54084268423458
100
AcDbArc
 50
11.15722279201754
 51
120.2104538967165
  0
CIRCLE
  5
A5
330
2
100
AcDbEntity
  8
KIJUN
 62
     7
100
AcDbCircle
 10
155.7281871181111
 20
59.4822810451134
 30
0.0
 40
1.0
  0
CIRCLE
  5
A6
330
2
100
AcDbEntity
  8
KIJUN
 62
     7
100
AcDbCircle
 10
161.0192972929979
 20
54.9490146307735
 30
0.0
 40
1.0
  0
CIRCLE
  5
A7
330
2
100
AcDbEntity
  8
KIJUN
 62
     7
100
AcDbCircle
 10
150.8109316567642
 20
63.64120069399899
 30
0.0
 40
1.0
  0
CIRCLE
  5
A8
330
2
100
AcDbEntity
  8
KIJUN
 62
     7
100
AcDbCircle
 10
154.5890568507198
 20
50.5380349222079
 30
0.0
 40
1.0
  0
ARC
  5
A9
330
2
100
AcDbEntity
  8
KIJUN
 62
     7
100
AcDbCircle
 10
154.4290640449681
 20
56.32298119171188
 30
0.0
 40
8.163774780224381
100
AcDbArc
 50
51.60044854327824
 51
109.2851307936976
  0
ARC
  5
AA
330
2
100
AcDbEntity
  8
KIJUN
 62
     7
100
AcDbCircle
 10
159.346319506315
 20
52.16406154282609
 30
0.0
 40
8.163774780224381
100
AcDbArc
 50
51.60044854327824
 51
109.2851307936976
  0
ARC
  5
AB
330
2
100
AcDbEntity
  8
KIJUN
 62
     7
100
AcDbCircle
 10
164.9350125281452
 20
54.67070924007987
 30
0.0
 40
3.925592909772129
100
AcDbArc
 50
7.148863493757349
 51
161.2993978356749
  0
CIRCLE
  5
AC
330
2
100
AcDbEntity
  8
KIJUN
 62
     7
100
AcDbCircle
 10
172.4457784335645
 20
66.86402451814419
 30
0.0
 40
1.0
  0
ARC
  5
AD
330
2
100
AcDbEntity
  8
KIJUN
 62
     7
100
AcDbCircle
 10
112.8707459310308
 20
66.34196081592668
 30
0.0
 40
3.743923436790284
100
AcDbArc
 50
232.5148004791225
 51
40.28902007877486
  0
CIRCLE
  5
AE
330
2
100
AcDbEntity
  8
KIJUN
 62
     7
100
AcDbCircle
 10
90.03451410887283
 20
57.8476543629269
 30
0.0
 40
1.0
  0
ARC
  5
AF
330
2
100
AcDbEntity
  8
KIJUN
 62
     7
100
AcDbCircle
 10
88.68604493541216
 20
62.54940218272268
 30
0.0
 40
5.0
100
AcDbArc
 50
87.38145945261626
 51
118.041678273357
  0
CIRCLE
  5
B0
330
2
100
AcDbEntity
  8
KIJUN
 62
     7
100
AcDbCircle
 10
109.9441570271592
 20
64.34171165192369
 30
0.0
 40
1.0
  0
ARC
  5
B1
330
2
100
AcDbEntity
  8
KIJUN
 62
     7
100
AcDbCircle
 10
88.36153632218975
 20
55.0627012749792
 30
0.0
 40
8.163774780224381
100
AcDbArc
 50
51.60044854327824
 51
109.2851307936976
  0
ARC
  5
B2
330
2
100
AcDbEntity
  8
KIJUN
 62
     7
100
AcDbCircle
 10
93.95022934402003
 20
57.56934897223288
 30
0.0
 40
3.925592909772129
100
AcDbArc
 50
7.148863493757349
 51
161.2993978356749
  0
ARC
  5
B3
330
2
100
AcDbEntity
  8
KIJUN
 62
     7
100
AcDbCircle
 10
120.8355351327218
 20
67.39025571852069
 30
0.0
 40
1.385398599742057
100
AcDbArc
 50
261.8219223914509
 51
77.18611431242969
  0
CIRCLE
  5
B4
330
2
100
AcDbEntity
  8
KIJUN
 62
     7
100
AcDbCircle
 10
123.6872150683775
 20
52.74713234164718
 30
0.0
 40
1.0
  0
ARC
  5
B5
330
2
100
AcDbEntity
  8
KIJUN
 62
     7
100
AcDbCircle
 10
118.6164698184697
 20
63.45817585618039
 30
0.0
 40
1.385398599742057
100
AcDbArc
 50
261.8219223914509
 51
1.161736275232353
  0
ARC
  5
B6
330
2
100
AcDbEntity
  8
KIJUN
 62
     7
100
AcDbCircle
 10
119.9277380339739
 20
64.86969355521019
 30
0.0
 40
1.385398599742057
100
AcDbArc
 50
273.0554729325191
 51
77.18611431242969
  0
ARC
  5
B7
330
2
100
AcDbEntity
  8
KIJUN
 62
     7
100
AcDbCircle
 10
117.708672719722
 20
60.93761369286998
 30
0.0
 40
1.385398599742057
100
AcDbArc
 50
261.8219223914509
 51
55.40794128819935
  0
ARC
  5
B8
330
2
100
AcDbEntity
  8
KIJUN
 62
     7
100
AcDbCircle
 10
118.425309783514
 20
66.42113811349159
 30
0.0
 40
3.573120818881367
100
AcDbArc
 50
40.48855852231308
 51
139.0503633557693
  0
ARC
  5
B9
330
2
100
AcDbEntity
  8
KIJUN
 62
     7
100
AcDbCircle
 10
117.137535794654
 20
62.1651049472436
 30
0.0
 40
2.625584155073434
100
AcDbArc
 50
190.6003428892091
 51
278.190727033209
  0
CIRCLE
  5
BA
330
2
100
AcDbEntity
  8
KIJUN
 62
     7
100
AcDbCircle
 10
134.026033642498
 20
66.35819212936668
 30
0.0
 40
1.0
  0
CIRCLE
  5
BB
330
2
100
AcDbEntity
  8
KIJUN
 62
     7
100
AcDbCircle
 10
130.369624843035
 20
60.43487244438859
 30
0.0
 40
1.0
  0
ARC
  5
BC
330
2
100
AcDbEntity
  8
KIJUN
 62
     7
100
AcDbCircle
 10
138.3104208347549
 20
70.95726149998029
 30
0.0
 40
8.053308516804541
100
AcDbArc
 50
222.7389554308708
 51
298.1034470033181
  0
ARC
  5
BD
330
2
100
AcDbEntity
  8
KIJUN
 62
     7
100
AcDbCircle
 10
136.0383855996492
 20
63.04338714464996
 30
0.0
 40
4.932533079619731
100
AcDbArc
 50
203.4457246736029
 51
300.9311242681329
  0
ARC
  5
BE
330
2
100
AcDbEntity
  8
KIJUN
 62
     7
100
AcDbCircle
 10
129.4783697995257
 20
67.9489538609306
 30
0.0
 40
13.27331944036589
100
AcDbArc
 50
276.5836515515449
 51
342.0280351739761
  0
ARC
  5
BF
330
2
100
AcDbEntity
  8
KIJUN
 62
     7
100
AcDbCircle
 10
134.2827340892313
 20
65.86326803384479
 30
0.0
 40
1.92330440971685
100
AcDbArc
 50
105.245780449468
 51
191.1358235530905
  0
ARC
  5
C0
330
2
100
AcDbEntity
  8
KIJUN
 62
     7
100
AcDbCircle
 10
130.13780318408
 20
60.79589258990899
 30
0.0
 40
1.404499126886494
100
AcDbArc
 50
11.70511808954336
 51
181.1141455099748
  0
ARC
  5
C1
330
2
100
AcDbEntity
  8
KIJUN
 62
     7
100
AcDbCircle
 10
126.4667904531648
 20
55.8738072750161
 30
0.0
 40
4.667480451943356
100
AcDbArc
 50
239.7286610311395
 51
346.2342280326963
  0
CIRCLE
  5
C2
330
2
100
AcDbEntity
  8
KIJUN
 62
     7
100
AcDbCircle
 10
263.4457784335644
 20
66.86402451814419
 30
0.0
 40
1.0
  0
ARC
  5
C3
330
2
100
AcDbEntity
  8
KIJUN
 62
     7
100
AcDbCircle
 10
255.9350125281452
 20
54.67070924007987
 30
0.0
 40
3.925592909772129
100
AcDbArc
 50
7.148863493757349
 51
161.2993978356749
  0
ARC
  5
C4
330
2
100
AcDbEntity
  8
KIJUN
 62
     7
100
AcDbCircle
 10
255.9350125281452
 20
54.67070924007987
 30
0.0
 40
3.925592909772129
100
AcDbArc
 50
7.148863493757349
 51
161.2993978356749
  0
CIRCLE
  5
C5
330
2
100
AcDbEntity
  8
KIJUN
 62
     7
100
AcDbCircle
 10
245.5890568507202
 20
50.5380349222079
 30
0.0
 40
1.0
  0
CIRCLE
  5
C6
330
2
100
AcDbEntity
  8
KIJUN
 62
     7
100
AcDbCircle
 10
241.8109316567642
 20
63.64120069399899
 30
0.0
 40
1.0
  0
CIRCLE
  5
C7
330
2
100
AcDbEntity
  8
KIJUN
 62
     7
100
AcDbCircle
 10
246.7281871181111
 20
59.4822810451134
 30
0.0
 40
1.0
  0
ARC
  5
C8
330
2
100
AcDbEntity
  8
KIJUN
 62
     7
100
AcDbCircle
 10
245.4290640449681
 20
56.32298119171188
 30
0.0
 40
8.163774780224381
100
AcDbArc
 50
51.60044854327824
 51
109.2851307936976
  0
CIRCLE
  5
C9
330
2
100
AcDbEntity
  8
KIJUN
 62
     7
100
AcDbCircle
 10
252.0192972929979
 20
54.9490146307735
 30
0.0
 40
1.0
  0
ARC
  5
CA
330
2
100
AcDbEntity
  8
KIJUN
 62
     7
100
AcDbCircle
 10
250.3463195063149
 20
52.16406154282609
 30
0.0
 40
8.163774780224381
100
AcDbArc
 50
51.60044854327824
 51
109.2851307936976
  0
CIRCLE
  5
CB
330
2
100
AcDbEntity
  8
KIJUN
 62
     7
100
AcDbCircle
 10
245.5890568507202
 20
50.5380349222079
 30
0.0
 40
1.0
  0
CIRCLE
  5
CC
330
2
100
AcDbEntity
  8
KIJUN
 62
     7
100
AcDbCircle
 10
241.8109316567642
 20
63.64120069399899
 30
0.0
 40
1.0
  0
ARC
  5
CD
330
2
100
AcDbEntity
  8
KIJUN
 62
     7
100
AcDbCircle
 10
245.4290640449681
 20
56.32298119171188
 30
0.0
 40
8.163774780224381
100
AcDbArc
 50
51.60044854327824
 51
109.2851307936976
  0
CIRCLE
  5
CE
330
2
100
AcDbEntity
  8
KIJUN
 62
     7
100
AcDbCircle
 10
246.7281871181111
 20
59.4822810451134
 30
0.0
 40
1.0
  0
CIRCLE
  5
CF
330
2
100
AcDbEntity
  8
KIJUN
 62
     7
100
AcDbCircle
 10
252.0192972929979
 20
54.9490146307735
 30
0.0
 40
1.0
  0
ARC
  5
D0
330
2
100
AcDbEntity
  8
KIJUN
 62
     7
100
AcDbCircle
 10
250.3463195063149
 20
52.16406154282609
 30
0.0
 40
8.163774780224381
100
AcDbArc
 50
51.60044854327824
 51
109.2851307936976
  0
CIRCLE
  5
D1
330
2
100
AcDbEntity
  8
KIJUN
 62
     7
100
AcDbCircle
 10
263.4457784335644
 20
66.86402451814419
 30
0.0
 40
1.0
  0
ARC
  5
D2
330
2
100
AcDbEntity
  8
KIJUN
 62
     7
100
AcDbCircle
 10
184.9502293440197
 20
57.56934897223288
 30
0.0
 40
3.925592909772129
100
AcDbArc
 50
7.148863493757349
 51
161.2993978356749
  0
ARC
  5
D3
330
2
100
AcDbEntity
  8
KIJUN
 62
     7
100
AcDbCircle
 10
179.3615363221895
 20
55.0627012749792
 30
0.0
 40
8.163774780224381
100
AcDbArc
 50
51.60044854327824
 51
109.2851307936976
  0
ARC
  5
D4
330
2
100
AcDbEntity
  8
KIJUN
 62
     7
100
AcDbCircle
 10
179.6860449354118
 20
62.54940218272268
 30
0.0
 40
5.0
100
AcDbArc
 50
87.38145945261626
 51
118.041678273357
  0
CIRCLE
  5
D5
330
2
100
AcDbEntity
  8
KIJUN
 62
     7
100
AcDbCircle
 10
181.0345141088727
 20
57.8476543629269
 30
0.0
 40
1.0
  0
ARC
  5
D6
330
2
100
AcDbEntity
  8
KIJUN
 62
     7
100
AcDbCircle
 10
220.4783697995257
 20
67.9489538609306
 30
0.0
 40
13.27331944036589
100
AcDbArc
 50
276.5836515515449
 51
342.0280351739761
  0
ARC
  5
D7
330
2
100
AcDbEntity
  8
KIJUN
 62
     7
100
AcDbCircle
 10
227.0383855996493
 20
63.04338714464996
 30
0.0
 40
4.932533079619731
100
AcDbArc
 50
203.4457246736029
 51
300.9311242681329
  0
ARC
  5
D8
330
2
100
AcDbEntity
  8
KIJUN
 62
     7
100
AcDbCircle
 10
229.3104208347549
 20
70.95726149998029
 30
0.0
 40
8.053308516804541
100
AcDbArc
 50
222.7389554308708
 51
298.1034470033181
  0
CIRCLE
  5
D9
330
2
100
AcDbEntity
  8
KIJUN
 62
     7
100
AcDbCircle
 10
225.026033642498
 20
66.35819212936668
 30
0.0
 40
1.0
  0
ARC
  5
DA
330
2
100
AcDbEntity
  8
KIJUN
 62
     7
100
AcDbCircle
 10
225.2827340892312
 20
65.86326803384479
 30
0.0
 40
1.92330440971685
100
AcDbArc
 50
105.245780449468
 51
191.1358235530905
  0
ARC
  5
DB
330
2
100
AcDbEntity
  8
KIJUN
 62
     7
100
AcDbCircle
 10
221.1378031840798
 20
60.79589258990899
 30
0.0
 40
1.404499126886494
100
AcDbArc
 50
11.70511808954336
 51
181.1141455099748
  0
ARC
  5
DC
330
2
100
AcDbEntity
  8
KIJUN
 62
     7
100
AcDbCircle
 10
225.2827340892312
 20
65.86326803384479
 30
0.0
 40
1.92330440971685
100
AcDbArc
 50
105.245780449468
 51
191.1358235530905
  0
CIRCLE
  5
DD
330
2
100
AcDbEntity
  8
KIJUN
 62
     7
100
AcDbCircle
 10
200.944157027159
 20
64.34171165192369
 30
0.0
 40
1.0
  0
ARC
  5
DE
330
2
100
AcDbEntity
  8
KIJUN
 62
     7
100
AcDbCircle
 10
208.1375357946539
 20
62.1651049472436
 30
0.0
 40
2.625584155073434
100
AcDbArc
 50
190.6003428892091
 51
278.190727033209
  0
ARC
  5
DF
330
2
100
AcDbEntity
  8
KIJUN
 62
     7
100
AcDbCircle
 10
209.425309783514
 20
66.42113811349159
 30
0.0
 40
3.573120818881367
100
AcDbArc
 50
40.48855852231308
 51
139.0503633557693
  0
ARC
  5
E0
330
2
100
AcDbEntity
  8
KIJUN
 62
     7
100
AcDbCircle
 10
203.8707459310308
 20
66.34196081592668
 30
0.0
 40
3.743923436790284
100
AcDbArc
 50
232.5148004791225
 51
40.28902007877486
  0
ARC
  5
E1
330
2
100
AcDbEntity
  8
KIJUN
 62
     7
100
AcDbCircle
 10
220.4783697995257
 20
67.9489538609306
 30
0.0
 40
13.27331944036589
100
AcDbArc
 50
276.5836515515449
 51
342.0280351739761
  0
ARC
  5
E2
330
2
100
AcDbEntity
  8
KIJUN
 62
     7
100
AcDbCircle
 10
217.4667904531648
 20
55.8738072750161
 30
0.0
 40
4.667480451943356
100
AcDbArc
 50
239.7286610311395
 51
346.2342280326963
  0
ARC
  5
E3
330
2
100
AcDbEntity
  8
KIJUN
 62
     7
100
AcDbCircle
 10
227.0383855996493
 20
63.04338714464996
 30
0.0
 40
4.932533079619731
100
AcDbArc
 50
203.4457246736029
 51
300.9311242681329
  0
ARC
  5
E4
330
2
100
AcDbEntity
  8
KIJUN
 62
     7
100
AcDbCircle
 10
229.3104208347549
 20
70.95726149998029
 30
0.0
 40
8.053308516804541
100
AcDbArc
 50
222.7389554308708
 51
298.1034470033181
  0
CIRCLE
  5
E5
330
2
100
AcDbEntity
  8
KIJUN
 62
     7
100
AcDbCircle
 10
214.6872150683776
 20
52.74713234164718
 30
0.0
 40
1.0
  0
CIRCLE
  5
E6
330
2
100
AcDbEntity
  8
KIJUN
 62
     7
100
AcDbCircle
 10
221.369624843035
 20
60.43487244438859
 30
0.0
 40
1.0
  0
CIRCLE
  5
E7
330
2
100
AcDbEntity
  8
KIJUN
 62
     7
100
AcDbCircle
 10
225.026033642498
 20
66.35819212936668
 30
0.0
 40
1.0
  0
ARC
  5
E8
330
2
100
AcDbEntity
  8
KIJUN
 62
     7
100
AcDbCircle
 10
209.6164698184697
 20
63.45817585618039
 30
0.0
 40
1.385398599742057
100
AcDbArc
 50
261.8219223914509
 51
1.161736275232353
  0
ARC
  5
E9
330
2
100
AcDbEntity
  8
KIJUN
 62
     7
100
AcDbCircle
 10
208.708672719722
 20
60.93761369286998
 30
0.0
 40
1.385398599742057
100
AcDbArc
 50
261.8219223914509
 51
55.40794128819935
  0
ARC
  5
EA
330
2
100
AcDbEntity
  8
KIJUN
 62
     7
100
AcDbCircle
 10
210.927738033974
 20
64.86969355521019
 30
0.0
 40
1.385398599742057
100
AcDbArc
 50
273.0554729325191
 51
77.18611431242969
  0
ARC
  5
EB
330
2
100
AcDbEntity
  8
KIJUN
 62
     7
100
AcDbCircle
 10
211.8355351327217
 20
67.39025571852069
 30
0.0
 40
1.385398599742057
100
AcDbArc
 50
261.8219223914509
 51
77.18611431242969
  0
ARC
  5
EC
330
2
100
AcDbEntity
  8
KIJUN
 62
     7
100
AcDbCircle
 10
352.4743769801971
 20
42.43395681909867
 30
0.0
 40
26.82608525038729
100
AcDbArc
 50
9.729345103582275
 51
69.39642877007353
  0
ARC
  5
ED
330
2
100
AcDbEntity
  8
KIJUN
 62
     7
100
AcDbCircle
 10
390.6490307194498
 20
54.2348009784546
 30
0.0
 40
11.46167143011274
100
AcDbArc
 50
274.39081436711
 51
346.8651139707426
  0
ARC
  5
EE
330
2
100
AcDbEntity
  8
KIJUN
 62
     7
100
AcDbCircle
 10
427.3421410596745
 20
52.60097153388159
 30
0.0
 40
15.949162050947
100
AcDbArc
 50
149.0845658896863
 51
205.6165521424791
  0
ARC
  5
EF
330
2
100
AcDbEntity
  8
KIJUN
 62
     7
100
AcDbCircle
 10
394.622652597159
 20
56.48676656337868
 30
0.0
 40
8.770315857434011
100
AcDbArc
 50
143.6740512121199
 51
272.013392456594
  0
ARC
  5
F0
330
2
100
AcDbEntity
  8
KIJUN
 62
     7
100
AcDbCircle
 10
423.1079713794515
 20
48.6128093613449
 30
0.0
 40
5.917621452263361
100
AcDbArc
 50
237.6546283278201
 51
25.1348800740229
  0
CIRCLE
  5
F1
330
2
100
AcDbEntity
  8
KIJUN
 62
     7
100
AcDbCircle
 10
421.0327472489185
 20
48.26951476675559
 30
0.0
 40
1.0
  0
ARC
  5
F2
330
2
100
AcDbEntity
  8
KIJUN
 62
     7
100
AcDbCircle
 10
364.1130880217556
 20
51.69323803801089
 30
0.0
 40
9.264524716408926
100
AcDbArc
 50
271.0878709243384
 51
43.39236372580515
  0
CIRCLE
  5
F3
330
2
100
AcDbEntity
  8
KIJUN
 62
     7
100
AcDbCircle
 10
330.0327472489187
 20
48.26951476675559
 30
0.0
 40
1.0
  0
ARC
  5
F4
330
2
100
AcDbEntity
  8
KIJUN
 62
     7
100
AcDbCircle
 10
332.1079713794516
 20
48.6128093613449
 30
0.0
 40
5.917621452263361
100
AcDbArc
 50
237.6546283278201
 51
25.1348800740229
  0
ARC
  5
F5
330
2
100
AcDbEntity
  8
KIJUN
 62
     7
100
AcDbCircle
 10
360.9012169455899
 20
49.31045784646689
 30
0.0
 40
3.39132030746521
100
AcDbArc
 50
92.72155015210952
 51
200.8815872597771
  0
ARC
  5
F6
330
2
100
AcDbEntity
  8
KIJUN
 62
     7
100
AcDbCircle
 10
358.7657700135182
 20
50.70777166105969
 30
0.0
 40
2.803418495465912
100
AcDbArc
 50
45.2277833167747
 51
248.3753540951096
  0
CIRCLE
  5
F7
330
2
100
AcDbEntity
  8
KIJUN
 62
     7
100
AcDbCircle
 10
421.0327472489185
 20
48.26951476675559
 30
0.0
 40
1.0
  0
ARC
  5
F8
330
2
100
AcDbEntity
  8
KIJUN
 62
     7
100
AcDbCircle
 10
427.3421410596745
 20
52.60097153388159
 30
0.0
 40
15.949162050947
100
AcDbArc
 50
149.0845658896863
 51
205.6165521424791
  0
ARC
  5
F9
330
2
100
AcDbEntity
  8
KIJUN
 62
     7
100
AcDbCircle
 10
423.1079713794515
 20
48.6128093613449
 30
0.0
 40
5.917621452263361
100
AcDbArc
 50
237.6546283278201
 51
25.1348800740229
  0
ARC
  5
FA
330
2
100
AcDbEntity
  8
KIJUN
 62
     7
100
AcDbCircle
 10
299.6490307194499
 20
54.2348009784546
 30
0.0
 40
11.46167143011274
100
AcDbArc
 50
274.39081436711
 51
346.8651139707426
  0
ARC
  5
FB
330
2
100
AcDbEntity
  8
KIJUN
 62
     7
100
AcDbCircle
 10
261.4743769801971
 20
42.43395681909867
 30
0.0
 40
26.82608525038729
100
AcDbArc
 50
9.729345103582275
 51
69.39642877007353
  0
ARC
  5
FC
330
2
100
AcDbEntity
  8
KIJUN
 62
     7
100
AcDbCircle
 10
273.1130880217554
 20
51.69323803801089
 30
0.0
 40
9.264524716408926
100
AcDbArc
 50
271.0878709243384
 51
43.39236372580515
  0
ARC
  5
FD
330
2
100
AcDbEntity
  8
KIJUN
 62
     7
100
AcDbCircle
 10
336.3421410596747
 20
52.60097153388159
 30
0.0
 40
15.949162050947
100
AcDbArc
 50
149.0845658896863
 51
205.6165521424791
  0
ARC
  5
FE
330
2
100
AcDbEntity
  8
KIJUN
 62
     7
100
AcDbCircle
 10
303.6226525971592
 20
56.48676656337868
 30
0.0
 40
8.770315857434011
100
AcDbArc
 50
143.6740512121199
 51
272.013392456594
  0
ARC
  5
FF
330
2
100
AcDbEntity
  8
KIJUN
 62
     7
100
AcDbCircle
 10
359.9601899414374
 20
22.99987402254072
 30
0.0
 40
19.90686140874996
100
AcDbArc
 50
88.9834409060543
 51
118.2237226213093
  0
ARC
  5
100
330
2
100
AcDbEntity
  8
KIJUN
 62
     7
100
AcDbCircle
 10
362.8657942131927
 20
47.41049414554757
 30
0.0
 40
5.179475771283343
100
AcDbArc
 50
172.3313563141208
 51
285.9485791861701
  0
ARC
  5
101
330
2
100
AcDbEntity
  8
KIJUN
 62
     7
100
AcDbCircle
 10
353.6397443067602
 20
40.6508220628113
 30
0.0
 40
3.095805542659225
100
AcDbArc
 50
37.35066467984685
 51
182.0521621721226
  0
ARC
  5
102
330
2
100
AcDbEntity
  8
KIJUN
 62
     7
100
AcDbCircle
 10
336.7962069197829
 20
56.6576188179648
 30
0.0
 40
15.22636413932551
100
AcDbArc
 50
238.9467209827576
 51
329.7364536045764
  0
ARC
  5
103
330
2
100
AcDbEntity
  8
KIJUN
 62
     7
100
AcDbCircle
 10
284.0804735957677
 20
42.6291950682632
 30
0.0
 40
4.661905497286094
100
AcDbArc
 50
14.78869283746075
 51
111.6757757997115
  0
ARC
  5
104
330
2
100
AcDbEntity
  8
KIJUN
 62
     7
100
AcDbCircle
 10
285.1401334134449
 20
43.671515840707
 30
0.0
 40
4.308214684517666
100
AcDbArc
 50
49.90925664469991
 51
130.2136258838275
  0
ARC
  5
105
330
2
100
AcDbEntity
  8
KIJUN
 62
     7
100
AcDbCircle
 10
312.5164698922548
 20
45.02675330521259
 30
0.0
 40
1.752445408573749
100
AcDbArc
 50
295.0080978542925
 51
103.3343506066375
  0
ARC
  5
106
330
2
100
AcDbEntity
  8
KIJUN
 62
     7
100
AcDbCircle
 10
298.567048514061
 20
47.20502379307859
 30
0.0
 40
4.814997380489558
100
AcDbArc
 50
158.319416619836
 51
294.0135798861163
  0
ARC
  5
107
330
2
100
AcDbEntity
  8
KIJUN
 62
     7
100
AcDbCircle
 10
311.5647654234454
 20
49.64663356228829
 30
0.0
 40
12.98562496590368
100
AcDbArc
 50
185.155557015119
 51
211.784500008484
  0
ARC
  5
108
330
2
100
AcDbEntity
  8
KIJUN
 62
     7
100
AcDbCircle
 10
295.7902853134941
 20
49.6452580282381
 30
0.0
 40
8.318468306262642
100
AcDbArc
 50
198.7788378747852
 51
304.7059308776249
  0
CIRCLE
  5
109
330
2
100
AcDbEntity
  8
KIJUN
 62
     7
100
AcDbCircle
 10
312.4957250158914
 20
44.55531288288368
 30
0.0
 40
1.0
  0
ARC
  5
10A
330
2
100
AcDbEntity
  8
KIJUN
 62
     7
100
AcDbCircle
 10
310.9215823082049
 20
47.91296747103809
 30
0.0
 40
5.047331931325386
100
AcDbArc
 50
185.0205343929949
 51
297.5656585280928
  0
ARC
  5
10B
330
2
100
AcDbEntity
  8
KIJUN
 62
     7
100
AcDbCircle
 10
326.2985038991597
 20
47.48660722686007
 30
0.0
 40
4.689302183894001
100
AcDbArc
 50
202.3239270992243
 51
17.00251091849769
  0
ARC
  5
10C
330
2
100
AcDbEntity
  8
KIJUN
 62
     7
100
AcDbCircle
 10
427.7962069197825
 20
56.6576188179648
 30
0.0
 40
15.22636413932551
100
AcDbArc
 50
238.9467209827576
 51
329.7364536045764
  0
ARC
  5
10D
330
2
100
AcDbEntity
  8
KIJUN
 62
     7
100
AcDbCircle
 10
427.7962069197825
 20
56.6576188179648
 30
0.0
 40
15.22636413932551
100
AcDbArc
 50
238.9467209827576
 51
329.7364536045764
  0
ARC
  5
10E
330
2
100
AcDbEntity
  8
KIJUN
 62
     7
100
AcDbCircle
 10
444.6397443067603
 20
40.6508220628113
 30
0.0
 40
3.095805542659225
100
AcDbArc
 50
74.90838022506633
 51
182.0521621721226
  0
ARC
  5
10F
330
2
100
AcDbEntity
  8
KIJUN
 62
     7
100
AcDbCircle
 10
450.9601899414372
 20
22.99987402254072
 30
0.0
 40
19.90686140874996
100
AcDbArc
 50
106.0818683546383
 51
118.2237226213093
  0
ARC
  5
110
330
2
100
AcDbEntity
  8
KIJUN
 62
     7
100
AcDbCircle
 10
386.790285313494
 20
49.6452580282381
 30
0.0
 40
8.318468306262642
100
AcDbArc
 50
198.7788378747852
 51
304.7059308776249
  0
ARC
  5
111
330
2
100
AcDbEntity
  8
KIJUN
 62
     7
100
AcDbCircle
 10
389.5670485140611
 20
47.20502379307859
 30
0.0
 40
4.814997380489558
100
AcDbArc
 50
158.319416619836
 51
294.0135798861163
  0
ARC
  5
112
330
2
100
AcDbEntity
  8
KIJUN
 62
     7
100
AcDbCircle
 10
402.5647654234451
 20
49.64663356228829
 30
0.0
 40
12.98562496590368
100
AcDbArc
 50
185.155557015119
 51
211.784500008484
  0
CIRCLE
  5
113
330
2
100
AcDbEntity
  8
KIJUN
 62
     7
100
AcDbCircle
 10
403.4957250158913
 20
44.55531288288368
 30
0.0
 40
1.0
  0
ARC
  5
114
330
2
100
AcDbEntity
  8
KIJUN
 62
     7
100
AcDbCircle
 10
401.9215823082048
 20
47.91296747103809
 30
0.0
 40
5.047331931325386
100
AcDbArc
 50
185.0205343929949
 51
297.5656585280928
  0
ARC
  5
115
330
2
100
AcDbEntity
  8
KIJUN
 62
     7
100
AcDbCircle
 10
376.1401334134447
 20
43.671515840707
 30
0.0
 40
4.308214684517666
100
AcDbArc
 50
49.90925664469991
 51
130.2136258838275
  0
ARC
  5
116
330
2
100
AcDbEntity
  8
KIJUN
 62
     7
100
AcDbCircle
 10
403.5164698922547
 20
45.02675330521259
 30
0.0
 40
1.752445408573749
100
AcDbArc
 50
295.0080978542925
 51
103.3343506066375
  0
ARC
  5
117
330
2
100
AcDbEntity
  8
KIJUN
 62
     7
100
AcDbCircle
 10
375.0804735957677
 20
42.6291950682632
 30
0.0
 40
4.661905497286094
100
AcDbArc
 50
14.78869283746075
 51
111.6757757997115
  0
ARC
  5
118
330
2
100
AcDbEntity
  8
KIJUN
 62
     7
100
AcDbCircle
 10
417.2985038991597
 20
47.48660722686007
 30
0.0
 40
4.689302183894001
100
AcDbArc
 50
202.3239270992243
 51
17.00251091849769
  0
ARC
  5
119
330
2
100
AcDbEntity
  8
KIJUN
 62
     7
100
AcDbCircle
 10
417.2985038991597
 20
47.48660722686007
 30
0.0
 40
4.689302183894001
100
AcDbArc
 50
202.3239270992243
 51
17.00251091849769
  0
CIRCLE
  5
11A
330
2
100
AcDbEntity
  8
KIJUN
 62
     7
100
AcDbCircle
 10
357.7434039339859
 20
62.38092077726649
 30
0.0
 40
1.0
  0
ARC
  5
11B
330
2
100
AcDbEntity
  8
KIJUN
 62
     7
100
AcDbCircle
 10
356.4845318190162
 20
68.22101400544369
 30
0.0
 40
3.116394520905575
100
AcDbArc
 50
229.1407858244053
 51
336.1803827102953
  0
ARC
  5
11C
330
2
100
AcDbEntity
  8
KIJUN
 62
     7
100
AcDbCircle
 10
357.8414269300437
 20
68.22176103251759
 30
0.0
 40
1.953994544675378
100
AcDbArc
 50
319.8725659444966
 51
112.2283223286274
  0
CIRCLE
  5
11D
330
2
100
AcDbEntity
  8
KIJUN
 62
     7
100
AcDbCircle
 10
354.4457784335646
 20
66.86402451814419
 30
0.0
 40
1.0
  0
ARC
  5
11E
330
2
100
AcDbEntity
  8
KIJUN
 62
     7
100
AcDbCircle
 10
346.9350125281453
 20
54.67070924007987
 30
0.0
 40
3.925592909772129
100
AcDbArc
 50
7.148863493757349
 51
161.2993978356749
  0
ARC
  5
11F
330
2
100
AcDbEntity
  8
KIJUN
 62
     7
100
AcDbCircle
 10
341.3463195063151
 20
52.16406154282609
 30
0.0
 40
8.163774780224381
100
AcDbArc
 50
51.60044854327824
 51
109.2851307936976
  0
ARC
  5
120
330
2
100
AcDbEntity
  8
KIJUN
 62
     7
100
AcDbCircle
 10
336.4290640449681
 20
56.32298119171188
 30
0.0
 40
8.163774780224381
100
AcDbArc
 50
51.60044854327824
 51
109.2851307936976
  0
CIRCLE
  5
121
330
2
100
AcDbEntity
  8
KIJUN
 62
     7
100
AcDbCircle
 10
336.5890568507202
 20
50.5380349222079
 30
0.0
 40
1.0
  0
CIRCLE
  5
122
330
2
100
AcDbEntity
  8
KIJUN
 62
     7
100
AcDbCircle
 10
332.8109316567642
 20
63.64120069399899
 30
0.0
 40
1.0
  0
CIRCLE
  5
123
330
2
100
AcDbEntity
  8
KIJUN
 62
     7
100
AcDbCircle
 10
343.019297292998
 20
54.9490146307735
 30
0.0
 40
1.0
  0
CIRCLE
  5
124
330
2
100
AcDbEntity
  8
KIJUN
 62
     7
100
AcDbCircle
 10
337.7281871181112
 20
59.4822810451134
 30
0.0
 40
1.0
  0
ARC
  5
125
330
2
100
AcDbEntity
  8
KIJUN
 62
     7
100
AcDbCircle
 10
308.4667904531647
 20
55.8738072750161
 30
0.0
 40
4.667480451943356
100
AcDbArc
 50
239.7286610311395
 51
346.2342280326963
  0
ARC
  5
126
330
2
100
AcDbEntity
  8
KIJUN
 62
     7
100
AcDbCircle
 10
275.9502293440199
 20
57.56934897223288
 30
0.0
 40
3.925592909772129
100
AcDbArc
 50
7.148863493757349
 51
161.2993978356749
  0
ARC
  5
127
330
2
100
AcDbEntity
  8
KIJUN
 62
     7
100
AcDbCircle
 10
270.3615363221896
 20
55.0627012749792
 30
0.0
 40
8.163774780224381
100
AcDbArc
 50
51.60044854327824
 51
109.2851307936976
  0
ARC
  5
128
330
2
100
AcDbEntity
  8
KIJUN
 62
     7
100
AcDbCircle
 10
312.1378031840799
 20
60.79589258990899
 30
0.0
 40
1.404499126886494
100
AcDbArc
 50
11.70511808954336
 51
181.1141455099748
  0
ARC
  5
129
330
2
100
AcDbEntity
  8
KIJUN
 62
     7
100
AcDbCircle
 10
316.2827340892313
 20
65.86326803384479
 30
0.0
 40
1.92330440971685
100
AcDbArc
 50
105.245780449468
 51
191.1358235530905
  0
ARC
  5
12A
330
2
100
AcDbEntity
  8
KIJUN
 62
     7
100
AcDbCircle
 10
311.4783697995258
 20
67.9489538609306
 30
0.0
 40
13.27331944036589
100
AcDbArc
 50
276.5836515515449
 51
342.0280351739761
  0
ARC
  5
12B
330
2
100
AcDbEntity
  8
KIJUN
 62
     7
100
AcDbCircle
 10
318.0383855996492
 20
63.04338714464996
 30
0.0
 40
4.932533079619731
100
AcDbArc
 50
203.4457246736029
 51
300.9311242681329
  0
ARC
  5
12C
330
2
100
AcDbEntity
  8
KIJUN
 62
     7
100
AcDbCircle
 10
320.3104208347549
 20
70.95726149998029
 30
0.0
 40
8.053308516804541
100
AcDbArc
 50
222.7389554308708
 51
298.1034470033181
  0
CIRCLE
  5
12D
330
2
100
AcDbEntity
  8
KIJUN
 62
     7
100
AcDbCircle
 10
312.3696248430349
 20
60.43487244438859
 30
0.0
 40
1.0
  0
CIRCLE
  5
12E
330
2
100
AcDbEntity
  8
KIJUN
 62
     7
100
AcDbCircle
 10
316.0260336424979
 20
66.35819212936668
 30
0.0
 40
1.0
  0
CIRCLE
  5
12F
330
2
100
AcDbEntity
  8
KIJUN
 62
     7
100
AcDbCircle
 10
291.9441570271591
 20
64.34171165192369
 30
0.0
 40
1.0
  0
ARC
  5
130
330
2
100
AcDbEntity
  8
KIJUN
 62
     7
100
AcDbCircle
 10
299.1375357946539
 20
62.1651049472436
 30
0.0
 40
2.625584155073434
100
AcDbArc
 50
190.6003428892091
 51
278.190727033209
  0
ARC
  5
131
330
2
100
AcDbEntity
  8
KIJUN
 62
     7
100
AcDbCircle
 10
300.4253097835137
 20
66.42113811349159
 30
0.0
 40
3.573120818881367
100
AcDbArc
 50
40.48855852231308
 51
139.0503633557693
  0
ARC
  5
132
330
2
100
AcDbEntity
  8
KIJUN
 62
     7
100
AcDbCircle
 10
294.8707459310307
 20
66.34196081592668
 30
0.0
 40
3.743923436790284
100
AcDbArc
 50
232.5148004791225
 51
40.28902007877486
  0
ARC
  5
133
330
2
100
AcDbEntity
  8
KIJUN
 62
     7
100
AcDbCircle
 10
299.708672719722
 20
60.93761369286998
 30
0.0
 40
1.385398599742057
100
AcDbArc
 50
261.8219223914509
 51
55.40794128819935
  0
ARC
  5
134
330
2
100
AcDbEntity
  8
KIJUN
 62
     7
100
AcDbCircle
 10
301.9277380339739
 20
64.86969355521019
 30
0.0
 40
1.385398599742057
100
AcDbArc
 50
273.0554729325191
 51
77.18611431242969
  0
ARC
  5
135
330
2
100
AcDbEntity
  8
KIJUN
 62
     7
100
AcDbCircle
 10
300.6164698184697
 20
63.45817585618039
 30
0.0
 40
1.385398599742057
100
AcDbArc
 50
261.8219223914509
 51
1.161736275232353
  0
CIRCLE
  5
136
330
2
100
AcDbEntity
  8
KIJUN
 62
     7
100
AcDbCircle
 10
305.6872150683774
 20
52.74713234164718
 30
0.0
 40
1.0
  0
ARC
  5
137
330
2
100
AcDbEntity
  8
KIJUN
 62
     7
100
AcDbCircle
 10
302.8355351327217
 20
67.39025571852069
 30
0.0
 40
1.385398599742057
100
AcDbArc
 50
261.8219223914509
 51
77.18611431242969
  0
ARC
  5
138
330
2
100
AcDbEntity
  8
KIJUN
 62
     7
100
AcDbCircle
 10
270.6860449354122
 20
62.54940218272268
 30
0.0
 40
5.0
100
AcDbArc
 50
87.38145945261626
 51
118.041678273357
  0
CIRCLE
  5
139
330
2
100
AcDbEntity
  8
KIJUN
 62
     7
100
AcDbCircle
 10
272.0345141088727
 20
57.8476543629269
 30
0.0
 40
1.0
  0
ARC
  5
13A
330
2
100
AcDbEntity
  8
KIJUN
 62
     7
100
AcDbCircle
 10
334.4397447411669
 20
46.10240267446549
 30
0.0
 40
20.54084268423458
100
AcDbArc
 50
11.15722279201754
 51
120.2104538967165
  0
ARC
  5
13B
330
2
100
AcDbEntity
  8
KIJUN
 62
     7
100
AcDbCircle
 10
437.9350125281452
 20
54.67070924007987
 30
0.0
 40
3.925592909772129
100
AcDbArc
 50
7.148863493757349
 51
161.2993978356749
  0
ARC
  5
13C
330
2
100
AcDbEntity
  8
KIJUN
 62
     7
100
AcDbCircle
 10
432.3463195063149
 20
52.16406154282609
 30
0.0
 40
8.163774780224381
100
AcDbArc
 50
51.60044854327824
 51
109.2851307936976
  0
CIRCLE
  5
13D
330
2
100
AcDbEntity
  8
KIJUN
 62
     7
100
AcDbCircle
 10
434.0192972929981
 20
54.9490146307735
 30
0.0
 40
1.0
  0
CIRCLE
  5
13E
330
2
100
AcDbEntity
  8
KIJUN
 62
     7
100
AcDbCircle
 10
428.728187118111
 20
59.4822810451134
 30
0.0
 40
1.0
  0
ARC
  5
13F
330
2
100
AcDbEntity
  8
KIJUN
 62
     7
100
AcDbCircle
 10
427.429064044968
 20
56.32298119171188
 30
0.0
 40
8.163774780224381
100
AcDbArc
 50
51.60044854327824
 51
109.2851307936976
  0
CIRCLE
  5
140
330
2
100
AcDbEntity
  8
KIJUN
 62
     7
100
AcDbCircle
 10
423.8109316567641
 20
63.64120069399899
 30
0.0
 40
1.0
  0
CIRCLE
  5
141
330
2
100
AcDbEntity
  8
KIJUN
 62
     7
100
AcDbCircle
 10
427.58905685072
 20
50.5380349222079
 30
0.0
 40
1.0
  0
ARC
  5
142
330
2
100
AcDbEntity
  8
KIJUN
 62
     7
100
AcDbCircle
 10
432.3463195063149
 20
52.16406154282609
 30
0.0
 40
8.163774780224381
100
AcDbArc
 50
51.60044854327824
 51
109.2851307936976
  0
CIRCLE
  5
143
330
2
100
AcDbEntity
  8
KIJUN
 62
     7
100
AcDbCircle
 10
434.0192972929981
 20
54.9490146307735
 30
0.0
 40
1.0
  0
ARC
  5
144
330
2
100
AcDbEntity
  8
KIJUN
 62
     7
100
AcDbCircle
 10
427.429064044968
 20
56.32298119171188
 30
0.0
 40
8.163774780224381
100
AcDbArc
 50
51.60044854327824
 51
109.2851307936976
  0
CIRCLE
  5
145
330
2
100
AcDbEntity
  8
KIJUN
 62
     7
100
AcDbCircle
 10
428.728187118111
 20
59.4822810451134
 30
0.0
 40
1.0
  0
CIRCLE
  5
146
330
2
100
AcDbEntity
  8
KIJUN
 62
     7
100
AcDbCircle
 10
423.8109316567641
 20
63.64120069399899
 30
0.0
 40
1.0
  0
CIRCLE
  5
147
330
2
100
AcDbEntity
  8
KIJUN
 62
     7
100
AcDbCircle
 10
427.58905685072
 20
50.5380349222079
 30
0.0
 40
1.0
  0
ARC
  5
148
330
2
100
AcDbEntity
  8
KIJUN
 62
     7
100
AcDbCircle
 10
437.9350125281452
 20
54.67070924007987
 30
0.0
 40
3.925592909772129
100
AcDbArc
 50
7.148863493757349
 51
161.2993978356749
  0
ARC
  5
149
330
2
100
AcDbEntity
  8
KIJUN
 62
     7
100
AcDbCircle
 10
445.4457784335644
 20
66.86402451814419
 30
0.0
 40
1.0
100
AcDbArc
 50
90.0
 51
270.000000000026
  0
CIRCLE
  5
14A
330
2
100
AcDbEntity
  8
KIJUN
 62
     7
100
AcDbCircle
 10
363.0345141088728
 20
57.8476543629269
 30
0.0
 40
1.0
  0
ARC
  5
14B
330
2
100
AcDbEntity
  8
KIJUN
 62
     7
100
AcDbCircle
 10
361.6860449354122
 20
62.54940218272268
 30
0.0
 40
5.0
100
AcDbArc
 50
87.38145945261626
 51
118.041678273357
  0
ARC
  5
14C
330
2
100
AcDbEntity
  8
KIJUN
 62
     7
100
AcDbCircle
 10
361.3615363221898
 20
55.0627012749792
 30
0.0
 40
8.163774780224381
100
AcDbArc
 50
51.60044854327824
 51
109.2851307936976
  0
ARC
  5
14D
330
2
100
AcDbEntity
  8
KIJUN
 62
     7
100
AcDbCircle
 10
366.9502293440199
 20
57.56934897223288
 30
0.0
 40
3.925592909772129
100
AcDbArc
 50
7.148863493757349
 51
161.2993978356749
  0
ARC
  5
14E
330
2
100
AcDbEntity
  8
KIJUN
 62
     7
100
AcDbCircle
 10
393.8355351327217
 20
67.39025571852069
 30
0.0
 40
1.385398599742057
100
AcDbArc
 50
261.8219223914509
 51
77.18611431242969
  0
ARC
  5
14F
330
2
100
AcDbEntity
  8
KIJUN
 62
     7
100
AcDbCircle
 10
392.9277380339739
 20
64.86969355521019
 30
0.0
 40
1.385398599742057
100
AcDbArc
 50
273.0554729325191
 51
77.18611431242969
  0
ARC
  5
150
330
2
100
AcDbEntity
  8
KIJUN
 62
     7
100
AcDbCircle
 10
390.7086727197221
 20
60.93761369286998
 30
0.0
 40
1.385398599742057
100
AcDbArc
 50
261.8219223914509
 51
55.40794128819935
  0
ARC
  5
151
330
2
100
AcDbEntity
  8
KIJUN
 62
     7
100
AcDbCircle
 10
391.6164698184696
 20
63.45817585618039
 30
0.0
 40
1.385398599742057
100
AcDbArc
 50
261.8219223914509
 51
1.161736275232353
  0
CIRCLE
  5
152
330
2
100
AcDbEntity
  8
KIJUN
 62
     7
100
AcDbCircle
 10
407.0260336424978
 20
66.35819212936668
 30
0.0
 40
1.0
  0
CIRCLE
  5
153
330
2
100
AcDbEntity
  8
KIJUN
 62
     7
100
AcDbCircle
 10
403.369624843035
 20
60.43487244438859
 30
0.0
 40
1.0
  0
CIRCLE
  5
154
330
2
100
AcDbEntity
  8
KIJUN
 62
     7
100
AcDbCircle
 10
396.6872150683774
 20
52.74713234164718
 30
0.0
 40
1.0
  0
ARC
  5
155
330
2
100
AcDbEntity
  8
KIJUN
 62
     7
100
AcDbCircle
 10
411.3104208347549
 20
70.95726149998029
 30
0.0
 40
8.053308516804541
100
AcDbArc
 50
222.7389554308708
 51
298.1034470033181
  0
ARC
  5
156
330
2
100
AcDbEntity
  8
KIJUN
 62
     7
100
AcDbCircle
 10
409.038385599649
 20
63.04338714464996
 30
0.0
 40
4.932533079619731
100
AcDbArc
 50
203.4457246736029
 51
300.9311242681329
  0
ARC
  5
157
330
2
100
AcDbEntity
  8
KIJUN
 62
     7
100
AcDbCircle
 10
399.4667904531647
 20
55.8738072750161
 30
0.0
 40
4.667480451943356
100
AcDbArc
 50
239.7286610311395
 51
346.2342280326963
  0
ARC
  5
158
330
2
100
AcDbEntity
  8
KIJUN
 62
     7
100
AcDbCircle
 10
402.4783697995255
 20
67.9489538609306
 30
0.0
 40
13.27331944036589
100
AcDbArc
 50
276.5836515515449
 51
342.0280351739761
  0
ARC
  5
159
330
2
100
AcDbEntity
  8
KIJUN
 62
     7
100
AcDbCircle
 10
385.8707459310307
 20
66.34196081592668
 30
0.0
 40
3.743923436790284
100
AcDbArc
 50
232.5148004791225
 51
40.28902007877486
  0
ARC
  5
15A
330
2
100
AcDbEntity
  8
KIJUN
 62
     7
100
AcDbCircle
 10
391.425309783514
 20
66.42113811349159
 30
0.0
 40
3.573120818881367
100
AcDbArc
 50
40.48855852231308
 51
139.0503633557693
  0
ARC
  5
15B
330
2
100
AcDbEntity
  8
KIJUN
 62
     7
100
AcDbCircle
 10
390.137535794654
 20
62.1651049472436
 30
0.0
 40
2.625584155073434
100
AcDbArc
 50
190.6003428892091
 51
278.190727033209
  0
CIRCLE
  5
15C
330
2
100
AcDbEntity
  8
KIJUN
 62
     7
100
AcDbCircle
 10
382.9441570271592
 20
64.34171165192369
 30
0.0
 40
1.0
  0
ARC
  5
15D
330
2
100
AcDbEntity
  8
KIJUN
 62
     7
100
AcDbCircle
 10
407.2827340892311
 20
65.86326803384479
 30
0.0
 40
1.92330440971685
100
AcDbArc
 50
105.245780449468
 51
191.1358235530905
  0
ARC
  5
15E
330
2
100
AcDbEntity
  8
KIJUN
 62
     7
100
AcDbCircle
 10
403.1378031840799
 20
60.79589258990899
 30
0.0
 40
1.404499126886494
100
AcDbArc
 50
11.70511808954336
 51
181.1141455099748
  0
ARC
  5
15F
330
2
100
AcDbEntity
  8
KIJUN
 62
     7
100
AcDbCircle
 10
407.2827340892311
 20
65.86326803384479
 30
0.0
 40
1.92330440971685
100
AcDbArc
 50
105.245780449468
 51
191.1358235530905
  0
CIRCLE
  5
160
330
2
100
AcDbEntity
  8
KIJUN
 62
     7
100
AcDbCircle
 10
407.0260336424978
 20
66.35819212936668
 30
0.0
 40
1.0
  0
ARC
  5
161
330
2
100
AcDbEntity
  8
KIJUN
 62
     7
100
AcDbCircle
 10
411.3104208347549
 20
70.95726149998029
 30
0.0
 40
8.053308516804541
100
AcDbArc
 50
222.7389554308708
 51
298.1034470033181
  0
ARC
  5
162
330
2
100
AcDbEntity
  8
KIJUN
 62
     7
100
AcDbCircle
 10
409.038385599649
 20
63.04338714464996
 30
0.0
 40
4.932533079619731
100
AcDbArc
 50
203.4457246736029
 51
300.9311242681329
  0
ARC
  5
163
330
2
100
AcDbEntity
  8
KIJUN
 62
     7
100
AcDbCircle
 10
402.4783697995255
 20
67.9489538609306
 30
0.0
 40
13.27331944036589
100
AcDbArc
 50
276.5836515515449
 51
342.0280351739761
  0
ARC
  5
164
330
2
100
AcDbEntity
  8
KIJUN
 62
     7
100
AcDbCircle
 10
425.4397447411668
 20
46.10240267446549
 30
0.0
 40
20.54084268423458
100
AcDbArc
 50
11.15722279201754
 51
120.2104538967165
  0
DIMENSION
  5
165
330
2
100
AcDbEntity
  8
SUNPOU
100
AcDbDimension
  2
*D2
 10
31.67368408112071
 20
107.2697306787878
 30
0.0
 11
46.17368408112071
 21
112.2697306787878
 31
0.0
 71
     5
 42
29.0
  3
STANDARD$0
100
AcDbAlignedDimension
 13
60.67368408112071
 23
91.7882150882634
 33
0.0
 14
31.67368408112071
 24
92.788215088263
 34
0.0
 50
180.0
100
AcDbRotatedDimension
1001
ACAD
1000
DSTYLE
1002
{
1070
    41
1040
0.5
1070
    42
1040
1.0
1070
    44
1040
0.0
1070
    77
1070
     1
1070
    78
1070
     0
1070
   140
1040
3.0
1070
   141
1040
1.0
1070
   146
1040
0.0642857142857143
1070
   172
1070
     0
1070
   176
1070
    60
1070
   177
1070
    70
1070
   178
1070
    60
1070
   271
1070
     0
1070
   272
1070
     0
1070
   341
1005
0
1002
}
  0
DIMENSION
  5
17B
330
2
100
AcDbEntity
  8
SUNPOU
100
AcDbDimension
  2
*D3
 10
11.52812132948975
 20
21.78821508826302
 30
0.0
 11
6.528121329489747
 21
57.28821508826301
 31
0.0
 71
     5
 42
70.99999999999997
  3
STANDARD$0
100
AcDbAlignedDimension
 13
31.67368408112071
 23
92.788215088263
 33
0.0
 14
31.67368408112071
 24
21.78821508826302
 34
0.0
 50
90.0
100
AcDbRotatedDimension
1001
ACAD
1000
DSTYLE
1002
{
1070
    41
1040
0.5
1070
    42
1040
1.0
1070
    44
1040
0.0
1070
    77
1070
     1
1070
    78
1070
     0
1070
   140
1040
3.0
1070
   141
1040
1.0
1070
   146
1040
0.0642857142857143
1070
   172
1070
     0
1070
   176
1070
    60
1070
   177
1070
    70
1070
   178
1070
    60
1070
   271
1070
     0
1070
   272
1070
     0
1070
   341
1005
0
1002
}
  0
LINE
  5
188
330
2
100
AcDbEntity
  8
KIJUN
 62
     7
100
AcDbLine
 10
445.4457784335644
 20
21.78821508825848
 30
0.0
 11
81.44577843356456
 21
21.78821508825848
 31
0.0
  0
TEXT
  5
189
330
2
100
AcDbEntity
  8
HOJO
100
AcDbText
 10
0.4080723695570896
 20
1.183313000000011
 30
0.0
 40
4.5
  1
PM430
  7
SUNPOU
100
AcDbText
  0
LINE
  5
18B
330
2
100
AcDbEntity
  8
WAKU
100
AcDbLine
 10
0.0
 20
0.0
 30
0.0
 11
44.67747103027135
 21
0.0
 31
0.0
  0
LINE
  5
18D
330
2
100
AcDbEntity
  8
WAKU
100
AcDbLine
 10
0.0
 20
7.0
 30
0.0
 11
44.67747103027135
 21
7.0
 31
0.0
  0
TEXT
  5
18E
330
2
100
AcDbEntity
  8
HOJO
100
AcDbText
 10
30.81928572127413
 20
2.522193000000015
 30
0.0
 40
3.0
  1
71\U+00D729
  7
SUNPOU
100
AcDbText
  0
LWPOLYLINE
  5
18F
330
2
100
AcDbEntity
  8
KIJUN
100
AcDbPolyline
 90
       28
 70
     0
 43
0.0
 10
44.44646442756544
 20
34.38847982054922
 42
-0.0410689301547931
 10
42.89702208681023
 20
32.04765065294093
 42
0.113698924856485
 10
41.67368408112003
 20
22.78821508826327
 10
41.67368408112003
 20
21.78821508825848
 10
31.67368408112071
 20
21.78821508826302
 10
31.67368408112071
 20
92.788215088263
 10
59.67368408112047
 20
92.7882150882638
 42
-0.4142135623730948
 10
60.67368408112071
 20
91.7882150882634
 10
60.67368408112139
 20
84.788215088263
 42
-0.4142135623730951
 10
59.67368408112047
 20
83.78821508826295
 10
57.67368408112043
 20
83.788215088263
 42
-0.2223035847543184
 10
50.01286021767596
 20
80.74668068351149
 42
0.2975203116181381
 10
45.33359383522072
 20
75.36217211432234
 10
43.67368408112048
 20
75.36217211432239
 10
43.67368408112048
 20
73.28821508826248
 42
-0.4142135623730785
 10
43.17368408112055
 20
72.78821508826235
 10
41.17368408112042
 20
72.7882150882624
 10
41.17368408112042
 20
70.1203875222524
 42
-0.4385144742698083
 10
41.82055066334733
 20
66.18399531522889
 42
-0.4953804332815876
 10
41.88972116063706
 20
63.63390321586989
 10
41.88972116059045
 20
46.63643742896868
 42
-0.2915908450571105
 10
41.95221260982964
 20
45.31965133028285
 42
-0.40049418347567
 10
41.17368408112037
 20
42.36137865063951
 10
41.17368408112042
 20
38.78821508826348
 10
43.17368408112049
 20
38.78821508826348
 42
-0.4142135623730951
 10
43.67368408112048
 20
38.28821508826349
 10
43.67368408112048
 20
36.21425806220369
 42
-0.5676112563549058
 10
44.446463010562
 20
34.38847724280297
  0
ENDSEC
  0
SECTION
  2
OBJECTS
  0
DICTIONARY
  5
A
330
0
100
AcDbDictionary
281
     1
  3
ACAD_COLOR
350
47
  3
ACAD_GROUP
350
3C
  3
ACAD_LAYOUT
350
1F
  3
ACAD_MATERIAL
350
C
  3
ACAD_MLEADERSTYLE
350
4A
  3
ACAD_MLINESTYLE
350
3D
  3
ACAD_PLOTSETTINGS
350
3E
  3
ACAD_PLOTSTYLENAME
350
9
  3
ACAD_SCALELIST
350
48
  3
ACAD_TABLESTYLE
350
49
  3
ACAD_VISUALSTYLE
350
32
  3
ACDB_RECOMPOSE_DATA
350
1A1
  3
AcDbVariableDictionary
350
194
  0
DICTIONARY
  5
3
330
2
100
AcDbDictionary
280
     1
281
     1
  3
ACAD_LAYOUTSELFREF
360
4
  0
DICTIONARY
  5
21
330
20
100
AcDbDictionary
280
     1
281
     1
  3
ACAD_LAYOUTSELFREF
360
22
  0
DICTIONARY
  5
47
102
{ACAD_REACTORS
330
A
102
}
330
A
100
AcDbDictionary
281
     1
  0
DICTIONARY
  5
3C
102
{ACAD_REACTORS
330
A
102
}
330
A
100
AcDbDictionary
281
     1
  0
DICTIONARY
  5
1F
102
{ACAD_REACTORS
330
A
102
}
330
A
100
AcDbDictionary
281
     1
  3
Model
350
1E
  3
ﾚｲｱｳﾄ1
350
25
  0
DICTIONARY
  5
C
102
{ACAD_REACTORS
330
A
102
}
330
A
100
AcDbDictionary
281
     1
  3
ByBlock
350
3F
  3
ByLayer
350
15
  3
Global
350
B
  0
DICTIONARY
  5
4A
102
{ACAD_REACTORS
330
A
102
}
330
A
100
AcDbDictionary
281
     1
  0
DICTIONARY
  5
3D
102
{ACAD_REACTORS
330
A
102
}
330
A
100
AcDbDictionary
281
     1
  3
STANDARD
350
4C
  0
DICTIONARY
  5
3E
102
{ACAD_REACTORS
330
A
102
}
330
A
100
AcDbDictionary
281
     1
  0
ACDBDICTIONARYWDFLT
  5
9
102
{ACAD_REACTORS
330
A
102
}
330
A
100
AcDbDictionary
281
     1
  3
Normal
350
8
100
AcDbDictionaryWithDefault
340
8
  0
DICTIONARY
  5
48
102
{ACAD_REACTORS
330
A
102
}
330
A
100
AcDbDictionary
281
     1
  3
A0
350
51
  3
A1
350
52
  3
A2
350
53
  3
A3
350
54
  3
A4
350
55
  3
A5
350
56
  3
A6
350
57
  3
A7
350
58
  3
A8
350
59
  3
A9
350
5A
  3
B0
350
5B
  3
B1
350
5C
  3
B2
350
5D
  3
B3
350
5E
  3
B4
350
5F
  3
B5
350
60
  3
B6
350
61
  0
DICTIONARY
  5
49
102
{ACAD_REACTORS
330
A
102
}
330
A
100
AcDbDictionary
281
     1
  3
Standard
350
4D
  0
DICTIONARY
  5
32
102
{ACAD_REACTORS
330
A
102
}
330
A
100
AcDbDictionary
281
     1
  3
2dWireframe
350
31
  3
Realistic
350
4E
  3
Wireframe
350
4F
  0
XRECORD
  5
1A1
102
{ACAD_REACTORS
330
A
102
}
330
A
100
AcDbXrecord
280
     1
 90
        1
330
4D
  0
DICTIONARY
  5
194
102
{ACAD_REACTORS
330
A
102
}
330
A
100
AcDbDictionary
281
     1
  3
CANNOSCALE
350
199
  3
CMLEADERSTYLE
350
196
  3
CTABLESTYLE
350
195
  3
CVIEWDETAILSTYLE
350
197
  3
CVIEWSECTIONSTYLE
350
198
  3
DIMASSOC
350
19D
  3
HIDETEXT
350
19C
  3
INDEXCTL
350
19B
  3
SORTENTS
350
19A
  3
XCLIPFRAME
350
19E
  0
XRECORD
  5
4
102
{ACAD_REACTORS
330
3
102
}
330
3
100
AcDbXrecord
280
     1
340
2
  0
XRECORD
  5
22
102
{ACAD_REACTORS
330
21
102
}
330
21
100
AcDbXrecord
280
     1
340
20
  0
LAYOUT
  5
1E
102
{ACAD_XDICTIONARY
360
1A4
102
}
102
{ACAD_REACTORS
330
1F
102
}
330
1F
100
AcDbPlotSettings
  1

  2
なし
  4

  6

 40
0.0
 41
0.0
 42
0.0
 43
0.0
 44
0.0
 45
0.0
 46
0.0
 47
0.0
 48
0.0
 49
0.0
140
0.0
141
0.0
142
1.0
143
1.0
 70
  1712
 72
     0
 73
     0
 74
     0
  7
monochrome.ctb
 75
     0
147
1.0
148
0.0
149
0.0
100
AcDbLayout
  1
Model
 70
     1
 71
     0
 10
0.0
 20
0.0
 11
12.0
 21
9.0
 12
0.0
 22
0.0
 32
0.0
 14
0.0
 24
0.0
 34
0.0
 15
0.0
 25
0.0
 35
0.0
146
0.0
 13
0.0
 23
0.0
 33
0.0
 16
1.0
 26
0.0
 36
0.0
 17
0.0
 27
1.0
 37
0.0
 76
     0
330
2
  0
LAYOUT
  5
25
102
{ACAD_XDICTIONARY
360
1A6
102
}
102
{ACAD_REACTORS
330
1F
102
}
330
1F
100
AcDbPlotSettings
  1

  2
なし
  4

  6

 40
0.0
 41
0.0
 42
0.0
 43
0.0
 44
0.0
 45
0.0
 46
0.0
 47
0.0
 48
0.0
 49
0.0
140
0.0
141
0.0
142
1.0
143
1.0
 70
   688
 72
     0
 73
     0
 74
     5
  7
monochrome.ctb
 75
    16
147
1.0
148
0.0
149
0.0
100
AcDbLayout
  1
ﾚｲｱｳﾄ1
 70
     1
 71
     1
 10
0.0
 20
0.0
 11
12.0
 21
9.0
 12
0.0
 22
0.0
 32
0.0
 14
1.000000000000000E+20
 24
1.000000000000000E+20
 34
1.000000000000000E+20
 15
-1.000000000000000E+20
 25
-1.000000000000000E+20
 35
-1.000000000000000E+20
146
0.0
 13
0.0
 23
0.0
 33
0.0
 16
1.0
 26
0.0
 36
0.0
 17
0.0
 27
1.0
 37
0.0
 76
     0
330
20
  0
MATERIAL
  5
3F
102
{ACAD_XDICTIONARY
360
40
102
}
102
{ACAD_REACTORS
330
C
102
}
330
C
100
AcDbMaterial
  1
ByBlock
 72
     0
 43
0.0208333333333333
 43
0.0
 43
0.0
 43
0.0
 43
0.0
 43
0.0208333333333333
 43
0.0
 43
0.0
 43
0.0
 43
0.0
 43
1.0
 43
0.0
 43
0.0
 43
0.0
 43
0.0
 43
1.0
 77
     0
 47
0.0208333333333333
 47
0.0
 47
0.0
 47
0.0
 47
0.0
 47
0.0208333333333333
 47
0.0
 47
0.0
 47
0.0
 47
0.0
 47
1.0
 47
0.0
 47
0.0
 47
0.0
 47
0.0
 47
1.0
171
     0
 49
0.0208333333333333
 49
0.0
 49
0.0
 49
0.0
 49
0.0
 49
0.0208333333333333
 49
0.0
 49
0.0
 49
0.0
 49
0.0
 49
1.0
 49
0.0
 49
0.0
 49
0.0
 49
0.0
 49
1.0
175
     0
142
0.0208333333333333
142
0.0
142
0.0
142
0.0
142
0.0
142
0.0208333333333333
142
0.0
142
0.0
142
0.0
142
0.0
142
1.0
142
0.0
142
0.0
142
0.0
142
0.0
142
1.0
179
     0
144
0.0208333333333333
144
0.0
144
0.0
144
0.0
144
0.0
144
0.0208333333333333
144
0.0
144
0.0
144
0.0
144
0.0
144
1.0
144
0.0
144
0.0
144
0.0
144
0.0
144
1.0
147
0.0208333333333333
147
0.0
147
0.0
147
0.0
147
0.0
147
0.0208333333333333
147
0.0
147
0.0
147
0.0
147
0.0
147
1.0
147
0.0
147
0.0
147
0.0
147
0.0
147
1.0
  0
MATERIAL
  5
15
102
{ACAD_XDICTIONARY
360
16
102
}
102
{ACAD_REACTORS
330
C
102
}
330
C
100
AcDbMaterial
  1
ByLayer
 72
     0
 43
0.0208333333333333
 43
0.0
 43
0.0
 43
0.0
 43
0.0
 43
0.0208333333333333
 43
0.0
 43
0.0
 43
0.0
 43
0.0
 43
1.0
 43
0.0
 43
0.0
 43
0.0
 43
0.0
 43
1.0
 77
     0
 47
0.0208333333333333
 47
0.0
 47
0.0
 47
0.0
 47
0.0
 47
0.0208333333333333
 47
0.0
 47
0.0
 47
0.0
 47
0.0
 47
1.0
 47
0.0
 47
0.0
 47
0.0
 47
0.0
 47
1.0
171
     0
 49
0.0208333333333333
 49
0.0
 49
0.0
 49
0.0
 49
0.0
 49
0.0208333333333333
 49
0.0
 49
0.0
 49
0.0
 49
0.0
 49
1.0
 49
0.0
 49
0.0
 49
0.0
 49
0.0
 49
1.0
175
     0
142
0.0208333333333333
142
0.0
142
0.0
142
0.0
142
0.0
142
0.0208333333333333
142
0.0
142
0.0
142
0.0
142
0.0
142
1.0
142
0.0
142
0.0
142
0.0
142
0.0
142
1.0
179
     0
144
0.0208333333333333
144
0.0
144
0.0
144
0.0
144
0.0
144
0.0208333333333333
144
0.0
144
0.0
144
0.0
144
0.0
144
1.0
144
0.0
144
0.0
144
0.0
144
0.0
144
1.0
147
0.0208333333333333
147
0.0
147
0.0
147
0.0
147
0.0
147
0.0208333333333333
147
0.0
147
0.0
147
0.0
147
0.0
147
1.0
147
0.0
147
0.0
147
0.0
147
0.0
147
1.0
  0
MATERIAL
  5
B
102
{ACAD_XDICTIONARY
360
D
102
}
102
{ACAD_REACTORS
330
C
102
}
330
C
100
AcDbMaterial
  1
Global
 72
     0
 43
0.0208333333333333
 43
0.0
 43
0.0
 43
0.0
 43
0.0
 43
0.0208333333333333
 43
0.0
 43
0.0
 43
0.0
 43
0.0
 43
1.0
 43
0.0
 43
0.0
 43
0.0
 43
0.0
 43
1.0
 77
     0
 47
0.0208333333333333
 47
0.0
 47
0.0
 47
0.0
 47
0.0
 47
0.0208333333333333
 47
0.0
 47
0.0
 47
0.0
 47
0.0
 47
1.0
 47
0.0
 47
0.0
 47
0.0
 47
0.0
 47
1.0
171
     0
 49
0.0208333333333333
 49
0.0
 49
0.0
 49
0.0
 49
0.0
 49
0.0208333333333333
 49
0.0
 49
0.0
 49
0.0
 49
0.0
 49
1.0
 49
0.0
 49
0.0
 49
0.0
 49
0.0
 49
1.0
175
     0
142
0.0208333333333333
142
0.0
142
0.0
142
0.0
142
0.0
142
0.0208333333333333
142
0.0
142
0.0
142
0.0
142
0.0
142
1.0
142
0.0
142
0.0
142
0.0
142
0.0
142
1.0
179
     0
144
0.0208333333333333
144
0.0
144
0.0
144
0.0
144
0.0
144
0.0208333333333333
144
0.0
144
0.0
144
0.0
144
0.0
144
1.0
144
0.0
144
0.0
144
0.0
144
0.0
144
1.0
147
0.0208333333333333
147
0.0
147
0.0
147
0.0
147
0.0
147
0.0208333333333333
147
0.0
147
0.0
147
0.0
147
0.0
147
1.0
147
0.0
147
0.0
147
0.0
147
0.0
147
1.0
  0
MLINESTYLE
  5
4C
102
{ACAD_REACTORS
330
3D
102
}
330
3D
100
AcDbMlineStyle
  2
STANDARD
 70
     0
  3

 62
   256
 51
90.0
 52
90.0
 71
     2
 49
0.5
 62
   256
  6
BYLAYER
 49
-0.5
 62
   256
  6
BYLAYER
  0
ACDBPLACEHOLDER
  5
8
102
{ACAD_REACTORS
330
9
102
}
330
9
  0
SCALE
  5
51
102
{ACAD_REACTORS
330
48
102
}
330
48
100
AcDbScale
 70
     0
300
1:1
140
1.0
141
1.0
290
     1
  0
SCALE
  5
52
102
{ACAD_REACTORS
330
48
102
}
330
48
100
AcDbScale
 70
     0
300
1/128" = 1'-0"
140
0.0078125
141
12.0
290
     0
  0
SCALE
  5
53
102
{ACAD_REACTORS
330
48
102
}
330
48
100
AcDbScale
 70
     0
300
1/64" = 1'-0"
140
0.015625
141
12.0
290
     0
  0
SCALE
  5
54
102
{ACAD_REACTORS
330
48
102
}
330
48
100
AcDbScale
 70
     0
300
1/32" = 1'-0"
140
0.03125
141
12.0
290
     0
  0
SCALE
  5
55
102
{ACAD_REACTORS
330
48
102
}
330
48
100
AcDbScale
 70
     0
300
1/16" = 1'-0"
140
0.0625
141
12.0
290
     0
  0
SCALE
  5
56
102
{ACAD_REACTORS
330
48
102
}
330
48
100
AcDbScale
 70
     0
300
3/32" = 1'-0"
140
0.09375
141
12.0
290
     0
  0
SCALE
  5
57
102
{ACAD_REACTORS
330
48
102
}
330
48
100
AcDbScale
 70
     0
300
1/8" = 1'-0"
140
0.125
141
12.0
290
     0
  0
SCALE
  5
58
102
{ACAD_REACTORS
330
48
102
}
330
48
100
AcDbScale
 70
     0
300
3/16" = 1'-0"
140
0.1875
141
12.0
290
     0
  0
SCALE
  5
59
102
{ACAD_REACTORS
330
48
102
}
330
48
100
AcDbScale
 70
     0
300
1/4" = 1'-0"
140
0.25
141
12.0
290
     0
  0
SCALE
  5
5A
102
{ACAD_REACTORS
330
48
102
}
330
48
100
AcDbScale
 70
     0
300
3/8" = 1'-0"
140
0.375
141
12.0
290
     0
  0
SCALE
  5
5B
102
{ACAD_REACTORS
330
48
102
}
330
48
100
AcDbScale
 70
     0
300
1/2" = 1'-0"
140
0.5
141
12.0
290
     0
  0
SCALE
  5
5C
102
{ACAD_REACTORS
330
48
102
}
330
48
100
AcDbScale
 70
     0
300
3/4" = 1'-0"
140
0.75
141
12.0
290
     0
  0
SCALE
  5
5D
102
{ACAD_REACTORS
330
48
102
}
330
48
100
AcDbScale
 70
     0
300
1" = 1'-0"
140
1.0
141
12.0
290
     0
  0
SCALE
  5
5E
102
{ACAD_REACTORS
330
48
102
}
330
48
100
AcDbScale
 70
     0
300
1-1/2" = 1'-0"
140
1.5
141
12.0
290
     0
  0
SCALE
  5
5F
102
{ACAD_REACTORS
330
48
102
}
330
48
100
AcDbScale
 70
     0
300
3" = 1'-0"
140
3.0
141
12.0
290
     0
  0
SCALE
  5
60
102
{ACAD_REACTORS
330
48
102
}
330
48
100
AcDbScale
 70
     0
300
6" = 1'-0"
140
6.0
141
12.0
290
     0
  0
SCALE
  5
61
102
{ACAD_REACTORS
330
48
102
}
330
48
100
AcDbScale
 70
     0
300
1'-0" = 1'-0"
140
12.0
141
12.0
290
     0
  0
TABLESTYLE
  5
4D
102
{ACAD_XDICTIONARY
360
19F
102
}
102
{ACAD_REACTORS
330
49
102
}
330
49
100
AcDbTableStyle
  3
Standard
 70
     0
 71
     0
 40
0.06
 41
0.06
280
     0
281
     0
  7
STANDARD
140
0.18
170
     2
 62
     0
 63
     7
283
     0
274
    -2
284
     1
 64
     0
275
    -2
285
     1
 65
     0
276
    -2
286
     1
 66
     0
277
    -2
287
     1
 67
     0
278
    -2
288
     1
 68
     0
279
    -2
289
     1
 69
     0
  7
STANDARD
140
0.25
170
     5
 62
     0
 63
     7
283
     0
274
    -2
284
     1
 64
     0
275
    -2
285
     1
 65
     0
276
    -2
286
     1
 66
     0
277
    -2
287
     1
 67
     0
278
    -2
288
     1
 68
     0
279
    -2
289
     1
 69
     0
  7
STANDARD
140
0.18
170
     5
 62
     0
 63
     7
283
     0
274
    -2
284
     1
 64
     0
275
    -2
285
     1
 65
     0
276
    -2
286
     1
 66
     0
277
    -2
287
     1
 67
     0
278
    -2
288
     1
 68
     0
279
    -2
289
     1
 69
     0
  0
VISUALSTYLE
  5
31
102
{ACAD_XDICTIONARY
360
1A8
102
}
102
{ACAD_REACTORS
330
32
102
}
330
32
100
AcDbVisualStyle
  2
2dWireframe
 70
     4
 71
     0
 72
     2
 73
     0
 90
        0
 40
-0.6
 41
-30.0
 62
     5
 63
     7
 74
     1
 91
        4
 64
     7
 65
   257
 75
     1
175
     1
 42
1.0
 92
        0
 66
   257
 43
1.0
 76
     1
 77
     6
 78
     2
 67
     7
 79
     5
170
     0
171
     0
290
     0
174
     0
 93
        1
 44
0.0
173
     0
291
     0
 45
0.0
1001
ACAD
1000
AcDbSavedByObjectVersion
1070
     0
  0
VISUALSTYLE
  5
4E
102
{ACAD_XDICTIONARY
360
1AC
102
}
102
{ACAD_REACTORS
330
32
102
}
330
32
100
AcDbVisualStyle
  2
Realistic
 70
     8
 71
     2
 72
     3
 73
     0
 90
        2
 40
-0.6
 41
30.0
 62
     5
 63
     7
 74
     0
 91
        0
 64
     7
 65
   257
 75
     1
175
     1
 42
1.0
 92
        8
 66
   257
 43
1.0
 76
     1
 77
     6
 78
     2
 67
     7
 79
     3
170
     0
171
     0
290
     0
174
     0
 93
       13
 44
0.0
173
     0
291
     0
 45
0.0
1001
ACAD
1000
AcDbSavedByObjectVersion
1070
     0
  0
VISUALSTYLE
  5
4F
102
{ACAD_XDICTIONARY
360
1AE
102
}
102
{ACAD_REACTORS
330
32
102
}
330
32
100
AcDbVisualStyle
  2
Wireframe
 70
     5
 71
     0
 72
     2
 73
     0
 90
        0
 40
-0.6
 41
-30.0
 62
     5
 63
     7
 74
     1
 91
        4
 64
     7
 65
   257
 75
     1
175
     1
 42
1.0
 92
        0
 66
   257
 43
1.0
 76
     1
 77
     6
 78
     2
 67
     7
 79
     3
170
     0
171
     0
290
     0
174
     0
 93
        1
 44
0.0
173
     0
291
     0
 45
0.0
1001
ACAD
1000
AcDbSavedByObjectVersion
1070
     0
  0
DICTIONARYVAR
  5
199
102
{ACAD_REACTORS
330
194
102
}
330
194
100
DictionaryVariables
280
     0
  1
1:1
  0
DICTIONARYVAR
  5
196
102
{ACAD_REACTORS
330
194
102
}
330
194
100
DictionaryVariables
280
     0
  1
STANDARD
  0
DICTIONARYVAR
  5
195
102
{ACAD_REACTORS
330
194
102
}
330
194
100
DictionaryVariables
280
     0
  1
STANDARD
  0
DICTIONARYVAR
  5
197
102
{ACAD_REACTORS
330
194
102
}
330
194
100
DictionaryVariables
280
     0
  1

  0
DICTIONARYVAR
  5
198
102
{ACAD_REACTORS
330
194
102
}
330
194
100
DictionaryVariables
280
     0
  1

  0
DICTIONARYVAR
  5
19D
102
{ACAD_REACTORS
330
194
102
}
330
194
100
DictionaryVariables
280
     0
  1
1
  0
DICTIONARYVAR
  5
19C
102
{ACAD_REACTORS
330
194
102
}
330
194
100
DictionaryVariables
280
     0
  1
1
  0
DICTIONARYVAR
  5
19B
102
{ACAD_REACTORS
330
194
102
}
330
194
100
DictionaryVariables
280
     0
  1
0
  0
DICTIONARYVAR
  5
19A
102
{ACAD_REACTORS
330
194
102
}
330
194
100
DictionaryVariables
280
     0
  1
127
  0
DICTIONARYVAR
  5
19E
102
{ACAD_REACTORS
330
194
102
}
330
194
100
DictionaryVariables
280
     0
  1
2
  0
DICTIONARY
  5
1A4
330
1E
100
AcDbDictionary
280
     1
281
     1
  3
ACAD_XREC_ROUNDTRIP
360
1A5
  0
DICTIONARY
  5
1A6
330
25
100
AcDbDictionary
280
     1
281
     1
  3
ACAD_XREC_ROUNDTRIP
360
1A7
  0
DICTIONARY
  5
40
330
3F
100
AcDbDictionary
280
     1
281
     1
  3
ACAD_XREC_ROUNDTRIP
360
1AA
  3
BUMPTILE
360
41
  3
DIFFUSETILE
360
42
  3
OPACITYTILE
360
43
  3
REFLECTIONTILE
360
44
  3
REFRACTIONTILE
360
45
  3
SPECULARTILE
360
46
  0
DICTIONARY
  5
16
330
15
100
AcDbDictionary
280
     1
281
     1
  3
ACAD_XREC_ROUNDTRIP
360
1A3
  3
BUMPTILE
360
17
  3
DIFFUSETILE
360
18
  3
OPACITYTILE
360
19
  3
REFLECTIONTILE
360
1A
  3
REFRACTIONTILE
360
1B
  3
SPECULARTILE
360
1C
  0
DICTIONARY
  5
D
330
B
100
AcDbDictionary
280
     1
281
     1
  3
ACAD_XREC_ROUNDTRIP
360
1A2
  3
BUMPTILE
360
E
  3
DIFFUSETILE
360
F
  3
OPACITYTILE
360
10
  3
REFLECTIONTILE
360
11
  3
REFRACTIONTILE
360
12
  3
SPECULARTILE
360
13
  0
DICTIONARY
  5
19F
330
4D
100
AcDbDictionary
280
     1
281
     1
  3
ACAD_ROUNDTRIP_2008_TABLESTYLE_CELLSTYLEMAP
360
1A0
  3
ACAD_XREC_ROUNDTRIP
360
1AB
  0
DICTIONARY
  5
1A8
330
31
100
AcDbDictionary
280
     1
281
     1
  3
ACAD_XREC_ROUNDTRIP
360
1A9
  0
DICTIONARY
  5
1AC
330
4E
100
AcDbDictionary
280
     1
281
     1
  3
ACAD_XREC_ROUNDTRIP
360
1AD
  0
DICTIONARY
  5
1AE
330
4F
100
AcDbDictionary
280
     1
281
     1
  3
ACAD_XREC_ROUNDTRIP
360
1AF
  0
XRECORD
  5
1A5
102
{ACAD_REACTORS
330
1A4
102
}
330
1A4
100
AcDbXrecord
280
     1
102
SHADEPLOT
 70
     0
102
SHADEPLOTRESLEVEL
 70
     2
102
SHADEPLOTCUSTOMDPI
 70
   300
  0
XRECORD
  5
1A7
102
{ACAD_REACTORS
330
1A6
102
}
330
1A6
100
AcDbXrecord
280
     1
102
SHADEPLOT
 70
     0
102
SHADEPLOTRESLEVEL
 70
     2
102
SHADEPLOTCUSTOMDPI
 70
   300
  0
XRECORD
  5
1AA
102
{ACAD_REACTORS
330
40
102
}
330
40
100
AcDbXrecord
280
     1
102
MATERIAL
148
0.0
149
0.0
149
0.0
 93
        0
 94
      127
282
     0
 72
     0
 77
     0
171
     0
175
     0
179
     0
273
     0
  0
XRECORD
  5
41
102
{ACAD_REACTORS
330
40
102
}
330
40
100
AcDbXrecord
280
     1
270
     1
271
     1
  0
XRECORD
  5
42
102
{ACAD_REACTORS
330
40
102
}
330
40
100
AcDbXrecord
280
     1
270
     1
271
     1
  0
XRECORD
  5
43
102
{ACAD_REACTORS
330
40
102
}
330
40
100
AcDbXrecord
280
     1
270
     1
271
     1
  0
XRECORD
  5
44
102
{ACAD_REACTORS
330
40
102
}
330
40
100
AcDbXrecord
280
     1
270
     1
271
     1
  0
XRECORD
  5
45
102
{ACAD_REACTORS
330
40
102
}
330
40
100
AcDbXrecord
280
     1
270
     1
271
     1
  0
XRECORD
  5
46
102
{ACAD_REACTORS
330
40
102
}
330
40
100
AcDbXrecord
280
     1
270
     1
271
     1
  0
XRECORD
  5
1A3
102
{ACAD_REACTORS
330
16
102
}
330
16
100
AcDbXrecord
280
     1
102
MATERIAL
148
0.0
149
0.0
149
0.0
 93
        0
 94
      127
282
     0
 72
     0
 77
     0
171
     0
175
     0
179
     0
273
     0
  0
XRECORD
  5
17
102
{ACAD_REACTORS
330
16
102
}
330
16
100
AcDbXrecord
280
     1
270
     1
271
     1
  0
XRECORD
  5
18
102
{ACAD_REACTORS
330
16
102
}
330
16
100
AcDbXrecord
280
     1
270
     1
271
     1
  0
XRECORD
  5
19
102
{ACAD_REACTORS
330
16
102
}
330
16
100
AcDbXrecord
280
     1
270
     1
271
     1
  0
XRECORD
  5
1A
102
{ACAD_REACTORS
330
16
102
}
330
16
100
AcDbXrecord
280
     1
270
     1
271
     1
  0
XRECORD
  5
1B
102
{ACAD_REACTORS
330
16
102
}
330
16
100
AcDbXrecord
280
     1
270
     1
271
     1
  0
XRECORD
  5
1C
102
{ACAD_REACTORS
330
16
102
}
330
16
100
AcDbXrecord
280
     1
270
     1
271
     1
  0
XRECORD
  5
1A2
102
{ACAD_REACTORS
330
D
102
}
330
D
100
AcDbXrecord
280
     1
102
MATERIAL
148
0.0
149
0.0
149
0.0
 93
        0
 94
      127
282
     0
 72
     0
 77
     0
171
     0
175
     0
179
     0
273
     0
  0
XRECORD
  5
E
102
{ACAD_REACTORS
330
D
102
}
330
D
100
AcDbXrecord
280
     1
270
     1
271
     1
  0
XRECORD
  5
F
102
{ACAD_REACTORS
330
D
102
}
330
D
100
AcDbXrecord
280
     1
270
     1
271
     1
  0
XRECORD
  5
10
102
{ACAD_REACTORS
330
D
102
}
330
D
100
AcDbXrecord
280
     1
270
     1
271
     1
  0
XRECORD
  5
11
102
{ACAD_REACTORS
330
D
102
}
330
D
100
AcDbXrecord
280
     1
270
     1
271
     1
  0
XRECORD
  5
12
102
{ACAD_REACTORS
330
D
102
}
330
D
100
AcDbXrecord
280
     1
270
     1
271
     1
  0
XRECORD
  5
13
102
{ACAD_REACTORS
330
D
102
}
330
D
100
AcDbXrecord
280
     1
270
     1
271
     1
  0
CELLSTYLEMAP
  5
1A0
102
{ACAD_REACTORS
330
19F
102
}
330
19F
100
AcDbCellStyleMap
 90
        3
300
CELLSTYLE
  1
TABLEFORMAT_BEGIN
 90
        5
170
     1
 91
        0
 92
    32768
 62
   257
 93
        1
300
CONTENTFORMAT
  1
CONTENTFORMAT_BEGIN
 90
        0
 91
        0
 92
        4
 93
        0
300

 40
0.0
140
1.0
 94
        5
 62
     0
340
28
144
0.25
309
CONTENTFORMAT_END
171
     0
 94
        6
 95
        1
302
GRIDFORMAT
  1
GRIDFORMAT_BEGIN
 90
        0
 91
        1
 62
     0
 92
       -2
340
0
 93
        0
 40
0.045
309
GRIDFORMAT_END
 95
        2
302
GRIDFORMAT
  1
GRIDFORMAT_BEGIN
 90
        0
 91
        1
 62
     0
 92
       -2
340
0
 93
        0
 40
0.045
309
GRIDFORMAT_END
 95
        4
302
GRIDFORMAT
  1
GRIDFORMAT_BEGIN
 90
        0
 91
        1
 62
     0
 92
       -2
340
0
 93
        0
 40
0.045
309
GRIDFORMAT_END
 95
        8
302
GRIDFORMAT
  1
GRIDFORMAT_BEGIN
 90
        0
 91
        1
 62
     0
 92
       -2
340
0
 93
        0
 40
0.045
309
GRIDFORMAT_END
 95
       16
302
GRIDFORMAT
  1
GRIDFORMAT_BEGIN
 90
        0
 91
        1
 62
     0
 92
       -2
340
0
 93
        0
 40
0.045
309
GRIDFORMAT_END
 95
       32
302
GRIDFORMAT
  1
GRIDFORMAT_BEGIN
 90
        0
 91
        1
 62
     0
 92
       -2
340
0
 93
        0
 40
0.045
309
GRIDFORMAT_END
309
TABLEFORMAT_END
  1
CELLSTYLE_BEGIN
 90
        1
 91
        1
300
_TITLE
309
CELLSTYLE_END
300
CELLSTYLE
  1
TABLEFORMAT_BEGIN
 90
        5
170
     1
 91
        0
 92
        0
 62
   257
 93
        1
300
CONTENTFORMAT
  1
CONTENTFORMAT_BEGIN
 90
        0
 91
        0
 92
        4
 93
        0
300

 40
0.0
140
1.0
 94
        5
 62
     0
340
28
144
0.18
309
CONTENTFORMAT_END
171
     0
 94
        6
 95
        1
302
GRIDFORMAT
  1
GRIDFORMAT_BEGIN
 90
        0
 91
        1
 62
     0
 92
       -2
340
0
 93
        0
 40
0.045
309
GRIDFORMAT_END
 95
        2
302
GRIDFORMAT
  1
GRIDFORMAT_BEGIN
 90
        0
 91
        1
 62
     0
 92
       -2
340
0
 93
        0
 40
0.045
309
GRIDFORMAT_END
 95
        4
302
GRIDFORMAT
  1
GRIDFORMAT_BEGIN
 90
        0
 91
        1
 62
     0
 92
       -2
340
0
 93
        0
 40
0.045
309
GRIDFORMAT_END
 95
        8
302
GRIDFORMAT
  1
GRIDFORMAT_BEGIN
 90
        0
 91
        1
 62
     0
 92
       -2
340
0
 93
        0
 40
0.045
309
GRIDFORMAT_END
 95
       16
302
GRIDFORMAT
  1
GRIDFORMAT_BEGIN
 90
        0
 91
        1
 62
     0
 92
       -2
340
0
 93
        0
 40
0.045
309
GRIDFORMAT_END
 95
       32
302
GRIDFORMAT
  1
GRIDFORMAT_BEGIN
 90
        0
 91
        1
 62
     0
 92
       -2
340
0
 93
        0
 40
0.045
309
GRIDFORMAT_END
309
TABLEFORMAT_END
  1
CELLSTYLE_BEGIN
 90
        2
 91
        1
300
_HEADER
309
CELLSTYLE_END
300
CELLSTYLE
  1
TABLEFORMAT_BEGIN
 90
        5
170
     1
 91
        0
 92
        0
 62
   257
 93
        1
300
CONTENTFORMAT
  1
CONTENTFORMAT_BEGIN
 90
        0
 91
        0
 92
        4
 93
        0
300

 40
0.0
140
1.0
 94
        2
 62
     0
340
28
144
0.18
309
CONTENTFORMAT_END
171
     0
 94
        6
 95
        1
302
GRIDFORMAT
  1
GRIDFORMAT_BEGIN
 90
        0
 91
        1
 62
     0
 92
       -2
340
0
 93
        0
 40
0.045
309
GRIDFORMAT_END
 95
        2
302
GRIDFORMAT
  1
GRIDFORMAT_BEGIN
 90
        0
 91
        1
 62
     0
 92
       -2
340
0
 93
        0
 40
0.045
309
GRIDFORMAT_END
 95
        4
302
GRIDFORMAT
  1
GRIDFORMAT_BEGIN
 90
        0
 91
        1
 62
     0
 92
       -2
340
0
 93
        0
 40
0.045
309
GRIDFORMAT_END
 95
        8
302
GRIDFORMAT
  1
GRIDFORMAT_BEGIN
 90
        0
 91
        1
 62
     0
 92
       -2
340
0
 93
        0
 40
0.045
309
GRIDFORMAT_END
 95
       16
302
GRIDFORMAT
  1
GRIDFORMAT_BEGIN
 90
        0
 91
        1
 62
     0
 92
       -2
340
0
 93
        0
 40
0.045
309
GRIDFORMAT_END
 95
       32
302
GRIDFORMAT
  1
GRIDFORMAT_BEGIN
 90
        0
 91
        1
 62
     0
 92
       -2
340
0
 93
        0
 40
0.045
309
GRIDFORMAT_END
309
TABLEFORMAT_END
  1
CELLSTYLE_BEGIN
 90
        3
 91
        2
300
_DATA
309
CELLSTYLE_END
  0
XRECORD
  5
1AB
102
{ACAD_REACTORS
330
19F
102
}
330
19F
100
AcDbXrecord
280
     1
102
ACAD_ROUNDTRIP_PRE2007_TABLESTYLE
 90
        4
 91
        0
  1

 92
        4
 93
        0
  2

 94
        4
 95
        0
  3

  0
XRECORD
  5
1A9
102
{ACAD_REACTORS
330
1A8
102
}
330
1A8
100
AcDbXrecord
280
     1
102
RTVSPost2010Prop28
280
     1
102
RTVSPost2010PropOp28
 70
     1
102
RTVSPost2010Prop29
280
     1
102
RTVSPost2010PropOp29
 70
     1
102
RTVSPost2010Prop30
280
     0
102
RTVSPost2010PropOp30
 70
     1
102
RTVSPost2010Prop31
280
     0
102
RTVSPost2010PropOp31
 70
     1
102
RTVSPost2010Prop32
280
     0
102
RTVSPost2010PropOp32
 70
     1
102
RTVSPost2010Prop33
280
     0
102
RTVSPost2010PropOp33
 70
     1
102
RTVSPost2010Prop34
280
     0
102
RTVSPost2010PropOp34
 70
     1
102
RTVSPost2010Prop35
280
     0
102
RTVSPost2010PropOp35
 70
     1
102
RTVSPost2010Prop36
280
     0
102
RTVSPost2010PropOp36
 70
     1
102
RTVSPost2010Prop37
 90
       50
102
RTVSPost2010PropOp37
 70
     1
102
RTVSPost2010Prop38
140
0.0
102
RTVSPost2010PropOp38
 70
     1
102
RTVSPost2010Prop39
140
1.0
102
RTVSPost2010PropOp39
 70
     1
102
RTVSPost2010Prop40
 90
        0
102
RTVSPost2010PropOp40
 70
     1
102
RTVSPost2010Prop41ColorIndex
 90
       18
102
RTVSPost2010Prop41ColorRGB
 90
        0
102
RTVSPost2010PropOp41
 70
     1
102
RTVSPost2010Prop42
 90
       50
102
RTVSPost2010PropOp42
 70
     1
102
RTVSPost2010Prop43
 90
        3
102
RTVSPost2010PropOp43
 70
     1
102
RTVSPost2010Prop44ColorIndex
 90
        5
102
RTVSPost2010Prop44ColorRGB
 90
      255
102
RTVSPost2010PropOp44
 70
     1
102
RTVSPost2010Prop45
280
     0
102
RTVSPost2010PropOp45
 70
     1
102
RTVSPost2010Prop46
 90
       50
102
RTVSPost2010PropOp46
 70
     1
102
RTVSPost2010Prop47
 90
       50
102
RTVSPost2010PropOp47
 70
     1
102
RTVSPost2010Prop48
 90
       50
102
RTVSPost2010PropOp48
 70
     1
102
RTVSPost2010Prop49
280
     0
102
RTVSPost2010PropOp49
 70
     1
102
RTVSPost2010Prop50
 90
       50
102
RTVSPost2010PropOp50
 70
     1
102
RTVSPost2010Prop51ColorIndex
 90
      256
102
RTVSPost2010Prop51ColorRGB
 90
-16777216
102
RTVSPost2010PropOp51
 70
     0
102
RTVSPost2010Prop52
140
1.0
102
RTVSPost2010PropOp52
 70
     0
102
RTVSPost2010Prop53
 90
        2
102
RTVSPost2010PropOp53
 70
     1
102
RTVSPost2010Prop54
  1
strokes_ogs.tif
102
RTVSPost2010PropOp54
 70
     1
102
RTVSPost2010Prop55
280
     0
102
RTVSPost2010PropOp55
 70
     1
102
RTVSPost2010Prop56
140
1.0
102
RTVSPost2010PropOp56
 70
     1
102
RTVSPost2010Prop57
140
1.0
102
RTVSPost2010PropOp57
 70
     1
102
RTVSPropertyOp0
 70
     1
102
RTVSPropertyOp1
 70
     1
102
RTVSPropertyOp2
 70
     1
102
RTVSPropertyOp3
 70
     1
102
RTVSPropertyOp4
 70
     1
102
RTVSPropertyOp5
 70
     1
102
RTVSPropertyOp6
 70
     1
102
RTVSPropertyOp7
 70
     1
102
RTVSPropertyOp8
 70
     1
102
RTVSPropertyOp9
 70
     1
102
RTVSPropertyOp10
 70
     1
102
RTVSPropertyOp11
 70
     1
102
RTVSPropertyOp12
 70
     1
102
RTVSPropertyOp13
 70
     1
102
RTVSPropertyOp14
 70
     1
102
RTVSPropertyOp15
 70
     1
102
RTVSPropertyOp16
 70
     1
102
RTVSPropertyOp17
 70
     1
102
RTVSPropertyOp18
 70
     1
102
RTVSPropertyOp19
 70
     1
102
RTVSPropertyOp20
 70
     1
102
RTVSPropertyOp21
 70
     1
102
RTVSPropertyOp22
 70
     1
102
RTVSPropertyOp23
 70
     1
102
RTVSPropertyOp24
 70
     1
102
RTVSPropertyOp25
 70
     1
102
RTVSPropertyOp26
 70
     1
102
RTVSPropertyOp27
 70
     1
102
RTVSPropertyOp28
 70
     1
102
RTVSPropertyOp29
 70
     1
102
RTVSPropertyOp30
 70
     1
102
RTVSPropertyOp31
 70
     1
102
RTVSPropertyOp32
 70
     1
102
RTVSPropertyOp33
 70
     1
102
RTVSPropertyOp34
 70
     1
102
RTVSPropertyOp35
 70
     1
102
RTVSPropertyOp36
 70
     1
102
RTVSPropertyOp37
 70
     1
102
RTVSPropertyOp38
 70
     1
102
RTVSPropertyOp39
 70
     1
102
RTVSPropertyOp40
 70
     1
102
RTVSPropertyOp41
 70
     1
102
RTVSPropertyOp42
 70
     1
102
RTVSPropertyOp43
 70
     1
102
RTVSPropertyOp44
 70
     1
102
RTVSPropertyOp45
 70
     1
102
RTVSPropertyOp46
 70
     1
102
RTVSPropertyOp47
 70
     1
102
RTVSPropertyOp48
 70
     1
102
RTVSPropertyOp49
 70
     1
102
RTVSPropertyOp50
 70
     1
102
RTVSPropertyOp51
 70
     0
102
RTVSPropertyOp52
 70
     0
102
RTVSPropertyOp53
 70
     1
102
RTVSPropertyOp54
 70
     1
102
RTVSPropertyOp55
 70
     1
102
RTVSPropertyOp56
 70
     1
102
RTVSPropertyOp57
 70
     1
102
RTVSPropertyOp58
 70
     1
102
RTVSPropertyOp59
 70
     1
102
RTVSPropertyOp60
 70
     1
102
RTVSPropertyOp61
 70
     1
102
RTVSPropertyOp62
 70
     1
  0
XRECORD
  5
1AD
102
{ACAD_REACTORS
330
1AC
102
}
330
1AC
100
AcDbXrecord
280
     1
102
RTVSPost2010Prop28
280
     0
102
RTVSPost2010PropOp28
 70
     1
102
RTVSPost2010Prop29
280
     1
102
RTVSPost2010PropOp29
 70
     1
102
RTVSPost2010Prop30
280
     1
102
RTVSPost2010PropOp30
 70
     1
102
RTVSPost2010Prop31
280
     0
102
RTVSPost2010PropOp31
 70
     1
102
RTVSPost2010Prop32
280
     0
102
RTVSPost2010PropOp32
 70
     1
102
RTVSPost2010Prop33
280
     0
102
RTVSPost2010PropOp33
 70
     1
102
RTVSPost2010Prop34
280
     0
102
RTVSPost2010PropOp34
 70
     1
102
RTVSPost2010Prop35
280
     0
102
RTVSPost2010PropOp35
 70
     1
102
RTVSPost2010Prop36
280
     0
102
RTVSPost2010PropOp36
 70
     1
102
RTVSPost2010Prop37
 90
       50
102
RTVSPost2010PropOp37
 70
     1
102
RTVSPost2010Prop38
140
0.0
102
RTVSPost2010PropOp38
 70
     1
102
RTVSPost2010Prop39
140
1.0
102
RTVSPost2010PropOp39
 70
     1
102
RTVSPost2010Prop40
 90
        0
102
RTVSPost2010PropOp40
 70
     1
102
RTVSPost2010Prop41ColorIndex
 90
       18
102
RTVSPost2010Prop41ColorRGB
 90
        0
102
RTVSPost2010PropOp41
 70
     1
102
RTVSPost2010Prop42
 90
       50
102
RTVSPost2010PropOp42
 70
     1
102
RTVSPost2010Prop43
 90
        3
102
RTVSPost2010PropOp43
 70
     1
102
RTVSPost2010Prop44ColorIndex
 90
        5
102
RTVSPost2010Prop44ColorRGB
 90
      255
102
RTVSPost2010PropOp44
 70
     1
102
RTVSPost2010Prop45
280
     0
102
RTVSPost2010PropOp45
 70
     1
102
RTVSPost2010Prop46
 90
       50
102
RTVSPost2010PropOp46
 70
     1
102
RTVSPost2010Prop47
 90
       50
102
RTVSPost2010PropOp47
 70
     1
102
RTVSPost2010Prop48
 90
       50
102
RTVSPost2010PropOp48
 70
     1
102
RTVSPost2010Prop49
280
     0
102
RTVSPost2010PropOp49
 70
     1
102
RTVSPost2010Prop50
 90
       50
102
RTVSPost2010PropOp50
 70
     1
102
RTVSPost2010Prop51ColorIndex
 90
      256
102
RTVSPost2010Prop51ColorRGB
 90
-16777216
102
RTVSPost2010PropOp51
 70
     0
102
RTVSPost2010Prop52
140
1.0
102
RTVSPost2010PropOp52
 70
     0
102
RTVSPost2010Prop53
 90
        2
102
RTVSPost2010PropOp53
 70
     1
102
RTVSPost2010Prop54
  1
strokes_ogs.tif
102
RTVSPost2010PropOp54
 70
     1
102
RTVSPost2010Prop55
280
     0
102
RTVSPost2010PropOp55
 70
     1
102
RTVSPost2010Prop56
140
1.0
102
RTVSPost2010PropOp56
 70
     1
102
RTVSPost2010Prop57
140
1.0
102
RTVSPost2010PropOp57
 70
     1
102
RTVSPropertyOp0
 70
     1
102
RTVSPropertyOp1
 70
     1
102
RTVSPropertyOp2
 70
     1
102
RTVSPropertyOp3
 70
     1
102
RTVSPropertyOp4
 70
     1
102
RTVSPropertyOp5
 70
     1
102
RTVSPropertyOp6
 70
     1
102
RTVSPropertyOp7
 70
     1
102
RTVSPropertyOp8
 70
     1
102
RTVSPropertyOp9
 70
     1
102
RTVSPropertyOp10
 70
     1
102
RTVSPropertyOp11
 70
     1
102
RTVSPropertyOp12
 70
     1
102
RTVSPropertyOp13
 70
     1
102
RTVSPropertyOp14
 70
     1
102
RTVSPropertyOp15
 70
     1
102
RTVSPropertyOp16
 70
     1
102
RTVSPropertyOp17
 70
     1
102
RTVSPropertyOp18
 70
     1
102
RTVSPropertyOp19
 70
     1
102
RTVSPropertyOp20
 70
     1
102
RTVSPropertyOp21
 70
     1
102
RTVSPropertyOp22
 70
     1
102
RTVSPropertyOp23
 70
     1
102
RTVSPropertyOp24
 70
     1
102
RTVSPropertyOp25
 70
     1
102
RTVSPropertyOp26
 70
     1
102
RTVSPropertyOp27
 70
     1
102
RTVSPropertyOp28
 70
     1
102
RTVSPropertyOp29
 70
     1
102
RTVSPropertyOp30
 70
     1
102
RTVSPropertyOp31
 70
     1
102
RTVSPropertyOp32
 70
     1
102
RTVSPropertyOp33
 70
     1
102
RTVSPropertyOp34
 70
     1
102
RTVSPropertyOp35
 70
     1
102
RTVSPropertyOp36
 70
     1
102
RTVSPropertyOp37
 70
     1
102
RTVSPropertyOp38
 70
     1
102
RTVSPropertyOp39
 70
     1
102
RTVSPropertyOp40
 70
     1
102
RTVSPropertyOp41
 70
     1
102
RTVSPropertyOp42
 70
     1
102
RTVSPropertyOp43
 70
     1
102
RTVSPropertyOp44
 70
     1
102
RTVSPropertyOp45
 70
     1
102
RTVSPropertyOp46
 70
     1
102
RTVSPropertyOp47
 70
     1
102
RTVSPropertyOp48
 70
     1
102
RTVSPropertyOp49
 70
     1
102
RTVSPropertyOp50
 70
     1
102
RTVSPropertyOp51
 70
     0
102
RTVSPropertyOp52
 70
     0
102
RTVSPropertyOp53
 70
     1
102
RTVSPropertyOp54
 70
     1
102
RTVSPropertyOp55
 70
     1
102
RTVSPropertyOp56
 70
     1
102
RTVSPropertyOp57
 70
     1
102
RTVSPropertyOp58
 70
     1
102
RTVSPropertyOp59
 70
     1
102
RTVSPropertyOp60
 70
     1
102
RTVSPropertyOp61
 70
     1
102
RTVSPropertyOp62
 70
     1
  0
XRECORD
  5
1AF
102
{ACAD_REACTORS
330
1AE
102
}
330
1AE
100
AcDbXrecord
280
     1
102
RTVSPost2010Prop28
280
     0
102
RTVSPost2010PropOp28
 70
     1
102
RTVSPost2010Prop29
280
     1
102
RTVSPost2010PropOp29
 70
     1
102
RTVSPost2010Prop30
280
     1
102
RTVSPost2010PropOp30
 70
     1
102
RTVSPost2010Prop31
280
     0
102
RTVSPost2010PropOp31
 70
     1
102
RTVSPost2010Prop32
280
     0
102
RTVSPost2010PropOp32
 70
     1
102
RTVSPost2010Prop33
280
     0
102
RTVSPost2010PropOp33
 70
     1
102
RTVSPost2010Prop34
280
     0
102
RTVSPost2010PropOp34
 70
     1
102
RTVSPost2010Prop35
280
     0
102
RTVSPost2010PropOp35
 70
     1
102
RTVSPost2010Prop36
280
     0
102
RTVSPost2010PropOp36
 70
     1
102
RTVSPost2010Prop37
 90
       50
102
RTVSPost2010PropOp37
 70
     1
102
RTVSPost2010Prop38
140
0.0
102
RTVSPost2010PropOp38
 70
     1
102
RTVSPost2010Prop39
140
1.0
102
RTVSPost2010PropOp39
 70
     1
102
RTVSPost2010Prop40
 90
        0
102
RTVSPost2010PropOp40
 70
     1
102
RTVSPost2010Prop41ColorIndex
 90
       18
102
RTVSPost2010Prop41ColorRGB
 90
        0
102
RTVSPost2010PropOp41
 70
     1
102
RTVSPost2010Prop42
 90
       50
102
RTVSPost2010PropOp42
 70
     1
102
RTVSPost2010Prop43
 90
        3
102
RTVSPost2010PropOp43
 70
     1
102
RTVSPost2010Prop44ColorIndex
 90
        5
102
RTVSPost2010Prop44ColorRGB
 90
      255
102
RTVSPost2010PropOp44
 70
     1
102
RTVSPost2010Prop45
280
     0
102
RTVSPost2010PropOp45
 70
     1
102
RTVSPost2010Prop46
 90
       50
102
RTVSPost2010PropOp46
 70
     1
102
RTVSPost2010Prop47
 90
       50
102
RTVSPost2010PropOp47
 70
     1
102
RTVSPost2010Prop48
 90
       50
102
RTVSPost2010PropOp48
 70
     1
102
RTVSPost2010Prop49
280
     0
102
RTVSPost2010PropOp49
 70
     1
102
RTVSPost2010Prop50
 90
       50
102
RTVSPost2010PropOp50
 70
     1
102
RTVSPost2010Prop51ColorIndex
 90
      256
102
RTVSPost2010Prop51ColorRGB
 90
-16777216
102
RTVSPost2010PropOp51
 70
     0
102
RTVSPost2010Prop52
140
1.0
102
RTVSPost2010PropOp52
 70
     0
102
RTVSPost2010Prop53
 90
        2
102
RTVSPost2010PropOp53
 70
     1
102
RTVSPost2010Prop54
  1
strokes_ogs.tif
102
RTVSPost2010PropOp54
 70
     1
102
RTVSPost2010Prop55
280
     0
102
RTVSPost2010PropOp55
 70
     1
102
RTVSPost2010Prop56
140
1.0
102
RTVSPost2010PropOp56
 70
     1
102
RTVSPost2010Prop57
140
1.0
102
RTVSPost2010PropOp57
 70
     1
102
RTVSPropertyOp0
 70
     1
102
RTVSPropertyOp1
 70
     1
102
RTVSPropertyOp2
 70
     1
102
RTVSPropertyOp3
 70
     1
102
RTVSPropertyOp4
 70
     1
102
RTVSPropertyOp5
 70
     1
102
RTVSPropertyOp6
 70
     1
102
RTVSPropertyOp7
 70
     1
102
RTVSPropertyOp8
 70
     1
102
RTVSPropertyOp9
 70
     1
102
RTVSPropertyOp10
 70
     1
102
RTVSPropertyOp11
 70
     1
102
RTVSPropertyOp12
 70
     1
102
RTVSPropertyOp13
 70
     1
102
RTVSPropertyOp14
 70
     1
102
RTVSPropertyOp15
 70
     1
102
RTVSPropertyOp16
 70
     1
102
RTVSPropertyOp17
 70
     1
102
RTVSPropertyOp18
 70
     1
102
RTVSPropertyOp19
 70
     1
102
RTVSPropertyOp20
 70
     1
102
RTVSPropertyOp21
 70
     1
102
RTVSPropertyOp22
 70
     1
102
RTVSPropertyOp23
 70
     1
102
RTVSPropertyOp24
 70
     1
102
RTVSPropertyOp25
 70
     1
102
RTVSPropertyOp26
 70
     1
102
RTVSPropertyOp27
 70
     1
102
RTVSPropertyOp28
 70
     1
102
RTVSPropertyOp29
 70
     1
102
RTVSPropertyOp30
 70
     1
102
RTVSPropertyOp31
 70
     1
102
RTVSPropertyOp32
 70
     1
102
RTVSPropertyOp33
 70
     1
102
RTVSPropertyOp34
 70
     1
102
RTVSPropertyOp35
 70
     1
102
RTVSPropertyOp36
 70
     1
102
RTVSPropertyOp37
 70
     1
102
RTVSPropertyOp38
 70
     1
102
RTVSPropertyOp39
 70
     1
102
RTVSPropertyOp40
 70
     1
102
RTVSPropertyOp41
 70
     1
102
RTVSPropertyOp42
 70
     1
102
RTVSPropertyOp43
 70
     1
102
RTVSPropertyOp44
 70
     1
102
RTVSPropertyOp45
 70
     1
102
RTVSPropertyOp46
 70
     1
102
RTVSPropertyOp47
 70
     1
102
RTVSPropertyOp48
 70
     1
102
RTVSPropertyOp49
 70
     1
102
RTVSPropertyOp50
 70
     1
102
RTVSPropertyOp51
 70
     0
102
RTVSPropertyOp52
 70
     0
102
RTVSPropertyOp53
 70
     1
102
RTVSPropertyOp54
 70
     1
102
RTVSPropertyOp55
 70
     1
102
RTVSPropertyOp56
 70
     1
102
RTVSPropertyOp57
 70
     1
102
RTVSPropertyOp58
 70
     1
102
RTVSPropertyOp59
 70
     1
102
RTVSPropertyOp60
 70
     1
102
RTVSPropertyOp61
 70
     1
102
RTVSPropertyOp62
 70
     1
  0
ENDSEC
  0
EOF
