  0
SECTION
  2
HEADER
  9
$ACADVER
  1
AC1015
  9
$ACADMAINTVER
 70
    18
  9
$DWGCODEPAGE
  3
ANSI_932
  9
$INSBASE
 10
37.728681953653
 20
12.30640260927612
 30
0.0
  9
$EXTMIN
 10
-482.9437656608982
 20
-11581.08573653163
 30
0.0
  9
$EXTMAX
 10
49345.59446528477
 20
6615.897072217691
 30
0.0
  9
$LIMMIN
 10
0.0
 20
0.0
  9
$LIMMAX
 10
12600.0
 20
8910.0
  9
$ORTHOMODE
 70
     0
  9
$REGENMODE
 70
     1
  9
$FILLMODE
 70
     1
  9
$QTEXTMODE
 70
     0
  9
$MIRRTEXT
 70
     1
  9
$LTSCALE
 40
50.0
  9
$ATTMODE
 70
     1
  9
$TEXTSIZE
 40
30.0
  9
$TRACEWID
 40
0.05
  9
$TEXTSTYLE
  7
SUNPOU
  9
$CLAYER
  8
HOJO2
  9
$CELTYPE
  6
BYLAYER
  9
$CECOLOR
 62
     1
  9
$CELTSCALE
 40
1.0
  9
$DISPSILH
 70
     0
  9
$DIMSCALE
 40
20.0
  9
$DIMASZ
 40
0.0
  9
$DIMEXO
 40
0.0625
  9
$DIMDLI
 40
0.0
  9
$DIMRND
 40
0.0
  9
$DIMDLE
 40
0.0
  9
$DIMEXE
 40
0.18
  9
$DIMTP
 40
0.0
  9
$DIMTM
 40
0.0
  9
$DIMTXT
 40
3.0
  9
$DIMCEN
 40
0.09
  9
$DIMTSZ
 40
1.0
  9
$DIMTOL
 70
     0
  9
$DIMLIM
 70
     0
  9
$DIMTIH
 70
     0
  9
$DIMTOH
 70
     0
  9
$DIMSE1
 70
     0
  9
$DIMSE2
 70
     0
  9
$DIMTAD
 70
     1
  9
$DIMZIN
 70
     0
  9
$DIMBLK
  1

  9
$DIMASO
 70
     1
  9
$DIMSHO
 70
     1
  9
$DIMPOST
  1

  9
$DIMAPOST
  1

  9
$DIMALT
 70
     0
  9
$DIMALTD
 70
     2
  9
$DIMALTF
 40
25.4
  9
$DIMLFAC
 40
1.0
  9
$DIMTOFL
 70
     0
  9
$DIMTVP
 40
0.0
  9
$DIMTIX
 70
     1
  9
$DIMSOXD
 70
     0
  9
$DIMSAH
 70
     0
  9
$DIMBLK1
  1

  9
$DIMBLK2
  1

  9
$DIMSTYLE
  2
STANDARD
  9
$DIMCLRD
 70
    60
  9
$DIMCLRE
 70
    70
  9
$DIMCLRT
 70
    60
  9
$DIMTFAC
 40
1.0
  9
$DIMGAP
 40
0.0
  9
$DIMJUST
 70
     0
  9
$DIMSD1
 70
     0
  9
$DIMSD2
 70
     0
  9
$DIMTOLJ
 70
     1
  9
$DIMTZIN
 70
     0
  9
$DIMALTZ
 70
     0
  9
$DIMALTTZ
 70
     0
  9
$DIMUPT
 70
     0
  9
$DIMDEC
 70
     0
  9
$DIMTDEC
 70
     0
  9
$DIMALTU
 70
     2
  9
$DIMALTTD
 70
     2
  9
$DIMTXSTY
  7
SUNPOU
  9
$DIMAUNIT
 70
     0
  9
$DIMADEC
 70
     0
  9
$DIMALTRND
 40
0.0
  9
$DIMAZIN
 70
     0
  9
$DIMDSEP
 70
    46
  9
$DIMATFIT
 70
     3
  9
$DIMFRAC
 70
     0
  9
$DIMLDRBLK
  1

  9
$DIMLUNIT
 70
     2
  9
$DIMLWD
 70
    -2
  9
$DIMLWE
 70
    -2
  9
$DIMTMOVE
 70
     2
  9
$LUNITS
 70
     2
  9
$LUPREC
 70
     0
  9
$SKETCHINC
 40
0.1
  9
$FILLETRAD
 40
100.0
  9
$AUNITS
 70
     0
  9
$AUPREC
 70
     0
  9
$MENU
  1
acad
  9
$ELEVATION
 40
0.0
  9
$PELEVATION
 40
0.0
  9
$THICKNESS
 40
0.0
  9
$LIMCHECK
 70
     0
  9
$CHAMFERA
 40
0.0
  9
$CHAMFERB
 40
0.0
  9
$CHAMFERC
 40
0.0
  9
$CHAMFERD
 40
0.0
  9
$SKPOLY
 70
     0
  9
$TDCREATE
 40
2450561.415141319
  9
$TDUCREATE
 40
2450561.040141320
  9
$TDUPDATE
 40
2455281.878661505
  9
$TDUUPDATE
 40
2455281.503661505
  9
$TDINDWG
 40
1.7819816088
  9
$TDUSRTIMER
 40
1.7819816088
  9
$USRTIMER
 70
     1
  9
$ANGBASE
 50
0.0
  9
$ANGDIR
 70
     0
  9
$PDMODE
 70
     0
  9
$PDSIZE
 40
0.0
  9
$PLINEWID
 40
0.0
  9
$SPLFRAME
 70
     0
  9
$SPLINETYPE
 70
     6
  9
$SPLINESEGS
 70
     8
  9
$HANDSEED
  5
119
  9
$SURFTAB1
 70
     6
  9
$SURFTAB2
 70
     6
  9
$SURFTYPE
 70
     6
  9
$SURFU
 70
     6
  9
$SURFV
 70
     6
  9
$UCSBASE
  2

  9
$UCSNAME
  2

  9
$UCSORG
 10
0.0
 20
0.0
 30
0.0
  9
$UCSXDIR
 10
1.0
 20
0.0
 30
0.0
  9
$UCSYDIR
 10
0.0
 20
1.0
 30
0.0
  9
$UCSORTHOREF
  2

  9
$UCSORTHOVIEW
 70
     0
  9
$UCSORGTOP
 10
0.0
 20
0.0
 30
0.0
  9
$UCSORGBOTTOM
 10
0.0
 20
0.0
 30
0.0
  9
$UCSORGLEFT
 10
0.0
 20
0.0
 30
0.0
  9
$UCSORGRIGHT
 10
0.0
 20
0.0
 30
0.0
  9
$UCSORGFRONT
 10
0.0
 20
0.0
 30
0.0
  9
$UCSORGBACK
 10
0.0
 20
0.0
 30
0.0
  9
$PUCSBASE
  2

  9
$PUCSNAME
  2

  9
$PUCSORG
 10
0.0
 20
0.0
 30
0.0
  9
$PUCSXDIR
 10
1.0
 20
0.0
 30
0.0
  9
$PUCSYDIR
 10
0.0
 20
1.0
 30
0.0
  9
$PUCSORTHOREF
  2

  9
$PUCSORTHOVIEW
 70
     0
  9
$PUCSORGTOP
 10
0.0
 20
0.0
 30
0.0
  9
$PUCSORGBOTTOM
 10
0.0
 20
0.0
 30
0.0
  9
$PUCSORGLEFT
 10
0.0
 20
0.0
 30
0.0
  9
$PUCSORGRIGHT
 10
0.0
 20
0.0
 30
0.0
  9
$PUCSORGFRONT
 10
0.0
 20
0.0
 30
0.0
  9
$PUCSORGBACK
 10
0.0
 20
0.0
 30
0.0
  9
$USERI1
 70
     0
  9
$USERI2
 70
     0
  9
$USERI3
 70
     0
  9
$USERI4
 70
     0
  9
$USERI5
 70
     0
  9
$USERR1
 40
0.0
  9
$USERR2
 40
0.0
  9
$USERR3
 40
0.0
  9
$USERR4
 40
0.0
  9
$USERR5
 40
0.0
  9
$WORLDVIEW
 70
     1
  9
$SHADEDGE
 70
     3
  9
$SHADEDIF
 70
    70
  9
$TILEMODE
 70
     1
  9
$MAXACTVP
 70
    16
  9
$PINSBASE
 10
0.0
 20
0.0
 30
0.0
  9
$PLIMCHECK
 70
     0
  9
$PEXTMIN
 10
1.000000000000000E+20
 20
1.000000000000000E+20
 30
1.000000000000000E+20
  9
$PEXTMAX
 10
-1.000000000000000E+20
 20
-1.000000000000000E+20
 30
-1.000000000000000E+20
  9
$PLIMMIN
 10
0.0
 20
0.0
  9
$PLIMMAX
 10
12.0
 20
9.0
  9
$UNITMODE
 70
     0
  9
$VISRETAIN
 70
     0
  9
$PLINEGEN
 70
     0
  9
$PSLTSCALE
 70
     1
  9
$TREEDEPTH
 70
  3020
  9
$CMLSTYLE
  2
STANDARD
  9
$CMLJUST
 70
     0
  9
$CMLSCALE
 40
1.0
  9
$PROXYGRAPHICS
 70
     1
  9
$MEASUREMENT
 70
     0
  9
$CELWEIGHT
370
    -1
  9
$ENDCAPS
280
     0
  9
$JOINSTYLE
280
     0
  9
$LWDISPLAY
290
     0
  9
$INSUNITS
 70
     0
  9
$HYPERLINKBASE
  1

  9
$STYLESHEET
  1

  9
$XEDIT
290
     1
  9
$CEPSNTYPE
380
     0
  9
$PSTYLEMODE
290
     1
  9
$FINGERPRINTGUID
  2
{BEC32E9C-78F3-431A-8197-267776688737}
  9
$VERSIONGUID
  2
{F307320F-6B04-4928-9BB3-48D4AF883336}
  9
$EXTNAMES
290
     1
  9
$PSVPSCALE
 40
0.0
  9
$OLESTARTUP
290
     0
  0
ENDSEC
  0
SECTION
  2
CLASSES
  0
CLASS
  1
ACDBDICTIONARYWDFLT
  2
AcDbDictionaryWithDefault
  3
ObjectDBX Classes
 90
        0
280
     0
281
     0
  0
CLASS
  1
MATERIAL
  2
AcDbMaterial
  3
ObjectDBX Classes
 90
     1153
280
     0
281
     0
  0
CLASS
  1
VISUALSTYLE
  2
AcDbVisualStyle
  3
ObjectDBX Classes
 90
     4095
280
     0
281
     0
  0
CLASS
  1
TABLESTYLE
  2
AcDbTableStyle
  3
ObjectDBX Classes
 90
     4095
280
     0
281
     0
  0
CLASS
  1
SCALE
  2
AcDbScale
  3
ObjectDBX Classes
 90
     1153
280
     0
281
     0
  0
CLASS
  1
MLEADERSTYLE
  2
AcDbMLeaderStyle
  3
ACDB_MLEADERSTYLE_CLASS
 90
    36863
280
     0
281
     0
  0
CLASS
  1
SORTENTSTABLE
  2
AcDbSortentsTable
  3
ObjectDBX Classes
 90
        0
280
     0
281
     0
  0
CLASS
  1
CELLSTYLEMAP
  2
AcDbCellStyleMap
  3
ObjectDBX Classes
 90
     1152
280
     0
281
     0
  0
CLASS
  1
DICTIONARYVAR
  2
AcDbDictionaryVar
  3
ObjectDBX Classes
 90
        0
280
     0
281
     0
  0
CLASS
  1
ACDBPLACEHOLDER
  2
AcDbPlaceHolder
  3
ObjectDBX Classes
 90
        0
280
     0
281
     0
  0
CLASS
  1
LAYOUT
  2
AcDbLayout
  3
ObjectDBX Classes
 90
        0
280
     0
281
     0
  0
CLASS
  1
SOLID_BACKGROUND
  2
AcDbSolidBackground
  3
SCENEOE
 90
    36863
280
     0
281
     0
  0
CLASS
  1
NPOCOLLECTION
  2
AcDbImpNonPersistentObjectsCollection
  3
ObjectDBX Classes
 90
    33921
280
     0
281
     0
  0
ENDSEC
  0
SECTION
  2
TABLES
  0
TABLE
  2
VPORT
  5
29
330
0
100
AcDbSymbolTable
 70
     1
  0
VPORT
  5
2A
330
29
100
AcDbSymbolTableRecord
100
AcDbViewportTableRecord
  2
*ACTIVE
 70
     0
 10
0.0
 20
0.0
 11
1.0
 21
1.0
 12
411.2239327103889
 22
96.75323843990225
 13
0.0
 23
0.0
 14
1.0
 24
1.0
 15
0.0
 25
0.0
 16
0.0
 26
0.0
 36
1.0
 17
0.0
 27
0.0
 37
0.0
 40
852.6847156614101
 41
1.348338692390139
 42
50.0
 43
0.0
 44
0.0
 50
0.0
 51
0.0
 71
     0
 72
 20000
 73
     1
 74
     1
 75
     0
 76
     0
 77
     0
 78
     0
281
     0
 65
     1
110
0.0
120
0.0
130
0.0
111
1.0
121
0.0
131
0.0
112
0.0
122
1.0
132
0.0
 79
     0
146
0.0
  0
ENDTAB
  0
TABLE
  2
LTYPE
  5
24
330
0
100
AcDbSymbolTable
 70
     3
  0
LTYPE
  5
25
330
24
100
AcDbSymbolTableRecord
100
AcDbLinetypeTableRecord
  2
BYBLOCK
 70
     0
  3

 72
    65
 73
     0
 40
0.0
  0
LTYPE
  5
26
330
24
100
AcDbSymbolTableRecord
100
AcDbLinetypeTableRecord
  2
BYLAYER
 70
     0
  3

 72
    65
 73
     0
 40
0.0
  0
LTYPE
  5
15
330
24
100
AcDbSymbolTableRecord
100
AcDbLinetypeTableRecord
  2
CONTINUOUS
 70
     0
  3
Solid line
 72
    65
 73
     0
 40
0.0
  0
LTYPE
  5
7B
330
24
100
AcDbSymbolTableRecord
100
AcDbLinetypeTableRecord
  2
DASHED
 70
     0
  3
__ __ __ __ __ __ __ __ __ __ __ __ __ __ __ __
 72
    65
 73
     2
 40
0.75
 49
0.5
 74
     0
 49
-0.25
 74
     0
  0
LTYPE
  5
77
330
24
100
AcDbSymbolTableRecord
100
AcDbLinetypeTableRecord
  2
CENTER2
 70
     0
  3
___ _ ___ _ ___ _ ___ _ ___ _ ___ _ ___ _ ___ _
 72
    65
 73
     4
 40
28.575
 49
19.05
 74
     0
 49
-3.174999999999998
 74
     0
 49
3.174999999999998
 74
     0
 49
-3.174999999999998
 74
     0
  0
ENDTAB
  0
TABLE
  2
LAYER
  5
1E
102
{ACAD_XDICTIONARY
360
1F
102
}
330
0
100
AcDbSymbolTable
 70
     4
  0
LAYER
  5
6
102
{ACAD_XDICTIONARY
360
7
102
}
330
1E
100
AcDbSymbolTableRecord
100
AcDbLayerTableRecord
  2
0
 70
     0
 62
     7
  6
CONTINUOUS
370
    -3
390
9
  0
LAYER
  5
8B
330
1E
100
AcDbSymbolTableRecord
100
AcDbLayerTableRecord
  2
DEFPOINTS
 70
     0
 62
     7
  6
CONTINUOUS
290
     0
370
    -3
390
9
  0
LAYER
  5
48
102
{ACAD_XDICTIONARY
360
49
102
}
330
1E
100
AcDbSymbolTableRecord
100
AcDbLayerTableRecord
  2
HOJO2
 70
     0
 62
   243
  6
CONTINUOUS
370
    -3
390
9
  0
LAYER
  5
7E
330
1E
100
AcDbSymbolTableRecord
100
AcDbLayerTableRecord
  2
SUNPOU
 70
     0
 62
    70
  6
CONTINUOUS
370
    -3
390
9
  0
ENDTAB
  0
TABLE
  2
STYLE
  5
21
330
0
100
AcDbSymbolTable
 70
     3
  0
STYLE
  5
22
330
21
100
AcDbSymbolTableRecord
100
AcDbTextStyleTableRecord
  2
STANDARD
 70
     0
 40
0.0
 41
1.0
 50
0.0
 71
     0
 42
0.2
  3
txt
  4

  0
STYLE
  5
4B
330
21
100
AcDbSymbolTableRecord
100
AcDbTextStyleTableRecord
  2
SUNPOU
 70
     0
 40
0.0
 41
1.0
 50
0.0
 71
     0
 42
30.0
  3
txt
  4
bigfont
  0
STYLE
  5
9D
330
21
100
AcDbSymbolTableRecord
100
AcDbTextStyleTableRecord
  2
LIFE
 70
     0
 40
0.0
 41
0.7
 50
0.0
 71
     0
 42
10.0
  3
romans
  4
extfont
  0
ENDTAB
  0
TABLE
  2
VIEW
  5
27
330
0
100
AcDbSymbolTable
 70
     0
  0
ENDTAB
  0
TABLE
  2
UCS
  5
28
330
0
100
AcDbSymbolTable
 70
     0
  0
ENDTAB
  0
TABLE
  2
APPID
  5
2D
330
0
100
AcDbSymbolTable
 70
     3
  0
APPID
  5
2E
330
2D
100
AcDbSymbolTableRecord
100
AcDbRegAppTableRecord
  2
ACAD
 70
     0
  0
APPID
  5
19
330
2D
100
AcDbSymbolTableRecord
100
AcDbRegAppTableRecord
  2
ACAD_PSEXT
 70
     0
  0
APPID
  5
8E
330
2D
100
AcDbSymbolTableRecord
100
AcDbRegAppTableRecord
  2
ACAD_DSTYLE_DIMRADIAL_EXTENSION
 70
     0
  0
ENDTAB
  0
TABLE
  2
DIMSTYLE
  5
2F
330
0
100
AcDbSymbolTable
 70
     2
100
AcDbDimStyleTable
 71
     1
340
30
  0
DIMSTYLE
105
30
102
{ACAD_REACTORS
330
9F
330
7D
102
}
330
2F
100
AcDbSymbolTableRecord
100
AcDbDimStyleTableRecord
  2
STANDARD
 70
     0
340
22
  0
DIMSTYLE
105
9C
102
{ACAD_REACTORS
330
AC
330
C1
330
8F
102
}
330
2F
100
AcDbSymbolTableRecord
100
AcDbDimStyleTableRecord
  2
STANDARD$0
 70
     0
 40
2.0
 41
1.0
 42
2.0
 43
0.0
 44
1.0
 73
     0
 74
     0
 77
     3
 78
     9
140
4.5
141
0.0
147
1.0
172
     1
173
     1
178
     3
271
     2
340
9D
341
84
343
84
344
84
  0
ENDTAB
  0
TABLE
  2
BLOCK_RECORD
  5
1
330
0
100
AcDbSymbolTable
 70
     6
  0
BLOCK_RECORD
  5
2
102
{ACAD_XDICTIONARY
360
3
102
}
330
1
100
AcDbSymbolTableRecord
100
AcDbBlockTableRecord
  2
*MODEL_SPACE
340
17
  0
BLOCK_RECORD
  5
1A
330
1
100
AcDbSymbolTableRecord
100
AcDbBlockTableRecord
  2
*PAPER_SPACE
340
1D
  0
BLOCK_RECORD
  5
84
330
1
100
AcDbSymbolTableRecord
100
AcDbBlockTableRecord
  2
_DOT
340
0
102
{BLKREFS
331
B2
331
B3
331
A3
331
A4
331
83
331
C7
331
C8
331
95
331
96
102
}
  0
BLOCK_RECORD
  5
7F
330
1
100
AcDbSymbolTableRecord
100
AcDbBlockTableRecord
  2
*D1
340
0
  0
BLOCK_RECORD
  5
90
330
1
100
AcDbSymbolTableRecord
100
AcDbBlockTableRecord
  2
*D2
340
0
  0
BLOCK_RECORD
  5
A0
330
1
100
AcDbSymbolTableRecord
100
AcDbBlockTableRecord
  2
*D3
340
0
  0
BLOCK_RECORD
  5
AD
330
1
100
AcDbSymbolTableRecord
100
AcDbBlockTableRecord
  2
*D4
340
0
  0
BLOCK_RECORD
  5
C2
330
1
100
AcDbSymbolTableRecord
100
AcDbBlockTableRecord
  2
*D5
340
0
  0
ENDTAB
  0
ENDSEC
  0
SECTION
  2
BLOCKS
  0
BLOCK
  5
5
330
2
100
AcDbEntity
  8
0
100
AcDbBlockBegin
  2
*MODEL_SPACE
 70
     0
 10
0.0
 20
0.0
 30
0.0
  3
*MODEL_SPACE
  1

  0
ENDBLK
  5
16
330
2
100
AcDbEntity
  8
0
100
AcDbBlockEnd
  0
BLOCK
  5
1B
330
1A
100
AcDbEntity
 67
     1
  8
0
100
AcDbBlockBegin
  2
*PAPER_SPACE
 70
     0
 10
0.0
 20
0.0
 30
0.0
  3
*PAPER_SPACE
  1

  0
ENDBLK
  5
1C
330
1A
100
AcDbEntity
 67
     1
  8
0
100
AcDbBlockEnd
  0
BLOCK
  5
85
330
84
100
AcDbEntity
  8
0
100
AcDbBlockBegin
  2
_DOT
 70
     0
 10
0.0
 20
0.0
 30
0.0
  3
_DOT
  1

  0
LWPOLYLINE
  5
86
330
84
100
AcDbEntity
  8
0
  6
ByBlock
 62
     0
100
AcDbPolyline
 90
        2
 70
     1
 43
0.5
 10
-0.25
 20
0.0
 42
1.0
 10
0.25
 20
0.0
 42
1.0
  0
LINE
  5
87
330
84
100
AcDbEntity
  8
0
  6
ByBlock
 62
     0
100
AcDbLine
 10
-0.5
 20
0.0
 30
0.0
 11
-1.0
 21
0.0
 31
0.0
  0
ENDBLK
  5
88
330
84
100
AcDbEntity
  8
0
100
AcDbBlockEnd
  0
BLOCK
  5
80
330
7F
100
AcDbEntity
  8
0
 62
     1
100
AcDbBlockBegin
  2
*D1
 70
     1
 10
0.0
 20
0.0
 30
0.0
  3
*D1
  1

  0
LINE
  5
81
330
7F
100
AcDbEntity
  8
SUNPOU
 62
    60
370
    -2
100
AcDbLine
 10
443.2171491300286
 20
68.72737541555378
 30
0.0
 11
436.5024675509604
 21
88.09650165531284
 31
0.0
  0
MTEXT
  5
82
330
7F
100
AcDbEntity
  8
SUNPOU
 62
    60
100
AcDbMText
 10
443.3305050540891
 20
79.08592987235329
 30
0.0
 40
5.0
 41
0.0
 71
     5
 72
     1
  1
\A1;R240
  7
SUNPOU
 11
0.3275454428813751
 21
-0.9448354263297094
 31
0.0
 73
     1
 44
1.0
1001
ACAD
1000
MTEXTBEGIN
1070
    73
1070
     1
1070
    44
1040
1.0
1070
    74
1070
     0
1000
MTEXTEND
  0
INSERT
  5
83
330
7F
100
AcDbEntity
  8
SUNPOU
 62
    60
370
    -2
100
AcDbBlockReference
  2
_DOT
 10
436.174922108079
 20
89.04133708164254
 30
0.0
 50
109.1198614017856
  0
ARC
  5
89
330
7F
100
AcDbEntity
  8
SUNPOU
 62
    70
370
    -2
100
AcDbCircle
 10
357.5640158165513
 20
315.8018394007663
 30
0.0
 40
239.9999999999931
100
AcDbArc
 50
270.4774648292757
 51
289.1198614017857
  0
POINT
  5
8A
330
7F
100
AcDbEntity
  8
DEFPOINTS
 62
     0
100
AcDbPoint
 10
436.174922108079
 20
89.04133708164254
 30
0.0
  0
POINT
  5
8C
330
7F
100
AcDbEntity
  8
DEFPOINTS
 62
     0
100
AcDbPoint
 10
357.5640158165513
 20
315.8018394007663
 30
0.0
  0
ENDBLK
  5
8D
330
7F
100
AcDbEntity
  8
0
 62
     1
100
AcDbBlockEnd
  0
BLOCK
  5
91
330
90
100
AcDbEntity
  8
0
 62
     1
100
AcDbBlockBegin
  2
*D2
 70
     1
 10
0.0
 20
0.0
 30
0.0
  3
*D2
  1

  0
LINE
  5
92
330
90
100
AcDbEntity
  8
SUNPOU
 62
    70
370
    -2
100
AcDbLine
 10
124.8847905702932
 20
120.8018394006612
 30
0.0
 11
88.0104712184184
 21
120.8018394006613
 31
0.0
  0
LINE
  5
93
330
90
100
AcDbEntity
  8
SUNPOU
 62
    70
370
    -2
100
AcDbLine
 10
124.8847905702932
 20
75.80183940066127
 30
0.0
 11
88.01047121841838
 21
75.80183940066127
 31
0.0
  0
LINE
  5
94
330
90
100
AcDbEntity
  8
SUNPOU
 62
    60
370
    -2
100
AcDbLine
 10
88.0104712184184
 20
119.8018394006613
 30
0.0
 11
88.01047121841838
 21
76.80183940066128
 31
0.0
  0
INSERT
  5
95
330
90
100
AcDbEntity
  8
SUNPOU
 62
    60
370
    -2
100
AcDbBlockReference
  2
_DOT
 10
88.0104712184184
 20
120.8018394006613
 30
0.0
 50
90.0
  0
INSERT
  5
96
330
90
100
AcDbEntity
  8
SUNPOU
 62
    60
370
    -2
100
AcDbBlockReference
  2
_DOT
 10
88.01047121841838
 20
75.80183940066127
 30
0.0
 50
270.0
  0
MTEXT
  5
97
330
90
100
AcDbEntity
  8
SUNPOU
 62
    60
100
AcDbMText
 10
84.51047121841837
 20
98.30183940066129
 30
0.0
 40
5.0
 41
0.0
 71
     5
 72
     1
  1
\A1;45
  7
SUNPOU
 11
0.0000000000000001
 21
1.0
 31
0.0
 73
     1
 44
1.0
1001
ACAD
1000
MTEXTBEGIN
1070
    73
1070
     1
1070
    44
1040
1.0
1070
    74
1070
     0
1000
MTEXTEND
  0
POINT
  5
98
330
90
100
AcDbEntity
  8
DEFPOINTS
 62
     0
100
AcDbPoint
 10
126.8847905702932
 20
120.8018394006612
 30
0.0
  0
POINT
  5
99
330
90
100
AcDbEntity
  8
DEFPOINTS
 62
     0
100
AcDbPoint
 10
126.8847905702932
 20
75.80183940066127
 30
0.0
  0
POINT
  5
9A
330
90
100
AcDbEntity
  8
DEFPOINTS
 62
     0
100
AcDbPoint
 10
88.01047121841838
 20
75.80183940066127
 30
0.0
  0
ENDBLK
  5
9B
330
90
100
AcDbEntity
  8
0
 62
     1
100
AcDbBlockEnd
  0
BLOCK
  5
A1
330
A0
100
AcDbEntity
  8
0
 62
     1
100
AcDbBlockBegin
  2
*D3
 70
     1
 10
0.0
 20
0.0
 30
0.0
  3
*D3
  1

  0
ARC
  5
A2
330
A0
100
AcDbEntity
  8
SUNPOU
 62
    60
370
    -2
100
AcDbCircle
 10
357.5640158165406
 20
315.8018394007704
 30
0.0
 40
150.9292204593912
100
AcDbArc
 50
270.3796208854722
 51
299.6203791145276
  0
INSERT
  5
A3
330
A0
100
AcDbEntity
  8
SUNPOU
 62
    60
370
    -2
100
AcDbBlockReference
  2
_DOT
 10
357.5640158165406
 20
164.8726189413792
 30
0.0
 50
180.1898104427361
  0
INSERT
  5
A4
330
A0
100
AcDbEntity
  8
SUNPOU
 62
    60
370
    -2
100
AcDbBlockReference
  2
_DOT
 10
433.0286260462361
 20
185.0933003095554
 30
0.0
 50
29.81018955726382
  0
MTEXT
  5
A5
330
A0
100
AcDbEntity
  8
SUNPOU
 62
    60
100
AcDbMText
 10
395.7215058760492
 20
173.3961478093797
 30
0.0
 40
5.0
 41
0.0
 71
     5
 72
     1
  1
\A1;30\U+00B0
  7
SUNPOU
 11
0.9659258262890682
 21
0.2588190451025205
 31
0.0
 73
     1
 44
1.0
1001
ACAD
1000
MTEXTBEGIN
1070
    73
1070
     1
1070
    44
1040
1.0
1070
    74
1070
     0
1000
MTEXTEND
  0
POINT
  5
A6
330
A0
100
AcDbEntity
  8
DEFPOINTS
 62
     0
100
AcDbPoint
 10
383.7725999060042
 20
167.1655729362731
 30
0.0
  0
POINT
  5
A7
330
A0
100
AcDbEntity
  8
DEFPOINTS
 62
     0
100
AcDbPoint
 10
357.5640158165406
 20
315.8018394007704
 30
0.0
  0
POINT
  5
A8
330
A0
100
AcDbEntity
  8
DEFPOINTS
 62
     0
100
AcDbPoint
 10
455.0640158165407
 20
146.9268856628041
 30
0.0
  0
POINT
  5
A9
330
A0
100
AcDbEntity
  8
DEFPOINTS
 62
     0
100
AcDbPoint
 10
357.5640158165406
 20
315.8018394007704
 30
0.0
  0
POINT
  5
AA
330
A0
100
AcDbEntity
  8
DEFPOINTS
 62
     0
100
AcDbPoint
 10
357.5640158165406
 20
5.801839400770404
 30
0.0
  0
ENDBLK
  5
AB
330
A0
100
AcDbEntity
  8
0
 62
     1
100
AcDbBlockEnd
  0
BLOCK
  5
AE
330
AD
100
AcDbEntity
  8
0
 62
     1
100
AcDbBlockBegin
  2
*D4
 70
     1
 10
0.0
 20
0.0
 30
0.0
  3
*D4
  1

  0
LINE
  5
AF
330
AD
100
AcDbEntity
  8
SUNPOU
 62
    70
370
    -2
100
AcDbLine
 10
207.5640158165115
 20
127.2126982644513
 30
0.0
 11
207.5640158165115
 21
164.94571245939
 31
0.0
  0
LINE
  5
B0
330
AD
100
AcDbEntity
  8
SUNPOU
 62
    70
370
    -2
100
AcDbLine
 10
357.5640158166862
 20
127.2126982645604
 30
0.0
 11
357.5640158166862
 21
164.94571245939
 31
0.0
  0
LINE
  5
B1
330
AD
100
AcDbEntity
  8
SUNPOU
 62
    60
370
    -2
100
AcDbLine
 10
208.5640158165115
 20
164.94571245939
 30
0.0
 11
356.5640158166861
 21
164.94571245939
 31
0.0
  0
INSERT
  5
B2
330
AD
100
AcDbEntity
  8
SUNPOU
 62
    60
370
    -2
100
AcDbBlockReference
  2
_DOT
 10
207.5640158165115
 20
164.94571245939
 30
0.0
 50
180.0
  0
INSERT
  5
B3
330
AD
100
AcDbEntity
  8
SUNPOU
 62
    60
370
    -2
100
AcDbBlockReference
  2
_DOT
 10
357.5640158166862
 20
164.94571245939
 30
0.0
  0
MTEXT
  5
B4
330
AD
100
AcDbEntity
  8
SUNPOU
 62
    60
100
AcDbMText
 10
282.5640158165988
 20
168.44571245939
 30
0.0
 40
5.0
 41
0.0
 71
     5
 72
     1
  1
\A1;150
  7
SUNPOU
 73
     1
 44
1.0
1001
ACAD
1000
MTEXTBEGIN
1070
    73
1070
     1
1070
    44
1040
1.0
1070
    74
1070
     0
1000
MTEXTEND
  0
POINT
  5
B5
330
AD
100
AcDbEntity
  8
DEFPOINTS
 62
     0
100
AcDbPoint
 10
207.5640158165115
 20
125.2126982644513
 30
0.0
  0
POINT
  5
B6
330
AD
100
AcDbEntity
  8
DEFPOINTS
 62
     0
100
AcDbPoint
 10
357.5640158166862
 20
125.2126982645604
 30
0.0
  0
POINT
  5
B7
330
AD
100
AcDbEntity
  8
DEFPOINTS
 62
     0
100
AcDbPoint
 10
357.5640158166862
 20
164.94571245939
 30
0.0
  0
ENDBLK
  5
B8
330
AD
100
AcDbEntity
  8
0
 62
     1
100
AcDbBlockEnd
  0
BLOCK
  5
C3
330
C2
100
AcDbEntity
  8
0
 62
     1
100
AcDbBlockBegin
  2
*D5
 70
     1
 10
0.0
 20
0.0
 30
0.0
  3
*D5
  1

  0
LINE
  5
C4
330
C2
100
AcDbEntity
  8
SUNPOU
 62
    70
370
    -2
100
AcDbLine
 10
186.1450118401189
 20
127.2386922003097
 30
0.0
 11
186.1450118401189
 21
165.328112056537
 31
0.0
  0
LINE
  5
C5
330
C2
100
AcDbEntity
  8
SUNPOU
 62
    70
370
    -2
100
AcDbLine
 10
116.197842418107
 20
127.2386922003097
 30
0.0
 11
116.197842418107
 21
165.328112056537
 31
0.0
  0
LINE
  5
C6
330
C2
100
AcDbEntity
  8
SUNPOU
 62
    60
370
    -2
100
AcDbLine
 10
185.145011840119
 20
165.328112056537
 30
0.0
 11
117.197842418107
 21
165.328112056537
 31
0.0
  0
INSERT
  5
C7
330
C2
100
AcDbEntity
  8
SUNPOU
 62
    60
370
    -2
100
AcDbBlockReference
  2
_DOT
 10
186.1450118401189
 20
165.328112056537
 30
0.0
  0
INSERT
  5
C8
330
C2
100
AcDbEntity
  8
SUNPOU
 62
    60
370
    -2
100
AcDbBlockReference
  2
_DOT
 10
116.197842418107
 20
165.328112056537
 30
0.0
 50
180.0
  0
MTEXT
  5
C9
330
C2
100
AcDbEntity
  8
SUNPOU
 62
    60
100
AcDbMText
 10
151.171427129113
 20
168.828112056537
 30
0.0
 40
5.0
 41
0.0
 71
     5
 72
     1
  1
\A1;70
  7
SUNPOU
 73
     1
 44
1.0
1001
ACAD
1000
MTEXTBEGIN
1070
    73
1070
     1
1070
    44
1040
1.0
1070
    74
1070
     0
1000
MTEXTEND
  0
POINT
  5
CA
330
C2
100
AcDbEntity
  8
DEFPOINTS
 62
     0
100
AcDbPoint
 10
186.1450118401189
 20
125.2386922003097
 30
0.0
  0
POINT
  5
CB
330
C2
100
AcDbEntity
  8
DEFPOINTS
 62
     0
100
AcDbPoint
 10
116.197842418107
 20
125.2386922003097
 30
0.0
  0
POINT
  5
CC
330
C2
100
AcDbEntity
  8
DEFPOINTS
 62
     0
100
AcDbPoint
 10
116.197842418107
 20
165.328112056537
 30
0.0
  0
ENDBLK
  5
CD
330
C2
100
AcDbEntity
  8
0
 62
     1
100
AcDbBlockEnd
  0
ENDSEC
  0
SECTION
  2
ENTITIES
  0
LINE
  5
72
330
2
100
AcDbEntity
  8
HOJO2
 62
     2
370
    30
100
AcDbLine
 10
207.5640158165406
 20
75.80183940066127
 30
0.0
 11
357.5640158165406
 21
75.8018394007704
 31
0.0
  0
LINE
  5
73
330
2
100
AcDbEntity
  8
HOJO2
 62
     2
370
    30
100
AcDbLine
 10
207.5640158165115
 20
120.8018394006612
 30
0.0
 11
357.5640158165115
 21
120.8018394007704
 31
0.0
  0
ARC
  5
74
330
2
100
AcDbEntity
  8
HOJO2
 62
     2
370
    30
100
AcDbCircle
 10
357.5640158165406
 20
315.8018394007704
 30
0.0
 40
239.9999999999998
100
AcDbArc
 50
270.0
 51
300.000000000015
  0
ARC
  5
75
330
2
100
AcDbEntity
  8
HOJO2
 62
     2
370
    30
100
AcDbCircle
 10
357.5640158165406
 20
315.8018394007704
 30
0.0
 40
194.9999999999998
100
AcDbArc
 50
270.0
 51
300.000000000015
  0
ARC
  5
76
330
2
100
AcDbEntity
  8
HOJO2
  6
CENTER2
 62
     1
 48
0.05
370
    18
100
AcDbCircle
 10
357.5640158165406
 20
315.8018394007704
 30
0.0
 40
217.4999999999998
100
AcDbArc
 50
270.0
 51
300.000000000015
  0
ARC
  5
78
330
2
100
AcDbEntity
  8
HOJO2
 62
     4
370
     9
100
AcDbCircle
 10
357.5640158165406
 20
315.8018394007704
 30
0.0
 40
202.7449999999998
100
AcDbArc
 50
270.0
 51
300.000000000015
  0
LINE
  5
79
330
2
100
AcDbEntity
  8
HOJO2
 62
     2
370
    30
100
AcDbLine
 10
455.0640158165406
 20
146.9268856628041
 30
0.0
 11
477.5640158165406
 21
107.9557424925042
 31
0.0
  0
LINE
  5
7A
330
2
100
AcDbEntity
  8
HOJO2
  6
DASHED
 62
     3
 48
0.5
370
    18
100
AcDbLine
 10
357.5640158165406
 20
315.8018394007704
 30
0.0
 11
357.5640158165406
 21
53.07651965097466
 31
0.0
  0
LINE
  5
7C
330
2
100
AcDbEntity
  8
HOJO2
 62
     2
370
    30
100
AcDbLine
 10
207.5640158165406
 20
120.8018394006612
 30
0.0
 11
207.5640158165406
 21
75.80183940066127
 31
0.0
  0
DIMENSION
  5
7D
330
2
100
AcDbEntity
  8
SUNPOU
100
AcDbDimension
  2
*D1
 10
357.5640158165513
 20
315.8018394007663
 30
0.0
 11
443.3305050540891
 21
79.08592987235329
 31
0.0
 70
     4
 71
     5
 42
239.9999999999931
  3
STANDARD
100
AcDbRadialDimension
 15
436.174922108079
 25
89.04133708164254
 35
0.0
 40
0.0
1001
ACAD_DSTYLE_DIMRADIAL_EXTENSION
1070
   387
1070
     1
1070
   388
1040
4.188790204786324
1070
   390
1040
4.712388980384689
1001
ACAD
1000
DSTYLE
1002
{
1070
    41
1040
1.0
1070
    42
1040
2.0
1070
    44
1040
0.0
1070
    73
1070
     0
1070
    74
1070
     0
1070
    77
1070
     1
1070
   140
1040
5.0
1070
   141
1040
0.0
1070
   146
1040
0.064286
1070
   147
1040
1.0
1070
   176
1070
    60
1070
   177
1070
    70
1070
   178
1070
    60
1070
   271
1070
     0
1070
   272
1070
     0
1070
   340
1005
4B
1070
   342
1005
84
1002
}
  0
DIMENSION
  5
8F
330
2
100
AcDbEntity
  8
SUNPOU
100
AcDbDimension
  2
*D2
 10
88.01047121841838
 20
75.80183940066127
 30
0.0
 11
84.51047121841837
 21
98.30183940066129
 31
0.0
 70
     1
 71
     5
 42
45.0
  3
STANDARD$0
100
AcDbAlignedDimension
 13
126.8847905702932
 23
120.8018394006612
 33
0.0
 14
126.8847905702932
 24
75.80183940066127
 34
0.0
1001
ACAD
1000
DSTYLE
1002
{
1070
    40
1040
1.0
1070
    43
1040
0.38
1070
    44
1040
0.0
1070
    77
1070
     1
1070
    78
1070
     0
1070
   140
1040
5.0
1070
   146
1040
0.064286
1070
   172
1070
     0
1070
   173
1070
     0
1070
   176
1070
    60
1070
   177
1070
    70
1070
   178
1070
    60
1070
   271
1070
     0
1070
   272
1070
     0
1070
   340
1005
4B
1070
   341
1005
0
1070
   342
1005
84
1070
   343
1005
0
1070
   344
1005
0
1002
}
  0
LINE
  5
9E
330
2
100
AcDbEntity
  8
HOJO2
  6
DASHED
 62
     3
 48
0.5
370
    18
100
AcDbLine
 10
455.0640158165406
 20
146.9268856628041
 30
0.0
 11
357.5640158165406
 21
315.8018394007704
 31
0.0
  0
DIMENSION
  5
9F
330
2
100
AcDbEntity
  8
SUNPOU
100
AcDbDimension
  2
*D3
 10
357.5640158165406
 20
5.801839400770404
 30
0.0
 11
395.7215058760492
 21
173.3961478093797
 31
0.0
 70
     2
 71
     5
 42
0.5235987755982974
  3
STANDARD
100
AcDb2LineAngularDimension
 13
455.0640158165406
 23
146.9268856628041
 33
0.0
 14
357.5640158165406
 24
315.8018394007704
 34
0.0
 15
357.5640158165406
 25
315.8018394007704
 35
0.0
 16
383.7725999060042
 26
167.1655729362731
 36
0.0
1001
ACAD
1000
DSTYLE
1002
{
1070
    41
1040
1.0
1070
    42
1040
2.0
1070
    44
1040
0.0
1070
    73
1070
     0
1070
    74
1070
     0
1070
    77
1070
     1
1070
   140
1040
5.0
1070
   141
1040
0.0
1070
   146
1040
0.064286
1070
   147
1040
1.0
1070
   176
1070
    60
1070
   177
1070
    70
1070
   178
1070
    60
1070
   271
1070
     0
1070
   272
1070
     0
1070
   340
1005
4B
1070
   342
1005
84
1002
}
  0
DIMENSION
  5
AC
330
2
100
AcDbEntity
  8
SUNPOU
100
AcDbDimension
  2
*D4
 10
357.5640158166862
 20
164.94571245939
 30
0.0
 11
282.5640158165988
 21
168.44571245939
 31
0.0
 71
     5
 42
150.0000000001746
  3
STANDARD$0
100
AcDbAlignedDimension
 13
207.5640158165115
 23
125.2126982644513
 33
0.0
 14
357.5640158166862
 24
125.2126982645604
 34
0.0
 50
180.0
100
AcDbRotatedDimension
1001
ACAD
1000
DSTYLE
1002
{
1070
    40
1040
1.0
1070
    43
1040
0.38
1070
    44
1040
0.0
1070
    77
1070
     1
1070
    78
1070
     0
1070
   140
1040
5.0
1070
   146
1040
0.064286
1070
   172
1070
     0
1070
   173
1070
     0
1070
   176
1070
    60
1070
   177
1070
    70
1070
   178
1070
    60
1070
   271
1070
     0
1070
   272
1070
     0
1070
   340
1005
4B
1070
   341
1005
0
1070
   342
1005
84
1070
   343
1005
0
1070
   344
1005
0
1002
}
  0
LINE
  5
B9
330
2
100
AcDbEntity
  8
HOJO2
 62
     2
370
    30
100
AcDbLine
 10
207.5640158165188
 20
344.0808751208097
 30
0.0
 11
207.5640158165115
 21
414.0808751208096
 31
0.0
  0
LINE
  5
BA
330
2
100
AcDbEntity
  8
HOJO2
 62
     2
370
    30
100
AcDbLine
 10
207.5640158165115
 20
414.0808751208096
 30
0.0
 11
477.5640158165406
 21
414.0808751208096
 31
0.0
  0
LINE
  5
BB
330
2
100
AcDbEntity
  8
HOJO2
 62
     2
370
    30
100
AcDbLine
 10
207.5640158165115
 20
344.0808751208097
 30
0.0
 11
477.5640158165406
 21
344.0808751208097
 31
0.0
  0
LINE
  5
BC
330
2
100
AcDbEntity
  8
HOJO2
  6
CENTER2
 62
     1
 48
0.05
370
    18
100
AcDbLine
 10
207.5640158165188
 20
379.0808751208097
 30
0.0
 11
477.5640158165479
 21
379.0808751208097
 31
0.0
  0
LINE
  5
BD
330
2
100
AcDbEntity
  8
HOJO2
 62
     4
370
     9
100
AcDbLine
 10
458.309033452897
 20
402.7604388117615
 30
0.0
 11
207.5640158165115
 21
402.7604388117615
 31
0.0
  0
LINE
  5
BE
330
2
100
AcDbEntity
  8
HOJO2
 62
     4
370
     9
100
AcDbLine
 10
458.309033452897
 20
355.4013114298578
 30
0.0
 11
207.5640158165188
 21
355.4013114298578
 31
0.0
  0
LINE
  5
BF
330
2
100
AcDbEntity
  8
HOJO2
 62
     4
370
     9
100
AcDbLine
 10
207.5640158165479
 20
113.0572395329691
 30
0.0
 11
357.5640158165406
 21
113.0572395329691
 31
0.0
  0
LWPOLYLINE
  5
C0
330
2
100
AcDbEntity
  8
HOJO2
 62
     2
370
    30
100
AcDbPolyline
 90
       24
 70
     0
 43
0.0
 10
181.7104745513134
 20
110.3859631735977
 42
-0.4707435892740452
 10
182.6100041849786
 20
101.9628798052726
 10
178.1438146207001
 20
97.24480555373157
 42
0.2254269255554346
 10
176.1589825164483
 20
92.31478538689044
 42
0.3851803924198995
 10
181.349204317361
 20
85.82562749657517
 42
-0.2913679967853722
 10
186.0483845839553
 20
79.85517593546319
 10
186.1426937040887
 20
77.89810554403811
 42
-0.4283882253726226
 10
184.145011840119
 20
75.80183940066127
 10
118.197842418107
 20
75.80183940066127
 42
-0.4283882253726226
 10
116.20016055413
 20
77.89810554403811
 10
116.2796219463562
 20
79.54706099782924
 42
-0.3291223494390865
 10
121.5341124795959
 20
85.99109219843013
 42
0.3425179541177139
 10
126.1952760307249
 20
91.99708773486054
 10
126.1952760307249
 20
92.66688667974085
 42
0.191796042995769
 10
124.4978809207605
 20
96.92911018446466
 10
119.7328500732474
 20
101.9628798052726
 42
-0.4701580506011844
 10
120.6323797069126
 20
110.3859631735977
 42
-0.1105562666581898
 10
127.4918634381611
 20
113.0572395329691
 10
127.4918634381611
 20
115.302402040681
 42
-0.3131723023264464
 10
128.4679367368007
 20
116.7079271424154
 42
-0.1803208311807726
 10
173.8749175214252
 20
116.7079271424154
 42
-0.3131723023264544
 10
174.8509908200649
 20
115.302402040681
 10
174.8509908200649
 20
113.0572395329691
 42
-0.112065449377357
 10
181.7937038257441
 20
110.3296852714557
  0
DIMENSION
  5
C1
330
2
100
AcDbEntity
  8
SUNPOU
100
AcDbDimension
  2
*D5
 10
116.197842418107
 20
165.328112056537
 30
0.0
 11
151.171427129113
 21
168.828112056537
 31
0.0
 71
     5
 42
69.94716942201193
  3
STANDARD$0
100
AcDbAlignedDimension
 13
186.1450118401189
 23
125.2386922003097
 33
0.0
 14
116.197842418107
 24
125.2386922003097
 34
0.0
 50
180.0
100
AcDbRotatedDimension
1001
ACAD
1000
DSTYLE
1002
{
1070
    40
1040
1.0
1070
    43
1040
0.38
1070
    44
1040
0.0
1070
    77
1070
     1
1070
    78
1070
     0
1070
   140
1040
5.0
1070
   146
1040
0.064286
1070
   172
1070
     0
1070
   173
1070
     0
1070
   176
1070
    60
1070
   177
1070
    70
1070
   178
1070
    60
1070
   271
1070
     0
1070
   272
1070
     0
1070
   340
1005
4B
1070
   341
1005
0
1070
   342
1005
84
1070
   343
1005
0
1070
   344
1005
0
1002
}
  0
LINE
  5
CE
330
2
100
AcDbEntity
  8
HOJO2
  6
CENTER2
 62
     1
 48
0.05
370
    18
100
AcDbLine
 10
151.1450118401189
 20
133.3792159155455
 30
0.0
 11
151.1450118401189
 21
61.86063813543296
 31
0.0
  0
LINE
  5
CF
330
2
100
AcDbEntity
  8
HOJO2
  6
CENTER2
 62
     1
 48
0.05
370
    18
100
AcDbLine
 10
357.5640158165406
 20
98.30183940066127
 30
0.0
 11
103.184676386154
 21
98.30183940066127
 31
0.0
  0
LINE
  5
D0
330
2
100
AcDbEntity
  8
HOJO2
 62
     2
370
    30
100
AcDbLine
 10
473.8187942193254
 20
413.9726803035573
 30
0.0
 11
475.4677496731674
 21
414.0521416957853
 31
0.0
  0
ARC
  5
D1
330
2
100
AcDbEntity
  8
HOJO2
 62
     2
370
    30
100
AcDbCircle
 10
475.5640158165406
 20
412.0544598318137
 30
0.0
 40
2.000000000000242
100
AcDbArc
 50
0.0
 51
92.75888785792069
  0
LINE
  5
D2
330
2
100
AcDbEntity
  8
HOJO2
 62
     2
370
    30
100
AcDbLine
 10
477.5640158165479
 20
412.0544598318156
 30
0.0
 11
477.5640158165479
 21
346.1072904098037
 31
0.0
  0
ARC
  5
D3
330
2
100
AcDbEntity
  8
HOJO2
 62
     2
370
    30
100
AcDbCircle
 10
458.309033452897
 20
401.2604388117615
 30
0.0
 40
1.499999999994911
100
AcDbArc
 50
90.0
 51
159.5564437928504
  0
LINE
  5
D4
330
2
100
AcDbEntity
  8
HOJO2
 62
     2
370
    30
100
AcDbLine
 10
458.3090334529043
 20
402.7604388117615
 30
0.0
 11
458.5369933831243
 21
402.7604388117615
 31
0.0
  0
ARC
  5
D5
330
2
100
AcDbEntity
  8
HOJO2
 62
     2
370
    30
100
AcDbCircle
 10
475.5640158165406
 20
412.0544598318174
 30
0.0
 40
2.000000000007275
100
AcDbArc
 50
0.0
 51
92.75888785792069
  0
LINE
  5
D6
330
2
100
AcDbEntity
  8
HOJO2
 62
     2
370
    30
100
AcDbLine
 10
475.4677496731674
 20
414.0521416957926
 30
0.0
 11
473.8187942193762
 21
413.9726803035664
 31
0.0
  0
LINE
  5
D7
330
2
100
AcDbEntity
  8
HOJO2
 62
     2
370
    30
100
AcDbLine
 10
458.5369933831243
 20
402.7604388117615
 30
0.0
 11
458.3090334529043
 21
402.7604388117615
 31
0.0
  0
ARC
  5
D8
330
2
100
AcDbEntity
  8
HOJO2
 62
     2
370
    30
100
AcDbCircle
 10
458.309033452897
 20
401.2604388117597
 30
0.0
 40
1.500000000001364
100
AcDbArc
 50
90.0
 51
159.5564437928504
  0
ARC
  5
D9
330
2
100
AcDbEntity
  8
HOJO2
 62
     2
370
    30
100
AcDbCircle
 10
475.5640158165406
 20
412.0544598318174
 30
0.0
 40
2.000000000007275
100
AcDbArc
 50
0.0
 51
92.75888785792069
  0
LINE
  5
DA
330
2
100
AcDbEntity
  8
HOJO2
 62
     2
370
    30
100
AcDbLine
 10
475.4677496731674
 20
414.0521416957926
 30
0.0
 11
473.8187942193762
 21
413.9726803035664
 31
0.0
  0
ARC
  5
DB
330
2
100
AcDbEntity
  8
HOJO2
 62
     2
370
    30
100
AcDbCircle
 10
474.5676102197394
 20
409.8377679512741
 30
0.0
 40
4.202169149800698
100
AcDbArc
 50
100.2647863410842
 51
195.4518596792094
  0
ARC
  5
DC
330
2
100
AcDbEntity
  8
HOJO2
 62
     2
370
    30
100
AcDbCircle
 10
467.0052478588258
 20
407.6924291651685
 30
0.0
 40
3.658812025376259
100
AcDbArc
 50
0.0000000003126612
 51
16.28130133927702
  0
LINE
  5
DD
330
2
100
AcDbEntity
  8
HOJO2
 62
     2
370
    30
100
AcDbLine
 10
467.4821677441723
 20
405.9137149860398
 30
0.0
 11
464.0297987279918
 21
411.4240429976071
 31
0.0
  0
ARC
  5
DE
330
2
100
AcDbEntity
  8
HOJO2
 62
     2
370
    30
100
AcDbCircle
 10
473.0896297662111
 20
402.7308777049293
 30
0.0
 40
14.55266640713612
100
AcDbArc
 50
142.1258217741473
 51
179.8836139181788
  0
ARC
  5
DF
330
2
100
AcDbEntity
  8
HOJO2
 62
     2
370
    30
100
AcDbCircle
 10
462.6657703289383
 20
410.0317228285839
 30
0.0
 40
1.949135430516727
100
AcDbArc
 50
45.58807587333426
 51
123.0655824769615
  0
LINE
  5
E0
330
2
100
AcDbEntity
  8
HOJO2
 62
     2
370
    30
100
AcDbLine
 10
458.5369933831243
 20
402.7604388117615
 30
0.0
 11
458.3090334529043
 21
402.7604388117615
 31
0.0
  0
ARC
  5
E1
330
2
100
AcDbEntity
  8
HOJO2
 62
     2
370
    30
100
AcDbCircle
 10
458.309033452897
 20
401.2604388117597
 30
0.0
 40
1.500000000001364
100
AcDbArc
 50
90.0
 51
159.5564437928504
  0
ARC
  5
E2
330
2
100
AcDbEntity
  8
HOJO2
 62
     2
370
    30
100
AcDbCircle
 10
468.7795879072946
 20
407.3281523763034
 30
0.0
 40
1.91935723893564
100
AcDbArc
 50
227.470792278336
 51
10.94058925048989
  0
LINE
  5
E3
330
2
100
AcDbEntity
  8
HOJO2
 62
     2
370
    30
100
AcDbLine
 10
473.8187942193762
 20
344.1890699380565
 30
0.0
 11
475.4677496732183
 21
344.1096085458321
 31
0.0
  0
ARC
  5
E4
330
2
100
AcDbEntity
  8
HOJO2
 62
     2
370
    30
100
AcDbCircle
 10
475.5640158165842
 20
346.1072904098037
 30
0.0
 40
2.000000000000242
100
AcDbArc
 50
267.2411121420793
 51
0.0
  0
ARC
  5
E5
330
2
100
AcDbEntity
  8
HOJO2
 62
     2
370
    30
100
AcDbCircle
 10
458.309033452926
 20
356.9013114298305
 30
0.0
 40
1.499999999994911
100
AcDbArc
 50
200.4435562073661
 51
270.0
  0
LINE
  5
E6
330
2
100
AcDbEntity
  8
HOJO2
 62
     2
370
    30
100
AcDbLine
 10
458.3090334529333
 20
355.4013114298286
 30
0.0
 11
458.5369933831534
 21
355.4013114298323
 31
0.0
  0
ARC
  5
E7
330
2
100
AcDbEntity
  8
HOJO2
 62
     2
370
    30
100
AcDbCircle
 10
475.5640158165842
 20
346.1072904098001
 30
0.0
 40
2.000000000007275
100
AcDbArc
 50
267.2411121420793
 51
0.0000000001042204
  0
LINE
  5
E8
330
2
100
AcDbEntity
  8
HOJO2
 62
     2
370
    30
100
AcDbLine
 10
475.4677496732183
 20
344.1096085458248
 30
0.0
 11
473.8187942194271
 21
344.1890699380492
 31
0.0
  0
LINE
  5
E9
330
2
100
AcDbEntity
  8
HOJO2
 62
     2
370
    30
100
AcDbLine
 10
458.5369933831534
 20
355.4013114298323
 30
0.0
 11
458.3090334529333
 21
355.4013114298286
 31
0.0
  0
ARC
  5
EA
330
2
100
AcDbEntity
  8
HOJO2
 62
     2
370
    30
100
AcDbCircle
 10
458.309033452926
 20
356.9013114298323
 30
0.0
 40
1.500000000001364
100
AcDbArc
 50
200.4435562073661
 51
270.0
  0
ARC
  5
EB
330
2
100
AcDbEntity
  8
HOJO2
 62
     2
370
    30
100
AcDbCircle
 10
475.5640158165842
 20
346.1072904098001
 30
0.0
 40
2.000000000007275
100
AcDbArc
 50
267.2411121420793
 51
0.0000000001042204
  0
LINE
  5
EC
330
2
100
AcDbEntity
  8
HOJO2
 62
     2
370
    30
100
AcDbLine
 10
475.4677496732183
 20
344.1096085458248
 30
0.0
 11
473.8187942194271
 21
344.1890699380492
 31
0.0
  0
ARC
  5
ED
330
2
100
AcDbEntity
  8
HOJO2
 62
     2
370
    30
100
AcDbCircle
 10
474.5676102197831
 20
348.3239822903415
 30
0.0
 40
4.202169149800698
100
AcDbArc
 50
164.5481403208916
 51
259.7352136591279
  0
ARC
  5
EE
330
2
100
AcDbEntity
  8
HOJO2
 62
     2
370
    30
100
AcDbCircle
 10
467.0052478588623
 20
350.4693210764362
 30
0.0
 40
3.658812025376259
100
AcDbArc
 50
343.7186986608241
 51
359.9999999997915
  0
LINE
  5
EF
330
2
100
AcDbEntity
  8
HOJO2
 62
     2
370
    30
100
AcDbLine
 10
467.4821677442086
 20
352.2480352555649
 30
0.0
 11
464.0297987280355
 21
346.7377072439922
 31
0.0
  0
ARC
  5
F0
330
2
100
AcDbEntity
  8
HOJO2
 62
     2
370
    30
100
AcDbCircle
 10
473.0896297662402
 20
355.4308725366827
 30
0.0
 40
14.55266640713612
100
AcDbArc
 50
180.1163860819253
 51
217.8741782258943
  0
ARC
  5
F1
330
2
100
AcDbEntity
  8
HOJO2
 62
     2
370
    30
100
AcDbCircle
 10
462.665770328982
 20
348.1300274130153
 30
0.0
 40
1.949135430516727
100
AcDbArc
 50
236.9344175233023
 51
314.4119241267026
  0
LINE
  5
F2
330
2
100
AcDbEntity
  8
HOJO2
 62
     2
370
    30
100
AcDbLine
 10
458.5369933831534
 20
355.4013114298323
 30
0.0
 11
458.3090334529333
 21
355.4013114298286
 31
0.0
  0
ARC
  5
F3
330
2
100
AcDbEntity
  8
HOJO2
 62
     2
370
    30
100
AcDbCircle
 10
458.309033452926
 20
356.9013114298323
 30
0.0
 40
1.500000000001364
100
AcDbArc
 50
200.4435562073661
 51
270.0
  0
ARC
  5
F4
330
2
100
AcDbEntity
  8
HOJO2
 62
     2
370
    30
100
AcDbCircle
 10
468.779587907331
 20
350.8335978653031
 30
0.0
 40
1.91935723893564
100
AcDbArc
 50
349.0594107496174
 51
132.5292077216639
  0
ARC
  5
F5
330
2
100
AcDbEntity
  8
HOJO2
 62
     2
370
    30
100
AcDbCircle
 10
596.0899235082397
 20
379.0808751209079
 30
0.0
 40
141.0259076916992
100
AcDbArc
 50
170.7357473247362
 51
189.2642526752637
  0
MTEXT
  5
F6
102
{ACAD_XDICTIONARY
360
10A
102
}
330
2
100
AcDbEntity
  8
0
100
AcDbMText
 10
113.240451838669
 20
23.59002445834307
 30
0.0
 40
9.000000000000001
 41
296.9465356365181
 71
     1
 72
     5
  1
{\fMS PGothic|b0|i0|c128|p50;45×70×150+30度（R240）}
 73
     1
 44
1.0
1001
ACAD
1000
MTEXTBEGIN
1070
    73
1070
     1
1070
    44
1040
1.0
1070
    74
1070
     0
1000
MTEXTEND
  0
LINE
  5
F7
330
2
100
AcDbEntity
  8
HOJO2
 62
     1
100
AcDbLine
 10
108.6726631118533
 20
44.55705556400192
 30
0.0
 11
189.140621315574
 21
44.55705556400192
 31
0.0
  0
LINE
  5
F8
330
2
100
AcDbEntity
  8
HOJO2
 62
     1
100
AcDbLine
 10
108.6726631118533
 20
44.55705556400192
 30
0.0
 11
189.140621315574
 21
44.55705556400192
 31
0.0
  0
MTEXT
  5
F9
102
{ACAD_XDICTIONARY
360
10C
102
}
330
2
100
AcDbEntity
  8
0
100
AcDbMText
 10
115.1082449396708
 20
41.17138426740348
 30
0.0
 40
9.000000000000001
 41
296.9465356365181
 71
     1
 72
     5
  1
{\fMS PGothic|b0|i0|c128|p50;H-HBR30}
 73
     1
 44
1.0
1001
ACAD
1000
MTEXTBEGIN
1070
    73
1070
     1
1070
    44
1040
1.0
1070
    74
1070
     0
1000
MTEXTEND
  0
LINE
  5
FA
330
2
100
AcDbEntity
  8
HOJO2
 62
     1
100
AcDbLine
 10
106.7434940486007
 20
27.84128115217157
 30
0.0
 11
187.2114522523213
 21
27.84128115217157
 31
0.0
  0
LINE
  5
FB
330
2
100
AcDbEntity
  8
HOJO2
 62
     1
100
AcDbLine
 10
106.7434940486007
 20
27.84128115217157
 30
0.0
 11
187.2114522523213
 21
27.84128115217157
 31
0.0
  0
ENDSEC
  0
SECTION
  2
OBJECTS
  0
DICTIONARY
  5
B
330
0
100
AcDbDictionary
281
     1
  3
ACAD_COLOR
350
45
  3
ACAD_GROUP
350
32
  3
ACAD_LAYOUT
350
18
  3
ACAD_MATERIAL
350
D
  3
ACAD_MLINESTYLE
350
33
  3
ACAD_PLOTSETTINGS
350
34
  3
ACAD_PLOTSTYLENAME
350
A
  3
ACAD_SCALELIST
350
46
  3
ACAD_TABLESTYLE
350
47
  3
ACAD_VISUALSTYLE
350
2C
  3
ACDB_RECOMPOSE_DATA
350
10E
  3
AcDbVariableDictionary
350
100
  0
DICTIONARY
  5
1F
330
1E
100
AcDbDictionary
280
     1
281
     1
  3
ACAD_LAYERSTATES
360
20
  0
DICTIONARY
  5
7
330
6
100
AcDbDictionary
280
     1
281
     1
  3
ADSK_XREC_LAYER_RECONCILED
360
8
  0
DICTIONARY
  5
49
330
48
100
AcDbDictionary
280
     1
281
     1
  3
ADSK_XREC_LAYER_RECONCILED
360
4A
  0
DICTIONARY
  5
3
330
2
100
AcDbDictionary
280
     1
281
     1
  3
ACAD_SORTENTS
360
FC
  0
DICTIONARY
  5
10A
330
F6
100
AcDbDictionary
280
     1
281
     1
  3
ACAD_MTEXT_2008_RT
360
10B
  3
ACAD_MTEXT_RT
360
117
  0
DICTIONARY
  5
10C
330
F9
100
AcDbDictionary
280
     1
281
     1
  3
ACAD_MTEXT_2008_RT
360
10D
  3
ACAD_MTEXT_RT
360
118
  0
DICTIONARY
  5
45
102
{ACAD_REACTORS
330
B
102
}
330
B
100
AcDbDictionary
281
     1
  0
DICTIONARY
  5
32
102
{ACAD_REACTORS
330
B
102
}
330
B
100
AcDbDictionary
281
     1
  0
DICTIONARY
  5
18
102
{ACAD_REACTORS
330
B
102
}
330
B
100
AcDbDictionary
281
     1
  3
Model
350
17
  3
レイアウト1
350
1D
  0
DICTIONARY
  5
D
102
{ACAD_REACTORS
330
B
102
}
330
B
100
AcDbDictionary
281
     1
  3
ByBlock
350
3D
  3
ByLayer
350
35
  3
Global
350
C
  0
DICTIONARY
  5
33
102
{ACAD_REACTORS
330
B
102
}
330
B
100
AcDbDictionary
281
     1
  3
STANDARD
350
4C
  0
DICTIONARY
  5
34
102
{ACAD_REACTORS
330
B
102
}
330
B
100
AcDbDictionary
281
     1
  0
ACDBDICTIONARYWDFLT
  5
A
102
{ACAD_REACTORS
330
B
102
}
330
B
100
AcDbDictionary
281
     1
  3
Normal
350
9
100
AcDbDictionaryWithDefault
340
9
  0
DICTIONARY
  5
46
102
{ACAD_REACTORS
330
B
102
}
330
B
100
AcDbDictionary
281
     1
  3
A0
350
51
  3
A1
350
52
  3
A2
350
53
  3
A3
350
54
  3
A4
350
55
  3
A5
350
56
  3
A6
350
57
  3
A7
350
58
  3
A8
350
59
  3
A9
350
5A
  3
B0
350
5B
  3
B1
350
5C
  3
B2
350
5D
  3
B3
350
5E
  3
B4
350
5F
  3
B5
350
60
  3
B6
350
61
  3
B7
350
62
  3
B8
350
63
  3
B9
350
64
  3
C0
350
65
  3
C1
350
66
  3
C2
350
67
  3
C3
350
68
  3
C4
350
69
  3
C5
350
6A
  3
C6
350
6B
  3
C7
350
6C
  3
C8
350
6D
  3
C9
350
6E
  3
D0
350
6F
  3
D1
350
70
  3
D2
350
71
  0
DICTIONARY
  5
47
102
{ACAD_REACTORS
330
B
102
}
330
B
100
AcDbDictionary
281
     1
  3
Standard
350
4D
  0
DICTIONARY
  5
2C
102
{ACAD_REACTORS
330
B
102
}
330
B
100
AcDbDictionary
281
     1
  3
2dWireframe
350
2B
  3
3dWireframe
350
50
  3
Realistic
350
4F
  0
XRECORD
  5
10E
102
{ACAD_REACTORS
330
B
102
}
330
B
100
AcDbXrecord
280
     1
 90
        1
330
4D
330
F6
330
F9
  0
DICTIONARY
  5
100
102
{ACAD_REACTORS
330
B
102
}
330
B
100
AcDbDictionary
281
     1
  3
CANNOSCALE
350
104
  3
CMLEADERSTYLE
350
102
  3
CTABLESTYLE
350
101
  3
DIMASSOC
350
108
  3
HIDETEXT
350
107
  3
INDEXCTL
350
106
  3
MSLTSCALE
350
103
  3
SORTENTS
350
105
  0
DICTIONARY
  5
20
102
{ACAD_REACTORS
330
1F
102
}
330
1F
100
AcDbDictionary
281
     1
  0
XRECORD
  5
8
102
{ACAD_REACTORS
330
7
102
}
330
7
100
AcDbXrecord
280
     1
290
     1
  0
XRECORD
  5
4A
102
{ACAD_REACTORS
330
49
102
}
330
49
100
AcDbXrecord
280
     1
290
     1
  0
SORTENTSTABLE
  5
FC
102
{ACAD_REACTORS
330
3
102
}
330
3
100
AcDbSortentsTable
330
2
  0
XRECORD
  5
10B
102
{ACAD_REACTORS
330
10A
102
}
330
10A
100
AcDbXrecord
280
     1
 40
7043855.0
  1
\pxql;{\fMS PGothic|b0|i0|c128|p50;45×70×150+30度（R240）}
  0
XRECORD
  5
117
102
{ACAD_REACTORS
330
10A
102
}
330
10A
100
AcDbXrecord
280
     1
 40
71669.0
  1
\pxql;{\fMS PGothic|b0|i0|c128|p50;45×70×150+30度（R240）}
  0
XRECORD
  5
10D
102
{ACAD_REACTORS
330
10C
102
}
330
10C
100
AcDbXrecord
280
     1
 40
54982.0
  1
\pxql;{\fMS PGothic|b0|i0|c128|p50;H-HBR30}
  0
XRECORD
  5
118
102
{ACAD_REACTORS
330
10C
102
}
330
10C
100
AcDbXrecord
280
     1
 40
54982.0
  1
\pxql;{\fMS PGothic|b0|i0|c128|p50;H-HBR30}
  0
LAYOUT
  5
17
102
{ACAD_XDICTIONARY
360
110
102
}
102
{ACAD_REACTORS
330
18
102
}
330
18
100
AcDbPlotSettings
  1

  2
Microsoft Office Document Image Writer
  4
A4
  6

 40
3.174999952316284
 41
3.174999952316284
 42
3.175003051757812
 43
3.17498779296875
 44
209.9733276367187
 45
297.0106506347656
 46
0.0
 47
0.0
 48
0.0
 49
0.0
140
0.0
141
0.0
142
1.0
143
353.2496032079293
 70
 11952
 72
     0
 73
     1
 74
     0
  7
monochrome.ctb
 75
     0
147
0.0028308595138361
148
-597007.8864149829
149
236279.8017574714
100
AcDbLayout
  1
Model
 70
     1
 71
     0
 10
0.0
 20
0.0
 11
12.0
 21
9.0
 12
0.0
 22
0.0
 32
0.0
 14
0.0
 24
0.0
 34
0.0
 15
0.0
 25
0.0
 35
0.0
146
0.0
 13
0.0
 23
0.0
 33
0.0
 16
1.0
 26
0.0
 36
0.0
 17
0.0
 27
1.0
 37
0.0
 76
     0
330
2
331
2A
1001
ACAD_PSEXT
1000
Microsoft Office Document Image Writer
1000
Microsoft Office Document Image Writer Driver
1000
Microsoft Document Imaging Writer Port:
1000

1070
     0
  0
LAYOUT
  5
1D
102
{ACAD_XDICTIONARY
360
112
102
}
102
{ACAD_REACTORS
330
18
102
}
330
18
100
AcDbPlotSettings
  1

  2
Microsoft Office Document Image Writer
  4

  6

 40
0.0
 41
0.0
 42
0.0
 43
0.0
 44
0.0
 45
0.0
 46
0.0
 47
0.0
 48
0.0
 49
0.0
140
0.0
141
0.0
142
1.0
143
1.0
 70
   688
 72
     0
 73
     0
 74
     5
  7
monochrome.ctb
 75
    16
147
1.0
148
0.0
149
0.0
100
AcDbLayout
  1
レイアウト1
 70
     1
 71
     1
 10
0.0
 20
0.0
 11
12.0
 21
9.0
 12
0.0
 22
0.0
 32
0.0
 14
1.000000000000000E+20
 24
1.000000000000000E+20
 34
1.000000000000000E+20
 15
-1.000000000000000E+20
 25
-1.000000000000000E+20
 35
-1.000000000000000E+20
146
0.0
 13
0.0
 23
0.0
 33
0.0
 16
1.0
 26
0.0
 36
0.0
 17
0.0
 27
1.0
 37
0.0
 76
     0
330
1A
  0
MATERIAL
  5
3D
102
{ACAD_XDICTIONARY
360
3E
102
}
102
{ACAD_REACTORS
330
D
102
}
330
D
100
AcDbMaterial
  1
ByBlock
 72
     0
 43
0.0208333333333333
 43
0.0
 43
0.0
 43
0.0
 43
0.0
 43
0.0208333333333333
 43
0.0
 43
0.0
 43
0.0
 43
0.0
 43
1.0
 43
0.0
 43
0.0
 43
0.0
 43
0.0
 43
1.0
 77
     0
 47
0.0208333333333333
 47
0.0
 47
0.0
 47
0.0
 47
0.0
 47
0.0208333333333333
 47
0.0
 47
0.0
 47
0.0
 47
0.0
 47
1.0
 47
0.0
 47
0.0
 47
0.0
 47
0.0
 47
1.0
171
     0
 49
0.0208333333333333
 49
0.0
 49
0.0
 49
0.0
 49
0.0
 49
0.0208333333333333
 49
0.0
 49
0.0
 49
0.0
 49
0.0
 49
1.0
 49
0.0
 49
0.0
 49
0.0
 49
0.0
 49
1.0
175
     0
142
0.0208333333333333
142
0.0
142
0.0
142
0.0
142
0.0
142
0.0208333333333333
142
0.0
142
0.0
142
0.0
142
0.0
142
1.0
142
0.0
142
0.0
142
0.0
142
0.0
142
1.0
179
     0
144
0.0208333333333333
144
0.0
144
0.0
144
0.0
144
0.0
144
0.0208333333333333
144
0.0
144
0.0
144
0.0
144
0.0
144
1.0
144
0.0
144
0.0
144
0.0
144
0.0
144
1.0
147
0.0208333333333333
147
0.0
147
0.0
147
0.0
147
0.0
147
0.0208333333333333
147
0.0
147
0.0
147
0.0
147
0.0
147
1.0
147
0.0
147
0.0
147
0.0
147
0.0
147
1.0
  0
MATERIAL
  5
35
102
{ACAD_XDICTIONARY
360
36
102
}
102
{ACAD_REACTORS
330
D
102
}
330
D
100
AcDbMaterial
  1
ByLayer
 72
     0
 43
0.0208333333333333
 43
0.0
 43
0.0
 43
0.0
 43
0.0
 43
0.0208333333333333
 43
0.0
 43
0.0
 43
0.0
 43
0.0
 43
1.0
 43
0.0
 43
0.0
 43
0.0
 43
0.0
 43
1.0
 77
     0
 47
0.0208333333333333
 47
0.0
 47
0.0
 47
0.0
 47
0.0
 47
0.0208333333333333
 47
0.0
 47
0.0
 47
0.0
 47
0.0
 47
1.0
 47
0.0
 47
0.0
 47
0.0
 47
0.0
 47
1.0
171
     0
 49
0.0208333333333333
 49
0.0
 49
0.0
 49
0.0
 49
0.0
 49
0.0208333333333333
 49
0.0
 49
0.0
 49
0.0
 49
0.0
 49
1.0
 49
0.0
 49
0.0
 49
0.0
 49
0.0
 49
1.0
175
     0
142
0.0208333333333333
142
0.0
142
0.0
142
0.0
142
0.0
142
0.0208333333333333
142
0.0
142
0.0
142
0.0
142
0.0
142
1.0
142
0.0
142
0.0
142
0.0
142
0.0
142
1.0
179
     0
144
0.0208333333333333
144
0.0
144
0.0
144
0.0
144
0.0
144
0.0208333333333333
144
0.0
144
0.0
144
0.0
144
0.0
144
1.0
144
0.0
144
0.0
144
0.0
144
0.0
144
1.0
147
0.0208333333333333
147
0.0
147
0.0
147
0.0
147
0.0
147
0.0208333333333333
147
0.0
147
0.0
147
0.0
147
0.0
147
1.0
147
0.0
147
0.0
147
0.0
147
0.0
147
1.0
  0
MATERIAL
  5
C
102
{ACAD_XDICTIONARY
360
E
102
}
102
{ACAD_REACTORS
330
D
102
}
330
D
100
AcDbMaterial
  1
Global
 72
     0
 43
0.0208333333333333
 43
0.0
 43
0.0
 43
0.0
 43
0.0
 43
0.0208333333333333
 43
0.0
 43
0.0
 43
0.0
 43
0.0
 43
1.0
 43
0.0
 43
0.0
 43
0.0
 43
0.0
 43
1.0
 77
     0
 47
0.0208333333333333
 47
0.0
 47
0.0
 47
0.0
 47
0.0
 47
0.0208333333333333
 47
0.0
 47
0.0
 47
0.0
 47
0.0
 47
1.0
 47
0.0
 47
0.0
 47
0.0
 47
0.0
 47
1.0
171
     0
 49
0.0208333333333333
 49
0.0
 49
0.0
 49
0.0
 49
0.0
 49
0.0208333333333333
 49
0.0
 49
0.0
 49
0.0
 49
0.0
 49
1.0
 49
0.0
 49
0.0
 49
0.0
 49
0.0
 49
1.0
175
     0
142
0.0208333333333333
142
0.0
142
0.0
142
0.0
142
0.0
142
0.0208333333333333
142
0.0
142
0.0
142
0.0
142
0.0
142
1.0
142
0.0
142
0.0
142
0.0
142
0.0
142
1.0
179
     0
144
0.0208333333333333
144
0.0
144
0.0
144
0.0
144
0.0
144
0.0208333333333333
144
0.0
144
0.0
144
0.0
144
0.0
144
1.0
144
0.0
144
0.0
144
0.0
144
0.0
144
1.0
147
0.0208333333333333
147
0.0
147
0.0
147
0.0
147
0.0
147
0.0208333333333333
147
0.0
147
0.0
147
0.0
147
0.0
147
1.0
147
0.0
147
0.0
147
0.0
147
0.0
147
1.0
  0
MLINESTYLE
  5
4C
102
{ACAD_REACTORS
330
33
102
}
330
33
100
AcDbMlineStyle
  2
STANDARD
 70
     0
  3

 62
   256
 51
90.0
 52
90.0
 71
     2
 49
0.5
 62
   256
  6
BYLAYER
 49
-0.5
 62
   256
  6
BYLAYER
  0
ACDBPLACEHOLDER
  5
9
102
{ACAD_REACTORS
330
A
102
}
330
A
  0
SCALE
  5
51
102
{ACAD_REACTORS
330
46
102
}
330
46
100
AcDbScale
 70
     0
300
1:1
140
1.0
141
1.0
290
     1
  0
SCALE
  5
52
102
{ACAD_REACTORS
330
46
102
}
330
46
100
AcDbScale
 70
     0
300
1:2
140
1.0
141
2.0
290
     0
  0
SCALE
  5
53
102
{ACAD_REACTORS
330
46
102
}
330
46
100
AcDbScale
 70
     0
300
1:4
140
1.0
141
4.0
290
     0
  0
SCALE
  5
54
102
{ACAD_REACTORS
330
46
102
}
330
46
100
AcDbScale
 70
     0
300
1:5
140
1.0
141
5.0
290
     0
  0
SCALE
  5
55
102
{ACAD_REACTORS
330
46
102
}
330
46
100
AcDbScale
 70
     0
300
1:8
140
1.0
141
8.0
290
     0
  0
SCALE
  5
56
102
{ACAD_REACTORS
330
46
102
}
330
46
100
AcDbScale
 70
     0
300
1:10
140
1.0
141
10.0
290
     0
  0
SCALE
  5
57
102
{ACAD_REACTORS
330
46
102
}
330
46
100
AcDbScale
 70
     0
300
1:16
140
1.0
141
16.0
290
     0
  0
SCALE
  5
58
102
{ACAD_REACTORS
330
46
102
}
330
46
100
AcDbScale
 70
     0
300
1:20
140
1.0
141
20.0
290
     0
  0
SCALE
  5
59
102
{ACAD_REACTORS
330
46
102
}
330
46
100
AcDbScale
 70
     0
300
1:30
140
1.0
141
30.0
290
     0
  0
SCALE
  5
5A
102
{ACAD_REACTORS
330
46
102
}
330
46
100
AcDbScale
 70
     0
300
1:40
140
1.0
141
40.0
290
     0
  0
SCALE
  5
5B
102
{ACAD_REACTORS
330
46
102
}
330
46
100
AcDbScale
 70
     0
300
1:50
140
1.0
141
50.0
290
     0
  0
SCALE
  5
5C
102
{ACAD_REACTORS
330
46
102
}
330
46
100
AcDbScale
 70
     0
300
1:100
140
1.0
141
100.0
290
     0
  0
SCALE
  5
5D
102
{ACAD_REACTORS
330
46
102
}
330
46
100
AcDbScale
 70
     0
300
2:1
140
2.0
141
1.0
290
     0
  0
SCALE
  5
5E
102
{ACAD_REACTORS
330
46
102
}
330
46
100
AcDbScale
 70
     0
300
4:1
140
4.0
141
1.0
290
     0
  0
SCALE
  5
5F
102
{ACAD_REACTORS
330
46
102
}
330
46
100
AcDbScale
 70
     0
300
8:1
140
8.0
141
1.0
290
     0
  0
SCALE
  5
60
102
{ACAD_REACTORS
330
46
102
}
330
46
100
AcDbScale
 70
     0
300
10:1
140
10.0
141
1.0
290
     0
  0
SCALE
  5
61
102
{ACAD_REACTORS
330
46
102
}
330
46
100
AcDbScale
 70
     0
300
100:1
140
100.0
141
1.0
290
     0
  0
SCALE
  5
62
102
{ACAD_REACTORS
330
46
102
}
330
46
100
AcDbScale
 70
     0
300
1/128" = 1'-0"
140
0.0078125
141
12.0
290
     0
  0
SCALE
  5
63
102
{ACAD_REACTORS
330
46
102
}
330
46
100
AcDbScale
 70
     0
300
1/64" = 1'-0"
140
0.015625
141
12.0
290
     0
  0
SCALE
  5
64
102
{ACAD_REACTORS
330
46
102
}
330
46
100
AcDbScale
 70
     0
300
1/32" = 1'-0"
140
0.03125
141
12.0
290
     0
  0
SCALE
  5
65
102
{ACAD_REACTORS
330
46
102
}
330
46
100
AcDbScale
 70
     0
300
1/16" = 1'-0"
140
0.0625
141
12.0
290
     0
  0
SCALE
  5
66
102
{ACAD_REACTORS
330
46
102
}
330
46
100
AcDbScale
 70
     0
300
3/32" = 1'-0"
140
0.09375
141
12.0
290
     0
  0
SCALE
  5
67
102
{ACAD_REACTORS
330
46
102
}
330
46
100
AcDbScale
 70
     0
300
1/8" = 1'-0"
140
0.125
141
12.0
290
     0
  0
SCALE
  5
68
102
{ACAD_REACTORS
330
46
102
}
330
46
100
AcDbScale
 70
     0
300
3/16" = 1'-0"
140
0.1875
141
12.0
290
     0
  0
SCALE
  5
69
102
{ACAD_REACTORS
330
46
102
}
330
46
100
AcDbScale
 70
     0
300
1/4" = 1'-0"
140
0.25
141
12.0
290
     0
  0
SCALE
  5
6A
102
{ACAD_REACTORS
330
46
102
}
330
46
100
AcDbScale
 70
     0
300
3/8" = 1'-0"
140
0.375
141
12.0
290
     0
  0
SCALE
  5
6B
102
{ACAD_REACTORS
330
46
102
}
330
46
100
AcDbScale
 70
     0
300
1/2" = 1'-0"
140
0.5
141
12.0
290
     0
  0
SCALE
  5
6C
102
{ACAD_REACTORS
330
46
102
}
330
46
100
AcDbScale
 70
     0
300
3/4" = 1'-0"
140
0.75
141
12.0
290
     0
  0
SCALE
  5
6D
102
{ACAD_REACTORS
330
46
102
}
330
46
100
AcDbScale
 70
     0
300
1" = 1'-0"
140
1.0
141
12.0
290
     0
  0
SCALE
  5
6E
102
{ACAD_REACTORS
330
46
102
}
330
46
100
AcDbScale
 70
     0
300
1-1/2" = 1'-0"
140
1.5
141
12.0
290
     0
  0
SCALE
  5
6F
102
{ACAD_REACTORS
330
46
102
}
330
46
100
AcDbScale
 70
     0
300
3" = 1'-0"
140
3.0
141
12.0
290
     0
  0
SCALE
  5
70
102
{ACAD_REACTORS
330
46
102
}
330
46
100
AcDbScale
 70
     0
300
6" = 1'-0"
140
6.0
141
12.0
290
     0
  0
SCALE
  5
71
102
{ACAD_REACTORS
330
46
102
}
330
46
100
AcDbScale
 70
     0
300
1'-0" = 1'-0"
140
12.0
141
12.0
290
     0
  0
TABLESTYLE
  5
4D
102
{ACAD_XDICTIONARY
360
4E
102
}
102
{ACAD_REACTORS
330
47
102
}
330
47
100
AcDbTableStyle
  3
Standard
 70
     0
 71
     0
 40
0.06
 41
0.06
280
     0
281
     0
  7
STANDARD
140
0.18
170
     2
 62
     0
 63
     7
283
     0
274
    -2
284
     1
 64
     0
275
    -2
285
     1
 65
     0
276
    -2
286
     1
 66
     0
277
    -2
287
     1
 67
     0
278
    -2
288
     1
 68
     0
279
    -2
289
     1
 69
     0
  7
STANDARD
140
0.25
170
     5
 62
     0
 63
     7
283
     0
274
    -2
284
     1
 64
     0
275
    -2
285
     1
 65
     0
276
    -2
286
     1
 66
     0
277
    -2
287
     1
 67
     0
278
    -2
288
     1
 68
     0
279
    -2
289
     1
 69
     0
  7
STANDARD
140
0.18
170
     5
 62
     0
 63
     7
283
     0
274
    -2
284
     1
 64
     0
275
    -2
285
     1
 65
     0
276
    -2
286
     1
 66
     0
277
    -2
287
     1
 67
     0
278
    -2
288
     1
 68
     0
279
    -2
289
     1
 69
     0
  0
VISUALSTYLE
  5
2B
102
{ACAD_REACTORS
330
2C
102
}
330
2C
100
AcDbVisualStyle
  2
2dWireframe
 70
     4
 71
     0
 72
     2
 73
     0
 90
        0
 40
-0.6
 41
-30.0
 62
     5
 63
     7
 74
     1
 91
        4
 64
     7
 65
   257
 75
     1
175
     1
 42
1.0
 92
        0
 66
   257
 43
1.0
 76
     1
 77
     6
 78
     2
 67
     7
 79
     5
170
     0
171
     0
290
     0
174
     0
 93
        1
 44
0.0
173
     0
291
     0
 45
0.0
1001
ACAD
1000
AcDbSavedByObjectVersion
1070
     0
  0
VISUALSTYLE
  5
50
102
{ACAD_REACTORS
330
2C
102
}
330
2C
100
AcDbVisualStyle
  2
3dWireframe
 70
     5
 71
     0
 72
     2
 73
     0
 90
        0
 40
-0.6
 41
-30.0
 62
     5
 63
     7
 74
     1
 91
        4
 64
     7
 65
   257
 75
     1
175
     1
 42
1.0
 92
        0
 66
   257
 43
1.0
 76
     1
 77
     6
 78
     2
 67
     7
 79
     5
170
     0
171
     0
290
     0
174
     0
 93
        1
 44
0.0
173
     0
291
     0
 45
0.0
1001
ACAD
1000
AcDbSavedByObjectVersion
1070
     0
  0
VISUALSTYLE
  5
4F
102
{ACAD_REACTORS
330
2C
102
}
330
2C
100
AcDbVisualStyle
  2
Realistic
 70
     8
 71
     2
 72
     2
 73
     0
 90
        0
 40
-0.6
 41
-30.0
 62
     5
 63
     7
 74
     1
 91
        0
 64
     7
 65
   257
 75
     1
175
     1
 42
1.0
 92
        8
 66
     8
 43
1.0
 76
     1
 77
     6
 78
     2
 67
     7
 79
     5
170
     0
171
     0
290
     0
174
     0
 93
       13
 44
0.0
173
     0
291
     0
 45
0.0
1001
ACAD
1000
AcDbSavedByObjectVersion
1070
     0
  0
DICTIONARYVAR
  5
104
102
{ACAD_REACTORS
330
100
102
}
330
100
100
DictionaryVariables
280
     0
  1
1:1
  0
DICTIONARYVAR
  5
102
102
{ACAD_REACTORS
330
100
102
}
330
100
100
DictionaryVariables
280
     0
  1
STANDARD
  0
DICTIONARYVAR
  5
101
102
{ACAD_REACTORS
330
100
102
}
330
100
100
DictionaryVariables
280
     0
  1
STANDARD
  0
DICTIONARYVAR
  5
108
102
{ACAD_REACTORS
330
100
102
}
330
100
100
DictionaryVariables
280
     0
  1
1
  0
DICTIONARYVAR
  5
107
102
{ACAD_REACTORS
330
100
102
}
330
100
100
DictionaryVariables
280
     0
  1
1
  0
DICTIONARYVAR
  5
106
102
{ACAD_REACTORS
330
100
102
}
330
100
100
DictionaryVariables
280
     0
  1
0
  0
DICTIONARYVAR
  5
103
102
{ACAD_REACTORS
330
100
102
}
330
100
100
DictionaryVariables
280
     0
  1
1
  0
DICTIONARYVAR
  5
105
102
{ACAD_REACTORS
330
100
102
}
330
100
100
DictionaryVariables
280
     0
  1
127
  0
DICTIONARY
  5
110
330
17
100
AcDbDictionary
280
     1
281
     1
  3
ACAD_XREC_ROUNDTRIP
360
111
  0
DICTIONARY
  5
112
330
1D
100
AcDbDictionary
280
     1
281
     1
  3
ACAD_XREC_ROUNDTRIP
360
113
  0
DICTIONARY
  5
3E
330
3D
100
AcDbDictionary
280
     1
281
     1
  3
ACAD_XREC_ROUNDTRIP
360
115
  3
BUMPTILE
360
3F
  3
DIFFUSETILE
360
40
  3
OPACITYTILE
360
41
  3
REFLECTIONTILE
360
42
  3
REFRACTIONTILE
360
43
  3
SPECULARTILE
360
44
  0
DICTIONARY
  5
36
330
35
100
AcDbDictionary
280
     1
281
     1
  3
ACAD_XREC_ROUNDTRIP
360
114
  3
BUMPTILE
360
37
  3
DIFFUSETILE
360
38
  3
OPACITYTILE
360
39
  3
REFLECTIONTILE
360
3A
  3
REFRACTIONTILE
360
3B
  3
SPECULARTILE
360
3C
  0
DICTIONARY
  5
E
330
C
100
AcDbDictionary
280
     1
281
     1
  3
ACAD_XREC_ROUNDTRIP
360
10F
  3
BUMPTILE
360
F
  3
DIFFUSETILE
360
10
  3
OPACITYTILE
360
11
  3
REFLECTIONTILE
360
12
  3
REFRACTIONTILE
360
13
  3
SPECULARTILE
360
14
  0
DICTIONARY
  5
4E
330
4D
100
AcDbDictionary
280
     1
281
     1
  3
ACAD_ROUNDTRIP_2008_TABLESTYLE_CELLSTYLEMAP
360
109
  3
ACAD_XREC_ROUNDTRIP
360
116
  0
XRECORD
  5
111
102
{ACAD_REACTORS
330
110
102
}
330
110
100
AcDbXrecord
280
     1
102
SHADEPLOT
 70
     0
102
SHADEPLOTRESLEVEL
 70
     2
102
SHADEPLOTCUSTOMDPI
 70
   300
  0
XRECORD
  5
113
102
{ACAD_REACTORS
330
112
102
}
330
112
100
AcDbXrecord
280
     1
102
SHADEPLOT
 70
     0
102
SHADEPLOTRESLEVEL
 70
     2
102
SHADEPLOTCUSTOMDPI
 70
   300
  0
XRECORD
  5
115
102
{ACAD_REACTORS
330
3E
102
}
330
3E
100
AcDbXrecord
280
     1
102
MATERIAL
148
0.0
149
0.0
149
0.0
 93
        0
 94
      127
282
     0
 72
     0
 77
     0
171
     0
175
     0
179
     0
273
     0
  0
XRECORD
  5
3F
102
{ACAD_REACTORS
330
3E
102
}
330
3E
100
AcDbXrecord
280
     1
270
     1
271
     1
  0
XRECORD
  5
40
102
{ACAD_REACTORS
330
3E
102
}
330
3E
100
AcDbXrecord
280
     1
270
     1
271
     1
  0
XRECORD
  5
41
102
{ACAD_REACTORS
330
3E
102
}
330
3E
100
AcDbXrecord
280
     1
270
     1
271
     1
  0
XRECORD
  5
42
102
{ACAD_REACTORS
330
3E
102
}
330
3E
100
AcDbXrecord
280
     1
270
     1
271
     1
  0
XRECORD
  5
43
102
{ACAD_REACTORS
330
3E
102
}
330
3E
100
AcDbXrecord
280
     1
270
     1
271
     1
  0
XRECORD
  5
44
102
{ACAD_REACTORS
330
3E
102
}
330
3E
100
AcDbXrecord
280
     1
270
     1
271
     1
  0
XRECORD
  5
114
102
{ACAD_REACTORS
330
36
102
}
330
36
100
AcDbXrecord
280
     1
102
MATERIAL
148
0.0
149
0.0
149
0.0
 93
        0
 94
      127
282
     0
 72
     0
 77
     0
171
     0
175
     0
179
     0
273
     0
  0
XRECORD
  5
37
102
{ACAD_REACTORS
330
36
102
}
330
36
100
AcDbXrecord
280
     1
270
     1
271
     1
  0
XRECORD
  5
38
102
{ACAD_REACTORS
330
36
102
}
330
36
100
AcDbXrecord
280
     1
270
     1
271
     1
  0
XRECORD
  5
39
102
{ACAD_REACTORS
330
36
102
}
330
36
100
AcDbXrecord
280
     1
270
     1
271
     1
  0
XRECORD
  5
3A
102
{ACAD_REACTORS
330
36
102
}
330
36
100
AcDbXrecord
280
     1
270
     1
271
     1
  0
XRECORD
  5
3B
102
{ACAD_REACTORS
330
36
102
}
330
36
100
AcDbXrecord
280
     1
270
     1
271
     1
  0
XRECORD
  5
3C
102
{ACAD_REACTORS
330
36
102
}
330
36
100
AcDbXrecord
280
     1
270
     1
271
     1
  0
XRECORD
  5
10F
102
{ACAD_REACTORS
330
E
102
}
330
E
100
AcDbXrecord
280
     1
102
MATERIAL
148
0.0
149
0.0
149
0.0
 93
        0
 94
      127
282
     0
 72
     0
 77
     0
171
     0
175
     0
179
     0
273
     0
  0
XRECORD
  5
F
102
{ACAD_REACTORS
330
E
102
}
330
E
100
AcDbXrecord
280
     1
270
     1
271
     1
  0
XRECORD
  5
10
102
{ACAD_REACTORS
330
E
102
}
330
E
100
AcDbXrecord
280
     1
270
     1
271
     1
  0
XRECORD
  5
11
102
{ACAD_REACTORS
330
E
102
}
330
E
100
AcDbXrecord
280
     1
270
     1
271
     1
  0
XRECORD
  5
12
102
{ACAD_REACTORS
330
E
102
}
330
E
100
AcDbXrecord
280
     1
270
     1
271
     1
  0
XRECORD
  5
13
102
{ACAD_REACTORS
330
E
102
}
330
E
100
AcDbXrecord
280
     1
270
     1
271
     1
  0
XRECORD
  5
14
102
{ACAD_REACTORS
330
E
102
}
330
E
100
AcDbXrecord
280
     1
270
     1
271
     1
  0
CELLSTYLEMAP
  5
109
102
{ACAD_REACTORS
330
4E
102
}
330
4E
100
AcDbCellStyleMap
 90
        3
300
CELLSTYLE
  1
TABLEFORMAT_BEGIN
 90
        5
170
     1
 91
        0
 92
    32768
 62
   257
 93
        1
300
CONTENTFORMAT
  1
CONTENTFORMAT_BEGIN
 90
        0
 91
        0
 92
      512
 93
        0
300

 40
0.0
140
1.0
 94
        5
 62
     0
340
22
144
0.25
309
CONTENTFORMAT_END
171
     0
 94
        0
309
TABLEFORMAT_END
  1
CELLSTYLE_BEGIN
 90
        1
 91
        1
300
_TITLE
309
CELLSTYLE_END
300
CELLSTYLE
  1
TABLEFORMAT_BEGIN
 90
        5
170
     1
 91
        0
 92
        0
 62
   257
 93
        1
300
CONTENTFORMAT
  1
CONTENTFORMAT_BEGIN
 90
        0
 91
        0
 92
      512
 93
        0
300

 40
0.0
140
1.0
 94
        5
 62
     0
340
22
144
0.18
309
CONTENTFORMAT_END
171
     0
 94
        0
309
TABLEFORMAT_END
  1
CELLSTYLE_BEGIN
 90
        2
 91
        1
300
_HEADER
309
CELLSTYLE_END
300
CELLSTYLE
  1
TABLEFORMAT_BEGIN
 90
        5
170
     1
 91
        0
 92
        0
 62
   257
 93
        1
300
CONTENTFORMAT
  1
CONTENTFORMAT_BEGIN
 90
        0
 91
        0
 92
      512
 93
        0
300

 40
0.0
140
1.0
 94
        2
 62
     0
340
22
144
0.18
309
CONTENTFORMAT_END
171
     0
 94
        0
309
TABLEFORMAT_END
  1
CELLSTYLE_BEGIN
 90
        3
 91
        2
300
_DATA
309
CELLSTYLE_END
  0
XRECORD
  5
116
102
{ACAD_REACTORS
330
4E
102
}
330
4E
100
AcDbXrecord
280
     1
102
ACAD_ROUNDTRIP_PRE2007_TABLESTYLE
 90
      512
 91
        0
  1

 92
      512
 93
        0
  2

 94
      512
 95
        0
  3

  0
ENDSEC
  0
EOF
