  0
SECTION
  2
HEADER
  9
$ACADVER
  1
AC1015
  9
$ACADMAINTVER
 70
    10
  9
$DWGCODEPAGE
  3
ANSI_932
  9
$INSBASE
 10
922.019522
 20
-675.4306699999999
 30
0.0
  9
$EXTMIN
 10
-19.91520375969037
 20
-0.0045292325963828
 30
-0.0000000000112498
  9
$EXTMAX
 10
90.79579571185831
 20
84.9730380983874
 30
0.0000000000002956
  9
$LIMMIN
 10
0.0
 20
0.0
  9
$LIMMAX
 10
420.0
 20
297.0
  9
$ORTHOMODE
 70
     0
  9
$REGENMODE
 70
     1
  9
$FILLMODE
 70
     1
  9
$QTEXTMODE
 70
     0
  9
$MIRRTEXT
 70
     1
  9
$LTSCALE
 40
1.0
  9
$ATTMODE
 70
     1
  9
$TEXTSIZE
 40
30.0
  9
$TRACEWID
 40
0.05
  9
$TEXTSTYLE
  7
SUNPOU
  9
$CLAYER
  8
0
  9
$CELTYPE
  6
BYLAYER
  9
$CECOLOR
 62
   256
  9
$CELTSCALE
 40
1.0
  9
$DISPSILH
 70
     0
  9
$DIMSCALE
 40
1.0
  9
$DIMASZ
 40
1.0
  9
$DIMEXO
 40
2.0
  9
$DIMDLI
 40
0.38
  9
$DIMRND
 40
0.0
  9
$DIMDLE
 40
0.0
  9
$DIMEXE
 40
0.0
  9
$DIMTP
 40
0.0
  9
$DIMTM
 40
0.0
  9
$DIMTXT
 40
3.0
  9
$DIMCEN
 40
0.0
  9
$DIMTSZ
 40
0.0
  9
$DIMTOL
 70
     0
  9
$DIMLIM
 70
     0
  9
$DIMTIH
 70
     0
  9
$DIMTOH
 70
     0
  9
$DIMSE1
 70
     0
  9
$DIMSE2
 70
     0
  9
$DIMTAD
 70
     1
  9
$DIMZIN
 70
     0
  9
$DIMBLK
  1
Dot
  9
$DIMASO
 70
     1
  9
$DIMSHO
 70
     1
  9
$DIMPOST
  1

  9
$DIMAPOST
  1

  9
$DIMALT
 70
     0
  9
$DIMALTD
 70
     2
  9
$DIMALTF
 40
25.4
  9
$DIMLFAC
 40
1.0
  9
$DIMTOFL
 70
     0
  9
$DIMTVP
 40
0.0
  9
$DIMTIX
 70
     0
  9
$DIMSOXD
 70
     0
  9
$DIMSAH
 70
     0
  9
$DIMBLK1
  1

  9
$DIMBLK2
  1

  9
$DIMSTYLE
  2
STANDARD
  9
$DIMCLRD
 70
    60
  9
$DIMCLRE
 70
    70
  9
$DIMCLRT
 70
    60
  9
$DIMTFAC
 40
0.064286
  9
$DIMGAP
 40
1.0
  9
$DIMJUST
 70
     0
  9
$DIMSD1
 70
     0
  9
$DIMSD2
 70
     0
  9
$DIMTOLJ
 70
     1
  9
$DIMTZIN
 70
     0
  9
$DIMALTZ
 70
     0
  9
$DIMALTTZ
 70
     0
  9
$DIMUPT
 70
     0
  9
$DIMDEC
 70
     0
  9
$DIMTDEC
 70
     0
  9
$DIMALTU
 70
     2
  9
$DIMALTTD
 70
     2
  9
$DIMTXSTY
  7
SUNPOU
  9
$DIMAUNIT
 70
     0
  9
$DIMADEC
 70
     0
  9
$DIMALTRND
 40
0.0
  9
$DIMAZIN
 70
     0
  9
$DIMDSEP
 70
    46
  9
$DIMATFIT
 70
     3
  9
$DIMFRAC
 70
     0
  9
$DIMLDRBLK
  1

  9
$DIMLUNIT
 70
     2
  9
$DIMLWD
 70
    -2
  9
$DIMLWE
 70
    -2
  9
$DIMTMOVE
 70
     0
  9
$LUNITS
 70
     2
  9
$LUPREC
 70
     5
  9
$SKETCHINC
 40
0.1
  9
$FILLETRAD
 40
0.0
  9
$AUNITS
 70
     0
  9
$AUPREC
 70
     0
  9
$MENU
  1
acad
  9
$ELEVATION
 40
0.0
  9
$PELEVATION
 40
0.0
  9
$THICKNESS
 40
0.0
  9
$LIMCHECK
 70
     0
  9
$CHAMFERA
 40
0.0
  9
$CHAMFERB
 40
0.0
  9
$CHAMFERC
 40
0.0
  9
$CHAMFERD
 40
0.0
  9
$SKPOLY
 70
     0
  9
$TDCREATE
 40
2450623.654673032
  9
$TDUCREATE
 40
2450623.279673032
  9
$TDUPDATE
 40
2453847.717799375
  9
$TDUUPDATE
 40
2453847.342799375
  9
$TDINDWG
 40
0.0757511111
  9
$TDUSRTIMER
 40
0.0757509375
  9
$USRTIMER
 70
     1
  9
$ANGBASE
 50
0.0
  9
$ANGDIR
 70
     0
  9
$PDMODE
 70
     0
  9
$PDSIZE
 40
0.0
  9
$PLINEWID
 40
0.0
  9
$SPLFRAME
 70
     0
  9
$SPLINETYPE
 70
     6
  9
$SPLINESEGS
 70
     8
  9
$HANDSEED
  5
901
  9
$SURFTAB1
 70
     6
  9
$SURFTAB2
 70
     6
  9
$SURFTYPE
 70
     6
  9
$SURFU
 70
     6
  9
$SURFV
 70
     6
  9
$UCSBASE
  2

  9
$UCSNAME
  2

  9
$UCSORG
 10
0.0
 20
0.0
 30
0.0
  9
$UCSXDIR
 10
1.0
 20
0.0
 30
0.0
  9
$UCSYDIR
 10
0.0
 20
1.0
 30
0.0
  9
$UCSORTHOREF
  2

  9
$UCSORTHOVIEW
 70
     0
  9
$UCSORGTOP
 10
0.0
 20
0.0
 30
0.0
  9
$UCSORGBOTTOM
 10
0.0
 20
0.0
 30
0.0
  9
$UCSORGLEFT
 10
0.0
 20
0.0
 30
0.0
  9
$UCSORGRIGHT
 10
0.0
 20
0.0
 30
0.0
  9
$UCSORGFRONT
 10
0.0
 20
0.0
 30
0.0
  9
$UCSORGBACK
 10
0.0
 20
0.0
 30
0.0
  9
$PUCSBASE
  2

  9
$PUCSNAME
  2

  9
$PUCSORG
 10
0.0
 20
0.0
 30
0.0
  9
$PUCSXDIR
 10
1.0
 20
0.0
 30
0.0
  9
$PUCSYDIR
 10
0.0
 20
1.0
 30
0.0
  9
$PUCSORTHOREF
  2

  9
$PUCSORTHOVIEW
 70
     0
  9
$PUCSORGTOP
 10
0.0
 20
0.0
 30
0.0
  9
$PUCSORGBOTTOM
 10
0.0
 20
0.0
 30
0.0
  9
$PUCSORGLEFT
 10
0.0
 20
0.0
 30
0.0
  9
$PUCSORGRIGHT
 10
0.0
 20
0.0
 30
0.0
  9
$PUCSORGFRONT
 10
0.0
 20
0.0
 30
0.0
  9
$PUCSORGBACK
 10
0.0
 20
0.0
 30
0.0
  9
$USERI1
 70
     0
  9
$USERI2
 70
     0
  9
$USERI3
 70
     0
  9
$USERI4
 70
     0
  9
$USERI5
 70
     0
  9
$USERR1
 40
0.0
  9
$USERR2
 40
0.0
  9
$USERR3
 40
0.0
  9
$USERR4
 40
0.0
  9
$USERR5
 40
0.0
  9
$WORLDVIEW
 70
     1
  9
$SHADEDGE
 70
     3
  9
$SHADEDIF
 70
    70
  9
$TILEMODE
 70
     1
  9
$MAXACTVP
 70
    16
  9
$PINSBASE
 10
0.0
 20
0.0
 30
0.0
  9
$PLIMCHECK
 70
     0
  9
$PEXTMIN
 10
1.000000000000000E+20
 20
1.000000000000000E+20
 30
1.000000000000000E+20
  9
$PEXTMAX
 10
-1.000000000000000E+20
 20
-1.000000000000000E+20
 30
-1.000000000000000E+20
  9
$PLIMMIN
 10
0.0
 20
0.0
  9
$PLIMMAX
 10
12.0
 20
9.0
  9
$UNITMODE
 70
     0
  9
$VISRETAIN
 70
     0
  9
$PLINEGEN
 70
     0
  9
$PSLTSCALE
 70
     1
  9
$TREEDEPTH
 70
  3020
  9
$CMLSTYLE
  2
STANDARD
  9
$CMLJUST
 70
     0
  9
$CMLSCALE
 40
1.0
  9
$PROXYGRAPHICS
 70
     1
  9
$MEASUREMENT
 70
     0
  9
$CELWEIGHT
370
    -1
  9
$ENDCAPS
280
     0
  9
$JOINSTYLE
280
     0
  9
$LWDISPLAY
290
     0
  9
$INSUNITS
 70
     0
  9
$HYPERLINKBASE
  1

  9
$STYLESHEET
  1

  9
$XEDIT
290
     1
  9
$CEPSNTYPE
380
     0
  9
$PSTYLEMODE
290
     1
  9
$FINGERPRINTGUID
  2
{FB88A696-E29C-4009-92AF-A3599A8169D5}
  9
$VERSIONGUID
  2
{D76578BE-0DDD-45EF-BE20-2C162B57DB6C}
  9
$EXTNAMES
290
     1
  9
$PSVPSCALE
 40
0.0
  9
$OLESTARTUP
290
     0
  0
ENDSEC
  0
SECTION
  2
CLASSES
  0
CLASS
  1
DICTIONARYVAR
  2
AcDbDictionaryVar
  3
AutoCAD 2000
 90
    32768
280
     0
281
     0
  0
CLASS
  1
LWPOLYLINE
  2
AcDbPolyline
  3
AutoCAD 2000
 90
    32768
280
     0
281
     1
  0
CLASS
  1
ACDBDICTIONARYWDFLT
  2
AcDbDictionaryWithDefault
  3
AutoCAD 2000
 90
        0
280
     0
281
     0
  0
CLASS
  1
ACDBPLACEHOLDER
  2
AcDbPlaceHolder
  3
AutoCAD 2000
 90
        0
280
     0
281
     0
  0
CLASS
  1
LAYOUT
  2
AcDbLayout
  3
AutoCAD 2000
 90
        0
280
     0
281
     0
  0
ENDSEC
  0
SECTION
  2
TABLES
  0
TABLE
  2
VPORT
  5
12
330
0
100
AcDbSymbolTable
 70
    15
  0
VPORT
  5
900
330
12
100
AcDbSymbolTableRecord
100
AcDbViewportTableRecord
  2
*Active
 70
     0
 10
0.0
 20
0.0
 11
1.0
 21
1.0
 12
35.44029597608397
 22
42.4842544328955
 13
0.0
 23
0.0
 14
1.0
 24
1.0
 15
0.0
 25
0.0
 16
0.0
 26
0.0
 36
1.0
 17
0.0
 27
0.0
 37
0.0
 40
85.93237145829821
 41
1.795497185741088
 42
50.0
 43
0.0
 44
0.0
 50
0.0
 51
0.0
 71
     0
 72
 20000
 73
     1
 74
     1
 75
     0
 76
     0
 77
     0
 78
     0
281
     0
 65
     1
110
0.0
120
0.0
130
0.0
111
1.0
121
0.0
131
0.0
112
0.0
122
1.0
132
0.0
 79
     0
146
0.0
  0
ENDTAB
  0
TABLE
  2
LTYPE
  5
D
330
0
100
AcDbSymbolTable
 70
     1
  0
LTYPE
  5
E
330
D
100
AcDbSymbolTableRecord
100
AcDbLinetypeTableRecord
  2
BYBLOCK
 70
     0
  3

 72
    65
 73
     0
 40
0.0
  0
LTYPE
  5
F
330
D
100
AcDbSymbolTableRecord
100
AcDbLinetypeTableRecord
  2
BYLAYER
 70
     0
  3

 72
    65
 73
     0
 40
0.0
  0
LTYPE
  5
5
330
D
100
AcDbSymbolTableRecord
100
AcDbLinetypeTableRecord
  2
CONTINUOUS
 70
     0
  3
Solid line
 72
    65
 73
     0
 40
0.0
  0
ENDTAB
  0
TABLE
  2
LAYER
  5
A
330
0
100
AcDbSymbolTable
 70
     6
  0
LAYER
  5
4
330
A
100
AcDbSymbolTableRecord
100
AcDbLayerTableRecord
  2
0
 70
     0
 62
     7
  6
CONTINUOUS
370
    -3
390
57
  0
LAYER
  5
25
330
A
100
AcDbSymbolTableRecord
100
AcDbLayerTableRecord
  2
KIJUN
 70
     0
 62
     7
  6
CONTINUOUS
370
    -3
390
57
  0
LAYER
  5
22
330
A
100
AcDbSymbolTableRecord
100
AcDbLayerTableRecord
  2
HOJO
 70
     0
 62
     3
  6
CONTINUOUS
370
    -3
390
57
  0
LAYER
  5
1B
330
A
100
AcDbSymbolTableRecord
100
AcDbLayerTableRecord
  2
WAKU
 70
     0
 62
     1
  6
CONTINUOUS
370
    -3
390
57
  0
LAYER
  5
31
330
A
100
AcDbSymbolTableRecord
100
AcDbLayerTableRecord
  2
DEFPOINTS
 70
     0
 62
     7
  6
CONTINUOUS
290
     0
370
    -3
390
57
  0
LAYER
  5
28
330
A
100
AcDbSymbolTableRecord
100
AcDbLayerTableRecord
  2
SUNPOU
 70
     0
 62
    70
  6
CONTINUOUS
370
    -3
390
57
  0
ENDTAB
  0
TABLE
  2
STYLE
  5
B
330
0
100
AcDbSymbolTable
 70
     3
  0
STYLE
  5
C
330
B
100
AcDbSymbolTableRecord
100
AcDbTextStyleTableRecord
  2
STANDARD
 70
     0
 40
0.0
 41
1.0
 50
0.0
 71
     0
 42
0.2
  3
txt
  4

  0
STYLE
  5
1C
330
B
100
AcDbSymbolTableRecord
100
AcDbTextStyleTableRecord
  2
SUNPOU
 70
     0
 40
0.0
 41
1.0
 50
0.0
 71
     0
 42
30.0
  3
txt
  4
bigfont
  0
STYLE
  5
4F2
330
B
100
AcDbSymbolTableRecord
100
AcDbTextStyleTableRecord
  2
LIFE
 70
     0
 40
0.0
 41
0.7
 50
0.0
 71
     0
 42
10.0
  3
romans
  4
extfont
  0
ENDTAB
  0
TABLE
  2
VIEW
  5
10
330
0
100
AcDbSymbolTable
 70
     0
  0
ENDTAB
  0
TABLE
  2
UCS
  5
11
330
0
100
AcDbSymbolTable
 70
     0
  0
ENDTAB
  0
TABLE
  2
APPID
  5
14
330
0
100
AcDbSymbolTable
 70
     1
  0
APPID
  5
15
330
14
100
AcDbSymbolTableRecord
100
AcDbRegAppTableRecord
  2
ACAD
 70
     0
  0
ENDTAB
  0
TABLE
  2
DIMSTYLE
  5
16
330
0
100
AcDbSymbolTable
 70
     2
100
AcDbDimStyleTable
 71
     1
340
1E
  0
DIMSTYLE
105
1E
102
{ACAD_REACTORS
330
8D2
330
8E0
102
}
330
16
100
AcDbSymbolTableRecord
100
AcDbDimStyleTableRecord
  2
STANDARD
 70
     0
340
C
  0
DIMSTYLE
105
146
330
16
100
AcDbSymbolTableRecord
100
AcDbDimStyleTableRecord
  2
MIHASI
 70
     0
 41
3.0
 42
2.0
 43
1.0
 44
0.0
 73
     0
 74
     0
 77
     1
 78
     8
140
2.799999999999998
141
2.0
143
0.03937007874016
147
1.0
171
     3
172
     1
175
     1
176
     2
177
     2
178
     2
271
     3
272
     3
274
     3
283
     0
284
     8
288
     1
340
C
  0
ENDTAB
  0
TABLE
  2
BLOCK_RECORD
  5
1
330
0
100
AcDbSymbolTable
 70
    49
  0
BLOCK_RECORD
  5
2
330
1
100
AcDbSymbolTableRecord
100
AcDbBlockTableRecord
  2
*MODEL_SPACE
340
5A
  0
BLOCK_RECORD
  5
7
330
1
100
AcDbSymbolTableRecord
100
AcDbBlockTableRecord
  2
*PAPER_SPACE
340
5B
  0
BLOCK_RECORD
  5
109
330
1
100
AcDbSymbolTableRecord
100
AcDbBlockTableRecord
  2
_Dot
340
0
102
{BLKREFS
331
1FD
331
1FE
331
20A
331
20B
331
217
331
218
331
273
331
274
331
2AA
331
2AB
331
2B7
331
2B8
331
324
331
325
331
357
331
358
331
364
331
365
331
3CB
331
3CC
331
3FA
331
3FB
331
407
331
408
331
48F
331
490
331
498
331
499
331
4BC
331
4BD
331
4C6
331
4C7
331
4E1
331
4E2
331
582
331
583
331
58F
331
590
331
59D
331
59E
331
5AA
331
5AB
331
5B5
331
5B6
331
5BE
331
5BF
331
5C9
331
5CA
331
5D4
331
5D5
331
5DF
331
5E0
331
5EC
331
5ED
331
5F8
331
5F9
331
602
331
603
331
60E
331
60F
331
618
331
619
331
621
331
622
331
62A
331
62B
331
633
331
634
331
665
331
666
331
672
331
673
331
67F
331
680
331
68A
331
68B
331
693
331
694
331
69C
331
69D
331
6A7
331
6A8
331
6B0
331
6B1
331
6BB
331
6BC
331
6C6
331
6C7
331
6D0
331
6D1
331
6D9
331
6DA
331
6E2
331
6E3
331
6EB
331
6EC
331
705
331
706
331
712
331
713
331
71F
331
720
331
7B1
331
7B2
331
7BE
331
7BF
331
7C9
331
7CA
331
7D2
331
7D3
331
7DD
331
7DE
331
7E7
331
7E8
331
7F1
331
7F2
331
7FA
331
7FB
331
803
331
804
331
822
331
823
331
82F
331
830
331
83C
331
83D
331
87B
331
87C
331
888
331
889
331
8CA
331
8CB
331
8D7
331
8D8
331
8E5
331
8E6
102
}
  0
BLOCK_RECORD
  5
3F6
330
1
100
AcDbSymbolTableRecord
100
AcDbBlockTableRecord
  2
*D11
340
0
  0
BLOCK_RECORD
  5
403
330
1
100
AcDbSymbolTableRecord
100
AcDbBlockTableRecord
  2
*D12
340
0
  0
BLOCK_RECORD
  5
410
330
1
100
AcDbSymbolTableRecord
100
AcDbBlockTableRecord
  2
*D13
340
0
  0
BLOCK_RECORD
  5
4EE
330
1
100
AcDbSymbolTableRecord
100
AcDbBlockTableRecord
  2
_DOTSMALL
340
0
  0
BLOCK_RECORD
  5
57E
330
1
100
AcDbSymbolTableRecord
100
AcDbBlockTableRecord
  2
*D20
340
0
  0
BLOCK_RECORD
  5
58B
330
1
100
AcDbSymbolTableRecord
100
AcDbBlockTableRecord
  2
*D21
340
0
  0
BLOCK_RECORD
  5
599
330
1
100
AcDbSymbolTableRecord
100
AcDbBlockTableRecord
  2
*D22
340
0
  0
BLOCK_RECORD
  5
5A6
330
1
100
AcDbSymbolTableRecord
100
AcDbBlockTableRecord
  2
*D23
340
0
  0
BLOCK_RECORD
  5
5C5
330
1
100
AcDbSymbolTableRecord
100
AcDbBlockTableRecord
  2
*D24
340
0
  0
BLOCK_RECORD
  5
5DB
330
1
100
AcDbSymbolTableRecord
100
AcDbBlockTableRecord
  2
*D25
340
0
  0
BLOCK_RECORD
  5
5E8
330
1
100
AcDbSymbolTableRecord
100
AcDbBlockTableRecord
  2
*D26
340
0
  0
BLOCK_RECORD
  5
661
330
1
100
AcDbSymbolTableRecord
100
AcDbBlockTableRecord
  2
*D28
340
0
  0
BLOCK_RECORD
  5
66E
330
1
100
AcDbSymbolTableRecord
100
AcDbBlockTableRecord
  2
*D29
340
0
  0
BLOCK_RECORD
  5
67B
330
1
100
AcDbSymbolTableRecord
100
AcDbBlockTableRecord
  2
*D30
340
0
  0
BLOCK_RECORD
  5
701
330
1
100
AcDbSymbolTableRecord
100
AcDbBlockTableRecord
  2
*D32
340
0
  0
BLOCK_RECORD
  5
70E
330
1
100
AcDbSymbolTableRecord
100
AcDbBlockTableRecord
  2
*D33
340
0
  0
BLOCK_RECORD
  5
71B
330
1
100
AcDbSymbolTableRecord
100
AcDbBlockTableRecord
  2
*D34
340
0
  0
BLOCK_RECORD
  5
7AD
330
1
100
AcDbSymbolTableRecord
100
AcDbBlockTableRecord
  2
*D36
340
0
  0
BLOCK_RECORD
  5
7BA
330
1
100
AcDbSymbolTableRecord
100
AcDbBlockTableRecord
  2
*D37
340
0
  0
BLOCK_RECORD
  5
81E
330
1
100
AcDbSymbolTableRecord
100
AcDbBlockTableRecord
  2
*D39
340
0
  0
BLOCK_RECORD
  5
82B
330
1
100
AcDbSymbolTableRecord
100
AcDbBlockTableRecord
  2
*D40
340
0
  0
BLOCK_RECORD
  5
838
330
1
100
AcDbSymbolTableRecord
100
AcDbBlockTableRecord
  2
*D41
340
0
  0
BLOCK_RECORD
  5
877
330
1
100
AcDbSymbolTableRecord
100
AcDbBlockTableRecord
  2
*D43
340
0
  0
BLOCK_RECORD
  5
884
330
1
100
AcDbSymbolTableRecord
100
AcDbBlockTableRecord
  2
*D44
340
0
  0
BLOCK_RECORD
  5
8C6
330
1
100
AcDbSymbolTableRecord
100
AcDbBlockTableRecord
  2
*D46
340
0
  0
BLOCK_RECORD
  5
8D3
330
1
100
AcDbSymbolTableRecord
100
AcDbBlockTableRecord
  2
*D47
340
0
  0
BLOCK_RECORD
  5
8E1
330
1
100
AcDbSymbolTableRecord
100
AcDbBlockTableRecord
  2
*D48
340
0
  0
ENDTAB
  0
ENDSEC
  0
SECTION
  2
BLOCKS
  0
BLOCK
  5
3
330
2
100
AcDbEntity
  8
0
100
AcDbBlockBegin
  2
*MODEL_SPACE
 70
     0
 10
0.0
 20
0.0
 30
0.0
  3
*MODEL_SPACE
  1

  0
ENDBLK
  5
6
330
2
100
AcDbEntity
  8
0
100
AcDbBlockEnd
  0
BLOCK
  5
8
330
7
100
AcDbEntity
 67
     1
  8
0
100
AcDbBlockBegin
  2
*PAPER_SPACE
 70
     0
 10
0.0
 20
0.0
 30
0.0
  3
*PAPER_SPACE
  1

  0
ENDBLK
  5
9
330
7
100
AcDbEntity
 67
     1
  8
0
100
AcDbBlockEnd
  0
BLOCK
  5
10C
330
109
100
AcDbEntity
  8
0
100
AcDbBlockBegin
  2
_Dot
 70
     0
 10
0.0
 20
0.0
 30
0.0
  3
_Dot
  1

  0
LWPOLYLINE
  5
10A
330
109
100
AcDbEntity
  8
0
  6
ByBlock
 62
     0
100
AcDbPolyline
 90
        2
 70
     1
 43
0.5
 10
-0.25
 20
0.0
 42
1.0
 10
0.25
 20
0.0
 42
1.0
  0
LINE
  5
10B
330
109
100
AcDbEntity
  8
0
  6
ByBlock
 62
     0
370
    -2
100
AcDbLine
 10
-0.5
 20
0.0
 30
0.0
 11
-1.0
 21
0.0
 31
0.0
  0
ENDBLK
  5
10D
330
109
100
AcDbEntity
  8
0
100
AcDbBlockEnd
  0
BLOCK
  5
400
330
3F6
100
AcDbEntity
  8
0
100
AcDbBlockBegin
  2
*D11
 70
     1
 10
0.0
 20
0.0
 30
0.0
  3
*D11
  1

  0
LINE
  5
3F7
330
3F6
100
AcDbEntity
  8
SUNPOU
 62
    70
370
    -2
100
AcDbLine
 10
81.63304652220359
 20
64.38781297503402
 30
0.0
 11
107.5387288016104
 21
64.38781297503401
 31
0.0
  0
LINE
  5
3F8
330
3F6
100
AcDbEntity
  8
SUNPOU
 62
    70
370
    -2
100
AcDbLine
 10
87.63304652220359
 20
47.38781297503403
 30
0.0
 11
107.5387288016104
 21
47.38781297503403
 31
0.0
  0
LINE
  5
3F9
330
3F6
100
AcDbEntity
  8
SUNPOU
 62
    60
370
    -2
100
AcDbLine
 10
107.5387288016104
 20
63.38781297503402
 30
0.0
 11
107.5387288016104
 21
48.38781297503404
 31
0.0
  0
INSERT
  5
3FA
330
3F6
100
AcDbEntity
  8
SUNPOU
 62
    60
370
    -2
100
AcDbBlockReference
  2
_Dot
 10
107.5387288016104
 20
64.38781297503401
 30
0.0
 50
90.0
  0
INSERT
  5
3FB
330
3F6
100
AcDbEntity
  8
SUNPOU
 62
    60
370
    -2
100
AcDbBlockReference
  2
_Dot
 10
107.5387288016104
 20
47.38781297503403
 30
0.0
 50
270.0
  0
MTEXT
  5
3FC
330
3F6
100
AcDbEntity
  8
SUNPOU
 62
    60
100
AcDbMText
 10
105.0387288016104
 20
55.88781297503405
 30
0.0
 40
3.0
 41
0.0
 71
     5
 72
     1
  1
\A1;17
  7
SUNPOU
 11
0.0000000000000001
 21
1.0
 31
0.0
 73
     1
 44
1.0
  0
POINT
  5
3FD
330
3F6
100
AcDbEntity
  8
DEFPOINTS
 62
     0
100
AcDbPoint
 10
79.63304652220358
 20
64.38781297503402
 30
0.0
  0
POINT
  5
3FE
330
3F6
100
AcDbEntity
  8
DEFPOINTS
 62
     0
100
AcDbPoint
 10
85.63304652220358
 20
47.38781297503403
 30
0.0
  0
POINT
  5
3FF
330
3F6
100
AcDbEntity
  8
DEFPOINTS
 62
     0
100
AcDbPoint
 10
107.5387288016104
 20
47.38781297503403
 30
0.0
  0
ENDBLK
  5
401
330
3F6
100
AcDbEntity
  8
0
100
AcDbBlockEnd
  0
BLOCK
  5
40D
330
403
100
AcDbEntity
  8
0
100
AcDbBlockBegin
  2
*D12
 70
     1
 10
0.0
 20
0.0
 30
0.0
  3
*D12
  1

  0
LINE
  5
404
330
403
100
AcDbEntity
  8
SUNPOU
 62
    70
370
    -2
100
AcDbLine
 10
5.633046522203699
 20
45.38781297503404
 30
0.0
 11
5.633046522203698
 21
25.66657266254845
 31
0.0
  0
LINE
  5
405
330
403
100
AcDbEntity
  8
SUNPOU
 62
    70
370
    -2
100
AcDbLine
 10
85.63304652220358
 20
45.38781297503404
 30
0.0
 11
85.63304652220358
 21
25.66657266254845
 31
0.0
  0
LINE
  5
406
330
403
100
AcDbEntity
  8
SUNPOU
 62
    60
370
    -2
100
AcDbLine
 10
6.633046522203698
 20
25.66657266254845
 30
0.0
 11
84.63304652220358
 21
25.66657266254845
 31
0.0
  0
INSERT
  5
407
330
403
100
AcDbEntity
  8
SUNPOU
 62
    60
370
    -2
100
AcDbBlockReference
  2
_Dot
 10
5.633046522203698
 20
25.66657266254845
 30
0.0
 50
180.0
  0
INSERT
  5
408
330
403
100
AcDbEntity
  8
SUNPOU
 62
    60
370
    -2
100
AcDbBlockReference
  2
_Dot
 10
85.63304652220358
 20
25.66657266254845
 30
0.0
  0
MTEXT
  5
409
330
403
100
AcDbEntity
  8
SUNPOU
 62
    60
100
AcDbMText
 10
45.63304652220364
 20
28.16657266254845
 30
0.0
 40
3.0
 41
0.0
 71
     5
 72
     1
  1
\A1;80
  7
SUNPOU
 73
     1
 44
1.0
  0
POINT
  5
40A
330
403
100
AcDbEntity
  8
DEFPOINTS
 62
     0
100
AcDbPoint
 10
5.633046522203699
 20
47.38781297503403
 30
0.0
  0
POINT
  5
40B
330
403
100
AcDbEntity
  8
DEFPOINTS
 62
     0
100
AcDbPoint
 10
85.63304652220358
 20
47.38781297503403
 30
0.0
  0
POINT
  5
40C
330
403
100
AcDbEntity
  8
DEFPOINTS
 62
     0
100
AcDbPoint
 10
85.63304652220358
 20
25.66657266254845
 30
0.0
  0
ENDBLK
  5
40E
330
403
100
AcDbEntity
  8
0
100
AcDbBlockEnd
  0
BLOCK
  5
41A
330
410
100
AcDbEntity
  8
0
100
AcDbBlockBegin
  2
*D13
 70
     1
 10
0.0
 20
0.0
 30
0.0
  3
*D13
  1

  0
LINE
  5
4DE
330
410
100
AcDbEntity
  8
SUNPOU
 62
    70
370
    -2
100
AcDbLine
 10
15.63304652220369
 20
66.38781297503403
 30
0.0
 11
15.63304652220369
 21
76.99807441697737
 31
0.0
  0
LINE
  5
4DF
330
410
100
AcDbEntity
  8
SUNPOU
 62
    70
370
    -2
100
AcDbLine
 10
75.63304652220367
 20
66.38781297503403
 30
0.0
 11
75.63304652220367
 21
76.99807441697737
 31
0.0
  0
LINE
  5
4E0
330
410
100
AcDbEntity
  8
SUNPOU
 62
    60
370
    -2
100
AcDbLine
 10
16.6330465222037
 20
76.99807441697737
 30
0.0
 11
74.63304652220367
 21
76.99807441697737
 31
0.0
  0
INSERT
  5
4E1
330
410
100
AcDbEntity
  8
SUNPOU
 62
    60
370
    -2
100
AcDbBlockReference
  2
_Dot
 10
15.63304652220369
 20
76.99807441697737
 30
0.0
 50
180.0
  0
INSERT
  5
4E2
330
410
100
AcDbEntity
  8
SUNPOU
 62
    60
370
    -2
100
AcDbBlockReference
  2
_Dot
 10
75.63304652220367
 20
76.99807441697737
 30
0.0
  0
MTEXT
  5
4E3
330
410
100
AcDbEntity
  8
SUNPOU
 62
    60
100
AcDbMText
 10
45.63304652220368
 20
79.49807441697737
 30
0.0
 40
3.0
 41
0.0
 71
     5
 72
     1
  1
\A1;60
  7
SUNPOU
 73
     1
 44
1.0
  0
POINT
  5
4E4
330
410
100
AcDbEntity
  8
DEFPOINTS
 62
     0
100
AcDbPoint
 10
15.63304652220369
 20
64.38781297503403
 30
0.0
  0
POINT
  5
4E5
330
410
100
AcDbEntity
  8
DEFPOINTS
 62
     0
100
AcDbPoint
 10
75.63304652220367
 20
64.38781297503402
 30
0.0
  0
POINT
  5
4E6
330
410
100
AcDbEntity
  8
DEFPOINTS
 62
     0
100
AcDbPoint
 10
75.63304652220367
 20
76.99807441697737
 30
0.0
  0
ENDBLK
  5
41B
330
410
100
AcDbEntity
  8
0
100
AcDbBlockEnd
  0
BLOCK
  5
4F0
330
4EE
100
AcDbEntity
  8
0
100
AcDbBlockBegin
  2
_DOTSMALL
 70
     0
 10
0.0
 20
0.0
 30
0.0
  3
_DOTSMALL
  1

  0
LWPOLYLINE
  5
4EF
330
4EE
100
AcDbEntity
  8
0
  6
ByBlock
 62
     0
100
AcDbPolyline
 90
        2
 70
     1
 43
0.5
 10
-0.0625
 20
0.0
 42
1.0
 10
0.0625
 20
0.0
 42
1.0
  0
ENDBLK
  5
4F1
330
4EE
100
AcDbEntity
  8
0
100
AcDbBlockEnd
  0
BLOCK
  5
588
330
57E
100
AcDbEntity
  8
0
100
AcDbBlockBegin
  2
*D20
 70
     1
 10
0.0
 20
0.0
 30
0.0
  3
*D20
  1

  0
LINE
  5
57F
330
57E
100
AcDbEntity
  8
0
 62
    70
370
    -2
100
AcDbLine
 10
163.6666852939431
 20
62.24349758894303
 30
0.0
 11
163.6666852939431
 21
90.67993365693174
 31
0.0
  0
LINE
  5
580
330
57E
100
AcDbEntity
  8
0
 62
    70
370
    -2
100
AcDbLine
 10
223.69564488272
 20
62.24349758894303
 30
0.0
 11
223.69564488272
 21
90.67993365693174
 31
0.0
  0
LINE
  5
581
330
57E
100
AcDbEntity
  8
0
 62
    60
370
    -2
100
AcDbLine
 10
164.6666852939431
 20
90.67993365693174
 30
0.0
 11
222.69564488272
 21
90.67993365693174
 31
0.0
  0
INSERT
  5
582
330
57E
100
AcDbEntity
  8
0
 62
    60
370
    -2
100
AcDbBlockReference
  2
_Dot
 10
163.6666852939431
 20
90.67993365693174
 30
0.0
 50
180.0
  0
INSERT
  5
583
330
57E
100
AcDbEntity
  8
0
 62
    60
370
    -2
100
AcDbBlockReference
  2
_Dot
 10
223.69564488272
 20
90.67993365693174
 30
0.0
  0
MTEXT
  5
584
330
57E
100
AcDbEntity
  8
0
 62
    60
100
AcDbMText
 10
193.6811650883316
 20
93.17993365693174
 30
0.0
 40
3.0
 41
0.0
 71
     5
 72
     1
  1
\A1;60
  7
SUNPOU
 73
     1
 44
1.0
  0
POINT
  5
585
330
57E
100
AcDbEntity
  8
DEFPOINTS
 62
     0
100
AcDbPoint
 10
163.6666852939431
 20
60.24349758894302
 30
0.0
  0
POINT
  5
586
330
57E
100
AcDbEntity
  8
DEFPOINTS
 62
     0
100
AcDbPoint
 10
223.69564488272
 20
60.24349758894302
 30
0.0
  0
POINT
  5
587
330
57E
100
AcDbEntity
  8
DEFPOINTS
 62
     0
100
AcDbPoint
 10
223.69564488272
 20
90.67993365693174
 30
0.0
  0
ENDBLK
  5
589
330
57E
100
AcDbEntity
  8
0
100
AcDbBlockEnd
  0
BLOCK
  5
595
330
58B
100
AcDbEntity
  8
0
100
AcDbBlockBegin
  2
*D21
 70
     1
 10
0.0
 20
0.0
 30
0.0
  3
*D21
  1

  0
LINE
  5
58C
330
58B
100
AcDbEntity
  8
0
 62
    70
370
    -2
100
AcDbLine
 10
219.6811650883317
 20
18.97618076335651
 30
0.0
 11
248.9087886091151
 21
18.9761807633565
 31
0.0
  0
LINE
  5
58D
330
58B
100
AcDbEntity
  8
0
 62
    70
370
    -2
100
AcDbLine
 10
195.6811650883318
 20
72.97618076335647
 30
0.0
 11
248.9087886091151
 21
72.97618076335645
 31
0.0
  0
LINE
  5
58E
330
58B
100
AcDbEntity
  8
0
 62
    60
370
    -2
100
AcDbLine
 10
248.9087886091151
 20
19.97618076335649
 30
0.0
 11
248.9087886091151
 21
71.97618076335645
 31
0.0
  0
INSERT
  5
58F
330
58B
100
AcDbEntity
  8
0
 62
    60
370
    -2
100
AcDbBlockReference
  2
_Dot
 10
248.9087886091151
 20
18.9761807633565
 30
0.0
 50
270.0
  0
INSERT
  5
590
330
58B
100
AcDbEntity
  8
0
 62
    60
370
    -2
100
AcDbBlockReference
  2
_Dot
 10
248.9087886091151
 20
72.97618076335645
 30
0.0
 50
90.0
  0
MTEXT
  5
591
330
58B
100
AcDbEntity
  8
0
 62
    60
100
AcDbMText
 10
246.4087886091151
 20
45.97618076335652
 30
0.0
 40
3.0
 41
0.0
 71
     5
 72
     1
  1
\A1;54
  7
SUNPOU
 11
0.0000000000000001
 21
1.0
 31
0.0
 73
     1
 44
1.0
  0
POINT
  5
592
330
58B
100
AcDbEntity
  8
DEFPOINTS
 62
     0
100
AcDbPoint
 10
217.6811650883317
 20
18.97618076335651
 30
0.0
  0
POINT
  5
593
330
58B
100
AcDbEntity
  8
DEFPOINTS
 62
     0
100
AcDbPoint
 10
193.6811650883318
 20
72.97618076335647
 30
0.0
  0
POINT
  5
594
330
58B
100
AcDbEntity
  8
DEFPOINTS
 62
     0
100
AcDbPoint
 10
248.9087886091151
 20
72.97618076335645
 30
0.0
  0
ENDBLK
  5
596
330
58B
100
AcDbEntity
  8
0
100
AcDbBlockEnd
  0
BLOCK
  5
5A3
330
599
100
AcDbEntity
  8
0
100
AcDbBlockBegin
  2
*D22
 70
     1
 10
0.0
 20
0.0
 30
0.0
  3
*D22
  1

  0
LINE
  5
630
330
599
100
AcDbEntity
  8
SUNPOU
 62
    70
370
    -2
100
AcDbLine
 10
-1.528206486867759
 20
22.26031082735219
 30
0.0
 11
-23.30050003217321
 21
22.2603108273522
 31
0.0
  0
LINE
  5
631
330
599
100
AcDbEntity
  8
SUNPOU
 62
    70
370
    -2
100
AcDbLine
 10
22.47179351313213
 20
76.26031082735216
 30
0.0
 11
-23.30050003217319
 21
76.26031082735216
 31
0.0
  0
LINE
  5
632
330
599
100
AcDbEntity
  8
SUNPOU
 62
    60
370
    -2
100
AcDbLine
 10
-23.30050003217321
 20
23.2603108273522
 30
0.0
 11
-23.30050003217319
 21
75.26031082735215
 31
0.0
  0
INSERT
  5
633
330
599
100
AcDbEntity
  8
SUNPOU
 62
    60
370
    -2
100
AcDbBlockReference
  2
_Dot
 10
-23.30050003217321
 20
22.2603108273522
 30
0.0
 50
270.0
  0
INSERT
  5
634
330
599
100
AcDbEntity
  8
SUNPOU
 62
    60
370
    -2
100
AcDbBlockReference
  2
_Dot
 10
-23.30050003217319
 20
76.26031082735216
 30
0.0
 50
90.0
  0
MTEXT
  5
635
330
599
100
AcDbEntity
  8
SUNPOU
 62
    60
100
AcDbMText
 10
-25.80050003217321
 20
49.26031082735217
 30
0.0
 40
3.0
 41
0.0
 71
     5
 72
     1
  1
\A1;54
  7
SUNPOU
 11
0.0000000000000001
 21
1.0
 31
0.0
 73
     1
 44
1.0
  0
POINT
  5
636
330
599
100
AcDbEntity
  8
DEFPOINTS
 62
     0
100
AcDbPoint
 10
0.4717935131322406
 20
22.26031082735219
 30
0.0
  0
POINT
  5
637
330
599
100
AcDbEntity
  8
DEFPOINTS
 62
     0
100
AcDbPoint
 10
24.47179351313213
 20
76.26031082735216
 30
0.0
  0
POINT
  5
638
330
599
100
AcDbEntity
  8
DEFPOINTS
 62
     0
100
AcDbPoint
 10
-23.30050003217319
 20
76.26031082735216
 30
0.0
  0
ENDBLK
  5
5A4
330
599
100
AcDbEntity
  8
0
100
AcDbBlockEnd
  0
BLOCK
  5
5B0
330
5A6
100
AcDbEntity
  8
0
100
AcDbBlockBegin
  2
*D23
 70
     1
 10
0.0
 20
0.0
 30
0.0
  3
*D23
  1

  0
LINE
  5
627
330
5A6
100
AcDbEntity
  8
SUNPOU
 62
    70
370
    -2
100
AcDbLine
 10
-5.528206486867759
 20
65.52762765293872
 30
0.0
 11
-5.528206486867757
 21
90.09423114043284
 31
0.0
  0
LINE
  5
628
330
5A6
100
AcDbEntity
  8
SUNPOU
 62
    70
370
    -2
100
AcDbLine
 10
54.47179351313224
 20
65.52762765293872
 30
0.0
 11
54.47179351313224
 21
90.09423114043284
 31
0.0
  0
LINE
  5
629
330
5A6
100
AcDbEntity
  8
SUNPOU
 62
    60
370
    -2
100
AcDbLine
 10
-4.528206486867757
 20
90.09423114043284
 30
0.0
 11
53.47179351313224
 21
90.09423114043284
 31
0.0
  0
INSERT
  5
62A
330
5A6
100
AcDbEntity
  8
SUNPOU
 62
    60
370
    -2
100
AcDbBlockReference
  2
_Dot
 10
-5.528206486867757
 20
90.09423114043284
 30
0.0
 50
180.0
  0
INSERT
  5
62B
330
5A6
100
AcDbEntity
  8
SUNPOU
 62
    60
370
    -2
100
AcDbBlockReference
  2
_Dot
 10
54.47179351313224
 20
90.09423114043284
 30
0.0
  0
MTEXT
  5
62C
330
5A6
100
AcDbEntity
  8
SUNPOU
 62
    60
100
AcDbMText
 10
24.47179351313224
 20
92.59423114043284
 30
0.0
 40
3.0
 41
0.0
 71
     5
 72
     1
  1
\A1;60
  7
SUNPOU
 73
     1
 44
1.0
  0
POINT
  5
62D
330
5A6
100
AcDbEntity
  8
DEFPOINTS
 62
     0
100
AcDbPoint
 10
-5.528206486867759
 20
63.52762765293872
 30
0.0
  0
POINT
  5
62E
330
5A6
100
AcDbEntity
  8
DEFPOINTS
 62
     0
100
AcDbPoint
 10
54.47179351313224
 20
63.52762765293872
 30
0.0
  0
POINT
  5
62F
330
5A6
100
AcDbEntity
  8
DEFPOINTS
 62
     0
100
AcDbPoint
 10
54.47179351313224
 20
90.09423114043284
 30
0.0
  0
ENDBLK
  5
5B1
330
5A6
100
AcDbEntity
  8
0
100
AcDbBlockEnd
  0
BLOCK
  5
5CF
330
5C5
100
AcDbEntity
  8
0
100
AcDbBlockBegin
  2
*D24
 70
     1
 10
0.0
 20
0.0
 30
0.0
  3
*D24
  1

  0
LINE
  5
5D1
330
5C5
100
AcDbEntity
  8
SUNPOU
 62
    70
370
    -2
100
AcDbLine
 10
0.4717935131322406
 20
20.2603108273522
 30
0.0
 11
0.4717935131322401
 21
13.92644914349966
 31
0.0
  0
LINE
  5
5D2
330
5C5
100
AcDbEntity
  8
SUNPOU
 62
    70
370
    -2
100
AcDbLine
 10
48.47179351313255
 20
20.26031082735218
 30
0.0
 11
48.47179351313255
 21
13.92644914349966
 31
0.0
  0
LINE
  5
5D3
330
5C5
100
AcDbEntity
  8
SUNPOU
 62
    60
370
    -2
100
AcDbLine
 10
1.47179351313224
 20
13.92644914349966
 30
0.0
 11
47.47179351313255
 21
13.92644914349966
 31
0.0
  0
INSERT
  5
5D4
330
5C5
100
AcDbEntity
  8
SUNPOU
 62
    60
370
    -2
100
AcDbBlockReference
  2
_Dot
 10
0.4717935131322401
 20
13.92644914349966
 30
0.0
 50
180.0
  0
INSERT
  5
5D5
330
5C5
100
AcDbEntity
  8
SUNPOU
 62
    60
370
    -2
100
AcDbBlockReference
  2
_Dot
 10
48.47179351313255
 20
13.92644914349966
 30
0.0
  0
MTEXT
  5
5D6
330
5C5
100
AcDbEntity
  8
SUNPOU
 62
    60
100
AcDbMText
 10
24.4717935131324
 20
16.42644914349966
 30
0.0
 40
3.0
 41
0.0
 71
     5
 72
     1
  1
\A1;48.000000
  7
SUNPOU
 73
     1
 44
1.0
  0
POINT
  5
5D7
330
5C5
100
AcDbEntity
  8
DEFPOINTS
 62
     0
100
AcDbPoint
 10
0.4717935131322406
 20
22.26031082735219
 30
0.0
  0
POINT
  5
5D8
330
5C5
100
AcDbEntity
  8
DEFPOINTS
 62
     0
100
AcDbPoint
 10
48.47179351313255
 20
22.26031082735218
 30
0.0
  0
POINT
  5
5D9
330
5C5
100
AcDbEntity
  8
DEFPOINTS
 62
     0
100
AcDbPoint
 10
48.47179351313255
 20
13.92644914349966
 30
0.0
  0
ENDBLK
  5
5D0
330
5C5
100
AcDbEntity
  8
0
100
AcDbBlockEnd
  0
BLOCK
  5
5E5
330
5DB
100
AcDbEntity
  8
0
100
AcDbBlockBegin
  2
*D25
 70
     1
 10
0.0
 20
0.0
 30
0.0
  3
*D25
  1

  0
LINE
  5
5FE
330
5DB
100
AcDbEntity
  8
SUNPOU
 62
    70
370
    -2
100
AcDbLine
 10
0.4717935131322406
 20
20.2603108273522
 30
0.0
 11
0.47179351313224
 21
12.26498092886049
 31
0.0
  0
LINE
  5
5FF
330
5DB
100
AcDbEntity
  8
SUNPOU
 62
    70
370
    -2
100
AcDbLine
 10
-5.542686281256099
 20
61.52762765293871
 30
0.0
 11
-5.542686281256102
 21
12.26498092886049
 31
0.0
  0
LINE
  5
600
330
5DB
100
AcDbEntity
  8
SUNPOU
 62
    60
370
    -2
100
AcDbLine
 10
-0.5282064868677601
 20
12.26498092886049
 30
0.0
 11
-4.542686281256102
 21
12.26498092886049
 31
0.0
  0
LINE
  5
601
330
5DB
100
AcDbEntity
  8
SUNPOU
 62
    60
370
    -2
100
AcDbLine
 10
-5.542686281256102
 20
12.26498092886049
 30
0.0
 11
-27.5426862812561
 21
12.26498092886049
 31
0.0
  0
INSERT
  5
602
330
5DB
100
AcDbEntity
  8
SUNPOU
 62
    60
370
    -2
100
AcDbBlockReference
  2
_Dot
 10
0.47179351313224
 20
12.26498092886049
 30
0.0
  0
INSERT
  5
603
330
5DB
100
AcDbEntity
  8
SUNPOU
 62
    60
370
    -2
100
AcDbBlockReference
  2
_Dot
 10
-5.542686281256102
 20
12.26498092886049
 30
0.0
 50
180.0
  0
MTEXT
  5
604
330
5DB
100
AcDbEntity
  8
SUNPOU
 62
    60
100
AcDbMText
 10
-17.0426862812561
 20
14.76498092886049
 30
0.0
 40
3.0
 41
0.0
 71
     5
 72
     1
  1
\A1;6.014480
  7
SUNPOU
 73
     1
 44
1.0
  0
POINT
  5
605
330
5DB
100
AcDbEntity
  8
DEFPOINTS
 62
     0
100
AcDbPoint
 10
0.4717935131322406
 20
22.26031082735219
 30
0.0
  0
POINT
  5
606
330
5DB
100
AcDbEntity
  8
DEFPOINTS
 62
     0
100
AcDbPoint
 10
-5.542686281256099
 20
63.52762765293872
 30
0.0
  0
POINT
  5
607
330
5DB
100
AcDbEntity
  8
DEFPOINTS
 62
     0
100
AcDbPoint
 10
-5.542686281256102
 20
12.26498092886049
 30
0.0
  0
ENDBLK
  5
5E6
330
5DB
100
AcDbEntity
  8
0
100
AcDbBlockEnd
  0
BLOCK
  5
5F2
330
5E8
100
AcDbEntity
  8
0
100
AcDbBlockBegin
  2
*D26
 70
     1
 10
0.0
 20
0.0
 30
0.0
  3
*D26
  1

  0
LINE
  5
614
330
5E8
100
AcDbEntity
  8
SUNPOU
 62
    70
370
    -2
100
AcDbLine
 10
48.47179351313255
 20
20.26031082735218
 30
0.0
 11
48.47179351313255
 21
13.0502715158218
 31
0.0
  0
LINE
  5
615
330
5E8
100
AcDbEntity
  8
SUNPOU
 62
    70
370
    -2
100
AcDbLine
 10
54.47179351313224
 20
61.52762765293871
 30
0.0
 11
54.47179351313224
 21
13.0502715158218
 31
0.0
  0
LINE
  5
616
330
5E8
100
AcDbEntity
  8
SUNPOU
 62
    60
370
    -2
100
AcDbLine
 10
49.47179351313256
 20
13.0502715158218
 30
0.0
 11
53.47179351313224
 21
13.0502715158218
 31
0.0
  0
LINE
  5
617
330
5E8
100
AcDbEntity
  8
SUNPOU
 62
    60
370
    -2
100
AcDbLine
 10
54.47179351313224
 20
13.0502715158218
 30
0.0
 11
75.47179351313224
 21
13.0502715158218
 31
0.0
  0
INSERT
  5
618
330
5E8
100
AcDbEntity
  8
SUNPOU
 62
    60
370
    -2
100
AcDbBlockReference
  2
_Dot
 10
48.47179351313255
 20
13.0502715158218
 30
0.0
 50
180.0
  0
INSERT
  5
619
330
5E8
100
AcDbEntity
  8
SUNPOU
 62
    60
370
    -2
100
AcDbBlockReference
  2
_Dot
 10
54.47179351313224
 20
13.0502715158218
 30
0.0
  0
MTEXT
  5
61A
330
5E8
100
AcDbEntity
  8
SUNPOU
 62
    60
100
AcDbMText
 10
65.47179351313224
 20
15.5502715158218
 30
0.0
 40
3.0
 41
0.0
 71
     5
 72
     1
  1
\A1;6.000000
  7
SUNPOU
 73
     1
 44
1.0
  0
POINT
  5
61B
330
5E8
100
AcDbEntity
  8
DEFPOINTS
 62
     0
100
AcDbPoint
 10
48.47179351313255
 20
22.26031082735218
 30
0.0
  0
POINT
  5
61C
330
5E8
100
AcDbEntity
  8
DEFPOINTS
 62
     0
100
AcDbPoint
 10
54.47179351313224
 20
63.52762765293872
 30
0.0
  0
POINT
  5
61D
330
5E8
100
AcDbEntity
  8
DEFPOINTS
 62
     0
100
AcDbPoint
 10
54.47179351313224
 20
13.0502715158218
 30
0.0
  0
ENDBLK
  5
5F3
330
5E8
100
AcDbEntity
  8
0
100
AcDbBlockEnd
  0
BLOCK
  5
66B
330
661
100
AcDbEntity
  8
0
100
AcDbBlockBegin
  2
*D28
 70
     1
 10
0.0
 20
0.0
 30
0.0
  3
*D28
  1

  0
LINE
  5
6D6
330
661
100
AcDbEntity
  8
SUNPOU
 62
    70
370
    -2
100
AcDbLine
 10
-3.60800752577829
 20
80.77868200107966
 30
0.0
 11
-3.608007525778289
 21
104.1007149828769
 31
0.0
  0
LINE
  5
6D7
330
661
100
AcDbEntity
  8
SUNPOU
 62
    70
370
    -2
100
AcDbLine
 10
51.39199247422171
 20
80.77868200107966
 30
0.0
 11
51.39199247422171
 21
104.1007149828769
 31
0.0
  0
LINE
  5
6D8
330
661
100
AcDbEntity
  8
SUNPOU
 62
    60
370
    -2
100
AcDbLine
 10
-2.608007525778289
 20
104.1007149828769
 30
0.0
 11
50.39199247422171
 21
104.1007149828769
 31
0.0
  0
INSERT
  5
6D9
330
661
100
AcDbEntity
  8
SUNPOU
 62
    60
370
    -2
100
AcDbBlockReference
  2
_Dot
 10
-3.608007525778289
 20
104.1007149828769
 30
0.0
 50
180.0
  0
INSERT
  5
6DA
330
661
100
AcDbEntity
  8
SUNPOU
 62
    60
370
    -2
100
AcDbBlockReference
  2
_Dot
 10
51.39199247422171
 20
104.1007149828769
 30
0.0
  0
MTEXT
  5
6DB
330
661
100
AcDbEntity
  8
SUNPOU
 62
    60
100
AcDbMText
 10
23.8919924742217
 20
106.6007149828769
 30
0.0
 40
3.0
 41
0.0
 71
     5
 72
     1
  1
\A1;55
  7
SUNPOU
 73
     1
 44
1.0
  0
POINT
  5
6DC
330
661
100
AcDbEntity
  8
DEFPOINTS
 62
     0
100
AcDbPoint
 10
-3.60800752577829
 20
78.77868200107966
 30
0.0
  0
POINT
  5
6DD
330
661
100
AcDbEntity
  8
DEFPOINTS
 62
     0
100
AcDbPoint
 10
51.39199247422171
 20
78.77868200107966
 30
0.0
  0
POINT
  5
6DE
330
661
100
AcDbEntity
  8
DEFPOINTS
 62
     0
100
AcDbPoint
 10
51.39199247422171
 20
104.1007149828769
 30
0.0
  0
ENDBLK
  5
66C
330
661
100
AcDbEntity
  8
0
100
AcDbBlockEnd
  0
BLOCK
  5
678
330
66E
100
AcDbEntity
  8
0
100
AcDbBlockBegin
  2
*D29
 70
     1
 10
0.0
 20
0.0
 30
0.0
  3
*D29
  1

  0
LINE
  5
6DF
330
66E
100
AcDbEntity
  8
SUNPOU
 62
    70
370
    -2
100
AcDbLine
 10
2.891992474221694
 20
31.29332727708427
 30
0.0
 11
-19.87244463548313
 21
31.29332727708427
 31
0.0
  0
LINE
  5
6E0
330
66E
100
AcDbEntity
  8
SUNPOU
 62
    70
370
    -2
100
AcDbLine
 10
21.89199247422171
 20
91.29332727708426
 30
0.0
 11
-19.87244463548312
 21
91.29332727708426
 31
0.0
  0
LINE
  5
6E1
330
66E
100
AcDbEntity
  8
SUNPOU
 62
    60
370
    -2
100
AcDbLine
 10
-19.87244463548313
 20
32.29332727708428
 30
0.0
 11
-19.87244463548312
 21
90.29332727708426
 31
0.0
  0
INSERT
  5
6E2
330
66E
100
AcDbEntity
  8
SUNPOU
 62
    60
370
    -2
100
AcDbBlockReference
  2
_Dot
 10
-19.87244463548313
 20
31.29332727708427
 30
0.0
 50
270.0
  0
INSERT
  5
6E3
330
66E
100
AcDbEntity
  8
SUNPOU
 62
    60
370
    -2
100
AcDbBlockReference
  2
_Dot
 10
-19.87244463548312
 20
91.29332727708426
 30
0.0
 50
90.0
  0
MTEXT
  5
6E4
330
66E
100
AcDbEntity
  8
SUNPOU
 62
    60
100
AcDbMText
 10
-22.37244463548313
 20
61.29332727708426
 30
0.0
 40
3.0
 41
0.0
 71
     5
 72
     1
  1
\A1;60
  7
SUNPOU
 11
0.0000000000000001
 21
1.0
 31
0.0
 73
     1
 44
1.0
  0
POINT
  5
6E5
330
66E
100
AcDbEntity
  8
DEFPOINTS
 62
     0
100
AcDbPoint
 10
4.891992474221694
 20
31.29332727708427
 30
0.0
  0
POINT
  5
6E6
330
66E
100
AcDbEntity
  8
DEFPOINTS
 62
     0
100
AcDbPoint
 10
23.89199247422172
 20
91.29332727708426
 30
0.0
  0
POINT
  5
6E7
330
66E
100
AcDbEntity
  8
DEFPOINTS
 62
     0
100
AcDbPoint
 10
-19.87244463548312
 20
91.29332727708426
 30
0.0
  0
ENDBLK
  5
679
330
66E
100
AcDbEntity
  8
0
100
AcDbBlockEnd
  0
BLOCK
  5
685
330
67B
100
AcDbEntity
  8
0
100
AcDbBlockBegin
  2
*D30
 70
     1
 10
0.0
 20
0.0
 30
0.0
  3
*D30
  1

  0
LINE
  5
6E8
330
67B
100
AcDbEntity
  8
SUNPOU
 62
    70
370
    -2
100
AcDbLine
 10
4.391992474221694
 20
29.29332727708427
 30
0.0
 11
4.391992474221694
 21
17.27439897221279
 31
0.0
  0
LINE
  5
6E9
330
67B
100
AcDbEntity
  8
SUNPOU
 62
    70
370
    -2
100
AcDbLine
 10
43.39199247422172
 20
29.29332727708427
 30
0.0
 11
43.39199247422172
 21
17.27439897221279
 31
0.0
  0
LINE
  5
6EA
330
67B
100
AcDbEntity
  8
SUNPOU
 62
    60
370
    -2
100
AcDbLine
 10
5.391992474221694
 20
17.27439897221279
 30
0.0
 11
42.39199247422172
 21
17.27439897221279
 31
0.0
  0
INSERT
  5
6EB
330
67B
100
AcDbEntity
  8
SUNPOU
 62
    60
370
    -2
100
AcDbBlockReference
  2
_Dot
 10
4.391992474221694
 20
17.27439897221279
 30
0.0
 50
180.0
  0
INSERT
  5
6EC
330
67B
100
AcDbEntity
  8
SUNPOU
 62
    60
370
    -2
100
AcDbBlockReference
  2
_Dot
 10
43.39199247422172
 20
17.27439897221279
 30
0.0
  0
MTEXT
  5
6ED
330
67B
100
AcDbEntity
  8
SUNPOU
 62
    60
100
AcDbMText
 10
23.8919924742217
 20
19.77439897221279
 30
0.0
 40
3.0
 41
0.0
 71
     5
 72
     1
  1
\A1;39
  7
SUNPOU
 73
     1
 44
1.0
  0
POINT
  5
6EE
330
67B
100
AcDbEntity
  8
DEFPOINTS
 62
     0
100
AcDbPoint
 10
4.391992474221694
 20
31.29332727708427
 30
0.0
  0
POINT
  5
6EF
330
67B
100
AcDbEntity
  8
DEFPOINTS
 62
     0
100
AcDbPoint
 10
43.39199247422172
 20
31.29332727708427
 30
0.0
  0
POINT
  5
6F0
330
67B
100
AcDbEntity
  8
DEFPOINTS
 62
     0
100
AcDbPoint
 10
43.39199247422172
 20
17.27439897221279
 30
0.0
  0
ENDBLK
  5
686
330
67B
100
AcDbEntity
  8
0
100
AcDbBlockEnd
  0
BLOCK
  5
70B
330
701
100
AcDbEntity
  8
0
100
AcDbBlockBegin
  2
*D32
 70
     1
 10
0.0
 20
0.0
 30
0.0
  3
*D32
  1

  0
LINE
  5
702
330
701
100
AcDbEntity
  8
SUNPOU
 62
    70
370
    -2
100
AcDbLine
 10
3.390740277732788
 20
45.20688789279641
 30
0.0
 11
3.39074027773279
 21
75.73841794459759
 31
0.0
  0
LINE
  5
703
330
701
100
AcDbEntity
  8
SUNPOU
 62
    70
370
    -2
100
AcDbLine
 10
47.39074027773279
 20
45.20688789279641
 30
0.0
 11
47.39074027773279
 21
75.73841794459759
 31
0.0
  0
LINE
  5
704
330
701
100
AcDbEntity
  8
SUNPOU
 62
    60
370
    -2
100
AcDbLine
 10
4.39074027773279
 20
75.73841794459759
 30
0.0
 11
46.39074027773278
 21
75.73841794459759
 31
0.0
  0
INSERT
  5
705
330
701
100
AcDbEntity
  8
SUNPOU
 62
    60
370
    -2
100
AcDbBlockReference
  2
_Dot
 10
3.39074027773279
 20
75.73841794459759
 30
0.0
 50
180.0
  0
INSERT
  5
706
330
701
100
AcDbEntity
  8
SUNPOU
 62
    60
370
    -2
100
AcDbBlockReference
  2
_Dot
 10
47.39074027773279
 20
75.73841794459759
 30
0.0
  0
MTEXT
  5
707
330
701
100
AcDbEntity
  8
SUNPOU
 62
    60
100
AcDbMText
 10
25.39074027773279
 20
78.23841794459759
 30
0.0
 40
3.0
 41
0.0
 71
     5
 72
     1
  1
\A1;44
  7
SUNPOU
 73
     1
 44
1.0
  0
POINT
  5
708
330
701
100
AcDbEntity
  8
DEFPOINTS
 62
     0
100
AcDbPoint
 10
3.390740277732788
 20
43.20688789279642
 30
0.0
  0
POINT
  5
709
330
701
100
AcDbEntity
  8
DEFPOINTS
 62
     0
100
AcDbPoint
 10
47.39074027773279
 20
43.20688789279642
 30
0.0
  0
POINT
  5
70A
330
701
100
AcDbEntity
  8
DEFPOINTS
 62
     0
100
AcDbPoint
 10
47.39074027773279
 20
75.73841794459759
 30
0.0
  0
ENDBLK
  5
70C
330
701
100
AcDbEntity
  8
0
100
AcDbBlockEnd
  0
BLOCK
  5
718
330
70E
100
AcDbEntity
  8
0
100
AcDbBlockBegin
  2
*D33
 70
     1
 10
0.0
 20
0.0
 30
0.0
  3
*D33
  1

  0
LINE
  5
70F
330
70E
100
AcDbEntity
  8
SUNPOU
 62
    70
370
    -2
100
AcDbLine
 10
23.39074027773278
 20
65.20688789279642
 30
0.0
 11
-10.5509150653047
 21
65.20688789279642
 31
0.0
  0
LINE
  5
710
330
70E
100
AcDbEntity
  8
SUNPOU
 62
    70
370
    -2
100
AcDbLine
 10
8.291071407191282
 20
27.20688789279643
 30
0.0
 11
-10.5509150653047
 21
27.20688789279643
 31
0.0
  0
LINE
  5
711
330
70E
100
AcDbEntity
  8
SUNPOU
 62
    60
370
    -2
100
AcDbLine
 10
-10.5509150653047
 20
64.20688789279641
 30
0.0
 11
-10.5509150653047
 21
28.20688789279643
 31
0.0
  0
INSERT
  5
712
330
70E
100
AcDbEntity
  8
SUNPOU
 62
    60
370
    -2
100
AcDbBlockReference
  2
_Dot
 10
-10.5509150653047
 20
65.20688789279642
 30
0.0
 50
90.0
  0
INSERT
  5
713
330
70E
100
AcDbEntity
  8
SUNPOU
 62
    60
370
    -2
100
AcDbBlockReference
  2
_Dot
 10
-10.5509150653047
 20
27.20688789279643
 30
0.0
 50
270.0
  0
MTEXT
  5
714
330
70E
100
AcDbEntity
  8
SUNPOU
 62
    60
100
AcDbMText
 10
-13.05091506530471
 20
46.20688789279642
 30
0.0
 40
3.0
 41
0.0
 71
     5
 72
     1
  1
\A1;38
  7
SUNPOU
 11
0.0000000000000001
 21
1.0
 31
0.0
 73
     1
 44
1.0
  0
POINT
  5
715
330
70E
100
AcDbEntity
  8
DEFPOINTS
 62
     0
100
AcDbPoint
 10
25.39074027773279
 20
65.20688789279642
 30
0.0
  0
POINT
  5
716
330
70E
100
AcDbEntity
  8
DEFPOINTS
 62
     0
100
AcDbPoint
 10
10.29107140719128
 20
27.20688789279643
 30
0.0
  0
POINT
  5
717
330
70E
100
AcDbEntity
  8
DEFPOINTS
 62
     0
100
AcDbPoint
 10
-10.5509150653047
 20
27.20688789279643
 30
0.0
  0
ENDBLK
  5
719
330
70E
100
AcDbEntity
  8
0
100
AcDbBlockEnd
  0
BLOCK
  5
725
330
71B
100
AcDbEntity
  8
0
100
AcDbBlockBegin
  2
*D34
 70
     1
 10
0.0
 20
0.0
 30
0.0
  3
*D34
  1

  0
LINE
  5
71C
330
71B
100
AcDbEntity
  8
SUNPOU
 62
    70
370
    -2
100
AcDbLine
 10
10.29107140719128
 20
25.20688789279643
 30
0.0
 11
10.29107140719128
 21
14.35038957584856
 31
0.0
  0
LINE
  5
71D
330
71B
100
AcDbEntity
  8
SUNPOU
 62
    70
370
    -2
100
AcDbLine
 10
40.49040914827421
 20
25.20688789279643
 30
0.0
 11
40.49040914827421
 21
14.35038957584856
 31
0.0
  0
LINE
  5
71E
330
71B
100
AcDbEntity
  8
SUNPOU
 62
    60
370
    -2
100
AcDbLine
 10
11.29107140719128
 20
14.35038957584856
 30
0.0
 11
39.49040914827421
 21
14.35038957584856
 31
0.0
  0
INSERT
  5
71F
330
71B
100
AcDbEntity
  8
SUNPOU
 62
    60
370
    -2
100
AcDbBlockReference
  2
_Dot
 10
10.29107140719128
 20
14.35038957584856
 30
0.0
 50
180.0
  0
INSERT
  5
720
330
71B
100
AcDbEntity
  8
SUNPOU
 62
    60
370
    -2
100
AcDbBlockReference
  2
_Dot
 10
40.49040914827421
 20
14.35038957584856
 30
0.0
  0
MTEXT
  5
721
330
71B
100
AcDbEntity
  8
SUNPOU
 62
    60
100
AcDbMText
 10
25.39074027773274
 20
16.85038957584856
 30
0.0
 40
3.0
 41
0.0
 71
     5
 72
     1
  1
\A1;30
  7
SUNPOU
 73
     1
 44
1.0
  0
POINT
  5
722
330
71B
100
AcDbEntity
  8
DEFPOINTS
 62
     0
100
AcDbPoint
 10
10.29107140719128
 20
27.20688789279643
 30
0.0
  0
POINT
  5
723
330
71B
100
AcDbEntity
  8
DEFPOINTS
 62
     0
100
AcDbPoint
 10
40.49040914827421
 20
27.20688789279643
 30
0.0
  0
POINT
  5
724
330
71B
100
AcDbEntity
  8
DEFPOINTS
 62
     0
100
AcDbPoint
 10
40.49040914827421
 20
14.35038957584856
 30
0.0
  0
ENDBLK
  5
726
330
71B
100
AcDbEntity
  8
0
100
AcDbBlockEnd
  0
BLOCK
  5
7B7
330
7AD
100
AcDbEntity
  8
0
100
AcDbBlockBegin
  2
*D36
 70
     1
 10
0.0
 20
0.0
 30
0.0
  3
*D36
  1

  0
LINE
  5
800
330
7AD
100
AcDbEntity
  8
SUNPOU
 62
    70
370
    -2
100
AcDbLine
 10
21.60821344462238
 20
81.01785919341326
 30
0.0
 11
-21.05381988692532
 21
81.01785919341326
 31
0.0
  0
LINE
  5
801
330
7AD
100
AcDbEntity
  8
SUNPOU
 62
    70
370
    -2
100
AcDbLine
 10
3.358213444622379
 20
21.01785919341327
 30
0.0
 11
-21.05381988692534
 21
21.01785919341327
 31
0.0
  0
LINE
  5
802
330
7AD
100
AcDbEntity
  8
SUNPOU
 62
    60
370
    -2
100
AcDbLine
 10
-21.05381988692533
 20
80.01785919341326
 30
0.0
 11
-21.05381988692534
 21
22.01785919341327
 31
0.0
  0
INSERT
  5
803
330
7AD
100
AcDbEntity
  8
SUNPOU
 62
    60
370
    -2
100
AcDbBlockReference
  2
_Dot
 10
-21.05381988692533
 20
81.01785919341326
 30
0.0
 50
90.0
  0
INSERT
  5
804
330
7AD
100
AcDbEntity
  8
SUNPOU
 62
    60
370
    -2
100
AcDbBlockReference
  2
_Dot
 10
-21.05381988692534
 20
21.01785919341327
 30
0.0
 50
270.0
  0
MTEXT
  5
805
330
7AD
100
AcDbEntity
  8
SUNPOU
 62
    60
100
AcDbMText
 10
-23.55381988692534
 20
51.01785919341327
 30
0.0
 40
3.0
 41
0.0
 71
     5
 72
     1
  1
\A1;60
  7
SUNPOU
 11
0.0000000000000001
 21
1.0
 31
0.0
 73
     1
 44
1.0
  0
POINT
  5
806
330
7AD
100
AcDbEntity
  8
DEFPOINTS
 62
     0
100
AcDbPoint
 10
23.60821344462237
 20
81.01785919341326
 30
0.0
  0
POINT
  5
807
330
7AD
100
AcDbEntity
  8
DEFPOINTS
 62
     0
100
AcDbPoint
 10
5.358213444622379
 20
21.01785919341327
 30
0.0
  0
POINT
  5
808
330
7AD
100
AcDbEntity
  8
DEFPOINTS
 62
     0
100
AcDbPoint
 10
-21.05381988692534
 20
21.01785919341327
 30
0.0
  0
ENDBLK
  5
7B8
330
7AD
100
AcDbEntity
  8
0
100
AcDbBlockEnd
  0
BLOCK
  5
7C4
330
7BA
100
AcDbEntity
  8
0
100
AcDbBlockBegin
  2
*D37
 70
     1
 10
0.0
 20
0.0
 30
0.0
  3
*D37
  1

  0
LINE
  5
7F7
330
7BA
100
AcDbEntity
  8
SUNPOU
 62
    70
370
    -2
100
AcDbLine
 10
-3.14178655537762
 20
70.50321391740865
 30
0.0
 11
-3.141786555377619
 21
92.56530124543905
 31
0.0
  0
LINE
  5
7F8
330
7BA
100
AcDbEntity
  8
SUNPOU
 62
    70
370
    -2
100
AcDbLine
 10
51.85821344462238
 20
70.50321391740865
 30
0.0
 11
51.85821344462238
 21
92.56530124543905
 31
0.0
  0
LINE
  5
7F9
330
7BA
100
AcDbEntity
  8
SUNPOU
 62
    60
370
    -2
100
AcDbLine
 10
-2.141786555377619
 20
92.56530124543905
 30
0.0
 11
50.85821344462238
 21
92.56530124543905
 31
0.0
  0
INSERT
  5
7FA
330
7BA
100
AcDbEntity
  8
SUNPOU
 62
    60
370
    -2
100
AcDbBlockReference
  2
_Dot
 10
-3.141786555377619
 20
92.56530124543905
 30
0.0
 50
180.0
  0
INSERT
  5
7FB
330
7BA
100
AcDbEntity
  8
SUNPOU
 62
    60
370
    -2
100
AcDbBlockReference
  2
_Dot
 10
51.85821344462238
 20
92.56530124543905
 30
0.0
  0
MTEXT
  5
7FC
330
7BA
100
AcDbEntity
  8
SUNPOU
 62
    60
100
AcDbMText
 10
24.35821344462238
 20
95.06530124543905
 30
0.0
 40
3.0
 41
0.0
 71
     5
 72
     1
  1
\A1;55
  7
SUNPOU
 73
     1
 44
1.0
  0
POINT
  5
7FD
330
7BA
100
AcDbEntity
  8
DEFPOINTS
 62
     0
100
AcDbPoint
 10
-3.14178655537762
 20
68.50321391740866
 30
0.0
  0
POINT
  5
7FE
330
7BA
100
AcDbEntity
  8
DEFPOINTS
 62
     0
100
AcDbPoint
 10
51.85821344462238
 20
68.50321391740866
 30
0.0
  0
POINT
  5
7FF
330
7BA
100
AcDbEntity
  8
DEFPOINTS
 62
     0
100
AcDbPoint
 10
51.85821344462238
 20
92.56530124543905
 30
0.0
  0
ENDBLK
  5
7C5
330
7BA
100
AcDbEntity
  8
0
100
AcDbBlockEnd
  0
BLOCK
  5
828
330
81E
100
AcDbEntity
  8
0
100
AcDbBlockBegin
  2
*D39
 70
     1
 10
0.0
 20
0.0
 30
0.0
  3
*D39
  1

  0
LINE
  5
81F
330
81E
100
AcDbEntity
  8
SUNPOU
 62
    70
370
    -2
100
AcDbLine
 10
-6.744384978343646
 20
55.69480529947237
 30
0.0
 11
-6.744384978343643
 21
98.2109929963035
 31
0.0
  0
LINE
  5
820
330
81E
100
AcDbEntity
  8
SUNPOU
 62
    70
370
    -2
100
AcDbLine
 10
53.25561502165635
 20
55.69480529947236
 30
0.0
 11
53.25561502165635
 21
98.2109929963035
 31
0.0
  0
LINE
  5
821
330
81E
100
AcDbEntity
  8
SUNPOU
 62
    60
370
    -2
100
AcDbLine
 10
-5.744384978343643
 20
98.2109929963035
 30
0.0
 11
52.25561502165636
 21
98.2109929963035
 31
0.0
  0
INSERT
  5
822
330
81E
100
AcDbEntity
  8
SUNPOU
 62
    60
370
    -2
100
AcDbBlockReference
  2
_Dot
 10
-6.744384978343643
 20
98.2109929963035
 30
0.0
 50
180.0
  0
INSERT
  5
823
330
81E
100
AcDbEntity
  8
SUNPOU
 62
    60
370
    -2
100
AcDbBlockReference
  2
_Dot
 10
53.25561502165635
 20
98.2109929963035
 30
0.0
  0
MTEXT
  5
824
330
81E
100
AcDbEntity
  8
SUNPOU
 62
    60
100
AcDbMText
 10
23.25561502165635
 20
100.7109929963035
 30
0.0
 40
3.0
 41
0.0
 71
     5
 72
     1
  1
\A1;60
  7
SUNPOU
 73
     1
 44
1.0
  0
POINT
  5
825
330
81E
100
AcDbEntity
  8
DEFPOINTS
 62
     0
100
AcDbPoint
 10
-6.744384978343646
 20
53.69480529947237
 30
0.0
  0
POINT
  5
826
330
81E
100
AcDbEntity
  8
DEFPOINTS
 62
     0
100
AcDbPoint
 10
53.25561502165635
 20
53.69480529947236
 30
0.0
  0
POINT
  5
827
330
81E
100
AcDbEntity
  8
DEFPOINTS
 62
     0
100
AcDbPoint
 10
53.25561502165635
 20
98.2109929963035
 30
0.0
  0
ENDBLK
  5
829
330
81E
100
AcDbEntity
  8
0
100
AcDbBlockEnd
  0
BLOCK
  5
835
330
82B
100
AcDbEntity
  8
0
100
AcDbBlockBegin
  2
*D40
 70
     1
 10
0.0
 20
0.0
 30
0.0
  3
*D40
  1

  0
LINE
  5
82C
330
82B
100
AcDbEntity
  8
SUNPOU
 62
    70
370
    -2
100
AcDbLine
 10
21.25561502165635
 20
83.69480529947237
 30
0.0
 11
-26.69916926254654
 21
83.69480529947237
 31
0.0
  0
LINE
  5
82D
330
82B
100
AcDbEntity
  8
SUNPOU
 62
    70
370
    -2
100
AcDbLine
 10
3.255615021656141
 20
29.69480529947252
 30
0.0
 11
-26.69916926254654
 21
29.69480529947253
 31
0.0
  0
LINE
  5
82E
330
82B
100
AcDbEntity
  8
SUNPOU
 62
    60
370
    -2
100
AcDbLine
 10
-26.69916926254654
 20
82.69480529947236
 30
0.0
 11
-26.69916926254654
 21
30.69480529947253
 31
0.0
  0
INSERT
  5
82F
330
82B
100
AcDbEntity
  8
SUNPOU
 62
    60
370
    -2
100
AcDbBlockReference
  2
_Dot
 10
-26.69916926254654
 20
83.69480529947237
 30
0.0
 50
90.0
  0
INSERT
  5
830
330
82B
100
AcDbEntity
  8
SUNPOU
 62
    60
370
    -2
100
AcDbBlockReference
  2
_Dot
 10
-26.69916926254654
 20
29.69480529947253
 30
0.0
 50
270.0
  0
MTEXT
  5
831
330
82B
100
AcDbEntity
  8
SUNPOU
 62
    60
100
AcDbMText
 10
-29.19916926254655
 20
56.69480529947245
 30
0.0
 40
3.0
 41
0.0
 71
     5
 72
     1
  1
\A1;54
  7
SUNPOU
 11
0.0000000000000001
 21
1.0
 31
0.0
 73
     1
 44
1.0
  0
POINT
  5
832
330
82B
100
AcDbEntity
  8
DEFPOINTS
 62
     0
100
AcDbPoint
 10
23.25561502165635
 20
83.69480529947237
 30
0.0
  0
POINT
  5
833
330
82B
100
AcDbEntity
  8
DEFPOINTS
 62
     0
100
AcDbPoint
 10
5.25561502165614
 20
29.69480529947252
 30
0.0
  0
POINT
  5
834
330
82B
100
AcDbEntity
  8
DEFPOINTS
 62
     0
100
AcDbPoint
 10
-26.69916926254654
 20
29.69480529947253
 30
0.0
  0
ENDBLK
  5
836
330
82B
100
AcDbEntity
  8
0
100
AcDbBlockEnd
  0
BLOCK
  5
842
330
838
100
AcDbEntity
  8
0
100
AcDbBlockBegin
  2
*D41
 70
     1
 10
0.0
 20
0.0
 30
0.0
  3
*D41
  1

  0
LINE
  5
839
330
838
100
AcDbEntity
  8
SUNPOU
 62
    70
370
    -2
100
AcDbLine
 10
5.255615021656353
 20
27.69480529947236
 30
0.0
 11
5.255615021656352
 21
16.41134387964962
 31
0.0
  0
LINE
  5
83A
330
838
100
AcDbEntity
  8
SUNPOU
 62
    70
370
    -2
100
AcDbLine
 10
41.25561502165635
 20
27.69480529947236
 30
0.0
 11
41.25561502165635
 21
16.41134387964962
 31
0.0
  0
LINE
  5
83B
330
838
100
AcDbEntity
  8
SUNPOU
 62
    60
370
    -2
100
AcDbLine
 10
6.255615021656352
 20
16.41134387964962
 30
0.0
 11
40.25561502165635
 21
16.41134387964962
 31
0.0
  0
INSERT
  5
83C
330
838
100
AcDbEntity
  8
SUNPOU
 62
    60
370
    -2
100
AcDbBlockReference
  2
_Dot
 10
5.255615021656352
 20
16.41134387964962
 30
0.0
 50
180.0
  0
INSERT
  5
83D
330
838
100
AcDbEntity
  8
SUNPOU
 62
    60
370
    -2
100
AcDbBlockReference
  2
_Dot
 10
41.25561502165635
 20
16.41134387964962
 30
0.0
  0
MTEXT
  5
83E
330
838
100
AcDbEntity
  8
SUNPOU
 62
    60
100
AcDbMText
 10
23.25561502165635
 20
18.91134387964962
 30
0.0
 40
3.0
 41
0.0
 71
     5
 72
     1
  1
\A1;36
  7
SUNPOU
 73
     1
 44
1.0
  0
POINT
  5
83F
330
838
100
AcDbEntity
  8
DEFPOINTS
 62
     0
100
AcDbPoint
 10
5.255615021656353
 20
29.69480529947236
 30
0.0
  0
POINT
  5
840
330
838
100
AcDbEntity
  8
DEFPOINTS
 62
     0
100
AcDbPoint
 10
41.25561502165635
 20
29.69480529947235
 30
0.0
  0
POINT
  5
841
330
838
100
AcDbEntity
  8
DEFPOINTS
 62
     0
100
AcDbPoint
 10
41.25561502165635
 20
16.41134387964962
 30
0.0
  0
ENDBLK
  5
843
330
838
100
AcDbEntity
  8
0
100
AcDbBlockEnd
  0
BLOCK
  5
881
330
877
100
AcDbEntity
  8
0
100
AcDbBlockBegin
  2
*D43
 70
     1
 10
0.0
 20
0.0
 30
0.0
  3
*D43
  1

  0
LINE
  5
878
330
877
100
AcDbEntity
  8
SUNPOU
 62
    70
370
    -2
100
AcDbLine
 10
-4.662124731364372
 20
65.85622767123838
 30
0.0
 11
-4.66212473136437
 21
92.31138488617148
 31
0.0
  0
LINE
  5
879
330
877
100
AcDbEntity
  8
SUNPOU
 62
    70
370
    -2
100
AcDbLine
 10
51.33787526863563
 20
65.85622767123838
 30
0.0
 11
51.33787526863563
 21
92.31138488617148
 31
0.0
  0
LINE
  5
87A
330
877
100
AcDbEntity
  8
SUNPOU
 62
    60
370
    -2
100
AcDbLine
 10
-3.66212473136437
 20
92.31138488617148
 30
0.0
 11
50.33787526863562
 21
92.31138488617148
 31
0.0
  0
INSERT
  5
87B
330
877
100
AcDbEntity
  8
SUNPOU
 62
    60
370
    -2
100
AcDbBlockReference
  2
_Dot
 10
-4.66212473136437
 20
92.31138488617148
 30
0.0
 50
180.0
  0
INSERT
  5
87C
330
877
100
AcDbEntity
  8
SUNPOU
 62
    60
370
    -2
100
AcDbBlockReference
  2
_Dot
 10
51.33787526863563
 20
92.31138488617148
 30
0.0
  0
MTEXT
  5
87D
330
877
100
AcDbEntity
  8
SUNPOU
 62
    60
100
AcDbMText
 10
23.33787526863563
 20
94.81138488617148
 30
0.0
 40
3.0
 41
0.0
 71
     5
 72
     1
  1
\A1;56
  7
SUNPOU
 73
     1
 44
1.0
  0
POINT
  5
87E
330
877
100
AcDbEntity
  8
DEFPOINTS
 62
     0
100
AcDbPoint
 10
-4.662124731364372
 20
63.85622767123838
 30
0.0
  0
POINT
  5
87F
330
877
100
AcDbEntity
  8
DEFPOINTS
 62
     0
100
AcDbPoint
 10
51.33787526863563
 20
63.85622767123838
 30
0.0
  0
POINT
  5
880
330
877
100
AcDbEntity
  8
DEFPOINTS
 62
     0
100
AcDbPoint
 10
51.33787526863563
 20
92.31138488617148
 30
0.0
  0
ENDBLK
  5
882
330
877
100
AcDbEntity
  8
0
100
AcDbBlockEnd
  0
BLOCK
  5
88E
330
884
100
AcDbEntity
  8
0
100
AcDbBlockBegin
  2
*D44
 70
     1
 10
0.0
 20
0.0
 30
0.0
  3
*D44
  1

  0
LINE
  5
885
330
884
100
AcDbEntity
  8
SUNPOU
 62
    70
370
    -2
100
AcDbLine
 10
6.337875268635612
 20
76.85622767123838
 30
0.0
 11
-20.83500479527218
 21
76.85622767123838
 31
0.0
  0
LINE
  5
886
330
884
100
AcDbEntity
  8
SUNPOU
 62
    70
370
    -2
100
AcDbLine
 10
6.337875268635612
 20
20.8562276712384
 30
0.0
 11
-20.8350047952722
 21
20.85622767123841
 31
0.0
  0
LINE
  5
887
330
884
100
AcDbEntity
  8
SUNPOU
 62
    60
370
    -2
100
AcDbLine
 10
-20.83500479527218
 20
75.85622767123838
 30
0.0
 11
-20.8350047952722
 21
21.85622767123841
 31
0.0
  0
INSERT
  5
888
330
884
100
AcDbEntity
  8
SUNPOU
 62
    60
370
    -2
100
AcDbBlockReference
  2
_Dot
 10
-20.83500479527218
 20
76.85622767123838
 30
0.0
 50
90.0
  0
INSERT
  5
889
330
884
100
AcDbEntity
  8
SUNPOU
 62
    60
370
    -2
100
AcDbBlockReference
  2
_Dot
 10
-20.8350047952722
 20
20.85622767123841
 30
0.0
 50
270.0
  0
MTEXT
  5
88A
330
884
100
AcDbEntity
  8
SUNPOU
 62
    60
100
AcDbMText
 10
-23.3350047952722
 20
48.8562276712384
 30
0.0
 40
3.0
 41
0.0
 71
     5
 72
     1
  1
\A1;56
  7
SUNPOU
 11
0.0000000000000001
 21
1.0
 31
0.0
 73
     1
 44
1.0
  0
POINT
  5
88B
330
884
100
AcDbEntity
  8
DEFPOINTS
 62
     0
100
AcDbPoint
 10
8.337875268635613
 20
76.85622767123838
 30
0.0
  0
POINT
  5
88C
330
884
100
AcDbEntity
  8
DEFPOINTS
 62
     0
100
AcDbPoint
 10
8.337875268635613
 20
20.8562276712384
 30
0.0
  0
POINT
  5
88D
330
884
100
AcDbEntity
  8
DEFPOINTS
 62
     0
100
AcDbPoint
 10
-20.8350047952722
 20
20.85622767123841
 30
0.0
  0
ENDBLK
  5
88F
330
884
100
AcDbEntity
  8
0
100
AcDbBlockEnd
  0
BLOCK
  5
8D0
330
8C6
100
AcDbEntity
  8
0
100
AcDbBlockBegin
  2
*D46
 70
     1
 10
0.0
 20
0.0
 30
0.0
  3
*D46
  1

  0
LINE
  5
8C7
330
8C6
100
AcDbEntity
  8
SUNPOU
 62
    70
370
    -2
100
AcDbLine
 10
71.26332107035032
 20
39.47185472185021
 30
0.0
 11
71.26332107035032
 21
23.32036626080662
 31
0.0
  0
LINE
  5
8C8
330
8C6
100
AcDbEntity
  8
SUNPOU
 62
    70
370
    -2
100
AcDbLine
 10
-18.73667892964951
 20
39.47185472185022
 30
0.0
 11
-18.73667892964951
 21
23.32036626080662
 31
0.0
  0
LINE
  5
8C9
330
8C6
100
AcDbEntity
  8
SUNPOU
 62
    60
370
    -2
100
AcDbLine
 10
70.26332107035031
 20
23.32036626080662
 30
0.0
 11
-17.73667892964951
 21
23.32036626080662
 31
0.0
  0
INSERT
  5
8CA
330
8C6
100
AcDbEntity
  8
SUNPOU
 62
    60
370
    -2
100
AcDbBlockReference
  2
_Dot
 10
71.26332107035032
 20
23.32036626080662
 30
0.0
  0
INSERT
  5
8CB
330
8C6
100
AcDbEntity
  8
SUNPOU
 62
    60
370
    -2
100
AcDbBlockReference
  2
_Dot
 10
-18.73667892964951
 20
23.32036626080662
 30
0.0
 50
180.0
  0
MTEXT
  5
8CC
330
8C6
100
AcDbEntity
  8
SUNPOU
 62
    60
100
AcDbMText
 10
26.2633210703504
 20
25.82036626080662
 30
0.0
 40
3.0
 41
0.0
 71
     5
 72
     1
  1
\A1;90
  7
SUNPOU
 73
     1
 44
1.0
  0
POINT
  5
8CD
330
8C6
100
AcDbEntity
  8
DEFPOINTS
 62
     0
100
AcDbPoint
 10
71.26332107035032
 20
41.47185472185021
 30
0.0
  0
POINT
  5
8CE
330
8C6
100
AcDbEntity
  8
DEFPOINTS
 62
     0
100
AcDbPoint
 10
-18.73667892964951
 20
41.47185472185022
 30
0.0
  0
POINT
  5
8CF
330
8C6
100
AcDbEntity
  8
DEFPOINTS
 62
     0
100
AcDbPoint
 10
-18.73667892964951
 20
23.32036626080662
 30
0.0
  0
ENDBLK
  5
8D1
330
8C6
100
AcDbEntity
  8
0
100
AcDbBlockEnd
  0
BLOCK
  5
8DD
330
8D3
100
AcDbEntity
  8
0
100
AcDbBlockBegin
  2
*D47
 70
     1
 10
0.0
 20
0.0
 30
0.0
  3
*D47
  1

  0
LINE
  5
8D4
330
8D3
100
AcDbEntity
  8
SUNPOU
 62
    70
370
    -2
100
AcDbLine
 10
71.26332107035032
 20
39.47185472185022
 30
0.0
 11
90.28313194605562
 21
39.47185472185021
 31
0.0
  0
LINE
  5
8D5
330
8D3
100
AcDbEntity
  8
SUNPOU
 62
    70
370
    -2
100
AcDbLine
 10
28.26332107035023
 20
84.47185472185031
 30
0.0
 11
90.28313194605562
 21
84.47185472185029
 31
0.0
  0
LINE
  5
8D6
330
8D3
100
AcDbEntity
  8
SUNPOU
 62
    60
370
    -2
100
AcDbLine
 10
90.28313194605562
 20
40.47185472185021
 30
0.0
 11
90.28313194605562
 21
83.4718547218503
 31
0.0
  0
INSERT
  5
8D7
330
8D3
100
AcDbEntity
  8
SUNPOU
 62
    60
370
    -2
100
AcDbBlockReference
  2
_Dot
 10
90.28313194605562
 20
39.47185472185021
 30
0.0
 50
270.0
  0
INSERT
  5
8D8
330
8D3
100
AcDbEntity
  8
SUNPOU
 62
    60
370
    -2
100
AcDbBlockReference
  2
_Dot
 10
90.28313194605562
 20
84.47185472185029
 30
0.0
 50
90.0
  0
MTEXT
  5
8D9
330
8D3
100
AcDbEntity
  8
SUNPOU
 62
    60
100
AcDbMText
 10
87.7831319460556
 20
61.97185472185026
 30
0.0
 40
3.0
 41
0.0
 71
     5
 72
     1
  1
\A1;45
  7
SUNPOU
 11
0.0000000000000001
 21
1.0
 31
0.0
 73
     1
 44
1.0
  0
POINT
  5
8DA
330
8D3
100
AcDbEntity
  8
DEFPOINTS
 62
     0
100
AcDbPoint
 10
69.26332107035031
 20
39.47185472185022
 30
0.0
  0
POINT
  5
8DB
330
8D3
100
AcDbEntity
  8
DEFPOINTS
 62
     0
100
AcDbPoint
 10
26.26332107035024
 20
84.47185472185031
 30
0.0
  0
POINT
  5
8DC
330
8D3
100
AcDbEntity
  8
DEFPOINTS
 62
     0
100
AcDbPoint
 10
90.28313194605562
 20
84.47185472185029
 30
0.0
  0
ENDBLK
  5
8DE
330
8D3
100
AcDbEntity
  8
0
100
AcDbBlockEnd
  0
BLOCK
  5
8EB
330
8E1
100
AcDbEntity
  8
0
100
AcDbBlockBegin
  2
*D48
 70
     1
 10
0.0
 20
0.0
 30
0.0
  3
*D48
  1

  0
LINE
  5
8E2
330
8E1
100
AcDbEntity
  8
SUNPOU
 62
    70
370
    -2
100
AcDbLine
 10
-18.73667892964951
 20
39.47185472185022
 30
0.0
 11
-18.73667892964951
 21
21.44785868048256
 31
0.0
  0
LINE
  5
8E3
330
8E1
100
AcDbEntity
  8
SUNPOU
 62
    70
370
    -2
100
AcDbLine
 10
71.26332107035032
 20
39.47185472185021
 30
0.0
 11
71.26332107035032
 21
21.44785868048256
 31
0.0
  0
LINE
  5
8E4
330
8E1
100
AcDbEntity
  8
SUNPOU
 62
    60
370
    -2
100
AcDbLine
 10
-17.73667892964951
 20
21.44785868048256
 30
0.0
 11
70.26332107035031
 21
21.44785868048256
 31
0.0
  0
INSERT
  5
8E5
330
8E1
100
AcDbEntity
  8
SUNPOU
 62
    60
370
    -2
100
AcDbBlockReference
  2
_Dot
 10
-18.73667892964951
 20
21.44785868048256
 30
0.0
 50
180.0
  0
INSERT
  5
8E6
330
8E1
100
AcDbEntity
  8
SUNPOU
 62
    60
370
    -2
100
AcDbBlockReference
  2
_Dot
 10
71.26332107035032
 20
21.44785868048256
 30
0.0
  0
MTEXT
  5
8E7
330
8E1
100
AcDbEntity
  8
SUNPOU
 62
    60
100
AcDbMText
 10
26.2633210703504
 20
23.94785868048256
 30
0.0
 40
3.0
 41
0.0
 71
     5
 72
     1
  1
\A1;90
  7
SUNPOU
 73
     1
 44
1.0
  0
POINT
  5
8E8
330
8E1
100
AcDbEntity
  8
DEFPOINTS
 62
     0
100
AcDbPoint
 10
-18.73667892964951
 20
41.47185472185022
 30
0.0
  0
POINT
  5
8E9
330
8E1
100
AcDbEntity
  8
DEFPOINTS
 62
     0
100
AcDbPoint
 10
71.26332107035032
 20
41.47185472185021
 30
0.0
  0
POINT
  5
8EA
330
8E1
100
AcDbEntity
  8
DEFPOINTS
 62
     0
100
AcDbPoint
 10
71.26332107035032
 20
21.44785868048256
 30
0.0
  0
ENDBLK
  5
8EC
330
8E1
100
AcDbEntity
  8
0
100
AcDbBlockEnd
  0
ENDSEC
  0
SECTION
  2
ENTITIES
  0
LINE
  5
1F
330
2
100
AcDbEntity
  8
WAKU
100
AcDbLine
 10
0.0
 20
7.0
 30
0.0
 11
51.00899768490717
 21
7.0
 31
0.0
  0
LINE
  5
20
330
2
100
AcDbEntity
  8
WAKU
100
AcDbLine
 10
0.0
 20
0.0
 30
0.0
 11
51.00899768490717
 21
0.0
 31
0.0
  0
TEXT
  5
21
330
2
100
AcDbEntity
  8
HOJO
100
AcDbText
 10
4.826983000000012
 20
1.183313000000012
 30
0.0
 40
4.5
  1
H-HA
  7
SUNPOU
100
AcDbText
  0
TEXT
  5
23
330
2
100
AcDbEntity
  8
HOJO
100
AcDbText
 10
31.69211854733816
 20
2.522193000000015
 30
0.0
 40
3.0
  1
45×90
  7
SUNPOU
100
AcDbText
  0
DIMENSION
  5
8D2
330
2
100
AcDbEntity
  8
SUNPOU
100
AcDbDimension
  2
*D47
 10
90.28313194605562
 20
84.47185472185029
 30
0.0
 11
87.7831319460556
 21
61.97185472185026
 31
0.0
 70
    32
 71
     5
 42
45.00000000000007
  3
STANDARD
100
AcDbAlignedDimension
 13
69.26332107035031
 23
39.47185472185022
 33
0.0
 14
26.26332107035024
 24
84.47185472185031
 34
0.0
 50
90.0
100
AcDbRotatedDimension
1001
ACAD
1000
DSTYLE
1002
{
1070
    41
1040
1.0
1070
    42
1040
2.0
1070
    44
1040
0.0
1070
    73
1070
     0
1070
    74
1070
     0
1070
    77
1070
     1
1070
   140
1040
3.0
1070
   141
1040
0.0
1070
   146
1040
0.064286
1070
   147
1040
1.0
1070
   176
1070
    60
1070
   177
1070
    70
1070
   178
1070
    60
1070
   271
1070
     0
1070
   272
1070
     0
1070
   340
1005
1C
1070
   342
1005
109
1002
}
  0
LWPOLYLINE
  5
8DF
330
2
100
AcDbEntity
  8
KIJUN
 62
     0
100
AcDbPolyline
 90
       22
 70
     1
 43
0.0
 10
-7.539285165755984
 20
79.61256781520723
 10
-7.539285165754647
 20
76.72725485415606
 42
0.1105562666582067
 10
-14.39876889700679
 20
74.05597849478688
 42
0.4701580506008353
 10
-15.29829853066607
 20
65.63289512646003
 10
-10.54467197210826
 20
60.61117297503992
 42
-0.1917960429957807
 10
-8.847276862145207
 20
56.34894947031665
 10
-8.847276862145196
 20
55.61131856132199
 42
-0.3417671570420882
 10
-13.49229904536684
 20
49.60948184333915
 42
0.3417671570420883
 10
-18.73667892964951
 20
42.83321458110039
 10
-18.73667892964951
 20
41.47185472185022
 42
0.414213562373094
 10
-16.73667892964951
 20
39.47185472185022
 10
69.26332107035031
 20
39.47185472185022
 42
0.414213562373093
 10
71.26332107035032
 20
41.47185472185021
 10
71.26332107035032
 20
42.83321458110039
 42
0.3417671570420883
 10
66.01894118606765
 20
49.60948184333915
 42
-0.3417671570420882
 10
61.37391900284599
 20
55.61131856132199
 10
61.37391900284598
 20
56.34894947031665
 42
-0.1917960429957807
 10
63.07131411280906
 20
60.61117297503992
 10
67.82494067136681
 20
65.63289512646003
 42
0.4701580506009103
 10
66.92541103770747
 20
74.05597849478683
 42
0.1105562666582101
 10
60.06592730645537
 20
76.72725485415599
 10
60.06592730645678
 20
79.6125678152072
 42
0.1437548002275855
  0
DIMENSION
  5
8E0
330
2
100
AcDbEntity
  8
SUNPOU
100
AcDbDimension
  2
*D48
 10
71.26332107035032
 20
21.44785868048256
 30
0.0
 11
26.2633210703504
 21
23.94785868048256
 31
0.0
 70
    32
 71
     5
 42
89.99999999999984
  3
STANDARD
100
AcDbAlignedDimension
 13
-18.73667892964951
 23
41.47185472185022
 33
0.0
 14
71.26332107035032
 24
41.47185472185021
 34
0.0
100
AcDbRotatedDimension
1001
ACAD
1000
DSTYLE
1002
{
1070
    41
1040
1.0
1070
    42
1040
2.0
1070
    44
1040
0.0
1070
    73
1070
     0
1070
    74
1070
     0
1070
    77
1070
     1
1070
   140
1040
3.0
1070
   141
1040
0.0
1070
   146
1040
0.064286
1070
   147
1040
1.0
1070
   176
1070
    60
1070
   177
1070
    70
1070
   178
1070
    60
1070
   271
1070
     0
1070
   272
1070
     0
1070
   340
1005
1C
1070
   342
1005
109
1002
}
  0
ENDSEC
  0
SECTION
  2
OBJECTS
  0
DICTIONARY
  5
1A
330
0
100
AcDbDictionary
281
     1
  3
ACAD_GROUP
350
18
  3
ACAD_LAYOUT
350
58
  3
ACAD_MLINESTYLE
350
19
  3
ACAD_PLOTSETTINGS
350
59
  3
ACAD_PLOTSTYLENAME
350
56
  0
DICTIONARY
  5
18
102
{ACAD_REACTORS
330
1A
102
}
330
1A
100
AcDbDictionary
281
     1
  3
*A1
350
639
  3
*A3
350
80E
  0
DICTIONARY
  5
58
102
{ACAD_REACTORS
330
1A
102
}
330
1A
100
AcDbDictionary
281
     1
  3
Model
350
5A
  3
ﾚｲｱｳﾄ1
350
5B
  0
DICTIONARY
  5
19
102
{ACAD_REACTORS
330
1A
102
}
330
1A
100
AcDbDictionary
281
     1
  3
STANDARD
350
1D
  0
DICTIONARY
  5
59
102
{ACAD_REACTORS
330
1A
102
}
330
1A
100
AcDbDictionary
281
     1
  0
ACDBDICTIONARYWDFLT
  5
56
102
{ACAD_REACTORS
330
1A
102
}
330
1A
100
AcDbDictionary
281
     1
  3
Normal
350
57
100
AcDbDictionaryWithDefault
340
57
  0
GROUP
  5
639
102
{ACAD_REACTORS
330
18
102
}
330
18
100
AcDbGroup
300

 70
     1
 71
     1
  0
GROUP
  5
80E
102
{ACAD_REACTORS
330
18
102
}
330
18
100
AcDbGroup
300

 70
     1
 71
     1
  0
LAYOUT
  5
5A
102
{ACAD_REACTORS
330
58
102
}
330
58
100
AcDbPlotSettings
  1

  2
なし
  4

  6

 40
0.0
 41
0.0
 42
0.0
 43
0.0
 44
0.0
 45
0.0
 46
0.0
 47
0.0
 48
0.0
 49
0.0
140
0.0
141
0.0
142
1.0
143
1.0
 70
  1712
 72
     0
 73
     0
 74
     0
  7
monochrome.ctb
 75
     0
147
1.0
148
0.0
149
0.0
100
AcDbLayout
  1
Model
 70
     1
 71
     0
 10
0.0
 20
0.0
 11
12.0
 21
9.0
 12
0.0
 22
0.0
 32
0.0
 14
0.0
 24
0.0
 34
0.0
 15
0.0
 25
0.0
 35
0.0
146
0.0
 13
0.0
 23
0.0
 33
0.0
 16
1.0
 26
0.0
 36
0.0
 17
0.0
 27
1.0
 37
0.0
 76
     0
330
2
  0
LAYOUT
  5
5B
102
{ACAD_REACTORS
330
58
102
}
330
58
100
AcDbPlotSettings
  1

  2
なし
  4

  6

 40
0.0
 41
0.0
 42
0.0
 43
0.0
 44
0.0
 45
0.0
 46
0.0
 47
0.0
 48
0.0
 49
0.0
140
0.0
141
0.0
142
1.0
143
1.0
 70
   688
 72
     0
 73
     0
 74
     5
  7
monochrome.ctb
 75
    16
147
1.0
148
0.0
149
0.0
100
AcDbLayout
  1
ﾚｲｱｳﾄ1
 70
     1
 71
     1
 10
0.0
 20
0.0
 11
12.0
 21
9.0
 12
0.0
 22
0.0
 32
0.0
 14
1.000000000000000E+20
 24
1.000000000000000E+20
 34
1.000000000000000E+20
 15
-1.000000000000000E+20
 25
-1.000000000000000E+20
 35
-1.000000000000000E+20
146
0.0
 13
0.0
 23
0.0
 33
0.0
 16
1.0
 26
0.0
 36
0.0
 17
0.0
 27
1.0
 37
0.0
 76
     0
330
7
  0
MLINESTYLE
  5
1D
102
{ACAD_REACTORS
330
19
102
}
330
19
100
AcDbMlineStyle
  2
STANDARD
 70
     0
  3

 62
   256
 51
90.0
 52
90.0
 71
     2
 49
0.5
 62
   256
  6
BYLAYER
 49
-0.5
 62
   256
  6
BYLAYER
  0
ACDBPLACEHOLDER
  5
57
102
{ACAD_REACTORS
330
56
102
}
330
56
  0
ENDSEC
  0
EOF
