  0
SECTION
  2
HEADER
  9
$ACADVER
  1
AC1015
  9
$ACADMAINTVER
 70
    20
  9
$DWGCODEPAGE
  3
ANSI_932
  9
$INSBASE
 10
922.019522
 20
-675.4306699999999
 30
0.0
  9
$EXTMIN
 10
-0.0256298925180545
 20
-36.5207196373417
 30
-0.0000000000000058
  9
$EXTMAX
 10
819.3514870944778
 20
1349.759567293226
 30
0.0000000000000104
  9
$LIMMIN
 10
0.0
 20
0.0
  9
$LIMMAX
 10
420.0
 20
297.0
  9
$ORTHOMODE
 70
     1
  9
$REGENMODE
 70
     1
  9
$FILLMODE
 70
     1
  9
$QTEXTMODE
 70
     0
  9
$MIRRTEXT
 70
     1
  9
$LTSCALE
 40
50.0
  9
$ATTMODE
 70
     1
  9
$TEXTSIZE
 40
30.0
  9
$TRACEWID
 40
0.05
  9
$TEXTSTYLE
  7
SUNPOU
  9
$CLAYER
  8
0
  9
$CELTYPE
  6
BYLAYER
  9
$CECOLOR
 62
   256
  9
$CELTSCALE
 40
1.0
  9
$DISPSILH
 70
     0
  9
$DIMSCALE
 40
1.0
  9
$DIMASZ
 40
3.0
  9
$DIMEXO
 40
3.0
  9
$DIMDLI
 40
0.38
  9
$DIMRND
 40
0.0
  9
$DIMDLE
 40
0.0
  9
$DIMEXE
 40
0.0
  9
$DIMTP
 40
0.0
  9
$DIMTM
 40
0.0
  9
$DIMTXT
 40
10.0
  9
$DIMCEN
 40
0.0
  9
$DIMTSZ
 40
0.0
  9
$DIMTOL
 70
     0
  9
$DIMLIM
 70
     0
  9
$DIMTIH
 70
     0
  9
$DIMTOH
 70
     0
  9
$DIMSE1
 70
     0
  9
$DIMSE2
 70
     0
  9
$DIMTAD
 70
     1
  9
$DIMZIN
 70
     0
  9
$DIMBLK
  1
Dot
  9
$DIMASO
 70
     1
  9
$DIMSHO
 70
     1
  9
$DIMPOST
  1

  9
$DIMAPOST
  1

  9
$DIMALT
 70
     0
  9
$DIMALTD
 70
     2
  9
$DIMALTF
 40
25.4
  9
$DIMLFAC
 40
1.0
  9
$DIMTOFL
 70
     0
  9
$DIMTVP
 40
0.0
  9
$DIMTIX
 70
     0
  9
$DIMSOXD
 70
     0
  9
$DIMSAH
 70
     0
  9
$DIMBLK1
  1

  9
$DIMBLK2
  1

  9
$DIMSTYLE
  2
STANDARD
  9
$DIMCLRD
 70
    60
  9
$DIMCLRE
 70
    70
  9
$DIMCLRT
 70
    60
  9
$DIMTFAC
 40
0.064286
  9
$DIMGAP
 40
5.0
  9
$DIMJUST
 70
     0
  9
$DIMSD1
 70
     0
  9
$DIMSD2
 70
     0
  9
$DIMTOLJ
 70
     1
  9
$DIMTZIN
 70
     0
  9
$DIMALTZ
 70
     0
  9
$DIMALTTZ
 70
     0
  9
$DIMUPT
 70
     0
  9
$DIMDEC
 70
     0
  9
$DIMTDEC
 70
     0
  9
$DIMALTU
 70
     2
  9
$DIMALTTD
 70
     2
  9
$DIMTXSTY
  7
SUNPOU
  9
$DIMAUNIT
 70
     0
  9
$DIMADEC
 70
     0
  9
$DIMALTRND
 40
0.0
  9
$DIMAZIN
 70
     0
  9
$DIMDSEP
 70
    46
  9
$DIMATFIT
 70
     3
  9
$DIMFRAC
 70
     0
  9
$DIMLDRBLK
  1

  9
$DIMLUNIT
 70
     2
  9
$DIMLWD
 70
    -2
  9
$DIMLWE
 70
    -2
  9
$DIMTMOVE
 70
     0
  9
$LUNITS
 70
     2
  9
$LUPREC
 70
     5
  9
$SKETCHINC
 40
0.1
  9
$FILLETRAD
 40
0.0
  9
$AUNITS
 70
     0
  9
$AUPREC
 70
     0
  9
$MENU
  1
acad
  9
$ELEVATION
 40
0.0
  9
$PELEVATION
 40
0.0
  9
$THICKNESS
 40
0.0
  9
$LIMCHECK
 70
     0
  9
$CHAMFERA
 40
0.0
  9
$CHAMFERB
 40
0.0
  9
$CHAMFERC
 40
0.0
  9
$CHAMFERD
 40
0.0
  9
$SKPOLY
 70
     0
  9
$TDCREATE
 40
2450623.654673033
  9
$TDUCREATE
 40
2450623.279673032
  9
$TDUPDATE
 40
2454580.680618958
  9
$TDUUPDATE
 40
2454580.305618959
  9
$TDINDWG
 40
0.3458351852
  9
$TDUSRTIMER
 40
0.3458350116
  9
$USRTIMER
 70
     1
  9
$ANGBASE
 50
0.0
  9
$ANGDIR
 70
     0
  9
$PDMODE
 70
     0
  9
$PDSIZE
 40
0.0
  9
$PLINEWID
 40
0.0
  9
$SPLFRAME
 70
     0
  9
$SPLINETYPE
 70
     6
  9
$SPLINESEGS
 70
     8
  9
$HANDSEED
  5
DD0E
  9
$SURFTAB1
 70
     6
  9
$SURFTAB2
 70
     6
  9
$SURFTYPE
 70
     6
  9
$SURFU
 70
     6
  9
$SURFV
 70
     6
  9
$UCSBASE
  2

  9
$UCSNAME
  2

  9
$UCSORG
 10
0.0
 20
0.0
 30
0.0
  9
$UCSXDIR
 10
1.0
 20
0.0
 30
0.0
  9
$UCSYDIR
 10
0.0
 20
1.0
 30
0.0
  9
$UCSORTHOREF
  2

  9
$UCSORTHOVIEW
 70
     0
  9
$UCSORGTOP
 10
0.0
 20
0.0
 30
0.0
  9
$UCSORGBOTTOM
 10
0.0
 20
0.0
 30
0.0
  9
$UCSORGLEFT
 10
0.0
 20
0.0
 30
0.0
  9
$UCSORGRIGHT
 10
0.0
 20
0.0
 30
0.0
  9
$UCSORGFRONT
 10
0.0
 20
0.0
 30
0.0
  9
$UCSORGBACK
 10
0.0
 20
0.0
 30
0.0
  9
$PUCSBASE
  2

  9
$PUCSNAME
  2

  9
$PUCSORG
 10
0.0
 20
0.0
 30
0.0
  9
$PUCSXDIR
 10
1.0
 20
0.0
 30
0.0
  9
$PUCSYDIR
 10
0.0
 20
1.0
 30
0.0
  9
$PUCSORTHOREF
  2

  9
$PUCSORTHOVIEW
 70
     0
  9
$PUCSORGTOP
 10
0.0
 20
0.0
 30
0.0
  9
$PUCSORGBOTTOM
 10
0.0
 20
0.0
 30
0.0
  9
$PUCSORGLEFT
 10
0.0
 20
0.0
 30
0.0
  9
$PUCSORGRIGHT
 10
0.0
 20
0.0
 30
0.0
  9
$PUCSORGFRONT
 10
0.0
 20
0.0
 30
0.0
  9
$PUCSORGBACK
 10
0.0
 20
0.0
 30
0.0
  9
$USERI1
 70
     0
  9
$USERI2
 70
     0
  9
$USERI3
 70
     0
  9
$USERI4
 70
     0
  9
$USERI5
 70
     0
  9
$USERR1
 40
0.0
  9
$USERR2
 40
0.0
  9
$USERR3
 40
0.0
  9
$USERR4
 40
0.0
  9
$USERR5
 40
0.0
  9
$WORLDVIEW
 70
     1
  9
$SHADEDGE
 70
     3
  9
$SHADEDIF
 70
    70
  9
$TILEMODE
 70
     1
  9
$MAXACTVP
 70
    16
  9
$PINSBASE
 10
0.0
 20
0.0
 30
0.0
  9
$PLIMCHECK
 70
     0
  9
$PEXTMIN
 10
1.000000000000000E+20
 20
1.000000000000000E+20
 30
1.000000000000000E+20
  9
$PEXTMAX
 10
-1.000000000000000E+20
 20
-1.000000000000000E+20
 30
-1.000000000000000E+20
  9
$PLIMMIN
 10
0.0
 20
0.0
  9
$PLIMMAX
 10
12.0
 20
9.0
  9
$UNITMODE
 70
     0
  9
$VISRETAIN
 70
     0
  9
$PLINEGEN
 70
     0
  9
$PSLTSCALE
 70
     1
  9
$TREEDEPTH
 70
  3020
  9
$CMLSTYLE
  2
STANDARD
  9
$CMLJUST
 70
     0
  9
$CMLSCALE
 40
1.0
  9
$PROXYGRAPHICS
 70
     1
  9
$MEASUREMENT
 70
     0
  9
$CELWEIGHT
370
    -1
  9
$ENDCAPS
280
     0
  9
$JOINSTYLE
280
     0
  9
$LWDISPLAY
290
     0
  9
$INSUNITS
 70
     0
  9
$HYPERLINKBASE
  1

  9
$STYLESHEET
  1

  9
$XEDIT
290
     1
  9
$CEPSNTYPE
380
     0
  9
$PSTYLEMODE
290
     1
  9
$FINGERPRINTGUID
  2
{FB88A696-E29C-4009-92AF-A3599A8169D5}
  9
$VERSIONGUID
  2
{D030AD68-C71C-41AC-8F8F-F1B8F056F37E}
  9
$EXTNAMES
290
     1
  9
$PSVPSCALE
 40
0.0
  9
$OLESTARTUP
290
     0
  0
ENDSEC
  0
SECTION
  2
CLASSES
  0
CLASS
  1
DICTIONARYVAR
  2
AcDbDictionaryVar
  3
ObjectDBX Classes
 90
        0
280
     0
281
     0
  0
CLASS
  1
ACDBDICTIONARYWDFLT
  2
AcDbDictionaryWithDefault
  3
ObjectDBX Classes
 90
        0
280
     0
281
     0
  0
CLASS
  1
ACDBPLACEHOLDER
  2
AcDbPlaceHolder
  3
ObjectDBX Classes
 90
        0
280
     0
281
     0
  0
CLASS
  1
LAYOUT
  2
AcDbLayout
  3
ObjectDBX Classes
 90
        0
280
     0
281
     0
  0
CLASS
  1
TABLESTYLE
  2
AcDbTableStyle
  3
ObjectDBX Classes
 90
     2047
280
     0
281
     0
  0
CLASS
  1
SORTENTSTABLE
  2
AcDbSortentsTable
  3
ObjectDBX Classes
 90
        0
280
     0
281
     0
  0
ENDSEC
  0
SECTION
  2
TABLES
  0
TABLE
  2
VPORT
  5
12
330
0
100
AcDbSymbolTable
 70
     3
  0
VPORT
  5
DD08
330
12
100
AcDbSymbolTableRecord
100
AcDbViewportTableRecord
  2
*Active
 70
     0
 10
0.0
 20
0.0
 11
1.0
 21
1.0
 12
409.6629286009797
 22
656.6194238279421
 13
0.0
 23
0.0
 14
1.0
 24
1.0
 15
0.0
 25
0.0
 16
0.0
 26
0.0
 36
1.0
 17
0.0
 27
0.0
 37
0.0
 40
1396.862579197213
 41
1.532484076433121
 42
50.0
 43
0.0
 44
0.0
 50
0.0
 51
0.0
 71
     0
 72
 20000
 73
     1
 74
     1
 75
     0
 76
     0
 77
     0
 78
     0
281
     0
 65
     1
110
0.0
120
0.0
130
0.0
111
1.0
121
0.0
131
0.0
112
0.0
122
1.0
132
0.0
 79
     0
146
0.0
  0
ENDTAB
  0
TABLE
  2
LTYPE
  5
D
330
0
100
AcDbSymbolTable
 70
     2
  0
LTYPE
  5
E
330
D
100
AcDbSymbolTableRecord
100
AcDbLinetypeTableRecord
  2
BYBLOCK
 70
     0
  3

 72
    65
 73
     0
 40
0.0
  0
LTYPE
  5
F
330
D
100
AcDbSymbolTableRecord
100
AcDbLinetypeTableRecord
  2
BYLAYER
 70
     0
  3

 72
    65
 73
     0
 40
0.0
  0
LTYPE
  5
5
330
D
100
AcDbSymbolTableRecord
100
AcDbLinetypeTableRecord
  2
CONTINUOUS
 70
     0
  3
Solid line
 72
    65
 73
     0
 40
0.0
  0
LTYPE
  5
1AC
330
D
100
AcDbSymbolTableRecord
100
AcDbLinetypeTableRecord
  2
CENTER
 70
     0
  3
Center ____ _ ____ _ ____ _ ____ _ ____ _ ____
 72
    65
 73
     4
 40
2.0
 49
1.25
 74
     0
 49
-0.25
 74
     0
 49
0.25
 74
     0
 49
-0.25
 74
     0
  0
ENDTAB
  0
TABLE
  2
LAYER
  5
A
330
0
100
AcDbSymbolTable
 70
     6
  0
LAYER
  5
4
330
A
100
AcDbSymbolTableRecord
100
AcDbLayerTableRecord
  2
0
 70
     0
 62
     7
  6
CONTINUOUS
370
    -3
390
57
  0
LAYER
  5
25
330
A
100
AcDbSymbolTableRecord
100
AcDbLayerTableRecord
  2
KIJUN
 70
     0
 62
     7
  6
CONTINUOUS
370
    -3
390
57
  0
LAYER
  5
22
330
A
100
AcDbSymbolTableRecord
100
AcDbLayerTableRecord
  2
HOJO
 70
     0
 62
     3
  6
CONTINUOUS
370
    -3
390
57
  0
LAYER
  5
1B
330
A
100
AcDbSymbolTableRecord
100
AcDbLayerTableRecord
  2
WAKU
 70
     0
 62
     1
  6
CONTINUOUS
370
    -3
390
57
  0
LAYER
  5
31
330
A
100
AcDbSymbolTableRecord
100
AcDbLayerTableRecord
  2
DEFPOINTS
 70
     0
 62
     7
  6
CONTINUOUS
290
     0
370
    -3
390
57
  0
LAYER
  5
28
330
A
100
AcDbSymbolTableRecord
100
AcDbLayerTableRecord
  2
SUNPOU
 70
     0
 62
    70
  6
CONTINUOUS
370
    -3
390
57
  0
ENDTAB
  0
TABLE
  2
STYLE
  5
B
330
0
100
AcDbSymbolTable
 70
     3
  0
STYLE
  5
C
330
B
100
AcDbSymbolTableRecord
100
AcDbTextStyleTableRecord
  2
STANDARD
 70
     0
 40
0.0
 41
1.0
 50
0.0
 71
     0
 42
0.2
  3
txt
  4

  0
STYLE
  5
1C
330
B
100
AcDbSymbolTableRecord
100
AcDbTextStyleTableRecord
  2
SUNPOU
 70
     0
 40
0.0
 41
1.0
 50
0.0
 71
     0
 42
30.0
  3
txt
  4
bigfont
  0
STYLE
  5
1AD
330
B
100
AcDbSymbolTableRecord
100
AcDbTextStyleTableRecord
  2
LIFE
 70
     0
 40
0.0
 41
0.7
 50
0.0
 71
     0
 42
10.0
  3
romans
  4
extfont
  0
ENDTAB
  0
TABLE
  2
VIEW
  5
10
330
0
100
AcDbSymbolTable
 70
     0
  0
ENDTAB
  0
TABLE
  2
UCS
  5
11
330
0
100
AcDbSymbolTable
 70
     0
  0
ENDTAB
  0
TABLE
  2
APPID
  5
14
330
0
100
AcDbSymbolTable
 70
     2
  0
APPID
  5
15
330
14
100
AcDbSymbolTableRecord
100
AcDbRegAppTableRecord
  2
ACAD
 70
     0
  0
APPID
  5
DCF1
330
14
100
AcDbSymbolTableRecord
100
AcDbRegAppTableRecord
  2
ACAD_PSEXT
 70
     0
  0
ENDTAB
  0
TABLE
  2
DIMSTYLE
  5
16
330
0
100
AcDbSymbolTable
 70
     2
100
AcDbDimStyleTable
 71
     1
340
1E
  0
DIMSTYLE
105
1E
330
16
100
AcDbSymbolTableRecord
100
AcDbDimStyleTableRecord
  2
STANDARD
 70
     0
340
C
  0
DIMSTYLE
105
1AE
102
{ACAD_REACTORS
330
DCBE
330
DCCB
330
DCD8
102
}
330
16
100
AcDbSymbolTableRecord
100
AcDbDimStyleTableRecord
  2
STANDARD$0
 70
     0
 40
2.0
 41
1.0
 42
2.0
 43
0.0
 44
1.0
 73
     0
 74
     0
 77
     3
 78
     9
140
4.5
141
0.0
147
1.0
172
     1
173
     1
178
     3
271
     2
340
1AD
341
109
343
109
344
109
  0
ENDTAB
  0
TABLE
  2
BLOCK_RECORD
  5
1
330
0
100
AcDbSymbolTable
 70
    35
  0
BLOCK_RECORD
  5
2
330
1
100
AcDbSymbolTableRecord
100
AcDbBlockTableRecord
  2
*MODEL_SPACE
340
5A
  0
BLOCK_RECORD
  5
7
330
1
100
AcDbSymbolTableRecord
100
AcDbBlockTableRecord
  2
*PAPER_SPACE
340
5B
  0
BLOCK_RECORD
  5
109
330
1
100
AcDbSymbolTableRecord
100
AcDbBlockTableRecord
  2
_Dot
340
0
102
{BLKREFS
331
B8F1
331
B8F2
331
B8FB
331
B8FC
331
B905
331
B906
331
B92F
331
B930
331
B923
331
B924
331
B917
331
B918
331
C172
331
C173
331
C17B
331
C17C
331
C184
331
C185
331
CF59
331
CF5A
331
CF66
331
CF67
331
CF73
331
CF74
331
CF99
331
CF9A
331
CF8D
331
CF8E
331
CF81
331
CF82
331
D096
331
D097
331
D09F
331
D0A0
331
D0A8
331
D0A9
331
D7A3
331
D7A4
331
D7B0
331
D7B1
331
D7BD
331
D7BE
331
D7CC
331
D7CD
331
D7D8
331
D7D9
331
D7E4
331
D7E5
331
D8B9
331
D8BA
331
D8C2
331
D8C3
331
D8CB
331
D8CC
331
DCC3
331
DCC4
331
DCD0
331
DCD1
331
DCDD
331
DCDE
102
}
  0
BLOCK_RECORD
  5
DCBF
330
1
100
AcDbSymbolTableRecord
100
AcDbBlockTableRecord
  2
*D31
340
0
  0
BLOCK_RECORD
  5
DCCC
330
1
100
AcDbSymbolTableRecord
100
AcDbBlockTableRecord
  2
*D32
340
0
  0
BLOCK_RECORD
  5
DCD9
330
1
100
AcDbSymbolTableRecord
100
AcDbBlockTableRecord
  2
*D33
340
0
  0
ENDTAB
  0
ENDSEC
  0
SECTION
  2
BLOCKS
  0
BLOCK
  5
3
330
2
100
AcDbEntity
  8
0
100
AcDbBlockBegin
  2
*MODEL_SPACE
 70
     0
 10
0.0
 20
0.0
 30
0.0
  3
*MODEL_SPACE
  1

  0
ENDBLK
  5
6
330
2
100
AcDbEntity
  8
0
100
AcDbBlockEnd
  0
BLOCK
  5
8
330
7
100
AcDbEntity
 67
     1
  8
0
100
AcDbBlockBegin
  2
*PAPER_SPACE
 70
     0
 10
0.0
 20
0.0
 30
0.0
  3
*PAPER_SPACE
  1

  0
ENDBLK
  5
9
330
7
100
AcDbEntity
 67
     1
  8
0
100
AcDbBlockEnd
  0
BLOCK
  5
10C
330
109
100
AcDbEntity
  8
0
100
AcDbBlockBegin
  2
_Dot
 70
     0
 10
0.0
 20
0.0
 30
0.0
  3
_Dot
  1

  0
LWPOLYLINE
  5
10A
330
109
100
AcDbEntity
  8
0
  6
ByBlock
 62
     0
100
AcDbPolyline
 90
        2
 70
     1
 43
0.5
 10
-0.25
 20
0.0
 42
1.0
 10
0.25
 20
0.0
 42
1.0
  0
LINE
  5
10B
330
109
100
AcDbEntity
  8
0
  6
ByBlock
 62
     0
370
    -2
100
AcDbLine
 10
-0.5
 20
0.0
 30
0.0
 11
-1.0
 21
0.0
 31
0.0
  0
ENDBLK
  5
10D
330
109
100
AcDbEntity
  8
0
100
AcDbBlockEnd
  0
BLOCK
  5
DCC9
330
DCBF
100
AcDbEntity
  8
0
100
AcDbBlockBegin
  2
*D31
 70
     1
 10
0.0
 20
0.0
 30
0.0
  3
*D31
  1

  0
LINE
  5
DCC0
330
DCBF
100
AcDbEntity
  8
SUNPOU
 62
    70
370
    -2
100
AcDbLine
 10
264.524264113574
 20
1206.306551079017
 30
0.0
 11
264.524264113574
 21
1319.670091735336
 31
0.0
  0
LINE
  5
DCC1
330
DCBF
100
AcDbEntity
  8
SUNPOU
 62
    70
370
    -2
100
AcDbLine
 10
484.5242641135739
 20
1206.306551079017
 30
0.0
 11
484.5242641135739
 21
1319.670091735336
 31
0.0
  0
LINE
  5
DCC2
330
DCBF
100
AcDbEntity
  8
SUNPOU
 62
    60
370
    -2
100
AcDbLine
 10
270.524264113574
 20
1319.670091735336
 30
0.0
 11
478.5242641135739
 21
1319.670091735336
 31
0.0
  0
INSERT
  5
DCC3
330
DCBF
100
AcDbEntity
  8
SUNPOU
 62
    60
370
    -2
100
AcDbBlockReference
  2
_Dot
 10
264.524264113574
 20
1319.670091735336
 30
0.0
 41
6.0
 42
6.0
 43
6.0
 50
180.0
  0
INSERT
  5
DCC4
330
DCBF
100
AcDbEntity
  8
SUNPOU
 62
    60
370
    -2
100
AcDbBlockReference
  2
_Dot
 10
484.5242641135739
 20
1319.670091735336
 30
0.0
 41
6.0
 42
6.0
 43
6.0
  0
MTEXT
  5
DCC5
330
DCBF
100
AcDbEntity
  8
SUNPOU
 62
    60
100
AcDbMText
 10
374.524264113574
 20
1339.670091735336
 30
0.0
 40
20.0
 41
0.0
 71
     5
 72
     1
  1
\A1;220
  7
SUNPOU
 73
     1
 44
1.0
1001
ACAD
1000
MTEXTBEGIN
1070
    73
1070
     1
1070
    44
1040
1.0
1070
    74
1070
     0
1000
MTEXTEND
  0
POINT
  5
DCC6
330
DCBF
100
AcDbEntity
  8
DEFPOINTS
 62
     0
100
AcDbPoint
 10
264.524264113574
 20
1200.306551079017
 30
0.0
  0
POINT
  5
DCC7
330
DCBF
100
AcDbEntity
  8
DEFPOINTS
 62
     0
100
AcDbPoint
 10
484.5242641135739
 20
1200.306551079017
 30
0.0
  0
POINT
  5
DCC8
330
DCBF
100
AcDbEntity
  8
DEFPOINTS
 62
     0
100
AcDbPoint
 10
484.5242641135739
 20
1319.670091735336
 30
0.0
  0
ENDBLK
  5
DCCA
330
DCBF
100
AcDbEntity
  8
0
100
AcDbBlockEnd
  0
BLOCK
  5
DCD6
330
DCCC
100
AcDbEntity
  8
0
100
AcDbBlockBegin
  2
*D32
 70
     1
 10
0.0
 20
0.0
 30
0.0
  3
*D32
  1

  0
LINE
  5
DCCD
330
DCCC
100
AcDbEntity
  8
SUNPOU
 62
    70
370
    -2
100
AcDbLine
 10
224.524264113574
 20
372.6951150790164
 30
0.0
 11
224.524264113574
 21
231.613569709712
 31
0.0
  0
LINE
  5
DCCE
330
DCCC
100
AcDbEntity
  8
SUNPOU
 62
    70
370
    -2
100
AcDbLine
 10
524.5242641135741
 20
372.6951150790164
 30
0.0
 11
524.5242641135741
 21
231.613569709712
 31
0.0
  0
LINE
  5
DCCF
330
DCCC
100
AcDbEntity
  8
SUNPOU
 62
    60
370
    -2
100
AcDbLine
 10
230.524264113574
 20
231.613569709712
 30
0.0
 11
518.524264113574
 21
231.613569709712
 31
0.0
  0
INSERT
  5
DCD0
330
DCCC
100
AcDbEntity
  8
SUNPOU
 62
    60
370
    -2
100
AcDbBlockReference
  2
_Dot
 10
224.524264113574
 20
231.613569709712
 30
0.0
 41
6.0
 42
6.0
 43
6.0
 50
180.0
  0
INSERT
  5
DCD1
330
DCCC
100
AcDbEntity
  8
SUNPOU
 62
    60
370
    -2
100
AcDbBlockReference
  2
_Dot
 10
524.5242641135741
 20
231.613569709712
 30
0.0
 41
6.0
 42
6.0
 43
6.0
  0
MTEXT
  5
DCD2
330
DCCC
100
AcDbEntity
  8
SUNPOU
 62
    60
100
AcDbMText
 10
374.524264113574
 20
251.613569709712
 30
0.0
 40
20.0
 41
0.0
 71
     5
 72
     1
  1
\A1;300
  7
SUNPOU
 73
     1
 44
1.0
1001
ACAD
1000
MTEXTBEGIN
1070
    73
1070
     1
1070
    44
1040
1.0
1070
    74
1070
     0
1000
MTEXTEND
  0
POINT
  5
DCD3
330
DCCC
100
AcDbEntity
  8
DEFPOINTS
 62
     0
100
AcDbPoint
 10
224.524264113574
 20
378.6951150790164
 30
0.0
  0
POINT
  5
DCD4
330
DCCC
100
AcDbEntity
  8
DEFPOINTS
 62
     0
100
AcDbPoint
 10
524.5242641135741
 20
378.6951150790164
 30
0.0
  0
POINT
  5
DCD5
330
DCCC
100
AcDbEntity
  8
DEFPOINTS
 62
     0
100
AcDbPoint
 10
524.5242641135741
 20
231.613569709712
 30
0.0
  0
ENDBLK
  5
DCD7
330
DCCC
100
AcDbEntity
  8
0
100
AcDbBlockEnd
  0
BLOCK
  5
DCE3
330
DCD9
100
AcDbEntity
  8
0
100
AcDbBlockBegin
  2
*D33
 70
     1
 10
0.0
 20
0.0
 30
0.0
  3
*D33
  1

  0
LINE
  5
DCDA
330
DCD9
100
AcDbEntity
  8
SUNPOU
 62
    70
370
    -2
100
AcDbLine
 10
261.2707661135734
 20
1202.846043079016
 30
0.0
 11
52.11762471494977
 21
1202.846043079016
 31
0.0
  0
LINE
  5
DCDB
330
DCD9
100
AcDbEntity
  8
SUNPOU
 62
    70
370
    -2
100
AcDbLine
 10
226.577789613574
 20
352.8460430790165
 30
0.0
 11
52.11762471494957
 21
352.8460430790165
 31
0.0
  0
LINE
  5
DCDC
330
DCD9
100
AcDbEntity
  8
SUNPOU
 62
    60
370
    -2
100
AcDbLine
 10
52.11762471494974
 20
1196.846043079016
 30
0.0
 11
52.11762471494957
 21
358.8460430790165
 31
0.0
  0
INSERT
  5
DCDD
330
DCD9
100
AcDbEntity
  8
SUNPOU
 62
    60
370
    -2
100
AcDbBlockReference
  2
_Dot
 10
52.11762471494975
 20
1202.846043079016
 30
0.0
 41
6.0
 42
6.0
 43
6.0
 50
90.0
  0
INSERT
  5
DCDE
330
DCD9
100
AcDbEntity
  8
SUNPOU
 62
    60
370
    -2
100
AcDbBlockReference
  2
_Dot
 10
52.11762471494957
 20
352.8460430790165
 30
0.0
 41
6.0
 42
6.0
 43
6.0
 50
270.0
  0
MTEXT
  5
DCDF
330
DCD9
100
AcDbEntity
  8
SUNPOU
 62
    60
100
AcDbMText
 10
32.11762471494953
 20
777.8460430790164
 30
0.0
 40
20.0
 41
0.0
 71
     5
 72
     1
  1
\A1;850
  7
SUNPOU
 11
0.0000000000000001
 21
1.0
 31
0.0
 73
     1
 44
1.0
1001
ACAD
1000
MTEXTBEGIN
1070
    73
1070
     1
1070
    44
1040
1.0
1070
    74
1070
     0
1000
MTEXTEND
  0
POINT
  5
DCE0
330
DCD9
100
AcDbEntity
  8
DEFPOINTS
 62
     0
100
AcDbPoint
 10
267.2707661135734
 20
1202.846043079016
 30
0.0
  0
POINT
  5
DCE1
330
DCD9
100
AcDbEntity
  8
DEFPOINTS
 62
     0
100
AcDbPoint
 10
232.577789613574
 20
352.8460430790165
 30
0.0
  0
POINT
  5
DCE2
330
DCD9
100
AcDbEntity
  8
DEFPOINTS
 62
     0
100
AcDbPoint
 10
52.11762471494957
 20
352.8460430790165
 30
0.0
  0
ENDBLK
  5
DCE4
330
DCD9
100
AcDbEntity
  8
0
100
AcDbBlockEnd
  0
ENDSEC
  0
SECTION
  2
ENTITIES
  0
LINE
  5
1F
330
2
100
AcDbEntity
  8
WAKU
100
AcDbLine
 10
0.0
 20
70.0
 30
0.0
 11
719.9375858848843
 21
70.0
 31
0.0
  0
LINE
  5
20
330
2
100
AcDbEntity
  8
WAKU
100
AcDbLine
 10
0.0
 20
0.0
 30
0.0
 11
719.9375858848843
 21
0.0
 31
0.0
  0
TEXT
  5
21
330
2
100
AcDbEntity
  8
HOJO
100
AcDbText
 10
48.26983000000012
 20
11.83313000000009
 30
0.0
 40
45.0
  1
G-3
  7
SUNPOU
100
AcDbText
  0
TEXT
  5
4A3
330
2
100
AcDbEntity
  8
HOJO
100
AcDbText
 10
225.60543919488
 20
20.97829970797568
 30
0.0
 40
35.0
  1
φ220xφ300x850
  7
SUNPOU
100
AcDbText
  0
LINE
  5
D8D1
102
{ACAD_REACTORS
330
DCE5
102
}
330
2
100
AcDbEntity
  8
KIJUN
100
AcDbLine
 10
318.7905046135734
 20
748.6611010790165
 30
0.0
 11
428.0064406135734
 21
748.6611010790165
 31
0.0
  0
LINE
  5
D8D2
102
{ACAD_REACTORS
330
DCE5
102
}
330
2
100
AcDbEntity
  8
KIJUN
100
AcDbLine
 10
428.0064406135734
 20
748.6611010790165
 30
0.0
 11
429.3902326135744
 21
748.2896260790166
 31
0.0
  0
LINE
  5
D8D3
102
{ACAD_REACTORS
330
DCE5
102
}
330
2
100
AcDbEntity
  8
KIJUN
100
AcDbLine
 10
429.3902326135744
 20
748.2896260790166
 30
0.0
 11
430.3771496135732
 21
747.3154090790167
 31
0.0
  0
LINE
  5
D8D4
102
{ACAD_REACTORS
330
DCE5
102
}
330
2
100
AcDbEntity
  8
KIJUN
100
AcDbLine
 10
430.3771496135732
 20
747.3154090790167
 30
0.0
 11
430.7534506135744
 21
745.9496510790167
 31
0.0
  0
LINE
  5
D8D5
102
{ACAD_REACTORS
330
DCE5
102
}
330
2
100
AcDbEntity
  8
KIJUN
100
AcDbLine
 10
430.7534506135744
 20
745.9496510790167
 30
0.0
 11
430.7534506135744
 21
711.6046600790168
 31
0.0
  0
LINE
  5
D8D6
102
{ACAD_REACTORS
330
DCE5
102
}
330
2
100
AcDbEntity
  8
KIJUN
100
AcDbLine
 10
430.7534506135744
 20
711.6046600790168
 30
0.0
 11
430.3771496135732
 21
710.2387750790167
 31
0.0
  0
LINE
  5
D8D7
102
{ACAD_REACTORS
330
DCE5
102
}
330
2
100
AcDbEntity
  8
KIJUN
100
AcDbLine
 10
430.3771496135732
 20
710.2387750790167
 30
0.0
 11
429.3902326135744
 21
709.264685079017
 31
0.0
  0
LINE
  5
D8D8
102
{ACAD_REACTORS
330
DCE5
102
}
330
2
100
AcDbEntity
  8
KIJUN
100
AcDbLine
 10
429.3902326135744
 20
709.264685079017
 30
0.0
 11
428.0064406135734
 21
708.8930830790167
 31
0.0
  0
LINE
  5
D8D9
102
{ACAD_REACTORS
330
DCE5
102
}
330
2
100
AcDbEntity
  8
KIJUN
100
AcDbLine
 10
428.0064406135734
 20
708.8930830790167
 30
0.0
 11
318.7905046135734
 21
708.8930830790167
 31
0.0
  0
LINE
  5
D8DA
102
{ACAD_REACTORS
330
DCE5
102
}
330
2
100
AcDbEntity
  8
KIJUN
100
AcDbLine
 10
318.7905046135734
 20
708.8930830790167
 30
0.0
 11
317.4070936135745
 21
709.264685079017
 31
0.0
  0
LINE
  5
D8DB
102
{ACAD_REACTORS
330
DCE5
102
}
330
2
100
AcDbEntity
  8
KIJUN
100
AcDbLine
 10
317.4070936135745
 20
709.264685079017
 30
0.0
 11
316.4204306135734
 21
710.2387750790167
 31
0.0
  0
LINE
  5
D8DC
102
{ACAD_REACTORS
330
DCE5
102
}
330
2
100
AcDbEntity
  8
KIJUN
100
AcDbLine
 10
316.4204306135734
 20
710.2387750790167
 30
0.0
 11
316.0440026135743
 21
711.6046600790168
 31
0.0
  0
LINE
  5
D8DD
102
{ACAD_REACTORS
330
DCE5
102
}
330
2
100
AcDbEntity
  8
KIJUN
100
AcDbLine
 10
316.0440026135743
 20
711.6046600790168
 30
0.0
 11
316.0440026135743
 21
745.9496510790167
 31
0.0
  0
LINE
  5
D8DE
102
{ACAD_REACTORS
330
DCE5
102
}
330
2
100
AcDbEntity
  8
KIJUN
100
AcDbLine
 10
316.0440026135743
 20
745.9496510790167
 30
0.0
 11
316.4204306135734
 21
747.3154090790167
 31
0.0
  0
LINE
  5
D8DF
102
{ACAD_REACTORS
330
DCE5
102
}
330
2
100
AcDbEntity
  8
KIJUN
100
AcDbLine
 10
316.4204306135734
 20
747.3154090790167
 30
0.0
 11
317.4070936135745
 21
748.2896260790166
 31
0.0
  0
LINE
  5
D8E0
102
{ACAD_REACTORS
330
DCE5
102
}
330
2
100
AcDbEntity
  8
KIJUN
100
AcDbLine
 10
317.4070936135745
 20
748.2896260790166
 30
0.0
 11
318.7905046135734
 21
748.6611010790165
 31
0.0
  0
LINE
  5
D8E1
102
{ACAD_REACTORS
330
DCE5
102
}
330
2
100
AcDbEntity
  8
KIJUN
100
AcDbLine
 10
345.327027613574
 20
478.4051010790161
 30
0.0
 11
402.6460646135733
 21
478.4051010790161
 31
0.0
  0
LINE
  5
D8E2
102
{ACAD_REACTORS
330
DCE5
102
}
330
2
100
AcDbEntity
  8
KIJUN
100
AcDbLine
 10
402.6460646135733
 20
478.4051010790161
 30
0.0
 11
405.1136746135735
 21
477.8743680790165
 31
0.0
  0
LINE
  5
D8E3
102
{ACAD_REACTORS
330
DCE5
102
}
330
2
100
AcDbEntity
  8
KIJUN
100
AcDbLine
 10
405.1136746135735
 20
477.8743680790165
 30
0.0
 11
406.8736406135744
 21
476.4827020790171
 31
0.0
  0
LINE
  5
D8E4
102
{ACAD_REACTORS
330
DCE5
102
}
330
2
100
AcDbEntity
  8
KIJUN
100
AcDbLine
 10
406.8736406135744
 20
476.4827020790171
 30
0.0
 11
407.5449626135732
 21
474.5316010790165
 31
0.0
  0
LINE
  5
D8E5
102
{ACAD_REACTORS
330
DCE5
102
}
330
2
100
AcDbEntity
  8
KIJUN
100
AcDbLine
 10
407.5449626135732
 20
474.5316010790165
 30
0.0
 11
407.5449626135732
 21
474.4025690790167
 31
0.0
  0
LINE
  5
D8E6
102
{ACAD_REACTORS
330
DCE5
102
}
330
2
100
AcDbEntity
  8
KIJUN
100
AcDbLine
 10
407.5449626135732
 20
474.4025690790167
 30
0.0
 11
406.8736406135744
 21
472.4514680790171
 31
0.0
  0
LINE
  5
D8E7
102
{ACAD_REACTORS
330
DCE5
102
}
330
2
100
AcDbEntity
  8
KIJUN
100
AcDbLine
 10
406.8736406135744
 20
472.4514680790171
 30
0.0
 11
405.1136746135735
 21
471.0599290790169
 31
0.0
  0
LINE
  5
D8E8
102
{ACAD_REACTORS
330
DCE5
102
}
330
2
100
AcDbEntity
  8
KIJUN
100
AcDbLine
 10
405.1136746135735
 20
471.0599290790169
 30
0.0
 11
402.6460646135733
 21
470.529069079017
 31
0.0
  0
LINE
  5
D8E9
102
{ACAD_REACTORS
330
DCE5
102
}
330
2
100
AcDbEntity
  8
KIJUN
100
AcDbLine
 10
402.6460646135733
 20
470.529069079017
 30
0.0
 11
345.327027613574
 21
470.529069079017
 31
0.0
  0
LINE
  5
D8EA
102
{ACAD_REACTORS
330
DCE5
102
}
330
2
100
AcDbEntity
  8
KIJUN
100
AcDbLine
 10
345.327027613574
 20
470.529069079017
 30
0.0
 11
342.8592906135732
 21
471.0599290790169
 31
0.0
  0
LINE
  5
D8EB
102
{ACAD_REACTORS
330
DCE5
102
}
330
2
100
AcDbEntity
  8
KIJUN
100
AcDbLine
 10
342.8592906135732
 20
471.0599290790169
 30
0.0
 11
341.0993246135745
 21
472.4514680790171
 31
0.0
  0
LINE
  5
D8EC
102
{ACAD_REACTORS
330
DCE5
102
}
330
2
100
AcDbEntity
  8
KIJUN
100
AcDbLine
 10
341.0993246135745
 20
472.4514680790171
 30
0.0
 11
340.4280026135743
 21
474.4025690790167
 31
0.0
  0
LINE
  5
D8ED
102
{ACAD_REACTORS
330
DCE5
102
}
330
2
100
AcDbEntity
  8
KIJUN
100
AcDbLine
 10
340.4280026135743
 20
474.4025690790167
 30
0.0
 11
340.4280026135743
 21
474.5316010790165
 31
0.0
  0
LINE
  5
D8EE
102
{ACAD_REACTORS
330
DCE5
102
}
330
2
100
AcDbEntity
  8
KIJUN
100
AcDbLine
 10
340.4280026135743
 20
474.5316010790165
 30
0.0
 11
341.0993246135745
 21
476.4827020790171
 31
0.0
  0
LINE
  5
D8EF
102
{ACAD_REACTORS
330
DCE5
102
}
330
2
100
AcDbEntity
  8
KIJUN
100
AcDbLine
 10
341.0993246135745
 20
476.4827020790171
 30
0.0
 11
342.8592906135732
 21
477.8743680790165
 31
0.0
  0
LINE
  5
D8F0
102
{ACAD_REACTORS
330
DCE5
102
}
330
2
100
AcDbEntity
  8
KIJUN
100
AcDbLine
 10
342.8592906135732
 20
477.8743680790165
 30
0.0
 11
345.327027613574
 21
478.4051010790161
 31
0.0
  0
LINE
  5
D8F1
102
{ACAD_REACTORS
330
DCE5
102
}
330
2
100
AcDbEntity
  8
KIJUN
100
AcDbLine
 10
323.4100026135743
 20
676.3981010790167
 30
0.0
 11
423.7314936135744
 21
676.3981010790167
 31
0.0
  0
LINE
  5
D8F2
102
{ACAD_REACTORS
330
DCE5
102
}
330
2
100
AcDbEntity
  8
KIJUN
100
AcDbLine
 10
423.7314936135744
 20
676.3981010790167
 30
0.0
 11
423.7314936135744
 21
671.7501550790166
 31
0.0
  0
LINE
  5
D8F3
102
{ACAD_REACTORS
330
DCE5
102
}
330
2
100
AcDbEntity
  8
KIJUN
100
AcDbLine
 10
423.7314936135744
 20
671.7501550790166
 30
0.0
 11
323.4100026135743
 21
671.7501550790166
 31
0.0
  0
LINE
  5
D8F4
102
{ACAD_REACTORS
330
DCE5
102
}
330
2
100
AcDbEntity
  8
KIJUN
100
AcDbLine
 10
323.4100026135743
 20
671.7501550790166
 30
0.0
 11
323.4100026135743
 21
676.3981010790167
 31
0.0
  0
LINE
  5
D8F5
102
{ACAD_REACTORS
330
DCE5
102
}
330
2
100
AcDbEntity
  8
KIJUN
100
AcDbLine
 10
323.1560026135744
 20
695.9561010790166
 30
0.0
 11
424.0009876135741
 21
695.9561010790166
 31
0.0
  0
LINE
  5
D8F6
102
{ACAD_REACTORS
330
DCE5
102
}
330
2
100
AcDbEntity
  8
KIJUN
100
AcDbLine
 10
424.0009876135741
 20
695.9561010790166
 30
0.0
 11
424.0009876135741
 21
692.4700780790163
 31
0.0
  0
LINE
  5
D8F7
102
{ACAD_REACTORS
330
DCE5
102
}
330
2
100
AcDbEntity
  8
KIJUN
100
AcDbLine
 10
424.0009876135741
 20
692.4700780790163
 30
0.0
 11
323.1560026135744
 21
692.4700780790163
 31
0.0
  0
LINE
  5
D8F8
102
{ACAD_REACTORS
330
DCE5
102
}
330
2
100
AcDbEntity
  8
KIJUN
100
AcDbLine
 10
323.1560026135744
 20
692.4700780790163
 30
0.0
 11
323.1560026135744
 21
695.9561010790166
 31
0.0
  0
LINE
  5
D8F9
102
{ACAD_REACTORS
330
DCE5
102
}
330
2
100
AcDbEntity
  8
KIJUN
100
AcDbLine
 10
324.2630616135743
 20
692.2731010790166
 30
0.0
 11
423.5845546135733
 21
692.2731010790166
 31
0.0
  0
LINE
  5
D8FA
102
{ACAD_REACTORS
330
DCE5
102
}
330
2
100
AcDbEntity
  8
KIJUN
100
AcDbLine
 10
423.5845546135733
 20
692.2731010790166
 30
0.0
 11
427.2128176135743
 21
691.4220740790169
 31
0.0
  0
LINE
  5
D8FB
102
{ACAD_REACTORS
330
DCE5
102
}
330
2
100
AcDbEntity
  8
KIJUN
100
AcDbLine
 10
427.2128176135743
 20
691.4220740790169
 30
0.0
 11
429.8004426135744
 21
689.1909380790165
 31
0.0
  0
LINE
  5
D8FC
102
{ACAD_REACTORS
330
DCE5
102
}
330
2
100
AcDbEntity
  8
KIJUN
100
AcDbLine
 10
429.8004426135744
 20
689.1909380790165
 30
0.0
 11
430.7874866135734
 21
686.0625470790165
 31
0.0
  0
LINE
  5
D8FD
102
{ACAD_REACTORS
330
DCE5
102
}
330
2
100
AcDbEntity
  8
KIJUN
100
AcDbLine
 10
430.7874866135734
 20
686.0625470790165
 30
0.0
 11
430.7874866135734
 21
682.5991300790165
 31
0.0
  0
LINE
  5
D8FE
102
{ACAD_REACTORS
330
DCE5
102
}
330
2
100
AcDbEntity
  8
KIJUN
100
AcDbLine
 10
430.7874866135734
 20
682.5991300790165
 30
0.0
 11
429.8004426135744
 21
679.4707390790161
 31
0.0
  0
LINE
  5
D8FF
102
{ACAD_REACTORS
330
DCE5
102
}
330
2
100
AcDbEntity
  8
KIJUN
100
AcDbLine
 10
429.8004426135744
 20
679.4707390790161
 30
0.0
 11
427.2128176135743
 21
677.2396030790166
 31
0.0
  0
LINE
  5
D900
102
{ACAD_REACTORS
330
DCE5
102
}
330
2
100
AcDbEntity
  8
KIJUN
100
AcDbLine
 10
427.2128176135743
 20
677.2396030790166
 30
0.0
 11
423.5845546135733
 21
676.388576079016
 31
0.0
  0
LINE
  5
D901
102
{ACAD_REACTORS
330
DCE5
102
}
330
2
100
AcDbEntity
  8
KIJUN
100
AcDbLine
 10
423.5845546135733
 20
676.388576079016
 30
0.0
 11
324.2630616135743
 21
676.388576079016
 31
0.0
  0
LINE
  5
D902
102
{ACAD_REACTORS
330
DCE5
102
}
330
2
100
AcDbEntity
  8
KIJUN
100
AcDbLine
 10
324.2630616135743
 20
676.388576079016
 30
0.0
 11
320.6346716135745
 21
677.2396030790166
 31
0.0
  0
LINE
  5
D903
102
{ACAD_REACTORS
330
DCE5
102
}
330
2
100
AcDbEntity
  8
KIJUN
100
AcDbLine
 10
320.6346716135745
 20
677.2396030790166
 30
0.0
 11
318.0470466135744
 21
679.4707390790161
 31
0.0
  0
LINE
  5
D904
102
{ACAD_REACTORS
330
DCE5
102
}
330
2
100
AcDbEntity
  8
KIJUN
100
AcDbLine
 10
318.0470466135744
 20
679.4707390790161
 30
0.0
 11
317.0600026135735
 21
682.5991300790165
 31
0.0
  0
LINE
  5
D905
102
{ACAD_REACTORS
330
DCE5
102
}
330
2
100
AcDbEntity
  8
KIJUN
100
AcDbLine
 10
317.0600026135735
 20
682.5991300790165
 30
0.0
 11
317.0600026135735
 21
686.0625470790165
 31
0.0
  0
LINE
  5
D906
102
{ACAD_REACTORS
330
DCE5
102
}
330
2
100
AcDbEntity
  8
KIJUN
100
AcDbLine
 10
317.0600026135735
 20
686.0625470790165
 30
0.0
 11
318.0470466135744
 21
689.1909380790165
 31
0.0
  0
LINE
  5
D907
102
{ACAD_REACTORS
330
DCE5
102
}
330
2
100
AcDbEntity
  8
KIJUN
100
AcDbLine
 10
318.0470466135744
 20
689.1909380790165
 30
0.0
 11
320.6346716135745
 21
691.4220740790169
 31
0.0
  0
LINE
  5
D908
102
{ACAD_REACTORS
330
DCE5
102
}
330
2
100
AcDbEntity
  8
KIJUN
100
AcDbLine
 10
320.6346716135745
 20
691.4220740790169
 30
0.0
 11
324.2630616135743
 21
692.2731010790166
 31
0.0
  0
LINE
  5
D909
102
{ACAD_REACTORS
330
DCE5
102
}
330
2
100
AcDbEntity
  8
KIJUN
100
AcDbLine
 10
321.3780026135741
 20
705.2271010790164
 30
0.0
 11
332.1159796135744
 21
705.2900930790165
 31
0.0
  0
LINE
  5
D90A
102
{ACAD_REACTORS
330
DCE5
102
}
330
2
100
AcDbEntity
  8
KIJUN
100
AcDbLine
 10
332.1159796135744
 20
705.2900930790165
 30
0.0
 11
342.8351606135743
 21
705.328193079016
 31
0.0
  0
LINE
  5
D90B
102
{ACAD_REACTORS
330
DCE5
102
}
330
2
100
AcDbEntity
  8
KIJUN
100
AcDbLine
 10
342.8351606135743
 20
705.328193079016
 30
0.0
 11
353.5478646135735
 21
705.3478780790165
 31
0.0
  0
LINE
  5
D90C
102
{ACAD_REACTORS
330
DCE5
102
}
330
2
100
AcDbEntity
  8
KIJUN
100
AcDbLine
 10
353.5478646135735
 20
705.3478780790165
 30
0.0
 11
364.2669186135731
 21
705.355117079017
 31
0.0
  0
LINE
  5
D90D
102
{ACAD_REACTORS
330
DCE5
102
}
330
2
100
AcDbEntity
  8
KIJUN
100
AcDbLine
 10
364.2669186135731
 20
705.355117079017
 30
0.0
 11
375.0050226135731
 21
705.356133079017
 31
0.0
  0
LINE
  5
D90E
102
{ACAD_REACTORS
330
DCE5
102
}
330
2
100
AcDbEntity
  8
KIJUN
100
AcDbLine
 10
375.0050226135731
 20
705.356133079017
 30
0.0
 11
385.6916916135733
 21
705.355117079017
 31
0.0
  0
LINE
  5
D90F
102
{ACAD_REACTORS
330
DCE5
102
}
330
2
100
AcDbEntity
  8
KIJUN
100
AcDbLine
 10
385.6916916135733
 20
705.355117079017
 30
0.0
 11
396.3971566135733
 21
705.3478780790165
 31
0.0
  0
LINE
  5
D910
102
{ACAD_REACTORS
330
DCE5
102
}
330
2
100
AcDbEntity
  8
KIJUN
100
AcDbLine
 10
396.3971566135733
 20
705.3478780790165
 30
0.0
 11
407.1088446135741
 21
705.328193079016
 31
0.0
  0
LINE
  5
D911
102
{ACAD_REACTORS
330
DCE5
102
}
330
2
100
AcDbEntity
  8
KIJUN
100
AcDbLine
 10
407.1088446135741
 20
705.328193079016
 30
0.0
 11
417.8143096135731
 21
705.2900930790165
 31
0.0
  0
LINE
  5
D912
102
{ACAD_REACTORS
330
DCE5
102
}
330
2
100
AcDbEntity
  8
KIJUN
100
AcDbLine
 10
417.8143096135731
 20
705.2900930790165
 30
0.0
 11
428.5009786135733
 21
705.2271010790164
 31
0.0
  0
LINE
  5
D913
102
{ACAD_REACTORS
330
DCE5
102
}
330
2
100
AcDbEntity
  8
KIJUN
100
AcDbLine
 10
428.5009786135733
 20
705.2271010790164
 30
0.0
 11
424.1993616135732
 21
704.0316500790167
 31
0.0
  0
LINE
  5
D914
102
{ACAD_REACTORS
330
DCE5
102
}
330
2
100
AcDbEntity
  8
KIJUN
100
AcDbLine
 10
424.1993616135732
 20
704.0316500790167
 30
0.0
 11
421.4672106135744
 21
702.0326700790165
 31
0.0
  0
LINE
  5
D915
102
{ACAD_REACTORS
330
DCE5
102
}
330
2
100
AcDbEntity
  8
KIJUN
100
AcDbLine
 10
421.4672106135744
 20
702.0326700790165
 30
0.0
 11
420.6535216135734
 21
699.2875650790165
 31
0.0
  0
LINE
  5
D916
102
{ACAD_REACTORS
330
DCE5
102
}
330
2
100
AcDbEntity
  8
KIJUN
100
AcDbLine
 10
420.6535216135734
 20
699.2875650790165
 30
0.0
 11
421.0021366135733
 21
697.9486040790169
 31
0.0
  0
LINE
  5
D917
102
{ACAD_REACTORS
330
DCE5
102
}
330
2
100
AcDbEntity
  8
KIJUN
100
AcDbLine
 10
421.0021366135733
 20
697.9486040790169
 30
0.0
 11
421.9612406135743
 21
696.839259079016
 31
0.0
  0
LINE
  5
D918
102
{ACAD_REACTORS
330
DCE5
102
}
330
2
100
AcDbEntity
  8
KIJUN
100
AcDbLine
 10
421.9612406135743
 20
696.839259079016
 30
0.0
 11
423.7924536135733
 21
695.6726370790165
 31
0.0
  0
LINE
  5
D919
102
{ACAD_REACTORS
330
DCE5
102
}
330
2
100
AcDbEntity
  8
KIJUN
100
AcDbLine
 10
423.7924536135733
 20
695.6726370790165
 30
0.0
 11
414.0600626135733
 21
695.7355020790165
 31
0.0
  0
LINE
  5
D91A
102
{ACAD_REACTORS
330
DCE5
102
}
330
2
100
AcDbEntity
  8
KIJUN
100
AcDbLine
 10
414.0600626135733
 20
695.7355020790165
 30
0.0
 11
404.3213216135741
 21
695.7737290790166
 31
0.0
  0
LINE
  5
D91B
102
{ACAD_REACTORS
330
DCE5
102
}
330
2
100
AcDbEntity
  8
KIJUN
100
AcDbLine
 10
404.3213216135741
 20
695.7737290790166
 30
0.0
 11
394.5701346135743
 21
695.7932870790165
 31
0.0
  0
LINE
  5
D91C
102
{ACAD_REACTORS
330
DCE5
102
}
330
2
100
AcDbEntity
  8
KIJUN
100
AcDbLine
 10
394.5701346135743
 20
695.7932870790165
 30
0.0
 11
384.8000246135734
 21
695.8005260790166
 31
0.0
  0
LINE
  5
D91D
102
{ACAD_REACTORS
330
DCE5
102
}
330
2
100
AcDbEntity
  8
KIJUN
100
AcDbLine
 10
384.8000246135734
 20
695.8005260790166
 30
0.0
 11
375.0050226135731
 21
695.8015420790169
 31
0.0
  0
LINE
  5
D91E
102
{ACAD_REACTORS
330
DCE5
102
}
330
2
100
AcDbEntity
  8
KIJUN
100
AcDbLine
 10
375.0050226135731
 20
695.8015420790169
 30
0.0
 11
365.0037726135733
 21
695.8005260790166
 31
0.0
  0
LINE
  5
D91F
102
{ACAD_REACTORS
330
DCE5
102
}
330
2
100
AcDbEntity
  8
KIJUN
100
AcDbLine
 10
365.0037726135733
 20
695.8005260790166
 30
0.0
 11
354.7325206135742
 21
695.7932870790165
 31
0.0
  0
LINE
  5
D920
102
{ACAD_REACTORS
330
DCE5
102
}
330
2
100
AcDbEntity
  8
KIJUN
100
AcDbLine
 10
354.7325206135742
 20
695.7932870790165
 30
0.0
 11
344.3608116135743
 21
695.7737290790166
 31
0.0
  0
LINE
  5
D921
102
{ACAD_REACTORS
330
DCE5
102
}
330
2
100
AcDbEntity
  8
KIJUN
100
AcDbLine
 10
344.3608116135743
 20
695.7737290790166
 30
0.0
 11
334.0580636135742
 21
695.7355020790165
 31
0.0
  0
LINE
  5
D922
102
{ACAD_REACTORS
330
DCE5
102
}
330
2
100
AcDbEntity
  8
KIJUN
100
AcDbLine
 10
334.0580636135742
 20
695.7355020790165
 30
0.0
 11
323.9939486135741
 21
695.6726370790165
 31
0.0
  0
LINE
  5
D923
102
{ACAD_REACTORS
330
DCE5
102
}
330
2
100
AcDbEntity
  8
KIJUN
100
AcDbLine
 10
323.9939486135741
 20
695.6726370790165
 30
0.0
 11
326.2998876135735
 21
697.5184550790163
 31
0.0
  0
LINE
  5
D924
102
{ACAD_REACTORS
330
DCE5
102
}
330
2
100
AcDbEntity
  8
KIJUN
100
AcDbLine
 10
326.2998876135735
 20
697.5184550790163
 30
0.0
 11
327.4430146135733
 21
699.5937620790165
 31
0.0
  0
LINE
  5
D925
102
{ACAD_REACTORS
330
DCE5
102
}
330
2
100
AcDbEntity
  8
KIJUN
100
AcDbLine
 10
327.4430146135733
 20
699.5937620790165
 30
0.0
 11
327.3945006135741
 21
701.3536010790167
 31
0.0
  0
LINE
  5
D926
102
{ACAD_REACTORS
330
DCE5
102
}
330
2
100
AcDbEntity
  8
KIJUN
100
AcDbLine
 10
327.3945006135741
 20
701.3536010790167
 30
0.0
 11
326.4160926135742
 21
702.7022140790166
 31
0.0
  0
LINE
  5
D927
102
{ACAD_REACTORS
330
DCE5
102
}
330
2
100
AcDbEntity
  8
KIJUN
100
AcDbLine
 10
326.4160926135742
 20
702.7022140790166
 30
0.0
 11
324.6237416135732
 21
703.7925090790167
 31
0.0
  0
LINE
  5
D928
102
{ACAD_REACTORS
330
DCE5
102
}
330
2
100
AcDbEntity
  8
KIJUN
100
AcDbLine
 10
324.6237416135732
 20
703.7925090790167
 30
0.0
 11
321.3780026135741
 21
705.2271010790164
 31
0.0
  0
LINE
  5
D929
102
{ACAD_REACTORS
330
DCE5
102
}
330
2
100
AcDbEntity
  8
KIJUN
100
AcDbLine
 10
320.2350026135732
 20
708.9101010790163
 30
0.0
 11
427.2275496135734
 21
708.9101010790163
 31
0.0
  0
LINE
  5
D92A
102
{ACAD_REACTORS
330
DCE5
102
}
330
2
100
AcDbEntity
  8
KIJUN
100
AcDbLine
 10
427.2275496135734
 20
708.9101010790163
 30
0.0
 11
427.2275496135734
 21
705.0355850790165
 31
0.0
  0
LINE
  5
D92B
102
{ACAD_REACTORS
330
DCE5
102
}
330
2
100
AcDbEntity
  8
KIJUN
100
AcDbLine
 10
427.2275496135734
 20
705.0355850790165
 30
0.0
 11
320.2350026135732
 21
705.0355850790165
 31
0.0
  0
LINE
  5
D92C
102
{ACAD_REACTORS
330
DCE5
102
}
330
2
100
AcDbEntity
  8
KIJUN
100
AcDbLine
 10
320.2350026135732
 20
705.0355850790165
 30
0.0
 11
320.2350026135732
 21
708.9101010790163
 31
0.0
  0
LINE
  5
D92D
102
{ACAD_REACTORS
330
DCE5
102
}
330
2
100
AcDbEntity
  8
KIJUN
100
AcDbLine
 10
323.6665426135733
 20
671.6041050790163
 30
0.0
 11
333.6749046135733
 21
671.6041050790163
 31
0.0
  0
LINE
  5
D92E
102
{ACAD_REACTORS
330
DCE5
102
}
330
2
100
AcDbEntity
  8
KIJUN
100
AcDbLine
 10
333.6749046135733
 20
671.6041050790163
 30
0.0
 11
343.6741226135741
 21
671.6041050790163
 31
0.0
  0
LINE
  5
D92F
102
{ACAD_REACTORS
330
DCE5
102
}
330
2
100
AcDbEntity
  8
KIJUN
100
AcDbLine
 10
343.6741226135741
 20
671.6041050790163
 30
0.0
 11
353.6647046135745
 21
671.6041050790163
 31
0.0
  0
LINE
  5
D930
102
{ACAD_REACTORS
330
DCE5
102
}
330
2
100
AcDbEntity
  8
KIJUN
100
AcDbLine
 10
353.6647046135745
 20
671.6041050790163
 30
0.0
 11
363.6469046135735
 21
671.6041050790163
 31
0.0
  0
LINE
  5
D931
102
{ACAD_REACTORS
330
DCE5
102
}
330
2
100
AcDbEntity
  8
KIJUN
100
AcDbLine
 10
363.6469046135735
 20
671.6041050790163
 30
0.0
 11
373.6214846135745
 21
671.6041050790163
 31
0.0
  0
LINE
  5
D932
102
{ACAD_REACTORS
330
DCE5
102
}
330
2
100
AcDbEntity
  8
KIJUN
100
AcDbLine
 10
373.6214846135745
 20
671.6041050790163
 30
0.0
 11
383.5878096135743
 21
671.6041050790163
 31
0.0
  0
LINE
  5
D933
102
{ACAD_REACTORS
330
DCE5
102
}
330
2
100
AcDbEntity
  8
KIJUN
100
AcDbLine
 10
383.5878096135743
 20
671.6041050790163
 30
0.0
 11
393.5682316135735
 21
671.6041050790163
 31
0.0
  0
LINE
  5
D934
102
{ACAD_REACTORS
330
DCE5
102
}
330
2
100
AcDbEntity
  8
KIJUN
100
AcDbLine
 10
393.5682316135735
 20
671.6041050790163
 30
0.0
 11
403.5631316135732
 21
671.6041050790163
 31
0.0
  0
LINE
  5
D935
102
{ACAD_REACTORS
330
DCE5
102
}
330
2
100
AcDbEntity
  8
KIJUN
100
AcDbLine
 10
403.5631316135732
 20
671.6041050790163
 30
0.0
 11
413.5723826135731
 21
671.6041050790163
 31
0.0
  0
LINE
  5
D936
102
{ACAD_REACTORS
330
DCE5
102
}
330
2
100
AcDbEntity
  8
KIJUN
100
AcDbLine
 10
413.5723826135731
 20
671.6041050790163
 30
0.0
 11
423.5959846135743
 21
671.6041050790163
 31
0.0
  0
LINE
  5
D937
102
{ACAD_REACTORS
330
DCE5
102
}
330
2
100
AcDbEntity
  8
KIJUN
100
AcDbLine
 10
423.5959846135743
 20
671.6041050790163
 30
0.0
 11
420.0120446135733
 21
669.6001720790164
 31
0.0
  0
LINE
  5
D938
102
{ACAD_REACTORS
330
DCE5
102
}
330
2
100
AcDbEntity
  8
KIJUN
100
AcDbLine
 10
420.0120446135733
 20
669.6001720790164
 30
0.0
 11
417.3343766135745
 21
667.6218930790165
 31
0.0
  0
LINE
  5
D939
102
{ACAD_REACTORS
330
DCE5
102
}
330
2
100
AcDbEntity
  8
KIJUN
100
AcDbLine
 10
417.3343766135745
 20
667.6218930790165
 30
0.0
 11
415.7480196135743
 21
665.5336320790166
 31
0.0
  0
LINE
  5
D93A
102
{ACAD_REACTORS
330
DCE5
102
}
330
2
100
AcDbEntity
  8
KIJUN
100
AcDbLine
 10
415.7480196135743
 20
665.5336320790166
 30
0.0
 11
415.4987186135731
 21
663.5440500790165
 31
0.0
  0
LINE
  5
D93B
102
{ACAD_REACTORS
330
DCE5
102
}
330
2
100
AcDbEntity
  8
KIJUN
100
AcDbLine
 10
415.4987186135731
 20
663.5440500790165
 30
0.0
 11
416.3174876135731
 21
661.4893170790164
 31
0.0
  0
LINE
  5
D93C
102
{ACAD_REACTORS
330
DCE5
102
}
330
2
100
AcDbEntity
  8
KIJUN
100
AcDbLine
 10
416.3174876135731
 20
661.4893170790164
 30
0.0
 11
417.9715356135743
 21
659.4670960790164
 31
0.0
  0
LINE
  5
D93D
102
{ACAD_REACTORS
330
DCE5
102
}
330
2
100
AcDbEntity
  8
KIJUN
100
AcDbLine
 10
417.9715356135743
 20
659.4670960790164
 30
0.0
 11
406.7806766135731
 21
659.4670960790164
 31
0.0
  0
LINE
  5
D93E
102
{ACAD_REACTORS
330
DCE5
102
}
330
2
100
AcDbEntity
  8
KIJUN
100
AcDbLine
 10
406.7806766135731
 20
659.4670960790164
 30
0.0
 11
395.5905796135744
 21
659.4670960790164
 31
0.0
  0
LINE
  5
D93F
102
{ACAD_REACTORS
330
DCE5
102
}
330
2
100
AcDbEntity
  8
KIJUN
100
AcDbLine
 10
395.5905796135744
 20
659.4670960790164
 30
0.0
 11
384.4020066135731
 21
659.4670960790164
 31
0.0
  0
LINE
  5
D940
102
{ACAD_REACTORS
330
DCE5
102
}
330
2
100
AcDbEntity
  8
KIJUN
100
AcDbLine
 10
384.4020066135731
 20
659.4670960790164
 30
0.0
 11
373.2159736135732
 21
659.4670960790164
 31
0.0
  0
LINE
  5
D941
102
{ACAD_REACTORS
330
DCE5
102
}
330
2
100
AcDbEntity
  8
KIJUN
100
AcDbLine
 10
373.2159736135732
 20
659.4670960790164
 30
0.0
 11
361.9724096135733
 21
659.4670960790164
 31
0.0
  0
LINE
  5
D942
102
{ACAD_REACTORS
330
DCE5
102
}
330
2
100
AcDbEntity
  8
KIJUN
100
AcDbLine
 10
361.9724096135733
 20
659.4670960790164
 30
0.0
 11
350.7304966135734
 21
659.4670960790164
 31
0.0
  0
LINE
  5
D943
102
{ACAD_REACTORS
330
DCE5
102
}
330
2
100
AcDbEntity
  8
KIJUN
100
AcDbLine
 10
350.7304966135734
 20
659.4670960790164
 30
0.0
 11
339.4884566135734
 21
659.4670960790164
 31
0.0
  0
LINE
  5
D944
102
{ACAD_REACTORS
330
DCE5
102
}
330
2
100
AcDbEntity
  8
KIJUN
100
AcDbLine
 10
339.4884566135734
 20
659.4670960790164
 30
0.0
 11
328.2445116135732
 21
659.4670960790164
 31
0.0
  0
LINE
  5
D945
102
{ACAD_REACTORS
330
DCE5
102
}
330
2
100
AcDbEntity
  8
KIJUN
100
AcDbLine
 10
328.2445116135732
 20
659.4670960790164
 30
0.0
 11
328.8976726135734
 21
661.4757280790162
 31
0.0
  0
LINE
  5
D946
102
{ACAD_REACTORS
330
DCE5
102
}
330
2
100
AcDbEntity
  8
KIJUN
100
AcDbLine
 10
328.8976726135734
 20
661.4757280790162
 30
0.0
 11
329.0679796135732
 21
663.5167450790167
 31
0.0
  0
LINE
  5
D947
102
{ACAD_REACTORS
330
DCE5
102
}
330
2
100
AcDbEntity
  8
KIJUN
100
AcDbLine
 10
329.0679796135732
 20
663.5167450790167
 30
0.0
 11
328.6374496135731
 21
665.5336320790166
 31
0.0
  0
LINE
  5
D948
102
{ACAD_REACTORS
330
DCE5
102
}
330
2
100
AcDbEntity
  8
KIJUN
100
AcDbLine
 10
328.6374496135731
 20
665.5336320790166
 30
0.0
 11
327.5103246135732
 21
667.5703310790167
 31
0.0
  0
LINE
  5
D949
102
{ACAD_REACTORS
330
DCE5
102
}
330
2
100
AcDbEntity
  8
KIJUN
100
AcDbLine
 10
327.5103246135732
 20
667.5703310790167
 30
0.0
 11
325.8141126135734
 21
669.574391079017
 31
0.0
  0
LINE
  5
D94A
102
{ACAD_REACTORS
330
DCE5
102
}
330
2
100
AcDbEntity
  8
KIJUN
100
AcDbLine
 10
325.8141126135734
 20
669.574391079017
 30
0.0
 11
323.6665426135733
 21
671.6041050790163
 31
0.0
  0
LINE
  5
D94B
102
{ACAD_REACTORS
330
DCE5
102
}
330
2
100
AcDbEntity
  8
KIJUN
100
AcDbLine
 10
313.4444396135732
 20
432.6851010790168
 30
0.0
 11
437.3150326135733
 21
432.6851010790168
 31
0.0
  0
LINE
  5
D94C
102
{ACAD_REACTORS
330
DCE5
102
}
330
2
100
AcDbEntity
  8
KIJUN
100
AcDbLine
 10
437.3150326135733
 20
432.6851010790168
 30
0.0
 11
442.1471286135743
 21
431.7326010790164
 31
0.0
  0
LINE
  5
D94D
102
{ACAD_REACTORS
330
DCE5
102
}
330
2
100
AcDbEntity
  8
KIJUN
100
AcDbLine
 10
442.1471286135743
 20
431.7326010790164
 30
0.0
 11
445.5935276135733
 21
429.2355270790167
 31
0.0
  0
LINE
  5
D94E
102
{ACAD_REACTORS
330
DCE5
102
}
330
2
100
AcDbEntity
  8
KIJUN
100
AcDbLine
 10
445.5935276135733
 20
429.2355270790167
 30
0.0
 11
446.9079776135731
 21
425.7341370790163
 31
0.0
  0
LINE
  5
D94F
102
{ACAD_REACTORS
330
DCE5
102
}
330
2
100
AcDbEntity
  8
KIJUN
100
AcDbLine
 10
446.9079776135731
 20
425.7341370790163
 30
0.0
 11
446.9079776135731
 21
420.8986120790167
 31
0.0
  0
LINE
  5
D950
102
{ACAD_REACTORS
330
DCE5
102
}
330
2
100
AcDbEntity
  8
KIJUN
100
AcDbLine
 10
446.9079776135731
 20
420.8986120790167
 30
0.0
 11
445.5935276135733
 21
417.397476079017
 31
0.0
  0
LINE
  5
D951
102
{ACAD_REACTORS
330
DCE5
102
}
330
2
100
AcDbEntity
  8
KIJUN
100
AcDbLine
 10
445.5935276135733
 20
417.397476079017
 30
0.0
 11
442.1471286135743
 21
414.9005290790164
 31
0.0
  0
LINE
  5
D952
102
{ACAD_REACTORS
330
DCE5
102
}
330
2
100
AcDbEntity
  8
KIJUN
100
AcDbLine
 10
442.1471286135743
 20
414.9005290790164
 30
0.0
 11
437.3150326135733
 21
413.9481560790163
 31
0.0
  0
LINE
  5
D953
102
{ACAD_REACTORS
330
DCE5
102
}
330
2
100
AcDbEntity
  8
KIJUN
100
AcDbLine
 10
437.3150326135733
 20
413.9481560790163
 30
0.0
 11
313.4444396135732
 21
413.9481560790163
 31
0.0
  0
LINE
  5
D954
102
{ACAD_REACTORS
330
DCE5
102
}
330
2
100
AcDbEntity
  8
KIJUN
100
AcDbLine
 10
313.4444396135732
 20
413.9481560790163
 30
0.0
 11
308.6127246135743
 21
414.9005290790164
 31
0.0
  0
LINE
  5
D955
102
{ACAD_REACTORS
330
DCE5
102
}
330
2
100
AcDbEntity
  8
KIJUN
100
AcDbLine
 10
308.6127246135743
 20
414.9005290790164
 30
0.0
 11
305.1664526135732
 21
417.397476079017
 31
0.0
  0
LINE
  5
D956
102
{ACAD_REACTORS
330
DCE5
102
}
330
2
100
AcDbEntity
  8
KIJUN
100
AcDbLine
 10
305.1664526135732
 20
417.397476079017
 30
0.0
 11
303.8520026135743
 21
420.8986120790167
 31
0.0
  0
LINE
  5
D957
102
{ACAD_REACTORS
330
DCE5
102
}
330
2
100
AcDbEntity
  8
KIJUN
100
AcDbLine
 10
303.8520026135743
 20
420.8986120790167
 30
0.0
 11
303.8520026135743
 21
425.7341370790163
 31
0.0
  0
LINE
  5
D958
102
{ACAD_REACTORS
330
DCE5
102
}
330
2
100
AcDbEntity
  8
KIJUN
100
AcDbLine
 10
303.8520026135743
 20
425.7341370790163
 30
0.0
 11
305.1664526135732
 21
429.2355270790167
 31
0.0
  0
LINE
  5
D959
102
{ACAD_REACTORS
330
DCE5
102
}
330
2
100
AcDbEntity
  8
KIJUN
100
AcDbLine
 10
305.1664526135732
 20
429.2355270790167
 30
0.0
 11
308.6127246135743
 21
431.7326010790164
 31
0.0
  0
LINE
  5
D95A
102
{ACAD_REACTORS
330
DCE5
102
}
330
2
100
AcDbEntity
  8
KIJUN
100
AcDbLine
 10
308.6127246135743
 20
431.7326010790164
 30
0.0
 11
313.4444396135732
 21
432.6851010790168
 31
0.0
  0
LINE
  5
D95B
102
{ACAD_REACTORS
330
DCE5
102
}
330
2
100
AcDbEntity
  8
KIJUN
100
AcDbLine
 10
312.6150026135742
 20
438.2731010790165
 30
0.0
 11
436.9260316135733
 21
438.2731010790165
 31
0.0
  0
LINE
  5
D95C
102
{ACAD_REACTORS
330
DCE5
102
}
330
2
100
AcDbEntity
  8
KIJUN
100
AcDbLine
 10
436.9260316135733
 20
438.2731010790165
 30
0.0
 11
436.9260316135733
 21
432.721042079017
 31
0.0
  0
LINE
  5
D95D
102
{ACAD_REACTORS
330
DCE5
102
}
330
2
100
AcDbEntity
  8
KIJUN
100
AcDbLine
 10
436.9260316135733
 20
432.721042079017
 30
0.0
 11
312.6150026135742
 21
432.721042079017
 31
0.0
  0
LINE
  5
D95E
102
{ACAD_REACTORS
330
DCE5
102
}
330
2
100
AcDbEntity
  8
KIJUN
100
AcDbLine
 10
312.6150026135742
 20
432.721042079017
 30
0.0
 11
312.6150026135742
 21
438.2731010790165
 31
0.0
  0
LINE
  5
D95F
102
{ACAD_REACTORS
330
DCE5
102
}
330
2
100
AcDbEntity
  8
KIJUN
100
AcDbLine
 10
345.3450616135733
 20
470.5311010790165
 30
0.0
 11
355.0044276135732
 21
470.6219060790162
 31
0.0
  0
LINE
  5
D960
102
{ACAD_REACTORS
330
DCE5
102
}
330
2
100
AcDbEntity
  8
KIJUN
100
AcDbLine
 10
355.0044276135732
 20
470.6219060790162
 30
0.0
 11
364.3212746135732
 21
470.6553070790168
 31
0.0
  0
LINE
  5
D961
102
{ACAD_REACTORS
330
DCE5
102
}
330
2
100
AcDbEntity
  8
KIJUN
100
AcDbLine
 10
364.3212746135732
 20
470.6553070790168
 30
0.0
 11
373.8780246135743
 21
470.6601330790162
 31
0.0
  0
LINE
  5
D962
102
{ACAD_REACTORS
330
DCE5
102
}
330
2
100
AcDbEntity
  8
KIJUN
100
AcDbLine
 10
373.8780246135743
 20
470.6601330790162
 30
0.0
 11
383.7485916135743
 21
470.6553070790168
 31
0.0
  0
LINE
  5
D963
102
{ACAD_REACTORS
330
DCE5
102
}
330
2
100
AcDbEntity
  8
KIJUN
100
AcDbLine
 10
383.7485916135743
 20
470.6553070790168
 30
0.0
 11
393.6195396135731
 21
470.6219060790162
 31
0.0
  0
LINE
  5
D964
102
{ACAD_REACTORS
330
DCE5
102
}
330
2
100
AcDbEntity
  8
KIJUN
100
AcDbLine
 10
393.6195396135731
 20
470.6219060790162
 30
0.0
 11
403.4904876135742
 21
470.5311010790165
 31
0.0
  0
LINE
  5
D965
102
{ACAD_REACTORS
330
DCE5
102
}
330
2
100
AcDbEntity
  8
KIJUN
100
AcDbLine
 10
403.4904876135742
 20
470.5311010790165
 30
0.0
 11
401.0684706135735
 21
466.3324810790164
 31
0.0
  0
LINE
  5
D966
102
{ACAD_REACTORS
330
DCE5
102
}
330
2
100
AcDbEntity
  8
KIJUN
100
AcDbLine
 10
401.0684706135735
 20
466.3324810790164
 30
0.0
 11
401.1826436135733
 21
460.6130360790166
 31
0.0
  0
LINE
  5
D967
102
{ACAD_REACTORS
330
DCE5
102
}
330
2
100
AcDbEntity
  8
KIJUN
100
AcDbLine
 10
401.1826436135733
 20
460.6130360790166
 30
0.0
 11
403.7989706135731
 21
454.7791640790165
 31
0.0
  0
LINE
  5
D968
102
{ACAD_REACTORS
330
DCE5
102
}
330
2
100
AcDbEntity
  8
KIJUN
100
AcDbLine
 10
403.7989706135731
 20
454.7791640790165
 30
0.0
 11
411.3564866135743
 21
447.9691700790161
 31
0.0
  0
LINE
  5
D969
102
{ACAD_REACTORS
330
DCE5
102
}
330
2
100
AcDbEntity
  8
KIJUN
100
AcDbLine
 10
411.3564866135743
 20
447.9691700790161
 30
0.0
 11
423.1295136135732
 21
442.1350440790164
 31
0.0
  0
LINE
  5
D96A
102
{ACAD_REACTORS
330
DCE5
102
}
330
2
100
AcDbEntity
  8
KIJUN
100
AcDbLine
 10
423.1295136135732
 20
442.1350440790164
 30
0.0
 11
437.5760176135741
 21
438.2521460790165
 31
0.0
  0
LINE
  5
D96B
102
{ACAD_REACTORS
330
DCE5
102
}
330
2
100
AcDbEntity
  8
KIJUN
100
AcDbLine
 10
437.5760176135741
 20
438.2521460790165
 30
0.0
 11
427.2294546135731
 21
438.3065020790163
 31
0.0
  0
LINE
  5
D96C
102
{ACAD_REACTORS
330
DCE5
102
}
330
2
100
AcDbEntity
  8
KIJUN
100
AcDbLine
 10
427.2294546135731
 20
438.3065020790163
 30
0.0
 11
416.8572376135735
 21
438.3428240790161
 31
0.0
  0
LINE
  5
D96D
102
{ACAD_REACTORS
330
DCE5
102
}
330
2
100
AcDbEntity
  8
KIJUN
100
AcDbLine
 10
416.8572376135735
 20
438.3428240790161
 30
0.0
 11
406.4594936135732
 21
438.3649220790165
 31
0.0
  0
LINE
  5
D96E
102
{ACAD_REACTORS
330
DCE5
102
}
330
2
100
AcDbEntity
  8
KIJUN
100
AcDbLine
 10
406.4594936135732
 20
438.3649220790165
 30
0.0
 11
396.0358416135732
 21
438.3763520790171
 31
0.0
  0
LINE
  5
D96F
102
{ACAD_REACTORS
330
DCE5
102
}
330
2
100
AcDbEntity
  8
KIJUN
100
AcDbLine
 10
396.0358416135732
 20
438.3763520790171
 30
0.0
 11
385.5865356135741
 21
438.380543079017
 31
0.0
  0
LINE
  5
D970
102
{ACAD_REACTORS
330
DCE5
102
}
330
2
100
AcDbEntity
  8
KIJUN
100
AcDbLine
 10
385.5865356135741
 20
438.380543079017
 30
0.0
 11
375.1114486135743
 21
438.3810510790161
 31
0.0
  0
LINE
  5
D971
102
{ACAD_REACTORS
330
DCE5
102
}
330
2
100
AcDbEntity
  8
KIJUN
100
AcDbLine
 10
375.1114486135743
 20
438.3810510790161
 30
0.0
 11
364.7116726135732
 21
438.380543079017
 31
0.0
  0
LINE
  5
D972
102
{ACAD_REACTORS
330
DCE5
102
}
330
2
100
AcDbEntity
  8
KIJUN
100
AcDbLine
 10
364.7116726135732
 20
438.380543079017
 30
0.0
 11
354.3245966135742
 21
438.3763520790171
 31
0.0
  0
LINE
  5
D973
102
{ACAD_REACTORS
330
DCE5
102
}
330
2
100
AcDbEntity
  8
KIJUN
100
AcDbLine
 10
354.3245966135742
 20
438.3763520790171
 30
0.0
 11
343.9373936135744
 21
438.3649220790165
 31
0.0
  0
LINE
  5
D974
102
{ACAD_REACTORS
330
DCE5
102
}
330
2
100
AcDbEntity
  8
KIJUN
100
AcDbLine
 10
343.9373936135744
 20
438.3649220790165
 30
0.0
 11
333.5374906135744
 21
438.3428240790161
 31
0.0
  0
LINE
  5
D975
102
{ACAD_REACTORS
330
DCE5
102
}
330
2
100
AcDbEntity
  8
KIJUN
100
AcDbLine
 10
333.5374906135744
 20
438.3428240790161
 30
0.0
 11
323.1116796135743
 21
438.3065020790163
 31
0.0
  0
LINE
  5
D976
102
{ACAD_REACTORS
330
DCE5
102
}
330
2
100
AcDbEntity
  8
KIJUN
100
AcDbLine
 10
323.1116796135743
 20
438.3065020790163
 30
0.0
 11
312.6475146135744
 21
438.2521460790165
 31
0.0
  0
LINE
  5
D977
102
{ACAD_REACTORS
330
DCE5
102
}
330
2
100
AcDbEntity
  8
KIJUN
100
AcDbLine
 10
312.6475146135744
 20
438.2521460790165
 30
0.0
 11
324.1645096135744
 21
441.3810450790168
 31
0.0
  0
LINE
  5
D978
102
{ACAD_REACTORS
330
DCE5
102
}
330
2
100
AcDbEntity
  8
KIJUN
100
AcDbLine
 10
324.1645096135744
 20
441.3810450790168
 30
0.0
 11
335.1463266135734
 21
446.3378550790165
 31
0.0
  0
LINE
  5
D979
102
{ACAD_REACTORS
330
DCE5
102
}
330
2
100
AcDbEntity
  8
KIJUN
100
AcDbLine
 10
335.1463266135734
 20
446.3378550790165
 30
0.0
 11
343.5544886135744
 21
452.2872970790167
 31
0.0
  0
LINE
  5
D97A
102
{ACAD_REACTORS
330
DCE5
102
}
330
2
100
AcDbEntity
  8
KIJUN
100
AcDbLine
 10
343.5544886135744
 20
452.2872970790167
 30
0.0
 11
347.3500106135734
 21
458.3940920790164
 31
0.0
  0
LINE
  5
D97B
102
{ACAD_REACTORS
330
DCE5
102
}
330
2
100
AcDbEntity
  8
KIJUN
100
AcDbLine
 10
347.3500106135734
 20
458.3940920790164
 30
0.0
 11
347.5841986135742
 21
463.1762770790165
 31
0.0
  0
LINE
  5
D97C
102
{ACAD_REACTORS
330
DCE5
102
}
330
2
100
AcDbEntity
  8
KIJUN
100
AcDbLine
 10
347.5841986135742
 20
463.1762770790165
 30
0.0
 11
346.7557776135732
 21
466.4376370790168
 31
0.0
  0
LINE
  5
D97D
102
{ACAD_REACTORS
330
DCE5
102
}
330
2
100
AcDbEntity
  8
KIJUN
100
AcDbLine
 10
346.7557776135732
 20
466.4376370790168
 30
0.0
 11
345.3450616135733
 21
470.5311010790165
 31
0.0
  0
LINE
  5
D97E
102
{ACAD_REACTORS
330
DCE5
102
}
330
2
100
AcDbEntity
  8
KIJUN
100
AcDbLine
 10
319.6000026135743
 20
508.7581010790162
 30
0.0
 11
328.9309466135742
 21
508.8101710790169
 31
0.0
  0
LINE
  5
D97F
102
{ACAD_REACTORS
330
DCE5
102
}
330
2
100
AcDbEntity
  8
KIJUN
100
AcDbLine
 10
328.9309466135742
 20
508.8101710790169
 30
0.0
 11
338.2620176135733
 21
508.8449690790164
 31
0.0
  0
LINE
  5
D980
102
{ACAD_REACTORS
330
DCE5
102
}
330
2
100
AcDbEntity
  8
KIJUN
100
AcDbLine
 10
338.2620176135733
 20
508.8449690790164
 30
0.0
 11
347.5930886135743
 21
508.8661780790159
 31
0.0
  0
LINE
  5
D981
102
{ACAD_REACTORS
330
DCE5
102
}
330
2
100
AcDbEntity
  8
KIJUN
100
AcDbLine
 10
347.5930886135743
 20
508.8661780790159
 30
0.0
 11
356.9241596135735
 21
508.8769730790162
 31
0.0
  0
LINE
  5
D982
102
{ACAD_REACTORS
330
DCE5
102
}
330
2
100
AcDbEntity
  8
KIJUN
100
AcDbLine
 10
356.9241596135735
 20
508.8769730790162
 30
0.0
 11
366.2552306135745
 21
508.8810370790169
 31
0.0
  0
LINE
  5
D983
102
{ACAD_REACTORS
330
DCE5
102
}
330
2
100
AcDbEntity
  8
KIJUN
100
AcDbLine
 10
366.2552306135745
 20
508.8810370790169
 30
0.0
 11
375.5865556135732
 21
508.881545079017
 31
0.0
  0
LINE
  5
D984
102
{ACAD_REACTORS
330
DCE5
102
}
330
2
100
AcDbEntity
  8
KIJUN
100
AcDbLine
 10
375.5865556135732
 20
508.881545079017
 30
0.0
 11
386.7824946135734
 21
508.8806560790171
 31
0.0
  0
LINE
  5
D985
102
{ACAD_REACTORS
330
DCE5
102
}
330
2
100
AcDbEntity
  8
KIJUN
100
AcDbLine
 10
386.7824946135734
 20
508.8806560790171
 30
0.0
 11
397.9710676135733
 21
508.8736710790161
 31
0.0
  0
LINE
  5
D986
102
{ACAD_REACTORS
330
DCE5
102
}
330
2
100
AcDbEntity
  8
KIJUN
100
AcDbLine
 10
397.9710676135733
 20
508.8736710790161
 30
0.0
 11
409.1447816135732
 21
508.8548750790168
 31
0.0
  0
LINE
  5
D987
102
{ACAD_REACTORS
330
DCE5
102
}
330
2
100
AcDbEntity
  8
KIJUN
100
AcDbLine
 10
409.1447816135732
 20
508.8548750790168
 30
0.0
 11
420.2963976135733
 21
508.8184260790164
 31
0.0
  0
LINE
  5
D988
102
{ACAD_REACTORS
330
DCE5
102
}
330
2
100
AcDbEntity
  8
KIJUN
100
AcDbLine
 10
420.2963976135733
 20
508.8184260790164
 30
0.0
 11
431.4185496135733
 21
508.7581010790162
 31
0.0
  0
LINE
  5
D989
102
{ACAD_REACTORS
330
DCE5
102
}
330
2
100
AcDbEntity
  8
KIJUN
100
AcDbLine
 10
431.4185496135733
 20
508.7581010790162
 30
0.0
 11
430.4872586135734
 21
503.8434550790169
 31
0.0
  0
LINE
  5
D98A
102
{ACAD_REACTORS
330
DCE5
102
}
330
2
100
AcDbEntity
  8
KIJUN
100
AcDbLine
 10
430.4872586135734
 20
503.8434550790169
 30
0.0
 11
428.9048386135741
 21
498.9839270790169
 31
0.0
  0
LINE
  5
D98B
102
{ACAD_REACTORS
330
DCE5
102
}
330
2
100
AcDbEntity
  8
KIJUN
100
AcDbLine
 10
428.9048386135741
 20
498.9839270790169
 30
0.0
 11
426.6369996135741
 21
493.8226470790168
 31
0.0
  0
LINE
  5
D98C
102
{ACAD_REACTORS
330
DCE5
102
}
330
2
100
AcDbEntity
  8
KIJUN
100
AcDbLine
 10
426.6369996135741
 20
493.8226470790168
 30
0.0
 11
421.598909613574
 21
487.2806230790165
 31
0.0
  0
LINE
  5
D98D
102
{ACAD_REACTORS
330
DCE5
102
}
330
2
100
AcDbEntity
  8
KIJUN
100
AcDbLine
 10
421.598909613574
 20
487.2806230790165
 30
0.0
 11
413.8873426135733
 21
482.0552080790165
 31
0.0
  0
LINE
  5
D98E
102
{ACAD_REACTORS
330
DCE5
102
}
330
2
100
AcDbEntity
  8
KIJUN
100
AcDbLine
 10
413.8873426135733
 20
482.0552080790165
 30
0.0
 11
404.4274936135734
 21
477.8996410790169
 31
0.0
  0
LINE
  5
D98F
102
{ACAD_REACTORS
330
DCE5
102
}
330
2
100
AcDbEntity
  8
KIJUN
100
AcDbLine
 10
404.4274936135734
 20
477.8996410790169
 30
0.0
 11
394.7853996135732
 21
477.9316450790165
 31
0.0
  0
LINE
  5
D990
102
{ACAD_REACTORS
330
DCE5
102
}
330
2
100
AcDbEntity
  8
KIJUN
100
AcDbLine
 10
394.7853996135732
 20
477.9316450790165
 30
0.0
 11
385.0744716135732
 21
477.991081079017
 31
0.0
  0
LINE
  5
D991
102
{ACAD_REACTORS
330
DCE5
102
}
330
2
100
AcDbEntity
  8
KIJUN
100
AcDbLine
 10
385.0744716135732
 20
477.991081079017
 30
0.0
 11
375.4319966135745
 21
478.0230850790165
 31
0.0
  0
LINE
  5
D992
102
{ACAD_REACTORS
330
DCE5
102
}
330
2
100
AcDbEntity
  8
KIJUN
100
AcDbLine
 10
375.4319966135745
 20
478.0230850790165
 30
0.0
 11
365.7097656135743
 21
478.0185130790167
 31
0.0
  0
LINE
  5
D993
102
{ACAD_REACTORS
330
DCE5
102
}
330
2
100
AcDbEntity
  8
KIJUN
100
AcDbLine
 10
365.7097656135743
 20
478.0185130790167
 30
0.0
 11
355.9532446135731
 21
477.9865090790162
 31
0.0
  0
LINE
  5
D994
102
{ACAD_REACTORS
330
DCE5
102
}
330
2
100
AcDbEntity
  8
KIJUN
100
AcDbLine
 10
355.9532446135731
 20
477.9865090790162
 30
0.0
 11
346.1280166135744
 21
477.8996410790169
 31
0.0
  0
LINE
  5
D995
102
{ACAD_REACTORS
330
DCE5
102
}
330
2
100
AcDbEntity
  8
KIJUN
100
AcDbLine
 10
346.1280166135744
 20
477.8996410790169
 30
0.0
 11
337.5708836135741
 21
481.7491380790167
 31
0.0
  0
LINE
  5
D996
102
{ACAD_REACTORS
330
DCE5
102
}
330
2
100
AcDbEntity
  8
KIJUN
100
AcDbLine
 10
337.5708836135741
 20
481.7491380790167
 30
0.0
 11
330.5218756135742
 21
486.3117400790169
 31
0.0
  0
LINE
  5
D997
102
{ACAD_REACTORS
330
DCE5
102
}
330
2
100
AcDbEntity
  8
KIJUN
100
AcDbLine
 10
330.5218756135742
 20
486.3117400790169
 30
0.0
 11
325.1524426135743
 21
491.477592079017
 31
0.0
  0
LINE
  5
D998
102
{ACAD_REACTORS
330
DCE5
102
}
330
2
100
AcDbEntity
  8
KIJUN
100
AcDbLine
 10
325.1524426135743
 20
491.477592079017
 30
0.0
 11
322.0334496135742
 21
497.0272380790164
 31
0.0
  0
LINE
  5
D999
102
{ACAD_REACTORS
330
DCE5
102
}
330
2
100
AcDbEntity
  8
KIJUN
100
AcDbLine
 10
322.0334496135742
 20
497.0272380790164
 30
0.0
 11
320.4567446135734
 21
503.1257780790164
 31
0.0
  0
LINE
  5
D99A
102
{ACAD_REACTORS
330
DCE5
102
}
330
2
100
AcDbEntity
  8
KIJUN
100
AcDbLine
 10
320.4567446135734
 20
503.1257780790164
 30
0.0
 11
319.6000026135743
 21
508.7581010790162
 31
0.0
  0
LINE
  5
D99B
102
{ACAD_REACTORS
330
DCE5
102
}
330
2
100
AcDbEntity
  8
KIJUN
100
AcDbLine
 10
323.9180026135741
 20
529.2051010790165
 30
0.0
 11
323.1469856135741
 21
526.8811280790167
 31
0.0
  0
LINE
  5
D99C
102
{ACAD_REACTORS
330
DCE5
102
}
330
2
100
AcDbEntity
  8
KIJUN
100
AcDbLine
 10
323.1469856135741
 20
526.8811280790167
 30
0.0
 11
320.5249436135732
 21
524.9441240790164
 31
0.0
  0
LINE
  5
D99D
102
{ACAD_REACTORS
330
DCE5
102
}
330
2
100
AcDbEntity
  8
KIJUN
100
AcDbLine
 10
320.5249436135732
 20
524.9441240790164
 30
0.0
 11
317.2860626135734
 21
523.9111060790164
 31
0.0
  0
LINE
  5
D99E
102
{ACAD_REACTORS
330
DCE5
102
}
330
2
100
AcDbEntity
  8
KIJUN
100
AcDbLine
 10
317.2860626135734
 20
523.9111060790164
 30
0.0
 11
314.2014866135732
 21
522.4911190790162
 31
0.0
  0
LINE
  5
D99F
102
{ACAD_REACTORS
330
DCE5
102
}
330
2
100
AcDbEntity
  8
KIJUN
100
AcDbLine
 10
314.2014866135732
 20
522.4911190790162
 30
0.0
 11
312.9675546135731
 21
520.1671460790164
 31
0.0
  0
LINE
  5
D9A0
102
{ACAD_REACTORS
330
DCE5
102
}
330
2
100
AcDbEntity
  8
KIJUN
100
AcDbLine
 10
312.9675546135731
 20
520.1671460790164
 30
0.0
 11
312.6589446135745
 21
517.4555690790166
 31
0.0
  0
LINE
  5
D9A1
102
{ACAD_REACTORS
330
DCE5
102
}
330
2
100
AcDbEntity
  8
KIJUN
100
AcDbLine
 10
312.6589446135745
 20
517.4555690790166
 30
0.0
 11
312.9675546135731
 21
514.3566420790166
 31
0.0
  0
LINE
  5
D9A2
102
{ACAD_REACTORS
330
DCE5
102
}
330
2
100
AcDbEntity
  8
KIJUN
100
AcDbLine
 10
312.9675546135731
 20
514.3566420790166
 30
0.0
 11
314.5099696135744
 21
511.9036370790163
 31
0.0
  0
LINE
  5
D9A3
102
{ACAD_REACTORS
330
DCE5
102
}
330
2
100
AcDbEntity
  8
KIJUN
100
AcDbLine
 10
314.5099696135744
 20
511.9036370790163
 30
0.0
 11
316.8235286135732
 21
510.2250780790164
 31
0.0
  0
LINE
  5
D9A4
102
{ACAD_REACTORS
330
DCE5
102
}
330
2
100
AcDbEntity
  8
KIJUN
100
AcDbLine
 10
316.8235286135732
 20
510.2250780790164
 30
0.0
 11
320.5249436135732
 21
509.0631550790164
 31
0.0
  0
LINE
  5
D9A5
102
{ACAD_REACTORS
330
DCE5
102
}
330
2
100
AcDbEntity
  8
KIJUN
100
AcDbLine
 10
320.5249436135732
 20
509.0631550790164
 30
0.0
 11
430.9549996135733
 21
509.0631550790164
 31
0.0
  0
LINE
  5
D9A6
102
{ACAD_REACTORS
330
DCE5
102
}
330
2
100
AcDbEntity
  8
KIJUN
100
AcDbLine
 10
430.9549996135733
 20
509.0631550790164
 30
0.0
 11
434.3484396135732
 21
510.7415870790164
 31
0.0
  0
LINE
  5
D9A7
102
{ACAD_REACTORS
330
DCE5
102
}
330
2
100
AcDbEntity
  8
KIJUN
100
AcDbLine
 10
434.3484396135732
 20
510.7415870790164
 30
0.0
 11
436.0450326135742
 21
512.9366550790164
 31
0.0
  0
LINE
  5
D9A8
102
{ACAD_REACTORS
330
DCE5
102
}
330
2
100
AcDbEntity
  8
KIJUN
100
AcDbLine
 10
436.0450326135742
 20
512.9366550790164
 30
0.0
 11
437.5869396135745
 21
516.0350740790162
 31
0.0
  0
LINE
  5
D9A9
102
{ACAD_REACTORS
330
DCE5
102
}
330
2
100
AcDbEntity
  8
KIJUN
100
AcDbLine
 10
437.5869396135745
 20
516.0350740790162
 30
0.0
 11
437.5869396135745
 21
518.8755560790168
 31
0.0
  0
LINE
  5
D9AA
102
{ACAD_REACTORS
330
DCE5
102
}
330
2
100
AcDbEntity
  8
KIJUN
100
AcDbLine
 10
437.5869396135745
 20
518.8755560790168
 30
0.0
 11
436.6619986135742
 21
521.5871330790167
 31
0.0
  0
LINE
  5
D9AB
102
{ACAD_REACTORS
330
DCE5
102
}
330
2
100
AcDbEntity
  8
KIJUN
100
AcDbLine
 10
436.6619986135742
 20
521.5871330790167
 30
0.0
 11
434.0399566135743
 21
524.4276150790163
 31
0.0
  0
LINE
  5
D9AC
102
{ACAD_REACTORS
330
DCE5
102
}
330
2
100
AcDbEntity
  8
KIJUN
100
AcDbLine
 10
434.0399566135743
 20
524.4276150790163
 30
0.0
 11
431.4180416135732
 21
525.4606330790165
 31
0.0
  0
LINE
  5
D9AD
102
{ACAD_REACTORS
330
DCE5
102
}
330
2
100
AcDbEntity
  8
KIJUN
100
AcDbLine
 10
431.4180416135732
 20
525.4606330790165
 30
0.0
 11
428.6414406135731
 21
526.106047079017
 31
0.0
  0
LINE
  5
D9AE
102
{ACAD_REACTORS
330
DCE5
102
}
330
2
100
AcDbEntity
  8
KIJUN
100
AcDbLine
 10
428.6414406135731
 20
526.106047079017
 30
0.0
 11
425.7115506135733
 21
526.8811280790167
 31
0.0
  0
LINE
  5
D9AF
102
{ACAD_REACTORS
330
DCE5
102
}
330
2
100
AcDbEntity
  8
KIJUN
100
AcDbLine
 10
425.7115506135733
 20
526.8811280790167
 30
0.0
 11
424.3230596135731
 21
529.4630380790168
 31
0.0
  0
LINE
  5
D9B0
102
{ACAD_REACTORS
330
DCE5
102
}
330
2
100
AcDbEntity
  8
KIJUN
100
AcDbLine
 10
424.3230596135731
 20
529.4630380790168
 30
0.0
 11
323.9180026135741
 21
529.2051010790165
 31
0.0
  0
LINE
  5
D9B1
102
{ACAD_REACTORS
330
DCE5
102
}
330
2
100
AcDbEntity
  8
KIJUN
100
AcDbLine
 10
327.5674746135733
 20
659.6341010790165
 30
0.0
 11
420.3024936135734
 21
659.6341010790165
 31
0.0
  0
LINE
  5
D9B2
102
{ACAD_REACTORS
330
DCE5
102
}
330
2
100
AcDbEntity
  8
KIJUN
100
AcDbLine
 10
420.3024936135734
 20
659.6341010790165
 30
0.0
 11
424.1240506135741
 21
658.6729650790166
 31
0.0
  0
LINE
  5
D9B3
102
{ACAD_REACTORS
330
DCE5
102
}
330
2
100
AcDbEntity
  8
KIJUN
100
AcDbLine
 10
424.1240506135741
 20
658.6729650790166
 30
0.0
 11
426.8494706135734
 21
656.153158079017
 31
0.0
  0
LINE
  5
D9B4
102
{ACAD_REACTORS
330
DCE5
102
}
330
2
100
AcDbEntity
  8
KIJUN
100
AcDbLine
 10
426.8494706135734
 20
656.153158079017
 30
0.0
 11
427.8889656135734
 21
652.6201450790166
 31
0.0
  0
LINE
  5
D9B5
102
{ACAD_REACTORS
330
DCE5
102
}
330
2
100
AcDbEntity
  8
KIJUN
100
AcDbLine
 10
427.8889656135734
 20
652.6201450790166
 30
0.0
 11
427.8889656135734
 21
536.1671140790167
 31
0.0
  0
LINE
  5
D9B6
102
{ACAD_REACTORS
330
DCE5
102
}
330
2
100
AcDbEntity
  8
KIJUN
100
AcDbLine
 10
427.8889656135734
 20
536.1671140790167
 30
0.0
 11
426.8494706135734
 21
532.6339740790161
 31
0.0
  0
LINE
  5
D9B7
102
{ACAD_REACTORS
330
DCE5
102
}
330
2
100
AcDbEntity
  8
KIJUN
100
AcDbLine
 10
426.8494706135734
 20
532.6339740790161
 30
0.0
 11
424.1240506135741
 21
530.1141670790165
 31
0.0
  0
LINE
  5
D9B8
102
{ACAD_REACTORS
330
DCE5
102
}
330
2
100
AcDbEntity
  8
KIJUN
100
AcDbLine
 10
424.1240506135741
 20
530.1141670790165
 30
0.0
 11
420.3024936135734
 21
529.1531580790169
 31
0.0
  0
LINE
  5
D9B9
102
{ACAD_REACTORS
330
DCE5
102
}
330
2
100
AcDbEntity
  8
KIJUN
100
AcDbLine
 10
420.3024936135734
 20
529.1531580790169
 30
0.0
 11
327.5674746135733
 21
529.1531580790169
 31
0.0
  0
LINE
  5
D9BA
102
{ACAD_REACTORS
330
DCE5
102
}
330
2
100
AcDbEntity
  8
KIJUN
100
AcDbLine
 10
327.5674746135733
 20
529.1531580790169
 30
0.0
 11
323.7459176135735
 21
530.1141670790165
 31
0.0
  0
LINE
  5
D9BB
102
{ACAD_REACTORS
330
DCE5
102
}
330
2
100
AcDbEntity
  8
KIJUN
100
AcDbLine
 10
323.7459176135735
 20
530.1141670790165
 30
0.0
 11
321.0204976135742
 21
532.6339740790161
 31
0.0
  0
LINE
  5
D9BC
102
{ACAD_REACTORS
330
DCE5
102
}
330
2
100
AcDbEntity
  8
KIJUN
100
AcDbLine
 10
321.0204976135742
 20
532.6339740790161
 30
0.0
 11
319.9810026135742
 21
536.1671140790167
 31
0.0
  0
LINE
  5
D9BD
102
{ACAD_REACTORS
330
DCE5
102
}
330
2
100
AcDbEntity
  8
KIJUN
100
AcDbLine
 10
319.9810026135742
 20
536.1671140790167
 30
0.0
 11
319.9810026135742
 21
652.6201450790166
 31
0.0
  0
LINE
  5
D9BE
102
{ACAD_REACTORS
330
DCE5
102
}
330
2
100
AcDbEntity
  8
KIJUN
100
AcDbLine
 10
319.9810026135742
 20
652.6201450790166
 30
0.0
 11
321.0204976135742
 21
656.153158079017
 31
0.0
  0
LINE
  5
D9BF
102
{ACAD_REACTORS
330
DCE5
102
}
330
2
100
AcDbEntity
  8
KIJUN
100
AcDbLine
 10
321.0204976135742
 20
656.153158079017
 30
0.0
 11
323.7459176135735
 21
658.6729650790166
 31
0.0
  0
LINE
  5
D9C0
102
{ACAD_REACTORS
330
DCE5
102
}
330
2
100
AcDbEntity
  8
KIJUN
100
AcDbLine
 10
323.7459176135735
 20
658.6729650790166
 30
0.0
 11
327.5674746135733
 21
659.6341010790165
 31
0.0
  0
LINE
  5
D9C1
102
{ACAD_REACTORS
330
DCE5
102
}
330
2
100
AcDbEntity
  8
KIJUN
100
AcDbLine
 10
269.906455613574
 20
417.8261010790164
 30
0.0
 11
484.4279406135743
 21
417.8261010790164
 31
0.0
  0
LINE
  5
D9C2
102
{ACAD_REACTORS
330
DCE5
102
}
330
2
100
AcDbEntity
  8
KIJUN
100
AcDbLine
 10
484.4279406135743
 20
417.8261010790164
 30
0.0
 11
485.6139936135732
 21
417.5277780790164
 31
0.0
  0
LINE
  5
D9C3
102
{ACAD_REACTORS
330
DCE5
102
}
330
2
100
AcDbEntity
  8
KIJUN
100
AcDbLine
 10
485.6139936135732
 20
417.5277780790164
 30
0.0
 11
486.4598136135741
 21
416.745839079017
 31
0.0
  0
LINE
  5
D9C4
102
{ACAD_REACTORS
330
DCE5
102
}
330
2
100
AcDbEntity
  8
KIJUN
100
AcDbLine
 10
486.4598136135741
 20
416.745839079017
 30
0.0
 11
486.7825206135744
 21
415.6495750790163
 31
0.0
  0
LINE
  5
D9C5
102
{ACAD_REACTORS
330
DCE5
102
}
330
2
100
AcDbEntity
  8
KIJUN
100
AcDbLine
 10
486.7825206135744
 20
415.6495750790163
 30
0.0
 11
486.7825206135744
 21
415.5285440790165
 31
0.0
  0
LINE
  5
D9C6
102
{ACAD_REACTORS
330
DCE5
102
}
330
2
100
AcDbEntity
  8
KIJUN
100
AcDbLine
 10
486.7825206135744
 20
415.5285440790165
 30
0.0
 11
486.4598136135741
 21
414.4320260790164
 31
0.0
  0
LINE
  5
D9C7
102
{ACAD_REACTORS
330
DCE5
102
}
330
2
100
AcDbEntity
  8
KIJUN
100
AcDbLine
 10
486.4598136135741
 20
414.4320260790164
 30
0.0
 11
485.6139936135732
 21
413.6499600790164
 31
0.0
  0
LINE
  5
D9C8
102
{ACAD_REACTORS
330
DCE5
102
}
330
2
100
AcDbEntity
  8
KIJUN
100
AcDbLine
 10
485.6139936135732
 20
413.6499600790164
 30
0.0
 11
484.4279406135743
 21
413.3516370790165
 31
0.0
  0
LINE
  5
D9C9
102
{ACAD_REACTORS
330
DCE5
102
}
330
2
100
AcDbEntity
  8
KIJUN
100
AcDbLine
 10
484.4279406135743
 20
413.3516370790165
 30
0.0
 11
269.906455613574
 21
413.3516370790165
 31
0.0
  0
LINE
  5
D9CA
102
{ACAD_REACTORS
330
DCE5
102
}
330
2
100
AcDbEntity
  8
KIJUN
100
AcDbLine
 10
269.906455613574
 20
413.3516370790165
 30
0.0
 11
268.7205296135735
 21
413.6499600790164
 31
0.0
  0
LINE
  5
D9CB
102
{ACAD_REACTORS
330
DCE5
102
}
330
2
100
AcDbEntity
  8
KIJUN
100
AcDbLine
 10
268.7205296135735
 20
413.6499600790164
 30
0.0
 11
267.8747096135735
 21
414.4320260790164
 31
0.0
  0
LINE
  5
D9CC
102
{ACAD_REACTORS
330
DCE5
102
}
330
2
100
AcDbEntity
  8
KIJUN
100
AcDbLine
 10
267.8747096135735
 20
414.4320260790164
 30
0.0
 11
267.5520026135732
 21
415.5285440790165
 31
0.0
  0
LINE
  5
D9CD
102
{ACAD_REACTORS
330
DCE5
102
}
330
2
100
AcDbEntity
  8
KIJUN
100
AcDbLine
 10
267.5520026135732
 20
415.5285440790165
 30
0.0
 11
267.5520026135732
 21
415.6495750790163
 31
0.0
  0
LINE
  5
D9CE
102
{ACAD_REACTORS
330
DCE5
102
}
330
2
100
AcDbEntity
  8
KIJUN
100
AcDbLine
 10
267.5520026135732
 20
415.6495750790163
 30
0.0
 11
267.8747096135735
 21
416.745839079017
 31
0.0
  0
LINE
  5
D9CF
102
{ACAD_REACTORS
330
DCE5
102
}
330
2
100
AcDbEntity
  8
KIJUN
100
AcDbLine
 10
267.8747096135735
 20
416.745839079017
 30
0.0
 11
268.7205296135735
 21
417.5277780790164
 31
0.0
  0
LINE
  5
D9D0
102
{ACAD_REACTORS
330
DCE5
102
}
330
2
100
AcDbEntity
  8
KIJUN
100
AcDbLine
 10
268.7205296135735
 20
417.5277780790164
 30
0.0
 11
269.906455613574
 21
417.8261010790164
 31
0.0
  0
LINE
  5
D9D1
102
{ACAD_REACTORS
330
DCE5
102
}
330
2
100
AcDbEntity
  8
KIJUN
100
AcDbLine
 10
241.8082766135735
 20
412.3651010790164
 30
0.0
 11
506.8803336135734
 21
412.3651010790164
 31
0.0
  0
LINE
  5
D9D2
102
{ACAD_REACTORS
330
DCE5
102
}
330
2
100
AcDbEntity
  8
KIJUN
100
AcDbLine
 10
506.8803336135734
 20
412.3651010790164
 30
0.0
 11
506.8803336135734
 21
408.6160610790164
 31
0.0
  0
LINE
  5
D9D3
102
{ACAD_REACTORS
330
DCE5
102
}
330
2
100
AcDbEntity
  8
KIJUN
100
AcDbLine
 10
506.8803336135734
 20
408.6160610790164
 30
0.0
 11
241.8082766135735
 21
408.6160610790164
 31
0.0
  0
LINE
  5
D9D4
102
{ACAD_REACTORS
330
DCE5
102
}
330
2
100
AcDbEntity
  8
KIJUN
100
AcDbLine
 10
241.8082766135735
 20
408.6160610790164
 30
0.0
 11
241.8082766135735
 21
412.3651010790164
 31
0.0
  0
LINE
  5
D9D5
102
{ACAD_REACTORS
330
DCE5
102
}
330
2
100
AcDbEntity
  8
KIJUN
100
AcDbLine
 10
224.524264113574
 20
393.5691010790168
 30
0.0
 11
524.5242641135739
 21
393.5691010790169
 31
0.0
  0
LINE
  5
D9D7
102
{ACAD_REACTORS
330
DCE5
102
}
330
2
100
AcDbEntity
  8
KIJUN
100
AcDbLine
 10
524.5242641135741
 20
378.6951150790164
 30
0.0
 11
224.524264113574
 21
378.6951150790164
 31
0.0
  0
LINE
  5
D9D9
102
{ACAD_REACTORS
330
DCE5
102
}
330
2
100
AcDbEntity
  8
KIJUN
100
AcDbLine
 10
231.3978326135734
 20
400.9170670790163
 30
0.0
 11
240.1392426135744
 21
400.9170670790163
 31
0.0
  0
LINE
  5
D9DA
102
{ACAD_REACTORS
330
DCE5
102
}
330
2
100
AcDbEntity
  8
KIJUN
100
AcDbLine
 10
240.1392426135744
 20
400.9170670790163
 30
0.0
 11
248.8833196135733
 21
400.9170670790163
 31
0.0
  0
LINE
  5
D9DB
102
{ACAD_REACTORS
330
DCE5
102
}
330
2
100
AcDbEntity
  8
KIJUN
100
AcDbLine
 10
248.8833196135733
 20
400.9170670790163
 30
0.0
 11
257.6298096135742
 21
400.9170670790163
 31
0.0
  0
LINE
  5
D9DC
102
{ACAD_REACTORS
330
DCE5
102
}
330
2
100
AcDbEntity
  8
KIJUN
100
AcDbLine
 10
257.6298096135742
 20
400.9170670790163
 30
0.0
 11
266.3785856135746
 21
400.9170670790163
 31
0.0
  0
LINE
  5
D9DD
102
{ACAD_REACTORS
330
DCE5
102
}
330
2
100
AcDbEntity
  8
KIJUN
100
AcDbLine
 10
266.3785856135746
 20
400.9170670790163
 30
0.0
 11
275.1293936135735
 21
400.9170670790163
 31
0.0
  0
LINE
  5
D9DE
102
{ACAD_REACTORS
330
DCE5
102
}
330
2
100
AcDbEntity
  8
KIJUN
100
AcDbLine
 10
275.1293936135735
 20
400.9170670790163
 30
0.0
 11
283.8819796135735
 21
400.9170670790163
 31
0.0
  0
LINE
  5
D9DF
102
{ACAD_REACTORS
330
DCE5
102
}
330
2
100
AcDbEntity
  8
KIJUN
100
AcDbLine
 10
283.8819796135735
 20
400.9170670790163
 30
0.0
 11
292.1360896135734
 21
400.9170670790163
 31
0.0
  0
LINE
  5
D9E0
102
{ACAD_REACTORS
330
DCE5
102
}
330
2
100
AcDbEntity
  8
KIJUN
100
AcDbLine
 10
292.1360896135734
 20
400.9170670790163
 30
0.0
 11
287.3914696135744
 21
400.9170670790163
 31
0.0
  0
LINE
  5
D9E1
102
{ACAD_REACTORS
330
DCE5
102
}
330
2
100
AcDbEntity
  8
KIJUN
100
AcDbLine
 10
287.3914696135744
 20
400.9170670790163
 30
0.0
 11
295.6479926135744
 21
400.9170670790163
 31
0.0
  0
LINE
  5
D9E2
102
{ACAD_REACTORS
330
DCE5
102
}
330
2
100
AcDbEntity
  8
KIJUN
100
AcDbLine
 10
295.6479926135744
 20
400.9170670790163
 30
0.0
 11
304.4052776135745
 21
400.9170670790163
 31
0.0
  0
LINE
  5
D9E3
102
{ACAD_REACTORS
330
DCE5
102
}
330
2
100
AcDbEntity
  8
KIJUN
100
AcDbLine
 10
304.4052776135745
 20
400.9170670790163
 30
0.0
 11
313.1633246135743
 21
400.9170670790163
 31
0.0
  0
LINE
  5
D9E4
102
{ACAD_REACTORS
330
DCE5
102
}
330
2
100
AcDbEntity
  8
KIJUN
100
AcDbLine
 10
313.1633246135743
 20
400.9170670790163
 30
0.0
 11
321.9217526135744
 21
400.9170670790163
 31
0.0
  0
LINE
  5
D9E5
102
{ACAD_REACTORS
330
DCE5
102
}
330
2
100
AcDbEntity
  8
KIJUN
100
AcDbLine
 10
321.9217526135744
 20
400.9170670790163
 30
0.0
 11
330.6804346135737
 21
400.9170670790163
 31
0.0
  0
LINE
  5
D9E6
102
{ACAD_REACTORS
330
DCE5
102
}
330
2
100
AcDbEntity
  8
KIJUN
100
AcDbLine
 10
330.6804346135737
 20
400.9170670790163
 30
0.0
 11
339.4389896135745
 21
400.9170670790163
 31
0.0
  0
LINE
  5
D9E7
102
{ACAD_REACTORS
330
DCE5
102
}
330
2
100
AcDbEntity
  8
KIJUN
100
AcDbLine
 10
339.4389896135745
 20
400.9170670790163
 30
0.0
 11
348.1972906135743
 21
400.9170670790163
 31
0.0
  0
LINE
  5
D9E8
102
{ACAD_REACTORS
330
DCE5
102
}
330
2
100
AcDbEntity
  8
KIJUN
100
AcDbLine
 10
348.1972906135743
 20
400.9170670790163
 30
0.0
 11
356.9550836135745
 21
400.9170670790163
 31
0.0
  0
LINE
  5
D9E9
102
{ACAD_REACTORS
330
DCE5
102
}
330
2
100
AcDbEntity
  8
KIJUN
100
AcDbLine
 10
356.9550836135745
 20
400.9170670790163
 30
0.0
 11
365.7121146135746
 21
400.9170670790163
 31
0.0
  0
LINE
  5
D9EA
102
{ACAD_REACTORS
330
DCE5
102
}
330
2
100
AcDbEntity
  8
KIJUN
100
AcDbLine
 10
365.7121146135746
 20
400.9170670790163
 30
0.0
 11
374.4682566135734
 21
400.9170670790163
 31
0.0
  0
LINE
  5
D9EB
102
{ACAD_REACTORS
330
DCE5
102
}
330
2
100
AcDbEntity
  8
KIJUN
100
AcDbLine
 10
374.4682566135734
 20
400.9170670790163
 30
0.0
 11
374.4682566135734
 21
400.9170670790163
 31
0.0
  0
LINE
  5
D9EC
102
{ACAD_REACTORS
330
DCE5
102
}
330
2
100
AcDbEntity
  8
KIJUN
100
AcDbLine
 10
374.4682566135734
 20
400.9170670790163
 30
0.0
 11
383.2335426135737
 21
400.9170670790163
 31
0.0
  0
LINE
  5
D9ED
102
{ACAD_REACTORS
330
DCE5
102
}
330
2
100
AcDbEntity
  8
KIJUN
100
AcDbLine
 10
383.2335426135737
 20
400.9170670790163
 30
0.0
 11
391.9971776135744
 21
400.9170670790163
 31
0.0
  0
LINE
  5
D9EE
102
{ACAD_REACTORS
330
DCE5
102
}
330
2
100
AcDbEntity
  8
KIJUN
100
AcDbLine
 10
391.9971776135744
 20
400.9170670790163
 30
0.0
 11
400.7591616135746
 21
400.9170670790163
 31
0.0
  0
LINE
  5
D9EF
102
{ACAD_REACTORS
330
DCE5
102
}
330
2
100
AcDbEntity
  8
KIJUN
100
AcDbLine
 10
400.7591616135746
 20
400.9170670790163
 30
0.0
 11
409.5196216135746
 21
400.9170670790163
 31
0.0
  0
LINE
  5
D9F0
102
{ACAD_REACTORS
330
DCE5
102
}
330
2
100
AcDbEntity
  8
KIJUN
100
AcDbLine
 10
409.5196216135746
 20
400.9170670790163
 30
0.0
 11
418.2784306135745
 21
400.9170670790163
 31
0.0
  0
LINE
  5
D9F1
102
{ACAD_REACTORS
330
DCE5
102
}
330
2
100
AcDbEntity
  8
KIJUN
100
AcDbLine
 10
418.2784306135745
 20
400.9170670790163
 30
0.0
 11
427.0359696135733
 21
400.9170670790163
 31
0.0
  0
LINE
  5
D9F2
102
{ACAD_REACTORS
330
DCE5
102
}
330
2
100
AcDbEntity
  8
KIJUN
100
AcDbLine
 10
427.0359696135733
 20
400.9170670790163
 30
0.0
 11
435.7921116135734
 21
400.9170670790163
 31
0.0
  0
LINE
  5
D9F3
102
{ACAD_REACTORS
330
DCE5
102
}
330
2
100
AcDbEntity
  8
KIJUN
100
AcDbLine
 10
435.7921116135734
 20
400.9170670790163
 30
0.0
 11
444.5469836135743
 21
400.9170670790163
 31
0.0
  0
LINE
  5
D9F4
102
{ACAD_REACTORS
330
DCE5
102
}
330
2
100
AcDbEntity
  8
KIJUN
100
AcDbLine
 10
444.5469836135743
 20
400.9170670790163
 30
0.0
 11
453.3005856135746
 21
400.9170670790163
 31
0.0
  0
LINE
  5
D9F5
102
{ACAD_REACTORS
330
DCE5
102
}
330
2
100
AcDbEntity
  8
KIJUN
100
AcDbLine
 10
453.3005856135746
 20
400.9170670790163
 30
0.0
 11
462.0529176135737
 21
400.9170670790163
 31
0.0
  0
LINE
  5
D9F6
102
{ACAD_REACTORS
330
DCE5
102
}
330
2
100
AcDbEntity
  8
KIJUN
100
AcDbLine
 10
462.0529176135737
 20
400.9170670790163
 30
0.0
 11
456.8042336135736
 21
400.9170670790163
 31
0.0
  0
LINE
  5
D9F7
102
{ACAD_REACTORS
330
DCE5
102
}
330
2
100
AcDbEntity
  8
KIJUN
100
AcDbLine
 10
456.8042336135736
 20
400.9170670790163
 30
0.0
 11
465.5545336135733
 21
400.9170670790163
 31
0.0
  0
LINE
  5
D9F8
102
{ACAD_REACTORS
330
DCE5
102
}
330
2
100
AcDbEntity
  8
KIJUN
100
AcDbLine
 10
465.5545336135733
 20
400.9170670790163
 30
0.0
 11
474.3039446135744
 21
400.9170670790163
 31
0.0
  0
LINE
  5
D9F9
102
{ACAD_REACTORS
330
DCE5
102
}
330
2
100
AcDbEntity
  8
KIJUN
100
AcDbLine
 10
474.3039446135744
 20
400.9170670790163
 30
0.0
 11
483.0523396135736
 21
400.9170670790163
 31
0.0
  0
LINE
  5
D9FA
102
{ACAD_REACTORS
330
DCE5
102
}
330
2
100
AcDbEntity
  8
KIJUN
100
AcDbLine
 10
483.0523396135736
 20
400.9170670790163
 30
0.0
 11
491.7998456135733
 21
400.9170670790163
 31
0.0
  0
LINE
  5
D9FB
102
{ACAD_REACTORS
330
DCE5
102
}
330
2
100
AcDbEntity
  8
KIJUN
100
AcDbLine
 10
491.7998456135733
 20
400.9170670790163
 30
0.0
 11
500.5467166135736
 21
400.9170670790163
 31
0.0
  0
LINE
  5
D9FC
102
{ACAD_REACTORS
330
DCE5
102
}
330
2
100
AcDbEntity
  8
KIJUN
100
AcDbLine
 10
500.5467166135736
 20
400.9170670790163
 30
0.0
 11
509.2928256135742
 21
400.9170670790163
 31
0.0
  0
LINE
  5
D9FD
102
{ACAD_REACTORS
330
DCE5
102
}
330
2
100
AcDbEntity
  8
KIJUN
100
AcDbLine
 10
509.2928256135742
 20
400.9170670790163
 30
0.0
 11
518.0382996135736
 21
400.9170670790163
 31
0.0
  0
LINE
  5
D9FE
102
{ACAD_REACTORS
330
DCE5
102
}
330
2
100
AcDbEntity
  8
KIJUN
100
AcDbLine
 10
518.0382996135736
 20
400.9170670790163
 30
0.0
 11
517.9488916135733
 21
399.6397010790169
 31
0.0
  0
LINE
  5
D9FF
102
{ACAD_REACTORS
330
DCE5
102
}
330
2
100
AcDbEntity
  8
KIJUN
100
AcDbLine
 10
517.9488916135733
 20
399.6397010790169
 30
0.0
 11
518.1934936135735
 21
398.3943390790165
 31
0.0
  0
LINE
  5
DA00
102
{ACAD_REACTORS
330
DCE5
102
}
330
2
100
AcDbEntity
  8
KIJUN
100
AcDbLine
 10
518.1934936135735
 20
398.3943390790165
 30
0.0
 11
518.8367486135734
 21
397.2325430790168
 31
0.0
  0
LINE
  5
DA01
102
{ACAD_REACTORS
330
DCE5
102
}
330
2
100
AcDbEntity
  8
KIJUN
100
AcDbLine
 10
518.8367486135734
 20
397.2325430790168
 30
0.0
 11
520.1245286135745
 21
395.9315550790171
 31
0.0
  0
LINE
  5
DA02
102
{ACAD_REACTORS
330
DCE5
102
}
330
2
100
AcDbEntity
  8
KIJUN
100
AcDbLine
 10
520.1245286135745
 20
395.9315550790171
 30
0.0
 11
521.8182006135735
 21
394.7277220790164
 31
0.0
  0
LINE
  5
DA03
102
{ACAD_REACTORS
330
DCE5
102
}
330
2
100
AcDbEntity
  8
KIJUN
100
AcDbLine
 10
521.8182006135735
 20
394.7277220790164
 30
0.0
 11
523.8912216135736
 21
393.5495430790169
 31
0.0
  0
LINE
  5
DA04
102
{ACAD_REACTORS
330
DCE5
102
}
330
2
100
AcDbEntity
  8
KIJUN
100
AcDbLine
 10
523.8912216135736
 20
393.5495430790169
 30
0.0
 11
515.3335806135746
 21
393.5495430790169
 31
0.0
  0
LINE
  5
DA05
102
{ACAD_REACTORS
330
DCE5
102
}
330
2
100
AcDbEntity
  8
KIJUN
100
AcDbLine
 10
515.3335806135746
 20
393.5495430790169
 30
0.0
 11
506.7779716135746
 21
393.5495430790169
 31
0.0
  0
LINE
  5
DA06
102
{ACAD_REACTORS
330
DCE5
102
}
330
2
100
AcDbEntity
  8
KIJUN
100
AcDbLine
 10
506.7779716135746
 20
393.5495430790169
 30
0.0
 11
498.2241406135744
 21
393.5495430790169
 31
0.0
  0
LINE
  5
DA07
102
{ACAD_REACTORS
330
DCE5
102
}
330
2
100
AcDbEntity
  8
KIJUN
100
AcDbLine
 10
498.2241406135744
 20
393.5495430790169
 30
0.0
 11
489.6723416135746
 21
393.5495430790169
 31
0.0
  0
LINE
  5
DA08
102
{ACAD_REACTORS
330
DCE5
102
}
330
2
100
AcDbEntity
  8
KIJUN
100
AcDbLine
 10
489.6723416135746
 20
393.5495430790169
 30
0.0
 11
481.1220666135737
 21
393.5495430790169
 31
0.0
  0
LINE
  5
DA09
102
{ACAD_REACTORS
330
DCE5
102
}
330
2
100
AcDbEntity
  8
KIJUN
100
AcDbLine
 10
481.1220666135737
 20
393.5495430790169
 30
0.0
 11
472.5734426135736
 21
393.5495430790169
 31
0.0
  0
LINE
  5
DA0A
102
{ACAD_REACTORS
330
DCE5
102
}
330
2
100
AcDbEntity
  8
KIJUN
100
AcDbLine
 10
472.5734426135736
 20
393.5495430790169
 30
0.0
 11
464.0263426135743
 21
393.5495430790169
 31
0.0
  0
LINE
  5
DA0B
102
{ACAD_REACTORS
330
DCE5
102
}
330
2
100
AcDbEntity
  8
KIJUN
100
AcDbLine
 10
464.0263426135743
 20
393.5495430790169
 30
0.0
 11
455.4805126135733
 21
393.5495430790169
 31
0.0
  0
LINE
  5
DA0C
102
{ACAD_REACTORS
330
DCE5
102
}
330
2
100
AcDbEntity
  8
KIJUN
100
AcDbLine
 10
455.4805126135733
 20
393.5495430790169
 30
0.0
 11
460.9360796135742
 21
393.5495430790169
 31
0.0
  0
LINE
  5
DA0D
102
{ACAD_REACTORS
330
DCE5
102
}
330
2
100
AcDbEntity
  8
KIJUN
100
AcDbLine
 10
460.9360796135742
 20
393.5495430790169
 30
0.0
 11
452.3926626135744
 21
393.5495430790169
 31
0.0
  0
LINE
  5
DA0E
102
{ACAD_REACTORS
330
DCE5
102
}
330
2
100
AcDbEntity
  8
KIJUN
100
AcDbLine
 10
452.3926626135744
 20
393.5495430790169
 30
0.0
 11
443.8502616135734
 21
393.5495430790169
 31
0.0
  0
LINE
  5
DA0F
102
{ACAD_REACTORS
330
DCE5
102
}
330
2
100
AcDbEntity
  8
KIJUN
100
AcDbLine
 10
443.8502616135734
 20
393.5495430790169
 30
0.0
 11
435.3087496135735
 21
393.5495430790169
 31
0.0
  0
LINE
  5
DA10
102
{ACAD_REACTORS
330
DCE5
102
}
330
2
100
AcDbEntity
  8
KIJUN
100
AcDbLine
 10
435.3087496135735
 20
393.5495430790169
 30
0.0
 11
426.7681266135737
 21
393.5495430790169
 31
0.0
  0
LINE
  5
DA11
102
{ACAD_REACTORS
330
DCE5
102
}
330
2
100
AcDbEntity
  8
KIJUN
100
AcDbLine
 10
426.7681266135737
 20
393.5495430790169
 30
0.0
 11
418.2281386135746
 21
393.5495430790169
 31
0.0
  0
LINE
  5
DA12
102
{ACAD_REACTORS
330
DCE5
102
}
330
2
100
AcDbEntity
  8
KIJUN
100
AcDbLine
 10
418.2281386135746
 20
393.5495430790169
 30
0.0
 11
409.6886586135743
 21
393.5495430790169
 31
0.0
  0
LINE
  5
DA13
102
{ACAD_REACTORS
330
DCE5
102
}
330
2
100
AcDbEntity
  8
KIJUN
100
AcDbLine
 10
409.6886586135743
 20
393.5495430790169
 30
0.0
 11
401.1496866135734
 21
393.5495430790169
 31
0.0
  0
LINE
  5
DA14
102
{ACAD_REACTORS
330
DCE5
102
}
330
2
100
AcDbEntity
  8
KIJUN
100
AcDbLine
 10
401.1496866135734
 20
393.5495430790169
 30
0.0
 11
392.6110956135744
 21
393.5495430790169
 31
0.0
  0
LINE
  5
DA15
102
{ACAD_REACTORS
330
DCE5
102
}
330
2
100
AcDbEntity
  8
KIJUN
100
AcDbLine
 10
392.6110956135744
 20
393.5495430790169
 30
0.0
 11
384.0726316135733
 21
393.5495430790169
 31
0.0
  0
LINE
  5
DA16
102
{ACAD_REACTORS
330
DCE5
102
}
330
2
100
AcDbEntity
  8
KIJUN
100
AcDbLine
 10
384.0726316135733
 20
393.5495430790169
 30
0.0
 11
375.5342946135743
 21
393.5495430790169
 31
0.0
  0
LINE
  5
DA17
102
{ACAD_REACTORS
330
DCE5
102
}
330
2
100
AcDbEntity
  8
KIJUN
100
AcDbLine
 10
375.5342946135743
 20
393.5495430790169
 30
0.0
 11
375.5342946135743
 21
393.5495430790169
 31
0.0
  0
LINE
  5
DA18
102
{ACAD_REACTORS
330
DCE5
102
}
330
2
100
AcDbEntity
  8
KIJUN
100
AcDbLine
 10
375.5342946135743
 20
393.5495430790169
 30
0.0
 11
366.9908776135744
 21
393.5495430790169
 31
0.0
  0
LINE
  5
DA19
102
{ACAD_REACTORS
330
DCE5
102
}
330
2
100
AcDbEntity
  8
KIJUN
100
AcDbLine
 10
366.9908776135744
 20
393.5495430790169
 30
0.0
 11
358.4474606135736
 21
393.5495430790169
 31
0.0
  0
LINE
  5
DA1A
102
{ACAD_REACTORS
330
DCE5
102
}
330
2
100
AcDbEntity
  8
KIJUN
100
AcDbLine
 10
358.4474606135736
 20
393.5495430790169
 30
0.0
 11
349.9042976135734
 21
393.5495430790169
 31
0.0
  0
LINE
  5
DA1B
102
{ACAD_REACTORS
330
DCE5
102
}
330
2
100
AcDbEntity
  8
KIJUN
100
AcDbLine
 10
349.9042976135734
 20
393.5495430790169
 30
0.0
 11
341.3613886135745
 21
393.5495430790169
 31
0.0
  0
LINE
  5
DA1C
102
{ACAD_REACTORS
330
DCE5
102
}
330
2
100
AcDbEntity
  8
KIJUN
100
AcDbLine
 10
341.3613886135745
 20
393.5495430790169
 30
0.0
 11
332.8188606135745
 21
393.5495430790169
 31
0.0
  0
LINE
  5
DA1D
102
{ACAD_REACTORS
330
DCE5
102
}
330
2
100
AcDbEntity
  8
KIJUN
100
AcDbLine
 10
332.8188606135745
 20
393.5495430790169
 30
0.0
 11
324.2767136135744
 21
393.5495430790169
 31
0.0
  0
LINE
  5
DA1E
102
{ACAD_REACTORS
330
DCE5
102
}
330
2
100
AcDbEntity
  8
KIJUN
100
AcDbLine
 10
324.2767136135744
 20
393.5495430790169
 30
0.0
 11
315.7352016135738
 21
393.5495430790169
 31
0.0
  0
LINE
  5
DA1F
102
{ACAD_REACTORS
330
DCE5
102
}
330
2
100
AcDbEntity
  8
KIJUN
100
AcDbLine
 10
315.7352016135738
 20
393.5495430790169
 30
0.0
 11
307.1940706135734
 21
393.5495430790169
 31
0.0
  0
LINE
  5
DA20
102
{ACAD_REACTORS
330
DCE5
102
}
330
2
100
AcDbEntity
  8
KIJUN
100
AcDbLine
 10
307.1940706135734
 20
393.5495430790169
 30
0.0
 11
298.6538286135747
 21
393.5495430790169
 31
0.0
  0
LINE
  5
DA21
102
{ACAD_REACTORS
330
DCE5
102
}
330
2
100
AcDbEntity
  8
KIJUN
100
AcDbLine
 10
298.6538286135747
 20
393.5495430790169
 30
0.0
 11
290.6142216135736
 21
393.5495430790169
 31
0.0
  0
LINE
  5
DA22
102
{ACAD_REACTORS
330
DCE5
102
}
330
2
100
AcDbEntity
  8
KIJUN
100
AcDbLine
 10
290.6142216135736
 20
393.5495430790169
 30
0.0
 11
295.5755036135733
 21
393.5495430790169
 31
0.0
  0
LINE
  5
DA23
102
{ACAD_REACTORS
330
DCE5
102
}
330
2
100
AcDbEntity
  8
KIJUN
100
AcDbLine
 10
295.5755036135733
 20
393.5495430790169
 30
0.0
 11
287.5376746135744
 21
393.5495430790169
 31
0.0
  0
LINE
  5
DA24
102
{ACAD_REACTORS
330
DCE5
102
}
330
2
100
AcDbEntity
  8
KIJUN
100
AcDbLine
 10
287.5376746135744
 20
393.5495430790169
 30
0.0
 11
279.0008616135733
 21
393.5495430790169
 31
0.0
  0
LINE
  5
DA25
102
{ACAD_REACTORS
330
DCE5
102
}
330
2
100
AcDbEntity
  8
KIJUN
100
AcDbLine
 10
279.0008616135733
 20
393.5495430790169
 30
0.0
 11
270.4651916135745
 21
393.5495430790169
 31
0.0
  0
LINE
  5
DA26
102
{ACAD_REACTORS
330
DCE5
102
}
330
2
100
AcDbEntity
  8
KIJUN
100
AcDbLine
 10
270.4651916135745
 20
393.5495430790169
 30
0.0
 11
261.9307916135735
 21
393.5495430790169
 31
0.0
  0
LINE
  5
DA27
102
{ACAD_REACTORS
330
DCE5
102
}
330
2
100
AcDbEntity
  8
KIJUN
100
AcDbLine
 10
261.9307916135735
 20
393.5495430790169
 30
0.0
 11
253.3975346135735
 21
393.5495430790169
 31
0.0
  0
LINE
  5
DA28
102
{ACAD_REACTORS
330
DCE5
102
}
330
2
100
AcDbEntity
  8
KIJUN
100
AcDbLine
 10
253.3975346135735
 20
393.5495430790169
 30
0.0
 11
244.8656746135735
 21
393.5495430790169
 31
0.0
  0
LINE
  5
DA29
102
{ACAD_REACTORS
330
DCE5
102
}
330
2
100
AcDbEntity
  8
KIJUN
100
AcDbLine
 10
244.8656746135735
 20
393.5495430790169
 30
0.0
 11
236.3352116135734
 21
393.5495430790169
 31
0.0
  0
LINE
  5
DA2A
102
{ACAD_REACTORS
330
DCE5
102
}
330
2
100
AcDbEntity
  8
KIJUN
100
AcDbLine
 10
236.3352116135734
 20
393.5495430790169
 30
0.0
 11
227.8062726135736
 21
393.5495430790169
 31
0.0
  0
LINE
  5
DA2B
102
{ACAD_REACTORS
330
DCE5
102
}
330
2
100
AcDbEntity
  8
KIJUN
100
AcDbLine
 10
227.8062726135736
 20
393.5495430790169
 30
0.0
 11
227.8062726135736
 21
393.5495430790169
 31
0.0
  0
LINE
  5
DA2C
102
{ACAD_REACTORS
330
DCE5
102
}
330
2
100
AcDbEntity
  8
KIJUN
100
AcDbLine
 10
227.8062726135736
 20
393.5495430790169
 30
0.0
 11
228.9317466135735
 21
394.7439780790164
 31
0.0
  0
LINE
  5
DA2D
102
{ACAD_REACTORS
330
DCE5
102
}
330
2
100
AcDbEntity
  8
KIJUN
100
AcDbLine
 10
228.9317466135735
 20
394.7439780790164
 30
0.0
 11
229.8606246135737
 21
395.9641940790169
 31
0.0
  0
LINE
  5
DA2E
102
{ACAD_REACTORS
330
DCE5
102
}
330
2
100
AcDbEntity
  8
KIJUN
100
AcDbLine
 10
229.8606246135737
 20
395.9641940790169
 30
0.0
 11
230.5997646135734
 21
397.2325430790168
 31
0.0
  0
LINE
  5
DA2F
102
{ACAD_REACTORS
330
DCE5
102
}
330
2
100
AcDbEntity
  8
KIJUN
100
AcDbLine
 10
230.5997646135734
 20
397.2325430790168
 30
0.0
 11
231.0644576135747
 21
398.4227870790165
 31
0.0
  0
LINE
  5
DA30
102
{ACAD_REACTORS
330
DCE5
102
}
330
2
100
AcDbEntity
  8
KIJUN
100
AcDbLine
 10
231.0644576135747
 20
398.4227870790165
 30
0.0
 11
231.3197276135734
 21
399.6537980790162
 31
0.0
  0
LINE
  5
DA31
102
{ACAD_REACTORS
330
DCE5
102
}
330
2
100
AcDbEntity
  8
KIJUN
100
AcDbLine
 10
231.3197276135734
 20
399.6537980790162
 30
0.0
 11
231.3978326135734
 21
400.9170670790163
 31
0.0
  0
LINE
  5
DA32
102
{ACAD_REACTORS
330
DCE5
102
}
330
2
100
AcDbEntity
  8
KIJUN
100
AcDbLine
 10
241.3302486135735
 20
408.6356190790164
 30
0.0
 11
249.9920296135742
 21
408.6356190790164
 31
0.0
  0
LINE
  5
DA33
102
{ACAD_REACTORS
330
DCE5
102
}
330
2
100
AcDbEntity
  8
KIJUN
100
AcDbLine
 10
249.9920296135742
 20
408.6356190790164
 30
0.0
 11
258.6590176135737
 21
408.6356190790164
 31
0.0
  0
LINE
  5
DA34
102
{ACAD_REACTORS
330
DCE5
102
}
330
2
100
AcDbEntity
  8
KIJUN
100
AcDbLine
 10
258.6590176135737
 20
408.6356190790164
 30
0.0
 11
267.3307046135747
 21
408.6356190790164
 31
0.0
  0
LINE
  5
DA35
102
{ACAD_REACTORS
330
DCE5
102
}
330
2
100
AcDbEntity
  8
KIJUN
100
AcDbLine
 10
267.3307046135747
 20
408.6356190790164
 30
0.0
 11
276.0070906135734
 21
408.6356190790164
 31
0.0
  0
LINE
  5
DA36
102
{ACAD_REACTORS
330
DCE5
102
}
330
2
100
AcDbEntity
  8
KIJUN
100
AcDbLine
 10
276.0070906135734
 20
408.6356190790164
 30
0.0
 11
284.6875406135737
 21
408.6356190790164
 31
0.0
  0
LINE
  5
DA37
102
{ACAD_REACTORS
330
DCE5
102
}
330
2
100
AcDbEntity
  8
KIJUN
100
AcDbLine
 10
284.6875406135737
 20
408.6356190790164
 30
0.0
 11
292.8720546135746
 21
408.6356190790164
 31
0.0
  0
LINE
  5
DA38
102
{ACAD_REACTORS
330
DCE5
102
}
330
2
100
AcDbEntity
  8
KIJUN
100
AcDbLine
 10
292.8720546135746
 20
408.6356190790164
 30
0.0
 11
288.0599976135745
 21
408.6356190790164
 31
0.0
  0
LINE
  5
DA39
102
{ACAD_REACTORS
330
DCE5
102
}
330
2
100
AcDbEntity
  8
KIJUN
100
AcDbLine
 10
288.0599976135745
 20
408.6356190790164
 30
0.0
 11
296.2512426135745
 21
408.6356190790164
 31
0.0
  0
LINE
  5
DA3A
102
{ACAD_REACTORS
330
DCE5
102
}
330
2
100
AcDbEntity
  8
KIJUN
100
AcDbLine
 10
296.2512426135745
 20
408.6356190790164
 30
0.0
 11
304.9452816135745
 21
408.6356190790164
 31
0.0
  0
LINE
  5
DA3B
102
{ACAD_REACTORS
330
DCE5
102
}
330
2
100
AcDbEntity
  8
KIJUN
100
AcDbLine
 10
304.9452816135745
 20
408.6356190790164
 30
0.0
 11
313.6419876135737
 21
408.6356190790164
 31
0.0
  0
LINE
  5
DA3C
102
{ACAD_REACTORS
330
DCE5
102
}
330
2
100
AcDbEntity
  8
KIJUN
100
AcDbLine
 10
313.6419876135737
 20
408.6356190790164
 30
0.0
 11
322.3409796135734
 21
408.6356190790164
 31
0.0
  0
LINE
  5
DA3D
102
{ACAD_REACTORS
330
DCE5
102
}
330
2
100
AcDbEntity
  8
KIJUN
100
AcDbLine
 10
322.3409796135734
 20
408.6356190790164
 30
0.0
 11
331.0418766135744
 21
408.6356190790164
 31
0.0
  0
LINE
  5
DA3E
102
{ACAD_REACTORS
330
DCE5
102
}
330
2
100
AcDbEntity
  8
KIJUN
100
AcDbLine
 10
331.0418766135744
 20
408.6356190790164
 30
0.0
 11
339.7444246135747
 21
408.6356190790164
 31
0.0
  0
LINE
  5
DA3F
102
{ACAD_REACTORS
330
DCE5
102
}
330
2
100
AcDbEntity
  8
KIJUN
100
AcDbLine
 10
339.7444246135747
 20
408.6356190790164
 30
0.0
 11
348.4482426135746
 21
408.6356190790164
 31
0.0
  0
LINE
  5
DA40
102
{ACAD_REACTORS
330
DCE5
102
}
330
2
100
AcDbEntity
  8
KIJUN
100
AcDbLine
 10
348.4482426135746
 20
408.6356190790164
 30
0.0
 11
357.1530766135734
 21
408.6356190790164
 31
0.0
  0
LINE
  5
DA41
102
{ACAD_REACTORS
330
DCE5
102
}
330
2
100
AcDbEntity
  8
KIJUN
100
AcDbLine
 10
357.1530766135734
 20
408.6356190790164
 30
0.0
 11
365.8585456135734
 21
408.6356190790164
 31
0.0
  0
LINE
  5
DA42
102
{ACAD_REACTORS
330
DCE5
102
}
330
2
100
AcDbEntity
  8
KIJUN
100
AcDbLine
 10
365.8585456135734
 20
408.6356190790164
 30
0.0
 11
374.5642686135743
 21
408.6356190790164
 31
0.0
  0
LINE
  5
DA43
102
{ACAD_REACTORS
330
DCE5
102
}
330
2
100
AcDbEntity
  8
KIJUN
100
AcDbLine
 10
374.5642686135743
 20
408.6356190790164
 30
0.0
 11
383.2216046135745
 21
408.6356190790164
 31
0.0
  0
LINE
  5
DA44
102
{ACAD_REACTORS
330
DCE5
102
}
330
2
100
AcDbEntity
  8
KIJUN
100
AcDbLine
 10
383.2216046135745
 20
408.6356190790164
 30
0.0
 11
391.8757656135736
 21
408.6356190790164
 31
0.0
  0
LINE
  5
DA45
102
{ACAD_REACTORS
330
DCE5
102
}
330
2
100
AcDbEntity
  8
KIJUN
100
AcDbLine
 10
391.8757656135736
 20
408.6356190790164
 30
0.0
 11
400.5273866135735
 21
408.6356190790164
 31
0.0
  0
LINE
  5
DA46
102
{ACAD_REACTORS
330
DCE5
102
}
330
2
100
AcDbEntity
  8
KIJUN
100
AcDbLine
 10
400.5273866135735
 20
408.6356190790164
 30
0.0
 11
409.1771026135734
 21
408.6356190790164
 31
0.0
  0
LINE
  5
DA47
102
{ACAD_REACTORS
330
DCE5
102
}
330
2
100
AcDbEntity
  8
KIJUN
100
AcDbLine
 10
409.1771026135734
 20
408.6356190790164
 30
0.0
 11
417.8254216135742
 21
408.6356190790164
 31
0.0
  0
LINE
  5
DA48
102
{ACAD_REACTORS
330
DCE5
102
}
330
2
100
AcDbEntity
  8
KIJUN
100
AcDbLine
 10
417.8254216135742
 20
408.6356190790164
 30
0.0
 11
426.4729786135736
 21
408.6356190790164
 31
0.0
  0
LINE
  5
DA49
102
{ACAD_REACTORS
330
DCE5
102
}
330
2
100
AcDbEntity
  8
KIJUN
100
AcDbLine
 10
426.4729786135736
 20
408.6356190790164
 30
0.0
 11
435.1202816135746
 21
408.6356190790164
 31
0.0
  0
LINE
  5
DA4A
102
{ACAD_REACTORS
330
DCE5
102
}
330
2
100
AcDbEntity
  8
KIJUN
100
AcDbLine
 10
435.1202816135746
 20
408.6356190790164
 30
0.0
 11
443.7678386135735
 21
408.6356190790164
 31
0.0
  0
LINE
  5
DA4B
102
{ACAD_REACTORS
330
DCE5
102
}
330
2
100
AcDbEntity
  8
KIJUN
100
AcDbLine
 10
443.7678386135735
 20
408.6356190790164
 30
0.0
 11
452.4164116135743
 21
408.6356190790164
 31
0.0
  0
LINE
  5
DA4C
102
{ACAD_REACTORS
330
DCE5
102
}
330
2
100
AcDbEntity
  8
KIJUN
100
AcDbLine
 10
452.4164116135743
 20
408.6356190790164
 30
0.0
 11
461.0665086135736
 21
408.6356190790164
 31
0.0
  0
LINE
  5
DA4D
102
{ACAD_REACTORS
330
DCE5
102
}
330
2
100
AcDbEntity
  8
KIJUN
100
AcDbLine
 10
461.0665086135736
 20
408.6356190790164
 30
0.0
 11
455.7187646135735
 21
408.6356190790164
 31
0.0
  0
LINE
  5
DA4E
102
{ACAD_REACTORS
330
DCE5
102
}
330
2
100
AcDbEntity
  8
KIJUN
100
AcDbLine
 10
455.7187646135735
 20
408.6356190790164
 30
0.0
 11
464.3735606135733
 21
408.6356190790164
 31
0.0
  0
LINE
  5
DA4F
102
{ACAD_REACTORS
330
DCE5
102
}
330
2
100
AcDbEntity
  8
KIJUN
100
AcDbLine
 10
464.3735606135733
 20
408.6356190790164
 30
0.0
 11
473.0317856135743
 21
408.6356190790164
 31
0.0
  0
LINE
  5
DA50
102
{ACAD_REACTORS
330
DCE5
102
}
330
2
100
AcDbEntity
  8
KIJUN
100
AcDbLine
 10
473.0317856135743
 20
408.6356190790164
 30
0.0
 11
481.6936936135744
 21
408.6356190790164
 31
0.0
  0
LINE
  5
DA51
102
{ACAD_REACTORS
330
DCE5
102
}
330
2
100
AcDbEntity
  8
KIJUN
100
AcDbLine
 10
481.6936936135744
 20
408.6356190790164
 30
0.0
 11
490.3600466135735
 21
408.6356190790164
 31
0.0
  0
LINE
  5
DA52
102
{ACAD_REACTORS
330
DCE5
102
}
330
2
100
AcDbEntity
  8
KIJUN
100
AcDbLine
 10
490.3600466135735
 20
408.6356190790164
 30
0.0
 11
499.0313526135737
 21
408.6356190790164
 31
0.0
  0
LINE
  5
DA53
102
{ACAD_REACTORS
330
DCE5
102
}
330
2
100
AcDbEntity
  8
KIJUN
100
AcDbLine
 10
499.0313526135737
 20
408.6356190790164
 30
0.0
 11
507.7082466135744
 21
408.6356190790164
 31
0.0
  0
LINE
  5
DA54
102
{ACAD_REACTORS
330
DCE5
102
}
330
2
100
AcDbEntity
  8
KIJUN
100
AcDbLine
 10
507.7082466135744
 20
408.6356190790164
 30
0.0
 11
509.9447166135737
 21
407.3737470790163
 31
0.0
  0
LINE
  5
DA55
102
{ACAD_REACTORS
330
DCE5
102
}
330
2
100
AcDbEntity
  8
KIJUN
100
AcDbLine
 10
509.9447166135737
 20
407.3737470790163
 30
0.0
 11
511.7926936135736
 21
406.1446410790167
 31
0.0
  0
LINE
  5
DA56
102
{ACAD_REACTORS
330
DCE5
102
}
330
2
100
AcDbEntity
  8
KIJUN
100
AcDbLine
 10
511.7926936135736
 20
406.1446410790167
 30
0.0
 11
513.1927416135736
 21
404.8930560790166
 31
0.0
  0
LINE
  5
DA57
102
{ACAD_REACTORS
330
DCE5
102
}
330
2
100
AcDbEntity
  8
KIJUN
100
AcDbLine
 10
513.1927416135736
 20
404.8930560790166
 30
0.0
 11
514.0487216135743
 21
403.6461700790168
 31
0.0
  0
LINE
  5
DA58
102
{ACAD_REACTORS
330
DCE5
102
}
330
2
100
AcDbEntity
  8
KIJUN
100
AcDbLine
 10
514.0487216135743
 20
403.6461700790168
 30
0.0
 11
514.4491526135744
 21
402.3864570790165
 31
0.0
  0
LINE
  5
DA59
102
{ACAD_REACTORS
330
DCE5
102
}
330
2
100
AcDbEntity
  8
KIJUN
100
AcDbLine
 10
514.4491526135744
 20
402.3864570790165
 30
0.0
 11
514.4678216135734
 21
401.1526520790165
 31
0.0
  0
LINE
  5
DA5A
102
{ACAD_REACTORS
330
DCE5
102
}
330
2
100
AcDbEntity
  8
KIJUN
100
AcDbLine
 10
514.4678216135734
 20
401.1526520790165
 30
0.0
 11
505.9209756135733
 21
401.1526520790165
 31
0.0
  0
LINE
  5
DA5B
102
{ACAD_REACTORS
330
DCE5
102
}
330
2
100
AcDbEntity
  8
KIJUN
100
AcDbLine
 10
505.9209756135733
 20
401.1526520790165
 30
0.0
 11
497.3784476135742
 21
401.1526520790165
 31
0.0
  0
LINE
  5
DA5C
102
{ACAD_REACTORS
330
DCE5
102
}
330
2
100
AcDbEntity
  8
KIJUN
100
AcDbLine
 10
497.3784476135742
 20
401.1526520790165
 30
0.0
 11
488.8396026135733
 21
401.1526520790165
 31
0.0
  0
LINE
  5
DA5D
102
{ACAD_REACTORS
330
DCE5
102
}
330
2
100
AcDbEntity
  8
KIJUN
100
AcDbLine
 10
488.8396026135733
 20
401.1526520790165
 30
0.0
 11
480.3041866135745
 21
401.1526520790165
 31
0.0
  0
LINE
  5
DA5E
102
{ACAD_REACTORS
330
DCE5
102
}
330
2
100
AcDbEntity
  8
KIJUN
100
AcDbLine
 10
480.3041866135745
 20
401.1526520790165
 30
0.0
 11
471.7719456135746
 21
401.1526520790165
 31
0.0
  0
LINE
  5
DA5F
102
{ACAD_REACTORS
330
DCE5
102
}
330
2
100
AcDbEntity
  8
KIJUN
100
AcDbLine
 10
471.7719456135746
 20
401.1526520790165
 30
0.0
 11
463.2422446135742
 21
401.1526520790165
 31
0.0
  0
LINE
  5
DA60
102
{ACAD_REACTORS
330
DCE5
102
}
330
2
100
AcDbEntity
  8
KIJUN
100
AcDbLine
 10
463.2422446135742
 20
401.1526520790165
 30
0.0
 11
454.7148296135733
 21
401.1526520790165
 31
0.0
  0
LINE
  5
DA61
102
{ACAD_REACTORS
330
DCE5
102
}
330
2
100
AcDbEntity
  8
KIJUN
100
AcDbLine
 10
454.7148296135733
 20
401.1526520790165
 30
0.0
 11
460.1894466135745
 21
401.1526520790165
 31
0.0
  0
LINE
  5
DA62
102
{ACAD_REACTORS
330
DCE5
102
}
330
2
100
AcDbEntity
  8
KIJUN
100
AcDbLine
 10
460.1894466135745
 20
401.1526520790165
 30
0.0
 11
451.6654606135744
 21
401.1526520790165
 31
0.0
  0
LINE
  5
DA63
102
{ACAD_REACTORS
330
DCE5
102
}
330
2
100
AcDbEntity
  8
KIJUN
100
AcDbLine
 10
451.6654606135744
 20
401.1526520790165
 30
0.0
 11
443.1426176135746
 21
401.1526520790165
 31
0.0
  0
LINE
  5
DA64
102
{ACAD_REACTORS
330
DCE5
102
}
330
2
100
AcDbEntity
  8
KIJUN
100
AcDbLine
 10
443.1426176135746
 20
401.1526520790165
 30
0.0
 11
434.6206636135734
 21
401.1526520790165
 31
0.0
  0
LINE
  5
DA65
102
{ACAD_REACTORS
330
DCE5
102
}
330
2
100
AcDbEntity
  8
KIJUN
100
AcDbLine
 10
434.6206636135734
 20
401.1526520790165
 30
0.0
 11
426.0989636135746
 21
401.1526520790165
 31
0.0
  0
LINE
  5
DA66
102
{ACAD_REACTORS
330
DCE5
102
}
330
2
100
AcDbEntity
  8
KIJUN
100
AcDbLine
 10
426.0989636135746
 20
401.1526520790165
 30
0.0
 11
417.5772636135743
 21
401.1526520790165
 31
0.0
  0
LINE
  5
DA67
102
{ACAD_REACTORS
330
DCE5
102
}
330
2
100
AcDbEntity
  8
KIJUN
100
AcDbLine
 10
417.5772636135743
 20
401.1526520790165
 30
0.0
 11
409.0553096135745
 21
401.1526520790165
 31
0.0
  0
LINE
  5
DA68
102
{ACAD_REACTORS
330
DCE5
102
}
330
2
100
AcDbEntity
  8
KIJUN
100
AcDbLine
 10
409.0553096135745
 20
401.1526520790165
 30
0.0
 11
400.5324666135734
 21
401.1526520790165
 31
0.0
  0
LINE
  5
DA69
102
{ACAD_REACTORS
330
DCE5
102
}
330
2
100
AcDbEntity
  8
KIJUN
100
AcDbLine
 10
400.5324666135734
 20
401.1526520790165
 30
0.0
 11
392.0086076135735
 21
401.1526520790165
 31
0.0
  0
LINE
  5
DA6A
102
{ACAD_REACTORS
330
DCE5
102
}
330
2
100
AcDbEntity
  8
KIJUN
100
AcDbLine
 10
392.0086076135735
 20
401.1526520790165
 30
0.0
 11
383.4830976135745
 21
401.1526520790165
 31
0.0
  0
LINE
  5
DA6B
102
{ACAD_REACTORS
330
DCE5
102
}
330
2
100
AcDbEntity
  8
KIJUN
100
AcDbLine
 10
383.4830976135745
 20
401.1526520790165
 30
0.0
 11
374.9558096135733
 21
401.1526520790165
 31
0.0
  0
LINE
  5
DA6C
102
{ACAD_REACTORS
330
DCE5
102
}
330
2
100
AcDbEntity
  8
KIJUN
100
AcDbLine
 10
374.9558096135733
 20
401.1526520790165
 30
0.0
 11
374.9558096135733
 21
401.1526520790165
 31
0.0
  0
LINE
  5
DA6D
102
{ACAD_REACTORS
330
DCE5
102
}
330
2
100
AcDbEntity
  8
KIJUN
100
AcDbLine
 10
374.9558096135733
 20
401.1526520790165
 30
0.0
 11
366.3756896135747
 21
401.1526520790165
 31
0.0
  0
LINE
  5
DA6E
102
{ACAD_REACTORS
330
DCE5
102
}
330
2
100
AcDbEntity
  8
KIJUN
100
AcDbLine
 10
366.3756896135747
 20
401.1526520790165
 30
0.0
 11
357.7951886135743
 21
401.1526520790165
 31
0.0
  0
LINE
  5
DA6F
102
{ACAD_REACTORS
330
DCE5
102
}
330
2
100
AcDbEntity
  8
KIJUN
100
AcDbLine
 10
357.7951886135743
 20
401.1526520790165
 30
0.0
 11
349.2144336135734
 21
401.1526520790165
 31
0.0
  0
LINE
  5
DA70
102
{ACAD_REACTORS
330
DCE5
102
}
330
2
100
AcDbEntity
  8
KIJUN
100
AcDbLine
 10
349.2144336135734
 20
401.1526520790165
 30
0.0
 11
340.6335516135737
 21
401.1526520790165
 31
0.0
  0
LINE
  5
DA71
102
{ACAD_REACTORS
330
DCE5
102
}
330
2
100
AcDbEntity
  8
KIJUN
100
AcDbLine
 10
340.6335516135737
 20
401.1526520790165
 30
0.0
 11
332.0527966135737
 21
401.1526520790165
 31
0.0
  0
LINE
  5
DA72
102
{ACAD_REACTORS
330
DCE5
102
}
330
2
100
AcDbEntity
  8
KIJUN
100
AcDbLine
 10
332.0527966135737
 20
401.1526520790165
 30
0.0
 11
323.4722956135734
 21
401.1526520790165
 31
0.0
  0
LINE
  5
DA73
102
{ACAD_REACTORS
330
DCE5
102
}
330
2
100
AcDbEntity
  8
KIJUN
100
AcDbLine
 10
323.4722956135734
 20
401.1526520790165
 30
0.0
 11
314.8921756135737
 21
401.1526520790165
 31
0.0
  0
LINE
  5
DA74
102
{ACAD_REACTORS
330
DCE5
102
}
330
2
100
AcDbEntity
  8
KIJUN
100
AcDbLine
 10
314.8921756135737
 20
401.1526520790165
 30
0.0
 11
306.3125636135747
 21
401.1526520790165
 31
0.0
  0
LINE
  5
DA75
102
{ACAD_REACTORS
330
DCE5
102
}
330
2
100
AcDbEntity
  8
KIJUN
100
AcDbLine
 10
306.3125636135747
 20
401.1526520790165
 30
0.0
 11
297.7335866135745
 21
401.1526520790165
 31
0.0
  0
LINE
  5
DA76
102
{ACAD_REACTORS
330
DCE5
102
}
330
2
100
AcDbEntity
  8
KIJUN
100
AcDbLine
 10
297.7335866135745
 20
401.1526520790165
 30
0.0
 11
289.6554986135734
 21
401.1526520790165
 31
0.0
  0
LINE
  5
DA77
102
{ACAD_REACTORS
330
DCE5
102
}
330
2
100
AcDbEntity
  8
KIJUN
100
AcDbLine
 10
289.6554986135734
 20
401.1526520790165
 30
0.0
 11
294.5784266135742
 21
401.1526520790165
 31
0.0
  0
LINE
  5
DA78
102
{ACAD_REACTORS
330
DCE5
102
}
330
2
100
AcDbEntity
  8
KIJUN
100
AcDbLine
 10
294.5784266135742
 20
401.1526520790165
 30
0.0
 11
286.5026246135735
 21
401.1526520790165
 31
0.0
  0
LINE
  5
DA79
102
{ACAD_REACTORS
330
DCE5
102
}
330
2
100
AcDbEntity
  8
KIJUN
100
AcDbLine
 10
286.5026246135735
 20
401.1526520790165
 30
0.0
 11
277.9280926135734
 21
401.1526520790165
 31
0.0
  0
LINE
  5
DA7A
102
{ACAD_REACTORS
330
DCE5
102
}
330
2
100
AcDbEntity
  8
KIJUN
100
AcDbLine
 10
277.9280926135734
 20
401.1526520790165
 30
0.0
 11
269.3549576135743
 21
401.1526520790165
 31
0.0
  0
LINE
  5
DA7B
102
{ACAD_REACTORS
330
DCE5
102
}
330
2
100
AcDbEntity
  8
KIJUN
100
AcDbLine
 10
269.3549576135743
 20
401.1526520790165
 30
0.0
 11
260.7836006135735
 21
401.1526520790165
 31
0.0
  0
LINE
  5
DA7C
102
{ACAD_REACTORS
330
DCE5
102
}
330
2
100
AcDbEntity
  8
KIJUN
100
AcDbLine
 10
260.7836006135735
 20
401.1526520790165
 30
0.0
 11
252.2138946135747
 21
401.1526520790165
 31
0.0
  0
LINE
  5
DA7D
102
{ACAD_REACTORS
330
DCE5
102
}
330
2
100
AcDbEntity
  8
KIJUN
100
AcDbLine
 10
252.2138946135747
 20
401.1526520790165
 30
0.0
 11
243.6463476135736
 21
401.1526520790165
 31
0.0
  0
LINE
  5
DA7E
102
{ACAD_REACTORS
330
DCE5
102
}
330
2
100
AcDbEntity
  8
KIJUN
100
AcDbLine
 10
243.6463476135736
 20
401.1526520790165
 30
0.0
 11
235.0808326135734
 21
401.1526520790165
 31
0.0
  0
LINE
  5
DA7F
102
{ACAD_REACTORS
330
DCE5
102
}
330
2
100
AcDbEntity
  8
KIJUN
100
AcDbLine
 10
235.0808326135734
 20
401.1526520790165
 30
0.0
 11
235.2894936135744
 21
402.3884890790165
 31
0.0
  0
LINE
  5
DA80
102
{ACAD_REACTORS
330
DCE5
102
}
330
2
100
AcDbEntity
  8
KIJUN
100
AcDbLine
 10
235.2894936135744
 20
402.3884890790165
 30
0.0
 11
235.7794596135745
 21
403.6502340790164
 31
0.0
  0
LINE
  5
DA81
102
{ACAD_REACTORS
330
DCE5
102
}
330
2
100
AcDbEntity
  8
KIJUN
100
AcDbLine
 10
235.7794596135745
 20
403.6502340790164
 30
0.0
 11
236.6108016135736
 21
404.8930560790166
 31
0.0
  0
LINE
  5
DA82
102
{ACAD_REACTORS
330
DCE5
102
}
330
2
100
AcDbEntity
  8
KIJUN
100
AcDbLine
 10
236.6108016135736
 20
404.8930560790166
 30
0.0
 11
237.8682286135745
 21
406.149467079017
 31
0.0
  0
LINE
  5
DA83
102
{ACAD_REACTORS
330
DCE5
102
}
330
2
100
AcDbEntity
  8
KIJUN
100
AcDbLine
 10
237.8682286135745
 20
406.149467079017
 30
0.0
 11
239.4521726135745
 21
407.3761600790165
 31
0.0
  0
LINE
  5
DA84
102
{ACAD_REACTORS
330
DCE5
102
}
330
2
100
AcDbEntity
  8
KIJUN
100
AcDbLine
 10
239.4521726135745
 20
407.3761600790165
 30
0.0
 11
241.3302486135735
 21
408.6356190790164
 31
0.0
  0
LINE
  5
DA85
102
{ACAD_REACTORS
330
DCE5
102
}
330
2
100
AcDbEntity
  8
KIJUN
100
AcDbLine
 10
217.8127696135744
 20
370.0560670790164
 30
0.0
 11
219.2518066135745
 21
369.0885810790168
 31
0.0
  0
LINE
  5
DA86
102
{ACAD_REACTORS
330
DCE5
102
}
330
2
100
AcDbEntity
  8
KIJUN
100
AcDbLine
 10
219.2518066135745
 20
369.0885810790168
 30
0.0
 11
220.1672226135733
 21
367.8791600790163
 31
0.0
  0
LINE
  5
DA87
102
{ACAD_REACTORS
330
DCE5
102
}
330
2
100
AcDbEntity
  8
KIJUN
100
AcDbLine
 10
220.1672226135733
 20
367.8791600790163
 30
0.0
 11
220.6903356135744
 21
366.1861230790165
 31
0.0
  0
LINE
  5
DA88
102
{ACAD_REACTORS
330
DCE5
102
}
330
2
100
AcDbEntity
  8
KIJUN
100
AcDbLine
 10
220.6903356135744
 20
366.1861230790165
 30
0.0
 11
220.5597796135735
 21
364.6141170790168
 31
0.0
  0
LINE
  5
DA89
102
{ACAD_REACTORS
330
DCE5
102
}
330
2
100
AcDbEntity
  8
KIJUN
100
AcDbLine
 10
220.5597796135735
 20
364.6141170790168
 30
0.0
 11
219.6442366135734
 21
363.0421110790166
 31
0.0
  0
LINE
  5
DA8A
102
{ACAD_REACTORS
330
DCE5
102
}
330
2
100
AcDbEntity
  8
KIJUN
100
AcDbLine
 10
219.6442366135734
 20
363.0421110790166
 30
0.0
 11
219.2518066135745
 21
362.074625079017
 31
0.0
  0
LINE
  5
DA8B
102
{ACAD_REACTORS
330
DCE5
102
}
330
2
100
AcDbEntity
  8
KIJUN
100
AcDbLine
 10
219.2518066135745
 20
362.074625079017
 30
0.0
 11
218.2053266135745
 21
361.4701050790162
 31
0.0
  0
LINE
  5
DA8C
102
{ACAD_REACTORS
330
DCE5
102
}
330
2
100
AcDbEntity
  8
KIJUN
100
AcDbLine
 10
218.2053266135745
 20
361.4701050790162
 30
0.0
 11
277.9797816135742
 21
361.3490740790165
 31
0.0
  0
LINE
  5
DA8D
102
{ACAD_REACTORS
330
DCE5
102
}
330
2
100
AcDbEntity
  8
KIJUN
100
AcDbLine
 10
277.9797816135742
 20
361.3490740790165
 30
0.0
 11
276.1488226135743
 21
362.3165600790171
 31
0.0
  0
LINE
  5
DA8E
102
{ACAD_REACTORS
330
DCE5
102
}
330
2
100
AcDbEntity
  8
KIJUN
100
AcDbLine
 10
276.1488226135743
 20
362.3165600790171
 30
0.0
 11
275.1022156135737
 21
363.8885660790165
 31
0.0
  0
LINE
  5
DA8F
102
{ACAD_REACTORS
330
DCE5
102
}
330
2
100
AcDbEntity
  8
KIJUN
100
AcDbLine
 10
275.1022156135737
 20
363.8885660790165
 30
0.0
 11
274.8407226135737
 21
365.8235380790165
 31
0.0
  0
LINE
  5
DA90
102
{ACAD_REACTORS
330
DCE5
102
}
330
2
100
AcDbEntity
  8
KIJUN
100
AcDbLine
 10
274.8407226135737
 20
365.8235380790165
 30
0.0
 11
275.1022156135737
 21
367.5165750790165
 31
0.0
  0
LINE
  5
DA91
102
{ACAD_REACTORS
330
DCE5
102
}
330
2
100
AcDbEntity
  8
KIJUN
100
AcDbLine
 10
275.1022156135737
 20
367.5165750790165
 30
0.0
 11
276.5407446135737
 21
368.4835530790169
 31
0.0
  0
LINE
  5
DA92
102
{ACAD_REACTORS
330
DCE5
102
}
330
2
100
AcDbEntity
  8
KIJUN
100
AcDbLine
 10
276.5407446135737
 20
368.4835530790169
 30
0.0
 11
277.9797816135742
 21
369.9351630790169
 31
0.0
  0
LINE
  5
DA93
102
{ACAD_REACTORS
330
DCE5
102
}
330
2
100
AcDbEntity
  8
KIJUN
100
AcDbLine
 10
277.9797816135742
 20
369.9351630790169
 30
0.0
 11
217.8127696135744
 21
370.0560670790164
 31
0.0
  0
LINE
  5
DA94
102
{ACAD_REACTORS
330
DCE5
102
}
330
2
100
AcDbEntity
  8
KIJUN
100
AcDbLine
 10
218.0592766135737
 20
361.3111010790171
 30
0.0
 11
218.7133266135743
 21
359.7390950790167
 31
0.0
  0
LINE
  5
DA95
102
{ACAD_REACTORS
330
DCE5
102
}
330
2
100
AcDbEntity
  8
KIJUN
100
AcDbLine
 10
218.7133266135743
 20
359.7390950790167
 30
0.0
 11
219.7598066135743
 21
358.2881200790171
 31
0.0
  0
LINE
  5
DA96
102
{ACAD_REACTORS
330
DCE5
102
}
330
2
100
AcDbEntity
  8
KIJUN
100
AcDbLine
 10
219.7598066135743
 20
358.2881200790171
 30
0.0
 11
221.0677796135737
 21
356.5950830790171
 31
0.0
  0
LINE
  5
DA97
102
{ACAD_REACTORS
330
DCE5
102
}
330
2
100
AcDbEntity
  8
KIJUN
100
AcDbLine
 10
221.0677796135737
 20
356.5950830790171
 30
0.0
 11
222.7678016135737
 21
355.0230770790167
 31
0.0
  0
LINE
  5
DA98
102
{ACAD_REACTORS
330
DCE5
102
}
330
2
100
AcDbEntity
  8
KIJUN
100
AcDbLine
 10
222.7678016135737
 20
355.0230770790167
 30
0.0
 11
225.1222546135736
 21
353.9345600790166
 31
0.0
  0
LINE
  5
DA99
102
{ACAD_REACTORS
330
DCE5
102
}
330
2
100
AcDbEntity
  8
KIJUN
100
AcDbLine
 10
225.1222546135736
 20
353.9345600790166
 30
0.0
 11
227.3457706135746
 21
353.2091360790164
 31
0.0
  0
LINE
  5
DA9A
102
{ACAD_REACTORS
330
DCE5
102
}
330
2
100
AcDbEntity
  8
KIJUN
100
AcDbLine
 10
227.3457706135746
 20
353.2091360790164
 30
0.0
 11
232.577789613574
 21
352.8460430790165
 31
0.0
  0
LINE
  5
DA9C
102
{ACAD_REACTORS
330
DCE5
102
}
330
2
100
AcDbEntity
  8
KIJUN
100
AcDbLine
 10
268.0237436135737
 20
352.8460430790165
 30
0.0
 11
270.5092606135745
 21
353.3300400790167
 31
0.0
  0
LINE
  5
DA9D
102
{ACAD_REACTORS
330
DCE5
102
}
330
2
100
AcDbEntity
  8
KIJUN
100
AcDbLine
 10
270.5092606135745
 20
353.3300400790167
 30
0.0
 11
273.1248256135736
 21
354.4180490790166
 31
0.0
  0
LINE
  5
DA9E
102
{ACAD_REACTORS
330
DCE5
102
}
330
2
100
AcDbEntity
  8
KIJUN
100
AcDbLine
 10
273.1248256135736
 20
354.4180490790166
 30
0.0
 11
275.2177856135736
 21
355.8696590790167
 31
0.0
  0
LINE
  5
DA9F
102
{ACAD_REACTORS
330
DCE5
102
}
330
2
100
AcDbEntity
  8
KIJUN
100
AcDbLine
 10
275.2177856135736
 20
355.8696590790167
 30
0.0
 11
277.0487446135735
 21
357.3206340790165
 31
0.0
  0
LINE
  5
DAA0
102
{ACAD_REACTORS
330
DCE5
102
}
330
2
100
AcDbEntity
  8
KIJUN
100
AcDbLine
 10
277.0487446135735
 20
357.3206340790165
 30
0.0
 11
277.8337316135735
 21
358.8926400790169
 31
0.0
  0
LINE
  5
DAA1
102
{ACAD_REACTORS
330
DCE5
102
}
330
2
100
AcDbEntity
  8
KIJUN
100
AcDbLine
 10
277.8337316135735
 20
358.8926400790169
 30
0.0
 11
278.4877816135745
 21
361.0690390790168
 31
0.0
  0
LINE
  5
DAA2
102
{ACAD_REACTORS
330
DCE5
102
}
330
2
100
AcDbEntity
  8
KIJUN
100
AcDbLine
 10
278.4877816135745
 20
361.0690390790168
 30
0.0
 11
218.0592766135737
 21
361.3111010790171
 31
0.0
  0
LINE
  5
DAA3
102
{ACAD_REACTORS
330
DCE5
102
}
330
2
100
AcDbEntity
  8
KIJUN
100
AcDbLine
 10
217.9322766135742
 20
369.6931010790168
 30
0.0
 11
218.5863266135734
 21
371.3546420790162
 31
0.0
  0
LINE
  5
DAA4
102
{ACAD_REACTORS
330
DCE5
102
}
330
2
100
AcDbEntity
  8
KIJUN
100
AcDbLine
 10
218.5863266135734
 20
371.3546420790162
 30
0.0
 11
219.6328066135734
 21
372.8885480790168
 31
0.0
  0
LINE
  5
DAA5
102
{ACAD_REACTORS
330
DCE5
102
}
330
2
100
AcDbEntity
  8
KIJUN
100
AcDbLine
 10
219.6328066135734
 20
372.8885480790168
 30
0.0
 11
220.9407796135733
 21
374.6781050790168
 31
0.0
  0
LINE
  5
DAA6
102
{ACAD_REACTORS
330
DCE5
102
}
330
2
100
AcDbEntity
  8
KIJUN
100
AcDbLine
 10
220.9407796135733
 20
374.6781050790168
 30
0.0
 11
222.6408016135733
 21
376.3396460790161
 31
0.0
  0
LINE
  5
DAA7
102
{ACAD_REACTORS
330
DCE5
102
}
330
2
100
AcDbEntity
  8
KIJUN
100
AcDbLine
 10
222.6408016135733
 20
376.3396460790161
 30
0.0
 11
224.9952546135746
 21
377.4901390790164
 31
0.0
  0
LINE
  5
DAA8
102
{ACAD_REACTORS
330
DCE5
102
}
330
2
100
AcDbEntity
  8
KIJUN
100
AcDbLine
 10
224.9952546135746
 20
377.4901390790164
 30
0.0
 11
227.2187706135746
 21
378.2570920790165
 31
0.0
  0
LINE
  5
DAA9
102
{ACAD_REACTORS
330
DCE5
102
}
330
2
100
AcDbEntity
  8
KIJUN
100
AcDbLine
 10
227.2187706135746
 20
378.2570920790165
 30
0.0
 11
232.4507896135747
 21
378.6406320790164
 31
0.0
  0
LINE
  5
DAAA
102
{ACAD_REACTORS
330
DCE5
102
}
330
2
100
AcDbEntity
  8
KIJUN
100
AcDbLine
 10
232.4507896135747
 20
378.6406320790164
 30
0.0
 11
267.8967436135745
 21
378.6406320790164
 31
0.0
  0
LINE
  5
DAAB
102
{ACAD_REACTORS
330
DCE5
102
}
330
2
100
AcDbEntity
  8
KIJUN
100
AcDbLine
 10
267.8967436135745
 20
378.6406320790164
 30
0.0
 11
270.3822606135745
 21
378.1290760790171
 31
0.0
  0
LINE
  5
DAAC
102
{ACAD_REACTORS
330
DCE5
102
}
330
2
100
AcDbEntity
  8
KIJUN
100
AcDbLine
 10
270.3822606135745
 20
378.1290760790171
 30
0.0
 11
272.9978256135746
 21
376.9785830790169
 31
0.0
  0
LINE
  5
DAAD
102
{ACAD_REACTORS
330
DCE5
102
}
330
2
100
AcDbEntity
  8
KIJUN
100
AcDbLine
 10
272.9978256135746
 20
376.9785830790169
 30
0.0
 11
275.0907856135746
 21
375.4450580790171
 31
0.0
  0
LINE
  5
DAAE
102
{ACAD_REACTORS
330
DCE5
102
}
330
2
100
AcDbEntity
  8
KIJUN
100
AcDbLine
 10
275.0907856135746
 20
375.4450580790171
 30
0.0
 11
276.9217446135745
 21
373.9111520790165
 31
0.0
  0
LINE
  5
DAAF
102
{ACAD_REACTORS
330
DCE5
102
}
330
2
100
AcDbEntity
  8
KIJUN
100
AcDbLine
 10
276.9217446135745
 20
373.9111520790165
 30
0.0
 11
277.7067316135744
 21
372.2496110790169
 31
0.0
  0
LINE
  5
DAB0
102
{ACAD_REACTORS
330
DCE5
102
}
330
2
100
AcDbEntity
  8
KIJUN
100
AcDbLine
 10
277.7067316135744
 20
372.2496110790169
 30
0.0
 11
278.3607816135746
 21
369.9486250790167
 31
0.0
  0
LINE
  5
DAB1
102
{ACAD_REACTORS
330
DCE5
102
}
330
2
100
AcDbEntity
  8
KIJUN
100
AcDbLine
 10
278.3607816135746
 20
369.9486250790167
 30
0.0
 11
217.9322766135742
 21
369.6931010790168
 31
0.0
  0
LINE
  5
DAB2
102
{ACAD_REACTORS
330
DCE5
102
}
330
2
100
AcDbEntity
  8
KIJUN
100
AcDbLine
 10
331.6025186135744
 20
636.0121010790162
 30
0.0
 11
332.7225316135732
 21
635.7592440790165
 31
0.0
  0
LINE
  5
DAB3
102
{ACAD_REACTORS
330
DCE5
102
}
330
2
100
AcDbEntity
  8
KIJUN
100
AcDbLine
 10
332.7225316135732
 20
635.7592440790165
 30
0.0
 11
333.5213616135734
 21
635.0961770790163
 31
0.0
  0
LINE
  5
DAB4
102
{ACAD_REACTORS
330
DCE5
102
}
330
2
100
AcDbEntity
  8
KIJUN
100
AcDbLine
 10
333.5213616135734
 20
635.0961770790163
 30
0.0
 11
333.8260346135744
 21
634.166664079016
 31
0.0
  0
LINE
  5
DAB5
102
{ACAD_REACTORS
330
DCE5
102
}
330
2
100
AcDbEntity
  8
KIJUN
100
AcDbLine
 10
333.8260346135744
 20
634.166664079016
 30
0.0
 11
333.8260346135744
 21
553.949654079017
 31
0.0
  0
LINE
  5
DAB6
102
{ACAD_REACTORS
330
DCE5
102
}
330
2
100
AcDbEntity
  8
KIJUN
100
AcDbLine
 10
333.8260346135744
 20
553.949654079017
 30
0.0
 11
333.5213616135734
 21
553.0201410790168
 31
0.0
  0
LINE
  5
DAB7
102
{ACAD_REACTORS
330
DCE5
102
}
330
2
100
AcDbEntity
  8
KIJUN
100
AcDbLine
 10
333.5213616135734
 20
553.0201410790168
 30
0.0
 11
332.7225316135732
 21
552.3573280790168
 31
0.0
  0
LINE
  5
DAB8
102
{ACAD_REACTORS
330
DCE5
102
}
330
2
100
AcDbEntity
  8
KIJUN
100
AcDbLine
 10
332.7225316135732
 20
552.3573280790168
 30
0.0
 11
331.6025186135744
 21
552.1045980790168
 31
0.0
  0
LINE
  5
DAB9
102
{ACAD_REACTORS
330
DCE5
102
}
330
2
100
AcDbEntity
  8
KIJUN
100
AcDbLine
 10
331.6025186135744
 20
552.1045980790168
 30
0.0
 11
330.4825056135733
 21
552.3573280790168
 31
0.0
  0
LINE
  5
DABA
102
{ACAD_REACTORS
330
DCE5
102
}
330
2
100
AcDbEntity
  8
KIJUN
100
AcDbLine
 10
330.4825056135733
 20
552.3573280790168
 30
0.0
 11
329.6836756135736
 21
553.0201410790168
 31
0.0
  0
LINE
  5
DABB
102
{ACAD_REACTORS
330
DCE5
102
}
330
2
100
AcDbEntity
  8
KIJUN
100
AcDbLine
 10
329.6836756135736
 20
553.0201410790168
 30
0.0
 11
329.3790026135744
 21
553.949654079017
 31
0.0
  0
LINE
  5
DABC
102
{ACAD_REACTORS
330
DCE5
102
}
330
2
100
AcDbEntity
  8
KIJUN
100
AcDbLine
 10
329.3790026135744
 20
553.949654079017
 30
0.0
 11
329.3790026135744
 21
634.166664079016
 31
0.0
  0
LINE
  5
DABD
102
{ACAD_REACTORS
330
DCE5
102
}
330
2
100
AcDbEntity
  8
KIJUN
100
AcDbLine
 10
329.3790026135744
 20
634.166664079016
 30
0.0
 11
329.6836756135736
 21
635.0961770790163
 31
0.0
  0
LINE
  5
DABE
102
{ACAD_REACTORS
330
DCE5
102
}
330
2
100
AcDbEntity
  8
KIJUN
100
AcDbLine
 10
329.6836756135736
 20
635.0961770790163
 30
0.0
 11
330.4825056135733
 21
635.7592440790165
 31
0.0
  0
LINE
  5
DABF
102
{ACAD_REACTORS
330
DCE5
102
}
330
2
100
AcDbEntity
  8
KIJUN
100
AcDbLine
 10
330.4825056135733
 20
635.7592440790165
 30
0.0
 11
331.6025186135744
 21
636.0121010790162
 31
0.0
  0
LINE
  5
DAC0
102
{ACAD_REACTORS
330
DCE5
102
}
330
2
100
AcDbEntity
  8
KIJUN
100
AcDbLine
 10
329.9615516135732
 20
642.3621010790167
 30
0.0
 11
333.2310396135745
 21
642.3621010790167
 31
0.0
  0
LINE
  5
DAC1
102
{ACAD_REACTORS
330
DCE5
102
}
330
2
100
AcDbEntity
  8
KIJUN
100
AcDbLine
 10
333.2310396135745
 20
642.3621010790167
 30
0.0
 11
336.7231586135745
 21
641.5738120790165
 31
0.0
  0
LINE
  5
DAC2
102
{ACAD_REACTORS
330
DCE5
102
}
330
2
100
AcDbEntity
  8
KIJUN
100
AcDbLine
 10
336.7231586135745
 20
641.5738120790165
 30
0.0
 11
339.2136286135742
 21
639.5070140790167
 31
0.0
  0
LINE
  5
DAC3
102
{ACAD_REACTORS
330
DCE5
102
}
330
2
100
AcDbEntity
  8
KIJUN
100
AcDbLine
 10
339.2136286135742
 20
639.5070140790167
 30
0.0
 11
340.1634616135734
 21
636.6091280790169
 31
0.0
  0
LINE
  5
DAC4
102
{ACAD_REACTORS
330
DCE5
102
}
330
2
100
AcDbEntity
  8
KIJUN
100
AcDbLine
 10
340.1634616135734
 20
636.6091280790169
 30
0.0
 11
340.1634616135734
 21
551.6161560790169
 31
0.0
  0
LINE
  5
DAC5
102
{ACAD_REACTORS
330
DCE5
102
}
330
2
100
AcDbEntity
  8
KIJUN
100
AcDbLine
 10
340.1634616135734
 20
551.6161560790169
 30
0.0
 11
339.2136286135742
 21
548.7178890790164
 31
0.0
  0
LINE
  5
DAC6
102
{ACAD_REACTORS
330
DCE5
102
}
330
2
100
AcDbEntity
  8
KIJUN
100
AcDbLine
 10
339.2136286135742
 20
548.7178890790164
 30
0.0
 11
336.7231586135745
 21
546.6513450790159
 31
0.0
  0
LINE
  5
DAC7
102
{ACAD_REACTORS
330
DCE5
102
}
330
2
100
AcDbEntity
  8
KIJUN
100
AcDbLine
 10
336.7231586135745
 20
546.6513450790159
 30
0.0
 11
333.2310396135745
 21
545.8630560790169
 31
0.0
  0
LINE
  5
DAC8
102
{ACAD_REACTORS
330
DCE5
102
}
330
2
100
AcDbEntity
  8
KIJUN
100
AcDbLine
 10
333.2310396135745
 20
545.8630560790169
 30
0.0
 11
329.9615516135732
 21
545.8630560790169
 31
0.0
  0
LINE
  5
DAC9
102
{ACAD_REACTORS
330
DCE5
102
}
330
2
100
AcDbEntity
  8
KIJUN
100
AcDbLine
 10
329.9615516135732
 20
545.8630560790169
 30
0.0
 11
326.4693056135743
 21
546.6513450790159
 31
0.0
  0
LINE
  5
DACA
102
{ACAD_REACTORS
330
DCE5
102
}
330
2
100
AcDbEntity
  8
KIJUN
100
AcDbLine
 10
326.4693056135743
 20
546.6513450790159
 30
0.0
 11
323.9788356135732
 21
548.7178890790164
 31
0.0
  0
LINE
  5
DACB
102
{ACAD_REACTORS
330
DCE5
102
}
330
2
100
AcDbEntity
  8
KIJUN
100
AcDbLine
 10
323.9788356135732
 20
548.7178890790164
 30
0.0
 11
323.0290026135735
 21
551.6161560790169
 31
0.0
  0
LINE
  5
DACC
102
{ACAD_REACTORS
330
DCE5
102
}
330
2
100
AcDbEntity
  8
KIJUN
100
AcDbLine
 10
323.0290026135735
 20
551.6161560790169
 30
0.0
 11
323.0290026135735
 21
636.6091280790169
 31
0.0
  0
LINE
  5
DACD
102
{ACAD_REACTORS
330
DCE5
102
}
330
2
100
AcDbEntity
  8
KIJUN
100
AcDbLine
 10
323.0290026135735
 20
636.6091280790169
 30
0.0
 11
323.9788356135732
 21
639.5070140790167
 31
0.0
  0
LINE
  5
DACE
102
{ACAD_REACTORS
330
DCE5
102
}
330
2
100
AcDbEntity
  8
KIJUN
100
AcDbLine
 10
323.9788356135732
 20
639.5070140790167
 30
0.0
 11
326.4693056135743
 21
641.5738120790165
 31
0.0
  0
LINE
  5
DACF
102
{ACAD_REACTORS
330
DCE5
102
}
330
2
100
AcDbEntity
  8
KIJUN
100
AcDbLine
 10
326.4693056135743
 20
641.5738120790165
 30
0.0
 11
329.9615516135732
 21
642.3621010790167
 31
0.0
  0
LINE
  5
DAD0
102
{ACAD_REACTORS
330
DCE5
102
}
330
2
100
AcDbEntity
  8
KIJUN
100
AcDbLine
 10
470.6177696135746
 20
370.0560670790164
 30
0.0
 11
472.0568066135733
 21
369.0885810790168
 31
0.0
  0
LINE
  5
DAD1
102
{ACAD_REACTORS
330
DCE5
102
}
330
2
100
AcDbEntity
  8
KIJUN
100
AcDbLine
 10
472.0568066135733
 20
369.0885810790168
 30
0.0
 11
472.9722226135745
 21
367.8791600790163
 31
0.0
  0
LINE
  5
DAD2
102
{ACAD_REACTORS
330
DCE5
102
}
330
2
100
AcDbEntity
  8
KIJUN
100
AcDbLine
 10
472.9722226135745
 20
367.8791600790163
 30
0.0
 11
473.4953356135734
 21
366.1861230790165
 31
0.0
  0
LINE
  5
DAD3
102
{ACAD_REACTORS
330
DCE5
102
}
330
2
100
AcDbEntity
  8
KIJUN
100
AcDbLine
 10
473.4953356135734
 20
366.1861230790165
 30
0.0
 11
473.3647796135742
 21
364.6141170790168
 31
0.0
  0
LINE
  5
DAD4
102
{ACAD_REACTORS
330
DCE5
102
}
330
2
100
AcDbEntity
  8
KIJUN
100
AcDbLine
 10
473.3647796135742
 20
364.6141170790168
 30
0.0
 11
472.4492366135746
 21
363.0421110790166
 31
0.0
  0
LINE
  5
DAD5
102
{ACAD_REACTORS
330
DCE5
102
}
330
2
100
AcDbEntity
  8
KIJUN
100
AcDbLine
 10
472.4492366135746
 20
363.0421110790166
 30
0.0
 11
472.0568066135733
 21
362.074625079017
 31
0.0
  0
LINE
  5
DAD6
102
{ACAD_REACTORS
330
DCE5
102
}
330
2
100
AcDbEntity
  8
KIJUN
100
AcDbLine
 10
472.0568066135733
 20
362.074625079017
 30
0.0
 11
471.0103266135734
 21
361.4701050790162
 31
0.0
  0
LINE
  5
DAD7
102
{ACAD_REACTORS
330
DCE5
102
}
330
2
100
AcDbEntity
  8
KIJUN
100
AcDbLine
 10
471.0103266135734
 20
361.4701050790162
 30
0.0
 11
530.7847816135745
 21
361.3490740790165
 31
0.0
  0
LINE
  5
DAD8
102
{ACAD_REACTORS
330
DCE5
102
}
330
2
100
AcDbEntity
  8
KIJUN
100
AcDbLine
 10
530.7847816135745
 20
361.3490740790165
 30
0.0
 11
528.9538226135745
 21
362.3165600790171
 31
0.0
  0
LINE
  5
DAD9
102
{ACAD_REACTORS
330
DCE5
102
}
330
2
100
AcDbEntity
  8
KIJUN
100
AcDbLine
 10
528.9538226135745
 20
362.3165600790171
 30
0.0
 11
527.9072156135744
 21
363.8885660790165
 31
0.0
  0
LINE
  5
DADA
102
{ACAD_REACTORS
330
DCE5
102
}
330
2
100
AcDbEntity
  8
KIJUN
100
AcDbLine
 10
527.9072156135744
 20
363.8885660790165
 30
0.0
 11
527.6457226135744
 21
365.8235380790165
 31
0.0
  0
LINE
  5
DADB
102
{ACAD_REACTORS
330
DCE5
102
}
330
2
100
AcDbEntity
  8
KIJUN
100
AcDbLine
 10
527.6457226135744
 20
365.8235380790165
 30
0.0
 11
527.9072156135744
 21
367.5165750790165
 31
0.0
  0
LINE
  5
DADC
102
{ACAD_REACTORS
330
DCE5
102
}
330
2
100
AcDbEntity
  8
KIJUN
100
AcDbLine
 10
527.9072156135744
 20
367.5165750790165
 30
0.0
 11
529.3457446135744
 21
368.4835530790169
 31
0.0
  0
LINE
  5
DADD
102
{ACAD_REACTORS
330
DCE5
102
}
330
2
100
AcDbEntity
  8
KIJUN
100
AcDbLine
 10
529.3457446135744
 20
368.4835530790169
 30
0.0
 11
530.7847816135745
 21
369.9351630790169
 31
0.0
  0
LINE
  5
DADE
102
{ACAD_REACTORS
330
DCE5
102
}
330
2
100
AcDbEntity
  8
KIJUN
100
AcDbLine
 10
530.7847816135745
 20
369.9351630790169
 30
0.0
 11
470.6177696135746
 21
370.0560670790164
 31
0.0
  0
LINE
  5
DADF
102
{ACAD_REACTORS
330
DCE5
102
}
330
2
100
AcDbEntity
  8
KIJUN
100
AcDbLine
 10
470.8642766135745
 20
361.3111010790171
 30
0.0
 11
471.5183266135746
 21
359.7390950790167
 31
0.0
  0
LINE
  5
DAE0
102
{ACAD_REACTORS
330
DCE5
102
}
330
2
100
AcDbEntity
  8
KIJUN
100
AcDbLine
 10
471.5183266135746
 20
359.7390950790167
 30
0.0
 11
472.5648066135745
 21
358.2881200790171
 31
0.0
  0
LINE
  5
DAE1
102
{ACAD_REACTORS
330
DCE5
102
}
330
2
100
AcDbEntity
  8
KIJUN
100
AcDbLine
 10
472.5648066135745
 20
358.2881200790171
 30
0.0
 11
473.8727796135744
 21
356.5950830790171
 31
0.0
  0
LINE
  5
DAE2
102
{ACAD_REACTORS
330
DCE5
102
}
330
2
100
AcDbEntity
  8
KIJUN
100
AcDbLine
 10
473.8727796135744
 20
356.5950830790171
 30
0.0
 11
475.5728016135744
 21
355.0230770790167
 31
0.0
  0
LINE
  5
DAE3
102
{ACAD_REACTORS
330
DCE5
102
}
330
2
100
AcDbEntity
  8
KIJUN
100
AcDbLine
 10
475.5728016135744
 20
355.0230770790167
 30
0.0
 11
477.9272546135744
 21
353.9345600790166
 31
0.0
  0
LINE
  5
DAE4
102
{ACAD_REACTORS
330
DCE5
102
}
330
2
100
AcDbEntity
  8
KIJUN
100
AcDbLine
 10
477.9272546135744
 20
353.9345600790166
 30
0.0
 11
480.1507706135735
 21
353.2091360790164
 31
0.0
  0
LINE
  5
DAE5
102
{ACAD_REACTORS
330
DCE5
102
}
330
2
100
AcDbEntity
  8
KIJUN
100
AcDbLine
 10
480.1507706135735
 20
353.2091360790164
 30
0.0
 11
485.3827896135745
 21
352.8460430790165
 31
0.0
  0
LINE
  5
DAE7
102
{ACAD_REACTORS
330
DCE5
102
}
330
2
100
AcDbEntity
  8
KIJUN
100
AcDbLine
 10
520.8287436135742
 20
352.8460430790165
 30
0.0
 11
523.3142606135734
 21
353.3300400790167
 31
0.0
  0
LINE
  5
DAE8
102
{ACAD_REACTORS
330
DCE5
102
}
330
2
100
AcDbEntity
  8
KIJUN
100
AcDbLine
 10
523.3142606135734
 20
353.3300400790167
 30
0.0
 11
525.9298256135743
 21
354.4180490790166
 31
0.0
  0
LINE
  5
DAE9
102
{ACAD_REACTORS
330
DCE5
102
}
330
2
100
AcDbEntity
  8
KIJUN
100
AcDbLine
 10
525.9298256135743
 20
354.4180490790166
 30
0.0
 11
528.0227856135743
 21
355.8696590790167
 31
0.0
  0
LINE
  5
DAEA
102
{ACAD_REACTORS
330
DCE5
102
}
330
2
100
AcDbEntity
  8
KIJUN
100
AcDbLine
 10
528.0227856135743
 20
355.8696590790167
 30
0.0
 11
529.8537446135733
 21
357.3206340790165
 31
0.0
  0
LINE
  5
DAEB
102
{ACAD_REACTORS
330
DCE5
102
}
330
2
100
AcDbEntity
  8
KIJUN
100
AcDbLine
 10
529.8537446135733
 20
357.3206340790165
 30
0.0
 11
530.6387316135733
 21
358.8926400790169
 31
0.0
  0
LINE
  5
DAEC
102
{ACAD_REACTORS
330
DCE5
102
}
330
2
100
AcDbEntity
  8
KIJUN
100
AcDbLine
 10
530.6387316135733
 20
358.8926400790169
 30
0.0
 11
531.2927816135743
 21
361.0690390790168
 31
0.0
  0
LINE
  5
DAED
102
{ACAD_REACTORS
330
DCE5
102
}
330
2
100
AcDbEntity
  8
KIJUN
100
AcDbLine
 10
531.2927816135743
 20
361.0690390790168
 30
0.0
 11
470.8642766135745
 21
361.3111010790171
 31
0.0
  0
LINE
  5
DAEE
102
{ACAD_REACTORS
330
DCE5
102
}
330
2
100
AcDbEntity
  8
KIJUN
100
AcDbLine
 10
470.7372766135736
 20
369.6931010790168
 30
0.0
 11
471.3913266135746
 21
371.3546420790162
 31
0.0
  0
LINE
  5
DAEF
102
{ACAD_REACTORS
330
DCE5
102
}
330
2
100
AcDbEntity
  8
KIJUN
100
AcDbLine
 10
471.3913266135746
 20
371.3546420790162
 30
0.0
 11
472.4378066135736
 21
372.8885480790168
 31
0.0
  0
LINE
  5
DAF0
102
{ACAD_REACTORS
330
DCE5
102
}
330
2
100
AcDbEntity
  8
KIJUN
100
AcDbLine
 10
472.4378066135736
 20
372.8885480790168
 30
0.0
 11
473.7457796135736
 21
374.6781050790168
 31
0.0
  0
LINE
  5
DAF1
102
{ACAD_REACTORS
330
DCE5
102
}
330
2
100
AcDbEntity
  8
KIJUN
100
AcDbLine
 10
473.7457796135736
 20
374.6781050790168
 30
0.0
 11
475.4458016135735
 21
376.3396460790161
 31
0.0
  0
LINE
  5
DAF2
102
{ACAD_REACTORS
330
DCE5
102
}
330
2
100
AcDbEntity
  8
KIJUN
100
AcDbLine
 10
475.4458016135735
 20
376.3396460790161
 30
0.0
 11
477.8002546135735
 21
377.4901390790164
 31
0.0
  0
LINE
  5
DAF3
102
{ACAD_REACTORS
330
DCE5
102
}
330
2
100
AcDbEntity
  8
KIJUN
100
AcDbLine
 10
477.8002546135735
 20
377.4901390790164
 30
0.0
 11
480.0237706135735
 21
378.2570920790165
 31
0.0
  0
LINE
  5
DAF4
102
{ACAD_REACTORS
330
DCE5
102
}
330
2
100
AcDbEntity
  8
KIJUN
100
AcDbLine
 10
480.0237706135735
 20
378.2570920790165
 30
0.0
 11
485.2557896135736
 21
378.6406320790164
 31
0.0
  0
LINE
  5
DAF5
102
{ACAD_REACTORS
330
DCE5
102
}
330
2
100
AcDbEntity
  8
KIJUN
100
AcDbLine
 10
485.2557896135736
 20
378.6406320790164
 30
0.0
 11
520.7017436135734
 21
378.6406320790164
 31
0.0
  0
LINE
  5
DAF6
102
{ACAD_REACTORS
330
DCE5
102
}
330
2
100
AcDbEntity
  8
KIJUN
100
AcDbLine
 10
520.7017436135734
 20
378.6406320790164
 30
0.0
 11
523.1872606135734
 21
378.1290760790171
 31
0.0
  0
LINE
  5
DAF7
102
{ACAD_REACTORS
330
DCE5
102
}
330
2
100
AcDbEntity
  8
KIJUN
100
AcDbLine
 10
523.1872606135734
 20
378.1290760790171
 30
0.0
 11
525.8028256135735
 21
376.9785830790169
 31
0.0
  0
LINE
  5
DAF8
102
{ACAD_REACTORS
330
DCE5
102
}
330
2
100
AcDbEntity
  8
KIJUN
100
AcDbLine
 10
525.8028256135735
 20
376.9785830790169
 30
0.0
 11
527.8957856135734
 21
375.4450580790171
 31
0.0
  0
LINE
  5
DAF9
102
{ACAD_REACTORS
330
DCE5
102
}
330
2
100
AcDbEntity
  8
KIJUN
100
AcDbLine
 10
527.8957856135734
 20
375.4450580790171
 30
0.0
 11
529.7267446135733
 21
373.9111520790165
 31
0.0
  0
LINE
  5
DAFA
102
{ACAD_REACTORS
330
DCE5
102
}
330
2
100
AcDbEntity
  8
KIJUN
100
AcDbLine
 10
529.7267446135733
 20
373.9111520790165
 30
0.0
 11
530.5117316135733
 21
372.2496110790169
 31
0.0
  0
LINE
  5
DAFB
102
{ACAD_REACTORS
330
DCE5
102
}
330
2
100
AcDbEntity
  8
KIJUN
100
AcDbLine
 10
530.5117316135733
 20
372.2496110790169
 30
0.0
 11
531.1657816135734
 21
369.9486250790167
 31
0.0
  0
LINE
  5
DAFC
102
{ACAD_REACTORS
330
DCE5
102
}
330
2
100
AcDbEntity
  8
KIJUN
100
AcDbLine
 10
531.1657816135734
 20
369.9486250790167
 30
0.0
 11
470.7372766135736
 21
369.6931010790168
 31
0.0
  0
LINE
  5
DAFE
102
{ACAD_REACTORS
330
DCE5
102
}
330
2
100
AcDbEntity
  8
KIJUN
100
AcDbLine
 10
416.4385186135732
 20
635.5041010790166
 30
0.0
 11
417.5585316135743
 21
635.2512440790168
 31
0.0
  0
LINE
  5
DAFF
102
{ACAD_REACTORS
330
DCE5
102
}
330
2
100
AcDbEntity
  8
KIJUN
100
AcDbLine
 10
417.5585316135743
 20
635.2512440790168
 30
0.0
 11
418.3573616135731
 21
634.5881770790165
 31
0.0
  0
LINE
  5
DB00
102
{ACAD_REACTORS
330
DCE5
102
}
330
2
100
AcDbEntity
  8
KIJUN
100
AcDbLine
 10
418.3573616135731
 20
634.5881770790165
 30
0.0
 11
418.6620346135732
 21
633.6586640790165
 31
0.0
  0
LINE
  5
DB01
102
{ACAD_REACTORS
330
DCE5
102
}
330
2
100
AcDbEntity
  8
KIJUN
100
AcDbLine
 10
418.6620346135732
 20
633.6586640790165
 30
0.0
 11
418.6620346135732
 21
553.441654079017
 31
0.0
  0
LINE
  5
DB02
102
{ACAD_REACTORS
330
DCE5
102
}
330
2
100
AcDbEntity
  8
KIJUN
100
AcDbLine
 10
418.6620346135732
 20
553.441654079017
 30
0.0
 11
418.3573616135731
 21
552.5121410790169
 31
0.0
  0
LINE
  5
DB03
102
{ACAD_REACTORS
330
DCE5
102
}
330
2
100
AcDbEntity
  8
KIJUN
100
AcDbLine
 10
418.3573616135731
 20
552.5121410790169
 30
0.0
 11
417.5585316135743
 21
551.8493280790162
 31
0.0
  0
LINE
  5
DB04
102
{ACAD_REACTORS
330
DCE5
102
}
330
2
100
AcDbEntity
  8
KIJUN
100
AcDbLine
 10
417.5585316135743
 20
551.8493280790162
 30
0.0
 11
416.4385186135732
 21
551.5965980790169
 31
0.0
  0
LINE
  5
DB05
102
{ACAD_REACTORS
330
DCE5
102
}
330
2
100
AcDbEntity
  8
KIJUN
100
AcDbLine
 10
416.4385186135732
 20
551.5965980790169
 30
0.0
 11
415.3185056135734
 21
551.8493280790162
 31
0.0
  0
LINE
  5
DB06
102
{ACAD_REACTORS
330
DCE5
102
}
330
2
100
AcDbEntity
  8
KIJUN
100
AcDbLine
 10
415.3185056135734
 20
551.8493280790162
 30
0.0
 11
414.5196756135742
 21
552.5121410790169
 31
0.0
  0
LINE
  5
DB07
102
{ACAD_REACTORS
330
DCE5
102
}
330
2
100
AcDbEntity
  8
KIJUN
100
AcDbLine
 10
414.5196756135742
 20
552.5121410790169
 30
0.0
 11
414.2150026135732
 21
553.441654079017
 31
0.0
  0
LINE
  5
DB08
102
{ACAD_REACTORS
330
DCE5
102
}
330
2
100
AcDbEntity
  8
KIJUN
100
AcDbLine
 10
414.2150026135732
 20
553.441654079017
 30
0.0
 11
414.2150026135732
 21
633.6586640790165
 31
0.0
  0
LINE
  5
DB09
102
{ACAD_REACTORS
330
DCE5
102
}
330
2
100
AcDbEntity
  8
KIJUN
100
AcDbLine
 10
414.2150026135732
 20
633.6586640790165
 30
0.0
 11
414.5196756135742
 21
634.5881770790165
 31
0.0
  0
LINE
  5
DB0A
102
{ACAD_REACTORS
330
DCE5
102
}
330
2
100
AcDbEntity
  8
KIJUN
100
AcDbLine
 10
414.5196756135742
 20
634.5881770790165
 30
0.0
 11
415.3185056135734
 21
635.2512440790168
 31
0.0
  0
LINE
  5
DB0B
102
{ACAD_REACTORS
330
DCE5
102
}
330
2
100
AcDbEntity
  8
KIJUN
100
AcDbLine
 10
415.3185056135734
 20
635.2512440790168
 30
0.0
 11
416.4385186135732
 21
635.5041010790166
 31
0.0
  0
LINE
  5
DB0C
102
{ACAD_REACTORS
330
DCE5
102
}
330
2
100
AcDbEntity
  8
KIJUN
100
AcDbLine
 10
387.2285186135732
 20
635.5041010790166
 30
0.0
 11
388.3485316135743
 21
635.2512440790168
 31
0.0
  0
LINE
  5
DB0D
102
{ACAD_REACTORS
330
DCE5
102
}
330
2
100
AcDbEntity
  8
KIJUN
100
AcDbLine
 10
388.3485316135743
 20
635.2512440790168
 30
0.0
 11
389.1473616135741
 21
634.5881770790165
 31
0.0
  0
LINE
  5
DB0E
102
{ACAD_REACTORS
330
DCE5
102
}
330
2
100
AcDbEntity
  8
KIJUN
100
AcDbLine
 10
389.1473616135741
 20
634.5881770790165
 30
0.0
 11
389.4520346135733
 21
633.6586640790165
 31
0.0
  0
LINE
  5
DB0F
102
{ACAD_REACTORS
330
DCE5
102
}
330
2
100
AcDbEntity
  8
KIJUN
100
AcDbLine
 10
389.4520346135733
 20
633.6586640790165
 30
0.0
 11
389.4520346135733
 21
553.441654079017
 31
0.0
  0
LINE
  5
DB10
102
{ACAD_REACTORS
330
DCE5
102
}
330
2
100
AcDbEntity
  8
KIJUN
100
AcDbLine
 10
389.4520346135733
 20
553.441654079017
 30
0.0
 11
389.1473616135741
 21
552.5121410790169
 31
0.0
  0
LINE
  5
DB11
102
{ACAD_REACTORS
330
DCE5
102
}
330
2
100
AcDbEntity
  8
KIJUN
100
AcDbLine
 10
389.1473616135741
 20
552.5121410790169
 30
0.0
 11
388.3485316135743
 21
551.8493280790162
 31
0.0
  0
LINE
  5
DB12
102
{ACAD_REACTORS
330
DCE5
102
}
330
2
100
AcDbEntity
  8
KIJUN
100
AcDbLine
 10
388.3485316135743
 20
551.8493280790162
 30
0.0
 11
387.2285186135732
 21
551.5965980790169
 31
0.0
  0
LINE
  5
DB13
102
{ACAD_REACTORS
330
DCE5
102
}
330
2
100
AcDbEntity
  8
KIJUN
100
AcDbLine
 10
387.2285186135732
 20
551.5965980790169
 30
0.0
 11
386.1085056135744
 21
551.8493280790162
 31
0.0
  0
LINE
  5
DB14
102
{ACAD_REACTORS
330
DCE5
102
}
330
2
100
AcDbEntity
  8
KIJUN
100
AcDbLine
 10
386.1085056135744
 20
551.8493280790162
 30
0.0
 11
385.3096756135742
 21
552.5121410790169
 31
0.0
  0
LINE
  5
DB15
102
{ACAD_REACTORS
330
DCE5
102
}
330
2
100
AcDbEntity
  8
KIJUN
100
AcDbLine
 10
385.3096756135742
 20
552.5121410790169
 30
0.0
 11
385.0050026135732
 21
553.441654079017
 31
0.0
  0
LINE
  5
DB16
102
{ACAD_REACTORS
330
DCE5
102
}
330
2
100
AcDbEntity
  8
KIJUN
100
AcDbLine
 10
385.0050026135732
 20
553.441654079017
 30
0.0
 11
385.0050026135732
 21
633.6586640790165
 31
0.0
  0
LINE
  5
DB17
102
{ACAD_REACTORS
330
DCE5
102
}
330
2
100
AcDbEntity
  8
KIJUN
100
AcDbLine
 10
385.0050026135732
 20
633.6586640790165
 30
0.0
 11
385.3096756135742
 21
634.5881770790165
 31
0.0
  0
LINE
  5
DB18
102
{ACAD_REACTORS
330
DCE5
102
}
330
2
100
AcDbEntity
  8
KIJUN
100
AcDbLine
 10
385.3096756135742
 20
634.5881770790165
 30
0.0
 11
386.1085056135744
 21
635.2512440790168
 31
0.0
  0
LINE
  5
DB19
102
{ACAD_REACTORS
330
DCE5
102
}
330
2
100
AcDbEntity
  8
KIJUN
100
AcDbLine
 10
386.1085056135744
 20
635.2512440790168
 30
0.0
 11
387.2285186135732
 21
635.5041010790166
 31
0.0
  0
LINE
  5
DB1A
102
{ACAD_REACTORS
330
DCE5
102
}
330
2
100
AcDbEntity
  8
KIJUN
100
AcDbLine
 10
385.5875516135734
 20
641.8541010790167
 30
0.0
 11
388.8570396135742
 21
641.8541010790167
 31
0.0
  0
LINE
  5
DB1B
102
{ACAD_REACTORS
330
DCE5
102
}
330
2
100
AcDbEntity
  8
KIJUN
100
AcDbLine
 10
388.8570396135742
 20
641.8541010790167
 30
0.0
 11
392.3491586135733
 21
641.0658120790166
 31
0.0
  0
LINE
  5
DB1C
102
{ACAD_REACTORS
330
DCE5
102
}
330
2
100
AcDbEntity
  8
KIJUN
100
AcDbLine
 10
392.3491586135733
 20
641.0658120790166
 30
0.0
 11
394.8396286135744
 21
638.9990140790169
 31
0.0
  0
LINE
  5
DB1D
102
{ACAD_REACTORS
330
DCE5
102
}
330
2
100
AcDbEntity
  8
KIJUN
100
AcDbLine
 10
394.8396286135744
 20
638.9990140790169
 30
0.0
 11
395.7894616135741
 21
636.1011280790162
 31
0.0
  0
LINE
  5
DB1E
102
{ACAD_REACTORS
330
DCE5
102
}
330
2
100
AcDbEntity
  8
KIJUN
100
AcDbLine
 10
395.7894616135741
 20
636.1011280790162
 30
0.0
 11
395.7894616135741
 21
551.108156079017
 31
0.0
  0
LINE
  5
DB1F
102
{ACAD_REACTORS
330
DCE5
102
}
330
2
100
AcDbEntity
  8
KIJUN
100
AcDbLine
 10
395.7894616135741
 20
551.108156079017
 30
0.0
 11
394.8396286135744
 21
548.2098890790163
 31
0.0
  0
LINE
  5
DB20
102
{ACAD_REACTORS
330
DCE5
102
}
330
2
100
AcDbEntity
  8
KIJUN
100
AcDbLine
 10
394.8396286135744
 20
548.2098890790163
 30
0.0
 11
392.3491586135733
 21
546.1433450790163
 31
0.0
  0
LINE
  5
DB21
102
{ACAD_REACTORS
330
DCE5
102
}
330
2
100
AcDbEntity
  8
KIJUN
100
AcDbLine
 10
392.3491586135733
 20
546.1433450790163
 30
0.0
 11
388.8570396135742
 21
545.355056079016
 31
0.0
  0
LINE
  5
DB22
102
{ACAD_REACTORS
330
DCE5
102
}
330
2
100
AcDbEntity
  8
KIJUN
100
AcDbLine
 10
388.8570396135742
 20
545.355056079016
 30
0.0
 11
385.5875516135734
 21
545.355056079016
 31
0.0
  0
LINE
  5
DB23
102
{ACAD_REACTORS
330
DCE5
102
}
330
2
100
AcDbEntity
  8
KIJUN
100
AcDbLine
 10
385.5875516135734
 20
545.355056079016
 30
0.0
 11
382.0953056135731
 21
546.1433450790163
 31
0.0
  0
LINE
  5
DB24
102
{ACAD_REACTORS
330
DCE5
102
}
330
2
100
AcDbEntity
  8
KIJUN
100
AcDbLine
 10
382.0953056135731
 20
546.1433450790163
 30
0.0
 11
379.6048356135734
 21
548.2098890790163
 31
0.0
  0
LINE
  5
DB25
102
{ACAD_REACTORS
330
DCE5
102
}
330
2
100
AcDbEntity
  8
KIJUN
100
AcDbLine
 10
379.6048356135734
 20
548.2098890790163
 30
0.0
 11
378.6550026135733
 21
551.108156079017
 31
0.0
  0
LINE
  5
DB26
102
{ACAD_REACTORS
330
DCE5
102
}
330
2
100
AcDbEntity
  8
KIJUN
100
AcDbLine
 10
378.6550026135733
 20
551.108156079017
 30
0.0
 11
378.6550026135733
 21
636.1011280790162
 31
0.0
  0
LINE
  5
DB27
102
{ACAD_REACTORS
330
DCE5
102
}
330
2
100
AcDbEntity
  8
KIJUN
100
AcDbLine
 10
378.6550026135733
 20
636.1011280790162
 30
0.0
 11
379.6048356135734
 21
638.9990140790169
 31
0.0
  0
LINE
  5
DB28
102
{ACAD_REACTORS
330
DCE5
102
}
330
2
100
AcDbEntity
  8
KIJUN
100
AcDbLine
 10
379.6048356135734
 20
638.9990140790169
 30
0.0
 11
382.0953056135731
 21
641.0658120790166
 31
0.0
  0
LINE
  5
DB29
102
{ACAD_REACTORS
330
DCE5
102
}
330
2
100
AcDbEntity
  8
KIJUN
100
AcDbLine
 10
382.0953056135731
 20
641.0658120790166
 30
0.0
 11
385.5875516135734
 21
641.8541010790167
 31
0.0
  0
LINE
  5
DB2A
102
{ACAD_REACTORS
330
DCE5
102
}
330
2
100
AcDbEntity
  8
KIJUN
100
AcDbLine
 10
359.7965186135744
 20
635.5041010790166
 30
0.0
 11
360.9165316135732
 21
635.2512440790168
 31
0.0
  0
LINE
  5
DB2B
102
{ACAD_REACTORS
330
DCE5
102
}
330
2
100
AcDbEntity
  8
KIJUN
100
AcDbLine
 10
360.9165316135732
 20
635.2512440790168
 30
0.0
 11
361.7153616135742
 21
634.5881770790165
 31
0.0
  0
LINE
  5
DB2C
102
{ACAD_REACTORS
330
DCE5
102
}
330
2
100
AcDbEntity
  8
KIJUN
100
AcDbLine
 10
361.7153616135742
 20
634.5881770790165
 30
0.0
 11
362.0200346135734
 21
633.6586640790165
 31
0.0
  0
LINE
  5
DB2D
102
{ACAD_REACTORS
330
DCE5
102
}
330
2
100
AcDbEntity
  8
KIJUN
100
AcDbLine
 10
362.0200346135734
 20
633.6586640790165
 30
0.0
 11
362.0200346135734
 21
553.441654079017
 31
0.0
  0
LINE
  5
DB2E
102
{ACAD_REACTORS
330
DCE5
102
}
330
2
100
AcDbEntity
  8
KIJUN
100
AcDbLine
 10
362.0200346135734
 20
553.441654079017
 30
0.0
 11
361.7153616135742
 21
552.5121410790169
 31
0.0
  0
LINE
  5
DB2F
102
{ACAD_REACTORS
330
DCE5
102
}
330
2
100
AcDbEntity
  8
KIJUN
100
AcDbLine
 10
361.7153616135742
 20
552.5121410790169
 30
0.0
 11
360.9165316135732
 21
551.8493280790162
 31
0.0
  0
LINE
  5
DB30
102
{ACAD_REACTORS
330
DCE5
102
}
330
2
100
AcDbEntity
  8
KIJUN
100
AcDbLine
 10
360.9165316135732
 20
551.8493280790162
 30
0.0
 11
359.7965186135744
 21
551.5965980790169
 31
0.0
  0
LINE
  5
DB31
102
{ACAD_REACTORS
330
DCE5
102
}
330
2
100
AcDbEntity
  8
KIJUN
100
AcDbLine
 10
359.7965186135744
 20
551.5965980790169
 30
0.0
 11
358.6765056135742
 21
551.8493280790162
 31
0.0
  0
LINE
  5
DB32
102
{ACAD_REACTORS
330
DCE5
102
}
330
2
100
AcDbEntity
  8
KIJUN
100
AcDbLine
 10
358.6765056135742
 20
551.8493280790162
 30
0.0
 11
357.8776756135744
 21
552.5121410790169
 31
0.0
  0
LINE
  5
DB33
102
{ACAD_REACTORS
330
DCE5
102
}
330
2
100
AcDbEntity
  8
KIJUN
100
AcDbLine
 10
357.8776756135744
 20
552.5121410790169
 30
0.0
 11
357.5730026135734
 21
553.441654079017
 31
0.0
  0
LINE
  5
DB34
102
{ACAD_REACTORS
330
DCE5
102
}
330
2
100
AcDbEntity
  8
KIJUN
100
AcDbLine
 10
357.5730026135734
 20
553.441654079017
 30
0.0
 11
357.5730026135734
 21
633.6586640790165
 31
0.0
  0
LINE
  5
DB35
102
{ACAD_REACTORS
330
DCE5
102
}
330
2
100
AcDbEntity
  8
KIJUN
100
AcDbLine
 10
357.5730026135734
 20
633.6586640790165
 30
0.0
 11
357.8776756135744
 21
634.5881770790165
 31
0.0
  0
LINE
  5
DB36
102
{ACAD_REACTORS
330
DCE5
102
}
330
2
100
AcDbEntity
  8
KIJUN
100
AcDbLine
 10
357.8776756135744
 20
634.5881770790165
 30
0.0
 11
358.6765056135742
 21
635.2512440790168
 31
0.0
  0
LINE
  5
DB37
102
{ACAD_REACTORS
330
DCE5
102
}
330
2
100
AcDbEntity
  8
KIJUN
100
AcDbLine
 10
358.6765056135742
 20
635.2512440790168
 30
0.0
 11
359.7965186135744
 21
635.5041010790166
 31
0.0
  0
LINE
  5
DB38
102
{ACAD_REACTORS
330
DCE5
102
}
330
2
100
AcDbEntity
  8
KIJUN
100
AcDbLine
 10
358.0285516135732
 20
641.8541010790167
 30
0.0
 11
361.2980396135745
 21
641.8541010790167
 31
0.0
  0
LINE
  5
DB39
102
{ACAD_REACTORS
330
DCE5
102
}
330
2
100
AcDbEntity
  8
KIJUN
100
AcDbLine
 10
361.2980396135745
 20
641.8541010790167
 30
0.0
 11
364.7901586135745
 21
641.0658120790166
 31
0.0
  0
LINE
  5
DB3A
102
{ACAD_REACTORS
330
DCE5
102
}
330
2
100
AcDbEntity
  8
KIJUN
100
AcDbLine
 10
364.7901586135745
 20
641.0658120790166
 30
0.0
 11
367.2806286135742
 21
638.9990140790169
 31
0.0
  0
LINE
  5
DB3B
102
{ACAD_REACTORS
330
DCE5
102
}
330
2
100
AcDbEntity
  8
KIJUN
100
AcDbLine
 10
367.2806286135742
 20
638.9990140790169
 30
0.0
 11
368.2304616135744
 21
636.1011280790162
 31
0.0
  0
LINE
  5
DB3C
102
{ACAD_REACTORS
330
DCE5
102
}
330
2
100
AcDbEntity
  8
KIJUN
100
AcDbLine
 10
368.2304616135744
 20
636.1011280790162
 30
0.0
 11
368.2304616135744
 21
551.108156079017
 31
0.0
  0
LINE
  5
DB3D
102
{ACAD_REACTORS
330
DCE5
102
}
330
2
100
AcDbEntity
  8
KIJUN
100
AcDbLine
 10
368.2304616135744
 20
551.108156079017
 30
0.0
 11
367.2806286135742
 21
548.2098890790163
 31
0.0
  0
LINE
  5
DB3E
102
{ACAD_REACTORS
330
DCE5
102
}
330
2
100
AcDbEntity
  8
KIJUN
100
AcDbLine
 10
367.2806286135742
 20
548.2098890790163
 30
0.0
 11
364.7901586135745
 21
546.1433450790163
 31
0.0
  0
LINE
  5
DB3F
102
{ACAD_REACTORS
330
DCE5
102
}
330
2
100
AcDbEntity
  8
KIJUN
100
AcDbLine
 10
364.7901586135745
 20
546.1433450790163
 30
0.0
 11
361.2980396135745
 21
545.355056079016
 31
0.0
  0
LINE
  5
DB40
102
{ACAD_REACTORS
330
DCE5
102
}
330
2
100
AcDbEntity
  8
KIJUN
100
AcDbLine
 10
361.2980396135745
 20
545.355056079016
 30
0.0
 11
358.0285516135732
 21
545.355056079016
 31
0.0
  0
LINE
  5
DB41
102
{ACAD_REACTORS
330
DCE5
102
}
330
2
100
AcDbEntity
  8
KIJUN
100
AcDbLine
 10
358.0285516135732
 20
545.355056079016
 30
0.0
 11
354.5363056135743
 21
546.1433450790163
 31
0.0
  0
LINE
  5
DB42
102
{ACAD_REACTORS
330
DCE5
102
}
330
2
100
AcDbEntity
  8
KIJUN
100
AcDbLine
 10
354.5363056135743
 20
546.1433450790163
 30
0.0
 11
352.0458356135732
 21
548.2098890790163
 31
0.0
  0
LINE
  5
DB43
102
{ACAD_REACTORS
330
DCE5
102
}
330
2
100
AcDbEntity
  8
KIJUN
100
AcDbLine
 10
352.0458356135732
 20
548.2098890790163
 30
0.0
 11
351.0960026135736
 21
551.108156079017
 31
0.0
  0
LINE
  5
DB44
102
{ACAD_REACTORS
330
DCE5
102
}
330
2
100
AcDbEntity
  8
KIJUN
100
AcDbLine
 10
351.0960026135736
 20
551.108156079017
 30
0.0
 11
351.0960026135736
 21
636.1011280790162
 31
0.0
  0
LINE
  5
DB45
102
{ACAD_REACTORS
330
DCE5
102
}
330
2
100
AcDbEntity
  8
KIJUN
100
AcDbLine
 10
351.0960026135736
 20
636.1011280790162
 30
0.0
 11
352.0458356135732
 21
638.9990140790169
 31
0.0
  0
LINE
  5
DB46
102
{ACAD_REACTORS
330
DCE5
102
}
330
2
100
AcDbEntity
  8
KIJUN
100
AcDbLine
 10
352.0458356135732
 20
638.9990140790169
 30
0.0
 11
354.5363056135743
 21
641.0658120790166
 31
0.0
  0
LINE
  5
DB47
102
{ACAD_REACTORS
330
DCE5
102
}
330
2
100
AcDbEntity
  8
KIJUN
100
AcDbLine
 10
354.5363056135743
 20
641.0658120790166
 30
0.0
 11
358.0285516135732
 21
641.8541010790167
 31
0.0
  0
LINE
  5
DB48
102
{ACAD_REACTORS
330
DCE5
102
}
330
2
100
AcDbEntity
  8
KIJUN
100
AcDbLine
 10
414.6705516135734
 20
641.8541010790167
 30
0.0
 11
417.9400396135734
 21
641.8541010790167
 31
0.0
  0
LINE
  5
DB49
102
{ACAD_REACTORS
330
DCE5
102
}
330
2
100
AcDbEntity
  8
KIJUN
100
AcDbLine
 10
417.9400396135734
 20
641.8541010790167
 30
0.0
 11
421.4321586135743
 21
641.0658120790166
 31
0.0
  0
LINE
  5
DB4A
102
{ACAD_REACTORS
330
DCE5
102
}
330
2
100
AcDbEntity
  8
KIJUN
100
AcDbLine
 10
421.4321586135743
 20
641.0658120790166
 30
0.0
 11
423.9226286135744
 21
638.9990140790169
 31
0.0
  0
LINE
  5
DB4B
102
{ACAD_REACTORS
330
DCE5
102
}
330
2
100
AcDbEntity
  8
KIJUN
100
AcDbLine
 10
423.9226286135744
 20
638.9990140790169
 30
0.0
 11
424.8724616135732
 21
636.1011280790162
 31
0.0
  0
LINE
  5
DB4C
102
{ACAD_REACTORS
330
DCE5
102
}
330
2
100
AcDbEntity
  8
KIJUN
100
AcDbLine
 10
424.8724616135732
 20
636.1011280790162
 30
0.0
 11
424.8724616135732
 21
551.108156079017
 31
0.0
  0
LINE
  5
DB4D
102
{ACAD_REACTORS
330
DCE5
102
}
330
2
100
AcDbEntity
  8
KIJUN
100
AcDbLine
 10
424.8724616135732
 20
551.108156079017
 30
0.0
 11
423.9226286135744
 21
548.2098890790163
 31
0.0
  0
LINE
  5
DB4E
102
{ACAD_REACTORS
330
DCE5
102
}
330
2
100
AcDbEntity
  8
KIJUN
100
AcDbLine
 10
423.9226286135744
 20
548.2098890790163
 30
0.0
 11
421.4321586135743
 21
546.1433450790163
 31
0.0
  0
LINE
  5
DB4F
102
{ACAD_REACTORS
330
DCE5
102
}
330
2
100
AcDbEntity
  8
KIJUN
100
AcDbLine
 10
421.4321586135743
 20
546.1433450790163
 30
0.0
 11
417.9400396135734
 21
545.355056079016
 31
0.0
  0
LINE
  5
DB50
102
{ACAD_REACTORS
330
DCE5
102
}
330
2
100
AcDbEntity
  8
KIJUN
100
AcDbLine
 10
417.9400396135734
 20
545.355056079016
 30
0.0
 11
414.6705516135734
 21
545.355056079016
 31
0.0
  0
LINE
  5
DB51
102
{ACAD_REACTORS
330
DCE5
102
}
330
2
100
AcDbEntity
  8
KIJUN
100
AcDbLine
 10
414.6705516135734
 20
545.355056079016
 30
0.0
 11
411.1783056135732
 21
546.1433450790163
 31
0.0
  0
LINE
  5
DB52
102
{ACAD_REACTORS
330
DCE5
102
}
330
2
100
AcDbEntity
  8
KIJUN
100
AcDbLine
 10
411.1783056135732
 20
546.1433450790163
 30
0.0
 11
408.6878356135744
 21
548.2098890790163
 31
0.0
  0
LINE
  5
DB53
102
{ACAD_REACTORS
330
DCE5
102
}
330
2
100
AcDbEntity
  8
KIJUN
100
AcDbLine
 10
408.6878356135744
 20
548.2098890790163
 30
0.0
 11
407.7380026135733
 21
551.108156079017
 31
0.0
  0
LINE
  5
DB54
102
{ACAD_REACTORS
330
DCE5
102
}
330
2
100
AcDbEntity
  8
KIJUN
100
AcDbLine
 10
407.7380026135733
 20
551.108156079017
 30
0.0
 11
407.7380026135733
 21
636.1011280790162
 31
0.0
  0
LINE
  5
DB55
102
{ACAD_REACTORS
330
DCE5
102
}
330
2
100
AcDbEntity
  8
KIJUN
100
AcDbLine
 10
407.7380026135733
 20
636.1011280790162
 30
0.0
 11
408.6878356135744
 21
638.9990140790169
 31
0.0
  0
LINE
  5
DB56
102
{ACAD_REACTORS
330
DCE5
102
}
330
2
100
AcDbEntity
  8
KIJUN
100
AcDbLine
 10
408.6878356135744
 20
638.9990140790169
 30
0.0
 11
411.1783056135732
 21
641.0658120790166
 31
0.0
  0
LINE
  5
DB57
102
{ACAD_REACTORS
330
DCE5
102
}
330
2
100
AcDbEntity
  8
KIJUN
100
AcDbLine
 10
411.1783056135732
 20
641.0658120790166
 30
0.0
 11
414.6705516135734
 21
641.8541010790167
 31
0.0
  0
LINE
  5
DB58
102
{ACAD_REACTORS
330
DCE5
102
}
330
2
100
AcDbEntity
  8
KIJUN
100
AcDbLine
 10
339.1580026135744
 20
1141.853101079016
 30
0.0
 11
350.4987216135733
 21
1141.764455079015
 31
0.0
  0
LINE
  5
DB59
102
{ACAD_REACTORS
330
DCE5
102
}
330
2
100
AcDbEntity
  8
KIJUN
100
AcDbLine
 10
350.4987216135733
 20
1141.764455079015
 30
0.0
 11
361.7811476135744
 21
1141.731816079016
 31
0.0
  0
LINE
  5
DB5A
102
{ACAD_REACTORS
330
DCE5
102
}
330
2
100
AcDbEntity
  8
KIJUN
100
AcDbLine
 10
361.7811476135744
 20
1141.731816079016
 30
0.0
 11
373.0344906135733
 21
1141.727117079015
 31
0.0
  0
LINE
  5
DB5B
102
{ACAD_REACTORS
330
DCE5
102
}
330
2
100
AcDbEntity
  8
KIJUN
100
AcDbLine
 10
373.0344906135733
 20
1141.727117079015
 30
0.0
 11
384.2201426135734
 21
1141.759756079015
 31
0.0
  0
LINE
  5
DB5C
102
{ACAD_REACTORS
330
DCE5
102
}
330
2
100
AcDbEntity
  8
KIJUN
100
AcDbLine
 10
384.2201426135734
 20
1141.759756079015
 30
0.0
 11
395.4638336135745
 21
1141.820462079016
 31
0.0
  0
LINE
  5
DB5D
102
{ACAD_REACTORS
330
DCE5
102
}
330
2
100
AcDbEntity
  8
KIJUN
100
AcDbLine
 10
395.4638336135745
 20
1141.820462079016
 30
0.0
 11
406.6494856135732
 21
1141.853101079016
 31
0.0
  0
LINE
  5
DB5E
102
{ACAD_REACTORS
330
DCE5
102
}
330
2
100
AcDbEntity
  8
KIJUN
100
AcDbLine
 10
406.6494856135732
 20
1141.853101079016
 30
0.0
 11
399.7801826135733
 21
1140.260140079016
 31
0.0
  0
LINE
  5
DB5F
102
{ACAD_REACTORS
330
DCE5
102
}
330
2
100
AcDbEntity
  8
KIJUN
100
AcDbLine
 10
399.7801826135733
 20
1140.260140079016
 30
0.0
 11
396.1662706135744
 21
1137.938580079016
 31
0.0
  0
LINE
  5
DB60
102
{ACAD_REACTORS
330
DCE5
102
}
330
2
100
AcDbEntity
  8
KIJUN
100
AcDbLine
 10
396.1662706135744
 20
1137.938580079016
 30
0.0
 11
395.4009686135732
 21
1134.411663079016
 31
0.0
  0
LINE
  5
DB61
102
{ACAD_REACTORS
330
DCE5
102
}
330
2
100
AcDbEntity
  8
KIJUN
100
AcDbLine
 10
395.4009686135732
 20
1134.411663079016
 30
0.0
 11
396.0888006135742
 21
1132.851341079016
 31
0.0
  0
LINE
  5
DB62
102
{ACAD_REACTORS
330
DCE5
102
}
330
2
100
AcDbEntity
  8
KIJUN
100
AcDbLine
 10
396.0888006135742
 20
1132.851341079016
 30
0.0
 11
397.5905756135735
 21
1131.599375079016
 31
0.0
  0
LINE
  5
DB63
102
{ACAD_REACTORS
330
DCE5
102
}
330
2
100
AcDbEntity
  8
KIJUN
100
AcDbLine
 10
397.5905756135735
 20
1131.599375079016
 30
0.0
 11
399.8480006135733
 21
1130.123127079016
 31
0.0
  0
LINE
  5
DB64
102
{ACAD_REACTORS
330
DCE5
102
}
330
2
100
AcDbEntity
  8
KIJUN
100
AcDbLine
 10
399.8480006135733
 20
1130.123127079016
 30
0.0
 11
390.9440306135743
 21
1130.090488079016
 31
0.0
  0
LINE
  5
DB65
102
{ACAD_REACTORS
330
DCE5
102
}
330
2
100
AcDbEntity
  8
KIJUN
100
AcDbLine
 10
390.9440306135743
 20
1130.090488079016
 30
0.0
 11
381.8947726135734
 21
1130.029782079016
 31
0.0
  0
LINE
  5
DB66
102
{ACAD_REACTORS
330
DCE5
102
}
330
2
100
AcDbEntity
  8
KIJUN
100
AcDbLine
 10
381.8947726135734
 20
1130.029782079016
 30
0.0
 11
372.9035536135734
 21
1129.997143079016
 31
0.0
  0
LINE
  5
DB67
102
{ACAD_REACTORS
330
DCE5
102
}
330
2
100
AcDbEntity
  8
KIJUN
100
AcDbLine
 10
372.9035536135734
 20
1129.997143079016
 30
0.0
 11
363.9658016135732
 21
1130.001715079016
 31
0.0
  0
LINE
  5
DB68
102
{ACAD_REACTORS
330
DCE5
102
}
330
2
100
AcDbEntity
  8
KIJUN
100
AcDbLine
 10
363.9658016135732
 20
1130.001715079016
 30
0.0
 11
354.9408006135741
 21
1130.034481079015
 31
0.0
  0
LINE
  5
DB69
102
{ACAD_REACTORS
330
DCE5
102
}
330
2
100
AcDbEntity
  8
KIJUN
100
AcDbLine
 10
354.9408006135741
 20
1130.034481079015
 30
0.0
 11
345.8285506135735
 21
1130.123127079016
 31
0.0
  0
LINE
  5
DB6A
102
{ACAD_REACTORS
330
DCE5
102
}
330
2
100
AcDbEntity
  8
KIJUN
100
AcDbLine
 10
345.8285506135735
 20
1130.123127079016
 30
0.0
 11
349.4279846135733
 21
1132.346897079015
 31
0.0
  0
LINE
  5
DB6B
102
{ACAD_REACTORS
330
DCE5
102
}
330
2
100
AcDbEntity
  8
KIJUN
100
AcDbLine
 10
349.4279846135733
 20
1132.346897079015
 30
0.0
 11
350.7310046135744
 21
1135.467414079015
 31
0.0
  0
LINE
  5
DB6C
102
{ACAD_REACTORS
330
DCE5
102
}
330
2
100
AcDbEntity
  8
KIJUN
100
AcDbLine
 10
350.7310046135744
 20
1135.467414079015
 30
0.0
 11
350.4065196135734
 21
1137.943152079016
 31
0.0
  0
LINE
  5
DB6D
102
{ACAD_REACTORS
330
DCE5
102
}
330
2
100
AcDbEntity
  8
KIJUN
100
AcDbLine
 10
350.4065196135734
 20
1137.943152079016
 30
0.0
 11
348.5657816135745
 21
1139.685592079016
 31
0.0
  0
LINE
  5
DB6E
102
{ACAD_REACTORS
330
DCE5
102
}
330
2
100
AcDbEntity
  8
KIJUN
100
AcDbLine
 10
348.5657816135745
 20
1139.685592079016
 30
0.0
 11
345.0100356135745
 21
1140.783253079016
 31
0.0
  0
LINE
  5
DB6F
102
{ACAD_REACTORS
330
DCE5
102
}
330
2
100
AcDbEntity
  8
KIJUN
100
AcDbLine
 10
345.0100356135745
 20
1140.783253079016
 30
0.0
 11
339.1580026135744
 21
1141.853101079016
 31
0.0
  0
LINE
  5
DB70
102
{ACAD_REACTORS
330
DCE5
102
}
330
2
100
AcDbEntity
  8
KIJUN
100
AcDbLine
 10
339.5390026135733
 20
1144.774101079016
 30
0.0
 11
406.6380556135741
 21
1144.774101079016
 31
0.0
  0
LINE
  5
DB71
102
{ACAD_REACTORS
330
DCE5
102
}
330
2
100
AcDbEntity
  8
KIJUN
100
AcDbLine
 10
406.6380556135741
 20
1144.774101079016
 30
0.0
 11
406.6380556135741
 21
1141.871643079016
 31
0.0
  0
LINE
  5
DB72
102
{ACAD_REACTORS
330
DCE5
102
}
330
2
100
AcDbEntity
  8
KIJUN
100
AcDbLine
 10
406.6380556135741
 20
1141.871643079016
 30
0.0
 11
339.5390026135733
 21
1141.871643079016
 31
0.0
  0
LINE
  5
DB73
102
{ACAD_REACTORS
330
DCE5
102
}
330
2
100
AcDbEntity
  8
KIJUN
100
AcDbLine
 10
339.5390026135733
 20
1141.871643079016
 30
0.0
 11
339.5390026135733
 21
1144.774101079016
 31
0.0
  0
LINE
  5
DB74
102
{ACAD_REACTORS
330
DCE5
102
}
330
2
100
AcDbEntity
  8
KIJUN
100
AcDbLine
 10
348.7735536135733
 20
794.2541010790163
 30
0.0
 11
397.3835656135734
 21
794.2541010790163
 31
0.0
  0
LINE
  5
DB75
102
{ACAD_REACTORS
330
DCE5
102
}
330
2
100
AcDbEntity
  8
KIJUN
100
AcDbLine
 10
397.3835656135734
 20
794.2541010790163
 30
0.0
 11
399.4761446135735
 21
793.7233680790168
 31
0.0
  0
LINE
  5
DB76
102
{ACAD_REACTORS
330
DCE5
102
}
330
2
100
AcDbEntity
  8
KIJUN
100
AcDbLine
 10
399.4761446135735
 20
793.7233680790168
 30
0.0
 11
400.9686486135733
 21
792.3317020790164
 31
0.0
  0
LINE
  5
DB77
102
{ACAD_REACTORS
330
DCE5
102
}
330
2
100
AcDbEntity
  8
KIJUN
100
AcDbLine
 10
400.9686486135733
 20
792.3317020790164
 30
0.0
 11
401.5379896135741
 21
790.3806010790166
 31
0.0
  0
LINE
  5
DB78
102
{ACAD_REACTORS
330
DCE5
102
}
330
2
100
AcDbEntity
  8
KIJUN
100
AcDbLine
 10
401.5379896135741
 20
790.3806010790166
 30
0.0
 11
401.5379896135741
 21
790.251569079017
 31
0.0
  0
LINE
  5
DB79
102
{ACAD_REACTORS
330
DCE5
102
}
330
2
100
AcDbEntity
  8
KIJUN
100
AcDbLine
 10
401.5379896135741
 20
790.251569079017
 30
0.0
 11
400.9686486135733
 21
788.3004680790163
 31
0.0
  0
LINE
  5
DB7A
102
{ACAD_REACTORS
330
DCE5
102
}
330
2
100
AcDbEntity
  8
KIJUN
100
AcDbLine
 10
400.9686486135733
 20
788.3004680790163
 30
0.0
 11
399.4761446135735
 21
786.9089290790172
 31
0.0
  0
LINE
  5
DB7B
102
{ACAD_REACTORS
330
DCE5
102
}
330
2
100
AcDbEntity
  8
KIJUN
100
AcDbLine
 10
399.4761446135735
 20
786.9089290790172
 30
0.0
 11
397.3835656135734
 21
786.3780690790163
 31
0.0
  0
LINE
  5
DB7C
102
{ACAD_REACTORS
330
DCE5
102
}
330
2
100
AcDbEntity
  8
KIJUN
100
AcDbLine
 10
397.3835656135734
 20
786.3780690790163
 30
0.0
 11
348.7735536135733
 21
786.3780690790163
 31
0.0
  0
LINE
  5
DB7D
102
{ACAD_REACTORS
330
DCE5
102
}
330
2
100
AcDbEntity
  8
KIJUN
100
AcDbLine
 10
348.7735536135733
 20
786.3780690790163
 30
0.0
 11
346.6808476135743
 21
786.9089290790172
 31
0.0
  0
LINE
  5
DB7E
102
{ACAD_REACTORS
330
DCE5
102
}
330
2
100
AcDbEntity
  8
KIJUN
100
AcDbLine
 10
346.6808476135743
 20
786.9089290790172
 30
0.0
 11
345.1883436135745
 21
788.3004680790163
 31
0.0
  0
LINE
  5
DB7F
102
{ACAD_REACTORS
330
DCE5
102
}
330
2
100
AcDbEntity
  8
KIJUN
100
AcDbLine
 10
345.1883436135745
 20
788.3004680790163
 30
0.0
 11
344.6190026135732
 21
790.251569079017
 31
0.0
  0
LINE
  5
DB80
102
{ACAD_REACTORS
330
DCE5
102
}
330
2
100
AcDbEntity
  8
KIJUN
100
AcDbLine
 10
344.6190026135732
 20
790.251569079017
 30
0.0
 11
344.6190026135732
 21
790.3806010790166
 31
0.0
  0
LINE
  5
DB81
102
{ACAD_REACTORS
330
DCE5
102
}
330
2
100
AcDbEntity
  8
KIJUN
100
AcDbLine
 10
344.6190026135732
 20
790.3806010790166
 30
0.0
 11
345.1883436135745
 21
792.3317020790164
 31
0.0
  0
LINE
  5
DB82
102
{ACAD_REACTORS
330
DCE5
102
}
330
2
100
AcDbEntity
  8
KIJUN
100
AcDbLine
 10
345.1883436135745
 20
792.3317020790164
 30
0.0
 11
346.6808476135743
 21
793.7233680790168
 31
0.0
  0
LINE
  5
DB83
102
{ACAD_REACTORS
330
DCE5
102
}
330
2
100
AcDbEntity
  8
KIJUN
100
AcDbLine
 10
346.6808476135743
 20
793.7233680790168
 30
0.0
 11
348.7735536135733
 21
794.2541010790163
 31
0.0
  0
LINE
  5
DB84
102
{ACAD_REACTORS
330
DCE5
102
}
330
2
100
AcDbEntity
  8
KIJUN
100
AcDbLine
 10
349.6390586135744
 20
1107.463660079015
 30
0.0
 11
350.4524936135742
 21
1107.416162079016
 31
0.0
  0
LINE
  5
DB85
102
{ACAD_REACTORS
330
DCE5
102
}
330
2
100
AcDbEntity
  8
KIJUN
100
AcDbLine
 10
350.4524936135742
 20
1107.416162079016
 30
0.0
 11
351.3030126135732
 21
1107.049640079017
 31
0.0
  0
LINE
  5
DB86
102
{ACAD_REACTORS
330
DCE5
102
}
330
2
100
AcDbEntity
  8
KIJUN
100
AcDbLine
 10
351.3030126135732
 20
1107.049640079017
 30
0.0
 11
351.8809896135745
 21
1106.184643079016
 31
0.0
  0
LINE
  5
DB87
102
{ACAD_REACTORS
330
DCE5
102
}
330
2
100
AcDbEntity
  8
KIJUN
100
AcDbLine
 10
351.8809896135745
 20
1106.184643079016
 30
0.0
 11
352.0614566135732
 21
1105.008115079016
 31
0.0
  0
LINE
  5
DB88
102
{ACAD_REACTORS
330
DCE5
102
}
330
2
100
AcDbEntity
  8
KIJUN
100
AcDbLine
 10
352.0614566135732
 20
1105.008115079016
 30
0.0
 11
340.7170546135744
 21
864.8381610790165
 31
0.0
  0
LINE
  5
DB89
102
{ACAD_REACTORS
330
DCE5
102
}
330
2
100
AcDbEntity
  8
KIJUN
100
AcDbLine
 10
340.7170546135744
 20
864.8381610790165
 30
0.0
 11
340.4267326135732
 21
863.6891920790167
 31
0.0
  0
LINE
  5
DB8A
102
{ACAD_REACTORS
330
DCE5
102
}
330
2
100
AcDbEntity
  8
KIJUN
100
AcDbLine
 10
340.4267326135732
 20
863.6891920790167
 30
0.0
 11
339.7703966135732
 21
862.895950079017
 31
0.0
  0
LINE
  5
DB8B
102
{ACAD_REACTORS
330
DCE5
102
}
330
2
100
AcDbEntity
  8
KIJUN
100
AcDbLine
 10
339.7703966135732
 20
862.895950079017
 30
0.0
 11
338.8900326135736
 21
862.6301390790167
 31
0.0
  0
LINE
  5
DB8C
102
{ACAD_REACTORS
330
DCE5
102
}
330
2
100
AcDbEntity
  8
KIJUN
100
AcDbLine
 10
338.8900326135736
 20
862.6301390790167
 30
0.0
 11
338.0764706135733
 21
862.6771290790165
 31
0.0
  0
LINE
  5
DB8D
102
{ACAD_REACTORS
330
DCE5
102
}
330
2
100
AcDbEntity
  8
KIJUN
100
AcDbLine
 10
338.0764706135733
 20
862.6771290790165
 30
0.0
 11
337.2258246135734
 21
863.0436510790168
 31
0.0
  0
LINE
  5
DB8E
102
{ACAD_REACTORS
330
DCE5
102
}
330
2
100
AcDbEntity
  8
KIJUN
100
AcDbLine
 10
337.2258246135734
 20
863.0436510790168
 30
0.0
 11
336.6478476135735
 21
863.9085210790161
 31
0.0
  0
LINE
  5
DB8F
102
{ACAD_REACTORS
330
DCE5
102
}
330
2
100
AcDbEntity
  8
KIJUN
100
AcDbLine
 10
336.6478476135735
 20
863.9085210790161
 30
0.0
 11
336.4675076135741
 21
865.0850490790162
 31
0.0
  0
LINE
  5
DB90
102
{ACAD_REACTORS
330
DCE5
102
}
330
2
100
AcDbEntity
  8
KIJUN
100
AcDbLine
 10
336.4675076135741
 20
865.0850490790162
 30
0.0
 11
347.8120366135731
 21
1105.255130079016
 31
0.0
  0
LINE
  5
DB91
102
{ACAD_REACTORS
330
DCE5
102
}
330
2
100
AcDbEntity
  8
KIJUN
100
AcDbLine
 10
347.8120366135731
 20
1105.255130079016
 30
0.0
 11
348.1023586135734
 21
1106.403972079016
 31
0.0
  0
LINE
  5
DB92
102
{ACAD_REACTORS
330
DCE5
102
}
330
2
100
AcDbEntity
  8
KIJUN
100
AcDbLine
 10
348.1023586135734
 20
1106.403972079016
 30
0.0
 11
348.7586946135734
 21
1107.197341079016
 31
0.0
  0
LINE
  5
DB93
102
{ACAD_REACTORS
330
DCE5
102
}
330
2
100
AcDbEntity
  8
KIJUN
100
AcDbLine
 10
348.7586946135734
 20
1107.197341079016
 30
0.0
 11
349.6390586135744
 21
1107.463660079015
 31
0.0
  0
LINE
  5
DB94
102
{ACAD_REACTORS
330
DCE5
102
}
330
2
100
AcDbEntity
  8
KIJUN
100
AcDbLine
 10
350.3195246135742
 20
1113.215617079016
 30
0.0
 11
350.4284906135735
 21
1113.209648079016
 31
0.0
  0
LINE
  5
DB95
102
{ACAD_REACTORS
330
DCE5
102
}
330
2
100
AcDbEntity
  8
KIJUN
100
AcDbLine
 10
350.4284906135735
 20
1113.209648079016
 30
0.0
 11
353.1327016135742
 21
1112.220318079015
 31
0.0
  0
LINE
  5
DB96
102
{ACAD_REACTORS
330
DCE5
102
}
330
2
100
AcDbEntity
  8
KIJUN
100
AcDbLine
 10
353.1327016135742
 20
1112.220318079015
 30
0.0
 11
354.9867746135733
 21
1109.931016079016
 31
0.0
  0
LINE
  5
DB97
102
{ACAD_REACTORS
330
DCE5
102
}
330
2
100
AcDbEntity
  8
KIJUN
100
AcDbLine
 10
354.9867746135733
 20
1109.931016079016
 30
0.0
 11
355.5890086135732
 21
1106.837042079016
 31
0.0
  0
LINE
  5
DB98
102
{ACAD_REACTORS
330
DCE5
102
}
330
2
100
AcDbEntity
  8
KIJUN
100
AcDbLine
 10
355.5890086135732
 20
1106.837042079016
 30
0.0
 11
344.0955086135732
 21
863.5091060790164
 31
0.0
  0
LINE
  5
DB99
102
{ACAD_REACTORS
330
DCE5
102
}
330
2
100
AcDbEntity
  8
KIJUN
100
AcDbLine
 10
344.0955086135732
 20
863.5091060790164
 30
0.0
 11
343.2049846135733
 21
860.5022540790168
 31
0.0
  0
LINE
  5
DB9A
102
{ACAD_REACTORS
330
DCE5
102
}
330
2
100
AcDbEntity
  8
KIJUN
100
AcDbLine
 10
343.2049846135733
 20
860.5022540790168
 30
0.0
 11
341.1454256135744
 21
858.440155079017
 31
0.0
  0
LINE
  5
DB9B
102
{ACAD_REACTORS
330
DCE5
102
}
330
2
100
AcDbEntity
  8
KIJUN
100
AcDbLine
 10
341.1454256135744
 20
858.440155079017
 30
0.0
 11
338.3624746135743
 21
857.7695950790168
 31
0.0
  0
LINE
  5
DB9C
102
{ACAD_REACTORS
330
DCE5
102
}
330
2
100
AcDbEntity
  8
KIJUN
100
AcDbLine
 10
338.3624746135743
 20
857.7695950790168
 30
0.0
 11
338.2540166135732
 21
857.7760720790164
 31
0.0
  0
LINE
  5
DB9D
102
{ACAD_REACTORS
330
DCE5
102
}
330
2
100
AcDbEntity
  8
KIJUN
100
AcDbLine
 10
338.2540166135732
 20
857.7760720790164
 30
0.0
 11
335.5495516135734
 21
858.7652750790166
 31
0.0
  0
LINE
  5
DB9E
102
{ACAD_REACTORS
330
DCE5
102
}
330
2
100
AcDbEntity
  8
KIJUN
100
AcDbLine
 10
335.5495516135734
 20
858.7652750790166
 30
0.0
 11
333.6956056135732
 21
861.0545770790167
 31
0.0
  0
LINE
  5
DB9F
102
{ACAD_REACTORS
330
DCE5
102
}
330
2
100
AcDbEntity
  8
KIJUN
100
AcDbLine
 10
333.6956056135732
 20
861.0545770790167
 30
0.0
 11
333.0934986135735
 21
864.1480430790167
 31
0.0
  0
LINE
  5
DBA0
102
{ACAD_REACTORS
330
DCE5
102
}
330
2
100
AcDbEntity
  8
KIJUN
100
AcDbLine
 10
333.0934986135735
 20
864.1480430790167
 30
0.0
 11
344.5869986135745
 21
1107.476106079016
 31
0.0
  0
LINE
  5
DBA1
102
{ACAD_REACTORS
330
DCE5
102
}
330
2
100
AcDbEntity
  8
KIJUN
100
AcDbLine
 10
344.5869986135745
 20
1107.476106079016
 30
0.0
 11
345.4775226135735
 21
1110.483212079016
 31
0.0
  0
LINE
  5
DBA2
102
{ACAD_REACTORS
330
DCE5
102
}
330
2
100
AcDbEntity
  8
KIJUN
100
AcDbLine
 10
345.4775226135735
 20
1110.483212079016
 30
0.0
 11
347.5369546135735
 21
1112.545184079016
 31
0.0
  0
LINE
  5
DBA3
102
{ACAD_REACTORS
330
DCE5
102
}
330
2
100
AcDbEntity
  8
KIJUN
100
AcDbLine
 10
347.5369546135735
 20
1112.545184079016
 30
0.0
 11
350.3195246135742
 21
1113.215617079016
 31
0.0
  0
LINE
  5
DBA4
102
{ACAD_REACTORS
330
DCE5
102
}
330
2
100
AcDbEntity
  8
KIJUN
100
AcDbLine
 10
418.7252329976604
 20
1185.720093079017
 30
0.0
 11
419.1869256135732
 21
1184.913516079017
 31
0.0
  0
LINE
  5
DBA5
102
{ACAD_REACTORS
330
DCE5
102
}
330
2
100
AcDbEntity
  8
KIJUN
100
AcDbLine
 10
419.1869256135732
 20
1184.913516079017
 30
0.0
 11
419.9134926135744
 21
1180.247028079016
 31
0.0
  0
LINE
  5
DBA6
102
{ACAD_REACTORS
330
DCE5
102
}
330
2
100
AcDbEntity
  8
KIJUN
100
AcDbLine
 10
419.9134926135744
 20
1180.247028079016
 30
0.0
 11
419.9134926135744
 21
1165.331591079016
 31
0.0
  0
LINE
  5
DBA7
102
{ACAD_REACTORS
330
DCE5
102
}
330
2
100
AcDbEntity
  8
KIJUN
100
AcDbLine
 10
419.9134926135744
 20
1165.331591079016
 30
0.0
 11
419.1869256135732
 21
1160.664976079016
 31
0.0
  0
LINE
  5
DBA8
102
{ACAD_REACTORS
330
DCE5
102
}
330
2
100
AcDbEntity
  8
KIJUN
100
AcDbLine
 10
419.1869256135732
 20
1160.664976079016
 30
0.0
 11
417.2819256135744
 21
1157.336687079016
 31
0.0
  0
LINE
  5
DBA9
102
{ACAD_REACTORS
330
DCE5
102
}
330
2
100
AcDbEntity
  8
KIJUN
100
AcDbLine
 10
417.2819256135744
 20
1157.336687079016
 30
0.0
 11
414.6109886135741
 21
1156.067068079016
 31
0.0
  0
LINE
  5
DBAA
102
{ACAD_REACTORS
330
DCE5
102
}
330
2
100
AcDbEntity
  8
KIJUN
100
AcDbLine
 10
414.6109886135741
 20
1156.067068079016
 30
0.0
 11
334.5545066135733
 21
1156.067068079016
 31
0.0
  0
LINE
  5
DBAB
102
{ACAD_REACTORS
330
DCE5
102
}
330
2
100
AcDbEntity
  8
KIJUN
100
AcDbLine
 10
334.5545066135733
 20
1156.067068079016
 30
0.0
 11
331.8835696135734
 21
1157.336687079016
 31
0.0
  0
LINE
  5
DBAC
102
{ACAD_REACTORS
330
DCE5
102
}
330
2
100
AcDbEntity
  8
KIJUN
100
AcDbLine
 10
331.8835696135734
 20
1157.336687079016
 30
0.0
 11
329.9785696135732
 21
1160.664976079016
 31
0.0
  0
LINE
  5
DBAD
102
{ACAD_REACTORS
330
DCE5
102
}
330
2
100
AcDbEntity
  8
KIJUN
100
AcDbLine
 10
329.9785696135732
 20
1160.664976079016
 30
0.0
 11
329.2520026135735
 21
1165.331591079016
 31
0.0
  0
LINE
  5
DBAE
102
{ACAD_REACTORS
330
DCE5
102
}
330
2
100
AcDbEntity
  8
KIJUN
100
AcDbLine
 10
329.2520026135735
 20
1165.331591079016
 30
0.0
 11
329.2520026135735
 21
1180.247028079017
 31
0.0
  0
LINE
  5
DBAF
102
{ACAD_REACTORS
330
DCE5
102
}
330
2
100
AcDbEntity
  8
KIJUN
100
AcDbLine
 10
329.2520026135735
 20
1180.247028079017
 30
0.0
 11
329.9785696135732
 21
1184.913516079017
 31
0.0
  0
LINE
  5
DBB0
102
{ACAD_REACTORS
330
DCE5
102
}
330
2
100
AcDbEntity
  8
KIJUN
100
AcDbLine
 10
329.9785696135732
 20
1184.913516079017
 30
0.0
 11
330.4402622294861
 21
1185.720093079017
 31
0.0
  0
LINE
  5
DBB1
102
{ACAD_REACTORS
330
DCE5
102
}
330
2
100
AcDbEntity
  8
KIJUN
100
AcDbLine
 10
340.4200016135742
 20
1156.077101079016
 30
0.0
 11
407.3810056135735
 21
1156.077101079016
 31
0.0
  0
LINE
  5
DBB2
102
{ACAD_REACTORS
330
DCE5
102
}
330
2
100
AcDbEntity
  8
KIJUN
100
AcDbLine
 10
407.3810056135735
 20
1156.077101079016
 30
0.0
 11
410.7673336135745
 21
1155.314593079016
 31
0.0
  0
LINE
  5
DBB3
102
{ACAD_REACTORS
330
DCE5
102
}
330
2
100
AcDbEntity
  8
KIJUN
100
AcDbLine
 10
410.7673336135745
 20
1155.314593079016
 30
0.0
 11
413.1826196135734
 21
1153.315359079017
 31
0.0
  0
LINE
  5
DBB4
102
{ACAD_REACTORS
330
DCE5
102
}
330
2
100
AcDbEntity
  8
KIJUN
100
AcDbLine
 10
413.1826196135734
 20
1153.315359079017
 30
0.0
 11
414.1040046135745
 21
1150.512088079016
 31
0.0
  0
LINE
  5
DBB5
102
{ACAD_REACTORS
330
DCE5
102
}
330
2
100
AcDbEntity
  8
KIJUN
100
AcDbLine
 10
414.1040046135745
 20
1150.512088079016
 30
0.0
 11
414.1040046135745
 21
1150.400582079016
 31
0.0
  0
LINE
  5
DBB6
102
{ACAD_REACTORS
330
DCE5
102
}
330
2
100
AcDbEntity
  8
KIJUN
100
AcDbLine
 10
414.1040046135745
 20
1150.400582079016
 30
0.0
 11
413.1826196135734
 21
1147.597692079017
 31
0.0
  0
LINE
  5
DBB7
102
{ACAD_REACTORS
330
DCE5
102
}
330
2
100
AcDbEntity
  8
KIJUN
100
AcDbLine
 10
413.1826196135734
 20
1147.597692079017
 30
0.0
 11
410.7673336135745
 21
1145.598585079016
 31
0.0
  0
LINE
  5
DBB8
102
{ACAD_REACTORS
330
DCE5
102
}
330
2
100
AcDbEntity
  8
KIJUN
100
AcDbLine
 10
410.7673336135745
 20
1145.598585079016
 30
0.0
 11
407.3810056135735
 21
1144.836077079015
 31
0.0
  0
LINE
  5
DBB9
102
{ACAD_REACTORS
330
DCE5
102
}
330
2
100
AcDbEntity
  8
KIJUN
100
AcDbLine
 10
407.3810056135735
 20
1144.836077079015
 30
0.0
 11
340.4200016135742
 21
1144.836077079015
 31
0.0
  0
LINE
  5
DBBA
102
{ACAD_REACTORS
330
DCE5
102
}
330
2
100
AcDbEntity
  8
KIJUN
100
AcDbLine
 10
340.4200016135742
 20
1144.836077079015
 30
0.0
 11
337.0336736135732
 21
1145.598585079016
 31
0.0
  0
LINE
  5
DBBB
102
{ACAD_REACTORS
330
DCE5
102
}
330
2
100
AcDbEntity
  8
KIJUN
100
AcDbLine
 10
337.0336736135732
 20
1145.598585079016
 30
0.0
 11
334.6183876135733
 21
1147.597692079017
 31
0.0
  0
LINE
  5
DBBC
102
{ACAD_REACTORS
330
DCE5
102
}
330
2
100
AcDbEntity
  8
KIJUN
100
AcDbLine
 10
334.6183876135733
 20
1147.597692079017
 30
0.0
 11
333.6970026135732
 21
1150.400582079016
 31
0.0
  0
LINE
  5
DBBD
102
{ACAD_REACTORS
330
DCE5
102
}
330
2
100
AcDbEntity
  8
KIJUN
100
AcDbLine
 10
333.6970026135732
 20
1150.400582079016
 30
0.0
 11
333.6970026135732
 21
1150.512088079016
 31
0.0
  0
LINE
  5
DBBE
102
{ACAD_REACTORS
330
DCE5
102
}
330
2
100
AcDbEntity
  8
KIJUN
100
AcDbLine
 10
333.6970026135732
 20
1150.512088079016
 30
0.0
 11
334.6183876135733
 21
1153.315359079017
 31
0.0
  0
LINE
  5
DBBF
102
{ACAD_REACTORS
330
DCE5
102
}
330
2
100
AcDbEntity
  8
KIJUN
100
AcDbLine
 10
334.6183876135733
 20
1153.315359079017
 30
0.0
 11
337.0336736135732
 21
1155.314593079016
 31
0.0
  0
LINE
  5
DBC0
102
{ACAD_REACTORS
330
DCE5
102
}
330
2
100
AcDbEntity
  8
KIJUN
100
AcDbLine
 10
337.0336736135732
 20
1155.314593079016
 30
0.0
 11
340.4200016135742
 21
1156.077101079016
 31
0.0
  0
LINE
  5
DBC1
102
{ACAD_REACTORS
330
DCE5
102
}
330
2
100
AcDbEntity
  8
KIJUN
100
AcDbLine
 10
330.6490026135734
 20
845.0541010790166
 30
0.0
 11
329.9949526135733
 21
842.7301280790167
 31
0.0
  0
LINE
  5
DBC2
102
{ACAD_REACTORS
330
DCE5
102
}
330
2
100
AcDbEntity
  8
KIJUN
100
AcDbLine
 10
329.9949526135733
 20
842.7301280790167
 30
0.0
 11
327.7715636135736
 21
840.7931240790167
 31
0.0
  0
LINE
  5
DBC3
102
{ACAD_REACTORS
330
DCE5
102
}
330
2
100
AcDbEntity
  8
KIJUN
100
AcDbLine
 10
327.7715636135736
 20
840.7931240790167
 30
0.0
 11
325.0245536135735
 21
839.7601060790165
 31
0.0
  0
LINE
  5
DBC4
102
{ACAD_REACTORS
330
DCE5
102
}
330
2
100
AcDbEntity
  8
KIJUN
100
AcDbLine
 10
325.0245536135735
 20
839.7601060790165
 30
0.0
 11
322.4089886135735
 21
838.3401190790165
 31
0.0
  0
LINE
  5
DBC5
102
{ACAD_REACTORS
330
DCE5
102
}
330
2
100
AcDbEntity
  8
KIJUN
100
AcDbLine
 10
322.4089886135735
 20
838.3401190790165
 30
0.0
 11
321.3625086135735
 21
836.0161460790168
 31
0.0
  0
LINE
  5
DBC6
102
{ACAD_REACTORS
330
DCE5
102
}
330
2
100
AcDbEntity
  8
KIJUN
100
AcDbLine
 10
321.3625086135735
 20
836.0161460790168
 30
0.0
 11
321.1010156135735
 21
833.3045690790168
 31
0.0
  0
LINE
  5
DBC7
102
{ACAD_REACTORS
330
DCE5
102
}
330
2
100
AcDbEntity
  8
KIJUN
100
AcDbLine
 10
321.1010156135735
 20
833.3045690790168
 30
0.0
 11
321.3625086135735
 21
830.2056420790165
 31
0.0
  0
LINE
  5
DBC8
102
{ACAD_REACTORS
330
DCE5
102
}
330
2
100
AcDbEntity
  8
KIJUN
100
AcDbLine
 10
321.3625086135735
 20
830.2056420790165
 30
0.0
 11
322.6704816135734
 21
827.7526370790164
 31
0.0
  0
LINE
  5
DBC9
102
{ACAD_REACTORS
330
DCE5
102
}
330
2
100
AcDbEntity
  8
KIJUN
100
AcDbLine
 10
322.6704816135734
 20
827.7526370790164
 30
0.0
 11
324.6325046135735
 21
826.0740780790165
 31
0.0
  0
LINE
  5
DBCA
102
{ACAD_REACTORS
330
DCE5
102
}
330
2
100
AcDbEntity
  8
KIJUN
100
AcDbLine
 10
324.6325046135735
 20
826.0740780790165
 30
0.0
 11
327.7715636135736
 21
824.9121550790167
 31
0.0
  0
LINE
  5
DBCB
102
{ACAD_REACTORS
330
DCE5
102
}
330
2
100
AcDbEntity
  8
KIJUN
100
AcDbLine
 10
327.7715636135736
 20
824.9121550790167
 30
0.0
 11
421.4225066135732
 21
824.9121550790167
 31
0.0
  0
LINE
  5
DBCC
102
{ACAD_REACTORS
330
DCE5
102
}
330
2
100
AcDbEntity
  8
KIJUN
100
AcDbLine
 10
421.4225066135732
 20
824.9121550790167
 30
0.0
 11
424.2999456135744
 21
826.5905870790163
 31
0.0
  0
LINE
  5
DBCD
102
{ACAD_REACTORS
330
DCE5
102
}
330
2
100
AcDbEntity
  8
KIJUN
100
AcDbLine
 10
424.2999456135744
 20
826.5905870790163
 30
0.0
 11
425.7389826135732
 21
828.7856550790165
 31
0.0
  0
LINE
  5
DBCE
102
{ACAD_REACTORS
330
DCE5
102
}
330
2
100
AcDbEntity
  8
KIJUN
100
AcDbLine
 10
425.7389826135732
 20
828.7856550790165
 30
0.0
 11
427.0464476135743
 21
831.8840740790165
 31
0.0
  0
LINE
  5
DBCF
102
{ACAD_REACTORS
330
DCE5
102
}
330
2
100
AcDbEntity
  8
KIJUN
100
AcDbLine
 10
427.0464476135743
 20
831.8840740790165
 30
0.0
 11
427.0464476135743
 21
834.724556079017
 31
0.0
  0
LINE
  5
DBD0
102
{ACAD_REACTORS
330
DCE5
102
}
330
2
100
AcDbEntity
  8
KIJUN
100
AcDbLine
 10
427.0464476135743
 20
834.724556079017
 30
0.0
 11
426.2619686135744
 21
837.4361330790168
 31
0.0
  0
LINE
  5
DBD1
102
{ACAD_REACTORS
330
DCE5
102
}
330
2
100
AcDbEntity
  8
KIJUN
100
AcDbLine
 10
426.2619686135744
 20
837.4361330790168
 30
0.0
 11
424.0384526135744
 21
840.2766150790167
 31
0.0
  0
LINE
  5
DBD2
102
{ACAD_REACTORS
330
DCE5
102
}
330
2
100
AcDbEntity
  8
KIJUN
100
AcDbLine
 10
424.0384526135744
 20
840.2766150790167
 30
0.0
 11
421.8150636135733
 21
841.3096330790168
 31
0.0
  0
LINE
  5
DBD3
102
{ACAD_REACTORS
330
DCE5
102
}
330
2
100
AcDbEntity
  8
KIJUN
100
AcDbLine
 10
421.8150636135733
 20
841.3096330790168
 30
0.0
 11
419.4604836135731
 21
841.9550470790165
 31
0.0
  0
LINE
  5
DBD4
102
{ACAD_REACTORS
330
DCE5
102
}
330
2
100
AcDbEntity
  8
KIJUN
100
AcDbLine
 10
419.4604836135731
 20
841.9550470790165
 30
0.0
 11
416.9754746135732
 21
842.7301280790167
 31
0.0
  0
LINE
  5
DBD5
102
{ACAD_REACTORS
330
DCE5
102
}
330
2
100
AcDbEntity
  8
KIJUN
100
AcDbLine
 10
416.9754746135732
 20
842.7301280790167
 30
0.0
 11
415.7980576135733
 21
845.3120380790167
 31
0.0
  0
LINE
  5
DBD6
102
{ACAD_REACTORS
330
DCE5
102
}
330
2
100
AcDbEntity
  8
KIJUN
100
AcDbLine
 10
415.7980576135733
 20
845.3120380790167
 30
0.0
 11
330.6490026135734
 21
845.0541010790166
 31
0.0
  0
LINE
  5
DBD7
102
{ACAD_REACTORS
330
DCE5
102
}
330
2
100
AcDbEntity
  8
KIJUN
100
AcDbLine
 10
321.1240026135742
 20
754.1221010790167
 30
0.0
 11
426.5464486135734
 21
754.1221010790167
 31
0.0
  0
LINE
  5
DBD8
102
{ACAD_REACTORS
330
DCE5
102
}
330
2
100
AcDbEntity
  8
KIJUN
100
AcDbLine
 10
426.5464486135734
 20
754.1221010790167
 30
0.0
 11
426.5464486135734
 21
748.5700420790164
 31
0.0
  0
LINE
  5
DBD9
102
{ACAD_REACTORS
330
DCE5
102
}
330
2
100
AcDbEntity
  8
KIJUN
100
AcDbLine
 10
426.5464486135734
 20
748.5700420790164
 30
0.0
 11
321.1240026135742
 21
748.5700420790164
 31
0.0
  0
LINE
  5
DBDA
102
{ACAD_REACTORS
330
DCE5
102
}
330
2
100
AcDbEntity
  8
KIJUN
100
AcDbLine
 10
321.1240026135742
 20
748.5700420790164
 30
0.0
 11
321.1240026135742
 21
754.1221010790167
 31
0.0
  0
LINE
  5
DBDB
102
{ACAD_REACTORS
330
DCE5
102
}
330
2
100
AcDbEntity
  8
KIJUN
100
AcDbLine
 10
348.8404826135743
 20
786.3801010790165
 30
0.0
 11
357.0321096135744
 21
786.4709060790163
 31
0.0
  0
LINE
  5
DBDC
102
{ACAD_REACTORS
330
DCE5
102
}
330
2
100
AcDbEntity
  8
KIJUN
100
AcDbLine
 10
357.0321096135744
 20
786.4709060790163
 30
0.0
 11
364.9334146135734
 21
786.5043070790168
 31
0.0
  0
LINE
  5
DBDD
102
{ACAD_REACTORS
330
DCE5
102
}
330
2
100
AcDbEntity
  8
KIJUN
100
AcDbLine
 10
364.9334146135734
 20
786.5043070790168
 30
0.0
 11
373.0380466135744
 21
786.5091330790164
 31
0.0
  0
LINE
  5
DBDE
102
{ACAD_REACTORS
330
DCE5
102
}
330
2
100
AcDbEntity
  8
KIJUN
100
AcDbLine
 10
373.0380466135744
 20
786.5091330790164
 30
0.0
 11
381.4089976135742
 21
786.5043070790168
 31
0.0
  0
LINE
  5
DBDF
102
{ACAD_REACTORS
330
DCE5
102
}
330
2
100
AcDbEntity
  8
KIJUN
100
AcDbLine
 10
381.4089976135742
 20
786.5043070790168
 30
0.0
 11
389.7799486135741
 21
786.4709060790163
 31
0.0
  0
LINE
  5
DBE0
102
{ACAD_REACTORS
330
DCE5
102
}
330
2
100
AcDbEntity
  8
KIJUN
100
AcDbLine
 10
389.7799486135741
 20
786.4709060790163
 30
0.0
 11
398.1510266135733
 21
786.3801010790165
 31
0.0
  0
LINE
  5
DBE1
102
{ACAD_REACTORS
330
DCE5
102
}
330
2
100
AcDbEntity
  8
KIJUN
100
AcDbLine
 10
398.1510266135733
 20
786.3801010790165
 30
0.0
 11
396.0970556135735
 21
782.1814810790165
 31
0.0
  0
LINE
  5
DBE2
102
{ACAD_REACTORS
330
DCE5
102
}
330
2
100
AcDbEntity
  8
KIJUN
100
AcDbLine
 10
396.0970556135735
 20
782.1814810790165
 30
0.0
 11
396.1938296135731
 21
776.4620360790168
 31
0.0
  0
LINE
  5
DBE3
102
{ACAD_REACTORS
330
DCE5
102
}
330
2
100
AcDbEntity
  8
KIJUN
100
AcDbLine
 10
396.1938296135731
 20
776.4620360790168
 30
0.0
 11
398.4125196135733
 21
770.6281640790166
 31
0.0
  0
LINE
  5
DBE4
102
{ACAD_REACTORS
330
DCE5
102
}
330
2
100
AcDbEntity
  8
KIJUN
100
AcDbLine
 10
398.4125196135733
 20
770.6281640790166
 30
0.0
 11
404.8217016135732
 21
763.8181700790165
 31
0.0
  0
LINE
  5
DBE5
102
{ACAD_REACTORS
330
DCE5
102
}
330
2
100
AcDbEntity
  8
KIJUN
100
AcDbLine
 10
404.8217016135732
 20
763.8181700790165
 30
0.0
 11
414.8060606135731
 21
757.9840440790166
 31
0.0
  0
LINE
  5
DBE6
102
{ACAD_REACTORS
330
DCE5
102
}
330
2
100
AcDbEntity
  8
KIJUN
100
AcDbLine
 10
414.8060606135731
 20
757.9840440790166
 30
0.0
 11
427.0574966135741
 21
754.1011460790168
 31
0.0
  0
LINE
  5
DBE7
102
{ACAD_REACTORS
330
DCE5
102
}
330
2
100
AcDbEntity
  8
KIJUN
100
AcDbLine
 10
427.0574966135741
 20
754.1011460790168
 30
0.0
 11
416.5256406135731
 21
754.1640110790165
 31
0.0
  0
LINE
  5
DBE8
102
{ACAD_REACTORS
330
DCE5
102
}
330
2
100
AcDbEntity
  8
KIJUN
100
AcDbLine
 10
416.5256406135731
 20
754.1640110790165
 30
0.0
 11
405.9622886135744
 21
754.2022380790166
 31
0.0
  0
LINE
  5
DBE9
102
{ACAD_REACTORS
330
DCE5
102
}
330
2
100
AcDbEntity
  8
KIJUN
100
AcDbLine
 10
405.9622886135744
 20
754.2022380790166
 30
0.0
 11
395.3676946135733
 21
754.2217960790167
 31
0.0
  0
LINE
  5
DBEA
102
{ACAD_REACTORS
330
DCE5
102
}
330
2
100
AcDbEntity
  8
KIJUN
100
AcDbLine
 10
395.3676946135733
 20
754.2217960790167
 30
0.0
 11
384.7417316135734
 21
754.229035079016
 31
0.0
  0
LINE
  5
DBEB
102
{ACAD_REACTORS
330
DCE5
102
}
330
2
100
AcDbEntity
  8
KIJUN
100
AcDbLine
 10
384.7417316135734
 20
754.229035079016
 30
0.0
 11
374.0845266135734
 21
754.2300510790165
 31
0.0
  0
LINE
  5
DBEC
102
{ACAD_REACTORS
330
DCE5
102
}
330
2
100
AcDbEntity
  8
KIJUN
100
AcDbLine
 10
374.0845266135734
 20
754.2300510790165
 30
0.0
 11
363.5023786135735
 21
754.229035079016
 31
0.0
  0
LINE
  5
DBED
102
{ACAD_REACTORS
330
DCE5
102
}
330
2
100
AcDbEntity
  8
KIJUN
100
AcDbLine
 10
363.5023786135735
 20
754.229035079016
 30
0.0
 11
352.9328036135744
 21
754.2217960790167
 31
0.0
  0
LINE
  5
DBEE
102
{ACAD_REACTORS
330
DCE5
102
}
330
2
100
AcDbEntity
  8
KIJUN
100
AcDbLine
 10
352.9328036135744
 20
754.2217960790167
 30
0.0
 11
342.3571326135734
 21
754.2022380790166
 31
0.0
  0
LINE
  5
DBEF
102
{ACAD_REACTORS
330
DCE5
102
}
330
2
100
AcDbEntity
  8
KIJUN
100
AcDbLine
 10
342.3571326135734
 20
754.2022380790166
 30
0.0
 11
331.7563156135743
 21
754.1640110790165
 31
0.0
  0
LINE
  5
DBF0
102
{ACAD_REACTORS
330
DCE5
102
}
330
2
100
AcDbEntity
  8
KIJUN
100
AcDbLine
 10
331.7563156135743
 20
754.1640110790165
 30
0.0
 11
321.1115566135732
 21
754.1011460790168
 31
0.0
  0
LINE
  5
DBF1
102
{ACAD_REACTORS
330
DCE5
102
}
330
2
100
AcDbEntity
  8
KIJUN
100
AcDbLine
 10
321.1115566135732
 20
754.1011460790168
 30
0.0
 11
334.1185156135734
 21
758.7203900790163
 31
0.0
  0
LINE
  5
DBF2
102
{ACAD_REACTORS
330
DCE5
102
}
330
2
100
AcDbEntity
  8
KIJUN
100
AcDbLine
 10
334.1185156135734
 20
758.7203900790163
 30
0.0
 11
345.2942616135733
 21
766.0943910790165
 31
0.0
  0
LINE
  5
DBF3
102
{ACAD_REACTORS
330
DCE5
102
}
330
2
100
AcDbEntity
  8
KIJUN
100
AcDbLine
 10
345.2942616135733
 20
766.0943910790165
 30
0.0
 11
350.5405046135743
 21
774.2430920790167
 31
0.0
  0
LINE
  5
DBF4
102
{ACAD_REACTORS
330
DCE5
102
}
330
2
100
AcDbEntity
  8
KIJUN
100
AcDbLine
 10
350.5405046135743
 20
774.2430920790167
 30
0.0
 11
350.7392596135733
 21
779.0252770790166
 31
0.0
  0
LINE
  5
DBF5
102
{ACAD_REACTORS
330
DCE5
102
}
330
2
100
AcDbEntity
  8
KIJUN
100
AcDbLine
 10
350.7392596135733
 20
779.0252770790166
 30
0.0
 11
350.0370766135743
 21
782.2866370790169
 31
0.0
  0
LINE
  5
DBF6
102
{ACAD_REACTORS
330
DCE5
102
}
330
2
100
AcDbEntity
  8
KIJUN
100
AcDbLine
 10
350.0370766135743
 20
782.2866370790169
 30
0.0
 11
348.8404826135743
 21
786.3801010790165
 31
0.0
  0
LINE
  5
DBF7
102
{ACAD_REACTORS
330
DCE5
102
}
330
2
100
AcDbEntity
  8
KIJUN
100
AcDbLine
 10
326.9660026135734
 20
824.6071010790165
 30
0.0
 11
338.8359306135735
 21
824.6784750790167
 31
0.0
  0
LINE
  5
DBF8
102
{ACAD_REACTORS
330
DCE5
102
}
330
2
100
AcDbEntity
  8
KIJUN
100
AcDbLine
 10
338.8359306135735
 20
824.6784750790167
 30
0.0
 11
350.7057316135733
 21
824.7151780790163
 31
0.0
  0
LINE
  5
DBF9
102
{ACAD_REACTORS
330
DCE5
102
}
330
2
100
AcDbEntity
  8
KIJUN
100
AcDbLine
 10
350.7057316135733
 20
824.7151780790163
 30
0.0
 11
362.5756596135734
 21
824.7286400790162
 31
0.0
  0
LINE
  5
DBFA
102
{ACAD_REACTORS
330
DCE5
102
}
330
2
100
AcDbEntity
  8
KIJUN
100
AcDbLine
 10
362.5756596135734
 20
824.7286400790162
 30
0.0
 11
374.4454606135732
 21
824.7305450790163
 31
0.0
  0
LINE
  5
DBFB
102
{ACAD_REACTORS
330
DCE5
102
}
330
2
100
AcDbEntity
  8
KIJUN
100
AcDbLine
 10
374.4454606135732
 20
824.7305450790163
 30
0.0
 11
386.3133566135743
 21
824.7286400790162
 31
0.0
  0
LINE
  5
DBFC
102
{ACAD_REACTORS
330
DCE5
102
}
330
2
100
AcDbEntity
  8
KIJUN
100
AcDbLine
 10
386.3133566135743
 20
824.7286400790162
 30
0.0
 11
398.1689336135732
 21
824.7151780790163
 31
0.0
  0
LINE
  5
DBFD
102
{ACAD_REACTORS
330
DCE5
102
}
330
2
100
AcDbEntity
  8
KIJUN
100
AcDbLine
 10
398.1689336135732
 20
824.7151780790163
 30
0.0
 11
409.9998726135732
 21
824.6784750790167
 31
0.0
  0
LINE
  5
DBFE
102
{ACAD_REACTORS
330
DCE5
102
}
330
2
100
AcDbEntity
  8
KIJUN
100
AcDbLine
 10
409.9998726135732
 20
824.6784750790167
 30
0.0
 11
421.7939816135745
 21
824.6071010790165
 31
0.0
  0
LINE
  5
DBFF
102
{ACAD_REACTORS
330
DCE5
102
}
330
2
100
AcDbEntity
  8
KIJUN
100
AcDbLine
 10
421.7939816135745
 20
824.6071010790165
 30
0.0
 11
421.0045496135744
 21
819.6924550790162
 31
0.0
  0
LINE
  5
DC00
102
{ACAD_REACTORS
330
DCE5
102
}
330
2
100
AcDbEntity
  8
KIJUN
100
AcDbLine
 10
421.0045496135744
 20
819.6924550790162
 30
0.0
 11
419.6626676135734
 21
814.8329270790165
 31
0.0
  0
LINE
  5
DC01
102
{ACAD_REACTORS
330
DCE5
102
}
330
2
100
AcDbEntity
  8
KIJUN
100
AcDbLine
 10
419.6626676135734
 20
814.8329270790165
 30
0.0
 11
417.7395066135732
 21
809.671647079017
 31
0.0
  0
LINE
  5
DC02
102
{ACAD_REACTORS
330
DCE5
102
}
330
2
100
AcDbEntity
  8
KIJUN
100
AcDbLine
 10
417.7395066135732
 20
809.671647079017
 30
0.0
 11
413.4668456135732
 21
803.1296230790166
 31
0.0
  0
LINE
  5
DC03
102
{ACAD_REACTORS
330
DCE5
102
}
330
2
100
AcDbEntity
  8
KIJUN
100
AcDbLine
 10
413.4668456135732
 20
803.1296230790166
 30
0.0
 11
406.9268536135732
 21
797.9042080790167
 31
0.0
  0
LINE
  5
DC04
102
{ACAD_REACTORS
330
DCE5
102
}
330
2
100
AcDbEntity
  8
KIJUN
100
AcDbLine
 10
406.9268536135732
 20
797.9042080790167
 30
0.0
 11
398.9045176135732
 21
793.748641079017
 31
0.0
  0
LINE
  5
DC05
102
{ACAD_REACTORS
330
DCE5
102
}
330
2
100
AcDbEntity
  8
KIJUN
100
AcDbLine
 10
398.9045176135732
 20
793.748641079017
 30
0.0
 11
390.7272416135743
 21
793.7806450790167
 31
0.0
  0
LINE
  5
DC06
102
{ACAD_REACTORS
330
DCE5
102
}
330
2
100
AcDbEntity
  8
KIJUN
100
AcDbLine
 10
390.7272416135743
 20
793.7806450790167
 30
0.0
 11
382.4917996135732
 21
793.8400810790162
 31
0.0
  0
LINE
  5
DC07
102
{ACAD_REACTORS
330
DCE5
102
}
330
2
100
AcDbEntity
  8
KIJUN
100
AcDbLine
 10
382.4917996135732
 20
793.8400810790162
 30
0.0
 11
374.3145236135733
 21
793.8720850790169
 31
0.0
  0
LINE
  5
DC08
102
{ACAD_REACTORS
330
DCE5
102
}
330
2
100
AcDbEntity
  8
KIJUN
100
AcDbLine
 10
374.3145236135733
 20
793.8720850790169
 30
0.0
 11
366.0695566135741
 21
793.8675130790169
 31
0.0
  0
LINE
  5
DC09
102
{ACAD_REACTORS
330
DCE5
102
}
330
2
100
AcDbEntity
  8
KIJUN
100
AcDbLine
 10
366.0695566135741
 20
793.8675130790169
 30
0.0
 11
357.7953796135735
 21
793.8355090790166
 31
0.0
  0
LINE
  5
DC0A
102
{ACAD_REACTORS
330
DCE5
102
}
330
2
100
AcDbEntity
  8
KIJUN
100
AcDbLine
 10
357.7953796135735
 20
793.8355090790166
 30
0.0
 11
349.4630366135734
 21
793.748641079017
 31
0.0
  0
LINE
  5
DC0B
102
{ACAD_REACTORS
330
DCE5
102
}
330
2
100
AcDbEntity
  8
KIJUN
100
AcDbLine
 10
349.4630366135734
 20
793.748641079017
 30
0.0
 11
342.2063836135744
 21
797.5981380790163
 31
0.0
  0
LINE
  5
DC0C
102
{ACAD_REACTORS
330
DCE5
102
}
330
2
100
AcDbEntity
  8
KIJUN
100
AcDbLine
 10
342.2063836135744
 20
797.5981380790163
 30
0.0
 11
336.2284936135743
 21
802.1607400790159
 31
0.0
  0
LINE
  5
DC0D
102
{ACAD_REACTORS
330
DCE5
102
}
330
2
100
AcDbEntity
  8
KIJUN
100
AcDbLine
 10
336.2284936135743
 20
802.1607400790159
 30
0.0
 11
331.6745276135734
 21
807.3265920790163
 31
0.0
  0
LINE
  5
DC0E
102
{ACAD_REACTORS
330
DCE5
102
}
330
2
100
AcDbEntity
  8
KIJUN
100
AcDbLine
 10
331.6745276135734
 20
807.3265920790163
 30
0.0
 11
329.0294986135732
 21
812.8762380790167
 31
0.0
  0
LINE
  5
DC0F
102
{ACAD_REACTORS
330
DCE5
102
}
330
2
100
AcDbEntity
  8
KIJUN
100
AcDbLine
 10
329.0294986135732
 20
812.8762380790167
 30
0.0
 11
327.6925696135732
 21
818.9747780790167
 31
0.0
  0
LINE
  5
DC10
102
{ACAD_REACTORS
330
DCE5
102
}
330
2
100
AcDbEntity
  8
KIJUN
100
AcDbLine
 10
327.6925696135732
 20
818.9747780790167
 30
0.0
 11
326.9660026135734
 21
824.6071010790165
 31
0.0
  0
LINE
  5
DC11
102
{ACAD_REACTORS
330
DCE5
102
}
330
2
100
AcDbEntity
  8
KIJUN
100
AcDbLine
 10
423.2074916135734
 20
855.1970830790168
 30
0.0
 11
412.7439616135734
 21
1002.970600079016
 31
0.0
  0
LINE
  5
DC12
102
{ACAD_REACTORS
330
DCE5
102
}
330
2
100
AcDbEntity
  8
KIJUN
100
AcDbLine
 10
412.7439616135734
 20
1002.970600079016
 30
0.0
 11
407.5119426135733
 21
1124.019126079015
 31
0.0
  0
LINE
  5
DC13
102
{ACAD_REACTORS
330
DCE5
102
}
330
2
100
AcDbEntity
  8
KIJUN
100
AcDbLine
 10
407.5119426135733
 20
1124.019126079015
 30
0.0
 11
406.4607636135733
 21
1127.073603079016
 31
0.0
  0
LINE
  5
DC14
102
{ACAD_REACTORS
330
DCE5
102
}
330
2
100
AcDbEntity
  8
KIJUN
100
AcDbLine
 10
406.4607636135733
 20
1127.073603079016
 30
0.0
 11
404.7700126135732
 21
1129.026355079016
 31
0.0
  0
LINE
  5
DC15
102
{ACAD_REACTORS
330
DCE5
102
}
330
2
100
AcDbEntity
  8
KIJUN
100
AcDbLine
 10
404.7700126135732
 20
1129.026355079016
 30
0.0
 11
401.8874936135735
 21
1130.307150079016
 31
0.0
  0
LINE
  5
DC16
102
{ACAD_REACTORS
330
DCE5
102
}
330
2
100
AcDbEntity
  8
KIJUN
100
AcDbLine
 10
401.8874936135735
 20
1130.307150079016
 30
0.0
 11
399.7950416135732
 21
1130.549085079016
 31
0.0
  0
LINE
  5
DC17
102
{ACAD_REACTORS
330
DCE5
102
}
330
2
100
AcDbEntity
  8
KIJUN
100
AcDbLine
 10
399.7950416135732
 20
1130.549085079016
 30
0.0
 11
347.2145016135739
 21
1130.065088079017
 31
0.0
  0
LINE
  5
DC18
102
{ACAD_REACTORS
330
DCE5
102
}
330
2
100
AcDbEntity
  8
KIJUN
100
AcDbLine
 10
347.2145016135739
 20
1130.065088079017
 30
0.0
 11
344.2059986135741
 21
1129.944565079016
 31
0.0
  0
LINE
  5
DC19
102
{ACAD_REACTORS
330
DCE5
102
}
330
2
100
AcDbEntity
  8
KIJUN
100
AcDbLine
 10
344.2059986135741
 20
1129.944565079016
 30
0.0
 11
341.5900526135733
 21
1128.614113079016
 31
0.0
  0
LINE
  5
DC1A
102
{ACAD_REACTORS
330
DCE5
102
}
330
2
100
AcDbEntity
  8
KIJUN
100
AcDbLine
 10
341.5900526135733
 20
1128.614113079016
 30
0.0
 11
340.4130166135742
 21
1125.349070079016
 31
0.0
  0
LINE
  5
DC1B
102
{ACAD_REACTORS
330
DCE5
102
}
330
2
100
AcDbEntity
  8
KIJUN
100
AcDbLine
 10
340.4130166135742
 20
1125.349070079016
 30
0.0
 11
333.0880376135742
 21
1002.970600079016
 31
0.0
  0
LINE
  5
DC1C
102
{ACAD_REACTORS
330
DCE5
102
}
330
2
100
AcDbEntity
  8
KIJUN
100
AcDbLine
 10
333.0880376135742
 20
1002.970600079016
 30
0.0
 11
324.9784526135731
 21
854.3506280790168
 31
0.0
  0
LINE
  5
DC1D
102
{ACAD_REACTORS
330
DCE5
102
}
330
2
100
AcDbEntity
  8
KIJUN
100
AcDbLine
 10
324.9784526135731
 20
854.3506280790168
 30
0.0
 11
324.9784526135731
 21
851.2066160790165
 31
0.0
  0
LINE
  5
DC1E
102
{ACAD_REACTORS
330
DCE5
102
}
330
2
100
AcDbEntity
  8
KIJUN
100
AcDbLine
 10
324.9784526135731
 20
851.2066160790165
 30
0.0
 11
325.5019466135741
 21
848.9085510790165
 31
0.0
  0
LINE
  5
DC1F
102
{ACAD_REACTORS
330
DCE5
102
}
330
2
100
AcDbEntity
  8
KIJUN
100
AcDbLine
 10
325.5019466135741
 20
848.9085510790165
 30
0.0
 11
327.4639696135742
 21
847.094610079017
 31
0.0
  0
LINE
  5
DC20
102
{ACAD_REACTORS
330
DCE5
102
}
330
2
100
AcDbEntity
  8
KIJUN
100
AcDbLine
 10
327.4639696135742
 20
847.094610079017
 30
0.0
 11
330.8645216135742
 21
845.2810500790164
 31
0.0
  0
LINE
  5
DC21
102
{ACAD_REACTORS
330
DCE5
102
}
330
2
100
AcDbEntity
  8
KIJUN
100
AcDbLine
 10
330.8645216135742
 20
845.2810500790164
 30
0.0
 11
413.7900606135731
 21
845.5226040790165
 31
0.0
  0
LINE
  5
DC22
102
{ACAD_REACTORS
330
DCE5
102
}
330
2
100
AcDbEntity
  8
KIJUN
100
AcDbLine
 10
413.7900606135731
 20
845.5226040790165
 30
0.0
 11
417.4524866135734
 21
846.0066010790169
 31
0.0
  0
LINE
  5
DC23
102
{ACAD_REACTORS
330
DCE5
102
}
330
2
100
AcDbEntity
  8
KIJUN
100
AcDbLine
 10
417.4524866135734
 20
846.0066010790169
 30
0.0
 11
420.3300526135735
 21
847.3365450790167
 31
0.0
  0
LINE
  5
DC24
102
{ACAD_REACTORS
330
DCE5
102
}
330
2
100
AcDbEntity
  8
KIJUN
100
AcDbLine
 10
420.3300526135735
 20
847.3365450790167
 30
0.0
 11
422.5534416135733
 21
849.6341020790167
 31
0.0
  0
LINE
  5
DC25
102
{ACAD_REACTORS
330
DCE5
102
}
330
2
100
AcDbEntity
  8
KIJUN
100
AcDbLine
 10
422.5534416135733
 20
849.6341020790167
 30
0.0
 11
423.3385556135731
 21
852.2946250790166
 31
0.0
  0
LINE
  5
DC26
102
{ACAD_REACTORS
330
DCE5
102
}
330
2
100
AcDbEntity
  8
KIJUN
100
AcDbLine
 10
423.3385556135731
 20
852.2946250790166
 30
0.0
 11
423.2074916135734
 21
855.1970830790168
 31
0.0
  0
LINE
  5
DC27
102
{ACAD_REACTORS
330
DCE5
102
}
330
2
100
AcDbEntity
  8
KIJUN
100
AcDbLine
 10
466.5510646135735
 20
1188.622043079017
 30
0.0
 11
279.9409536135731
 21
1188.622043079017
 31
0.0
  0
LINE
  5
DC28
102
{ACAD_REACTORS
330
DCE5
102
}
330
2
100
AcDbEntity
  8
KIJUN
100
AcDbLine
 10
279.9409536135731
 20
1188.622043079017
 30
0.0
 11
279.5505556135745
 21
1188.591563079017
 31
0.0
  0
LINE
  5
DC29
102
{ACAD_REACTORS
330
DCE5
102
}
330
2
100
AcDbEntity
  8
KIJUN
100
AcDbLine
 10
279.5505556135745
 20
1188.591563079017
 30
0.0
 11
279.2728066135733
 21
1188.511553079018
 31
0.0
  0
LINE
  5
DC2A
102
{ACAD_REACTORS
330
DCE5
102
}
330
2
100
AcDbEntity
  8
KIJUN
100
AcDbLine
 10
279.2728066135733
 20
1188.511553079018
 30
0.0
 11
279.1670156135733
 21
1188.399031079017
 31
0.0
  0
LINE
  5
DC2B
102
{ACAD_REACTORS
330
DCE5
102
}
330
2
100
AcDbEntity
  8
KIJUN
100
AcDbLine
 10
279.1670156135733
 20
1188.399031079017
 30
0.0
 11
279.1670156135733
 21
1185.943105079018
 31
0.0
  0
LINE
  5
DC2C
102
{ACAD_REACTORS
330
DCE5
102
}
330
2
100
AcDbEntity
  8
KIJUN
100
AcDbLine
 10
279.1670156135733
 20
1185.943105079018
 30
0.0
 11
279.2728066135733
 21
1185.830583079017
 31
0.0
  0
LINE
  5
DC2D
102
{ACAD_REACTORS
330
DCE5
102
}
330
2
100
AcDbEntity
  8
KIJUN
100
AcDbLine
 10
279.2728066135733
 20
1185.830583079017
 30
0.0
 11
279.5505556135745
 21
1185.750573079017
 31
0.0
  0
LINE
  5
DC2E
102
{ACAD_REACTORS
330
DCE5
102
}
330
2
100
AcDbEntity
  8
KIJUN
100
AcDbLine
 10
279.5505556135745
 20
1185.750573079017
 30
0.0
 11
279.9409536135731
 21
1185.720093079017
 31
0.0
  0
LINE
  5
DC2F
102
{ACAD_REACTORS
330
DCE5
102
}
330
2
100
AcDbEntity
  8
KIJUN
100
AcDbLine
 10
279.9409536135731
 20
1185.720093079017
 30
0.0
 11
466.5510646135735
 21
1185.720093079017
 31
0.0
  0
LINE
  5
DC30
102
{ACAD_REACTORS
330
DCE5
102
}
330
2
100
AcDbEntity
  8
KIJUN
100
AcDbLine
 10
466.5510646135735
 20
1185.720093079017
 30
0.0
 11
466.9412086135735
 21
1185.750573079017
 31
0.0
  0
LINE
  5
DC31
102
{ACAD_REACTORS
330
DCE5
102
}
330
2
100
AcDbEntity
  8
KIJUN
100
AcDbLine
 10
466.9412086135735
 20
1185.750573079017
 30
0.0
 11
467.2190846135731
 21
1185.830583079017
 31
0.0
  0
LINE
  5
DC32
102
{ACAD_REACTORS
330
DCE5
102
}
330
2
100
AcDbEntity
  8
KIJUN
100
AcDbLine
 10
467.2190846135731
 20
1185.830583079017
 30
0.0
 11
467.3250026135733
 21
1185.943105079018
 31
0.0
  0
LINE
  5
DC33
102
{ACAD_REACTORS
330
DCE5
102
}
330
2
100
AcDbEntity
  8
KIJUN
100
AcDbLine
 10
467.3250026135733
 20
1185.943105079018
 30
0.0
 11
467.3250026135733
 21
1188.399031079017
 31
0.0
  0
LINE
  5
DC34
102
{ACAD_REACTORS
330
DCE5
102
}
330
2
100
AcDbEntity
  8
KIJUN
100
AcDbLine
 10
467.3250026135733
 20
1188.399031079017
 30
0.0
 11
467.2190846135731
 21
1188.511553079018
 31
0.0
  0
LINE
  5
DC35
102
{ACAD_REACTORS
330
DCE5
102
}
330
2
100
AcDbEntity
  8
KIJUN
100
AcDbLine
 10
467.2190846135731
 20
1188.511553079018
 30
0.0
 11
466.9412086135735
 21
1188.591563079017
 31
0.0
  0
LINE
  5
DC36
102
{ACAD_REACTORS
330
DCE5
102
}
330
2
100
AcDbEntity
  8
KIJUN
100
AcDbLine
 10
466.9412086135735
 20
1188.591563079017
 30
0.0
 11
466.5510646135735
 21
1188.622043079017
 31
0.0
  0
LINE
  5
DC37
102
{ACAD_REACTORS
330
DCE5
102
}
330
2
100
AcDbEntity
  8
KIJUN
100
AcDbLine
 10
267.2445096135734
 20
1198.002009079017
 30
0.0
 11
270.5145056135734
 21
1196.550526079017
 31
0.0
  0
LINE
  5
DC38
102
{ACAD_REACTORS
330
DCE5
102
}
330
2
100
AcDbEntity
  8
KIJUN
100
AcDbLine
 10
270.5145056135734
 20
1196.550526079017
 30
0.0
 11
274.0459946135734
 21
1193.164579079018
 31
0.0
  0
LINE
  5
DC39
102
{ACAD_REACTORS
330
DCE5
102
}
330
2
100
AcDbEntity
  8
KIJUN
100
AcDbLine
 10
274.0459946135734
 20
1193.164579079018
 30
0.0
 11
275.0924746135743
 21
1189.778505079018
 31
0.0
  0
LINE
  5
DC3A
102
{ACAD_REACTORS
330
DCE5
102
}
330
2
100
AcDbEntity
  8
KIJUN
100
AcDbLine
 10
275.0924746135743
 20
1189.778505079018
 30
0.0
 11
276.0612306135736
 21
1189.039746079017
 31
0.0
  0
LINE
  5
DC3B
102
{ACAD_REACTORS
330
DCE5
102
}
330
2
100
AcDbEntity
  8
KIJUN
100
AcDbLine
 10
276.0612306135736
 20
1189.039746079017
 30
0.0
 11
277.6112656135733
 21
1188.703958079017
 31
0.0
  0
LINE
  5
DC3C
102
{ACAD_REACTORS
330
DCE5
102
}
330
2
100
AcDbEntity
  8
KIJUN
100
AcDbLine
 10
277.6112656135733
 20
1188.703958079017
 30
0.0
 11
279.2780136135734
 21
1188.690496079017
 31
0.0
  0
LINE
  5
DC3D
102
{ACAD_REACTORS
330
DCE5
102
}
330
2
100
AcDbEntity
  8
KIJUN
100
AcDbLine
 10
279.2780136135734
 20
1188.690496079017
 30
0.0
 11
468.9424746135732
 21
1188.811527079017
 31
0.0
  0
LINE
  5
DC3E
102
{ACAD_REACTORS
330
DCE5
102
}
330
2
100
AcDbEntity
  8
KIJUN
100
AcDbLine
 10
468.9424746135732
 20
1188.811527079017
 30
0.0
 11
470.6430046135742
 21
1188.932050079017
 31
0.0
  0
LINE
  5
DC3F
102
{ACAD_REACTORS
330
DCE5
102
}
330
2
100
AcDbEntity
  8
KIJUN
100
AcDbLine
 10
470.6430046135742
 20
1188.932050079017
 30
0.0
 11
473.3799816135733
 21
1190.629659079017
 31
0.0
  0
LINE
  5
DC40
102
{ACAD_REACTORS
330
DCE5
102
}
330
2
100
AcDbEntity
  8
KIJUN
100
AcDbLine
 10
473.3799816135733
 20
1190.629659079017
 30
0.0
 11
475.2740596135732
 21
1192.676391079016
 31
0.0
  0
LINE
  5
DC41
102
{ACAD_REACTORS
330
DCE5
102
}
330
2
100
AcDbEntity
  8
KIJUN
100
AcDbLine
 10
475.2740596135732
 20
1192.676391079016
 30
0.0
 11
476.2669456135731
 21
1194.132065079017
 31
0.0
  0
LINE
  5
DC42
102
{ACAD_REACTORS
330
DCE5
102
}
330
2
100
AcDbEntity
  8
KIJUN
100
AcDbLine
 10
476.2669456135731
 20
1194.132065079017
 30
0.0
 11
477.8365386135742
 21
1195.825102079017
 31
0.0
  0
LINE
  5
DC43
102
{ACAD_REACTORS
330
DCE5
102
}
330
2
100
AcDbEntity
  8
KIJUN
100
AcDbLine
 10
477.8365386135742
 20
1195.825102079017
 30
0.0
 11
479.536941613574
 21
1197.396981079017
 31
0.0
  0
LINE
  5
DC44
102
{ACAD_REACTORS
330
DCE5
102
}
330
2
100
AcDbEntity
  8
KIJUN
100
AcDbLine
 10
479.536941613574
 20
1197.396981079017
 30
0.0
 11
482.8070646135743
 21
1198.002009079017
 31
0.0
  0
LINE
  5
DC45
102
{ACAD_REACTORS
330
DCE5
102
}
330
2
100
AcDbEntity
  8
KIJUN
100
AcDbLine
 10
482.8070646135743
 20
1198.002009079017
 30
0.0
 11
267.2445096135734
 21
1198.002009079017
 31
0.0
  0
LINE
  5
DC46
102
{ACAD_REACTORS
330
DCE5
102
}
330
2
100
AcDbEntity
  8
KIJUN
100
AcDbLine
 10
267.2707661135734
 20
1202.846043079016
 30
0.0
 11
481.7772541135741
 21
1202.846043079016
 31
0.0
  0
LINE
  5
DC47
102
{ACAD_REACTORS
330
DCE5
102
}
330
2
100
AcDbEntity
  8
KIJUN
100
AcDbLine
 10
481.7772541135741
 20
1202.846043079016
 30
0.0
 11
483.1609191135737
 21
1202.498063079017
 31
0.0
  0
LINE
  5
DC48
102
{ACAD_REACTORS
330
DCE5
102
}
330
2
100
AcDbEntity
  8
KIJUN
100
AcDbLine
 10
483.1609191135737
 20
1202.498063079017
 30
0.0
 11
484.1478361135748
 21
1201.585822079017
 31
0.0
  0
LINE
  5
DC49
102
{ACAD_REACTORS
330
DCE5
102
}
330
2
100
AcDbEntity
  8
KIJUN
100
AcDbLine
 10
484.1478361135748
 20
1201.585822079017
 30
0.0
 11
484.5242641135739
 21
1200.306551079017
 31
0.0
  0
LINE
  5
DC4A
102
{ACAD_REACTORS
330
DCE5
102
}
330
2
100
AcDbEntity
  8
KIJUN
100
AcDbLine
 10
484.5242641135739
 20
1200.306551079017
 30
0.0
 11
484.1478361135748
 21
1199.027280079017
 31
0.0
  0
LINE
  5
DC4B
102
{ACAD_REACTORS
330
DCE5
102
}
330
2
100
AcDbEntity
  8
KIJUN
100
AcDbLine
 10
484.1478361135748
 20
1199.027280079017
 30
0.0
 11
483.1609191135737
 21
1198.115039079017
 31
0.0
  0
LINE
  5
DC4C
102
{ACAD_REACTORS
330
DCE5
102
}
330
2
100
AcDbEntity
  8
KIJUN
100
AcDbLine
 10
483.1609191135737
 20
1198.115039079017
 30
0.0
 11
481.7772541135743
 21
1197.767059079017
 31
0.0
  0
LINE
  5
DC4D
102
{ACAD_REACTORS
330
DCE5
102
}
330
2
100
AcDbEntity
  8
KIJUN
100
AcDbLine
 10
481.7772541135743
 20
1197.767059079017
 30
0.0
 11
267.270766113574
 21
1197.767059079017
 31
0.0
  0
LINE
  5
DC4E
102
{ACAD_REACTORS
330
DCE5
102
}
330
2
100
AcDbEntity
  8
KIJUN
100
AcDbLine
 10
267.270766113574
 20
1197.767059079017
 30
0.0
 11
265.8873551135727
 21
1198.115039079017
 31
0.0
  0
LINE
  5
DC4F
102
{ACAD_REACTORS
330
DCE5
102
}
330
2
100
AcDbEntity
  8
KIJUN
100
AcDbLine
 10
265.8873551135727
 20
1198.115039079017
 30
0.0
 11
264.9006921135736
 21
1199.027280079017
 31
0.0
  0
LINE
  5
DC50
102
{ACAD_REACTORS
330
DCE5
102
}
330
2
100
AcDbEntity
  8
KIJUN
100
AcDbLine
 10
264.9006921135736
 20
1199.027280079017
 30
0.0
 11
264.524264113574
 21
1200.306551079017
 31
0.0
  0
LINE
  5
DC51
102
{ACAD_REACTORS
330
DCE5
102
}
330
2
100
AcDbEntity
  8
KIJUN
100
AcDbLine
 10
264.524264113574
 20
1200.306551079017
 30
0.0
 11
264.9006921135736
 21
1201.585822079017
 31
0.0
  0
LINE
  5
DC52
102
{ACAD_REACTORS
330
DCE5
102
}
330
2
100
AcDbEntity
  8
KIJUN
100
AcDbLine
 10
264.9006921135736
 20
1201.585822079017
 30
0.0
 11
265.8873551135727
 21
1202.498063079017
 31
0.0
  0
LINE
  5
DC53
102
{ACAD_REACTORS
330
DCE5
102
}
330
2
100
AcDbEntity
  8
KIJUN
100
AcDbLine
 10
265.8873551135727
 20
1202.498063079017
 30
0.0
 11
267.2707661135734
 21
1202.846043079016
 31
0.0
  0
LINE
  5
DC54
102
{ACAD_REACTORS
330
DCE5
102
}
330
2
100
AcDbEntity
  8
KIJUN
100
AcDbLine
 10
383.5909846135739
 20
1107.653652079016
 30
0.0
 11
382.8005366135744
 21
1107.636126079016
 31
0.0
  0
LINE
  5
DC55
102
{ACAD_REACTORS
330
DCE5
102
}
330
2
100
AcDbEntity
  8
KIJUN
100
AcDbLine
 10
382.8005366135744
 20
1107.636126079016
 30
0.0
 11
381.9652576135732
 21
1107.301100079015
 31
0.0
  0
LINE
  5
DC56
102
{ACAD_REACTORS
330
DCE5
102
}
330
2
100
AcDbEntity
  8
KIJUN
100
AcDbLine
 10
381.9652576135732
 20
1107.301100079015
 30
0.0
 11
381.3799146135734
 21
1106.457820079016
 31
0.0
  0
LINE
  5
DC57
102
{ACAD_REACTORS
330
DCE5
102
}
330
2
100
AcDbEntity
  8
KIJUN
100
AcDbLine
 10
381.3799146135734
 20
1106.457820079016
 30
0.0
 11
381.1709996135732
 21
1105.288658079015
 31
0.0
  0
LINE
  5
DC58
102
{ACAD_REACTORS
330
DCE5
102
}
330
2
100
AcDbEntity
  8
KIJUN
100
AcDbLine
 10
381.1709996135732
 20
1105.288658079015
 30
0.0
 11
385.2079486135744
 21
864.8400660790166
 31
0.0
  0
LINE
  5
DC59
102
{ACAD_REACTORS
330
DCE5
102
}
330
2
100
AcDbEntity
  8
KIJUN
100
AcDbLine
 10
385.2079486135744
 20
864.8400660790166
 30
0.0
 11
385.4561066135743
 21
863.6808100790169
 31
0.0
  0
LINE
  5
DC5A
102
{ACAD_REACTORS
330
DCE5
102
}
330
2
100
AcDbEntity
  8
KIJUN
100
AcDbLine
 10
385.4561066135743
 20
863.6808100790169
 30
0.0
 11
386.0692626135733
 21
862.8638190790169
 31
0.0
  0
LINE
  5
DC5B
102
{ACAD_REACTORS
330
DCE5
102
}
330
2
100
AcDbEntity
  8
KIJUN
100
AcDbLine
 10
386.0692626135733
 20
862.8638190790169
 30
0.0
 11
386.9149556135735
 21
862.5656230790164
 31
0.0
  0
LINE
  5
DC5C
102
{ACAD_REACTORS
330
DCE5
102
}
330
2
100
AcDbEntity
  8
KIJUN
100
AcDbLine
 10
386.9149556135735
 20
862.5656230790164
 30
0.0
 11
387.7050226135734
 21
862.5831490790169
 31
0.0
  0
LINE
  5
DC5D
102
{ACAD_REACTORS
330
DCE5
102
}
330
2
100
AcDbEntity
  8
KIJUN
100
AcDbLine
 10
387.7050226135734
 20
862.5831490790169
 30
0.0
 11
388.5403016135733
 21
862.9180480790166
 31
0.0
  0
LINE
  5
DC5E
102
{ACAD_REACTORS
330
DCE5
102
}
330
2
100
AcDbEntity
  8
KIJUN
100
AcDbLine
 10
388.5403016135733
 20
862.9180480790166
 30
0.0
 11
389.1256446135744
 21
863.7613280790164
 31
0.0
  0
LINE
  5
DC5F
102
{ACAD_REACTORS
330
DCE5
102
}
330
2
100
AcDbEntity
  8
KIJUN
100
AcDbLine
 10
389.1256446135744
 20
863.7613280790164
 30
0.0
 11
389.3345596135732
 21
864.9306170790167
 31
0.0
  0
LINE
  5
DC60
102
{ACAD_REACTORS
330
DCE5
102
}
330
2
100
AcDbEntity
  8
KIJUN
100
AcDbLine
 10
389.3345596135732
 20
864.9306170790167
 30
0.0
 11
385.2979916135741
 21
1105.379082079015
 31
0.0
  0
LINE
  5
DC61
102
{ACAD_REACTORS
330
DCE5
102
}
330
2
100
AcDbEntity
  8
KIJUN
100
AcDbLine
 10
385.2979916135741
 20
1105.379082079015
 30
0.0
 11
385.0498336135733
 21
1106.538338079016
 31
0.0
  0
LINE
  5
DC62
102
{ACAD_REACTORS
330
DCE5
102
}
330
2
100
AcDbEntity
  8
KIJUN
100
AcDbLine
 10
385.0498336135733
 20
1106.538338079016
 30
0.0
 11
384.4365506135732
 21
1107.355329079016
 31
0.0
  0
LINE
  5
DC63
102
{ACAD_REACTORS
330
DCE5
102
}
330
2
100
AcDbEntity
  8
KIJUN
100
AcDbLine
 10
384.4365506135732
 20
1107.355329079016
 30
0.0
 11
383.5909846135739
 21
1107.653652079016
 31
0.0
  0
LINE
  5
DC64
102
{ACAD_REACTORS
330
DCE5
102
}
330
2
100
AcDbEntity
  8
KIJUN
100
AcDbLine
 10
383.1444526135742
 20
1113.289150079016
 30
0.0
 11
383.0390426135741
 21
1113.286610079016
 31
0.0
  0
LINE
  5
DC65
102
{ACAD_REACTORS
330
DCE5
102
}
330
2
100
AcDbEntity
  8
KIJUN
100
AcDbLine
 10
383.0390426135741
 20
1113.286610079016
 30
0.0
 11
380.3884256135734
 21
1112.397356079016
 31
0.0
  0
LINE
  5
DC66
102
{ACAD_REACTORS
330
DCE5
102
}
330
2
100
AcDbEntity
  8
KIJUN
100
AcDbLine
 10
380.3884256135734
 20
1112.397356079016
 30
0.0
 11
378.5245736135744
 21
1110.177396079015
 31
0.0
  0
LINE
  5
DC67
102
{ACAD_REACTORS
330
DCE5
102
}
330
2
100
AcDbEntity
  8
KIJUN
100
AcDbLine
 10
378.5245736135744
 20
1110.177396079015
 30
0.0
 11
377.8509656135743
 21
1107.107552079016
 31
0.0
  0
LINE
  5
DC68
102
{ACAD_REACTORS
330
DCE5
102
}
330
2
100
AcDbEntity
  8
KIJUN
100
AcDbLine
 10
377.8509656135743
 20
1107.107552079016
 30
0.0
 11
381.9410006135745
 21
863.4970410790165
 31
0.0
  0
LINE
  5
DC69
102
{ACAD_REACTORS
330
DCE5
102
}
330
2
100
AcDbEntity
  8
KIJUN
100
AcDbLine
 10
381.9410006135745
 20
863.4970410790165
 30
0.0
 11
382.7170976135744
 21
860.4590740790165
 31
0.0
  0
LINE
  5
DC6A
102
{ACAD_REACTORS
330
DCE5
102
}
330
2
100
AcDbEntity
  8
KIJUN
100
AcDbLine
 10
382.7170976135744
 20
860.4590740790165
 30
0.0
 11
384.6541016135734
 21
858.3224260790165
 31
0.0
  0
LINE
  5
DC6B
102
{ACAD_REACTORS
330
DCE5
102
}
330
2
100
AcDbEntity
  8
KIJUN
100
AcDbLine
 10
384.6541016135734
 20
858.3224260790165
 30
0.0
 11
387.3325316135733
 21
857.5501390790169
 31
0.0
  0
LINE
  5
DC6C
102
{ACAD_REACTORS
330
DCE5
102
}
330
2
100
AcDbEntity
  8
KIJUN
100
AcDbLine
 10
387.3325316135733
 20
857.5501390790169
 30
0.0
 11
387.4379416135734
 21
857.5525520790167
 31
0.0
  0
LINE
  5
DC6D
102
{ACAD_REACTORS
330
DCE5
102
}
330
2
100
AcDbEntity
  8
KIJUN
100
AcDbLine
 10
387.4379416135734
 20
857.5525520790167
 30
0.0
 11
390.0884316135734
 21
858.4418060790168
 31
0.0
  0
LINE
  5
DC6E
102
{ACAD_REACTORS
330
DCE5
102
}
330
2
100
AcDbEntity
  8
KIJUN
100
AcDbLine
 10
390.0884316135734
 20
858.4418060790168
 30
0.0
 11
391.9520296135734
 21
860.6617660790172
 31
0.0
  0
LINE
  5
DC6F
102
{ACAD_REACTORS
330
DCE5
102
}
330
2
100
AcDbEntity
  8
KIJUN
100
AcDbLine
 10
391.9520296135734
 20
860.6617660790172
 30
0.0
 11
392.6255106135732
 21
863.7316100790169
 31
0.0
  0
LINE
  5
DC70
102
{ACAD_REACTORS
330
DCE5
102
}
330
2
100
AcDbEntity
  8
KIJUN
100
AcDbLine
 10
392.6255106135732
 20
863.7316100790169
 30
0.0
 11
388.5359836135744
 21
1107.342121079015
 31
0.0
  0
LINE
  5
DC71
102
{ACAD_REACTORS
330
DCE5
102
}
330
2
100
AcDbEntity
  8
KIJUN
100
AcDbLine
 10
388.5359836135744
 20
1107.342121079015
 30
0.0
 11
387.7598866135731
 21
1110.380088079015
 31
0.0
  0
LINE
  5
DC72
102
{ACAD_REACTORS
330
DCE5
102
}
330
2
100
AcDbEntity
  8
KIJUN
100
AcDbLine
 10
387.7598866135731
 20
1110.380088079015
 30
0.0
 11
385.8230096135744
 21
1112.516736079015
 31
0.0
  0
LINE
  5
DC73
102
{ACAD_REACTORS
330
DCE5
102
}
330
2
100
AcDbEntity
  8
KIJUN
100
AcDbLine
 10
385.8230096135744
 20
1112.516736079015
 30
0.0
 11
383.1444526135742
 21
1113.289150079016
 31
0.0
  0
LINE
  5
DC74
102
{ACAD_REACTORS
330
DCE5
102
}
330
2
100
AcDbEntity
  8
KIJUN
100
AcDbLine
 10
397.2569466135742
 20
1107.463660079015
 30
0.0
 11
396.4435116135742
 21
1107.416162079016
 31
0.0
  0
LINE
  5
DC75
102
{ACAD_REACTORS
330
DCE5
102
}
330
2
100
AcDbEntity
  8
KIJUN
100
AcDbLine
 10
396.4435116135742
 20
1107.416162079016
 30
0.0
 11
395.5929926135732
 21
1107.049640079017
 31
0.0
  0
LINE
  5
DC76
102
{ACAD_REACTORS
330
DCE5
102
}
330
2
100
AcDbEntity
  8
KIJUN
100
AcDbLine
 10
395.5929926135732
 20
1107.049640079017
 30
0.0
 11
395.0150156135732
 21
1106.184643079016
 31
0.0
  0
LINE
  5
DC77
102
{ACAD_REACTORS
330
DCE5
102
}
330
2
100
AcDbEntity
  8
KIJUN
100
AcDbLine
 10
395.0150156135732
 20
1106.184643079016
 30
0.0
 11
394.834548613574
 21
1105.008115079016
 31
0.0
  0
LINE
  5
DC78
102
{ACAD_REACTORS
330
DCE5
102
}
330
2
100
AcDbEntity
  8
KIJUN
100
AcDbLine
 10
394.834548613574
 20
1105.008115079016
 30
0.0
 11
406.1789506135742
 21
864.8381610790165
 31
0.0
  0
LINE
  5
DC79
102
{ACAD_REACTORS
330
DCE5
102
}
330
2
100
AcDbEntity
  8
KIJUN
100
AcDbLine
 10
406.1789506135742
 20
864.8381610790165
 30
0.0
 11
406.4692726135731
 21
863.6891920790167
 31
0.0
  0
LINE
  5
DC7A
102
{ACAD_REACTORS
330
DCE5
102
}
330
2
100
AcDbEntity
  8
KIJUN
100
AcDbLine
 10
406.4692726135731
 20
863.6891920790167
 30
0.0
 11
407.1256086135731
 21
862.895950079017
 31
0.0
  0
LINE
  5
DC7B
102
{ACAD_REACTORS
330
DCE5
102
}
330
2
100
AcDbEntity
  8
KIJUN
100
AcDbLine
 10
407.1256086135731
 20
862.895950079017
 30
0.0
 11
408.0059726135732
 21
862.6301390790167
 31
0.0
  0
LINE
  5
DC7C
102
{ACAD_REACTORS
330
DCE5
102
}
330
2
100
AcDbEntity
  8
KIJUN
100
AcDbLine
 10
408.0059726135732
 20
862.6301390790167
 30
0.0
 11
408.8195346135744
 21
862.6771290790165
 31
0.0
  0
LINE
  5
DC7D
102
{ACAD_REACTORS
330
DCE5
102
}
330
2
100
AcDbEntity
  8
KIJUN
100
AcDbLine
 10
408.8195346135744
 20
862.6771290790165
 30
0.0
 11
409.6701806135733
 21
863.0436510790168
 31
0.0
  0
LINE
  5
DC7E
102
{ACAD_REACTORS
330
DCE5
102
}
330
2
100
AcDbEntity
  8
KIJUN
100
AcDbLine
 10
409.6701806135733
 20
863.0436510790168
 30
0.0
 11
410.2481576135732
 21
863.9085210790161
 31
0.0
  0
LINE
  5
DC7F
102
{ACAD_REACTORS
330
DCE5
102
}
330
2
100
AcDbEntity
  8
KIJUN
100
AcDbLine
 10
410.2481576135732
 20
863.9085210790161
 30
0.0
 11
410.4284976135732
 21
865.0850490790162
 31
0.0
  0
LINE
  5
DC80
102
{ACAD_REACTORS
330
DCE5
102
}
330
2
100
AcDbEntity
  8
KIJUN
100
AcDbLine
 10
410.4284976135732
 20
865.0850490790162
 30
0.0
 11
399.0839686135732
 21
1105.255130079016
 31
0.0
  0
LINE
  5
DC81
102
{ACAD_REACTORS
330
DCE5
102
}
330
2
100
AcDbEntity
  8
KIJUN
100
AcDbLine
 10
399.0839686135732
 20
1105.255130079016
 30
0.0
 11
398.7936466135734
 21
1106.403972079016
 31
0.0
  0
LINE
  5
DC82
102
{ACAD_REACTORS
330
DCE5
102
}
330
2
100
AcDbEntity
  8
KIJUN
100
AcDbLine
 10
398.7936466135734
 20
1106.403972079016
 30
0.0
 11
398.1373106135743
 21
1107.197341079016
 31
0.0
  0
LINE
  5
DC83
102
{ACAD_REACTORS
330
DCE5
102
}
330
2
100
AcDbEntity
  8
KIJUN
100
AcDbLine
 10
398.1373106135743
 20
1107.197341079016
 30
0.0
 11
397.2569466135742
 21
1107.463660079015
 31
0.0
  0
LINE
  5
DC84
102
{ACAD_REACTORS
330
DCE5
102
}
330
2
100
AcDbEntity
  8
KIJUN
100
AcDbLine
 10
363.4320206135735
 20
1107.653652079016
 30
0.0
 11
364.2224686135733
 21
1107.636126079016
 31
0.0
  0
LINE
  5
DC85
102
{ACAD_REACTORS
330
DCE5
102
}
330
2
100
AcDbEntity
  8
KIJUN
100
AcDbLine
 10
364.2224686135733
 20
1107.636126079016
 30
0.0
 11
365.0577476135729
 21
1107.301100079015
 31
0.0
  0
LINE
  5
DC86
102
{ACAD_REACTORS
330
DCE5
102
}
330
2
100
AcDbEntity
  8
KIJUN
100
AcDbLine
 10
365.0577476135729
 20
1107.301100079015
 30
0.0
 11
365.6430906135733
 21
1106.457820079016
 31
0.0
  0
LINE
  5
DC87
102
{ACAD_REACTORS
330
DCE5
102
}
330
2
100
AcDbEntity
  8
KIJUN
100
AcDbLine
 10
365.6430906135733
 20
1106.457820079016
 30
0.0
 11
365.8520056135744
 21
1105.288658079015
 31
0.0
  0
LINE
  5
DC88
102
{ACAD_REACTORS
330
DCE5
102
}
330
2
100
AcDbEntity
  8
KIJUN
100
AcDbLine
 10
365.8520056135744
 20
1105.288658079015
 30
0.0
 11
361.8150566135739
 21
864.8400660790166
 31
0.0
  0
LINE
  5
DC89
102
{ACAD_REACTORS
330
DCE5
102
}
330
2
100
AcDbEntity
  8
KIJUN
100
AcDbLine
 10
361.8150566135739
 20
864.8400660790166
 30
0.0
 11
361.5668986135734
 21
863.6808100790169
 31
0.0
  0
LINE
  5
DC8A
102
{ACAD_REACTORS
330
DCE5
102
}
330
2
100
AcDbEntity
  8
KIJUN
100
AcDbLine
 10
361.5668986135734
 20
863.6808100790169
 30
0.0
 11
360.9537426135744
 21
862.8638190790169
 31
0.0
  0
LINE
  5
DC8B
102
{ACAD_REACTORS
330
DCE5
102
}
330
2
100
AcDbEntity
  8
KIJUN
100
AcDbLine
 10
360.9537426135744
 20
862.8638190790169
 30
0.0
 11
360.1080496135733
 21
862.5656230790164
 31
0.0
  0
LINE
  5
DC8C
102
{ACAD_REACTORS
330
DCE5
102
}
330
2
100
AcDbEntity
  8
KIJUN
100
AcDbLine
 10
360.1080496135733
 20
862.5656230790164
 30
0.0
 11
359.3179826135743
 21
862.5831490790169
 31
0.0
  0
LINE
  5
DC8D
102
{ACAD_REACTORS
330
DCE5
102
}
330
2
100
AcDbEntity
  8
KIJUN
100
AcDbLine
 10
359.3179826135743
 20
862.5831490790169
 30
0.0
 11
358.4827036135743
 21
862.9180480790166
 31
0.0
  0
LINE
  5
DC8E
102
{ACAD_REACTORS
330
DCE5
102
}
330
2
100
AcDbEntity
  8
KIJUN
100
AcDbLine
 10
358.4827036135743
 20
862.9180480790166
 30
0.0
 11
357.8973606135733
 21
863.7613280790164
 31
0.0
  0
LINE
  5
DC8F
102
{ACAD_REACTORS
330
DCE5
102
}
330
2
100
AcDbEntity
  8
KIJUN
100
AcDbLine
 10
357.8973606135733
 20
863.7613280790164
 30
0.0
 11
357.6884456135742
 21
864.9306170790167
 31
0.0
  0
LINE
  5
DC90
102
{ACAD_REACTORS
330
DCE5
102
}
330
2
100
AcDbEntity
  8
KIJUN
100
AcDbLine
 10
357.6884456135742
 20
864.9306170790167
 30
0.0
 11
361.7250136135742
 21
1105.379082079015
 31
0.0
  0
LINE
  5
DC91
102
{ACAD_REACTORS
330
DCE5
102
}
330
2
100
AcDbEntity
  8
KIJUN
100
AcDbLine
 10
361.7250136135742
 20
1105.379082079015
 30
0.0
 11
361.9731716135743
 21
1106.538338079016
 31
0.0
  0
LINE
  5
DC92
102
{ACAD_REACTORS
330
DCE5
102
}
330
2
100
AcDbEntity
  8
KIJUN
100
AcDbLine
 10
361.9731716135743
 20
1106.538338079016
 30
0.0
 11
362.5864546135736
 21
1107.355329079016
 31
0.0
  0
LINE
  5
DC93
102
{ACAD_REACTORS
330
DCE5
102
}
330
2
100
AcDbEntity
  8
KIJUN
100
AcDbLine
 10
362.5864546135736
 20
1107.355329079016
 30
0.0
 11
363.4320206135735
 21
1107.653652079016
 31
0.0
  0
LINE
  5
DC94
102
{ACAD_REACTORS
330
DCE5
102
}
330
2
100
AcDbEntity
  8
KIJUN
100
AcDbLine
 10
363.8785526135744
 20
1113.289150079016
 30
0.0
 11
363.9839626135735
 21
1113.286610079016
 31
0.0
  0
LINE
  5
DC95
102
{ACAD_REACTORS
330
DCE5
102
}
330
2
100
AcDbEntity
  8
KIJUN
100
AcDbLine
 10
363.9839626135735
 20
1113.286610079016
 30
0.0
 11
366.6345796135743
 21
1112.397356079016
 31
0.0
  0
LINE
  5
DC96
102
{ACAD_REACTORS
330
DCE5
102
}
330
2
100
AcDbEntity
  8
KIJUN
100
AcDbLine
 10
366.6345796135743
 20
1112.397356079016
 30
0.0
 11
368.4984316135733
 21
1110.177396079015
 31
0.0
  0
LINE
  5
DC97
102
{ACAD_REACTORS
330
DCE5
102
}
330
2
100
AcDbEntity
  8
KIJUN
100
AcDbLine
 10
368.4984316135733
 20
1110.177396079015
 30
0.0
 11
369.1720396135734
 21
1107.107552079016
 31
0.0
  0
LINE
  5
DC98
102
{ACAD_REACTORS
330
DCE5
102
}
330
2
100
AcDbEntity
  8
KIJUN
100
AcDbLine
 10
369.1720396135734
 20
1107.107552079016
 30
0.0
 11
365.0820046135732
 21
863.4970410790165
 31
0.0
  0
LINE
  5
DC99
102
{ACAD_REACTORS
330
DCE5
102
}
330
2
100
AcDbEntity
  8
KIJUN
100
AcDbLine
 10
365.0820046135732
 20
863.4970410790165
 30
0.0
 11
364.3059076135732
 21
860.4590740790165
 31
0.0
  0
LINE
  5
DC9A
102
{ACAD_REACTORS
330
DCE5
102
}
330
2
100
AcDbEntity
  8
KIJUN
100
AcDbLine
 10
364.3059076135732
 20
860.4590740790165
 30
0.0
 11
362.3689036135743
 21
858.3224260790165
 31
0.0
  0
LINE
  5
DC9B
102
{ACAD_REACTORS
330
DCE5
102
}
330
2
100
AcDbEntity
  8
KIJUN
100
AcDbLine
 10
362.3689036135743
 20
858.3224260790165
 30
0.0
 11
359.6904736135743
 21
857.5501390790169
 31
0.0
  0
LINE
  5
DC9C
102
{ACAD_REACTORS
330
DCE5
102
}
330
2
100
AcDbEntity
  8
KIJUN
100
AcDbLine
 10
359.6904736135743
 20
857.5501390790169
 30
0.0
 11
359.5850636135733
 21
857.5525520790167
 31
0.0
  0
LINE
  5
DC9D
102
{ACAD_REACTORS
330
DCE5
102
}
330
2
100
AcDbEntity
  8
KIJUN
100
AcDbLine
 10
359.5850636135733
 20
857.5525520790167
 30
0.0
 11
356.9345736135742
 21
858.4418060790168
 31
0.0
  0
LINE
  5
DC9E
102
{ACAD_REACTORS
330
DCE5
102
}
330
2
100
AcDbEntity
  8
KIJUN
100
AcDbLine
 10
356.9345736135742
 20
858.4418060790168
 30
0.0
 11
355.0709756135743
 21
860.6617660790172
 31
0.0
  0
LINE
  5
DC9F
102
{ACAD_REACTORS
330
DCE5
102
}
330
2
100
AcDbEntity
  8
KIJUN
100
AcDbLine
 10
355.0709756135743
 20
860.6617660790172
 30
0.0
 11
354.3974946135731
 21
863.7316100790169
 31
0.0
  0
LINE
  5
DCA0
102
{ACAD_REACTORS
330
DCE5
102
}
330
2
100
AcDbEntity
  8
KIJUN
100
AcDbLine
 10
354.3974946135731
 20
863.7316100790169
 30
0.0
 11
358.4870216135732
 21
1107.342121079015
 31
0.0
  0
LINE
  5
DCA1
102
{ACAD_REACTORS
330
DCE5
102
}
330
2
100
AcDbEntity
  8
KIJUN
100
AcDbLine
 10
358.4870216135732
 20
1107.342121079015
 30
0.0
 11
359.2631186135732
 21
1110.380088079015
 31
0.0
  0
LINE
  5
DCA2
102
{ACAD_REACTORS
330
DCE5
102
}
330
2
100
AcDbEntity
  8
KIJUN
100
AcDbLine
 10
359.2631186135732
 20
1110.380088079015
 30
0.0
 11
361.1999956135733
 21
1112.516736079015
 31
0.0
  0
LINE
  5
DCA3
102
{ACAD_REACTORS
330
DCE5
102
}
330
2
100
AcDbEntity
  8
KIJUN
100
AcDbLine
 10
361.1999956135733
 20
1112.516736079015
 30
0.0
 11
363.8785526135744
 21
1113.289150079016
 31
0.0
  0
LINE
  5
DCA4
102
{ACAD_REACTORS
330
DCE5
102
}
330
2
100
AcDbEntity
  8
KIJUN
100
AcDbLine
 10
396.5764806135744
 20
1113.215617079016
 30
0.0
 11
396.4675146135732
 21
1113.209648079016
 31
0.0
  0
LINE
  5
DCA5
102
{ACAD_REACTORS
330
DCE5
102
}
330
2
100
AcDbEntity
  8
KIJUN
100
AcDbLine
 10
396.4675146135732
 20
1113.209648079016
 30
0.0
 11
393.7633036135744
 21
1112.220318079015
 31
0.0
  0
LINE
  5
DCA6
102
{ACAD_REACTORS
330
DCE5
102
}
330
2
100
AcDbEntity
  8
KIJUN
100
AcDbLine
 10
393.7633036135744
 20
1112.220318079015
 30
0.0
 11
391.9092306135735
 21
1109.931016079016
 31
0.0
  0
LINE
  5
DCA7
102
{ACAD_REACTORS
330
DCE5
102
}
330
2
100
AcDbEntity
  8
KIJUN
100
AcDbLine
 10
391.9092306135735
 20
1109.931016079016
 30
0.0
 11
391.3069966135736
 21
1106.837042079016
 31
0.0
  0
LINE
  5
DCA8
102
{ACAD_REACTORS
330
DCE5
102
}
330
2
100
AcDbEntity
  8
KIJUN
100
AcDbLine
 10
391.3069966135736
 20
1106.837042079016
 30
0.0
 11
402.8004966135731
 21
863.5091060790164
 31
0.0
  0
LINE
  5
DCA9
102
{ACAD_REACTORS
330
DCE5
102
}
330
2
100
AcDbEntity
  8
KIJUN
100
AcDbLine
 10
402.8004966135731
 20
863.5091060790164
 30
0.0
 11
403.6910206135734
 21
860.5022540790168
 31
0.0
  0
LINE
  5
DCAA
102
{ACAD_REACTORS
330
DCE5
102
}
330
2
100
AcDbEntity
  8
KIJUN
100
AcDbLine
 10
403.6910206135734
 20
860.5022540790168
 30
0.0
 11
405.7505796135742
 21
858.440155079017
 31
0.0
  0
LINE
  5
DCAB
102
{ACAD_REACTORS
330
DCE5
102
}
330
2
100
AcDbEntity
  8
KIJUN
100
AcDbLine
 10
405.7505796135742
 20
858.440155079017
 30
0.0
 11
408.5335306135744
 21
857.7695950790168
 31
0.0
  0
LINE
  5
DCAC
102
{ACAD_REACTORS
330
DCE5
102
}
330
2
100
AcDbEntity
  8
KIJUN
100
AcDbLine
 10
408.5335306135744
 20
857.7695950790168
 30
0.0
 11
408.6419886135741
 21
857.7760720790164
 31
0.0
  0
LINE
  5
DCAD
102
{ACAD_REACTORS
330
DCE5
102
}
330
2
100
AcDbEntity
  8
KIJUN
100
AcDbLine
 10
408.6419886135741
 20
857.7760720790164
 30
0.0
 11
411.3464536135734
 21
858.7652750790166
 31
0.0
  0
LINE
  5
DCAE
102
{ACAD_REACTORS
330
DCE5
102
}
330
2
100
AcDbEntity
  8
KIJUN
100
AcDbLine
 10
411.3464536135734
 20
858.7652750790166
 30
0.0
 11
413.2003996135731
 21
861.0545770790167
 31
0.0
  0
LINE
  5
DCAF
102
{ACAD_REACTORS
330
DCE5
102
}
330
2
100
AcDbEntity
  8
KIJUN
100
AcDbLine
 10
413.2003996135731
 20
861.0545770790167
 30
0.0
 11
413.8025066135733
 21
864.1480430790167
 31
0.0
  0
LINE
  5
DCB0
102
{ACAD_REACTORS
330
DCE5
102
}
330
2
100
AcDbEntity
  8
KIJUN
100
AcDbLine
 10
413.8025066135733
 20
864.1480430790167
 30
0.0
 11
402.3090066135742
 21
1107.476106079016
 31
0.0
  0
LINE
  5
DCB1
102
{ACAD_REACTORS
330
DCE5
102
}
330
2
100
AcDbEntity
  8
KIJUN
100
AcDbLine
 10
402.3090066135742
 20
1107.476106079016
 30
0.0
 11
401.4184826135733
 21
1110.483212079016
 31
0.0
  0
LINE
  5
DCB2
102
{ACAD_REACTORS
330
DCE5
102
}
330
2
100
AcDbEntity
  8
KIJUN
100
AcDbLine
 10
401.4184826135733
 20
1110.483212079016
 30
0.0
 11
399.3590506135733
 21
1112.545184079016
 31
0.0
  0
LINE
  5
DCB3
102
{ACAD_REACTORS
330
DCE5
102
}
330
2
100
AcDbEntity
  8
KIJUN
100
AcDbLine
 10
399.3590506135733
 20
1112.545184079016
 30
0.0
 11
396.5764806135744
 21
1113.215617079016
 31
0.0
  0
LINE
  5
DCB4
102
{ACAD_REACTORS
330
DCE5
102
}
330
2
100
AcDbEntity
  8
KIJUN
  6
CENTER
100
AcDbLine
 10
374.524264113574
 20
332.5810180284857
 30
0.0
 11
374.524264113574
 21
1249.51712364251
 31
0.0
  0
LINE
  5
DCB9
102
{ACAD_REACTORS
330
DCE5
102
}
330
2
100
AcDbEntity
  8
KIJUN
100
AcDbLine
 10
224.524264113574
 20
378.6951150790164
 30
0.0
 11
224.524264113574
 21
393.5691010790168
 31
0.0
  0
LINE
  5
DCBA
102
{ACAD_REACTORS
330
DCE5
102
}
330
2
100
AcDbEntity
  8
KIJUN
100
AcDbLine
 10
524.5242641135741
 20
378.6951150790164
 30
0.0
 11
524.5242641135739
 21
393.5691010790169
 31
0.0
  0
LINE
  5
DCBB
102
{ACAD_REACTORS
330
DCE5
102
}
330
2
100
AcDbEntity
  8
KIJUN
100
AcDbLine
 10
520.8287436135742
 20
352.8460430790165
 30
0.0
 11
485.3827896135745
 21
352.8460430790165
 31
0.0
  0
LINE
  5
DCBC
102
{ACAD_REACTORS
330
DCE5
102
}
330
2
100
AcDbEntity
  8
KIJUN
100
AcDbLine
 10
268.0237436135737
 20
352.8460430790165
 30
0.0
 11
232.577789613574
 21
352.8460430790165
 31
0.0
  0
DIMENSION
  5
DCBE
330
2
100
AcDbEntity
  8
SUNPOU
100
AcDbDimension
  2
*D31
 10
484.5242641135739
 20
1319.670091735336
 30
0.0
 11
374.524264113574
 21
1339.670091735336
 31
0.0
 70
    32
 71
     5
 42
220.0
  3
STANDARD$0
100
AcDbAlignedDimension
 13
264.524264113574
 23
1200.306551079017
 33
0.0
 14
484.5242641135739
 24
1200.306551079017
 34
0.0
100
AcDbRotatedDimension
1001
ACAD
1000
DSTYLE
1002
{
1070
    41
1040
3.0
1070
    42
1040
3.0
1070
    44
1040
0.0
1070
    77
1070
     1
1070
   140
1040
10.0
1070
   146
1040
0.064286
1070
   147
1040
5.0
1070
   176
1070
    60
1070
   177
1070
    70
1070
   178
1070
    60
1070
   271
1070
     0
1070
   272
1070
     0
1070
   340
1005
1C
1070
   342
1005
109
1002
}
  0
DIMENSION
  5
DCCB
330
2
100
AcDbEntity
  8
SUNPOU
100
AcDbDimension
  2
*D32
 10
524.5242641135741
 20
231.613569709712
 30
0.0
 11
374.524264113574
 21
251.613569709712
 31
0.0
 70
    32
 71
     5
 42
300.0000000000001
  3
STANDARD$0
100
AcDbAlignedDimension
 13
224.524264113574
 23
378.6951150790164
 33
0.0
 14
524.5242641135741
 24
378.6951150790164
 34
0.0
100
AcDbRotatedDimension
1001
ACAD
1000
DSTYLE
1002
{
1070
    41
1040
3.0
1070
    42
1040
3.0
1070
    44
1040
0.0
1070
    77
1070
     1
1070
   140
1040
10.0
1070
   146
1040
0.064286
1070
   147
1040
5.0
1070
   176
1070
    60
1070
   177
1070
    70
1070
   178
1070
    60
1070
   271
1070
     0
1070
   272
1070
     0
1070
   340
1005
1C
1070
   342
1005
109
1002
}
  0
DIMENSION
  5
DCD8
330
2
100
AcDbEntity
  8
SUNPOU
100
AcDbDimension
  2
*D33
 10
52.11762471494957
 20
352.8460430790165
 30
0.0
 11
32.11762471494953
 21
777.8460430790164
 31
0.0
 70
    32
 71
     5
 42
850.0
  3
STANDARD$0
100
AcDbAlignedDimension
 13
267.2707661135734
 23
1202.846043079016
 33
0.0
 14
232.577789613574
 24
352.8460430790165
 34
0.0
 50
90.0
100
AcDbRotatedDimension
1001
ACAD
1000
DSTYLE
1002
{
1070
    41
1040
3.0
1070
    42
1040
3.0
1070
    44
1040
0.0
1070
    77
1070
     1
1070
   140
1040
10.0
1070
   146
1040
0.064286
1070
   147
1040
5.0
1070
   176
1070
    60
1070
   177
1070
    70
1070
   178
1070
    60
1070
   271
1070
     0
1070
   272
1070
     0
1070
   340
1005
1C
1070
   342
1005
109
1002
}
  0
TEXT
  5
DCF9
330
2
100
AcDbEntity
  8
HOJO
100
AcDbText
 10
8.679612310957907
 20
-36.48885107259355
 30
0.0
 40
20.0
  1
※ 形状・寸法は製品特性や、生産ロットにより誤差があるものがあります。
  7
SUNPOU
100
AcDbText
  0
ENDSEC
  0
SECTION
  2
OBJECTS
  0
DICTIONARY
  5
1A
330
0
100
AcDbDictionary
281
     1
  3
ACAD_COLOR
350
DCE9
  3
ACAD_GROUP
350
18
  3
ACAD_LAYOUT
350
58
  3
ACAD_MATERIAL
350
DCE8
  3
ACAD_MLINESTYLE
350
19
  3
ACAD_PLOTSETTINGS
350
59
  3
ACAD_PLOTSTYLENAME
350
56
  3
ACAD_TABLESTYLE
350
DCEA
  3
ACDBHEADERROUNDTRIPXREC
350
DD09
  3
AcDbVariableDictionary
350
DD04
  0
DICTIONARY
  5
DCE9
102
{ACAD_REACTORS
330
1A
102
}
330
1A
100
AcDbDictionary
281
     1
  0
DICTIONARY
  5
18
102
{ACAD_REACTORS
330
1A
102
}
330
1A
100
AcDbDictionary
281
     1
  3
*A1
350
3A0
  3
*A10
350
A3E9
  3
*A11
350
A3EA
  3
*A12
350
3A1
  3
*A13
350
ADDD
  3
*A14
350
B1BA
  3
*A15
350
B550
  3
*A16
350
2FC7
  3
*A17
350
B90B
  3
*A18
350
46A2
  3
*A19
350
38D5
  3
*A2
350
A9E7
  3
*A20
350
46AB
  3
*A21
350
4FAD
  3
*A22
350
4FAE
  3
*A23
350
ACC
  3
*A24
350
38D6
  3
*A25
350
CF53
  3
*A26
350
D7C5
  3
*A27
350
DCE5
  3
*A28
350
5DF8
  3
*A29
350
2120
  3
*A3
350
A9E8
  3
*A30
350
2765
  3
*A31
350
2766
  3
*A32
350
54B2
  3
*A33
350
595A
  3
*A4
350
6398
  3
*A5
350
795A
  3
*A6
350
2FC6
  3
*A7
350
795C
  3
*A8
350
8936
  3
*A9
350
8937
  0
DICTIONARY
  5
58
102
{ACAD_REACTORS
330
1A
102
}
330
1A
100
AcDbDictionary
281
     1
  3
Model
350
5A
  3
ﾚｲｱｳﾄ1
350
5B
  0
DICTIONARY
  5
DCE8
102
{ACAD_REACTORS
330
1A
102
}
330
1A
100
AcDbDictionary
281
     1
  0
DICTIONARY
  5
19
102
{ACAD_REACTORS
330
1A
102
}
330
1A
100
AcDbDictionary
281
     1
  3
STANDARD
350
1D
  0
DICTIONARY
  5
59
102
{ACAD_REACTORS
330
1A
102
}
330
1A
100
AcDbDictionary
281
     1
  0
ACDBDICTIONARYWDFLT
  5
56
102
{ACAD_REACTORS
330
1A
102
}
330
1A
100
AcDbDictionary
281
     1
  3
Normal
350
57
100
AcDbDictionaryWithDefault
340
57
  0
DICTIONARY
  5
DCEA
102
{ACAD_REACTORS
330
1A
102
}
330
1A
100
AcDbDictionary
281
     1
  3
Standard
350
DCEB
  0
DICTIONARY
  5
DD09
102
{ACAD_REACTORS
330
1A
102
}
330
1A
100
AcDbDictionary
281
     1
  0
DICTIONARY
  5
DD04
102
{ACAD_REACTORS
330
1A
102
}
330
1A
100
AcDbDictionary
281
     1
  3
CTABLESTYLE
350
DD05
  3
DIMASSOC
350
DD06
  3
PROJECTNAME
350
DD07
  0
GROUP
  5
3A0
102
{ACAD_REACTORS
330
18
102
}
330
18
100
AcDbGroup
300

 70
     1
 71
     1
  0
GROUP
  5
A3E9
102
{ACAD_REACTORS
330
18
102
}
330
18
100
AcDbGroup
300

 70
     1
 71
     1
  0
GROUP
  5
A3EA
102
{ACAD_REACTORS
330
18
102
}
330
18
100
AcDbGroup
300

 70
     1
 71
     1
  0
GROUP
  5
3A1
102
{ACAD_REACTORS
330
18
102
}
330
18
100
AcDbGroup
300

 70
     1
 71
     1
  0
GROUP
  5
ADDD
102
{ACAD_REACTORS
330
18
102
}
330
18
100
AcDbGroup
300

 70
     1
 71
     1
  0
GROUP
  5
B1BA
102
{ACAD_REACTORS
330
18
102
}
330
18
100
AcDbGroup
300

 70
     1
 71
     1
  0
GROUP
  5
B550
102
{ACAD_REACTORS
330
18
102
}
330
18
100
AcDbGroup
300

 70
     1
 71
     1
  0
GROUP
  5
2FC7
102
{ACAD_REACTORS
330
18
102
}
330
18
100
AcDbGroup
300

 70
     1
 71
     1
  0
GROUP
  5
B90B
102
{ACAD_REACTORS
330
18
102
}
330
18
100
AcDbGroup
300

 70
     1
 71
     1
  0
GROUP
  5
46A2
102
{ACAD_REACTORS
330
18
102
}
330
18
100
AcDbGroup
300

 70
     1
 71
     1
  0
GROUP
  5
38D5
102
{ACAD_REACTORS
330
18
102
}
330
18
100
AcDbGroup
300

 70
     1
 71
     1
  0
GROUP
  5
A9E7
102
{ACAD_REACTORS
330
18
102
}
330
18
100
AcDbGroup
300

 70
     1
 71
     1
  0
GROUP
  5
46AB
102
{ACAD_REACTORS
330
18
102
}
330
18
100
AcDbGroup
300

 70
     1
 71
     1
  0
GROUP
  5
4FAD
102
{ACAD_REACTORS
330
18
102
}
330
18
100
AcDbGroup
300

 70
     1
 71
     1
  0
GROUP
  5
4FAE
102
{ACAD_REACTORS
330
18
102
}
330
18
100
AcDbGroup
300

 70
     1
 71
     1
  0
GROUP
  5
ACC
102
{ACAD_REACTORS
330
18
102
}
330
18
100
AcDbGroup
300

 70
     1
 71
     1
  0
GROUP
  5
38D6
102
{ACAD_REACTORS
330
18
102
}
330
18
100
AcDbGroup
300

 70
     1
 71
     1
  0
GROUP
  5
CF53
102
{ACAD_REACTORS
330
18
102
}
330
18
100
AcDbGroup
300

 70
     1
 71
     1
  0
GROUP
  5
D7C5
102
{ACAD_REACTORS
330
18
102
}
330
18
100
AcDbGroup
300

 70
     1
 71
     1
  0
GROUP
  5
DCE5
102
{ACAD_REACTORS
330
18
102
}
330
18
100
AcDbGroup
300

 70
     1
 71
     1
340
DCB4
340
D8DD
340
D8D5
340
D9D7
340
D9D5
340
DA70
340
DA1B
340
D9D1
340
D9D3
340
D9E7
340
DA3F
340
D95D
340
D95B
340
D953
340
D94B
340
D943
340
D92F
340
D92B
340
D929
340
D920
340
D90B
340
D901
340
D8F9
340
D8F7
340
D8F5
340
D8F3
340
D8F1
340
D8F0
340
D8EA
340
D8D9
340
D9C9
340
D9C1
340
D9B9
340
D9B1
340
D9B0
340
D9A5
340
D995
340
D980
340
D97A
340
D973
340
D9A3
340
DA2D
340
DCBC
340
DAAB
340
DA26
340
DA8C
340
DA93
340
DAA2
340
DAB1
340
DA9A
340
DA2A
340
DAA9
340
DA87
340
DA99
340
DA88
340
DA89
340
DA8A
340
DA8B
340
DA94
340
DA95
340
DA96
340
DA97
340
DA98
340
DCB9
340
DA2B
340
DA2C
340
DA85
340
DA86
340
DAA3
340
DAA4
340
DAA5
340
DAA6
340
DAA7
340
DAA8
340
DA28
340
DAAA
340
DA29
340
DA27
340
DA20
340
DA90
340
DA9C
340
DA8D
340
DA8E
340
DA8F
340
DA9D
340
DA9E
340
DA9F
340
DAA0
340
DAA1
340
DA24
340
DA25
340
DA91
340
DA92
340
DAAC
340
DAAD
340
DAAE
340
DAAF
340
DAB0
340
DA21
340
DA22
340
DA23
340
DA1D
340
DA1F
340
DA1E
340
DA1C
340
D9DD
340
DA35
340
DA7B
340
D9CF
340
D9CB
340
D9DA
340
DA32
340
DA7D
340
D9D4
340
D9D9
340
DA2E
340
DA2F
340
DA30
340
DA31
340
DA7E
340
DA7F
340
DA80
340
DA81
340
DA82
340
DA83
340
DA84
340
D9DB
340
DA33
340
DA7C
340
D9DC
340
DA34
340
D9CE
340
D9CD
340
D9CC
340
D9E3
340
DA3B
340
DA75
340
D959
340
D955
340
D957
340
D9DF
340
DA37
340
DA78
340
DA7A
340
D9DE
340
DA36
340
DA79
340
D9D0
340
D9CA
340
D9E0
340
D9E1
340
DA38
340
DA39
340
DA76
340
DA77
340
D9E2
340
DA3A
340
D956
340
D958
340
D9E5
340
DA3D
340
DA72
340
DA74
340
D9E4
340
DA3C
340
DA73
340
D954
340
D9E6
340
DA3E
340
DA71
340
D978
340
D975
340
D95E
340
D95A
340
D977
340
D976
340
D979
340
D974
340
D996
340
D8EF
340
D8EE
340
D8ED
340
D8EC
340
D8EB
340
D997
340
D97E
340
D9A4
340
D99A
340
D999
340
D998
340
D97F
340
DACC
340
DAC4
340
DABC
340
DAB5
340
D9BD
340
D9BA
340
D9BC
340
D9BB
340
D9A2
340
D9A1
340
D9A0
340
D99F
340
D99E
340
D99D
340
D99C
340
D99B
340
DACA
340
DACB
340
DAC9
340
DAC8
340
DAC7
340
DAC6
340
DAC5
340
DABB
340
DABA
340
DAB9
340
DAB8
340
DAB7
340
DAB6
340
D906
340
D9BF
340
DACE
340
DACD
340
D9BE
340
DACF
340
DAC3
340
DAC2
340
DAC1
340
DAC0
340
DABF
340
DABE
340
DABD
340
DAB4
340
DAB3
340
DAB2
340
D94A
340
D92D
340
D9C0
340
D905
340
D904
340
D903
340
D902
340
D8F4
340
D949
340
D948
340
D947
340
D946
340
D945
340
D944
340
D92E
340
D927
340
D923
340
D922
340
D909
340
D92C
340
D928
340
D908
340
D907
340
D8F8
340
D8DC
340
D8DB
340
D8DA
340
D926
340
D925
340
D924
340
D921
340
D90A
340
D9A7
340
DCBB
340
DA5B
340
D9FB
340
DA07
340
DA52
340
DAD7
340
DADE
340
DAED
340
DAF5
340
DAFC
340
DA11
340
DA16
340
DA19
340
DA1A
340
DA17
340
DA18
340
DA13
340
DA15
340
DA14
340
DA12
340
DA0B
340
DA0C
340
DA0D
340
DA0F
340
DA10
340
DA0E
340
DAD2
340
DAE4
340
DAE3
340
DAD3
340
DAD4
340
DAD5
340
DAD6
340
DADF
340
DAE0
340
DAE1
340
DAE2
340
DAE5
340
DAF3
340
DA09
340
DAF2
340
DA0A
340
DAD0
340
DAD1
340
DAEE
340
DAEF
340
DAF0
340
DAF1
340
DA08
340
DAF4
340
D9F1
340
DA48
340
DA66
340
D98D
340
D988
340
D96C
340
D969
340
D968
340
D9EC
340
DA43
340
DA6B
340
D970
340
D9E9
340
DA41
340
DA6E
340
D9E8
340
DA40
340
DA6F
340
D9EA
340
D9EB
340
DA42
340
DA6C
340
DA6D
340
D972
340
D971
340
D9EF
340
DA46
340
DA68
340
D9ED
340
DA44
340
DA6A
340
D9EE
340
DA45
340
DA69
340
D9F0
340
DA47
340
DA67
340
D96E
340
D96F
340
D96D
340
D962
340
D8E9
340
D8E1
340
D991
340
D984
340
D960
340
D993
340
D95F
340
D994
340
D97D
340
D97C
340
D97B
340
D961
340
D992
340
D982
340
D981
340
D983
340
D967
340
D965
340
D964
340
D98F
340
D966
340
D963
340
D990
340
D8E8
340
D8E7
340
D8E6
340
D8E5
340
D8E4
340
D8E3
340
D8E2
340
D98E
340
D986
340
D985
340
D987
340
D9F6
340
D9F7
340
DA4D
340
DA4E
340
D9F5
340
DA4C
340
DA60
340
DA61
340
DA62
340
D94F
340
D9F3
340
DA4A
340
DA64
340
D952
340
DA49
340
DA65
340
D9F2
340
D9F4
340
DA4B
340
DA63
340
D951
340
D950
340
D94C
340
D95C
340
D96B
340
D96A
340
D94E
340
D94D
340
D9F9
340
DA50
340
DA5E
340
DA4F
340
DA5F
340
D9F8
340
D9FA
340
DA51
340
DA5D
340
DA5C
340
D9C8
340
D9C7
340
D9C6
340
D9C5
340
D9C4
340
D9C3
340
D9C2
340
D9A6
340
D98C
340
D98B
340
D98A
340
D989
340
DA02
340
DADB
340
DAD8
340
DAD9
340
DADA
340
DAE7
340
DAE8
340
DAE9
340
DAEA
340
DAEB
340
DAEC
340
DA04
340
DA06
340
DA05
340
DCBA
340
DA03
340
DADC
340
DADD
340
DAF6
340
DAF7
340
DAF8
340
DAF9
340
DAFA
340
DAFB
340
D9FD
340
DA57
340
DA58
340
DA59
340
D9D2
340
D9FC
340
DA53
340
DA54
340
DA55
340
DA56
340
DA5A
340
D9FE
340
D9FF
340
DA00
340
DA01
340
DB44
340
DB3C
340
DB34
340
DB2D
340
DB26
340
DB1E
340
DB16
340
DB0F
340
DB08
340
DB01
340
D9B5
340
DB54
340
DB4C
340
D9B8
340
DB4F
340
DB23
340
DB3F
340
DB43
340
DB42
340
DB41
340
DB40
340
DB33
340
DB32
340
DB31
340
DB30
340
DB2F
340
DB2E
340
DB3E
340
DB3D
340
DB25
340
DB24
340
DB22
340
DB21
340
DB20
340
DB1F
340
DB15
340
DB14
340
DB13
340
DB12
340
DB11
340
DB10
340
DB07
340
DB06
340
DB05
340
DB04
340
DB03
340
DB02
340
DB53
340
DB52
340
DB51
340
DB50
340
D9B7
340
D9B6
340
D9AF
340
D9AE
340
D9AD
340
D9AC
340
D9AB
340
D9AA
340
D9A9
340
D9A8
340
DB4E
340
DB4D
340
D937
340
D936
340
D919
340
D917
340
D915
340
D912
340
D9B2
340
DB49
340
D940
340
D932
340
DB29
340
DB39
340
DB47
340
DB46
340
DB45
340
DB38
340
DB37
340
DB36
340
DB35
340
DB2C
340
DB2B
340
DB2A
340
DB3B
340
DB3A
340
DB28
340
DB27
340
D941
340
D931
340
D942
340
D930
340
DB1D
340
DB1C
340
DB1B
340
DB1A
340
DB19
340
DB18
340
DB17
340
DB0E
340
DB0D
340
DB0C
340
DB0B
340
DB0A
340
DB09
340
DB00
340
DAFF
340
DAFE
340
DB57
340
DB56
340
DB55
340
DB48
340
D93E
340
D934
340
D93F
340
D933
340
D93D
340
D93C
340
D93B
340
D93A
340
D939
340
D938
340
D935
340
D91D
340
D90E
340
D91F
340
D90C
340
D91E
340
D90D
340
D91B
340
D910
340
D91C
340
D90F
340
D91A
340
D916
340
D911
340
D8FC
340
D9B3
340
D9B4
340
DB4B
340
DB4A
340
D900
340
D8FF
340
D8FE
340
D8FD
340
D8F2
340
D92A
340
D918
340
D914
340
D913
340
D8FB
340
D8FA
340
D8F6
340
D8D8
340
D8D7
340
D8D6
340
DC27
340
DC2F
340
DC3D
340
DC45
340
DC46
340
DC4D
340
D8D1
340
DC21
340
DC18
340
DC0B
340
DBF8
340
DBF2
340
DBEE
340
DBD9
340
DBD7
340
DBD6
340
DBCB
340
DBB9
340
DBB1
340
DBAA
340
DBA1
340
DB98
340
DB90
340
DB88
340
DB72
340
DB70
340
DB6F
340
DB58
340
DC1C
340
DBA0
340
DB9E
340
DB99
340
DC0D
340
DBF1
340
DBF0
340
D8E0
340
D8DF
340
D8DE
340
DBDA
340
DBEF
340
DC0C
340
DBC7
340
DBCA
340
DBC9
340
DBC8
340
DC10
340
DC0F
340
DC0E
340
DBF7
340
DC1E
340
DBC3
340
DC1D
340
DBC6
340
DBC5
340
DBC4
340
DC20
340
DC1F
340
DBC2
340
DBC1
340
DB9D
340
DB9C
340
DB9B
340
DB9A
340
DB9F
340
DB8F
340
DB8E
340
DB8D
340
DB8C
340
DB8B
340
DB8A
340
DB89
340
DC1B
340
DC37
340
DC52
340
DC51
340
DC50
340
DC4F
340
DC53
340
DC4E
340
DBBE
340
DC1A
340
DC19
340
DBBD
340
DBBC
340
DBBB
340
DBBA
340
DB73
340
DC28
340
DC29
340
DC2A
340
DC2B
340
DC2C
340
DC2D
340
DC2E
340
DC38
340
DC39
340
DC3A
340
DC3B
340
DC3C
340
DBAF
340
DBAE
340
DBC0
340
DBBF
340
DBAD
340
DBAC
340
DBAB
340
DBB0
340
DCB0
340
DCA8
340
DCA0
340
DC98
340
DC90
340
DC88
340
DC80
340
DC78
340
DC70
340
DC68
340
DC60
340
DC58
340
DC11
340
DCAE
340
DCA9
340
DC9F
340
DC99
340
DC6F
340
DC69
340
DC24
340
DBFF
340
DBFE
340
DBE7
340
DBE6
340
DBD3
340
DC03
340
DC06
340
DBEB
340
DBDF
340
DB7C
340
DB74
340
DBF3
340
DBEC
340
DBED
340
DC09
340
DBDC
340
DC0A
340
DBF6
340
DBF5
340
DBF4
340
DBDB
340
DB83
340
DB82
340
DB81
340
DB80
340
DB7F
340
DB7E
340
DB7D
340
DC08
340
DC07
340
DBDE
340
DBDD
340
DBE3
340
DBE9
340
DBE4
340
DBEA
340
DBE8
340
DBE5
340
DC04
340
DC05
340
DBE2
340
DBE1
340
DBE0
340
DB7B
340
DB7A
340
DB79
340
DB78
340
DB77
340
DB76
340
DB75
340
DC6A
340
DBFB
340
DBFA
340
DBF9
340
DC9A
340
DC9E
340
DC9D
340
DC9C
340
DC9B
340
DBFD
340
DBFC
340
DC02
340
DC01
340
DC00
340
DC6E
340
DC6D
340
DC6C
340
DC6B
340
DCAD
340
DCAC
340
DCAB
340
DCAA
340
DC23
340
DC22
340
DBD5
340
DBD4
340
D8D4
340
D8D3
340
D8D2
340
DBD8
340
DBCE
340
DBCD
340
DBCC
340
DC26
340
DC25
340
DBD2
340
DBD1
340
DBD0
340
DBCF
340
DC8F
340
DC8E
340
DC8D
340
DC8C
340
DC8B
340
DC8A
340
DC89
340
DC5F
340
DC5E
340
DC5D
340
DC5C
340
DC5B
340
DC5A
340
DC59
340
DCAF
340
DC7F
340
DC7E
340
DC7D
340
DC7C
340
DC7B
340
DC7A
340
DC79
340
DC12
340
DBB4
340
DC65
340
DC54
340
DC17
340
DB65
340
DB5B
340
DCA3
340
DC84
340
DCA2
340
DCA1
340
DC93
340
DC92
340
DC91
340
DBA3
340
DBA2
340
DB97
340
DB96
340
DB95
340
DB94
340
DB93
340
DB92
340
DB91
340
DB87
340
DB86
340
DB85
340
DB84
340
DC97
340
DC96
340
DC95
340
DC94
340
DC87
340
DC86
340
DC85
340
DC67
340
DC66
340
DC57
340
DC56
340
DC55
340
DB68
340
DB5A
340
DB6E
340
DB6D
340
DB6C
340
DB6B
340
DB6A
340
DB69
340
DB59
340
DB67
340
DB66
340
DCB1
340
DCB3
340
DCB2
340
DCA7
340
DCA6
340
DCA5
340
DCA4
340
DC83
340
DC82
340
DC81
340
DC77
340
DC76
340
DC75
340
DC74
340
DC73
340
DC72
340
DC71
340
DC64
340
DC63
340
DC62
340
DC61
340
DC15
340
DB5E
340
DB5D
340
DC16
340
DB64
340
DB63
340
DB62
340
DB61
340
DB60
340
DB5F
340
DB5C
340
DC14
340
DC13
340
DBB8
340
DBB7
340
DBB6
340
DBB5
340
DB71
340
DBA5
340
DBA6
340
DBB3
340
DBB2
340
DBA9
340
DBA8
340
DBA7
340
DBA4
340
DC43
340
DC30
340
DC31
340
DC32
340
DC33
340
DC34
340
DC35
340
DC36
340
DC3E
340
DC3F
340
DC40
340
DC41
340
DC42
340
DC44
340
DC48
340
DC49
340
DC4A
340
DC4B
340
DC47
340
DC4C
  0
GROUP
  5
5DF8
102
{ACAD_REACTORS
330
18
102
}
330
18
100
AcDbGroup
300

 70
     1
 71
     1
  0
GROUP
  5
2120
102
{ACAD_REACTORS
330
18
102
}
330
18
100
AcDbGroup
300

 70
     1
 71
     1
  0
GROUP
  5
A9E8
102
{ACAD_REACTORS
330
18
102
}
330
18
100
AcDbGroup
300

 70
     1
 71
     1
  0
GROUP
  5
2765
102
{ACAD_REACTORS
330
18
102
}
330
18
100
AcDbGroup
300

 70
     1
 71
     1
  0
GROUP
  5
2766
102
{ACAD_REACTORS
330
18
102
}
330
18
100
AcDbGroup
300

 70
     1
 71
     1
  0
GROUP
  5
54B2
102
{ACAD_REACTORS
330
18
102
}
330
18
100
AcDbGroup
300

 70
     1
 71
     1
  0
GROUP
  5
595A
102
{ACAD_REACTORS
330
18
102
}
330
18
100
AcDbGroup
300

 70
     1
 71
     1
  0
GROUP
  5
6398
102
{ACAD_REACTORS
330
18
102
}
330
18
100
AcDbGroup
300

 70
     1
 71
     1
  0
GROUP
  5
795A
102
{ACAD_REACTORS
330
18
102
}
330
18
100
AcDbGroup
300

 70
     1
 71
     1
  0
GROUP
  5
2FC6
102
{ACAD_REACTORS
330
18
102
}
330
18
100
AcDbGroup
300

 70
     1
 71
     1
  0
GROUP
  5
795C
102
{ACAD_REACTORS
330
18
102
}
330
18
100
AcDbGroup
300

 70
     1
 71
     1
  0
GROUP
  5
8936
102
{ACAD_REACTORS
330
18
102
}
330
18
100
AcDbGroup
300

 70
     1
 71
     1
  0
GROUP
  5
8937
102
{ACAD_REACTORS
330
18
102
}
330
18
100
AcDbGroup
300

 70
     1
 71
     1
  0
LAYOUT
  5
5A
102
{ACAD_XDICTIONARY
360
DD0A
102
}
102
{ACAD_REACTORS
330
58
102
}
330
58
100
AcDbPlotSettings
  1

  2
なし
  4

  6

 40
0.0
 41
0.0
 42
0.0
 43
0.0
 44
0.0
 45
0.0
 46
0.0
 47
0.0
 48
0.0
 49
0.0
140
0.0
141
0.0
142
1.0
143
1.0
 70
  1712
 72
     0
 73
     0
 74
     0
  7
monochrome.ctb
 75
     0
147
1.0
148
0.0
149
0.0
100
AcDbLayout
  1
Model
 70
     1
 71
     0
 10
0.0
 20
0.0
 11
12.0
 21
9.0
 12
0.0
 22
0.0
 32
0.0
 14
0.0
 24
0.0
 34
0.0
 15
0.0
 25
0.0
 35
0.0
146
0.0
 13
0.0
 23
0.0
 33
0.0
 16
1.0
 26
0.0
 36
0.0
 17
0.0
 27
1.0
 37
0.0
 76
     0
330
2
  0
LAYOUT
  5
5B
102
{ACAD_XDICTIONARY
360
DD0C
102
}
102
{ACAD_REACTORS
330
58
102
}
330
58
100
AcDbPlotSettings
  1

  2
なし
  4

  6

 40
0.0
 41
0.0
 42
0.0
 43
0.0
 44
0.0
 45
0.0
 46
0.0
 47
0.0
 48
0.0
 49
0.0
140
0.0
141
0.0
142
1.0
143
1.0
 70
   688
 72
     0
 73
     0
 74
     5
  7
monochrome.ctb
 75
    16
147
1.0
148
0.0
149
0.0
100
AcDbLayout
  1
ﾚｲｱｳﾄ1
 70
     1
 71
     1
 10
0.0
 20
0.0
 11
12.0
 21
9.0
 12
0.0
 22
0.0
 32
0.0
 14
1.000000000000000E+20
 24
1.000000000000000E+20
 34
1.000000000000000E+20
 15
-1.000000000000000E+20
 25
-1.000000000000000E+20
 35
-1.000000000000000E+20
146
0.0
 13
0.0
 23
0.0
 33
0.0
 16
1.0
 26
0.0
 36
0.0
 17
0.0
 27
1.0
 37
0.0
 76
     0
330
7
  0
MLINESTYLE
  5
1D
102
{ACAD_REACTORS
330
19
102
}
330
19
100
AcDbMlineStyle
  2
STANDARD
 70
     0
  3

 62
   256
 51
90.0
 52
90.0
 71
     2
 49
0.5
 62
   256
  6
BYLAYER
 49
-0.5
 62
   256
  6
BYLAYER
  0
ACDBPLACEHOLDER
  5
57
102
{ACAD_REACTORS
330
56
102
}
330
56
  0
TABLESTYLE
  5
DCEB
102
{ACAD_REACTORS
330
DCEA
102
}
330
DCEA
100
AcDbTableStyle
  3
Standard
 70
     0
 71
     0
 40
0.06
 41
0.06
280
     0
281
     0
  7
STANDARD
140
0.18
170
     2
 62
     0
 63
     7
283
     0
274
    -2
284
     1
 64
     0
275
    -2
285
     1
 65
     0
276
    -2
286
     1
 66
     0
277
    -2
287
     1
 67
     0
278
    -2
288
     1
 68
     0
279
    -2
289
     1
 69
     0
  7
STANDARD
140
0.25
170
     5
 62
     0
 63
     7
283
     0
274
    -2
284
     1
 64
     0
275
    -2
285
     1
 65
     0
276
    -2
286
     1
 66
     0
277
    -2
287
     1
 67
     0
278
    -2
288
     1
 68
     0
279
    -2
289
     1
 69
     0
  7
STANDARD
140
0.18
170
     5
 62
     0
 63
     7
283
     0
274
    -2
284
     1
 64
     0
275
    -2
285
     1
 65
     0
276
    -2
286
     1
 66
     0
277
    -2
287
     1
 67
     0
278
    -2
288
     1
 68
     0
279
    -2
289
     1
 69
     0
  0
DICTIONARYVAR
  5
DD05
102
{ACAD_REACTORS
330
DD04
102
}
330
DD04
100
DictionaryVariables
280
     0
  1
STANDARD
  0
DICTIONARYVAR
  5
DD06
102
{ACAD_REACTORS
330
DD04
102
}
330
DD04
100
DictionaryVariables
280
     0
  1
1
  0
DICTIONARYVAR
  5
DD07
102
{ACAD_REACTORS
330
DD04
102
}
330
DD04
100
DictionaryVariables
280
     0
  1

  0
DICTIONARY
  5
DD0A
330
5A
100
AcDbDictionary
280
     1
281
     1
  3
ACAD_XREC_ROUNDTRIP
360
DD0B
  0
DICTIONARY
  5
DD0C
330
5B
100
AcDbDictionary
280
     1
281
     1
  3
ACAD_XREC_ROUNDTRIP
360
DD0D
  0
XRECORD
  5
DD0B
102
{ACAD_REACTORS
330
DD0A
102
}
330
DD0A
100
AcDbXrecord
280
     1
102
SHADEPLOT
 70
     0
102
SHADEPLOTRESLEVEL
 70
     2
102
SHADEPLOTCUSTOMDPI
 70
   300
  0
XRECORD
  5
DD0D
102
{ACAD_REACTORS
330
DD0C
102
}
330
DD0C
100
AcDbXrecord
280
     1
102
SHADEPLOT
 70
     0
102
SHADEPLOTRESLEVEL
 70
     2
102
SHADEPLOTCUSTOMDPI
 70
   300
  0
ENDSEC
  0
EOF
