  0
SECTION
  2
HEADER
  9
$ACADVER
  1
AC1015
  9
$ACADMAINTVER
 70
    20
  9
$DWGCODEPAGE
  3
ANSI_932
  9
$INSBASE
 10
922.019522
 20
-675.4306699999999
 30
0.0
  9
$EXTMIN
 10
-0.0030459937595424
 20
-34.80720390087891
 30
-0.000000000000013
  9
$EXTMAX
 10
815.4428517010028
 20
1312.823469900334
 30
0.0000000000000023
  9
$LIMMIN
 10
0.0
 20
0.0
  9
$LIMMAX
 10
420.0
 20
297.0
  9
$ORTHOMODE
 70
     1
  9
$REGENMODE
 70
     1
  9
$FILLMODE
 70
     1
  9
$QTEXTMODE
 70
     0
  9
$MIRRTEXT
 70
     1
  9
$LTSCALE
 40
20.0
  9
$ATTMODE
 70
     1
  9
$TEXTSIZE
 40
30.0
  9
$TRACEWID
 40
0.05
  9
$TEXTSTYLE
  7
SUNPOU
  9
$CLAYER
  8
0
  9
$CELTYPE
  6
BYLAYER
  9
$CECOLOR
 62
   256
  9
$CELTSCALE
 40
1.0
  9
$DISPSILH
 70
     0
  9
$DIMSCALE
 40
1.0
  9
$DIMASZ
 40
3.0
  9
$DIMEXO
 40
3.0
  9
$DIMDLI
 40
0.38
  9
$DIMRND
 40
0.0
  9
$DIMDLE
 40
0.0
  9
$DIMEXE
 40
0.0
  9
$DIMTP
 40
0.0
  9
$DIMTM
 40
0.0
  9
$DIMTXT
 40
10.0
  9
$DIMCEN
 40
0.0
  9
$DIMTSZ
 40
0.0
  9
$DIMTOL
 70
     0
  9
$DIMLIM
 70
     0
  9
$DIMTIH
 70
     0
  9
$DIMTOH
 70
     0
  9
$DIMSE1
 70
     0
  9
$DIMSE2
 70
     0
  9
$DIMTAD
 70
     1
  9
$DIMZIN
 70
     0
  9
$DIMBLK
  1
Dot
  9
$DIMASO
 70
     1
  9
$DIMSHO
 70
     1
  9
$DIMPOST
  1

  9
$DIMAPOST
  1

  9
$DIMALT
 70
     0
  9
$DIMALTD
 70
     2
  9
$DIMALTF
 40
25.4
  9
$DIMLFAC
 40
1.0
  9
$DIMTOFL
 70
     0
  9
$DIMTVP
 40
0.0
  9
$DIMTIX
 70
     0
  9
$DIMSOXD
 70
     0
  9
$DIMSAH
 70
     0
  9
$DIMBLK1
  1

  9
$DIMBLK2
  1

  9
$DIMSTYLE
  2
STANDARD
  9
$DIMCLRD
 70
    60
  9
$DIMCLRE
 70
    70
  9
$DIMCLRT
 70
    60
  9
$DIMTFAC
 40
0.064286
  9
$DIMGAP
 40
5.0
  9
$DIMJUST
 70
     0
  9
$DIMSD1
 70
     0
  9
$DIMSD2
 70
     0
  9
$DIMTOLJ
 70
     1
  9
$DIMTZIN
 70
     0
  9
$DIMALTZ
 70
     0
  9
$DIMALTTZ
 70
     0
  9
$DIMUPT
 70
     0
  9
$DIMDEC
 70
     8
  9
$DIMTDEC
 70
     8
  9
$DIMALTU
 70
     2
  9
$DIMALTTD
 70
     2
  9
$DIMTXSTY
  7
SUNPOU
  9
$DIMAUNIT
 70
     0
  9
$DIMADEC
 70
     0
  9
$DIMALTRND
 40
0.0
  9
$DIMAZIN
 70
     0
  9
$DIMDSEP
 70
    46
  9
$DIMATFIT
 70
     3
  9
$DIMFRAC
 70
     0
  9
$DIMLDRBLK
  1

  9
$DIMLUNIT
 70
     2
  9
$DIMLWD
 70
    -2
  9
$DIMLWE
 70
    -2
  9
$DIMTMOVE
 70
     0
  9
$LUNITS
 70
     2
  9
$LUPREC
 70
     5
  9
$SKETCHINC
 40
0.1
  9
$FILLETRAD
 40
0.0
  9
$AUNITS
 70
     0
  9
$AUPREC
 70
     0
  9
$MENU
  1
acad
  9
$ELEVATION
 40
0.0
  9
$PELEVATION
 40
0.0
  9
$THICKNESS
 40
0.0
  9
$LIMCHECK
 70
     0
  9
$CHAMFERA
 40
0.0
  9
$CHAMFERB
 40
0.0
  9
$CHAMFERC
 40
0.0
  9
$CHAMFERD
 40
0.0
  9
$SKPOLY
 70
     0
  9
$TDCREATE
 40
2450623.654673033
  9
$TDUCREATE
 40
2450623.279673032
  9
$TDUPDATE
 40
2454580.675085139
  9
$TDUUPDATE
 40
2454580.300085139
  9
$TDINDWG
 40
0.7864407060
  9
$TDUSRTIMER
 40
0.7864405324
  9
$USRTIMER
 70
     1
  9
$ANGBASE
 50
0.0
  9
$ANGDIR
 70
     0
  9
$PDMODE
 70
     0
  9
$PDSIZE
 40
0.0
  9
$PLINEWID
 40
0.0
  9
$SPLFRAME
 70
     0
  9
$SPLINETYPE
 70
     6
  9
$SPLINESEGS
 70
     8
  9
$HANDSEED
  5
D71B
  9
$SURFTAB1
 70
     6
  9
$SURFTAB2
 70
     6
  9
$SURFTYPE
 70
     6
  9
$SURFU
 70
     6
  9
$SURFV
 70
     6
  9
$UCSBASE
  2

  9
$UCSNAME
  2

  9
$UCSORG
 10
0.0
 20
0.0
 30
0.0
  9
$UCSXDIR
 10
1.0
 20
0.0
 30
0.0
  9
$UCSYDIR
 10
0.0
 20
1.0
 30
0.0
  9
$UCSORTHOREF
  2

  9
$UCSORTHOVIEW
 70
     0
  9
$UCSORGTOP
 10
0.0
 20
0.0
 30
0.0
  9
$UCSORGBOTTOM
 10
0.0
 20
0.0
 30
0.0
  9
$UCSORGLEFT
 10
0.0
 20
0.0
 30
0.0
  9
$UCSORGRIGHT
 10
0.0
 20
0.0
 30
0.0
  9
$UCSORGFRONT
 10
0.0
 20
0.0
 30
0.0
  9
$UCSORGBACK
 10
0.0
 20
0.0
 30
0.0
  9
$PUCSBASE
  2

  9
$PUCSNAME
  2

  9
$PUCSORG
 10
0.0
 20
0.0
 30
0.0
  9
$PUCSXDIR
 10
1.0
 20
0.0
 30
0.0
  9
$PUCSYDIR
 10
0.0
 20
1.0
 30
0.0
  9
$PUCSORTHOREF
  2

  9
$PUCSORTHOVIEW
 70
     0
  9
$PUCSORGTOP
 10
0.0
 20
0.0
 30
0.0
  9
$PUCSORGBOTTOM
 10
0.0
 20
0.0
 30
0.0
  9
$PUCSORGLEFT
 10
0.0
 20
0.0
 30
0.0
  9
$PUCSORGRIGHT
 10
0.0
 20
0.0
 30
0.0
  9
$PUCSORGFRONT
 10
0.0
 20
0.0
 30
0.0
  9
$PUCSORGBACK
 10
0.0
 20
0.0
 30
0.0
  9
$USERI1
 70
     0
  9
$USERI2
 70
     0
  9
$USERI3
 70
     0
  9
$USERI4
 70
     0
  9
$USERI5
 70
     0
  9
$USERR1
 40
0.0
  9
$USERR2
 40
0.0
  9
$USERR3
 40
0.0
  9
$USERR4
 40
0.0
  9
$USERR5
 40
0.0
  9
$WORLDVIEW
 70
     1
  9
$SHADEDGE
 70
     3
  9
$SHADEDIF
 70
    70
  9
$TILEMODE
 70
     1
  9
$MAXACTVP
 70
    16
  9
$PINSBASE
 10
0.0
 20
0.0
 30
0.0
  9
$PLIMCHECK
 70
     0
  9
$PEXTMIN
 10
1.000000000000000E+20
 20
1.000000000000000E+20
 30
1.000000000000000E+20
  9
$PEXTMAX
 10
-1.000000000000000E+20
 20
-1.000000000000000E+20
 30
-1.000000000000000E+20
  9
$PLIMMIN
 10
0.0
 20
0.0
  9
$PLIMMAX
 10
12.0
 20
9.0
  9
$UNITMODE
 70
     0
  9
$VISRETAIN
 70
     0
  9
$PLINEGEN
 70
     0
  9
$PSLTSCALE
 70
     1
  9
$TREEDEPTH
 70
  3020
  9
$CMLSTYLE
  2
STANDARD
  9
$CMLJUST
 70
     0
  9
$CMLSCALE
 40
1.0
  9
$PROXYGRAPHICS
 70
     1
  9
$MEASUREMENT
 70
     0
  9
$CELWEIGHT
370
    -1
  9
$ENDCAPS
280
     0
  9
$JOINSTYLE
280
     0
  9
$LWDISPLAY
290
     0
  9
$INSUNITS
 70
     0
  9
$HYPERLINKBASE
  1

  9
$STYLESHEET
  1
monochrome.ctb
  9
$XEDIT
290
     1
  9
$CEPSNTYPE
380
     0
  9
$PSTYLEMODE
290
     1
  9
$FINGERPRINTGUID
  2
{FB88A696-E29C-4009-92AF-A3599A8169D5}
  9
$VERSIONGUID
  2
{533D3810-E2E6-43A1-9DF7-445150E51767}
  9
$EXTNAMES
290
     1
  9
$PSVPSCALE
 40
0.0
  9
$OLESTARTUP
290
     0
  0
ENDSEC
  0
SECTION
  2
CLASSES
  0
CLASS
  1
DICTIONARYVAR
  2
AcDbDictionaryVar
  3
ObjectDBX Classes
 90
        0
280
     0
281
     0
  0
CLASS
  1
ACDBDICTIONARYWDFLT
  2
AcDbDictionaryWithDefault
  3
ObjectDBX Classes
 90
        0
280
     0
281
     0
  0
CLASS
  1
ACDBPLACEHOLDER
  2
AcDbPlaceHolder
  3
ObjectDBX Classes
 90
        0
280
     0
281
     0
  0
CLASS
  1
LAYOUT
  2
AcDbLayout
  3
ObjectDBX Classes
 90
        0
280
     0
281
     0
  0
CLASS
  1
TABLESTYLE
  2
AcDbTableStyle
  3
ObjectDBX Classes
 90
     2047
280
     0
281
     0
  0
CLASS
  1
SORTENTSTABLE
  2
AcDbSortentsTable
  3
ObjectDBX Classes
 90
        0
280
     0
281
     0
  0
ENDSEC
  0
SECTION
  2
TABLES
  0
TABLE
  2
VPORT
  5
12
330
0
100
AcDbSymbolTable
 70
     3
  0
VPORT
  5
D715
330
12
100
AcDbSymbolTableRecord
100
AcDbViewportTableRecord
  2
*Active
 70
     0
 10
0.0
 20
0.0
 11
1.0
 21
1.0
 12
407.7199028536215
 22
639.0081329997276
 13
0.0
 23
0.0
 14
1.0
 24
1.0
 15
0.0
 25
0.0
 16
0.0
 26
0.0
 36
1.0
 17
0.0
 27
0.0
 37
0.0
 40
1357.917930853131
 41
1.528662420382165
 42
50.0
 43
0.0
 44
0.0
 50
0.0
 51
0.0
 71
     0
 72
 20000
 73
     1
 74
     1
 75
     0
 76
     0
 77
     0
 78
     0
281
     0
 65
     1
110
0.0
120
0.0
130
0.0
111
1.0
121
0.0
131
0.0
112
0.0
122
1.0
132
0.0
 79
     0
146
0.0
  0
ENDTAB
  0
TABLE
  2
LTYPE
  5
D
330
0
100
AcDbSymbolTable
 70
     2
  0
LTYPE
  5
E
330
D
100
AcDbSymbolTableRecord
100
AcDbLinetypeTableRecord
  2
BYBLOCK
 70
     0
  3

 72
    65
 73
     0
 40
0.0
  0
LTYPE
  5
F
330
D
100
AcDbSymbolTableRecord
100
AcDbLinetypeTableRecord
  2
BYLAYER
 70
     0
  3

 72
    65
 73
     0
 40
0.0
  0
LTYPE
  5
5
330
D
100
AcDbSymbolTableRecord
100
AcDbLinetypeTableRecord
  2
CONTINUOUS
 70
     0
  3
Solid line
 72
    65
 73
     0
 40
0.0
  0
LTYPE
  5
1AC
330
D
100
AcDbSymbolTableRecord
100
AcDbLinetypeTableRecord
  2
CENTER
 70
     0
  3
Center ____ _ ____ _ ____ _ ____ _ ____ _ ____
 72
    65
 73
     4
 40
2.0
 49
1.25
 74
     0
 49
-0.25
 74
     0
 49
0.25
 74
     0
 49
-0.25
 74
     0
  0
ENDTAB
  0
TABLE
  2
LAYER
  5
A
102
{ACAD_XDICTIONARY
360
BEBB
102
}
330
0
100
AcDbSymbolTable
 70
     6
  0
LAYER
  5
4
330
A
100
AcDbSymbolTableRecord
100
AcDbLayerTableRecord
  2
0
 70
     0
 62
     7
  6
CONTINUOUS
370
    -3
390
57
  0
LAYER
  5
25
330
A
100
AcDbSymbolTableRecord
100
AcDbLayerTableRecord
  2
KIJUN
 70
     0
 62
     7
  6
CONTINUOUS
370
    -3
390
57
  0
LAYER
  5
22
330
A
100
AcDbSymbolTableRecord
100
AcDbLayerTableRecord
  2
HOJO
 70
     0
 62
     3
  6
CONTINUOUS
370
    -3
390
57
  0
LAYER
  5
1B
330
A
100
AcDbSymbolTableRecord
100
AcDbLayerTableRecord
  2
WAKU
 70
     0
 62
     1
  6
CONTINUOUS
370
    -3
390
57
  0
LAYER
  5
31
330
A
100
AcDbSymbolTableRecord
100
AcDbLayerTableRecord
  2
DEFPOINTS
 70
     0
 62
     7
  6
CONTINUOUS
290
     0
370
    -3
390
57
  0
LAYER
  5
28
330
A
100
AcDbSymbolTableRecord
100
AcDbLayerTableRecord
  2
SUNPOU
 70
     0
 62
    70
  6
CONTINUOUS
370
    -3
390
57
  0
ENDTAB
  0
TABLE
  2
STYLE
  5
B
330
0
100
AcDbSymbolTable
 70
     3
  0
STYLE
  5
C
330
B
100
AcDbSymbolTableRecord
100
AcDbTextStyleTableRecord
  2
STANDARD
 70
     0
 40
0.0
 41
1.0
 50
0.0
 71
     0
 42
0.2
  3
txt
  4

  0
STYLE
  5
1C
330
B
100
AcDbSymbolTableRecord
100
AcDbTextStyleTableRecord
  2
SUNPOU
 70
     0
 40
0.0
 41
1.0
 50
0.0
 71
     0
 42
30.0
  3
txt
  4
bigfont
  0
STYLE
  5
1AD
330
B
100
AcDbSymbolTableRecord
100
AcDbTextStyleTableRecord
  2
LIFE
 70
     0
 40
0.0
 41
0.7
 50
0.0
 71
     0
 42
10.0
  3
romans
  4
extfont
  0
ENDTAB
  0
TABLE
  2
VIEW
  5
10
330
0
100
AcDbSymbolTable
 70
     0
  0
ENDTAB
  0
TABLE
  2
UCS
  5
11
330
0
100
AcDbSymbolTable
 70
     0
  0
ENDTAB
  0
TABLE
  2
APPID
  5
14
330
0
100
AcDbSymbolTable
 70
    11
  0
APPID
  5
15
330
14
100
AcDbSymbolTableRecord
100
AcDbRegAppTableRecord
  2
ACAD
 70
     0
  0
APPID
  5
B946
330
14
100
AcDbSymbolTableRecord
100
AcDbRegAppTableRecord
  2
ACAD_EXEMPT_FROM_CAD_STANDARDS
 70
     0
  0
APPID
  5
BEBE
330
14
100
AcDbSymbolTableRecord
100
AcDbRegAppTableRecord
  2
ACAD_PSEXT
 70
     0
  0
APPID
  5
C7A1
330
14
100
AcDbSymbolTableRecord
100
AcDbRegAppTableRecord
  2
ACAD_DSTYLE_DIMTEXT_FILL
 70
     0
  0
APPID
  5
C7A2
330
14
100
AcDbSymbolTableRecord
100
AcDbRegAppTableRecord
  2
ACAD_DSTYLE_DIMEXT_LENGTH
 70
     0
  0
APPID
  5
C7A3
330
14
100
AcDbSymbolTableRecord
100
AcDbRegAppTableRecord
  2
ACAD_DSTYLE_DIMEXT_ENABLED
 70
     0
  0
APPID
  5
C7A4
330
14
100
AcDbSymbolTableRecord
100
AcDbRegAppTableRecord
  2
ACAD_DSTYLE_DIM_LINETYPE
 70
     0
  0
APPID
  5
C7A5
330
14
100
AcDbSymbolTableRecord
100
AcDbRegAppTableRecord
  2
ACAD_DSTYLE_DIM_EXT1_LINETYPE
 70
     0
  0
APPID
  5
C7A6
330
14
100
AcDbSymbolTableRecord
100
AcDbRegAppTableRecord
  2
ACAD_DSTYLE_DIM_EXT2_LINETYPE
 70
     0
  0
APPID
  5
C81A
330
14
100
AcDbSymbolTableRecord
100
AcDbRegAppTableRecord
  2
ACAD_DSTYLE_DIMJOGGED_JOGANGLE_SYMBOL
 70
     0
  0
APPID
  5
D142
330
14
100
AcDbSymbolTableRecord
100
AcDbRegAppTableRecord
  2
ACAD_DSTYLE_DIMARC_LENGTH_SYMBOL
 70
     0
  0
ENDTAB
  0
TABLE
  2
DIMSTYLE
  5
16
330
0
100
AcDbSymbolTable
 70
     2
100
AcDbDimStyleTable
 71
     1
340
1E
  0
DIMSTYLE
105
1E
330
16
100
AcDbSymbolTableRecord
100
AcDbDimStyleTableRecord
  2
STANDARD
 70
     0
340
C
  0
DIMSTYLE
105
1AE
102
{ACAD_REACTORS
330
B193
330
B1AD
330
D59E
330
D697
330
D6BF
330
D6D5
102
}
330
16
100
AcDbSymbolTableRecord
100
AcDbDimStyleTableRecord
  2
STANDARD$0
 70
     0
 40
2.0
 41
1.0
 42
2.0
 43
0.0
 44
1.0
 73
     0
 74
     0
 77
     3
 78
     9
140
4.5
141
0.0
147
1.0
172
     1
173
     1
178
     3
271
     2
340
1AD
341
109
343
109
344
109
  0
ENDTAB
  0
TABLE
  2
BLOCK_RECORD
  5
1
330
0
100
AcDbSymbolTable
 70
     8
  0
BLOCK_RECORD
  5
2
102
{ACAD_XDICTIONARY
360
BA61
102
}
330
1
100
AcDbSymbolTableRecord
100
AcDbBlockTableRecord
  2
*MODEL_SPACE
340
5A
  0
BLOCK_RECORD
  5
7
330
1
100
AcDbSymbolTableRecord
100
AcDbBlockTableRecord
  2
*PAPER_SPACE
340
5B
  0
BLOCK_RECORD
  5
109
330
1
100
AcDbSymbolTableRecord
100
AcDbBlockTableRecord
  2
_Dot
340
0
102
{BLKREFS
331
D661
331
D662
331
D675
331
D676
331
D67E
331
D67F
331
D6B9
331
D6BA
331
D6F7
331
D6F8
331
D709
331
D70A
102
}
  0
BLOCK_RECORD
  5
B194
330
1
100
AcDbSymbolTableRecord
100
AcDbBlockTableRecord
  2
*D1
340
0
  0
BLOCK_RECORD
  5
B1AE
330
1
100
AcDbSymbolTableRecord
100
AcDbBlockTableRecord
  2
*D2
340
0
  0
BLOCK_RECORD
  5
D59F
330
1
100
AcDbSymbolTableRecord
100
AcDbBlockTableRecord
  2
*D3
340
0
  0
BLOCK_RECORD
  5
D698
330
1
100
AcDbSymbolTableRecord
100
AcDbBlockTableRecord
  2
*D5
340
0
  0
BLOCK_RECORD
  5
D6C0
330
1
100
AcDbSymbolTableRecord
100
AcDbBlockTableRecord
  2
*D6
340
0
  0
BLOCK_RECORD
  5
D6D6
330
1
100
AcDbSymbolTableRecord
100
AcDbBlockTableRecord
  2
*D7
340
0
  0
ENDTAB
  0
ENDSEC
  0
SECTION
  2
BLOCKS
  0
BLOCK
  5
3
330
2
100
AcDbEntity
  8
0
100
AcDbBlockBegin
  2
*MODEL_SPACE
 70
     0
 10
0.0
 20
0.0
 30
0.0
  3
*MODEL_SPACE
  1

  0
ENDBLK
  5
6
330
2
100
AcDbEntity
  8
0
100
AcDbBlockEnd
  0
BLOCK
  5
8
330
7
100
AcDbEntity
 67
     1
  8
0
100
AcDbBlockBegin
  2
*PAPER_SPACE
 70
     0
 10
0.0
 20
0.0
 30
0.0
  3
*PAPER_SPACE
  1

  0
ENDBLK
  5
9
330
7
100
AcDbEntity
 67
     1
  8
0
100
AcDbBlockEnd
  0
BLOCK
  5
10C
330
109
100
AcDbEntity
  8
0
100
AcDbBlockBegin
  2
_Dot
 70
     0
 10
0.0
 20
0.0
 30
0.0
  3
_Dot
  1

  0
LWPOLYLINE
  5
10A
330
109
100
AcDbEntity
  8
0
  6
ByBlock
 62
     0
100
AcDbPolyline
 90
        2
 70
     1
 43
0.5
 10
-0.25
 20
0.0
 42
1.0
 10
0.25
 20
0.0
 42
1.0
  0
LINE
  5
10B
330
109
100
AcDbEntity
  8
0
  6
ByBlock
 62
     0
370
    -2
100
AcDbLine
 10
-0.5
 20
0.0
 30
0.0
 11
-1.0
 21
0.0
 31
0.0
  0
ENDBLK
  5
10D
330
109
100
AcDbEntity
  8
0
100
AcDbBlockEnd
  0
BLOCK
  5
B19E
330
B194
100
AcDbEntity
  8
0
100
AcDbBlockBegin
  2
*D1
 70
     1
 10
0.0
 20
0.0
 30
0.0
  3
*D1
  1

  0
LINE
  5
D671
330
B194
100
AcDbEntity
  8
SUNPOU
 62
    70
370
    -2
100
AcDbLine
 10
279.7012700086386
 20
258.2471113397799
 30
0.0
 11
279.7012700086386
 21
145.6845167041273
 31
0.0
  0
LINE
  5
D672
330
B194
100
AcDbEntity
  8
SUNPOU
 62
    70
370
    -2
100
AcDbLine
 10
332.7012700086385
 20
258.2471113397799
 30
0.0
 11
332.7012700086385
 21
145.6845167041273
 31
0.0
  0
LINE
  5
D673
330
B194
100
AcDbEntity
  8
SUNPOU
 62
    60
370
    -2
100
AcDbLine
 10
285.7012700086386
 20
145.6845167041273
 30
0.0
 11
326.7012700086385
 21
145.6845167041273
 31
0.0
  0
LINE
  5
D674
330
B194
100
AcDbEntity
  8
SUNPOU
 62
    60
370
    -2
100
AcDbLine
 10
332.7012700086385
 20
145.6845167041273
 30
0.0
 11
392.0346033419718
 21
145.6845167041273
 31
0.0
  0
INSERT
  5
D675
330
B194
100
AcDbEntity
  8
SUNPOU
 62
    60
370
    -2
100
AcDbBlockReference
  2
_Dot
 10
279.7012700086386
 20
145.6845167041273
 30
0.0
 41
6.0
 42
6.0
 43
6.0
 50
180.0
  0
INSERT
  5
D676
330
B194
100
AcDbEntity
  8
SUNPOU
 62
    60
370
    -2
100
AcDbBlockReference
  2
_Dot
 10
332.7012700086385
 20
145.6845167041273
 30
0.0
 41
6.0
 42
6.0
 43
6.0
  0
MTEXT
  5
D677
330
B194
100
AcDbEntity
  8
SUNPOU
 62
    60
100
AcDbMText
 10
365.3679366753052
 20
165.6845167041273
 30
0.0
 40
20.0
 41
0.0
 71
     5
 72
     1
  1
\A1;53
  7
SUNPOU
 73
     1
 44
1.0
1001
ACAD
1000
MTEXTBEGIN
1070
    73
1070
     1
1070
    44
1040
1.0
1070
    74
1070
     0
1000
MTEXTEND
  0
POINT
  5
D678
330
B194
100
AcDbEntity
  8
DEFPOINTS
 62
     0
100
AcDbPoint
 10
279.7012700086386
 20
264.24711133978
 30
0.0
  0
POINT
  5
D679
330
B194
100
AcDbEntity
  8
DEFPOINTS
 62
     0
100
AcDbPoint
 10
332.7012700086385
 20
264.24711133978
 30
0.0
  0
POINT
  5
D67A
330
B194
100
AcDbEntity
  8
DEFPOINTS
 62
     0
100
AcDbPoint
 10
332.7012700086385
 20
145.6845167041273
 30
0.0
  0
ENDBLK
  5
B19F
330
B194
100
AcDbEntity
  8
0
100
AcDbBlockEnd
  0
BLOCK
  5
B1B8
330
B1AE
100
AcDbEntity
  8
0
100
AcDbBlockBegin
  2
*D2
 70
     1
 10
0.0
 20
0.0
 30
0.0
  3
*D2
  1

  0
LINE
  5
D67B
330
B1AE
100
AcDbEntity
  8
SUNPOU
 62
    70
370
    -2
100
AcDbLine
 10
273.7012700086384
 20
1164.24711133978
 30
0.0
 11
45.42208489875494
 21
1164.24711133978
 31
0.0
  0
LINE
  5
D67C
330
B1AE
100
AcDbEntity
  8
SUNPOU
 62
    70
370
    -2
100
AcDbLine
 10
273.7012700086386
 20
264.24711133978
 30
0.0
 11
45.42208489875474
 21
264.24711133978
 31
0.0
  0
LINE
  5
D67D
330
B1AE
100
AcDbEntity
  8
SUNPOU
 62
    60
370
    -2
100
AcDbLine
 10
45.42208489875493
 20
1158.24711133978
 30
0.0
 11
45.42208489875473
 21
270.24711133978
 31
0.0
  0
INSERT
  5
D67E
330
B1AE
100
AcDbEntity
  8
SUNPOU
 62
    60
370
    -2
100
AcDbBlockReference
  2
_Dot
 10
45.42208489875493
 20
1164.24711133978
 30
0.0
 41
6.0
 42
6.0
 43
6.0
 50
90.0
  0
INSERT
  5
D67F
330
B1AE
100
AcDbEntity
  8
SUNPOU
 62
    60
370
    -2
100
AcDbBlockReference
  2
_Dot
 10
45.42208489875473
 20
264.24711133978
 30
0.0
 41
6.0
 42
6.0
 43
6.0
 50
270.0
  0
MTEXT
  5
D680
330
B1AE
100
AcDbEntity
  8
SUNPOU
 62
    60
100
AcDbMText
 10
25.42208489875472
 20
714.2471113397801
 30
0.0
 40
20.0
 41
0.0
 71
     5
 72
     1
  1
\A1;900
  7
SUNPOU
 11
0.0000000000000001
 21
1.0
 31
0.0
 73
     1
 44
1.0
1001
ACAD
1000
MTEXTBEGIN
1070
    73
1070
     1
1070
    44
1040
1.0
1070
    74
1070
     0
1000
MTEXTEND
  0
POINT
  5
D681
330
B1AE
100
AcDbEntity
  8
DEFPOINTS
 62
     0
100
AcDbPoint
 10
279.7012700086384
 20
1164.24711133978
 30
0.0
  0
POINT
  5
D682
330
B1AE
100
AcDbEntity
  8
DEFPOINTS
 62
     0
100
AcDbPoint
 10
279.7012700086386
 20
264.24711133978
 30
0.0
  0
POINT
  5
D683
330
B1AE
100
AcDbEntity
  8
DEFPOINTS
 62
     0
100
AcDbPoint
 10
45.42208489875473
 20
264.24711133978
 30
0.0
  0
ENDBLK
  5
B1B9
330
B1AE
100
AcDbEntity
  8
0
100
AcDbBlockEnd
  0
BLOCK
  5
D5AA
330
D59F
100
AcDbEntity
  8
0
100
AcDbBlockBegin
  2
*D3
 70
     1
 10
0.0
 20
0.0
 30
0.0
  3
*D3
  1

  0
LINE
  5
D65D
330
D59F
100
AcDbEntity
  8
SUNPOU
 62
    70
370
    -2
100
AcDbLine
 10
279.7012700086384
 20
1170.24711133978
 30
0.0
 11
279.7012700086384
 21
1282.809705975433
 31
0.0
  0
LINE
  5
D65E
330
D59F
100
AcDbEntity
  8
SUNPOU
 62
    70
370
    -2
100
AcDbLine
 10
332.7012700086383
 20
1170.24711133978
 30
0.0
 11
332.7012700086383
 21
1282.809705975433
 31
0.0
  0
LINE
  5
D65F
330
D59F
100
AcDbEntity
  8
SUNPOU
 62
    60
370
    -2
100
AcDbLine
 10
285.7012700086384
 20
1282.809705975433
 30
0.0
 11
326.7012700086383
 21
1282.809705975433
 31
0.0
  0
LINE
  5
D660
330
D59F
100
AcDbEntity
  8
SUNPOU
 62
    60
370
    -2
100
AcDbLine
 10
332.7012700086383
 20
1282.809705975433
 30
0.0
 11
392.0346033419717
 21
1282.809705975433
 31
0.0
  0
INSERT
  5
D661
330
D59F
100
AcDbEntity
  8
SUNPOU
 62
    60
370
    -2
100
AcDbBlockReference
  2
_Dot
 10
279.7012700086384
 20
1282.809705975433
 30
0.0
 41
6.0
 42
6.0
 43
6.0
 50
180.0
  0
INSERT
  5
D662
330
D59F
100
AcDbEntity
  8
SUNPOU
 62
    60
370
    -2
100
AcDbBlockReference
  2
_Dot
 10
332.7012700086383
 20
1282.809705975433
 30
0.0
 41
6.0
 42
6.0
 43
6.0
  0
MTEXT
  5
D663
330
D59F
100
AcDbEntity
  8
SUNPOU
 62
    60
100
AcDbMText
 10
365.367936675305
 20
1302.809705975433
 30
0.0
 40
20.0
 41
0.0
 71
     5
 72
     1
  1
\A1;53
  7
SUNPOU
 73
     1
 44
1.0
1001
ACAD
1000
MTEXTBEGIN
1070
    73
1070
     1
1070
    44
1040
1.0
1070
    74
1070
     0
1000
MTEXTEND
  0
POINT
  5
D664
330
D59F
100
AcDbEntity
  8
DEFPOINTS
 62
     0
100
AcDbPoint
 10
279.7012700086384
 20
1164.24711133978
 30
0.0
  0
POINT
  5
D665
330
D59F
100
AcDbEntity
  8
DEFPOINTS
 62
     0
100
AcDbPoint
 10
332.7012700086383
 20
1164.24711133978
 30
0.0
  0
POINT
  5
D666
330
D59F
100
AcDbEntity
  8
DEFPOINTS
 62
     0
100
AcDbPoint
 10
332.7012700086383
 20
1282.809705975433
 30
0.0
  0
ENDBLK
  5
D5AB
330
D59F
100
AcDbEntity
  8
0
100
AcDbBlockEnd
  0
BLOCK
  5
D6A2
330
D698
100
AcDbEntity
  8
0
100
AcDbBlockBegin
  2
*D5
 70
     1
 10
0.0
 20
0.0
 30
0.0
  3
*D5
  1

  0
LINE
  5
D6B6
330
D698
100
AcDbEntity
  8
SUNPOU
 62
    70
370
    -2
100
AcDbLine
 10
273.7012700086384
 20
1164.24711133978
 30
0.0
 11
123.1997013752795
 21
1164.24711133978
 31
0.0
  0
LINE
  5
D6B7
330
D698
100
AcDbEntity
  8
SUNPOU
 62
    70
370
    -2
100
AcDbLine
 10
275.7012700086384
 20
1014.24711133978
 30
0.0
 11
123.1997013752795
 21
1014.24711133978
 31
0.0
  0
LINE
  5
D6B8
330
D698
100
AcDbEntity
  8
SUNPOU
 62
    60
370
    -2
100
AcDbLine
 10
123.1997013752795
 20
1158.24711133978
 30
0.0
 11
123.1997013752795
 21
1020.24711133978
 31
0.0
  0
INSERT
  5
D6B9
330
D698
100
AcDbEntity
  8
SUNPOU
 62
    60
370
    -2
100
AcDbBlockReference
  2
_Dot
 10
123.1997013752795
 20
1164.24711133978
 30
0.0
 41
6.0
 42
6.0
 43
6.0
 50
90.0
  0
INSERT
  5
D6BA
330
D698
100
AcDbEntity
  8
SUNPOU
 62
    60
370
    -2
100
AcDbBlockReference
  2
_Dot
 10
123.1997013752795
 20
1014.24711133978
 30
0.0
 41
6.0
 42
6.0
 43
6.0
 50
270.0
  0
MTEXT
  5
D6BB
330
D698
100
AcDbEntity
  8
SUNPOU
 62
    60
100
AcDbMText
 10
103.1997013752793
 20
1089.24711133978
 30
0.0
 40
20.0
 41
0.0
 71
     5
 72
     1
  1
\A1;150
  7
SUNPOU
 11
0.0000000000000001
 21
1.0
 31
0.0
 73
     1
 44
1.0
1001
ACAD
1000
MTEXTBEGIN
1070
    73
1070
     1
1070
    44
1040
1.0
1070
    74
1070
     0
1000
MTEXTEND
  0
POINT
  5
D6BC
330
D698
100
AcDbEntity
  8
DEFPOINTS
 62
     0
100
AcDbPoint
 10
279.7012700086384
 20
1164.24711133978
 30
0.0
  0
POINT
  5
D6BD
330
D698
100
AcDbEntity
  8
DEFPOINTS
 62
     0
100
AcDbPoint
 10
281.7012700086384
 20
1014.24711133978
 30
0.0
  0
POINT
  5
D6BE
330
D698
100
AcDbEntity
  8
DEFPOINTS
 62
     0
100
AcDbPoint
 10
123.1997013752795
 20
1014.24711133978
 30
0.0
  0
ENDBLK
  5
D6A3
330
D698
100
AcDbEntity
  8
0
100
AcDbBlockEnd
  0
BLOCK
  5
D6CA
330
D6C0
100
AcDbEntity
  8
0
100
AcDbBlockBegin
  2
*D6
 70
     1
 10
0.0
 20
0.0
 30
0.0
  3
*D6
  1

  0
LINE
  5
D706
330
D6C0
100
AcDbEntity
  8
SUNPOU
 62
    70
370
    -2
100
AcDbLine
 10
275.7012700086384
 20
1014.24711133978
 30
0.0
 11
123.1997013752796
 21
1014.24711133978
 31
0.0
  0
LINE
  5
D707
330
D6C0
100
AcDbEntity
  8
SUNPOU
 62
    70
370
    -2
100
AcDbLine
 10
275.7012700086384
 20
414.24711133978
 30
0.0
 11
123.1997013752794
 21
414.24711133978
 31
0.0
  0
LINE
  5
D708
330
D6C0
100
AcDbEntity
  8
SUNPOU
 62
    60
370
    -2
100
AcDbLine
 10
123.1997013752795
 20
1008.24711133978
 30
0.0
 11
123.1997013752794
 21
420.24711133978
 31
0.0
  0
INSERT
  5
D709
330
D6C0
100
AcDbEntity
  8
SUNPOU
 62
    60
370
    -2
100
AcDbBlockReference
  2
_Dot
 10
123.1997013752795
 20
1014.24711133978
 30
0.0
 41
6.0
 42
6.0
 43
6.0
 50
90.0
  0
INSERT
  5
D70A
330
D6C0
100
AcDbEntity
  8
SUNPOU
 62
    60
370
    -2
100
AcDbBlockReference
  2
_Dot
 10
123.1997013752794
 20
414.24711133978
 30
0.0
 41
6.0
 42
6.0
 43
6.0
 50
270.0
  0
MTEXT
  5
D70B
330
D6C0
100
AcDbEntity
  8
SUNPOU
 62
    60
100
AcDbMText
 10
103.1997013752794
 20
714.24711133978
 30
0.0
 40
20.0
 41
0.0
 71
     5
 72
     1
  1
\A1;600
  7
SUNPOU
 11
0.0000000000000001
 21
1.0
 31
0.0
 73
     1
 44
1.0
1001
ACAD
1000
MTEXTBEGIN
1070
    73
1070
     1
1070
    44
1040
1.0
1070
    74
1070
     0
1000
MTEXTEND
  0
POINT
  5
D70C
330
D6C0
100
AcDbEntity
  8
DEFPOINTS
 62
     0
100
AcDbPoint
 10
281.7012700086385
 20
1014.24711133978
 30
0.0
  0
POINT
  5
D70D
330
D6C0
100
AcDbEntity
  8
DEFPOINTS
 62
     0
100
AcDbPoint
 10
281.7012700086384
 20
414.24711133978
 30
0.0
  0
POINT
  5
D70E
330
D6C0
100
AcDbEntity
  8
DEFPOINTS
 62
     0
100
AcDbPoint
 10
123.1997013752794
 20
414.24711133978
 30
0.0
  0
ENDBLK
  5
D6CB
330
D6C0
100
AcDbEntity
  8
0
100
AcDbBlockEnd
  0
BLOCK
  5
D6E0
330
D6D6
100
AcDbEntity
  8
0
100
AcDbBlockBegin
  2
*D7
 70
     1
 10
0.0
 20
0.0
 30
0.0
  3
*D7
  1

  0
LINE
  5
D6F4
330
D6D6
100
AcDbEntity
  8
SUNPOU
 62
    70
370
    -2
100
AcDbLine
 10
275.7012700086384
 20
414.24711133978
 30
0.0
 11
123.1997013752795
 21
414.2471113397801
 31
0.0
  0
LINE
  5
D6F5
330
D6D6
100
AcDbEntity
  8
SUNPOU
 62
    70
370
    -2
100
AcDbLine
 10
273.7012700086386
 20
264.24711133978
 30
0.0
 11
123.1997013752794
 21
264.24711133978
 31
0.0
  0
LINE
  5
D6F6
330
D6D6
100
AcDbEntity
  8
SUNPOU
 62
    60
370
    -2
100
AcDbLine
 10
123.1997013752795
 20
408.2471113397801
 30
0.0
 11
123.1997013752794
 21
270.24711133978
 31
0.0
  0
INSERT
  5
D6F7
330
D6D6
100
AcDbEntity
  8
SUNPOU
 62
    60
370
    -2
100
AcDbBlockReference
  2
_Dot
 10
123.1997013752795
 20
414.2471113397801
 30
0.0
 41
6.0
 42
6.0
 43
6.0
 50
90.0
  0
INSERT
  5
D6F8
330
D6D6
100
AcDbEntity
  8
SUNPOU
 62
    60
370
    -2
100
AcDbBlockReference
  2
_Dot
 10
123.1997013752794
 20
264.24711133978
 30
0.0
 41
6.0
 42
6.0
 43
6.0
 50
270.0
  0
MTEXT
  5
D6F9
330
D6D6
100
AcDbEntity
  8
SUNPOU
 62
    60
100
AcDbMText
 10
103.1997013752794
 20
339.2471113397801
 30
0.0
 40
20.0
 41
0.0
 71
     5
 72
     1
  1
\A1;150
  7
SUNPOU
 11
0.0000000000000001
 21
1.0
 31
0.0
 73
     1
 44
1.0
1001
ACAD
1000
MTEXTBEGIN
1070
    73
1070
     1
1070
    44
1040
1.0
1070
    74
1070
     0
1000
MTEXTEND
  0
POINT
  5
D6FA
330
D6D6
100
AcDbEntity
  8
DEFPOINTS
 62
     0
100
AcDbPoint
 10
281.7012700086384
 20
414.24711133978
 30
0.0
  0
POINT
  5
D6FB
330
D6D6
100
AcDbEntity
  8
DEFPOINTS
 62
     0
100
AcDbPoint
 10
279.7012700086386
 20
264.24711133978
 30
0.0
  0
POINT
  5
D6FC
330
D6D6
100
AcDbEntity
  8
DEFPOINTS
 62
     0
100
AcDbPoint
 10
123.1997013752794
 20
264.24711133978
 30
0.0
  0
ENDBLK
  5
D6E1
330
D6D6
100
AcDbEntity
  8
0
100
AcDbBlockEnd
  0
ENDSEC
  0
SECTION
  2
ENTITIES
  0
LINE
  5
1F
330
2
100
AcDbEntity
  8
WAKU
100
AcDbLine
 10
0.0
 20
70.0
 30
0.0
 11
610.6489978526152
 21
70.0
 31
0.0
  0
LINE
  5
20
330
2
100
AcDbEntity
  8
WAKU
100
AcDbLine
 10
0.0
 20
0.0
 30
0.0
 11
610.6489978526152
 21
0.0
 31
0.0
  0
TEXT
  5
21
330
2
100
AcDbEntity
  8
HOJO
100
AcDbText
 10
48.26983000000012
 20
11.83313000000009
 30
0.0
 40
45.0
  1
F-5
  7
SUNPOU
100
AcDbText
  0
TEXT
  5
4A3
330
2
100
AcDbEntity
  8
HOJO
100
AcDbText
 10
225.60543919488
 20
20.97829970797568
 30
0.0
 40
35.0
  1
900x53x53
  7
SUNPOU
100
AcDbText
  0
LINE
  5
AFC5
102
{ACAD_REACTORS
330
D684
102
}
330
2
100
AcDbEntity
  8
KIJUN
100
AcDbLine
 10
330.2012700086383
 20
431.24711133978
 30
0.0
 11
330.2012700086384
 21
427.2471113397801
 31
0.0
  0
LINE
  5
AFCF
102
{ACAD_REACTORS
330
D684
102
}
330
2
100
AcDbEntity
  8
KIJUN
100
AcDbLine
 10
330.7012700086385
 20
414.24711133978
 30
0.0
 11
281.7012700086384
 21
414.24711133978
 31
0.0
  0
LINE
  5
B0B0
102
{ACAD_REACTORS
330
D684
102
}
330
2
100
AcDbEntity
  8
KIJUN
100
AcDbLine
 10
330.7012700086383
 20
1014.24711133978
 30
0.0
 11
281.7012700086384
 21
1014.24711133978
 31
0.0
  0
LINE
  5
B118
102
{ACAD_REACTORS
330
D684
102
}
330
2
100
AcDbEntity
  8
KIJUN
100
AcDbLine
 10
287.2012700086377
 20
928.24711133978
 30
0.0
 11
325.2012700086384
 21
928.24711133978
 31
0.0
  0
LINE
  5
B119
102
{ACAD_REACTORS
330
D684
102
}
330
2
100
AcDbEntity
  8
KIJUN
100
AcDbLine
 10
322.7012700086384
 20
928.24711133978
 30
0.0
 11
331.672566169864
 21
748.0887509102453
 31
0.0
  0
LINE
  5
B140
102
{ACAD_REACTORS
330
D684
102
}
330
2
100
AcDbEntity
  8
KIJUN
100
AcDbLine
 10
327.2012700086384
 20
737.2471113397802
 30
0.0
 11
285.2012700086384
 21
737.2471113397799
 31
0.0
  0
LINE
  5
B15A
102
{ACAD_REACTORS
330
D684
102
}
330
2
100
AcDbEntity
  8
KIJUN
100
AcDbLine
 10
308.7012700086384
 20
910.7471113397801
 30
0.0
 11
308.7012700086386
 21
761.7471113397799
 31
0.0
  0
LINE
  5
B176
102
{ACAD_REACTORS
330
D684
102
}
330
2
100
AcDbEntity
  8
KIJUN
100
AcDbLine
 10
319.9207849645605
 20
909.2336830176096
 30
0.0
 11
325.830486621005
 21
763.8584124163966
 31
0.0
  0
LINE
  5
B183
102
{ACAD_REACTORS
330
D684
102
}
330
2
100
AcDbEntity
  8
KIJUN
  6
CENTER
100
AcDbLine
 10
306.2012700086384
 20
252.3941165298247
 30
0.0
 11
306.2012700086384
 21
1175.551582764331
 31
0.0
  0
LINE
  5
B186
102
{ACAD_REACTORS
330
D684
102
}
330
2
100
AcDbEntity
  8
KIJUN
100
AcDbLine
 10
332.7012700086383
 20
264.2471113397801
 30
0.0
 11
332.7012700086382
 21
412.24711133978
 31
0.0
  0
LINE
  5
B187
102
{ACAD_REACTORS
330
D684
102
}
330
2
100
AcDbEntity
  8
KIJUN
100
AcDbLine
 10
332.7012700086384
 20
1016.24711133978
 30
0.0
 11
332.7012700086383
 21
1164.24711133978
 31
0.0
  0
ARC
  5
B18A
102
{ACAD_REACTORS
330
D684
102
}
330
2
100
AcDbEntity
  8
KIJUN
100
AcDbCircle
 10
330.7012700086384
 20
412.24711133978
 30
0.0
 40
2.0
100
AcDbArc
 50
0.0
 51
90.0
  0
ARC
  5
B192
102
{ACAD_REACTORS
330
D684
102
}
330
2
100
AcDbEntity
  8
KIJUN
100
AcDbCircle
 10
330.7012700086383
 20
1016.24711133978
 30
0.0
 40
2.0
100
AcDbArc
 50
270.0
 51
0.0
  0
DIMENSION
  5
B193
330
2
100
AcDbEntity
  8
SUNPOU
100
AcDbDimension
  2
*D1
 10
332.7012700086385
 20
145.6845167041273
 30
0.0
 11
365.3679366753052
 21
165.6845167041273
 31
0.0
 70
    32
 71
     5
 42
52.99999999999994
  3
STANDARD$0
100
AcDbAlignedDimension
 13
279.7012700086386
 23
264.24711133978
 33
0.0
 14
332.7012700086385
 24
264.24711133978
 34
0.0
100
AcDbRotatedDimension
1001
ACAD
1000
DSTYLE
1002
{
1070
    41
1040
3.0
1070
    42
1040
3.0
1070
    44
1040
0.0
1070
    77
1070
     1
1070
   140
1040
10.0
1070
   146
1040
0.064286
1070
   147
1040
5.0
1070
   176
1070
    60
1070
   177
1070
    70
1070
   178
1070
    60
1070
   271
1070
     0
1070
   272
1070
     0
1070
   340
1005
1C
1070
   342
1005
109
1002
}
  0
DIMENSION
  5
B1AD
330
2
100
AcDbEntity
  8
SUNPOU
100
AcDbDimension
  2
*D2
 10
45.42208489875473
 20
264.24711133978
 30
0.0
 11
25.42208489875472
 21
714.2471113397801
 31
0.0
 70
    32
 71
     5
 42
900.0000000000001
  3
STANDARD$0
100
AcDbAlignedDimension
 13
279.7012700086384
 23
1164.24711133978
 33
0.0
 14
279.7012700086386
 24
264.24711133978
 34
0.0
 50
90.0
100
AcDbRotatedDimension
1001
ACAD
1000
DSTYLE
1002
{
1070
    41
1040
3.0
1070
    42
1040
3.0
1070
    44
1040
0.0
1070
    77
1070
     1
1070
   140
1040
10.0
1070
   146
1040
0.064286
1070
   147
1040
5.0
1070
   176
1070
    60
1070
   177
1070
    70
1070
   178
1070
    60
1070
   271
1070
     0
1070
   272
1070
     0
1070
   340
1005
1C
1070
   342
1005
109
1002
}
  0
ARC
  5
B9B3
102
{ACAD_REACTORS
330
D684
102
}
330
2
100
AcDbEntity
  8
KIJUN
100
AcDbCircle
 10
323.0465652823012
 20
420.74711133978
 30
0.0
 40
9.666426419368818
100
AcDbArc
 50
317.7450693562446
 51
42.25493064375541
  0
ARC
  5
B9CA
102
{ACAD_REACTORS
330
D684
102
}
330
2
100
AcDbEntity
  8
KIJUN
100
AcDbCircle
 10
294.1042393207244
 20
468.2795385547416
 30
0.0
 40
38.54142152954661
100
AcDbArc
 50
325.8782721565686
 51
27.78717577503015
  0
ARC
  5
B9CB
102
{ACAD_REACTORS
330
D684
102
}
330
2
100
AcDbEntity
  8
KIJUN
100
AcDbCircle
 10
334.7744555818112
 20
440.7665006923632
 30
0.0
 40
10.56090904859714
100
AcDbArc
 50
146.0815818270436
 51
244.3400235101325
  0
ARC
  5
B9CE
102
{ACAD_REACTORS
330
D684
102
}
330
2
100
AcDbEntity
  8
KIJUN
100
AcDbCircle
 10
327.0756121761079
 20
491.7471113397803
 30
0.0
 40
5.614009757378259
100
AcDbArc
 50
281.566708350055
 51
78.43329164994495
  0
ARC
  5
B9D0
102
{ACAD_REACTORS
330
D684
102
}
330
2
100
AcDbEntity
  8
KIJUN
100
AcDbCircle
 10
330.0290771188882
 20
507.3389973225205
 30
0.0
 40
7.323641554887117
100
AcDbArc
 50
126.223493304418
 51
255.5475608049
  0
LINE
  5
B9D4
102
{ACAD_REACTORS
330
D684
102
}
330
2
100
AcDbEntity
  8
KIJUN
100
AcDbLine
 10
329.7012700086384
 20
1001.24711133978
 30
0.0
 11
329.7012700086384
 21
1004.247111339779
 31
0.0
  0
ARC
  5
B9D6
102
{ACAD_REACTORS
330
D684
102
}
330
2
100
AcDbEntity
  8
KIJUN
100
AcDbCircle
 10
325.9368363188959
 20
1009.24711133978
 30
0.0
 40
6.258670865644603
100
AcDbArc
 50
306.9756057096755
 51
53.02439429032398
  0
ARC
  5
B9D7
102
{ACAD_REACTORS
330
D684
102
}
330
2
100
AcDbEntity
  8
KIJUN
100
AcDbCircle
 10
320.9663591570284
 20
977.2870000715233
 30
0.0
 40
10.18868398807324
100
AcDbArc
 50
279.8039950474129
 51
62.78415991056611
  0
ARC
  5
B9D8
102
{ACAD_REACTORS
330
D684
102
}
330
2
100
AcDbEntity
  8
KIJUN
100
AcDbCircle
 10
329.7568282049126
 20
993.2249004504365
 30
0.0
 40
8.022403272478399
100
AcDbArc
 50
90.3967982537847
 51
239.0092109283343
  0
ARC
  5
BA13
102
{ACAD_REACTORS
330
D684
102
}
330
2
100
AcDbEntity
  8
KIJUN
100
AcDbCircle
 10
322.1704760667914
 20
962.2471113397798
 30
0.0
 40
5.028095286358362
100
AcDbArc
 50
276.059754692985
 51
83.94024530701624
  0
LINE
  5
BA15
102
{ACAD_REACTORS
330
D684
102
}
330
2
100
AcDbEntity
  8
KIJUN
100
AcDbLine
 10
325.2012700086384
 20
945.2471113397804
 30
0.0
 11
287.2012700086383
 21
945.24711133978
 31
0.0
  0
LINE
  5
BA2C
102
{ACAD_REACTORS
330
D684
102
}
330
2
100
AcDbEntity
  8
KIJUN
100
AcDbLine
 10
287.2012700086379
 20
942.2471113397801
 30
0.0
 11
325.2012700086384
 21
942.2471113397802
 31
0.0
  0
LINE
  5
BA2E
102
{ACAD_REACTORS
330
D684
102
}
330
2
100
AcDbEntity
  8
KIJUN
100
AcDbLine
 10
287.2012700086377
 20
931.2471113397801
 30
0.0
 11
325.2012700086384
 21
931.2471113397803
 31
0.0
  0
LINE
  5
BA57
102
{ACAD_REACTORS
330
D684
102
}
330
2
100
AcDbEntity
  8
KIJUN
100
AcDbLine
 10
325.2012700086392
 20
928.2471113397802
 30
0.0
 11
325.2012700086391
 21
931.2471113397803
 31
0.0
  0
ARC
  5
BA58
102
{ACAD_REACTORS
330
D684
102
}
330
2
100
AcDbEntity
  8
KIJUN
100
AcDbCircle
 10
320.3782200853949
 20
936.7471113397803
 30
0.0
 40
7.315176728015472
100
AcDbArc
 50
311.2481119299943
 51
48.75188807000569
  0
LINE
  5
BA60
102
{ACAD_REACTORS
330
D684
102
}
330
2
100
AcDbEntity
  8
KIJUN
100
AcDbLine
 10
325.2012700086388
 20
942.2471113397802
 30
0.0
 11
325.2012700086384
 21
945.2471113397804
 31
0.0
  0
ARC
  5
BA65
102
{ACAD_REACTORS
330
D684
102
}
330
2
100
AcDbEntity
  8
KIJUN
100
AcDbCircle
 10
327.140477342321
 20
740.6007088952224
 30
0.0
 40
3.35414852267247
100
AcDbArc
 50
271.0385210774762
 51
52.09158127653505
  0
ARC
  5
BA66
102
{ACAD_REACTORS
330
D684
102
}
330
2
100
AcDbEntity
  8
KIJUN
100
AcDbCircle
 10
326.5902697609399
 20
747.6313584121926
 30
0.0
 40
5.102836925224683
100
AcDbArc
 50
300.7755457473314
 51
5.142605996622314
  0
LINE
  5
BA67
102
{ACAD_REACTORS
330
D684
102
}
330
2
100
AcDbEntity
  8
KIJUN
100
AcDbLine
 10
327.2012700086384
 20
734.2471113397799
 30
0.0
 11
285.2012700086384
 21
734.2471113397802
 31
0.0
  0
LINE
  5
BA68
102
{ACAD_REACTORS
330
D684
102
}
330
2
100
AcDbEntity
  8
KIJUN
100
AcDbLine
 10
327.2012700086384
 20
737.2471113397802
 30
0.0
 11
327.2012700086385
 21
734.2471113397802
 31
0.0
  0
ARC
  5
BB0D
102
{ACAD_REACTORS
330
D684
102
}
330
2
100
AcDbEntity
  8
KIJUN
100
AcDbCircle
 10
327.340980454978
 20
729.111400994657
 30
0.0
 40
5.137610315878271
100
AcDbArc
 50
91.55827424679831
 51
248.0836866872324
  0
LINE
  5
BCE4
102
{ACAD_REACTORS
330
D684
102
}
330
2
100
AcDbEntity
  8
KIJUN
100
AcDbLine
 10
281.2012700086384
 20
722.2471113397802
 30
0.0
 11
331.2012700086384
 21
722.2471113397801
 31
0.0
  0
LINE
  5
BCE5
102
{ACAD_REACTORS
330
D684
102
}
330
2
100
AcDbEntity
  8
KIJUN
100
AcDbLine
 10
331.2012700086384
 20
722.2471113397801
 30
0.0
 11
331.2012700086385
 21
719.2471113397799
 31
0.0
  0
ARC
  5
BD12
102
{ACAD_REACTORS
330
D684
102
}
330
2
100
AcDbEntity
  8
KIJUN
100
AcDbCircle
 10
379.2983197166026
 20
671.0085938951799
 30
0.0
 40
54.79231370622602
100
AcDbArc
 50
138.5948275143284
 51
188.2137260216136
  0
ARC
  5
BD13
102
{ACAD_REACTORS
330
D684
102
}
330
2
100
AcDbEntity
  8
KIJUN
100
AcDbCircle
 10
284.433129209363
 20
555.2683942195009
 30
0.0
 40
54.77766210171521
100
AcDbArc
 50
318.8836139202503
 51
358.9317070680939
  0
ARC
  5
BD14
102
{ACAD_REACTORS
330
D684
102
}
330
2
100
AcDbEntity
  8
KIJUN
100
AcDbCircle
 10
-156.1919627257027
 20
545.3576075727047
 30
0.0
 40
495.4729844463831
100
AcDbArc
 50
1.02802452001836
 51
13.7566772396649
  0
ARC
  5
BD18
102
{ACAD_REACTORS
330
D684
102
}
330
2
100
AcDbEntity
  8
KIJUN
100
AcDbCircle
 10
323.609489393546
 20
706.7769059809758
 30
0.0
 40
14.59935459527014
100
AcDbArc
 50
1.845659834682424
 51
58.66721449237768
  0
ARC
  5
BDC8
102
{ACAD_REACTORS
330
D684
102
}
330
2
100
AcDbEntity
  8
KIJUN
100
AcDbCircle
 10
334.2556789389728
 20
710.7685471556481
 30
0.0
 40
5.288496865301643
100
AcDbArc
 50
221.7488776630168
 51
318.2511223369827
  0
ARC
  5
BDC9
102
{ACAD_REACTORS
330
D684
102
}
330
2
100
AcDbEntity
  8
KIJUN
100
AcDbCircle
 10
324.6976487017695
 20
710.7465357217693
 30
0.0
 40
6.614033898807701
100
AcDbArc
 50
211.9440433395727
 51
328.0559566604233
  0
ARC
  5
BDCB
102
{ACAD_REACTORS
330
D684
102
}
330
2
100
AcDbEntity
  8
KIJUN
100
AcDbCircle
 10
312.6432397714351
 20
711.7348080382464
 30
0.0
 40
7.851012424026043
100
AcDbArc
 50
214.8623899785589
 51
325.1376100214389
  0
ELLIPSE
  5
BDD2
102
{ACAD_REACTORS
330
D684
102
}
330
2
100
AcDbEntity
  8
KIJUN
100
AcDbEllipse
 10
318.8369630504267
 20
903.5695415926529
 30
0.0
 11
-0.7233918825812555
 21
9.622965758359516
 31
0.0
210
0.0
220
0.0
230
1.0
 40
0.1909760398091227
 41
-0.9558925118114618
 42
0.9446656086419093
  0
ELLIPSE
  5
BDD4
102
{ACAD_REACTORS
330
D684
102
}
330
2
100
AcDbEntity
  8
KIJUN
100
AcDbEllipse
 10
324.2116668436747
 20
765.4400438881122
 30
0.0
 11
-0.4614150636961227
 21
6.168460234644396
 31
0.0
210
0.0
220
0.0
230
-0.9999999999999998
 40
0.2515650946488107
 41
1.848867064690681
 42
4.448921023617336
  0
ARC
  5
BDD8
102
{ACAD_REACTORS
330
D684
102
}
330
2
100
AcDbEntity
  8
KIJUN
100
AcDbCircle
 10
306.2012700086386
 20
761.7471113397799
 30
0.0
 40
2.5
100
AcDbArc
 50
180.0
 51
0.0
  0
ARC
  5
BDDE
102
{ACAD_REACTORS
330
D684
102
}
330
2
100
AcDbEntity
  8
KIJUN
100
AcDbCircle
 10
306.2012700086386
 20
910.7471113397801
 30
0.0
 40
2.5
100
AcDbArc
 50
0.0
 51
180.0
  0
ARC
  5
BDE0
102
{ACAD_REACTORS
330
D684
102
}
330
2
100
AcDbEntity
  8
KIJUN
100
AcDbCircle
 10
443.3527711409211
 20
669.1193685119468
 30
0.0
 40
129.9851977758154
100
AcDbArc
 50
162.9429520329786
 51
190.1901936851182
  0
ARC
  5
BDE1
102
{ACAD_REACTORS
330
D684
102
}
330
2
100
AcDbEntity
  8
KIJUN
100
AcDbCircle
 10
-439.8128280289501
 20
617.9767282727889
 30
0.0
 40
758.1230493077251
100
AcDbArc
 50
353.5762024816476
 51
357.4067004927641
  0
ARC
  5
BDE2
102
{ACAD_REACTORS
330
D684
102
}
330
2
100
AcDbEntity
  8
KIJUN
100
AcDbCircle
 10
-118.0736975408599
 20
600.1756078354868
 30
0.0
 40
435.9199226302372
100
AcDbArc
 50
357.830643356671
 51
6.050384823720931
  0
ARC
  5
BDE3
102
{ACAD_REACTORS
330
D684
102
}
330
2
100
AcDbEntity
  8
KIJUN
100
AcDbCircle
 10
427.9877351823727
 20
659.3042094472386
 30
0.0
 40
108.8092120479397
100
AcDbArc
 50
153.8569133793171
 51
173.1672836499728
  0
ARC
  5
BDE4
102
{ACAD_REACTORS
330
D684
102
}
330
2
100
AcDbEntity
  8
KIJUN
100
AcDbCircle
 10
372.8715165394097
 20
666.3977270893102
 30
0.0
 40
53.24273816623096
100
AcDbArc
 50
173.6901894408861
 51
196.5637931061517
  0
ARC
  5
BDE5
102
{ACAD_REACTORS
330
D684
102
}
330
2
100
AcDbEntity
  8
KIJUN
100
AcDbCircle
 10
-39.16808007050626
 20
609.0505510217004
 30
0.0
 40
370.8019904873965
100
AcDbArc
 50
348.189524668279
 51
354.9070977000611
  0
LINE
  5
BE45
102
{ACAD_REACTORS
330
D684
102
}
330
2
100
AcDbEntity
  8
KIJUN
100
AcDbLine
 10
322.7012700086384
 20
957.2471113397801
 30
0.0
 11
289.7012700086384
 21
957.2471113397801
 31
0.0
  0
LINE
  5
BE46
102
{ACAD_REACTORS
330
D684
102
}
330
2
100
AcDbEntity
  8
KIJUN
100
AcDbLine
 10
322.7012700086384
 20
947.2471113397803
 30
0.0
 11
322.7012700086384
 21
957.2471113397801
 31
0.0
  0
LINE
  5
BE4A
102
{ACAD_REACTORS
330
D684
102
}
330
2
100
AcDbEntity
  8
KIJUN
100
AcDbLine
 10
331.2012700086384
 20
722.24711133978
 30
0.0
 11
325.4233574276546
 21
724.3450856795632
 31
0.0
  0
LINE
  5
BF04
102
{ACAD_REACTORS
330
D684
102
}
330
2
100
AcDbEntity
  8
KIJUN
100
AcDbLine
 10
329.7012700086384
 20
1004.24711133978
 30
0.0
 11
282.7012700086385
 21
1004.247111339779
 31
0.0
  0
LINE
  5
BF05
102
{ACAD_REACTORS
330
D684
102
}
330
2
100
AcDbEntity
  8
KIJUN
100
AcDbLine
 10
322.7012700086384
 20
967.2471113397801
 30
0.0
 11
289.7012700087008
 21
967.2471113397801
 31
0.0
  0
LINE
  5
BF26
102
{ACAD_REACTORS
330
D684
102
}
330
2
100
AcDbEntity
  8
KIJUN
100
AcDbLine
 10
329.7012700086384
 20
1001.24711133978
 30
0.0
 11
282.7012700086385
 21
1001.247111339781
 31
0.0
  0
LINE
  5
C001
102
{ACAD_REACTORS
330
D684
102
}
330
2
100
AcDbEntity
  8
KIJUN
100
AcDbLine
 10
329.2012700086465
 20
743.24711133978
 30
0.0
 11
283.2012700086306
 21
743.24711133978
 31
0.0
  0
LINE
  5
C008
102
{ACAD_REACTORS
330
D684
102
}
330
2
100
AcDbEntity
  8
KIJUN
100
AcDbLine
 10
281.2012700086383
 20
719.2471113397798
 30
0.0
 11
331.2012700086385
 21
719.2471113397799
 31
0.0
  0
LINE
  5
C01E
102
{ACAD_REACTORS
330
D684
102
}
330
2
100
AcDbEntity
  8
KIJUN
100
AcDbLine
 10
286.7012700086387
 20
519.24711133978
 30
0.0
 11
325.7012700086385
 21
519.2471113397801
 31
0.0
  0
ARC
  5
C054
102
{ACAD_REACTORS
330
D684
102
}
330
2
100
AcDbEntity
  8
KIJUN
100
AcDbCircle
 10
324.4487186395238
 20
516.2471113397804
 30
0.0
 40
3.250982148870103
100
AcDbArc
 50
292.6613717500316
 51
67.33862824996345
  0
LINE
  5
C056
102
{ACAD_REACTORS
330
D684
102
}
330
2
100
AcDbEntity
  8
KIJUN
100
AcDbLine
 10
286.7012700086195
 20
513.2471113397802
 30
0.0
 11
325.7012700086383
 21
513.2471113397802
 31
0.0
  0
LINE
  5
C058
102
{ACAD_REACTORS
330
D684
102
}
330
2
100
AcDbEntity
  8
KIJUN
100
AcDbLine
 10
284.2012700086385
 20
500.2471113397802
 30
0.0
 11
328.2012700086384
 21
500.2471113397802
 31
0.0
  0
LINE
  5
C059
102
{ACAD_REACTORS
330
D684
102
}
330
2
100
AcDbEntity
  8
KIJUN
100
AcDbLine
 10
284.2012700086385
 20
497.2471113397801
 30
0.0
 11
328.2012700086383
 21
497.24711133978
 31
0.0
  0
LINE
  5
C060
102
{ACAD_REACTORS
330
D684
102
}
330
2
100
AcDbEntity
  8
KIJUN
100
AcDbLine
 10
328.2012700086383
 20
497.24711133978
 30
0.0
 11
328.2012700086384
 21
500.2471113397802
 31
0.0
  0
LINE
  5
C128
102
{ACAD_REACTORS
330
D684
102
}
330
2
100
AcDbEntity
  8
KIJUN
100
AcDbLine
 10
306.2012700086384
 20
707.2471113397802
 30
0.0
 11
306.2012700086384
 21
533.1566485027372
 31
0.0
  0
ARC
  5
C12D
102
{ACAD_REACTORS
330
D684
102
}
330
2
100
AcDbEntity
  8
KIJUN
100
AcDbCircle
 10
104.6979333300907
 20
589.1193809535614
 30
0.0
 40
225.8456870195615
100
AcDbArc
 50
356.7038950178656
 51
15.95995539357124
  0
ARC
  5
C25F
102
{ACAD_REACTORS
330
D684
102
}
330
2
100
AcDbEntity
  8
KIJUN
100
AcDbCircle
 10
306.2012700086383
 20
366.7488785654837
 30
0.0
 40
45.49823277429644
100
AcDbArc
 50
54.37764271332655
 51
125.622357286673
  0
LINE
  5
C262
102
{ACAD_REACTORS
330
D684
102
}
330
2
100
AcDbEntity
  8
KIJUN
100
AcDbLine
 10
306.2012700086385
 20
707.2471113397802
 30
0.0
 11
306.2012700086385
 21
533.1566485027372
 31
0.0
  0
LINE
  5
C367
102
{ACAD_REACTORS
330
D684
102
}
330
2
100
AcDbEntity
  8
KIJUN
100
AcDbLine
 10
303.7012700086384
 20
910.7471113397801
 30
0.0
 11
303.7012700086386
 21
761.7471113397799
 31
0.0
  0
LINE
  5
C386
102
{ACAD_REACTORS
330
D684
102
}
330
2
100
AcDbEntity
  8
KIJUN
100
AcDbLine
 10
316.9239098985411
 20
909.0967894871882
 30
0.0
 11
322.8336115549855
 21
763.7215188859753
 31
0.0
  0
LINE
  5
D46D
102
{ACAD_REACTORS
330
D684
102
}
330
2
100
AcDbEntity
  8
KIJUN
100
AcDbLine
 10
322.7012700086384
 20
947.2471113397803
 30
0.0
 11
289.7012700086384
 21
947.24711133978
 31
0.0
  0
LINE
  5
D46E
102
{ACAD_REACTORS
330
D684
102
}
330
2
100
AcDbEntity
  8
KIJUN
100
AcDbLine
 10
325.2012700086384
 20
945.2471113397804
 30
0.0
 11
322.7012700086384
 21
947.2471113397803
 31
0.0
  0
LINE
  5
D4C6
102
{ACAD_REACTORS
330
D684
102
}
330
2
100
AcDbEntity
  8
KIJUN
100
AcDbLine
 10
330.2012700086384
 20
427.2471113397801
 30
0.0
 11
282.2012700086385
 21
427.2471113397799
 31
0.0
  0
LINE
  5
D4C7
102
{ACAD_REACTORS
330
D684
102
}
330
2
100
AcDbEntity
  8
KIJUN
100
AcDbLine
 10
330.2012700086383
 20
431.24711133978
 30
0.0
 11
282.2012700086385
 21
431.2471113397799
 31
0.0
  0
LINE
  5
D4CB
102
{ACAD_REACTORS
330
D684
102
}
330
2
100
AcDbEntity
  8
KIJUN
100
AcDbLine
 10
328.2012700086383
 20
486.2471113397801
 30
0.0
 11
284.2012700086386
 21
486.2471113397799
 31
0.0
  0
LINE
  5
D556
102
{ACAD_REACTORS
330
D684
102
}
330
2
100
AcDbEntity
  8
KIJUN
100
AcDbLine
 10
338.2012700086384
 20
707.24711133978
 30
0.0
 11
274.2012700086382
 21
707.2471113397802
 31
0.0
  0
LINE
  5
D561
102
{ACAD_REACTORS
330
D684
102
}
330
2
100
AcDbEntity
  8
KIJUN
100
AcDbLine
 10
279.7012700086384
 20
1016.24711133978
 30
0.0
 11
279.7012700086384
 21
1164.24711133978
 31
0.0
  0
ARC
  5
D562
102
{ACAD_REACTORS
330
D684
102
}
330
2
100
AcDbEntity
  8
KIJUN
100
AcDbCircle
 10
281.7012700086385
 20
1016.24711133978
 30
0.0
 40
2.0
100
AcDbArc
 50
180.0
 51
270.0
  0
LINE
  5
D563
102
{ACAD_REACTORS
330
D684
102
}
330
2
100
AcDbEntity
  8
KIJUN
100
AcDbLine
 10
282.7012700086385
 20
1001.247111339781
 30
0.0
 11
282.7012700086385
 21
1004.247111339779
 31
0.0
  0
ARC
  5
D564
102
{ACAD_REACTORS
330
D684
102
}
330
2
100
AcDbEntity
  8
KIJUN
100
AcDbCircle
 10
286.465703698381
 20
1009.24711133978
 30
0.0
 40
6.258670865644603
100
AcDbArc
 50
126.9756057096738
 51
233.0243942903264
  0
ARC
  5
D565
102
{ACAD_REACTORS
330
D684
102
}
330
2
100
AcDbEntity
  8
KIJUN
100
AcDbCircle
 10
291.4361808602484
 20
977.2870000715233
 30
0.0
 40
10.18868398807324
100
AcDbArc
 50
117.2158400894323
 51
260.1960049525886
  0
ARC
  5
D566
102
{ACAD_REACTORS
330
D684
102
}
330
2
100
AcDbEntity
  8
KIJUN
100
AcDbCircle
 10
282.6457118123642
 20
993.2249004504365
 30
0.0
 40
8.022403272478399
100
AcDbArc
 50
300.990789071666
 51
89.60320174621495
  0
ARC
  5
D567
102
{ACAD_REACTORS
330
D684
102
}
330
2
100
AcDbEntity
  8
KIJUN
100
AcDbCircle
 10
290.2320639504854
 20
962.2471113397798
 30
0.0
 40
5.028095286358362
100
AcDbArc
 50
96.05975469227745
 51
263.940245307018
  0
LINE
  5
D568
102
{ACAD_REACTORS
330
D684
102
}
330
2
100
AcDbEntity
  8
KIJUN
100
AcDbLine
 10
287.2012700086377
 20
928.24711133978
 30
0.0
 11
287.2012700086377
 21
931.2471113397801
 31
0.0
  0
LINE
  5
D569
102
{ACAD_REACTORS
330
D684
102
}
330
2
100
AcDbEntity
  8
KIJUN
100
AcDbLine
 10
287.2012700086379
 20
942.2471113397801
 30
0.0
 11
287.2012700086383
 21
945.24711133978
 31
0.0
  0
ARC
  5
D56A
102
{ACAD_REACTORS
330
D684
102
}
330
2
100
AcDbEntity
  8
KIJUN
100
AcDbCircle
 10
292.0243199318819
 20
936.7471113397803
 30
0.0
 40
7.315176728015472
100
AcDbArc
 50
131.2481119299967
 51
228.7518880700032
  0
LINE
  5
D56B
102
{ACAD_REACTORS
330
D684
102
}
330
2
100
AcDbEntity
  8
KIJUN
100
AcDbLine
 10
289.7012700086384
 20
947.24711133978
 30
0.0
 11
289.7012700086384
 21
957.2471113397801
 31
0.0
  0
LINE
  5
D56C
102
{ACAD_REACTORS
330
D684
102
}
330
2
100
AcDbEntity
  8
KIJUN
100
AcDbLine
 10
287.2012700086383
 20
945.2471113397804
 30
0.0
 11
289.7012700086384
 21
947.2471113397803
 31
0.0
  0
LINE
  5
D56D
102
{ACAD_REACTORS
330
D684
102
}
330
2
100
AcDbEntity
  8
KIJUN
100
AcDbLine
 10
289.7012700086384
 20
928.24711133978
 30
0.0
 11
280.7299738474128
 21
748.0887509102453
 31
0.0
  0
LINE
  5
D56E
102
{ACAD_REACTORS
330
D684
102
}
330
2
100
AcDbEntity
  8
KIJUN
100
AcDbLine
 10
292.4817550527163
 20
909.2336830176096
 30
0.0
 11
286.5720533962718
 21
763.8584124163966
 31
0.0
  0
LINE
  5
D56F
102
{ACAD_REACTORS
330
D684
102
}
330
2
100
AcDbEntity
  8
KIJUN
100
AcDbLine
 10
295.4786301187358
 20
909.0967894871882
 30
0.0
 11
289.5689284622914
 21
763.7215188859753
 31
0.0
  0
ARC
  5
D570
102
{ACAD_REACTORS
330
D684
102
}
330
2
100
AcDbEntity
  8
KIJUN
100
AcDbCircle
 10
285.2620626749557
 20
740.6007088952224
 30
0.0
 40
3.35414852267247
100
AcDbArc
 50
127.9084187234629
 51
268.9614789225229
  0
ARC
  5
D571
102
{ACAD_REACTORS
330
D684
102
}
330
2
100
AcDbEntity
  8
KIJUN
100
AcDbCircle
 10
285.8122702563369
 20
747.6313584121926
 30
0.0
 40
5.102836925224683
100
AcDbArc
 50
174.8573940033777
 51
239.2244542526737
  0
LINE
  5
D572
102
{ACAD_REACTORS
330
D684
102
}
330
2
100
AcDbEntity
  8
KIJUN
100
AcDbLine
 10
285.2012700086384
 20
737.2471113397799
 30
0.0
 11
285.2012700086384
 21
734.2471113397802
 31
0.0
  0
ARC
  5
D573
102
{ACAD_REACTORS
330
D684
102
}
330
2
100
AcDbEntity
  8
KIJUN
100
AcDbCircle
 10
285.0615595622988
 20
729.111400994657
 30
0.0
 40
5.137610315878271
100
AcDbArc
 50
291.91631331277
 51
88.44172575319955
  0
ELLIPSE
  5
D574
102
{ACAD_REACTORS
330
D684
102
}
330
2
100
AcDbEntity
  8
KIJUN
100
AcDbEllipse
 10
293.5655769668501
 20
903.5695415926529
 30
0.0
 11
0.7233918825812555
 21
9.622965758359516
 31
0.0
210
0.0
220
0.0
230
-1.0
 40
0.1909760398091227
 41
-0.9558925118114618
 42
0.9446656086419093
  0
ELLIPSE
  5
D575
102
{ACAD_REACTORS
330
D684
102
}
330
2
100
AcDbEntity
  8
KIJUN
100
AcDbEllipse
 10
288.1908731736021
 20
765.4400438881122
 30
0.0
 11
0.4614150636961226
 21
6.168460234644395
 31
0.0
210
0.0
220
0.0
230
1.0
 40
0.2515650946488107
 41
1.848867064690681
 42
4.448921023617336
  0
LINE
  5
D576
102
{ACAD_REACTORS
330
D684
102
}
330
2
100
AcDbEntity
  8
KIJUN
100
AcDbLine
 10
281.2012700086384
 20
722.24711133978
 30
0.0
 11
286.9791825896223
 21
724.3450856795632
 31
0.0
  0
LINE
  5
D577
102
{ACAD_REACTORS
330
D684
102
}
330
2
100
AcDbEntity
  8
KIJUN
100
AcDbLine
 10
281.2012700086384
 20
722.2471113397801
 30
0.0
 11
281.2012700086384
 21
719.2471113397799
 31
0.0
  0
ARC
  5
D578
102
{ACAD_REACTORS
330
D684
102
}
330
2
100
AcDbEntity
  8
KIJUN
100
AcDbCircle
 10
233.1042203006743
 20
671.0085938951799
 30
0.0
 40
54.792313706226
100
AcDbArc
 50
351.7862739783864
 51
41.40517248566964
  0
ARC
  5
D579
102
{ACAD_REACTORS
330
D684
102
}
330
2
100
AcDbEntity
  8
KIJUN
100
AcDbCircle
 10
327.9694108079139
 20
555.2683942195009
 30
0.0
 40
54.7776621017152
100
AcDbArc
 50
181.0682929319061
 51
221.1163860797496
  0
ARC
  5
D57A
102
{ACAD_REACTORS
330
D684
102
}
330
2
100
AcDbEntity
  8
KIJUN
100
AcDbCircle
 10
768.5945027429794
 20
545.3576075727047
 30
0.0
 40
495.472984446383
100
AcDbArc
 50
166.2433227603351
 51
178.9719754799816
  0
ARC
  5
D57B
102
{ACAD_REACTORS
330
D684
102
}
330
2
100
AcDbEntity
  8
KIJUN
100
AcDbCircle
 10
288.7930506237309
 20
706.7769059809758
 30
0.0
 40
14.59935459527014
100
AcDbArc
 50
121.3327855076224
 51
178.1543401653175
  0
ARC
  5
D57C
102
{ACAD_REACTORS
330
D684
102
}
330
2
100
AcDbEntity
  8
KIJUN
100
AcDbCircle
 10
278.1468610783041
 20
710.7685471556481
 30
0.0
 40
5.288496865301643
100
AcDbArc
 50
221.748877663017
 51
318.2511223369844
  0
ARC
  5
D57D
102
{ACAD_REACTORS
330
D684
102
}
330
2
100
AcDbEntity
  8
KIJUN
100
AcDbCircle
 10
287.7048913155074
 20
710.7465357217693
 30
0.0
 40
6.614033898807699
100
AcDbArc
 50
211.9440433395765
 51
328.0559566604271
  0
ARC
  5
D57E
102
{ACAD_REACTORS
330
D684
102
}
330
2
100
AcDbEntity
  8
KIJUN
100
AcDbCircle
 10
299.7593002458418
 20
711.7348080382464
 30
0.0
 40
7.851012424026041
100
AcDbArc
 50
214.8623899785611
 51
325.1376100214409
  0
ARC
  5
D57F
102
{ACAD_REACTORS
330
D684
102
}
330
2
100
AcDbEntity
  8
KIJUN
100
AcDbCircle
 10
169.0497688763557
 20
669.1193685119468
 30
0.0
 40
129.9851977758154
100
AcDbArc
 50
349.8098063148818
 51
17.05704796702136
  0
ARC
  5
D580
102
{ACAD_REACTORS
330
D684
102
}
330
2
100
AcDbEntity
  8
KIJUN
100
AcDbCircle
 10
1052.215368046226
 20
617.9767282727889
 30
0.0
 40
758.123049307725
100
AcDbArc
 50
182.5932995072358
 51
186.4237975183525
  0
ARC
  5
D581
102
{ACAD_REACTORS
330
D684
102
}
330
2
100
AcDbEntity
  8
KIJUN
100
AcDbCircle
 10
730.4762375581367
 20
600.1756078354868
 30
0.0
 40
435.9199226302371
100
AcDbArc
 50
173.949615176279
 51
182.1693566433289
  0
ARC
  5
D582
102
{ACAD_REACTORS
330
D684
102
}
330
2
100
AcDbEntity
  8
KIJUN
100
AcDbCircle
 10
184.4148048349042
 20
659.3042094472386
 30
0.0
 40
108.8092120479396
100
AcDbArc
 50
6.832716350027161
 51
26.14308662068447
  0
ARC
  5
D583
102
{ACAD_REACTORS
330
D684
102
}
330
2
100
AcDbEntity
  8
KIJUN
100
AcDbCircle
 10
239.5310234778672
 20
666.3977270893102
 30
0.0
 40
53.24273816623094
100
AcDbArc
 50
343.4362068938482
 51
6.309810559113872
  0
ARC
  5
D584
102
{ACAD_REACTORS
330
D684
102
}
330
2
100
AcDbEntity
  8
KIJUN
100
AcDbCircle
 10
651.570620087783
 20
609.0505510217004
 30
0.0
 40
370.8019904873964
100
AcDbArc
 50
185.0929022999389
 51
191.8104753317227
  0
ARC
  5
D585
102
{ACAD_REACTORS
330
D684
102
}
330
2
100
AcDbEntity
  8
KIJUN
100
AcDbCircle
 10
507.7046066871861
 20
589.1193809535614
 30
0.0
 40
225.8456870195614
100
AcDbArc
 50
164.0400446064287
 51
183.2961049821343
  0
ARC
  5
D586
102
{ACAD_REACTORS
330
D684
102
}
330
2
100
AcDbEntity
  8
KIJUN
100
AcDbCircle
 10
287.953821377753
 20
516.2471113397804
 30
0.0
 40
3.250982148870102
100
AcDbArc
 50
112.6613717500396
 51
247.3386282496602
  0
LINE
  5
D587
102
{ACAD_REACTORS
330
D684
102
}
330
2
100
AcDbEntity
  8
KIJUN
100
AcDbLine
 10
282.2012700086385
 20
431.2471113397799
 30
0.0
 11
282.2012700086385
 21
427.2471113397799
 31
0.0
  0
ARC
  5
D588
102
{ACAD_REACTORS
330
D684
102
}
330
2
100
AcDbEntity
  8
KIJUN
100
AcDbCircle
 10
289.3559747349756
 20
420.74711133978
 30
0.0
 40
9.666426419368816
100
AcDbArc
 50
137.7450693562443
 51
222.2549306437556
  0
ARC
  5
D589
102
{ACAD_REACTORS
330
D684
102
}
330
2
100
AcDbEntity
  8
KIJUN
100
AcDbCircle
 10
318.2983006965525
 20
468.2795385547416
 30
0.0
 40
38.5414215295466
100
AcDbArc
 50
152.21282422497
 51
214.1217278434331
  0
ARC
  5
D58A
102
{ACAD_REACTORS
330
D684
102
}
330
2
100
AcDbEntity
  8
KIJUN
100
AcDbCircle
 10
277.6280844354657
 20
440.7665006923632
 30
0.0
 40
10.56090904859714
100
AcDbArc
 50
295.6599764898675
 51
33.91841817295806
  0
ARC
  5
D58B
102
{ACAD_REACTORS
330
D684
102
}
330
2
100
AcDbEntity
  8
KIJUN
100
AcDbCircle
 10
285.3269278411689
 20
491.7471113397803
 30
0.0
 40
5.614009757378259
100
AcDbArc
 50
101.5667083500566
 51
258.4332916499434
  0
ARC
  5
D58C
102
{ACAD_REACTORS
330
D684
102
}
330
2
100
AcDbEntity
  8
KIJUN
100
AcDbCircle
 10
282.3734628983887
 20
507.3389973225205
 30
0.0
 40
7.323641554887116
100
AcDbArc
 50
284.4524391950997
 51
53.77650669558228
  0
LINE
  5
D58D
102
{ACAD_REACTORS
330
D684
102
}
330
2
100
AcDbEntity
  8
KIJUN
100
AcDbLine
 10
284.2012700086385
 20
497.2471113397801
 30
0.0
 11
284.2012700086385
 21
500.2471113397802
 31
0.0
  0
LINE
  5
D58E
102
{ACAD_REACTORS
330
D684
102
}
330
2
100
AcDbEntity
  8
KIJUN
100
AcDbLine
 10
279.7012700086386
 20
264.24711133978
 30
0.0
 11
279.7012700086386
 21
412.24711133978
 31
0.0
  0
ARC
  5
D58F
102
{ACAD_REACTORS
330
D684
102
}
330
2
100
AcDbEntity
  8
KIJUN
100
AcDbCircle
 10
281.7012700086384
 20
412.24711133978
 30
0.0
 40
2.0
100
AcDbArc
 50
90.0
 51
180.0
  0
ARC
  5
D595
102
{ACAD_REACTORS
330
D684
102
}
330
2
100
AcDbEntity
  8
KIJUN
100
AcDbCircle
 10
306.2012700086383
 20
1061.745344114076
 30
0.0
 40
45.49823277429644
100
AcDbArc
 50
234.3776427133269
 51
305.6223572866735
  0
DIMENSION
  5
D59E
330
2
100
AcDbEntity
  8
SUNPOU
100
AcDbDimension
  2
*D3
 10
332.7012700086383
 20
1282.809705975433
 30
0.0
 11
365.367936675305
 21
1302.809705975433
 31
0.0
 70
    32
 71
     5
 42
52.99999999999994
  3
STANDARD$0
100
AcDbAlignedDimension
 13
279.7012700086384
 23
1164.24711133978
 33
0.0
 14
332.7012700086383
 24
1164.24711133978
 34
0.0
100
AcDbRotatedDimension
1001
ACAD
1000
DSTYLE
1002
{
1070
    41
1040
3.0
1070
    42
1040
3.0
1070
    44
1040
0.0
1070
    77
1070
     1
1070
   140
1040
10.0
1070
   146
1040
0.064286
1070
   147
1040
5.0
1070
   176
1070
    60
1070
   177
1070
    70
1070
   178
1070
    60
1070
   271
1070
     0
1070
   272
1070
     0
1070
   340
1005
1C
1070
   342
1005
109
1002
}
  0
LINE
  5
D655
102
{ACAD_REACTORS
330
D684
102
}
330
2
100
AcDbEntity
  8
KIJUN
100
AcDbLine
 10
332.7012700086383
 20
1164.24711133978
 30
0.0
 11
279.7012700086384
 21
1164.24711133978
 31
0.0
  0
LINE
  5
D670
102
{ACAD_REACTORS
330
D684
102
}
330
2
100
AcDbEntity
  8
KIJUN
100
AcDbLine
 10
332.7012700086383
 20
264.2471113397801
 30
0.0
 11
279.7012700086386
 21
264.24711133978
 31
0.0
  0
TEXT
  5
D696
330
2
100
AcDbEntity
  8
HOJO
100
AcDbText
 10
4.754222682447959
 20
-34.72966095755225
 30
0.0
 40
20.0
  1
※ 形状・寸法は製品特性や、生産ロットにより誤差があるものがあります。
  7
SUNPOU
100
AcDbText
  0
DIMENSION
  5
D697
330
2
100
AcDbEntity
  8
SUNPOU
100
AcDbDimension
  2
*D5
 10
123.1997013752795
 20
1014.24711133978
 30
0.0
 11
103.1997013752793
 21
1089.24711133978
 31
0.0
 70
    32
 71
     5
 42
149.9999999999999
  3
STANDARD$0
100
AcDbAlignedDimension
 13
279.7012700086384
 23
1164.24711133978
 33
0.0
 14
281.7012700086384
 24
1014.24711133978
 34
0.0
 50
90.0
100
AcDbRotatedDimension
1001
ACAD
1000
DSTYLE
1002
{
1070
    41
1040
3.0
1070
    42
1040
3.0
1070
    44
1040
0.0
1070
    77
1070
     1
1070
   140
1040
10.0
1070
   146
1040
0.064286
1070
   147
1040
5.0
1070
   176
1070
    60
1070
   177
1070
    70
1070
   178
1070
    60
1070
   271
1070
     0
1070
   272
1070
     0
1070
   340
1005
1C
1070
   342
1005
109
1002
}
  0
DIMENSION
  5
D6BF
330
2
100
AcDbEntity
  8
SUNPOU
100
AcDbDimension
  2
*D6
 10
123.1997013752794
 20
414.24711133978
 30
0.0
 11
103.1997013752794
 21
714.24711133978
 31
0.0
 70
    32
 71
     5
 42
600.0000000000002
  3
STANDARD$0
100
AcDbAlignedDimension
 13
281.7012700086385
 23
1014.24711133978
 33
0.0
 14
281.7012700086384
 24
414.24711133978
 34
0.0
 50
90.0
100
AcDbRotatedDimension
1001
ACAD
1000
DSTYLE
1002
{
1070
    41
1040
3.0
1070
    42
1040
3.0
1070
    44
1040
0.0
1070
    77
1070
     1
1070
   140
1040
10.0
1070
   146
1040
0.064286
1070
   147
1040
5.0
1070
   176
1070
    60
1070
   177
1070
    70
1070
   178
1070
    60
1070
   271
1070
     0
1070
   272
1070
     0
1070
   340
1005
1C
1070
   342
1005
109
1002
}
  0
DIMENSION
  5
D6D5
330
2
100
AcDbEntity
  8
SUNPOU
100
AcDbDimension
  2
*D7
 10
123.1997013752794
 20
264.24711133978
 30
0.0
 11
103.1997013752794
 21
339.2471113397801
 31
0.0
 70
    32
 71
     5
 42
150.0000000000001
  3
STANDARD$0
100
AcDbAlignedDimension
 13
281.7012700086384
 23
414.24711133978
 33
0.0
 14
279.7012700086386
 24
264.24711133978
 34
0.0
 50
90.0
100
AcDbRotatedDimension
1001
ACAD
1000
DSTYLE
1002
{
1070
    41
1040
3.0
1070
    42
1040
3.0
1070
    44
1040
0.0
1070
    77
1070
     1
1070
   140
1040
10.0
1070
   146
1040
0.064286
1070
   147
1040
5.0
1070
   176
1070
    60
1070
   177
1070
    70
1070
   178
1070
    60
1070
   271
1070
     0
1070
   272
1070
     0
1070
   340
1005
1C
1070
   342
1005
109
1002
}
  0
ENDSEC
  0
SECTION
  2
OBJECTS
  0
DICTIONARY
  5
1A
330
0
100
AcDbDictionary
281
     1
  3
ACAD_COLOR
350
B1BF
  3
ACAD_GROUP
350
18
  3
ACAD_LAYOUT
350
58
  3
ACAD_MATERIAL
350
B1BE
  3
ACAD_MLINESTYLE
350
19
  3
ACAD_PLOTSETTINGS
350
59
  3
ACAD_PLOTSTYLENAME
350
56
  3
ACAD_TABLESTYLE
350
B1C0
  3
ACDBHEADERROUNDTRIPXREC
350
D716
  3
AcDbVariableDictionary
350
B97E
  0
DICTIONARY
  5
BEBB
330
A
100
AcDbDictionary
280
     1
281
     1
  3
ACAD_LAYERFILTERS
360
D5C6
  3
ACLYDICTIONARY
360
D5C5
  0
DICTIONARY
  5
BA61
330
2
100
AcDbDictionary
280
     1
281
     1
  3
ACAD_SORTENTS
360
BA62
  0
DICTIONARY
  5
B1BF
102
{ACAD_REACTORS
330
1A
102
}
330
1A
100
AcDbDictionary
281
     1
  0
DICTIONARY
  5
18
102
{ACAD_REACTORS
330
1A
102
}
330
1A
100
AcDbDictionary
281
     1
  3
*A1
350
3A0
  3
*A10
350
A9E7
  3
*A11
350
38D6
  3
*A12
350
6398
  3
*A13
350
ACC
  3
*A14
350
2120
  3
*A15
350
795C
  3
*A16
350
2765
  3
*A17
350
54B2
  3
*A18
350
A3E9
  3
*A19
350
595A
  3
*A2
350
3A1
  3
*A20
350
A9E8
  3
*A21
350
D684
  3
*A22
350
795A
  3
*A23
350
46A2
  3
*A24
350
2FC6
  3
*A25
350
8936
  3
*A26
350
4FAD
  3
*A27
350
8937
  3
*A28
350
A3EA
  3
*A3
350
ADDD
  3
*A4
350
5DF8
  3
*A5
350
2FC7
  3
*A6
350
2766
  3
*A7
350
38D5
  3
*A8
350
46AB
  3
*A9
350
4FAE
  0
DICTIONARY
  5
58
102
{ACAD_REACTORS
330
1A
102
}
330
1A
100
AcDbDictionary
281
     1
  3
Model
350
5A
  3
ﾚｲｱｳﾄ1
350
5B
  0
DICTIONARY
  5
B1BE
102
{ACAD_REACTORS
330
1A
102
}
330
1A
100
AcDbDictionary
281
     1
  0
DICTIONARY
  5
19
102
{ACAD_REACTORS
330
1A
102
}
330
1A
100
AcDbDictionary
281
     1
  3
STANDARD
350
1D
  0
DICTIONARY
  5
59
102
{ACAD_REACTORS
330
1A
102
}
330
1A
100
AcDbDictionary
281
     1
  0
ACDBDICTIONARYWDFLT
  5
56
102
{ACAD_REACTORS
330
1A
102
}
330
1A
100
AcDbDictionary
281
     1
  3
Normal
350
57
100
AcDbDictionaryWithDefault
340
57
  0
DICTIONARY
  5
B1C0
102
{ACAD_REACTORS
330
1A
102
}
330
1A
100
AcDbDictionary
281
     1
  3
Standard
350
B1C1
  0
DICTIONARY
  5
D716
102
{ACAD_REACTORS
330
1A
102
}
330
1A
100
AcDbDictionary
281
     1
  0
DICTIONARY
  5
B97E
102
{ACAD_REACTORS
330
1A
102
}
330
1A
100
AcDbDictionary
281
     1
  3
CTABLESTYLE
350
B97F
  3
DIMASSOC
350
BA4F
  3
PROJECTNAME
350
BA50
  0
DICTIONARY
  5
D5C6
102
{ACAD_REACTORS
330
BEBB
102
}
330
BEBB
100
AcDbDictionary
281
     1
  0
DICTIONARY
  5
D5C5
102
{ACAD_REACTORS
330
BEBB
102
}
330
BEBB
100
AcDbDictionary
281
     1
1001
ACAD
1000
<All
  0
SORTENTSTABLE
  5
BA62
102
{ACAD_REACTORS
330
BA61
102
}
330
BA61
100
AcDbSortentsTable
330
2
331
BD14
  5
BD18
331
B15A
  5
B15A
331
C12D
  5
BE4A
331
BA67
  5
BB0D
331
BF04
  5
C001
331
BDC8
  5
BDCB
331
B176
  5
B176
331
BDD4
  5
BDDE
331
BE4A
  5
BF26
331
C056
  5
C05A
331
B186
  5
B18A
331
B140
  5
B140
331
B9D0
  5
B9D6
331
BDC9
  5
BDD2
331
BF05
  5
C008
331
D4C6
  5
D4C6
331
C058
  5
C060
331
C008
  5
C056
331
B192
  5
B1A0
331
C001
  5
C054
331
20
  5
20
331
B1AD
  5
B9CA
331
B187
  5
B18C
331
B9CA
  5
B9CE
331
BCE4
  5
BD12
331
D4C7
  5
D4C7
331
C059
  5
C0C6
331
AFCF
  5
AFCF
331
B193
  5
B1AD
331
C386
  5
B17D
331
21
  5
21
331
BCE5
  5
BD13
331
BDCB
  5
BDD4
331
B9CB
  5
B9D0
331
B0B0
  5
B0B0
331
BD18
  5
BDC9
331
BDDE
  5
BDE1
331
D46D
  5
D46D
331
AFC5
  5
AFC5
331
C01E
  5
C058
331
BA60
  5
BA65
331
B118
  5
B118
331
D46E
  5
D46E
331
B18A
  5
B190
331
B9D4
  5
B9D7
331
BA68
  5
BCE4
331
B119
  5
B119
331
C262
  5
C2CF
331
BDE0
  5
BDE2
331
C128
  5
C262
331
BA2C
  5
BA57
331
B9CE
  5
B9D4
331
BDE1
  5
BDE3
331
BB0D
  5
BCE5
331
B9B3
  5
B9CB
331
BA57
  5
BA60
331
B9D6
  5
B9D8
331
C367
  5
C384
331
BE45
  5
BE94
331
BDE2
  5
BDE4
331
BA58
  5
BA66
331
B9D7
  5
BA13
331
1F
  5
1F
331
BE46
  5
BF05
331
BA2E
  5
BA58
331
BA13
  5
BA2C
331
BDE3
  5
BDE5
331
4A3
  5
4A3
331
BDD8
  5
BDE0
331
BD12
  5
BD14
331
B9D8
  5
BA15
331
BA65
  5
BA67
331
B183
  5
B186
331
C060
  5
C128
331
BDE4
  5
BDE6
331
C25F
  5
C2CC
331
BD13
  5
BD17
331
D556
  5
D556
331
BF26
  5
C015
331
BA66
  5
BA68
331
BDD2
  5
BDD8
331
C054
  5
C059
331
D4CB
  5
D4CB
331
BA15
  5
BA2E
331
BDE5
  5
BE46
  0
GROUP
  5
3A0
102
{ACAD_REACTORS
330
18
102
}
330
18
100
AcDbGroup
300

 70
     1
 71
     1
  0
GROUP
  5
A9E7
102
{ACAD_REACTORS
330
18
102
}
330
18
100
AcDbGroup
300

 70
     1
 71
     1
  0
GROUP
  5
38D6
102
{ACAD_REACTORS
330
18
102
}
330
18
100
AcDbGroup
300

 70
     1
 71
     1
  0
GROUP
  5
6398
102
{ACAD_REACTORS
330
18
102
}
330
18
100
AcDbGroup
300

 70
     1
 71
     1
  0
GROUP
  5
ACC
102
{ACAD_REACTORS
330
18
102
}
330
18
100
AcDbGroup
300

 70
     1
 71
     1
  0
GROUP
  5
2120
102
{ACAD_REACTORS
330
18
102
}
330
18
100
AcDbGroup
300

 70
     1
 71
     1
  0
GROUP
  5
795C
102
{ACAD_REACTORS
330
18
102
}
330
18
100
AcDbGroup
300

 70
     1
 71
     1
  0
GROUP
  5
2765
102
{ACAD_REACTORS
330
18
102
}
330
18
100
AcDbGroup
300

 70
     1
 71
     1
  0
GROUP
  5
54B2
102
{ACAD_REACTORS
330
18
102
}
330
18
100
AcDbGroup
300

 70
     1
 71
     1
  0
GROUP
  5
A3E9
102
{ACAD_REACTORS
330
18
102
}
330
18
100
AcDbGroup
300

 70
     1
 71
     1
  0
GROUP
  5
595A
102
{ACAD_REACTORS
330
18
102
}
330
18
100
AcDbGroup
300

 70
     1
 71
     1
  0
GROUP
  5
3A1
102
{ACAD_REACTORS
330
18
102
}
330
18
100
AcDbGroup
300

 70
     1
 71
     1
  0
GROUP
  5
A9E8
102
{ACAD_REACTORS
330
18
102
}
330
18
100
AcDbGroup
300

 70
     1
 71
     1
  0
GROUP
  5
D684
102
{ACAD_REACTORS
330
18
102
}
330
18
100
AcDbGroup
300

 70
     1
 71
     1
340
D670
340
D655
340
D595
340
D58F
340
D58E
340
D58D
340
D58C
340
D58B
340
D58A
340
D589
340
D588
340
D587
340
D586
340
D585
340
D584
340
D583
340
D582
340
D581
340
D580
340
D57F
340
D57E
340
D57D
340
D57C
340
D57B
340
D57A
340
D579
340
D578
340
D577
340
D576
340
D575
340
D574
340
D573
340
D572
340
D571
340
D570
340
D56F
340
D56E
340
D56D
340
D56C
340
D56B
340
D56A
340
D569
340
D568
340
D567
340
D566
340
D565
340
D564
340
D563
340
D562
340
D561
340
D556
340
D4CB
340
D4C7
340
D4C6
340
D46E
340
D46D
340
C367
340
C262
340
C25F
340
C128
340
C060
340
C059
340
C058
340
C056
340
C054
340
C01E
340
C008
340
C001
340
BF26
340
BF05
340
BF04
340
BE4A
340
BE46
340
BE45
340
C12D
340
BDE5
340
BDE4
340
BDE3
340
BDE2
340
BDE1
340
BDE0
340
BDDE
340
BDD8
340
BDD4
340
BDD2
340
BDCB
340
BDC9
340
BDC8
340
BD18
340
BD14
340
BD13
340
BD12
340
BCE5
340
BCE4
340
BB0D
340
BA68
340
BA67
340
BA66
340
BA65
340
BA58
340
BA60
340
BA57
340
BA2E
340
BA2C
340
BA15
340
BA13
340
B9D8
340
B9D7
340
B9D6
340
B9D4
340
B9D0
340
B9CE
340
B9CB
340
B9CA
340
B9B3
340
B192
340
B18A
340
B187
340
B186
340
B183
340
C386
340
B176
340
B15A
340
B140
340
B119
340
B118
340
B0B0
340
AFCF
340
AFC5
  0
GROUP
  5
795A
102
{ACAD_REACTORS
330
18
102
}
330
18
100
AcDbGroup
300

 70
     1
 71
     1
  0
GROUP
  5
46A2
102
{ACAD_REACTORS
330
18
102
}
330
18
100
AcDbGroup
300

 70
     1
 71
     1
  0
GROUP
  5
2FC6
102
{ACAD_REACTORS
330
18
102
}
330
18
100
AcDbGroup
300

 70
     1
 71
     1
  0
GROUP
  5
8936
102
{ACAD_REACTORS
330
18
102
}
330
18
100
AcDbGroup
300

 70
     1
 71
     1
  0
GROUP
  5
4FAD
102
{ACAD_REACTORS
330
18
102
}
330
18
100
AcDbGroup
300

 70
     1
 71
     1
  0
GROUP
  5
8937
102
{ACAD_REACTORS
330
18
102
}
330
18
100
AcDbGroup
300

 70
     1
 71
     1
  0
GROUP
  5
A3EA
102
{ACAD_REACTORS
330
18
102
}
330
18
100
AcDbGroup
300

 70
     1
 71
     1
  0
GROUP
  5
ADDD
102
{ACAD_REACTORS
330
18
102
}
330
18
100
AcDbGroup
300

 70
     1
 71
     1
  0
GROUP
  5
5DF8
102
{ACAD_REACTORS
330
18
102
}
330
18
100
AcDbGroup
300

 70
     1
 71
     1
  0
GROUP
  5
2FC7
102
{ACAD_REACTORS
330
18
102
}
330
18
100
AcDbGroup
300

 70
     1
 71
     1
  0
GROUP
  5
2766
102
{ACAD_REACTORS
330
18
102
}
330
18
100
AcDbGroup
300

 70
     1
 71
     1
  0
GROUP
  5
38D5
102
{ACAD_REACTORS
330
18
102
}
330
18
100
AcDbGroup
300

 70
     1
 71
     1
  0
GROUP
  5
46AB
102
{ACAD_REACTORS
330
18
102
}
330
18
100
AcDbGroup
300

 70
     1
 71
     1
  0
GROUP
  5
4FAE
102
{ACAD_REACTORS
330
18
102
}
330
18
100
AcDbGroup
300

 70
     1
 71
     1
  0
LAYOUT
  5
5A
102
{ACAD_XDICTIONARY
360
D717
102
}
102
{ACAD_REACTORS
330
58
102
}
330
58
100
AcDbPlotSettings
  1

  2
none_device
  4
Letter_(8.50_x_11.00_Inches)
  6

 40
6.349999904632568
 41
6.349999904632568
 42
6.350006103515625
 43
6.350006103515625
 44
215.8999938964844
 45
279.3999938964844
 46
0.0
 47
0.0
 48
0.0
 49
0.0
140
0.0
141
0.0
142
1.0
143
225.6774977072561
 70
 11952
 72
     0
 73
     1
 74
     0
  7
monochrome.ctb
 75
     0
147
0.0044311019492833
148
22480.86193866463
149
147.8683046958414
100
AcDbLayout
  1
Model
 70
     1
 71
     0
 10
0.0
 20
0.0
 11
12.0
 21
9.0
 12
0.0
 22
0.0
 32
0.0
 14
0.0
 24
0.0
 34
0.0
 15
0.0
 25
0.0
 35
0.0
146
0.0
 13
0.0
 23
0.0
 33
0.0
 16
1.0
 26
0.0
 36
0.0
 17
0.0
 27
1.0
 37
0.0
 76
     0
330
2
1001
ACAD_PSEXT
1000
なし
1000
なし
1000
適切ではありません
1000
新しいプロッタ環境設定名を選択しない限り、レイアウトは印刷されません。
1070
     0
  0
LAYOUT
  5
5B
102
{ACAD_XDICTIONARY
360
D719
102
}
102
{ACAD_REACTORS
330
58
102
}
330
58
100
AcDbPlotSettings
  1

  2
なし
  4

  6

 40
0.0
 41
0.0
 42
0.0
 43
0.0
 44
0.0
 45
0.0
 46
0.0
 47
0.0
 48
0.0
 49
0.0
140
0.0
141
0.0
142
1.0
143
1.0
 70
   688
 72
     0
 73
     0
 74
     5
  7
monochrome.ctb
 75
    16
147
1.0
148
0.0
149
0.0
100
AcDbLayout
  1
ﾚｲｱｳﾄ1
 70
     1
 71
     1
 10
0.0
 20
0.0
 11
12.0
 21
9.0
 12
0.0
 22
0.0
 32
0.0
 14
1.000000000000000E+20
 24
1.000000000000000E+20
 34
1.000000000000000E+20
 15
-1.000000000000000E+20
 25
-1.000000000000000E+20
 35
-1.000000000000000E+20
146
0.0
 13
0.0
 23
0.0
 33
0.0
 16
1.0
 26
0.0
 36
0.0
 17
0.0
 27
1.0
 37
0.0
 76
     0
330
7
  0
MLINESTYLE
  5
1D
102
{ACAD_REACTORS
330
19
102
}
330
19
100
AcDbMlineStyle
  2
STANDARD
 70
     0
  3

 62
   256
 51
90.0
 52
90.0
 71
     2
 49
0.5
 62
   256
  6
BYLAYER
 49
-0.5
 62
   256
  6
BYLAYER
  0
ACDBPLACEHOLDER
  5
57
102
{ACAD_REACTORS
330
56
102
}
330
56
  0
TABLESTYLE
  5
B1C1
102
{ACAD_REACTORS
330
B1C0
102
}
330
B1C0
100
AcDbTableStyle
  3
Standard
 70
     0
 71
     0
 40
0.06
 41
0.06
280
     0
281
     0
  7
STANDARD
140
0.18
170
     2
 62
     0
 63
     7
283
     0
274
    -2
284
     1
 64
     0
275
    -2
285
     1
 65
     0
276
    -2
286
     1
 66
     0
277
    -2
287
     1
 67
     0
278
    -2
288
     1
 68
     0
279
    -2
289
     1
 69
     0
  7
STANDARD
140
0.25
170
     5
 62
     0
 63
     7
283
     0
274
    -2
284
     1
 64
     0
275
    -2
285
     1
 65
     0
276
    -2
286
     1
 66
     0
277
    -2
287
     1
 67
     0
278
    -2
288
     1
 68
     0
279
    -2
289
     1
 69
     0
  7
STANDARD
140
0.18
170
     5
 62
     0
 63
     7
283
     0
274
    -2
284
     1
 64
     0
275
    -2
285
     1
 65
     0
276
    -2
286
     1
 66
     0
277
    -2
287
     1
 67
     0
278
    -2
288
     1
 68
     0
279
    -2
289
     1
 69
     0
  0
DICTIONARYVAR
  5
B97F
102
{ACAD_REACTORS
330
B97E
102
}
330
B97E
100
DictionaryVariables
280
     0
  1
STANDARD
  0
DICTIONARYVAR
  5
BA4F
102
{ACAD_REACTORS
330
B97E
102
}
330
B97E
100
DictionaryVariables
280
     0
  1
1
  0
DICTIONARYVAR
  5
BA50
102
{ACAD_REACTORS
330
B97E
102
}
330
B97E
100
DictionaryVariables
280
     0
  1

  0
DICTIONARY
  5
D717
330
5A
100
AcDbDictionary
280
     1
281
     1
  3
ACAD_XREC_ROUNDTRIP
360
D718
  0
DICTIONARY
  5
D719
330
5B
100
AcDbDictionary
280
     1
281
     1
  3
ACAD_XREC_ROUNDTRIP
360
D71A
  0
XRECORD
  5
D718
102
{ACAD_REACTORS
330
D717
102
}
330
D717
100
AcDbXrecord
280
     1
102
SHADEPLOT
 70
     0
102
SHADEPLOTRESLEVEL
 70
     2
102
SHADEPLOTCUSTOMDPI
 70
   300
  0
XRECORD
  5
D71A
102
{ACAD_REACTORS
330
D719
102
}
330
D719
100
AcDbXrecord
280
     1
102
SHADEPLOT
 70
     0
102
SHADEPLOTRESLEVEL
 70
     2
102
SHADEPLOTCUSTOMDPI
 70
   300
  0
ENDSEC
  0
EOF
