  0
SECTION
  2
HEADER
  9
$ACADVER
  1
AC1015
  9
$ACADMAINTVER
 70
    20
  9
$DWGCODEPAGE
  3
ANSI_932
  9
$INSBASE
 10
922.019522
 20
-675.4306699999999
 30
0.0
  9
$EXTMIN
 10
-0.0030459937595424
 20
-30.51136842887081
 30
-0.000000000000013
  9
$EXTMAX
 10
814.8371265036271
 20
1512.505249995916
 30
0.0000000000000023
  9
$LIMMIN
 10
0.0
 20
0.0
  9
$LIMMAX
 10
420.0
 20
297.0
  9
$ORTHOMODE
 70
     1
  9
$REGENMODE
 70
     1
  9
$FILLMODE
 70
     1
  9
$QTEXTMODE
 70
     0
  9
$MIRRTEXT
 70
     1
  9
$LTSCALE
 40
20.0
  9
$ATTMODE
 70
     1
  9
$TEXTSIZE
 40
30.0
  9
$TRACEWID
 40
0.05
  9
$TEXTSTYLE
  7
SUNPOU
  9
$CLAYER
  8
0
  9
$CELTYPE
  6
BYLAYER
  9
$CECOLOR
 62
   256
  9
$CELTSCALE
 40
1.0
  9
$DISPSILH
 70
     0
  9
$DIMSCALE
 40
1.0
  9
$DIMASZ
 40
3.0
  9
$DIMEXO
 40
3.0
  9
$DIMDLI
 40
0.38
  9
$DIMRND
 40
0.0
  9
$DIMDLE
 40
0.0
  9
$DIMEXE
 40
0.0
  9
$DIMTP
 40
0.0
  9
$DIMTM
 40
0.0
  9
$DIMTXT
 40
10.0
  9
$DIMCEN
 40
0.0
  9
$DIMTSZ
 40
0.0
  9
$DIMTOL
 70
     0
  9
$DIMLIM
 70
     0
  9
$DIMTIH
 70
     0
  9
$DIMTOH
 70
     0
  9
$DIMSE1
 70
     0
  9
$DIMSE2
 70
     0
  9
$DIMTAD
 70
     1
  9
$DIMZIN
 70
     0
  9
$DIMBLK
  1
Dot
  9
$DIMASO
 70
     1
  9
$DIMSHO
 70
     1
  9
$DIMPOST
  1

  9
$DIMAPOST
  1

  9
$DIMALT
 70
     0
  9
$DIMALTD
 70
     2
  9
$DIMALTF
 40
25.4
  9
$DIMLFAC
 40
1.0
  9
$DIMTOFL
 70
     0
  9
$DIMTVP
 40
0.0
  9
$DIMTIX
 70
     0
  9
$DIMSOXD
 70
     0
  9
$DIMSAH
 70
     0
  9
$DIMBLK1
  1

  9
$DIMBLK2
  1

  9
$DIMSTYLE
  2
STANDARD
  9
$DIMCLRD
 70
    60
  9
$DIMCLRE
 70
    70
  9
$DIMCLRT
 70
    60
  9
$DIMTFAC
 40
0.064286
  9
$DIMGAP
 40
5.0
  9
$DIMJUST
 70
     0
  9
$DIMSD1
 70
     0
  9
$DIMSD2
 70
     0
  9
$DIMTOLJ
 70
     1
  9
$DIMTZIN
 70
     0
  9
$DIMALTZ
 70
     0
  9
$DIMALTTZ
 70
     0
  9
$DIMUPT
 70
     0
  9
$DIMDEC
 70
     8
  9
$DIMTDEC
 70
     8
  9
$DIMALTU
 70
     2
  9
$DIMALTTD
 70
     2
  9
$DIMTXSTY
  7
SUNPOU
  9
$DIMAUNIT
 70
     0
  9
$DIMADEC
 70
     0
  9
$DIMALTRND
 40
0.0
  9
$DIMAZIN
 70
     0
  9
$DIMDSEP
 70
    46
  9
$DIMATFIT
 70
     3
  9
$DIMFRAC
 70
     0
  9
$DIMLDRBLK
  1

  9
$DIMLUNIT
 70
     2
  9
$DIMLWD
 70
    -2
  9
$DIMLWE
 70
    -2
  9
$DIMTMOVE
 70
     0
  9
$LUNITS
 70
     2
  9
$LUPREC
 70
     5
  9
$SKETCHINC
 40
0.1
  9
$FILLETRAD
 40
0.0
  9
$AUNITS
 70
     0
  9
$AUPREC
 70
     0
  9
$MENU
  1
acad
  9
$ELEVATION
 40
0.0
  9
$PELEVATION
 40
0.0
  9
$THICKNESS
 40
0.0
  9
$LIMCHECK
 70
     0
  9
$CHAMFERA
 40
0.0
  9
$CHAMFERB
 40
0.0
  9
$CHAMFERC
 40
0.0
  9
$CHAMFERD
 40
0.0
  9
$SKPOLY
 70
     0
  9
$TDCREATE
 40
2450623.654673033
  9
$TDUCREATE
 40
2450623.279673032
  9
$TDUPDATE
 40
2454580.674086667
  9
$TDUUPDATE
 40
2454580.299086667
  9
$TDINDWG
 40
0.7837940394
  9
$TDUSRTIMER
 40
0.7837938657
  9
$USRTIMER
 70
     1
  9
$ANGBASE
 50
0.0
  9
$ANGDIR
 70
     0
  9
$PDMODE
 70
     0
  9
$PDSIZE
 40
0.0
  9
$PLINEWID
 40
0.0
  9
$SPLFRAME
 70
     0
  9
$SPLINETYPE
 70
     6
  9
$SPLINESEGS
 70
     8
  9
$HANDSEED
  5
D6D3
  9
$SURFTAB1
 70
     6
  9
$SURFTAB2
 70
     6
  9
$SURFTYPE
 70
     6
  9
$SURFU
 70
     6
  9
$SURFV
 70
     6
  9
$UCSBASE
  2

  9
$UCSNAME
  2

  9
$UCSORG
 10
0.0
 20
0.0
 30
0.0
  9
$UCSXDIR
 10
1.0
 20
0.0
 30
0.0
  9
$UCSYDIR
 10
0.0
 20
1.0
 30
0.0
  9
$UCSORTHOREF
  2

  9
$UCSORTHOVIEW
 70
     0
  9
$UCSORGTOP
 10
0.0
 20
0.0
 30
0.0
  9
$UCSORGBOTTOM
 10
0.0
 20
0.0
 30
0.0
  9
$UCSORGLEFT
 10
0.0
 20
0.0
 30
0.0
  9
$UCSORGRIGHT
 10
0.0
 20
0.0
 30
0.0
  9
$UCSORGFRONT
 10
0.0
 20
0.0
 30
0.0
  9
$UCSORGBACK
 10
0.0
 20
0.0
 30
0.0
  9
$PUCSBASE
  2

  9
$PUCSNAME
  2

  9
$PUCSORG
 10
0.0
 20
0.0
 30
0.0
  9
$PUCSXDIR
 10
1.0
 20
0.0
 30
0.0
  9
$PUCSYDIR
 10
0.0
 20
1.0
 30
0.0
  9
$PUCSORTHOREF
  2

  9
$PUCSORTHOVIEW
 70
     0
  9
$PUCSORGTOP
 10
0.0
 20
0.0
 30
0.0
  9
$PUCSORGBOTTOM
 10
0.0
 20
0.0
 30
0.0
  9
$PUCSORGLEFT
 10
0.0
 20
0.0
 30
0.0
  9
$PUCSORGRIGHT
 10
0.0
 20
0.0
 30
0.0
  9
$PUCSORGFRONT
 10
0.0
 20
0.0
 30
0.0
  9
$PUCSORGBACK
 10
0.0
 20
0.0
 30
0.0
  9
$USERI1
 70
     0
  9
$USERI2
 70
     0
  9
$USERI3
 70
     0
  9
$USERI4
 70
     0
  9
$USERI5
 70
     0
  9
$USERR1
 40
0.0
  9
$USERR2
 40
0.0
  9
$USERR3
 40
0.0
  9
$USERR4
 40
0.0
  9
$USERR5
 40
0.0
  9
$WORLDVIEW
 70
     1
  9
$SHADEDGE
 70
     3
  9
$SHADEDIF
 70
    70
  9
$TILEMODE
 70
     1
  9
$MAXACTVP
 70
    16
  9
$PINSBASE
 10
0.0
 20
0.0
 30
0.0
  9
$PLIMCHECK
 70
     0
  9
$PEXTMIN
 10
1.000000000000000E+20
 20
1.000000000000000E+20
 30
1.000000000000000E+20
  9
$PEXTMAX
 10
-1.000000000000000E+20
 20
-1.000000000000000E+20
 30
-1.000000000000000E+20
  9
$PLIMMIN
 10
0.0
 20
0.0
  9
$PLIMMAX
 10
12.0
 20
9.0
  9
$UNITMODE
 70
     0
  9
$VISRETAIN
 70
     0
  9
$PLINEGEN
 70
     0
  9
$PSLTSCALE
 70
     1
  9
$TREEDEPTH
 70
  3020
  9
$CMLSTYLE
  2
STANDARD
  9
$CMLJUST
 70
     0
  9
$CMLSCALE
 40
1.0
  9
$PROXYGRAPHICS
 70
     1
  9
$MEASUREMENT
 70
     0
  9
$CELWEIGHT
370
    -1
  9
$ENDCAPS
280
     0
  9
$JOINSTYLE
280
     0
  9
$LWDISPLAY
290
     0
  9
$INSUNITS
 70
     0
  9
$HYPERLINKBASE
  1

  9
$STYLESHEET
  1
monochrome.ctb
  9
$XEDIT
290
     1
  9
$CEPSNTYPE
380
     0
  9
$PSTYLEMODE
290
     1
  9
$FINGERPRINTGUID
  2
{FB88A696-E29C-4009-92AF-A3599A8169D5}
  9
$VERSIONGUID
  2
{DC6D9BFD-562B-4595-B2D4-94324B65537B}
  9
$EXTNAMES
290
     1
  9
$PSVPSCALE
 40
0.0
  9
$OLESTARTUP
290
     0
  0
ENDSEC
  0
SECTION
  2
CLASSES
  0
CLASS
  1
DICTIONARYVAR
  2
AcDbDictionaryVar
  3
ObjectDBX Classes
 90
        0
280
     0
281
     0
  0
CLASS
  1
ACDBDICTIONARYWDFLT
  2
AcDbDictionaryWithDefault
  3
ObjectDBX Classes
 90
        0
280
     0
281
     0
  0
CLASS
  1
ACDBPLACEHOLDER
  2
AcDbPlaceHolder
  3
ObjectDBX Classes
 90
        0
280
     0
281
     0
  0
CLASS
  1
LAYOUT
  2
AcDbLayout
  3
ObjectDBX Classes
 90
        0
280
     0
281
     0
  0
CLASS
  1
TABLESTYLE
  2
AcDbTableStyle
  3
ObjectDBX Classes
 90
     2047
280
     0
281
     0
  0
CLASS
  1
SORTENTSTABLE
  2
AcDbSortentsTable
  3
ObjectDBX Classes
 90
        0
280
     0
281
     0
  0
ENDSEC
  0
SECTION
  2
TABLES
  0
TABLE
  2
VPORT
  5
12
330
0
100
AcDbSymbolTable
 70
     3
  0
VPORT
  5
D6CD
330
12
100
AcDbSymbolTableRecord
100
AcDbViewportTableRecord
  2
*Active
 70
     0
 10
0.0
 20
0.0
 11
1.0
 21
1.0
 12
407.4170402549336
 22
740.9969407835229
 13
0.0
 23
0.0
 14
1.0
 24
1.0
 15
0.0
 25
0.0
 16
0.0
 26
0.0
 36
1.0
 17
0.0
 27
0.0
 37
0.0
 40
1554.79537123719
 41
1.528662420382165
 42
50.0
 43
0.0
 44
0.0
 50
0.0
 51
0.0
 71
     0
 72
 20000
 73
     1
 74
     1
 75
     0
 76
     0
 77
     0
 78
     0
281
     0
 65
     1
110
0.0
120
0.0
130
0.0
111
1.0
121
0.0
131
0.0
112
0.0
122
1.0
132
0.0
 79
     0
146
0.0
  0
ENDTAB
  0
TABLE
  2
LTYPE
  5
D
330
0
100
AcDbSymbolTable
 70
     2
  0
LTYPE
  5
E
330
D
100
AcDbSymbolTableRecord
100
AcDbLinetypeTableRecord
  2
BYBLOCK
 70
     0
  3

 72
    65
 73
     0
 40
0.0
  0
LTYPE
  5
F
330
D
100
AcDbSymbolTableRecord
100
AcDbLinetypeTableRecord
  2
BYLAYER
 70
     0
  3

 72
    65
 73
     0
 40
0.0
  0
LTYPE
  5
5
330
D
100
AcDbSymbolTableRecord
100
AcDbLinetypeTableRecord
  2
CONTINUOUS
 70
     0
  3
Solid line
 72
    65
 73
     0
 40
0.0
  0
LTYPE
  5
1AC
330
D
100
AcDbSymbolTableRecord
100
AcDbLinetypeTableRecord
  2
CENTER
 70
     0
  3
Center ____ _ ____ _ ____ _ ____ _ ____ _ ____
 72
    65
 73
     4
 40
2.0
 49
1.25
 74
     0
 49
-0.25
 74
     0
 49
0.25
 74
     0
 49
-0.25
 74
     0
  0
ENDTAB
  0
TABLE
  2
LAYER
  5
A
102
{ACAD_XDICTIONARY
360
BEBB
102
}
330
0
100
AcDbSymbolTable
 70
     6
  0
LAYER
  5
4
330
A
100
AcDbSymbolTableRecord
100
AcDbLayerTableRecord
  2
0
 70
     0
 62
     7
  6
CONTINUOUS
370
    -3
390
57
  0
LAYER
  5
25
330
A
100
AcDbSymbolTableRecord
100
AcDbLayerTableRecord
  2
KIJUN
 70
     0
 62
     7
  6
CONTINUOUS
370
    -3
390
57
  0
LAYER
  5
22
330
A
100
AcDbSymbolTableRecord
100
AcDbLayerTableRecord
  2
HOJO
 70
     0
 62
     3
  6
CONTINUOUS
370
    -3
390
57
  0
LAYER
  5
1B
330
A
100
AcDbSymbolTableRecord
100
AcDbLayerTableRecord
  2
WAKU
 70
     0
 62
     1
  6
CONTINUOUS
370
    -3
390
57
  0
LAYER
  5
31
330
A
100
AcDbSymbolTableRecord
100
AcDbLayerTableRecord
  2
DEFPOINTS
 70
     0
 62
     7
  6
CONTINUOUS
290
     0
370
    -3
390
57
  0
LAYER
  5
28
330
A
100
AcDbSymbolTableRecord
100
AcDbLayerTableRecord
  2
SUNPOU
 70
     0
 62
    70
  6
CONTINUOUS
370
    -3
390
57
  0
ENDTAB
  0
TABLE
  2
STYLE
  5
B
330
0
100
AcDbSymbolTable
 70
     3
  0
STYLE
  5
C
330
B
100
AcDbSymbolTableRecord
100
AcDbTextStyleTableRecord
  2
STANDARD
 70
     0
 40
0.0
 41
1.0
 50
0.0
 71
     0
 42
0.2
  3
txt
  4

  0
STYLE
  5
1C
330
B
100
AcDbSymbolTableRecord
100
AcDbTextStyleTableRecord
  2
SUNPOU
 70
     0
 40
0.0
 41
1.0
 50
0.0
 71
     0
 42
30.0
  3
txt
  4
bigfont
  0
STYLE
  5
1AD
330
B
100
AcDbSymbolTableRecord
100
AcDbTextStyleTableRecord
  2
LIFE
 70
     0
 40
0.0
 41
0.7
 50
0.0
 71
     0
 42
10.0
  3
romans
  4
extfont
  0
ENDTAB
  0
TABLE
  2
VIEW
  5
10
330
0
100
AcDbSymbolTable
 70
     0
  0
ENDTAB
  0
TABLE
  2
UCS
  5
11
330
0
100
AcDbSymbolTable
 70
     0
  0
ENDTAB
  0
TABLE
  2
APPID
  5
14
330
0
100
AcDbSymbolTable
 70
    11
  0
APPID
  5
15
330
14
100
AcDbSymbolTableRecord
100
AcDbRegAppTableRecord
  2
ACAD
 70
     0
  0
APPID
  5
B946
330
14
100
AcDbSymbolTableRecord
100
AcDbRegAppTableRecord
  2
ACAD_EXEMPT_FROM_CAD_STANDARDS
 70
     0
  0
APPID
  5
BEBE
330
14
100
AcDbSymbolTableRecord
100
AcDbRegAppTableRecord
  2
ACAD_PSEXT
 70
     0
  0
APPID
  5
C7A1
330
14
100
AcDbSymbolTableRecord
100
AcDbRegAppTableRecord
  2
ACAD_DSTYLE_DIMTEXT_FILL
 70
     0
  0
APPID
  5
C7A2
330
14
100
AcDbSymbolTableRecord
100
AcDbRegAppTableRecord
  2
ACAD_DSTYLE_DIMEXT_LENGTH
 70
     0
  0
APPID
  5
C7A3
330
14
100
AcDbSymbolTableRecord
100
AcDbRegAppTableRecord
  2
ACAD_DSTYLE_DIMEXT_ENABLED
 70
     0
  0
APPID
  5
C7A4
330
14
100
AcDbSymbolTableRecord
100
AcDbRegAppTableRecord
  2
ACAD_DSTYLE_DIM_LINETYPE
 70
     0
  0
APPID
  5
C7A5
330
14
100
AcDbSymbolTableRecord
100
AcDbRegAppTableRecord
  2
ACAD_DSTYLE_DIM_EXT1_LINETYPE
 70
     0
  0
APPID
  5
C7A6
330
14
100
AcDbSymbolTableRecord
100
AcDbRegAppTableRecord
  2
ACAD_DSTYLE_DIM_EXT2_LINETYPE
 70
     0
  0
APPID
  5
C81A
330
14
100
AcDbSymbolTableRecord
100
AcDbRegAppTableRecord
  2
ACAD_DSTYLE_DIMJOGGED_JOGANGLE_SYMBOL
 70
     0
  0
APPID
  5
D142
330
14
100
AcDbSymbolTableRecord
100
AcDbRegAppTableRecord
  2
ACAD_DSTYLE_DIMARC_LENGTH_SYMBOL
 70
     0
  0
ENDTAB
  0
TABLE
  2
DIMSTYLE
  5
16
330
0
100
AcDbSymbolTable
 70
     2
100
AcDbDimStyleTable
 71
     1
340
1E
  0
DIMSTYLE
105
1E
330
16
100
AcDbSymbolTableRecord
100
AcDbDimStyleTableRecord
  2
STANDARD
 70
     0
340
C
  0
DIMSTYLE
105
1AE
102
{ACAD_REACTORS
330
B193
330
B1AD
330
D59E
330
D625
330
D656
330
D66C
102
}
330
16
100
AcDbSymbolTableRecord
100
AcDbDimStyleTableRecord
  2
STANDARD$0
 70
     0
 40
2.0
 41
1.0
 42
2.0
 43
0.0
 44
1.0
 73
     0
 74
     0
 77
     3
 78
     9
140
4.5
141
0.0
147
1.0
172
     1
173
     1
178
     3
271
     2
340
1AD
341
109
343
109
344
109
  0
ENDTAB
  0
TABLE
  2
BLOCK_RECORD
  5
1
330
0
100
AcDbSymbolTable
 70
    11
  0
BLOCK_RECORD
  5
2
102
{ACAD_XDICTIONARY
360
BA61
102
}
330
1
100
AcDbSymbolTableRecord
100
AcDbBlockTableRecord
  2
*MODEL_SPACE
340
5A
  0
BLOCK_RECORD
  5
7
330
1
100
AcDbSymbolTableRecord
100
AcDbBlockTableRecord
  2
*PAPER_SPACE
340
5B
  0
BLOCK_RECORD
  5
109
330
1
100
AcDbSymbolTableRecord
100
AcDbBlockTableRecord
  2
_Dot
340
0
102
{BLKREFS
331
C604
331
C605
331
C617
331
C618
331
D5B0
331
D5B1
331
D5E7
331
D5E8
331
D5F4
331
D5F5
331
D605
331
D606
331
D6A9
331
D6AA
331
D6B2
331
D6B3
331
D6BB
331
D6BC
102
}
  0
BLOCK_RECORD
  5
B194
330
1
100
AcDbSymbolTableRecord
100
AcDbBlockTableRecord
  2
*D1
340
0
  0
BLOCK_RECORD
  5
B1AE
330
1
100
AcDbSymbolTableRecord
100
AcDbBlockTableRecord
  2
*D2
340
0
  0
BLOCK_RECORD
  5
D59F
330
1
100
AcDbSymbolTableRecord
100
AcDbBlockTableRecord
  2
*D3
340
0
  0
BLOCK_RECORD
  5
D626
330
1
100
AcDbSymbolTableRecord
100
AcDbBlockTableRecord
  2
*D7
340
0
  0
BLOCK_RECORD
  5
D657
330
1
100
AcDbSymbolTableRecord
100
AcDbBlockTableRecord
  2
*D8
340
0
  0
BLOCK_RECORD
  5
D66D
330
1
100
AcDbSymbolTableRecord
100
AcDbBlockTableRecord
  2
*D9
340
0
  0
ENDTAB
  0
ENDSEC
  0
SECTION
  2
BLOCKS
  0
BLOCK
  5
3
330
2
100
AcDbEntity
  8
0
100
AcDbBlockBegin
  2
*MODEL_SPACE
 70
     0
 10
0.0
 20
0.0
 30
0.0
  3
*MODEL_SPACE
  1

  0
ENDBLK
  5
6
330
2
100
AcDbEntity
  8
0
100
AcDbBlockEnd
  0
BLOCK
  5
8
330
7
100
AcDbEntity
 67
     1
  8
0
100
AcDbBlockBegin
  2
*PAPER_SPACE
 70
     0
 10
0.0
 20
0.0
 30
0.0
  3
*PAPER_SPACE
  1

  0
ENDBLK
  5
9
330
7
100
AcDbEntity
 67
     1
  8
0
100
AcDbBlockEnd
  0
BLOCK
  5
10C
330
109
100
AcDbEntity
  8
0
100
AcDbBlockBegin
  2
_Dot
 70
     0
 10
0.0
 20
0.0
 30
0.0
  3
_Dot
  1

  0
LWPOLYLINE
  5
10A
330
109
100
AcDbEntity
  8
0
  6
ByBlock
 62
     0
100
AcDbPolyline
 90
        2
 70
     1
 43
0.5
 10
-0.25
 20
0.0
 42
1.0
 10
0.25
 20
0.0
 42
1.0
  0
LINE
  5
10B
330
109
100
AcDbEntity
  8
0
  6
ByBlock
 62
     0
370
    -2
100
AcDbLine
 10
-0.5
 20
0.0
 30
0.0
 11
-1.0
 21
0.0
 31
0.0
  0
ENDBLK
  5
10D
330
109
100
AcDbEntity
  8
0
100
AcDbBlockEnd
  0
BLOCK
  5
B19E
330
B194
100
AcDbEntity
  8
0
100
AcDbBlockBegin
  2
*D1
 70
     1
 10
0.0
 20
0.0
 30
0.0
  3
*D1
  1

  0
LINE
  5
C600
330
B194
100
AcDbEntity
  8
SUNPOU
 62
    70
370
    -2
100
AcDbLine
 10
279.7012700086384
 20
257.836224953614
 30
0.0
 11
279.7012700086384
 21
145.2736303179613
 31
0.0
  0
LINE
  5
C601
330
B194
100
AcDbEntity
  8
SUNPOU
 62
    70
370
    -2
100
AcDbLine
 10
332.7012700086383
 20
257.836224953614
 30
0.0
 11
332.7012700086383
 21
145.2736303179613
 31
0.0
  0
LINE
  5
C602
330
B194
100
AcDbEntity
  8
SUNPOU
 62
    60
370
    -2
100
AcDbLine
 10
285.7012700086384
 20
145.2736303179613
 30
0.0
 11
326.7012700086383
 21
145.2736303179613
 31
0.0
  0
LINE
  5
C603
330
B194
100
AcDbEntity
  8
SUNPOU
 62
    60
370
    -2
100
AcDbLine
 10
332.7012700086383
 20
145.2736303179613
 30
0.0
 11
392.0346033419717
 21
145.2736303179613
 31
0.0
  0
INSERT
  5
C604
330
B194
100
AcDbEntity
  8
SUNPOU
 62
    60
370
    -2
100
AcDbBlockReference
  2
_Dot
 10
279.7012700086384
 20
145.2736303179613
 30
0.0
 41
6.0
 42
6.0
 43
6.0
 50
180.0
  0
INSERT
  5
C605
330
B194
100
AcDbEntity
  8
SUNPOU
 62
    60
370
    -2
100
AcDbBlockReference
  2
_Dot
 10
332.7012700086383
 20
145.2736303179613
 30
0.0
 41
6.0
 42
6.0
 43
6.0
  0
MTEXT
  5
C606
330
B194
100
AcDbEntity
  8
SUNPOU
 62
    60
100
AcDbMText
 10
365.367936675305
 20
165.2736303179613
 30
0.0
 40
20.0
 41
0.0
 71
     5
 72
     1
  1
\A1;53
  7
SUNPOU
 73
     1
 44
1.0
1001
ACAD
1000
MTEXTBEGIN
1070
    73
1070
     1
1070
    44
1040
1.0
1070
    74
1070
     0
1000
MTEXTEND
  0
POINT
  5
C607
330
B194
100
AcDbEntity
  8
DEFPOINTS
 62
     0
100
AcDbPoint
 10
279.7012700086384
 20
263.836224953614
 30
0.0
  0
POINT
  5
C608
330
B194
100
AcDbEntity
  8
DEFPOINTS
 62
     0
100
AcDbPoint
 10
332.7012700086383
 20
263.836224953614
 30
0.0
  0
POINT
  5
C609
330
B194
100
AcDbEntity
  8
DEFPOINTS
 62
     0
100
AcDbPoint
 10
332.7012700086383
 20
145.2736303179613
 30
0.0
  0
ENDBLK
  5
B19F
330
B194
100
AcDbEntity
  8
0
100
AcDbBlockEnd
  0
BLOCK
  5
B1B8
330
B1AE
100
AcDbEntity
  8
0
100
AcDbBlockBegin
  2
*D2
 70
     1
 10
0.0
 20
0.0
 30
0.0
  3
*D2
  1

  0
LINE
  5
C614
330
B1AE
100
AcDbEntity
  8
SUNPOU
 62
    70
370
    -2
100
AcDbLine
 10
275.7012700086384
 20
1363.836224953614
 30
0.0
 11
45.42208489875494
 21
1363.836224953614
 31
0.0
  0
LINE
  5
C615
330
B1AE
100
AcDbEntity
  8
SUNPOU
 62
    70
370
    -2
100
AcDbLine
 10
273.7012700086384
 20
263.836224953614
 30
0.0
 11
45.42208489875469
 21
263.836224953614
 31
0.0
  0
LINE
  5
C616
330
B1AE
100
AcDbEntity
  8
SUNPOU
 62
    60
370
    -2
100
AcDbLine
 10
45.42208489875493
 20
1357.836224953614
 30
0.0
 11
45.42208489875469
 21
269.836224953614
 31
0.0
  0
INSERT
  5
C617
330
B1AE
100
AcDbEntity
  8
SUNPOU
 62
    60
370
    -2
100
AcDbBlockReference
  2
_Dot
 10
45.42208489875494
 20
1363.836224953614
 30
0.0
 41
6.0
 42
6.0
 43
6.0
 50
90.0
  0
INSERT
  5
C618
330
B1AE
100
AcDbEntity
  8
SUNPOU
 62
    60
370
    -2
100
AcDbBlockReference
  2
_Dot
 10
45.42208489875469
 20
263.836224953614
 30
0.0
 41
6.0
 42
6.0
 43
6.0
 50
270.0
  0
MTEXT
  5
C619
330
B1AE
100
AcDbEntity
  8
SUNPOU
 62
    60
100
AcDbMText
 10
25.42208489875469
 20
813.8362249536138
 30
0.0
 40
20.0
 41
0.0
 71
     5
 72
     1
  1
\A1;1100
  7
SUNPOU
 11
0.0000000000000001
 21
1.0
 31
0.0
 73
     1
 44
1.0
1001
ACAD
1000
MTEXTBEGIN
1070
    73
1070
     1
1070
    44
1040
1.0
1070
    74
1070
     0
1000
MTEXTEND
  0
POINT
  5
C61A
330
B1AE
100
AcDbEntity
  8
DEFPOINTS
 62
     0
100
AcDbPoint
 10
281.7012700086384
 20
1363.836224953614
 30
0.0
  0
POINT
  5
C61B
330
B1AE
100
AcDbEntity
  8
DEFPOINTS
 62
     0
100
AcDbPoint
 10
279.7012700086384
 20
263.836224953614
 30
0.0
  0
POINT
  5
C61C
330
B1AE
100
AcDbEntity
  8
DEFPOINTS
 62
     0
100
AcDbPoint
 10
45.42208489875469
 20
263.836224953614
 30
0.0
  0
ENDBLK
  5
B1B9
330
B1AE
100
AcDbEntity
  8
0
100
AcDbBlockEnd
  0
BLOCK
  5
D5AA
330
D59F
100
AcDbEntity
  8
0
100
AcDbBlockBegin
  2
*D3
 70
     1
 10
0.0
 20
0.0
 30
0.0
  3
*D3
  1

  0
LINE
  5
D5AC
330
D59F
100
AcDbEntity
  8
SUNPOU
 62
    70
370
    -2
100
AcDbLine
 10
279.7012700086384
 20
1369.836224953613
 30
0.0
 11
279.7012700086384
 21
1482.398819589266
 31
0.0
  0
LINE
  5
D5AD
330
D59F
100
AcDbEntity
  8
SUNPOU
 62
    70
370
    -2
100
AcDbLine
 10
332.7012700086383
 20
1369.836224953613
 30
0.0
 11
332.7012700086383
 21
1482.398819589266
 31
0.0
  0
LINE
  5
D5AE
330
D59F
100
AcDbEntity
  8
SUNPOU
 62
    60
370
    -2
100
AcDbLine
 10
285.7012700086384
 20
1482.398819589266
 30
0.0
 11
326.7012700086383
 21
1482.398819589266
 31
0.0
  0
LINE
  5
D5AF
330
D59F
100
AcDbEntity
  8
SUNPOU
 62
    60
370
    -2
100
AcDbLine
 10
332.7012700086383
 20
1482.398819589266
 30
0.0
 11
392.0346033419717
 21
1482.398819589266
 31
0.0
  0
INSERT
  5
D5B0
330
D59F
100
AcDbEntity
  8
SUNPOU
 62
    60
370
    -2
100
AcDbBlockReference
  2
_Dot
 10
279.7012700086384
 20
1482.398819589266
 30
0.0
 41
6.0
 42
6.0
 43
6.0
 50
180.0
  0
INSERT
  5
D5B1
330
D59F
100
AcDbEntity
  8
SUNPOU
 62
    60
370
    -2
100
AcDbBlockReference
  2
_Dot
 10
332.7012700086383
 20
1482.398819589266
 30
0.0
 41
6.0
 42
6.0
 43
6.0
  0
MTEXT
  5
D5B2
330
D59F
100
AcDbEntity
  8
SUNPOU
 62
    60
100
AcDbMText
 10
365.367936675305
 20
1502.398819589266
 30
0.0
 40
20.0
 41
0.0
 71
     5
 72
     1
  1
\A1;53
  7
SUNPOU
 73
     1
 44
1.0
1001
ACAD
1000
MTEXTBEGIN
1070
    73
1070
     1
1070
    44
1040
1.0
1070
    74
1070
     0
1000
MTEXTEND
  0
POINT
  5
D5B3
330
D59F
100
AcDbEntity
  8
DEFPOINTS
 62
     0
100
AcDbPoint
 10
279.7012700086384
 20
1363.836224953613
 30
0.0
  0
POINT
  5
D5B4
330
D59F
100
AcDbEntity
  8
DEFPOINTS
 62
     0
100
AcDbPoint
 10
332.7012700086383
 20
1363.836224953613
 30
0.0
  0
POINT
  5
D5B5
330
D59F
100
AcDbEntity
  8
DEFPOINTS
 62
     0
100
AcDbPoint
 10
332.7012700086383
 20
1482.398819589266
 30
0.0
  0
ENDBLK
  5
D5AB
330
D59F
100
AcDbEntity
  8
0
100
AcDbBlockEnd
  0
BLOCK
  5
D630
330
D626
100
AcDbEntity
  8
0
100
AcDbBlockBegin
  2
*D7
 70
     1
 10
0.0
 20
0.0
 30
0.0
  3
*D7
  1

  0
LINE
  5
D6B8
330
D626
100
AcDbEntity
  8
SUNPOU
 62
    70
370
    -2
100
AcDbLine
 10
275.7012700086385
 20
1363.836224953614
 30
0.0
 11
133.3670304153399
 21
1363.836224953614
 31
0.0
  0
LINE
  5
D6B9
330
D626
100
AcDbEntity
  8
SUNPOU
 62
    70
370
    -2
100
AcDbLine
 10
275.7012700086384
 20
1213.836224953614
 30
0.0
 11
133.3670304153399
 21
1213.836224953614
 31
0.0
  0
LINE
  5
D6BA
330
D626
100
AcDbEntity
  8
SUNPOU
 62
    60
370
    -2
100
AcDbLine
 10
133.3670304153399
 20
1357.836224953614
 30
0.0
 11
133.3670304153399
 21
1219.836224953614
 31
0.0
  0
INSERT
  5
D6BB
330
D626
100
AcDbEntity
  8
SUNPOU
 62
    60
370
    -2
100
AcDbBlockReference
  2
_Dot
 10
133.3670304153399
 20
1363.836224953614
 30
0.0
 41
6.0
 42
6.0
 43
6.0
 50
90.0
  0
INSERT
  5
D6BC
330
D626
100
AcDbEntity
  8
SUNPOU
 62
    60
370
    -2
100
AcDbBlockReference
  2
_Dot
 10
133.3670304153399
 20
1213.836224953614
 30
0.0
 41
6.0
 42
6.0
 43
6.0
 50
270.0
  0
MTEXT
  5
D6BD
330
D626
100
AcDbEntity
  8
SUNPOU
 62
    60
100
AcDbMText
 10
113.3670304153397
 20
1288.836224953614
 30
0.0
 40
20.0
 41
0.0
 71
     5
 72
     1
  1
\A1;150
  7
SUNPOU
 11
0.0000000000000001
 21
1.0
 31
0.0
 73
     1
 44
1.0
1001
ACAD
1000
MTEXTBEGIN
1070
    73
1070
     1
1070
    44
1040
1.0
1070
    74
1070
     0
1000
MTEXTEND
  0
POINT
  5
D6BE
330
D626
100
AcDbEntity
  8
DEFPOINTS
 62
     0
100
AcDbPoint
 10
281.7012700086385
 20
1363.836224953614
 30
0.0
  0
POINT
  5
D6BF
330
D626
100
AcDbEntity
  8
DEFPOINTS
 62
     0
100
AcDbPoint
 10
281.7012700086385
 20
1213.836224953614
 30
0.0
  0
POINT
  5
D6C0
330
D626
100
AcDbEntity
  8
DEFPOINTS
 62
     0
100
AcDbPoint
 10
133.3670304153399
 20
1213.836224953614
 30
0.0
  0
ENDBLK
  5
D631
330
D626
100
AcDbEntity
  8
0
100
AcDbBlockEnd
  0
BLOCK
  5
D661
330
D657
100
AcDbEntity
  8
0
100
AcDbBlockBegin
  2
*D8
 70
     1
 10
0.0
 20
0.0
 30
0.0
  3
*D8
  1

  0
LINE
  5
D6A6
330
D657
100
AcDbEntity
  8
SUNPOU
 62
    70
370
    -2
100
AcDbLine
 10
275.7012700086384
 20
1213.836224953614
 30
0.0
 11
133.3670304153399
 21
1213.836224953614
 31
0.0
  0
LINE
  5
D6A7
330
D657
100
AcDbEntity
  8
SUNPOU
 62
    70
370
    -2
100
AcDbLine
 10
275.7012700086384
 20
613.8362249536138
 30
0.0
 11
133.3670304153398
 21
613.836224953614
 31
0.0
  0
LINE
  5
D6A8
330
D657
100
AcDbEntity
  8
SUNPOU
 62
    60
370
    -2
100
AcDbLine
 10
133.3670304153399
 20
1207.836224953614
 30
0.0
 11
133.3670304153398
 21
619.8362249536139
 31
0.0
  0
INSERT
  5
D6A9
330
D657
100
AcDbEntity
  8
SUNPOU
 62
    60
370
    -2
100
AcDbBlockReference
  2
_Dot
 10
133.3670304153399
 20
1213.836224953614
 30
0.0
 41
6.0
 42
6.0
 43
6.0
 50
90.0
  0
INSERT
  5
D6AA
330
D657
100
AcDbEntity
  8
SUNPOU
 62
    60
370
    -2
100
AcDbBlockReference
  2
_Dot
 10
133.3670304153398
 20
613.836224953614
 30
0.0
 41
6.0
 42
6.0
 43
6.0
 50
270.0
  0
MTEXT
  5
D6AB
330
D657
100
AcDbEntity
  8
SUNPOU
 62
    60
100
AcDbMText
 10
113.3670304153397
 20
913.8362249536141
 30
0.0
 40
20.0
 41
0.0
 71
     5
 72
     1
  1
\A1;600
  7
SUNPOU
 11
0.0000000000000001
 21
1.0
 31
0.0
 73
     1
 44
1.0
1001
ACAD
1000
MTEXTBEGIN
1070
    73
1070
     1
1070
    44
1040
1.0
1070
    74
1070
     0
1000
MTEXTEND
  0
POINT
  5
D6AC
330
D657
100
AcDbEntity
  8
DEFPOINTS
 62
     0
100
AcDbPoint
 10
281.7012700086384
 20
1213.836224953614
 30
0.0
  0
POINT
  5
D6AD
330
D657
100
AcDbEntity
  8
DEFPOINTS
 62
     0
100
AcDbPoint
 10
281.7012700086384
 20
613.8362249536138
 30
0.0
  0
POINT
  5
D6AE
330
D657
100
AcDbEntity
  8
DEFPOINTS
 62
     0
100
AcDbPoint
 10
133.3670304153398
 20
613.836224953614
 30
0.0
  0
ENDBLK
  5
D662
330
D657
100
AcDbEntity
  8
0
100
AcDbBlockEnd
  0
BLOCK
  5
D677
330
D66D
100
AcDbEntity
  8
0
100
AcDbBlockBegin
  2
*D9
 70
     1
 10
0.0
 20
0.0
 30
0.0
  3
*D9
  1

  0
LINE
  5
D6AF
330
D66D
100
AcDbEntity
  8
SUNPOU
 62
    70
370
    -2
100
AcDbLine
 10
275.7012700086384
 20
613.836224953614
 30
0.0
 11
133.3670304153399
 21
613.836224953614
 31
0.0
  0
LINE
  5
D6B0
330
D66D
100
AcDbEntity
  8
SUNPOU
 62
    70
370
    -2
100
AcDbLine
 10
275.7012700086384
 20
263.8362249536141
 30
0.0
 11
133.3670304153398
 21
263.8362249536141
 31
0.0
  0
LINE
  5
D6B1
330
D66D
100
AcDbEntity
  8
SUNPOU
 62
    60
370
    -2
100
AcDbLine
 10
133.3670304153399
 20
607.8362249536141
 30
0.0
 11
133.3670304153398
 21
269.8362249536141
 31
0.0
  0
INSERT
  5
D6B2
330
D66D
100
AcDbEntity
  8
SUNPOU
 62
    60
370
    -2
100
AcDbBlockReference
  2
_Dot
 10
133.3670304153399
 20
613.836224953614
 30
0.0
 41
6.0
 42
6.0
 43
6.0
 50
90.0
  0
INSERT
  5
D6B3
330
D66D
100
AcDbEntity
  8
SUNPOU
 62
    60
370
    -2
100
AcDbBlockReference
  2
_Dot
 10
133.3670304153398
 20
263.8362249536141
 30
0.0
 41
6.0
 42
6.0
 43
6.0
 50
270.0
  0
MTEXT
  5
D6B4
330
D66D
100
AcDbEntity
  8
SUNPOU
 62
    60
100
AcDbMText
 10
113.3670304153398
 20
438.836224953614
 30
0.0
 40
20.0
 41
0.0
 71
     5
 72
     1
  1
\A1;350
  7
SUNPOU
 11
0.0000000000000001
 21
1.0
 31
0.0
 73
     1
 44
1.0
1001
ACAD
1000
MTEXTBEGIN
1070
    73
1070
     1
1070
    44
1040
1.0
1070
    74
1070
     0
1000
MTEXTEND
  0
POINT
  5
D6B5
330
D66D
100
AcDbEntity
  8
DEFPOINTS
 62
     0
100
AcDbPoint
 10
281.7012700086384
 20
613.836224953614
 30
0.0
  0
POINT
  5
D6B6
330
D66D
100
AcDbEntity
  8
DEFPOINTS
 62
     0
100
AcDbPoint
 10
281.7012700086384
 20
263.8362249536141
 30
0.0
  0
POINT
  5
D6B7
330
D66D
100
AcDbEntity
  8
DEFPOINTS
 62
     0
100
AcDbPoint
 10
133.3670304153398
 20
263.8362249536141
 30
0.0
  0
ENDBLK
  5
D678
330
D66D
100
AcDbEntity
  8
0
100
AcDbBlockEnd
  0
ENDSEC
  0
SECTION
  2
ENTITIES
  0
LINE
  5
1F
330
2
100
AcDbEntity
  8
WAKU
100
AcDbLine
 10
0.0
 20
70.0
 30
0.0
 11
610.6489978526152
 21
70.0
 31
0.0
  0
LINE
  5
20
330
2
100
AcDbEntity
  8
WAKU
100
AcDbLine
 10
0.0
 20
0.0
 30
0.0
 11
610.6489978526152
 21
0.0
 31
0.0
  0
TEXT
  5
21
330
2
100
AcDbEntity
  8
HOJO
100
AcDbText
 10
48.26983000000012
 20
11.83313000000009
 30
0.0
 40
45.0
  1
F-4
  7
SUNPOU
100
AcDbText
  0
TEXT
  5
4A3
330
2
100
AcDbEntity
  8
HOJO
100
AcDbText
 10
225.60543919488
 20
20.97829970797568
 30
0.0
 40
35.0
  1
1100x53x53
  7
SUNPOU
100
AcDbText
  0
LINE
  5
AFC5
330
2
100
AcDbEntity
  8
KIJUN
100
AcDbLine
 10
330.2012700086383
 20
630.8362249536139
 30
0.0
 11
330.2012700086384
 21
626.836224953614
 31
0.0
  0
LINE
  5
AFCF
330
2
100
AcDbEntity
  8
KIJUN
100
AcDbLine
 10
330.7012700086385
 20
613.836224953614
 30
0.0
 11
281.7012700086384
 21
613.8362249536138
 31
0.0
  0
LINE
  5
B0B0
330
2
100
AcDbEntity
  8
KIJUN
100
AcDbLine
 10
330.7012700086383
 20
1213.836224953614
 30
0.0
 11
281.7012700086384
 21
1213.836224953614
 31
0.0
  0
LINE
  5
B118
330
2
100
AcDbEntity
  8
KIJUN
100
AcDbLine
 10
287.2012700086377
 20
1127.836224953614
 30
0.0
 11
325.2012700086384
 21
1127.836224953614
 31
0.0
  0
LINE
  5
B119
330
2
100
AcDbEntity
  8
KIJUN
100
AcDbLine
 10
322.7012700086384
 20
1127.836224953614
 30
0.0
 11
331.672566169864
 21
947.6778645240793
 31
0.0
  0
LINE
  5
B140
330
2
100
AcDbEntity
  8
KIJUN
100
AcDbLine
 10
327.2012700086384
 20
936.836224953614
 30
0.0
 11
285.2012700086384
 21
936.8362249536138
 31
0.0
  0
LINE
  5
B15A
330
2
100
AcDbEntity
  8
KIJUN
100
AcDbLine
 10
308.7012700086384
 20
1110.336224953614
 30
0.0
 11
308.7012700086386
 21
961.3362249536137
 31
0.0
  0
LINE
  5
B176
330
2
100
AcDbEntity
  8
KIJUN
100
AcDbLine
 10
319.9207849645605
 20
1108.822796631443
 30
0.0
 11
325.830486621005
 21
963.4475260302306
 31
0.0
  0
LINE
  5
B183
330
2
100
AcDbEntity
  8
KIJUN
  6
CENTER
100
AcDbLine
 10
306.2012700086384
 20
223.3576226846694
 30
0.0
 11
306.2012700086384
 21
1386.196406155961
 31
0.0
  0
LINE
  5
B184
330
2
100
AcDbEntity
  8
KIJUN
100
AcDbLine
 10
281.7012700086385
 20
1363.836224953614
 30
0.0
 11
330.7012700086383
 21
1363.836224953614
 31
0.0
  0
LINE
  5
B186
330
2
100
AcDbEntity
  8
KIJUN
100
AcDbLine
 10
332.7012700086383
 20
265.836224953614
 30
0.0
 11
332.7012700086382
 21
611.8362249536139
 31
0.0
  0
LINE
  5
B187
330
2
100
AcDbEntity
  8
KIJUN
100
AcDbLine
 10
332.7012700086385
 20
1215.836224953614
 30
0.0
 11
332.7012700086384
 21
1361.836224953614
 31
0.0
  0
ARC
  5
B18A
330
2
100
AcDbEntity
  8
KIJUN
100
AcDbCircle
 10
330.7012700086384
 20
611.8362249536139
 30
0.0
 40
2.0
100
AcDbArc
 50
0.0
 51
90.0
  0
ARC
  5
B192
330
2
100
AcDbEntity
  8
KIJUN
100
AcDbCircle
 10
330.7012700086383
 20
1215.836224953614
 30
0.0
 40
2.0
100
AcDbArc
 50
270.0
 51
0.0
  0
DIMENSION
  5
B193
330
2
100
AcDbEntity
  8
SUNPOU
100
AcDbDimension
  2
*D1
 10
332.7012700086383
 20
145.2736303179613
 30
0.0
 11
365.367936675305
 21
165.2736303179613
 31
0.0
 70
    32
 71
     5
 42
52.99999999999994
  3
STANDARD$0
100
AcDbAlignedDimension
 13
279.7012700086384
 23
263.836224953614
 33
0.0
 14
332.7012700086383
 24
263.836224953614
 34
0.0
100
AcDbRotatedDimension
1001
ACAD
1000
DSTYLE
1002
{
1070
    41
1040
3.0
1070
    42
1040
3.0
1070
    44
1040
0.0
1070
    77
1070
     1
1070
   140
1040
10.0
1070
   146
1040
0.064286
1070
   147
1040
5.0
1070
   176
1070
    60
1070
   177
1070
    70
1070
   178
1070
    60
1070
   271
1070
     0
1070
   272
1070
     0
1070
   340
1005
1C
1070
   342
1005
109
1002
}
  0
DIMENSION
  5
B1AD
330
2
100
AcDbEntity
  8
SUNPOU
100
AcDbDimension
  2
*D2
 10
45.42208489875469
 20
263.836224953614
 30
0.0
 11
25.42208489875469
 21
813.8362249536138
 31
0.0
 70
    32
 71
     5
 42
1100.0
  3
STANDARD$0
100
AcDbAlignedDimension
 13
281.7012700086384
 23
1363.836224953614
 33
0.0
 14
279.7012700086384
 24
263.836224953614
 34
0.0
 50
90.0
100
AcDbRotatedDimension
1001
ACAD
1000
DSTYLE
1002
{
1070
    41
1040
3.0
1070
    42
1040
3.0
1070
    44
1040
0.0
1070
    77
1070
     1
1070
   140
1040
10.0
1070
   146
1040
0.064286
1070
   147
1040
5.0
1070
   176
1070
    60
1070
   177
1070
    70
1070
   178
1070
    60
1070
   271
1070
     0
1070
   272
1070
     0
1070
   340
1005
1C
1070
   342
1005
109
1002
}
  0
ARC
  5
B9B3
330
2
100
AcDbEntity
  8
KIJUN
100
AcDbCircle
 10
323.0465652823012
 20
620.3362249536139
 30
0.0
 40
9.666426419368818
100
AcDbArc
 50
317.7450693562449
 51
42.2549306437551
  0
ARC
  5
B9CA
330
2
100
AcDbEntity
  8
KIJUN
100
AcDbCircle
 10
294.1042393207244
 20
667.8686521685754
 30
0.0
 40
38.54142152954661
100
AcDbArc
 50
325.8782721565681
 51
27.7871757750297
  0
ARC
  5
B9CB
330
2
100
AcDbEntity
  8
KIJUN
100
AcDbCircle
 10
334.7744555818112
 20
640.3556143061971
 30
0.0
 40
10.56090904859714
100
AcDbArc
 50
146.0815818270433
 51
244.3400235101325
  0
ARC
  5
B9CE
330
2
100
AcDbEntity
  8
KIJUN
100
AcDbCircle
 10
327.0756121761079
 20
691.3362249536142
 30
0.0
 40
5.614009757378259
100
AcDbArc
 50
281.5667083500551
 51
78.43329164994482
  0
ARC
  5
B9D0
330
2
100
AcDbEntity
  8
KIJUN
100
AcDbCircle
 10
330.0290771188882
 20
706.9281109363544
 30
0.0
 40
7.323641554887117
100
AcDbArc
 50
126.2234933044179
 51
255.5475608048998
  0
LINE
  5
B9D4
330
2
100
AcDbEntity
  8
KIJUN
100
AcDbLine
 10
329.7012700086384
 20
1200.836224953613
 30
0.0
 11
329.7012700086384
 21
1203.836224953613
 31
0.0
  0
ARC
  5
B9D6
330
2
100
AcDbEntity
  8
KIJUN
100
AcDbCircle
 10
325.9368363188959
 20
1208.836224953614
 30
0.0
 40
6.258670865644603
100
AcDbArc
 50
306.9756057096755
 51
53.0243942903237
  0
ARC
  5
B9D7
330
2
100
AcDbEntity
  8
KIJUN
100
AcDbCircle
 10
320.9663591570284
 20
1176.876113685357
 30
0.0
 40
10.18868398807324
100
AcDbArc
 50
279.8039950474129
 51
62.78415991056595
  0
ARC
  5
B9D8
330
2
100
AcDbEntity
  8
KIJUN
100
AcDbCircle
 10
329.7568282049126
 20
1192.81401406427
 30
0.0
 40
8.022403272478399
100
AcDbArc
 50
90.3967982537847
 51
239.0092109283342
  0
ARC
  5
BA13
330
2
100
AcDbEntity
  8
KIJUN
100
AcDbCircle
 10
322.1704760667914
 20
1161.836224953614
 30
0.0
 40
5.028095286358362
100
AcDbArc
 50
276.059754692985
 51
83.94024530701626
  0
LINE
  5
BA15
330
2
100
AcDbEntity
  8
KIJUN
100
AcDbLine
 10
325.2012700086384
 20
1144.836224953614
 30
0.0
 11
287.2012700086383
 21
1144.836224953614
 31
0.0
  0
LINE
  5
BA2C
330
2
100
AcDbEntity
  8
KIJUN
100
AcDbLine
 10
287.2012700086379
 20
1141.836224953614
 30
0.0
 11
325.2012700086384
 21
1141.836224953614
 31
0.0
  0
LINE
  5
BA2E
330
2
100
AcDbEntity
  8
KIJUN
100
AcDbLine
 10
287.2012700086377
 20
1130.836224953614
 30
0.0
 11
325.2012700086384
 21
1130.836224953614
 31
0.0
  0
LINE
  5
BA57
330
2
100
AcDbEntity
  8
KIJUN
100
AcDbLine
 10
325.2012700086392
 20
1127.836224953614
 30
0.0
 11
325.2012700086391
 21
1130.836224953614
 31
0.0
  0
ARC
  5
BA58
330
2
100
AcDbEntity
  8
KIJUN
100
AcDbCircle
 10
320.3782200853949
 20
1136.336224953614
 30
0.0
 40
7.315176728015472
100
AcDbArc
 50
311.2481119299939
 51
48.75188807000607
  0
LINE
  5
BA60
330
2
100
AcDbEntity
  8
KIJUN
100
AcDbLine
 10
325.2012700086388
 20
1141.836224953614
 30
0.0
 11
325.2012700086384
 21
1144.836224953614
 31
0.0
  0
ARC
  5
BA65
330
2
100
AcDbEntity
  8
KIJUN
100
AcDbCircle
 10
327.140477342321
 20
940.1898225090562
 30
0.0
 40
3.35414852267247
100
AcDbArc
 50
271.0385210774762
 51
52.09158127653513
  0
ARC
  5
BA66
330
2
100
AcDbEntity
  8
KIJUN
100
AcDbCircle
 10
326.5902697609399
 20
947.2204720260265
 30
0.0
 40
5.102836925224683
100
AcDbArc
 50
300.7755457473311
 51
5.142605996622519
  0
LINE
  5
BA67
330
2
100
AcDbEntity
  8
KIJUN
100
AcDbLine
 10
327.2012700086384
 20
933.8362249536139
 30
0.0
 11
285.2012700086384
 21
933.8362249536142
 31
0.0
  0
LINE
  5
BA68
330
2
100
AcDbEntity
  8
KIJUN
100
AcDbLine
 10
327.2012700086384
 20
936.836224953614
 30
0.0
 11
327.2012700086385
 21
933.8362249536141
 31
0.0
  0
ARC
  5
BB0D
330
2
100
AcDbEntity
  8
KIJUN
100
AcDbCircle
 10
327.340980454978
 20
928.700514608491
 30
0.0
 40
5.137610315878271
100
AcDbArc
 50
91.55827424679831
 51
248.0836866872326
  0
LINE
  5
BCE4
330
2
100
AcDbEntity
  8
KIJUN
100
AcDbLine
 10
281.2012700086384
 20
921.8362249536141
 30
0.0
 11
331.2012700086384
 21
921.836224953614
 31
0.0
  0
LINE
  5
BCE5
330
2
100
AcDbEntity
  8
KIJUN
100
AcDbLine
 10
331.2012700086384
 20
921.836224953614
 30
0.0
 11
331.2012700086385
 21
918.8362249536139
 31
0.0
  0
ARC
  5
BD12
330
2
100
AcDbEntity
  8
KIJUN
100
AcDbCircle
 10
379.2983197166026
 20
870.5977075090139
 30
0.0
 40
54.79231370622602
100
AcDbArc
 50
138.594827514329
 51
188.2137260216127
  0
ARC
  5
BD13
330
2
100
AcDbEntity
  8
KIJUN
100
AcDbCircle
 10
284.433129209363
 20
754.8575078333348
 30
0.0
 40
54.77766210171521
100
AcDbArc
 50
318.8836139202509
 51
358.9317070680943
  0
ARC
  5
BD14
330
2
100
AcDbEntity
  8
KIJUN
100
AcDbCircle
 10
-156.1919627257027
 20
744.9467211865386
 30
0.0
 40
495.4729844463831
100
AcDbArc
 50
1.028024520018157
 51
13.75667723966468
  0
ARC
  5
BD18
330
2
100
AcDbEntity
  8
KIJUN
100
AcDbCircle
 10
323.609489393546
 20
906.3660195948097
 30
0.0
 40
14.59935459527014
100
AcDbArc
 50
1.84565983468161
 51
58.66721449237796
  0
ARC
  5
BDC8
330
2
100
AcDbEntity
  8
KIJUN
100
AcDbCircle
 10
334.2556789389728
 20
910.3576607694821
 30
0.0
 40
5.288496865301643
100
AcDbArc
 50
221.7488776630162
 51
318.2511223369825
  0
ARC
  5
BDC9
330
2
100
AcDbEntity
  8
KIJUN
100
AcDbCircle
 10
324.6976487017695
 20
910.3356493356031
 30
0.0
 40
6.614033898807701
100
AcDbArc
 50
211.9440433395731
 51
328.0559566604229
  0
ARC
  5
BDCB
330
2
100
AcDbEntity
  8
KIJUN
100
AcDbCircle
 10
312.6432397714351
 20
911.3239216520803
 30
0.0
 40
7.851012424026043
100
AcDbArc
 50
214.8623899785587
 51
325.1376100214384
  0
ELLIPSE
  5
BDD2
330
2
100
AcDbEntity
  8
KIJUN
100
AcDbEllipse
 10
318.8369630504267
 20
1103.158655206487
 30
0.0
 11
-0.7233918825812555
 21
9.622965758359516
 31
0.0
210
0.0
220
0.0
230
1.0
 40
0.1909760398091227
 41
-0.9558925118114618
 42
0.9446656086419093
  0
ELLIPSE
  5
BDD4
330
2
100
AcDbEntity
  8
KIJUN
100
AcDbEllipse
 10
324.2116668436747
 20
965.029157501946
 30
0.0
 11
-0.4614150636961226
 21
6.168460234644395
 31
0.0
210
0.0
220
0.0
230
-1.0
 40
0.2515650946488107
 41
1.848867064690681
 42
4.448921023617336
  0
ARC
  5
BDD8
330
2
100
AcDbEntity
  8
KIJUN
100
AcDbCircle
 10
306.2012700086386
 20
961.3362249536137
 30
0.0
 40
2.5
100
AcDbArc
 50
180.0
 51
0.0
  0
ARC
  5
BDDE
330
2
100
AcDbEntity
  8
KIJUN
100
AcDbCircle
 10
306.2012700086386
 20
1110.336224953614
 30
0.0
 40
2.5
100
AcDbArc
 50
0.0
 51
180.0
  0
ARC
  5
BDE0
330
2
100
AcDbEntity
  8
KIJUN
100
AcDbCircle
 10
443.3527711409211
 20
868.7084821257807
 30
0.0
 40
129.9851977758154
100
AcDbArc
 50
162.9429520329778
 51
190.1901936851182
  0
ARC
  5
BDE1
330
2
100
AcDbEntity
  8
KIJUN
100
AcDbCircle
 10
-439.8128280289501
 20
817.5658418866229
 30
0.0
 40
758.1230493077251
100
AcDbArc
 50
353.5762024816476
 51
357.4067004927637
  0
ARC
  5
BDE2
330
2
100
AcDbEntity
  8
KIJUN
100
AcDbCircle
 10
-118.0736975408599
 20
799.7647214493207
 30
0.0
 40
435.9199226302372
100
AcDbArc
 50
357.8306433566714
 51
6.050384823721342
  0
ARC
  5
BDE3
330
2
100
AcDbEntity
  8
KIJUN
100
AcDbCircle
 10
427.9877351823727
 20
858.8933230610725
 30
0.0
 40
108.8092120479397
100
AcDbArc
 50
153.8569133793164
 51
173.1672836499728
  0
ARC
  5
BDE4
330
2
100
AcDbEntity
  8
KIJUN
100
AcDbCircle
 10
372.8715165394097
 20
865.986840703144
 30
0.0
 40
53.24273816623096
100
AcDbArc
 50
173.6901894408865
 51
196.5637931061514
  0
ARC
  5
BDE5
330
2
100
AcDbEntity
  8
KIJUN
100
AcDbCircle
 10
-39.16808007050626
 20
808.6396646355343
 30
0.0
 40
370.8019904873965
100
AcDbArc
 50
348.1895246682782
 51
354.9070977000613
  0
LINE
  5
BE45
330
2
100
AcDbEntity
  8
KIJUN
100
AcDbLine
 10
322.7012700086384
 20
1156.836224953614
 30
0.0
 11
289.7012700086384
 21
1156.836224953614
 31
0.0
  0
LINE
  5
BE46
330
2
100
AcDbEntity
  8
KIJUN
100
AcDbLine
 10
322.7012700086384
 20
1146.836224953614
 30
0.0
 11
322.7012700086384
 21
1156.836224953614
 31
0.0
  0
LINE
  5
BE4A
330
2
100
AcDbEntity
  8
KIJUN
100
AcDbLine
 10
331.2012700086384
 20
921.8362249536138
 30
0.0
 11
325.4233574276546
 21
923.9341992933971
 31
0.0
  0
LINE
  5
BF04
330
2
100
AcDbEntity
  8
KIJUN
100
AcDbLine
 10
329.7012700086384
 20
1203.836224953614
 30
0.0
 11
282.7012700086385
 21
1203.836224953613
 31
0.0
  0
LINE
  5
BF05
330
2
100
AcDbEntity
  8
KIJUN
100
AcDbLine
 10
322.7012700086384
 20
1166.836224953614
 30
0.0
 11
289.7012700087008
 21
1166.836224953614
 31
0.0
  0
LINE
  5
BF26
330
2
100
AcDbEntity
  8
KIJUN
100
AcDbLine
 10
329.7012700086384
 20
1200.836224953613
 30
0.0
 11
282.7012700086385
 21
1200.836224953614
 31
0.0
  0
LINE
  5
C001
330
2
100
AcDbEntity
  8
KIJUN
100
AcDbLine
 10
329.2012700086465
 20
942.8362249536139
 30
0.0
 11
283.2012700086306
 21
942.8362249536139
 31
0.0
  0
LINE
  5
C008
330
2
100
AcDbEntity
  8
KIJUN
100
AcDbLine
 10
281.2012700086383
 20
918.8362249536137
 30
0.0
 11
331.2012700086385
 21
918.8362249536139
 31
0.0
  0
LINE
  5
C01E
330
2
100
AcDbEntity
  8
KIJUN
100
AcDbLine
 10
286.7012700086387
 20
718.8362249536139
 30
0.0
 11
325.7012700086385
 21
718.836224953614
 31
0.0
  0
ARC
  5
C054
330
2
100
AcDbEntity
  8
KIJUN
100
AcDbCircle
 10
324.4487186395238
 20
715.8362249536143
 30
0.0
 40
3.250982148870103
100
AcDbArc
 50
292.6613717500316
 51
67.3386282499634
  0
LINE
  5
C056
330
2
100
AcDbEntity
  8
KIJUN
100
AcDbLine
 10
286.7012700086195
 20
712.8362249536141
 30
0.0
 11
325.7012700086383
 21
712.8362249536141
 31
0.0
  0
LINE
  5
C058
330
2
100
AcDbEntity
  8
KIJUN
100
AcDbLine
 10
284.2012700086385
 20
699.8362249536141
 30
0.0
 11
328.2012700086384
 21
699.8362249536141
 31
0.0
  0
LINE
  5
C059
330
2
100
AcDbEntity
  8
KIJUN
100
AcDbLine
 10
284.2012700086385
 20
696.8362249536141
 30
0.0
 11
328.2012700086383
 21
696.8362249536138
 31
0.0
  0
LINE
  5
C060
330
2
100
AcDbEntity
  8
KIJUN
100
AcDbLine
 10
328.2012700086383
 20
696.8362249536138
 30
0.0
 11
328.2012700086384
 21
699.8362249536141
 31
0.0
  0
LINE
  5
C128
330
2
100
AcDbEntity
  8
KIJUN
100
AcDbLine
 10
306.2012700086384
 20
906.8362249536141
 30
0.0
 11
306.2012700086384
 21
732.745762116571
 31
0.0
  0
ARC
  5
C12D
330
2
100
AcDbEntity
  8
KIJUN
100
AcDbCircle
 10
104.6979333300907
 20
788.7084945673954
 30
0.0
 40
225.8456870195615
100
AcDbArc
 50
356.7038950178651
 51
15.95995539357167
  0
ARC
  5
C25F
330
2
100
AcDbEntity
  8
KIJUN
100
AcDbCircle
 10
306.2012700086383
 20
566.3379921793175
 30
0.0
 40
45.49823277429644
100
AcDbArc
 50
54.37764271332636
 51
125.6223572866733
  0
LINE
  5
C262
330
2
100
AcDbEntity
  8
KIJUN
100
AcDbLine
 10
306.2012700086385
 20
906.8362249536141
 30
0.0
 11
306.2012700086385
 21
732.745762116571
 31
0.0
  0
LINE
  5
C367
330
2
100
AcDbEntity
  8
KIJUN
100
AcDbLine
 10
303.7012700086384
 20
1110.336224953614
 30
0.0
 11
303.7012700086386
 21
961.3362249536137
 31
0.0
  0
LINE
  5
C386
330
2
100
AcDbEntity
  8
KIJUN
100
AcDbLine
 10
316.9239098985411
 20
1108.685903101022
 30
0.0
 11
322.8336115549855
 21
963.3106324998092
 31
0.0
  0
LINE
  5
D46D
330
2
100
AcDbEntity
  8
KIJUN
100
AcDbLine
 10
322.7012700086384
 20
1146.836224953614
 30
0.0
 11
289.7012700086384
 21
1146.836224953614
 31
0.0
  0
LINE
  5
D46E
330
2
100
AcDbEntity
  8
KIJUN
100
AcDbLine
 10
325.2012700086384
 20
1144.836224953614
 30
0.0
 11
322.7012700086384
 21
1146.836224953614
 31
0.0
  0
LINE
  5
D4C6
330
2
100
AcDbEntity
  8
KIJUN
100
AcDbLine
 10
330.2012700086384
 20
626.836224953614
 30
0.0
 11
282.2012700086385
 21
626.8362249536139
 31
0.0
  0
LINE
  5
D4C7
330
2
100
AcDbEntity
  8
KIJUN
100
AcDbLine
 10
330.2012700086383
 20
630.8362249536139
 30
0.0
 11
282.2012700086385
 21
630.8362249536138
 31
0.0
  0
LINE
  5
D4CB
330
2
100
AcDbEntity
  8
KIJUN
100
AcDbLine
 10
328.2012700086383
 20
685.836224953614
 30
0.0
 11
284.2012700086386
 21
685.8362249536138
 31
0.0
  0
LINE
  5
D556
330
2
100
AcDbEntity
  8
KIJUN
100
AcDbLine
 10
338.2012700086384
 20
906.8362249536139
 30
0.0
 11
274.2012700086382
 21
906.8362249536141
 31
0.0
  0
LINE
  5
D561
330
2
100
AcDbEntity
  8
KIJUN
100
AcDbLine
 10
279.7012700086384
 20
1215.836224953614
 30
0.0
 11
279.7012700086384
 21
1361.836224953614
 31
0.0
  0
ARC
  5
D562
330
2
100
AcDbEntity
  8
KIJUN
100
AcDbCircle
 10
281.7012700086385
 20
1215.836224953614
 30
0.0
 40
2.0
100
AcDbArc
 50
180.0
 51
270.0
  0
LINE
  5
D563
330
2
100
AcDbEntity
  8
KIJUN
100
AcDbLine
 10
282.7012700086385
 20
1200.836224953614
 30
0.0
 11
282.7012700086385
 21
1203.836224953613
 31
0.0
  0
ARC
  5
D564
330
2
100
AcDbEntity
  8
KIJUN
100
AcDbCircle
 10
286.465703698381
 20
1208.836224953614
 30
0.0
 40
6.258670865644603
100
AcDbArc
 50
126.9756057096742
 51
233.0243942903261
  0
ARC
  5
D565
330
2
100
AcDbEntity
  8
KIJUN
100
AcDbCircle
 10
291.4361808602484
 20
1176.876113685357
 30
0.0
 40
10.18868398807324
100
AcDbArc
 50
117.2158400894321
 51
260.1960049525887
  0
ARC
  5
D566
330
2
100
AcDbEntity
  8
KIJUN
100
AcDbCircle
 10
282.6457118123642
 20
1192.81401406427
 30
0.0
 40
8.022403272478399
100
AcDbArc
 50
300.9907890716662
 51
89.60320174621495
  0
ARC
  5
D567
330
2
100
AcDbEntity
  8
KIJUN
100
AcDbCircle
 10
290.2320639504854
 20
1161.836224953614
 30
0.0
 40
5.028095286358362
100
AcDbArc
 50
96.05975469227749
 51
263.9402453070181
  0
LINE
  5
D568
330
2
100
AcDbEntity
  8
KIJUN
100
AcDbLine
 10
287.2012700086377
 20
1127.836224953614
 30
0.0
 11
287.2012700086377
 21
1130.836224953614
 31
0.0
  0
LINE
  5
D569
330
2
100
AcDbEntity
  8
KIJUN
100
AcDbLine
 10
287.2012700086379
 20
1141.836224953614
 30
0.0
 11
287.2012700086383
 21
1144.836224953614
 31
0.0
  0
ARC
  5
D56A
330
2
100
AcDbEntity
  8
KIJUN
100
AcDbCircle
 10
292.0243199318819
 20
1136.336224953614
 30
0.0
 40
7.315176728015472
100
AcDbArc
 50
131.2481119299963
 51
228.7518880700036
  0
LINE
  5
D56B
330
2
100
AcDbEntity
  8
KIJUN
100
AcDbLine
 10
289.7012700086384
 20
1146.836224953614
 30
0.0
 11
289.7012700086384
 21
1156.836224953614
 31
0.0
  0
LINE
  5
D56C
330
2
100
AcDbEntity
  8
KIJUN
100
AcDbLine
 10
287.2012700086383
 20
1144.836224953614
 30
0.0
 11
289.7012700086384
 21
1146.836224953614
 31
0.0
  0
LINE
  5
D56D
330
2
100
AcDbEntity
  8
KIJUN
100
AcDbLine
 10
289.7012700086384
 20
1127.836224953614
 30
0.0
 11
280.7299738474128
 21
947.6778645240793
 31
0.0
  0
LINE
  5
D56E
330
2
100
AcDbEntity
  8
KIJUN
100
AcDbLine
 10
292.4817550527163
 20
1108.822796631443
 30
0.0
 11
286.5720533962718
 21
963.4475260302306
 31
0.0
  0
LINE
  5
D56F
330
2
100
AcDbEntity
  8
KIJUN
100
AcDbLine
 10
295.4786301187358
 20
1108.685903101022
 30
0.0
 11
289.5689284622914
 21
963.3106324998092
 31
0.0
  0
ARC
  5
D570
330
2
100
AcDbEntity
  8
KIJUN
100
AcDbCircle
 10
285.2620626749557
 20
940.1898225090562
 30
0.0
 40
3.35414852267247
100
AcDbArc
 50
127.9084187234633
 51
268.9614789225229
  0
ARC
  5
D571
330
2
100
AcDbEntity
  8
KIJUN
100
AcDbCircle
 10
285.8122702563369
 20
947.2204720260265
 30
0.0
 40
5.102836925224683
100
AcDbArc
 50
174.8573940033775
 51
239.2244542526734
  0
LINE
  5
D572
330
2
100
AcDbEntity
  8
KIJUN
100
AcDbLine
 10
285.2012700086384
 20
936.8362249536138
 30
0.0
 11
285.2012700086384
 21
933.8362249536142
 31
0.0
  0
ARC
  5
D573
330
2
100
AcDbEntity
  8
KIJUN
100
AcDbCircle
 10
285.0615595622988
 20
928.700514608491
 30
0.0
 40
5.137610315878271
100
AcDbArc
 50
291.9163133127703
 51
88.44172575319957
  0
ELLIPSE
  5
D574
330
2
100
AcDbEntity
  8
KIJUN
100
AcDbEllipse
 10
293.5655769668501
 20
1103.158655206487
 30
0.0
 11
0.7233918825812555
 21
9.622965758359516
 31
0.0
210
0.0
220
0.0
230
-1.0
 40
0.1909760398091227
 41
-0.9558925118114618
 42
0.9446656086419093
  0
ELLIPSE
  5
D575
330
2
100
AcDbEntity
  8
KIJUN
100
AcDbEllipse
 10
288.1908731736021
 20
965.029157501946
 30
0.0
 11
0.4614150636961226
 21
6.168460234644395
 31
0.0
210
0.0
220
0.0
230
1.0
 40
0.2515650946488107
 41
1.848867064690681
 42
4.448921023617336
  0
LINE
  5
D576
330
2
100
AcDbEntity
  8
KIJUN
100
AcDbLine
 10
281.2012700086384
 20
921.8362249536138
 30
0.0
 11
286.9791825896223
 21
923.9341992933971
 31
0.0
  0
LINE
  5
D577
330
2
100
AcDbEntity
  8
KIJUN
100
AcDbLine
 10
281.2012700086384
 20
921.836224953614
 30
0.0
 11
281.2012700086384
 21
918.8362249536139
 31
0.0
  0
ARC
  5
D578
330
2
100
AcDbEntity
  8
KIJUN
100
AcDbCircle
 10
233.1042203006743
 20
870.5977075090139
 30
0.0
 40
54.792313706226
100
AcDbArc
 50
351.7862739783869
 51
41.40517248566932
  0
ARC
  5
D579
330
2
100
AcDbEntity
  8
KIJUN
100
AcDbCircle
 10
327.9694108079139
 20
754.8575078333348
 30
0.0
 40
54.7776621017152
100
AcDbArc
 50
181.0682929319057
 51
221.1163860797491
  0
ARC
  5
D57A
330
2
100
AcDbEntity
  8
KIJUN
100
AcDbCircle
 10
768.5945027429794
 20
744.9467211865386
 30
0.0
 40
495.472984446383
100
AcDbArc
 50
166.2433227603357
 51
178.9719754799818
  0
ARC
  5
D57B
330
2
100
AcDbEntity
  8
KIJUN
100
AcDbCircle
 10
288.7930506237309
 20
906.3660195948097
 30
0.0
 40
14.59935459527014
100
AcDbArc
 50
121.3327855076221
 51
178.1543401653184
  0
ARC
  5
D57C
330
2
100
AcDbEntity
  8
KIJUN
100
AcDbCircle
 10
278.1468610783041
 20
910.3576607694821
 30
0.0
 40
5.288496865301643
100
AcDbArc
 50
221.7488776630168
 51
318.2511223369839
  0
ARC
  5
D57D
330
2
100
AcDbEntity
  8
KIJUN
100
AcDbCircle
 10
287.7048913155074
 20
910.3356493356031
 30
0.0
 40
6.614033898807699
100
AcDbArc
 50
211.9440433395763
 51
328.0559566604266
  0
ARC
  5
D57E
330
2
100
AcDbEntity
  8
KIJUN
100
AcDbCircle
 10
299.7593002458418
 20
911.3239216520803
 30
0.0
 40
7.851012424026041
100
AcDbArc
 50
214.8623899785611
 51
325.1376100214407
  0
ARC
  5
D57F
330
2
100
AcDbEntity
  8
KIJUN
100
AcDbCircle
 10
169.0497688763557
 20
868.7084821257807
 30
0.0
 40
129.9851977758154
100
AcDbArc
 50
349.8098063148823
 51
17.05704796702157
  0
ARC
  5
D580
330
2
100
AcDbEntity
  8
KIJUN
100
AcDbCircle
 10
1052.215368046226
 20
817.5658418866229
 30
0.0
 40
758.123049307725
100
AcDbArc
 50
182.5932995072362
 51
186.4237975183528
  0
ARC
  5
D581
330
2
100
AcDbEntity
  8
KIJUN
100
AcDbCircle
 10
730.4762375581367
 20
799.7647214493207
 30
0.0
 40
435.9199226302371
100
AcDbArc
 50
173.9496151762788
 51
182.1693566433287
  0
ARC
  5
D582
330
2
100
AcDbEntity
  8
KIJUN
100
AcDbCircle
 10
184.4148048349042
 20
858.8933230610725
 30
0.0
 40
108.8092120479396
100
AcDbArc
 50
6.832716350027368
 51
26.14308662068471
  0
ARC
  5
D583
330
2
100
AcDbEntity
  8
KIJUN
100
AcDbCircle
 10
239.5310234778672
 20
865.986840703144
 30
0.0
 40
53.24273816623094
100
AcDbArc
 50
343.4362068938484
 51
6.309810559113459
  0
ARC
  5
D584
330
2
100
AcDbEntity
  8
KIJUN
100
AcDbCircle
 10
651.570620087783
 20
808.6396646355343
 30
0.0
 40
370.8019904873964
100
AcDbArc
 50
185.0929022999385
 51
191.8104753317225
  0
ARC
  5
D585
330
2
100
AcDbEntity
  8
KIJUN
100
AcDbCircle
 10
507.7046066871861
 20
788.7084945673954
 30
0.0
 40
225.8456870195614
100
AcDbArc
 50
164.0400446064281
 51
183.2961049821349
  0
ARC
  5
D586
330
2
100
AcDbEntity
  8
KIJUN
100
AcDbCircle
 10
287.953821377753
 20
715.8362249536143
 30
0.0
 40
3.250982148870102
100
AcDbArc
 50
112.6613717500395
 51
247.3386282496603
  0
LINE
  5
D587
330
2
100
AcDbEntity
  8
KIJUN
100
AcDbLine
 10
282.2012700086385
 20
630.8362249536138
 30
0.0
 11
282.2012700086385
 21
626.8362249536139
 31
0.0
  0
ARC
  5
D588
330
2
100
AcDbEntity
  8
KIJUN
100
AcDbCircle
 10
289.3559747349756
 20
620.3362249536139
 30
0.0
 40
9.666426419368816
100
AcDbArc
 50
137.7450693562445
 51
222.2549306437555
  0
ARC
  5
D589
330
2
100
AcDbEntity
  8
KIJUN
100
AcDbCircle
 10
318.2983006965525
 20
667.8686521685754
 30
0.0
 40
38.5414215295466
100
AcDbArc
 50
152.2128242249705
 51
214.1217278434329
  0
ARC
  5
D58A
330
2
100
AcDbEntity
  8
KIJUN
100
AcDbCircle
 10
277.6280844354657
 20
640.3556143061971
 30
0.0
 40
10.56090904859714
100
AcDbArc
 50
295.6599764898675
 51
33.91841817295783
  0
ARC
  5
D58B
330
2
100
AcDbEntity
  8
KIJUN
100
AcDbCircle
 10
285.3269278411689
 20
691.3362249536142
 30
0.0
 40
5.614009757378259
100
AcDbArc
 50
101.5667083500564
 51
258.4332916499435
  0
ARC
  5
D58C
330
2
100
AcDbEntity
  8
KIJUN
100
AcDbCircle
 10
282.3734628983887
 20
706.9281109363544
 30
0.0
 40
7.323641554887116
100
AcDbArc
 50
284.4524391950999
 51
53.77650669558247
  0
LINE
  5
D58D
330
2
100
AcDbEntity
  8
KIJUN
100
AcDbLine
 10
284.2012700086385
 20
696.8362249536141
 30
0.0
 11
284.2012700086385
 21
699.8362249536141
 31
0.0
  0
LINE
  5
D58E
330
2
100
AcDbEntity
  8
KIJUN
100
AcDbLine
 10
279.7012700086384
 20
265.836224953614
 30
0.0
 11
279.7012700086386
 21
611.8362249536139
 31
0.0
  0
ARC
  5
D58F
330
2
100
AcDbEntity
  8
KIJUN
100
AcDbCircle
 10
281.7012700086384
 20
611.8362249536139
 30
0.0
 40
2.0
100
AcDbArc
 50
90.0
 51
180.0
  0
ARC
  5
D595
330
2
100
AcDbEntity
  8
KIJUN
100
AcDbCircle
 10
306.2012700086383
 20
1261.33445772791
 30
0.0
 40
45.49823277429644
100
AcDbArc
 50
234.3776427133269
 51
305.6223572866735
  0
DIMENSION
  5
D59E
330
2
100
AcDbEntity
  8
SUNPOU
100
AcDbDimension
  2
*D3
 10
332.7012700086383
 20
1482.398819589266
 30
0.0
 11
365.367936675305
 21
1502.398819589266
 31
0.0
 70
    32
 71
     5
 42
52.99999999999994
  3
STANDARD$0
100
AcDbAlignedDimension
 13
279.7012700086384
 23
1363.836224953613
 33
0.0
 14
332.7012700086383
 24
1363.836224953613
 34
0.0
100
AcDbRotatedDimension
1001
ACAD
1000
DSTYLE
1002
{
1070
    41
1040
3.0
1070
    42
1040
3.0
1070
    44
1040
0.0
1070
    77
1070
     1
1070
   140
1040
10.0
1070
   146
1040
0.064286
1070
   147
1040
5.0
1070
   176
1070
    60
1070
   177
1070
    70
1070
   178
1070
    60
1070
   271
1070
     0
1070
   272
1070
     0
1070
   340
1005
1C
1070
   342
1005
109
1002
}
  0
ARC
  5
D5FD
330
2
100
AcDbEntity
  8
KIJUN
100
AcDbCircle
 10
330.7012700086383
 20
1361.836224953614
 30
0.0
 40
2.0
100
AcDbArc
 50
0.0
 51
90.0
  0
ARC
  5
D5FE
330
2
100
AcDbEntity
  8
KIJUN
100
AcDbCircle
 10
281.7012700086385
 20
1361.836224953614
 30
0.0
 40
2.0
100
AcDbArc
 50
90.0
 51
180.0
  0
ARC
  5
D5FF
330
2
100
AcDbEntity
  8
KIJUN
100
AcDbCircle
 10
306.2012700086383
 20
1316.337992179318
 30
0.0
 40
45.49823277429644
100
AcDbArc
 50
54.37764271332993
 51
125.6223572866698
  0
LINE
  5
D60E
330
2
100
AcDbEntity
  8
KIJUN
100
AcDbLine
 10
330.7012700086385
 20
263.836224953614
 30
0.0
 11
281.7012700086384
 21
263.8362249536141
 31
0.0
  0
ARC
  5
D60F
330
2
100
AcDbEntity
  8
KIJUN
100
AcDbCircle
 10
330.7012700086384
 20
265.836224953614
 30
0.0
 40
2.0
100
AcDbArc
 50
270.0
 51
0.0
  0
ARC
  5
D610
330
2
100
AcDbEntity
  8
KIJUN
100
AcDbCircle
 10
306.2012700086383
 20
311.3344577279104
 30
0.0
 40
45.49823277429644
100
AcDbArc
 50
234.3776427133262
 51
305.622357286674
  0
ARC
  5
D611
330
2
100
AcDbEntity
  8
KIJUN
100
AcDbCircle
 10
281.7012700086384
 20
265.836224953614
 30
0.0
 40
2.0
100
AcDbArc
 50
180.0
 51
270.0
  0
DIMENSION
  5
D625
330
2
100
AcDbEntity
  8
SUNPOU
100
AcDbDimension
  2
*D7
 10
133.3670304153399
 20
1213.836224953614
 30
0.0
 11
113.3670304153397
 21
1288.836224953614
 31
0.0
 70
    32
 71
     5
 42
150.0
  3
STANDARD$0
100
AcDbAlignedDimension
 13
281.7012700086385
 23
1363.836224953614
 33
0.0
 14
281.7012700086385
 24
1213.836224953614
 34
0.0
 50
90.0
100
AcDbRotatedDimension
1001
ACAD
1000
DSTYLE
1002
{
1070
    41
1040
3.0
1070
    42
1040
3.0
1070
    44
1040
0.0
1070
    77
1070
     1
1070
   140
1040
10.0
1070
   146
1040
0.064286
1070
   147
1040
5.0
1070
   176
1070
    60
1070
   177
1070
    70
1070
   178
1070
    60
1070
   271
1070
     0
1070
   272
1070
     0
1070
   340
1005
1C
1070
   342
1005
109
1002
}
  0
DIMENSION
  5
D656
330
2
100
AcDbEntity
  8
SUNPOU
100
AcDbDimension
  2
*D8
 10
133.3670304153398
 20
613.836224953614
 30
0.0
 11
113.3670304153397
 21
913.8362249536141
 31
0.0
 70
    32
 71
     5
 42
600.0000000000002
  3
STANDARD$0
100
AcDbAlignedDimension
 13
281.7012700086384
 23
1213.836224953614
 33
0.0
 14
281.7012700086384
 24
613.8362249536138
 34
0.0
 50
90.0
100
AcDbRotatedDimension
1001
ACAD
1000
DSTYLE
1002
{
1070
    41
1040
3.0
1070
    42
1040
3.0
1070
    44
1040
0.0
1070
    77
1070
     1
1070
   140
1040
10.0
1070
   146
1040
0.064286
1070
   147
1040
5.0
1070
   176
1070
    60
1070
   177
1070
    70
1070
   178
1070
    60
1070
   271
1070
     0
1070
   272
1070
     0
1070
   340
1005
1C
1070
   342
1005
109
1002
}
  0
DIMENSION
  5
D66C
330
2
100
AcDbEntity
  8
SUNPOU
100
AcDbDimension
  2
*D9
 10
133.3670304153398
 20
263.8362249536141
 30
0.0
 11
113.3670304153398
 21
438.836224953614
 31
0.0
 70
    32
 71
     5
 42
350.0
  3
STANDARD$0
100
AcDbAlignedDimension
 13
281.7012700086384
 23
613.836224953614
 33
0.0
 14
281.7012700086384
 24
263.8362249536141
 34
0.0
 50
90.0
100
AcDbRotatedDimension
1001
ACAD
1000
DSTYLE
1002
{
1070
    41
1040
3.0
1070
    42
1040
3.0
1070
    44
1040
0.0
1070
    77
1070
     1
1070
   140
1040
10.0
1070
   146
1040
0.064286
1070
   147
1040
5.0
1070
   176
1070
    60
1070
   177
1070
    70
1070
   178
1070
    60
1070
   271
1070
     0
1070
   272
1070
     0
1070
   340
1005
1C
1070
   342
1005
109
1002
}
  0
TEXT
  5
D6C6
330
2
100
AcDbEntity
  8
HOJO
100
AcDbText
 10
4.126571232784897
 20
-30.4601679407491
 30
0.0
 40
20.0
  1
※ 形状・寸法は製品特性や、生産ロットにより誤差があるものがあります。
  7
SUNPOU
100
AcDbText
  0
ENDSEC
  0
SECTION
  2
OBJECTS
  0
DICTIONARY
  5
1A
330
0
100
AcDbDictionary
281
     1
  3
ACAD_COLOR
350
B1BF
  3
ACAD_GROUP
350
18
  3
ACAD_LAYOUT
350
58
  3
ACAD_MATERIAL
350
B1BE
  3
ACAD_MLINESTYLE
350
19
  3
ACAD_PLOTSETTINGS
350
59
  3
ACAD_PLOTSTYLENAME
350
56
  3
ACAD_TABLESTYLE
350
B1C0
  3
ACDBHEADERROUNDTRIPXREC
350
D6CE
  3
AcDbVariableDictionary
350
B97E
  0
DICTIONARY
  5
BEBB
330
A
100
AcDbDictionary
280
     1
281
     1
  3
ACAD_LAYERFILTERS
360
D5C6
  3
ACLYDICTIONARY
360
D5C5
  0
DICTIONARY
  5
BA61
330
2
100
AcDbDictionary
280
     1
281
     1
  3
ACAD_SORTENTS
360
BA62
  0
DICTIONARY
  5
B1BF
102
{ACAD_REACTORS
330
1A
102
}
330
1A
100
AcDbDictionary
281
     1
  0
DICTIONARY
  5
18
102
{ACAD_REACTORS
330
1A
102
}
330
1A
100
AcDbDictionary
281
     1
  3
*A1
350
3A0
  3
*A10
350
A9E7
  3
*A11
350
38D6
  3
*A12
350
6398
  3
*A13
350
ACC
  3
*A14
350
2120
  3
*A15
350
795C
  3
*A16
350
2765
  3
*A17
350
54B2
  3
*A18
350
A3E9
  3
*A19
350
595A
  3
*A2
350
3A1
  3
*A20
350
A9E8
  3
*A22
350
795A
  3
*A23
350
46A2
  3
*A24
350
2FC6
  3
*A25
350
8936
  3
*A26
350
4FAD
  3
*A27
350
8937
  3
*A28
350
A3EA
  3
*A3
350
ADDD
  3
*A4
350
5DF8
  3
*A5
350
2FC7
  3
*A6
350
2766
  3
*A7
350
38D5
  3
*A8
350
46AB
  3
*A9
350
4FAE
  0
DICTIONARY
  5
58
102
{ACAD_REACTORS
330
1A
102
}
330
1A
100
AcDbDictionary
281
     1
  3
Model
350
5A
  3
ﾚｲｱｳﾄ1
350
5B
  0
DICTIONARY
  5
B1BE
102
{ACAD_REACTORS
330
1A
102
}
330
1A
100
AcDbDictionary
281
     1
  0
DICTIONARY
  5
19
102
{ACAD_REACTORS
330
1A
102
}
330
1A
100
AcDbDictionary
281
     1
  3
STANDARD
350
1D
  0
DICTIONARY
  5
59
102
{ACAD_REACTORS
330
1A
102
}
330
1A
100
AcDbDictionary
281
     1
  0
ACDBDICTIONARYWDFLT
  5
56
102
{ACAD_REACTORS
330
1A
102
}
330
1A
100
AcDbDictionary
281
     1
  3
Normal
350
57
100
AcDbDictionaryWithDefault
340
57
  0
DICTIONARY
  5
B1C0
102
{ACAD_REACTORS
330
1A
102
}
330
1A
100
AcDbDictionary
281
     1
  3
Standard
350
B1C1
  0
DICTIONARY
  5
D6CE
102
{ACAD_REACTORS
330
1A
102
}
330
1A
100
AcDbDictionary
281
     1
  0
DICTIONARY
  5
B97E
102
{ACAD_REACTORS
330
1A
102
}
330
1A
100
AcDbDictionary
281
     1
  3
CTABLESTYLE
350
B97F
  3
DIMASSOC
350
BA4F
  3
PROJECTNAME
350
BA50
  0
DICTIONARY
  5
D5C6
102
{ACAD_REACTORS
330
BEBB
102
}
330
BEBB
100
AcDbDictionary
281
     1
  0
DICTIONARY
  5
D5C5
102
{ACAD_REACTORS
330
BEBB
102
}
330
BEBB
100
AcDbDictionary
281
     1
1001
ACAD
1000
<All
  0
SORTENTSTABLE
  5
BA62
102
{ACAD_REACTORS
330
BA61
102
}
330
BA61
100
AcDbSortentsTable
330
2
331
BD14
  5
BD18
331
B15A
  5
B15A
331
C12D
  5
BE4A
331
BA67
  5
BB0D
331
BF04
  5
C001
331
BDC8
  5
BDCB
331
B176
  5
B176
331
BDD4
  5
BDDE
331
BE4A
  5
BF26
331
C056
  5
C05A
331
B186
  5
B18A
331
B140
  5
B140
331
B9D0
  5
B9D6
331
BDC9
  5
BDD2
331
BF05
  5
C008
331
C058
  5
C060
331
C008
  5
C056
331
B192
  5
B1A0
331
C001
  5
C054
331
20
  5
20
331
B1AD
  5
B9CA
331
B187
  5
B18C
331
B9CA
  5
B9CE
331
BCE4
  5
BD12
331
C059
  5
C0C6
331
AFCF
  5
AFCF
331
B193
  5
B1AD
331
C386
  5
B17D
331
21
  5
21
331
BCE5
  5
BD13
331
BDCB
  5
BDD4
331
B9CB
  5
B9D0
331
B0B0
  5
B0B0
331
BD18
  5
BDC9
331
BDDE
  5
BDE1
331
AFC5
  5
AFC5
331
D4C6
  5
D4C6
331
C01E
  5
C058
331
BA60
  5
BA65
331
B118
  5
B118
331
B18A
  5
B190
331
B9D4
  5
B9D7
331
BA68
  5
BCE4
331
D4C7
  5
D4C7
331
B119
  5
B119
331
C262
  5
C2CF
331
BDE0
  5
BDE2
331
D46D
  5
D46D
331
C128
  5
C262
331
BA2C
  5
BA57
331
B9CE
  5
B9D4
331
BDE1
  5
BDE3
331
BB0D
  5
BCE5
331
B9B3
  5
B9CB
331
BA57
  5
BA60
331
D46E
  5
D46E
331
B9D6
  5
B9D8
331
C367
  5
C384
331
BE45
  5
BE94
331
BDE2
  5
BDE4
331
BA58
  5
BA66
331
B9D7
  5
BA13
331
1F
  5
1F
331
BE46
  5
BF05
331
BA2E
  5
BA58
331
BA13
  5
BA2C
331
BDE3
  5
BDE5
331
D556
  5
D556
331
4A3
  5
4A3
331
BDD8
  5
BDE0
331
BD12
  5
BD14
331
B9D8
  5
BA15
331
D4CB
  5
D4CB
331
BA65
  5
BA67
331
B183
  5
B186
331
C060
  5
C128
331
BDE4
  5
BDE6
331
C25F
  5
C2CC
331
BD13
  5
BD17
331
BF26
  5
C015
331
BA66
  5
BA68
331
BDD2
  5
BDD8
331
C054
  5
C059
331
B184
  5
B187
331
BA15
  5
BA2E
331
BDE5
  5
BE46
  0
GROUP
  5
3A0
102
{ACAD_REACTORS
330
18
102
}
330
18
100
AcDbGroup
300

 70
     1
 71
     1
  0
GROUP
  5
A9E7
102
{ACAD_REACTORS
330
18
102
}
330
18
100
AcDbGroup
300

 70
     1
 71
     1
  0
GROUP
  5
38D6
102
{ACAD_REACTORS
330
18
102
}
330
18
100
AcDbGroup
300

 70
     1
 71
     1
  0
GROUP
  5
6398
102
{ACAD_REACTORS
330
18
102
}
330
18
100
AcDbGroup
300

 70
     1
 71
     1
  0
GROUP
  5
ACC
102
{ACAD_REACTORS
330
18
102
}
330
18
100
AcDbGroup
300

 70
     1
 71
     1
  0
GROUP
  5
2120
102
{ACAD_REACTORS
330
18
102
}
330
18
100
AcDbGroup
300

 70
     1
 71
     1
  0
GROUP
  5
795C
102
{ACAD_REACTORS
330
18
102
}
330
18
100
AcDbGroup
300

 70
     1
 71
     1
  0
GROUP
  5
2765
102
{ACAD_REACTORS
330
18
102
}
330
18
100
AcDbGroup
300

 70
     1
 71
     1
  0
GROUP
  5
54B2
102
{ACAD_REACTORS
330
18
102
}
330
18
100
AcDbGroup
300

 70
     1
 71
     1
  0
GROUP
  5
A3E9
102
{ACAD_REACTORS
330
18
102
}
330
18
100
AcDbGroup
300

 70
     1
 71
     1
  0
GROUP
  5
595A
102
{ACAD_REACTORS
330
18
102
}
330
18
100
AcDbGroup
300

 70
     1
 71
     1
  0
GROUP
  5
3A1
102
{ACAD_REACTORS
330
18
102
}
330
18
100
AcDbGroup
300

 70
     1
 71
     1
  0
GROUP
  5
A9E8
102
{ACAD_REACTORS
330
18
102
}
330
18
100
AcDbGroup
300

 70
     1
 71
     1
  0
GROUP
  5
795A
102
{ACAD_REACTORS
330
18
102
}
330
18
100
AcDbGroup
300

 70
     1
 71
     1
  0
GROUP
  5
46A2
102
{ACAD_REACTORS
330
18
102
}
330
18
100
AcDbGroup
300

 70
     1
 71
     1
  0
GROUP
  5
2FC6
102
{ACAD_REACTORS
330
18
102
}
330
18
100
AcDbGroup
300

 70
     1
 71
     1
  0
GROUP
  5
8936
102
{ACAD_REACTORS
330
18
102
}
330
18
100
AcDbGroup
300

 70
     1
 71
     1
  0
GROUP
  5
4FAD
102
{ACAD_REACTORS
330
18
102
}
330
18
100
AcDbGroup
300

 70
     1
 71
     1
  0
GROUP
  5
8937
102
{ACAD_REACTORS
330
18
102
}
330
18
100
AcDbGroup
300

 70
     1
 71
     1
  0
GROUP
  5
A3EA
102
{ACAD_REACTORS
330
18
102
}
330
18
100
AcDbGroup
300

 70
     1
 71
     1
  0
GROUP
  5
ADDD
102
{ACAD_REACTORS
330
18
102
}
330
18
100
AcDbGroup
300

 70
     1
 71
     1
  0
GROUP
  5
5DF8
102
{ACAD_REACTORS
330
18
102
}
330
18
100
AcDbGroup
300

 70
     1
 71
     1
  0
GROUP
  5
2FC7
102
{ACAD_REACTORS
330
18
102
}
330
18
100
AcDbGroup
300

 70
     1
 71
     1
  0
GROUP
  5
2766
102
{ACAD_REACTORS
330
18
102
}
330
18
100
AcDbGroup
300

 70
     1
 71
     1
  0
GROUP
  5
38D5
102
{ACAD_REACTORS
330
18
102
}
330
18
100
AcDbGroup
300

 70
     1
 71
     1
  0
GROUP
  5
46AB
102
{ACAD_REACTORS
330
18
102
}
330
18
100
AcDbGroup
300

 70
     1
 71
     1
  0
GROUP
  5
4FAE
102
{ACAD_REACTORS
330
18
102
}
330
18
100
AcDbGroup
300

 70
     1
 71
     1
  0
LAYOUT
  5
5A
102
{ACAD_XDICTIONARY
360
D6CF
102
}
102
{ACAD_REACTORS
330
58
102
}
330
58
100
AcDbPlotSettings
  1

  2
none_device
  4
Letter_(8.50_x_11.00_Inches)
  6

 40
6.349999904632568
 41
6.349999904632568
 42
6.350006103515625
 43
6.350006103515625
 44
215.8999938964844
 45
279.3999938964844
 46
0.0
 47
0.0
 48
0.0
 49
0.0
140
0.0
141
0.0
142
1.0
143
225.6774977072561
 70
 11952
 72
     0
 73
     1
 74
     0
  7
monochrome.ctb
 75
     0
147
0.0044311019492833
148
22480.86193866463
149
147.8683046958414
100
AcDbLayout
  1
Model
 70
     1
 71
     0
 10
0.0
 20
0.0
 11
12.0
 21
9.0
 12
0.0
 22
0.0
 32
0.0
 14
0.0
 24
0.0
 34
0.0
 15
0.0
 25
0.0
 35
0.0
146
0.0
 13
0.0
 23
0.0
 33
0.0
 16
1.0
 26
0.0
 36
0.0
 17
0.0
 27
1.0
 37
0.0
 76
     0
330
2
1001
ACAD_PSEXT
1000
なし
1000
なし
1000
適切ではありません
1000
新しいプロッタ環境設定名を選択しない限り、レイアウトは印刷されません。
1070
     0
  0
LAYOUT
  5
5B
102
{ACAD_XDICTIONARY
360
D6D1
102
}
102
{ACAD_REACTORS
330
58
102
}
330
58
100
AcDbPlotSettings
  1

  2
なし
  4

  6

 40
0.0
 41
0.0
 42
0.0
 43
0.0
 44
0.0
 45
0.0
 46
0.0
 47
0.0
 48
0.0
 49
0.0
140
0.0
141
0.0
142
1.0
143
1.0
 70
   688
 72
     0
 73
     0
 74
     5
  7
monochrome.ctb
 75
    16
147
1.0
148
0.0
149
0.0
100
AcDbLayout
  1
ﾚｲｱｳﾄ1
 70
     1
 71
     1
 10
0.0
 20
0.0
 11
12.0
 21
9.0
 12
0.0
 22
0.0
 32
0.0
 14
1.000000000000000E+20
 24
1.000000000000000E+20
 34
1.000000000000000E+20
 15
-1.000000000000000E+20
 25
-1.000000000000000E+20
 35
-1.000000000000000E+20
146
0.0
 13
0.0
 23
0.0
 33
0.0
 16
1.0
 26
0.0
 36
0.0
 17
0.0
 27
1.0
 37
0.0
 76
     0
330
7
  0
MLINESTYLE
  5
1D
102
{ACAD_REACTORS
330
19
102
}
330
19
100
AcDbMlineStyle
  2
STANDARD
 70
     0
  3

 62
   256
 51
90.0
 52
90.0
 71
     2
 49
0.5
 62
   256
  6
BYLAYER
 49
-0.5
 62
   256
  6
BYLAYER
  0
ACDBPLACEHOLDER
  5
57
102
{ACAD_REACTORS
330
56
102
}
330
56
  0
TABLESTYLE
  5
B1C1
102
{ACAD_REACTORS
330
B1C0
102
}
330
B1C0
100
AcDbTableStyle
  3
Standard
 70
     0
 71
     0
 40
0.06
 41
0.06
280
     0
281
     0
  7
STANDARD
140
0.18
170
     2
 62
     0
 63
     7
283
     0
274
    -2
284
     1
 64
     0
275
    -2
285
     1
 65
     0
276
    -2
286
     1
 66
     0
277
    -2
287
     1
 67
     0
278
    -2
288
     1
 68
     0
279
    -2
289
     1
 69
     0
  7
STANDARD
140
0.25
170
     5
 62
     0
 63
     7
283
     0
274
    -2
284
     1
 64
     0
275
    -2
285
     1
 65
     0
276
    -2
286
     1
 66
     0
277
    -2
287
     1
 67
     0
278
    -2
288
     1
 68
     0
279
    -2
289
     1
 69
     0
  7
STANDARD
140
0.18
170
     5
 62
     0
 63
     7
283
     0
274
    -2
284
     1
 64
     0
275
    -2
285
     1
 65
     0
276
    -2
286
     1
 66
     0
277
    -2
287
     1
 67
     0
278
    -2
288
     1
 68
     0
279
    -2
289
     1
 69
     0
  0
DICTIONARYVAR
  5
B97F
102
{ACAD_REACTORS
330
B97E
102
}
330
B97E
100
DictionaryVariables
280
     0
  1
STANDARD
  0
DICTIONARYVAR
  5
BA4F
102
{ACAD_REACTORS
330
B97E
102
}
330
B97E
100
DictionaryVariables
280
     0
  1
1
  0
DICTIONARYVAR
  5
BA50
102
{ACAD_REACTORS
330
B97E
102
}
330
B97E
100
DictionaryVariables
280
     0
  1

  0
DICTIONARY
  5
D6CF
330
5A
100
AcDbDictionary
280
     1
281
     1
  3
ACAD_XREC_ROUNDTRIP
360
D6D0
  0
DICTIONARY
  5
D6D1
330
5B
100
AcDbDictionary
280
     1
281
     1
  3
ACAD_XREC_ROUNDTRIP
360
D6D2
  0
XRECORD
  5
D6D0
102
{ACAD_REACTORS
330
D6CF
102
}
330
D6CF
100
AcDbXrecord
280
     1
102
SHADEPLOT
 70
     0
102
SHADEPLOTRESLEVEL
 70
     2
102
SHADEPLOTCUSTOMDPI
 70
   300
  0
XRECORD
  5
D6D2
102
{ACAD_REACTORS
330
D6D1
102
}
330
D6D1
100
AcDbXrecord
280
     1
102
SHADEPLOT
 70
     0
102
SHADEPLOTRESLEVEL
 70
     2
102
SHADEPLOTCUSTOMDPI
 70
   300
  0
ENDSEC
  0
EOF
