  0
SECTION
  2
HEADER
  9
$ACADVER
  1
AC1015
  9
$ACADMAINTVER
 70
    20
  9
$DWGCODEPAGE
  3
ANSI_932
  9
$INSBASE
 10
922.019522
 20
-675.4306699999999
 30
0.0
  9
$EXTMIN
 10
-0.0403162715938379
 20
-33.94728911050834
 30
-0.0000000000000129
  9
$EXTMAX
 10
817.3841828537584
 20
1517.44430776525
 30
0.0000000000000023
  9
$LIMMIN
 10
0.0
 20
0.0
  9
$LIMMAX
 10
420.0
 20
297.0
  9
$ORTHOMODE
 70
     1
  9
$REGENMODE
 70
     1
  9
$FILLMODE
 70
     1
  9
$QTEXTMODE
 70
     0
  9
$MIRRTEXT
 70
     1
  9
$LTSCALE
 40
20.0
  9
$ATTMODE
 70
     1
  9
$TEXTSIZE
 40
30.0
  9
$TRACEWID
 40
0.05
  9
$TEXTSTYLE
  7
SUNPOU
  9
$CLAYER
  8
0
  9
$CELTYPE
  6
BYLAYER
  9
$CECOLOR
 62
   256
  9
$CELTSCALE
 40
1.0
  9
$DISPSILH
 70
     0
  9
$DIMSCALE
 40
1.0
  9
$DIMASZ
 40
3.0
  9
$DIMEXO
 40
3.0
  9
$DIMDLI
 40
0.38
  9
$DIMRND
 40
0.0
  9
$DIMDLE
 40
0.0
  9
$DIMEXE
 40
0.0
  9
$DIMTP
 40
0.0
  9
$DIMTM
 40
0.0
  9
$DIMTXT
 40
10.0
  9
$DIMCEN
 40
0.0
  9
$DIMTSZ
 40
0.0
  9
$DIMTOL
 70
     0
  9
$DIMLIM
 70
     0
  9
$DIMTIH
 70
     0
  9
$DIMTOH
 70
     0
  9
$DIMSE1
 70
     0
  9
$DIMSE2
 70
     0
  9
$DIMTAD
 70
     1
  9
$DIMZIN
 70
     0
  9
$DIMBLK
  1
Dot
  9
$DIMASO
 70
     1
  9
$DIMSHO
 70
     1
  9
$DIMPOST
  1

  9
$DIMAPOST
  1

  9
$DIMALT
 70
     0
  9
$DIMALTD
 70
     2
  9
$DIMALTF
 40
25.4
  9
$DIMLFAC
 40
1.0
  9
$DIMTOFL
 70
     0
  9
$DIMTVP
 40
0.0
  9
$DIMTIX
 70
     0
  9
$DIMSOXD
 70
     0
  9
$DIMSAH
 70
     0
  9
$DIMBLK1
  1

  9
$DIMBLK2
  1

  9
$DIMSTYLE
  2
STANDARD
  9
$DIMCLRD
 70
    60
  9
$DIMCLRE
 70
    70
  9
$DIMCLRT
 70
    60
  9
$DIMTFAC
 40
0.064286
  9
$DIMGAP
 40
5.0
  9
$DIMJUST
 70
     0
  9
$DIMSD1
 70
     0
  9
$DIMSD2
 70
     0
  9
$DIMTOLJ
 70
     1
  9
$DIMTZIN
 70
     0
  9
$DIMALTZ
 70
     0
  9
$DIMALTTZ
 70
     0
  9
$DIMUPT
 70
     0
  9
$DIMDEC
 70
     8
  9
$DIMTDEC
 70
     8
  9
$DIMALTU
 70
     2
  9
$DIMALTTD
 70
     2
  9
$DIMTXSTY
  7
SUNPOU
  9
$DIMAUNIT
 70
     0
  9
$DIMADEC
 70
     0
  9
$DIMALTRND
 40
0.0
  9
$DIMAZIN
 70
     0
  9
$DIMDSEP
 70
    46
  9
$DIMATFIT
 70
     3
  9
$DIMFRAC
 70
     0
  9
$DIMLDRBLK
  1

  9
$DIMLUNIT
 70
     2
  9
$DIMLWD
 70
    -2
  9
$DIMLWE
 70
    -2
  9
$DIMTMOVE
 70
     0
  9
$LUNITS
 70
     2
  9
$LUPREC
 70
     5
  9
$SKETCHINC
 40
0.1
  9
$FILLETRAD
 40
0.0
  9
$AUNITS
 70
     0
  9
$AUPREC
 70
     0
  9
$MENU
  1
acad
  9
$ELEVATION
 40
0.0
  9
$PELEVATION
 40
0.0
  9
$THICKNESS
 40
0.0
  9
$LIMCHECK
 70
     0
  9
$CHAMFERA
 40
0.0
  9
$CHAMFERB
 40
0.0
  9
$CHAMFERC
 40
0.0
  9
$CHAMFERD
 40
0.0
  9
$SKPOLY
 70
     0
  9
$TDCREATE
 40
2450623.654673033
  9
$TDUCREATE
 40
2450623.279673032
  9
$TDUPDATE
 40
2454580.672597929
  9
$TDUUPDATE
 40
2454580.297597928
  9
$TDINDWG
 40
0.8674059259
  9
$TDUSRTIMER
 40
0.8674057523
  9
$USRTIMER
 70
     1
  9
$ANGBASE
 50
0.0
  9
$ANGDIR
 70
     0
  9
$PDMODE
 70
     0
  9
$PDSIZE
 40
0.0
  9
$PLINEWID
 40
0.0
  9
$SPLFRAME
 70
     0
  9
$SPLINETYPE
 70
     6
  9
$SPLINESEGS
 70
     8
  9
$HANDSEED
  5
D9ED
  9
$SURFTAB1
 70
     6
  9
$SURFTAB2
 70
     6
  9
$SURFTYPE
 70
     6
  9
$SURFU
 70
     6
  9
$SURFV
 70
     6
  9
$UCSBASE
  2

  9
$UCSNAME
  2

  9
$UCSORG
 10
0.0
 20
0.0
 30
0.0
  9
$UCSXDIR
 10
1.0
 20
0.0
 30
0.0
  9
$UCSYDIR
 10
0.0
 20
1.0
 30
0.0
  9
$UCSORTHOREF
  2

  9
$UCSORTHOVIEW
 70
     0
  9
$UCSORGTOP
 10
0.0
 20
0.0
 30
0.0
  9
$UCSORGBOTTOM
 10
0.0
 20
0.0
 30
0.0
  9
$UCSORGLEFT
 10
0.0
 20
0.0
 30
0.0
  9
$UCSORGRIGHT
 10
0.0
 20
0.0
 30
0.0
  9
$UCSORGFRONT
 10
0.0
 20
0.0
 30
0.0
  9
$UCSORGBACK
 10
0.0
 20
0.0
 30
0.0
  9
$PUCSBASE
  2

  9
$PUCSNAME
  2

  9
$PUCSORG
 10
0.0
 20
0.0
 30
0.0
  9
$PUCSXDIR
 10
1.0
 20
0.0
 30
0.0
  9
$PUCSYDIR
 10
0.0
 20
1.0
 30
0.0
  9
$PUCSORTHOREF
  2

  9
$PUCSORTHOVIEW
 70
     0
  9
$PUCSORGTOP
 10
0.0
 20
0.0
 30
0.0
  9
$PUCSORGBOTTOM
 10
0.0
 20
0.0
 30
0.0
  9
$PUCSORGLEFT
 10
0.0
 20
0.0
 30
0.0
  9
$PUCSORGRIGHT
 10
0.0
 20
0.0
 30
0.0
  9
$PUCSORGFRONT
 10
0.0
 20
0.0
 30
0.0
  9
$PUCSORGBACK
 10
0.0
 20
0.0
 30
0.0
  9
$USERI1
 70
     0
  9
$USERI2
 70
     0
  9
$USERI3
 70
     0
  9
$USERI4
 70
     0
  9
$USERI5
 70
     0
  9
$USERR1
 40
0.0
  9
$USERR2
 40
0.0
  9
$USERR3
 40
0.0
  9
$USERR4
 40
0.0
  9
$USERR5
 40
0.0
  9
$WORLDVIEW
 70
     1
  9
$SHADEDGE
 70
     3
  9
$SHADEDIF
 70
    70
  9
$TILEMODE
 70
     1
  9
$MAXACTVP
 70
    16
  9
$PINSBASE
 10
0.0
 20
0.0
 30
0.0
  9
$PLIMCHECK
 70
     0
  9
$PEXTMIN
 10
1.000000000000000E+20
 20
1.000000000000000E+20
 30
1.000000000000000E+20
  9
$PEXTMAX
 10
-1.000000000000000E+20
 20
-1.000000000000000E+20
 30
-1.000000000000000E+20
  9
$PLIMMIN
 10
0.0
 20
0.0
  9
$PLIMMAX
 10
12.0
 20
9.0
  9
$UNITMODE
 70
     0
  9
$VISRETAIN
 70
     0
  9
$PLINEGEN
 70
     0
  9
$PSLTSCALE
 70
     1
  9
$TREEDEPTH
 70
  3020
  9
$CMLSTYLE
  2
STANDARD
  9
$CMLJUST
 70
     0
  9
$CMLSCALE
 40
1.0
  9
$PROXYGRAPHICS
 70
     1
  9
$MEASUREMENT
 70
     0
  9
$CELWEIGHT
370
    -1
  9
$ENDCAPS
280
     0
  9
$JOINSTYLE
280
     0
  9
$LWDISPLAY
290
     0
  9
$INSUNITS
 70
     0
  9
$HYPERLINKBASE
  1

  9
$STYLESHEET
  1
monochrome.ctb
  9
$XEDIT
290
     1
  9
$CEPSNTYPE
380
     0
  9
$PSTYLEMODE
290
     1
  9
$FINGERPRINTGUID
  2
{FB88A696-E29C-4009-92AF-A3599A8169D5}
  9
$VERSIONGUID
  2
{DED3D40E-C8B0-4498-9DED-9DBCA160BFC0}
  9
$EXTNAMES
290
     1
  9
$PSVPSCALE
 40
0.0
  9
$OLESTARTUP
290
     0
  0
ENDSEC
  0
SECTION
  2
CLASSES
  0
CLASS
  1
DICTIONARYVAR
  2
AcDbDictionaryVar
  3
ObjectDBX Classes
 90
        0
280
     0
281
     0
  0
CLASS
  1
ACDBDICTIONARYWDFLT
  2
AcDbDictionaryWithDefault
  3
ObjectDBX Classes
 90
        0
280
     0
281
     0
  0
CLASS
  1
ACDBPLACEHOLDER
  2
AcDbPlaceHolder
  3
ObjectDBX Classes
 90
        0
280
     0
281
     0
  0
CLASS
  1
LAYOUT
  2
AcDbLayout
  3
ObjectDBX Classes
 90
        0
280
     0
281
     0
  0
CLASS
  1
TABLESTYLE
  2
AcDbTableStyle
  3
ObjectDBX Classes
 90
     2047
280
     0
281
     0
  0
CLASS
  1
SORTENTSTABLE
  2
AcDbSortentsTable
  3
ObjectDBX Classes
 90
        0
280
     0
281
     0
  0
ENDSEC
  0
SECTION
  2
TABLES
  0
TABLE
  2
VPORT
  5
12
330
0
100
AcDbSymbolTable
 70
     3
  0
VPORT
  5
D9E7
330
12
100
AcDbSymbolTableRecord
100
AcDbViewportTableRecord
  2
*Active
 70
     0
 10
0.0
 20
0.0
 11
1.0
 21
1.0
 12
408.6719332910822
 22
741.748509327371
 13
0.0
 23
0.0
 14
1.0
 24
1.0
 15
0.0
 25
0.0
 16
0.0
 26
0.0
 36
1.0
 17
0.0
 27
0.0
 37
0.0
 40
1563.234280821375
 41
1.528662420382165
 42
50.0
 43
0.0
 44
0.0
 50
0.0
 51
0.0
 71
     0
 72
 20000
 73
     1
 74
     1
 75
     0
 76
     0
 77
     0
 78
     0
281
     0
 65
     1
110
0.0
120
0.0
130
0.0
111
1.0
121
0.0
131
0.0
112
0.0
122
1.0
132
0.0
 79
     0
146
0.0
  0
ENDTAB
  0
TABLE
  2
LTYPE
  5
D
330
0
100
AcDbSymbolTable
 70
     3
  0
LTYPE
  5
E
330
D
100
AcDbSymbolTableRecord
100
AcDbLinetypeTableRecord
  2
BYBLOCK
 70
     0
  3

 72
    65
 73
     0
 40
0.0
  0
LTYPE
  5
F
330
D
100
AcDbSymbolTableRecord
100
AcDbLinetypeTableRecord
  2
BYLAYER
 70
     0
  3

 72
    65
 73
     0
 40
0.0
  0
LTYPE
  5
5
330
D
100
AcDbSymbolTableRecord
100
AcDbLinetypeTableRecord
  2
CONTINUOUS
 70
     0
  3
Solid line
 72
    65
 73
     0
 40
0.0
  0
LTYPE
  5
1AC
330
D
100
AcDbSymbolTableRecord
100
AcDbLinetypeTableRecord
  2
CENTER
 70
     0
  3
Center ____ _ ____ _ ____ _ ____ _ ____ _ ____
 72
    65
 73
     4
 40
2.0
 49
1.25
 74
     0
 49
-0.25
 74
     0
 49
0.25
 74
     0
 49
-0.25
 74
     0
  0
ENDTAB
  0
TABLE
  2
LAYER
  5
A
102
{ACAD_XDICTIONARY
360
BEBB
102
}
330
0
100
AcDbSymbolTable
 70
     6
  0
LAYER
  5
4
330
A
100
AcDbSymbolTableRecord
100
AcDbLayerTableRecord
  2
0
 70
     0
 62
     7
  6
CONTINUOUS
370
    -3
390
57
  0
LAYER
  5
25
330
A
100
AcDbSymbolTableRecord
100
AcDbLayerTableRecord
  2
KIJUN
 70
     0
 62
     7
  6
CONTINUOUS
370
    -3
390
57
  0
LAYER
  5
22
330
A
100
AcDbSymbolTableRecord
100
AcDbLayerTableRecord
  2
HOJO
 70
     0
 62
     3
  6
CONTINUOUS
370
    -3
390
57
  0
LAYER
  5
1B
330
A
100
AcDbSymbolTableRecord
100
AcDbLayerTableRecord
  2
WAKU
 70
     0
 62
     1
  6
CONTINUOUS
370
    -3
390
57
  0
LAYER
  5
31
330
A
100
AcDbSymbolTableRecord
100
AcDbLayerTableRecord
  2
DEFPOINTS
 70
     0
 62
     7
  6
CONTINUOUS
290
     0
370
    -3
390
57
  0
LAYER
  5
28
330
A
100
AcDbSymbolTableRecord
100
AcDbLayerTableRecord
  2
SUNPOU
 70
     0
 62
    70
  6
CONTINUOUS
370
    -3
390
57
  0
ENDTAB
  0
TABLE
  2
STYLE
  5
B
330
0
100
AcDbSymbolTable
 70
     3
  0
STYLE
  5
C
330
B
100
AcDbSymbolTableRecord
100
AcDbTextStyleTableRecord
  2
STANDARD
 70
     0
 40
0.0
 41
1.0
 50
0.0
 71
     0
 42
0.2
  3
txt
  4

  0
STYLE
  5
1C
330
B
100
AcDbSymbolTableRecord
100
AcDbTextStyleTableRecord
  2
SUNPOU
 70
     0
 40
0.0
 41
1.0
 50
0.0
 71
     0
 42
30.0
  3
txt
  4
bigfont
  0
STYLE
  5
1AD
330
B
100
AcDbSymbolTableRecord
100
AcDbTextStyleTableRecord
  2
LIFE
 70
     0
 40
0.0
 41
0.7
 50
0.0
 71
     0
 42
10.0
  3
romans
  4
extfont
  0
ENDTAB
  0
TABLE
  2
VIEW
  5
10
330
0
100
AcDbSymbolTable
 70
     0
  0
ENDTAB
  0
TABLE
  2
UCS
  5
11
330
0
100
AcDbSymbolTable
 70
     0
  0
ENDTAB
  0
TABLE
  2
APPID
  5
14
330
0
100
AcDbSymbolTable
 70
    11
  0
APPID
  5
15
330
14
100
AcDbSymbolTableRecord
100
AcDbRegAppTableRecord
  2
ACAD
 70
     0
  0
APPID
  5
B946
330
14
100
AcDbSymbolTableRecord
100
AcDbRegAppTableRecord
  2
ACAD_EXEMPT_FROM_CAD_STANDARDS
 70
     0
  0
APPID
  5
BEBE
330
14
100
AcDbSymbolTableRecord
100
AcDbRegAppTableRecord
  2
ACAD_PSEXT
 70
     0
  0
APPID
  5
C7A1
330
14
100
AcDbSymbolTableRecord
100
AcDbRegAppTableRecord
  2
ACAD_DSTYLE_DIMTEXT_FILL
 70
     0
  0
APPID
  5
C7A2
330
14
100
AcDbSymbolTableRecord
100
AcDbRegAppTableRecord
  2
ACAD_DSTYLE_DIMEXT_LENGTH
 70
     0
  0
APPID
  5
C7A3
330
14
100
AcDbSymbolTableRecord
100
AcDbRegAppTableRecord
  2
ACAD_DSTYLE_DIMEXT_ENABLED
 70
     0
  0
APPID
  5
C7A4
330
14
100
AcDbSymbolTableRecord
100
AcDbRegAppTableRecord
  2
ACAD_DSTYLE_DIM_LINETYPE
 70
     0
  0
APPID
  5
C7A5
330
14
100
AcDbSymbolTableRecord
100
AcDbRegAppTableRecord
  2
ACAD_DSTYLE_DIM_EXT1_LINETYPE
 70
     0
  0
APPID
  5
C7A6
330
14
100
AcDbSymbolTableRecord
100
AcDbRegAppTableRecord
  2
ACAD_DSTYLE_DIM_EXT2_LINETYPE
 70
     0
  0
APPID
  5
C81A
330
14
100
AcDbSymbolTableRecord
100
AcDbRegAppTableRecord
  2
ACAD_DSTYLE_DIMJOGGED_JOGANGLE_SYMBOL
 70
     0
  0
APPID
  5
D142
330
14
100
AcDbSymbolTableRecord
100
AcDbRegAppTableRecord
  2
ACAD_DSTYLE_DIMARC_LENGTH_SYMBOL
 70
     0
  0
ENDTAB
  0
TABLE
  2
DIMSTYLE
  5
16
330
0
100
AcDbSymbolTable
 70
     3
100
AcDbDimStyleTable
 71
     1
340
1E
  0
DIMSTYLE
105
1E
330
16
100
AcDbSymbolTableRecord
100
AcDbDimStyleTableRecord
  2
STANDARD
 70
     0
340
C
  0
DIMSTYLE
105
1AE
102
{ACAD_REACTORS
330
B193
330
B1AD
330
D59E
330
D935
330
D95D
330
D973
102
}
330
16
100
AcDbSymbolTableRecord
100
AcDbDimStyleTableRecord
  2
STANDARD$0
 70
     0
 40
2.0
 41
1.0
 42
2.0
 43
0.0
 44
1.0
 73
     0
 74
     0
 77
     3
 78
     9
140
4.5
141
0.0
147
1.0
172
     1
173
     1
178
     3
271
     2
340
1AD
341
109
343
109
344
109
  0
ENDTAB
  0
TABLE
  2
BLOCK_RECORD
  5
1
330
0
100
AcDbSymbolTable
 70
    14
  0
BLOCK_RECORD
  5
2
102
{ACAD_XDICTIONARY
360
BA61
102
}
330
1
100
AcDbSymbolTableRecord
100
AcDbBlockTableRecord
  2
*MODEL_SPACE
340
5A
  0
BLOCK_RECORD
  5
7
330
1
100
AcDbSymbolTableRecord
100
AcDbBlockTableRecord
  2
*PAPER_SPACE
340
5B
  0
BLOCK_RECORD
  5
109
330
1
100
AcDbSymbolTableRecord
100
AcDbBlockTableRecord
  2
_Dot
340
0
102
{BLKREFS
331
D864
331
D865
331
D87E
331
D87F
331
D8C6
331
D8C7
331
D8FD
331
D8FE
331
D90B
331
D90C
331
D919
331
D91A
331
D9A7
331
D9A8
331
D9B0
331
D9B1
331
D9B9
331
D9BA
331
D9D2
331
D9D3
331
D9DB
331
D9DC
102
}
  0
BLOCK_RECORD
  5
B194
330
1
100
AcDbSymbolTableRecord
100
AcDbBlockTableRecord
  2
*D1
340
0
  0
BLOCK_RECORD
  5
B1AE
330
1
100
AcDbSymbolTableRecord
100
AcDbBlockTableRecord
  2
*D2
340
0
  0
BLOCK_RECORD
  5
D59F
330
1
100
AcDbSymbolTableRecord
100
AcDbBlockTableRecord
  2
*D3
340
0
  0
BLOCK_RECORD
  5
D936
330
1
100
AcDbSymbolTableRecord
100
AcDbBlockTableRecord
  2
*D10
340
0
  0
BLOCK_RECORD
  5
D95E
330
1
100
AcDbSymbolTableRecord
100
AcDbBlockTableRecord
  2
*D11
340
0
  0
BLOCK_RECORD
  5
D974
330
1
100
AcDbSymbolTableRecord
100
AcDbBlockTableRecord
  2
*D12
340
0
  0
ENDTAB
  0
ENDSEC
  0
SECTION
  2
BLOCKS
  0
BLOCK
  5
3
330
2
100
AcDbEntity
  8
0
100
AcDbBlockBegin
  2
*MODEL_SPACE
 70
     0
 10
0.0
 20
0.0
 30
0.0
  3
*MODEL_SPACE
  1

  0
ENDBLK
  5
6
330
2
100
AcDbEntity
  8
0
100
AcDbBlockEnd
  0
BLOCK
  5
8
330
7
100
AcDbEntity
 67
     1
  8
0
100
AcDbBlockBegin
  2
*PAPER_SPACE
 70
     0
 10
0.0
 20
0.0
 30
0.0
  3
*PAPER_SPACE
  1

  0
ENDBLK
  5
9
330
7
100
AcDbEntity
 67
     1
  8
0
100
AcDbBlockEnd
  0
BLOCK
  5
10C
330
109
100
AcDbEntity
  8
0
100
AcDbBlockBegin
  2
_Dot
 70
     0
 10
0.0
 20
0.0
 30
0.0
  3
_Dot
  1

  0
LWPOLYLINE
  5
10A
330
109
100
AcDbEntity
  8
0
  6
ByBlock
 62
     0
100
AcDbPolyline
 90
        2
 70
     1
 43
0.5
 10
-0.25
 20
0.0
 42
1.0
 10
0.25
 20
0.0
 42
1.0
  0
LINE
  5
10B
330
109
100
AcDbEntity
  8
0
  6
ByBlock
 62
     0
370
    -2
100
AcDbLine
 10
-0.5
 20
0.0
 30
0.0
 11
-1.0
 21
0.0
 31
0.0
  0
ENDBLK
  5
10D
330
109
100
AcDbEntity
  8
0
100
AcDbBlockEnd
  0
BLOCK
  5
B19E
330
B194
100
AcDbEntity
  8
0
100
AcDbBlockBegin
  2
*D1
 70
     1
 10
0.0
 20
0.0
 30
0.0
  3
*D1
  1

  0
LINE
  5
D9AD
330
B194
100
AcDbEntity
  8
SUNPOU
 62
    70
370
    -2
100
AcDbLine
 10
271.2012700086385
 20
264.836224953614
 30
0.0
 11
271.2012700086385
 21
150.2736303179613
 31
0.0
  0
LINE
  5
D9AE
330
B194
100
AcDbEntity
  8
SUNPOU
 62
    70
370
    -2
100
AcDbLine
 10
341.2012700086383
 20
264.836224953614
 30
0.0
 11
341.2012700086383
 21
150.2736303179613
 31
0.0
  0
LINE
  5
D9AF
330
B194
100
AcDbEntity
  8
SUNPOU
 62
    60
370
    -2
100
AcDbLine
 10
277.2012700086385
 20
150.2736303179613
 30
0.0
 11
335.2012700086384
 21
150.2736303179613
 31
0.0
  0
INSERT
  5
D9B0
330
B194
100
AcDbEntity
  8
SUNPOU
 62
    60
370
    -2
100
AcDbBlockReference
  2
_Dot
 10
271.2012700086385
 20
150.2736303179613
 30
0.0
 41
6.0
 42
6.0
 43
6.0
 50
180.0
  0
INSERT
  5
D9B1
330
B194
100
AcDbEntity
  8
SUNPOU
 62
    60
370
    -2
100
AcDbBlockReference
  2
_Dot
 10
341.2012700086383
 20
150.2736303179613
 30
0.0
 41
6.0
 42
6.0
 43
6.0
  0
MTEXT
  5
D9B2
330
B194
100
AcDbEntity
  8
SUNPOU
 62
    60
100
AcDbMText
 10
306.2012700086384
 20
170.2736303179613
 30
0.0
 40
20.0
 41
0.0
 71
     5
 72
     1
  1
\A1;70
  7
SUNPOU
 73
     1
 44
1.0
1001
ACAD
1000
MTEXTBEGIN
1070
    73
1070
     1
1070
    44
1040
1.0
1070
    74
1070
     0
1000
MTEXTEND
  0
POINT
  5
D9B3
330
B194
100
AcDbEntity
  8
DEFPOINTS
 62
     0
100
AcDbPoint
 10
271.2012700086385
 20
270.836224953614
 30
0.0
  0
POINT
  5
D9B4
330
B194
100
AcDbEntity
  8
DEFPOINTS
 62
     0
100
AcDbPoint
 10
341.2012700086383
 20
270.836224953614
 30
0.0
  0
POINT
  5
D9B5
330
B194
100
AcDbEntity
  8
DEFPOINTS
 62
     0
100
AcDbPoint
 10
341.2012700086383
 20
150.2736303179613
 30
0.0
  0
ENDBLK
  5
B19F
330
B194
100
AcDbEntity
  8
0
100
AcDbBlockEnd
  0
BLOCK
  5
B1B8
330
B1AE
100
AcDbEntity
  8
0
100
AcDbBlockBegin
  2
*D2
 70
     1
 10
0.0
 20
0.0
 30
0.0
  3
*D2
  1

  0
LINE
  5
D9B6
330
B1AE
100
AcDbEntity
  8
SUNPOU
 62
    70
370
    -2
100
AcDbLine
 10
267.2012700086385
 20
1368.836224953614
 30
0.0
 11
45.42208489875494
 21
1368.836224953614
 31
0.0
  0
LINE
  5
D9B7
330
B1AE
100
AcDbEntity
  8
SUNPOU
 62
    70
370
    -2
100
AcDbLine
 10
267.2012700086384
 20
268.8362249536141
 30
0.0
 11
45.42208489875469
 21
268.8362249536141
 31
0.0
  0
LINE
  5
D9B8
330
B1AE
100
AcDbEntity
  8
SUNPOU
 62
    60
370
    -2
100
AcDbLine
 10
45.42208489875494
 20
1362.836224953614
 30
0.0
 11
45.42208489875469
 21
274.8362249536141
 31
0.0
  0
INSERT
  5
D9B9
330
B1AE
100
AcDbEntity
  8
SUNPOU
 62
    60
370
    -2
100
AcDbBlockReference
  2
_Dot
 10
45.42208489875494
 20
1368.836224953614
 30
0.0
 41
6.0
 42
6.0
 43
6.0
 50
90.0
  0
INSERT
  5
D9BA
330
B1AE
100
AcDbEntity
  8
SUNPOU
 62
    60
370
    -2
100
AcDbBlockReference
  2
_Dot
 10
45.42208489875469
 20
268.8362249536141
 30
0.0
 41
6.0
 42
6.0
 43
6.0
 50
270.0
  0
MTEXT
  5
D9BB
330
B1AE
100
AcDbEntity
  8
SUNPOU
 62
    60
100
AcDbMText
 10
25.42208489875469
 20
818.8362249536142
 30
0.0
 40
20.0
 41
0.0
 71
     5
 72
     1
  1
\A1;1100
  7
SUNPOU
 11
0.0000000000000001
 21
1.0
 31
0.0
 73
     1
 44
1.0
1001
ACAD
1000
MTEXTBEGIN
1070
    73
1070
     1
1070
    44
1040
1.0
1070
    74
1070
     0
1000
MTEXTEND
  0
POINT
  5
D9BC
330
B1AE
100
AcDbEntity
  8
DEFPOINTS
 62
     0
100
AcDbPoint
 10
273.2012700086385
 20
1368.836224953614
 30
0.0
  0
POINT
  5
D9BD
330
B1AE
100
AcDbEntity
  8
DEFPOINTS
 62
     0
100
AcDbPoint
 10
273.2012700086384
 20
268.8362249536141
 30
0.0
  0
POINT
  5
D9BE
330
B1AE
100
AcDbEntity
  8
DEFPOINTS
 62
     0
100
AcDbPoint
 10
45.42208489875469
 20
268.8362249536141
 30
0.0
  0
ENDBLK
  5
B1B9
330
B1AE
100
AcDbEntity
  8
0
100
AcDbBlockEnd
  0
BLOCK
  5
D5AA
330
D59F
100
AcDbEntity
  8
0
100
AcDbBlockBegin
  2
*D3
 70
     1
 10
0.0
 20
0.0
 30
0.0
  3
*D3
  1

  0
LINE
  5
D8C3
330
D59F
100
AcDbEntity
  8
SUNPOU
 62
    70
370
    -2
100
AcDbLine
 10
271.2012700086384
 20
1372.836224953614
 30
0.0
 11
271.2012700086384
 21
1487.398819589266
 31
0.0
  0
LINE
  5
D8C4
330
D59F
100
AcDbEntity
  8
SUNPOU
 62
    70
370
    -2
100
AcDbLine
 10
341.2012700086385
 20
1372.836224953614
 30
0.0
 11
341.2012700086385
 21
1487.398819589266
 31
0.0
  0
LINE
  5
D8C5
330
D59F
100
AcDbEntity
  8
SUNPOU
 62
    60
370
    -2
100
AcDbLine
 10
277.2012700086384
 20
1487.398819589266
 30
0.0
 11
335.2012700086385
 21
1487.398819589266
 31
0.0
  0
INSERT
  5
D8C6
330
D59F
100
AcDbEntity
  8
SUNPOU
 62
    60
370
    -2
100
AcDbBlockReference
  2
_Dot
 10
271.2012700086384
 20
1487.398819589266
 30
0.0
 41
6.0
 42
6.0
 43
6.0
 50
180.0
  0
INSERT
  5
D8C7
330
D59F
100
AcDbEntity
  8
SUNPOU
 62
    60
370
    -2
100
AcDbBlockReference
  2
_Dot
 10
341.2012700086385
 20
1487.398819589266
 30
0.0
 41
6.0
 42
6.0
 43
6.0
  0
MTEXT
  5
D8C8
330
D59F
100
AcDbEntity
  8
SUNPOU
 62
    60
100
AcDbMText
 10
306.2012700086384
 20
1507.398819589266
 30
0.0
 40
20.0
 41
0.0
 71
     5
 72
     1
  1
\A1;70
  7
SUNPOU
 73
     1
 44
1.0
1001
ACAD
1000
MTEXTBEGIN
1070
    73
1070
     1
1070
    44
1040
1.0
1070
    74
1070
     0
1000
MTEXTEND
  0
POINT
  5
D8C9
330
D59F
100
AcDbEntity
  8
DEFPOINTS
 62
     0
100
AcDbPoint
 10
271.2012700086384
 20
1366.836224953614
 30
0.0
  0
POINT
  5
D8CA
330
D59F
100
AcDbEntity
  8
DEFPOINTS
 62
     0
100
AcDbPoint
 10
341.2012700086385
 20
1366.836224953614
 30
0.0
  0
POINT
  5
D8CB
330
D59F
100
AcDbEntity
  8
DEFPOINTS
 62
     0
100
AcDbPoint
 10
341.2012700086385
 20
1487.398819589266
 30
0.0
  0
ENDBLK
  5
D5AB
330
D59F
100
AcDbEntity
  8
0
100
AcDbBlockEnd
  0
BLOCK
  5
D940
330
D936
100
AcDbEntity
  8
0
100
AcDbBlockBegin
  2
*D10
 70
     1
 10
0.0
 20
0.0
 30
0.0
  3
*D10
  1

  0
LINE
  5
D9CF
330
D936
100
AcDbEntity
  8
SUNPOU
 62
    70
370
    -2
100
AcDbLine
 10
267.2012700086384
 20
628.8362249536137
 30
0.0
 11
130.649535110038
 21
628.8362249536138
 31
0.0
  0
LINE
  5
D9D0
330
D936
100
AcDbEntity
  8
SUNPOU
 62
    70
370
    -2
100
AcDbLine
 10
267.2012700086384
 20
268.8362249536141
 30
0.0
 11
130.6495351100379
 21
268.8362249536141
 31
0.0
  0
LINE
  5
D9D1
330
D936
100
AcDbEntity
  8
SUNPOU
 62
    60
370
    -2
100
AcDbLine
 10
130.649535110038
 20
622.8362249536139
 30
0.0
 11
130.6495351100379
 21
274.8362249536141
 31
0.0
  0
INSERT
  5
D9D2
330
D936
100
AcDbEntity
  8
SUNPOU
 62
    60
370
    -2
100
AcDbBlockReference
  2
_Dot
 10
130.649535110038
 20
628.8362249536138
 30
0.0
 41
6.0
 42
6.0
 43
6.0
 50
90.0
  0
INSERT
  5
D9D3
330
D936
100
AcDbEntity
  8
SUNPOU
 62
    60
370
    -2
100
AcDbBlockReference
  2
_Dot
 10
130.6495351100379
 20
268.8362249536141
 30
0.0
 41
6.0
 42
6.0
 43
6.0
 50
270.0
  0
MTEXT
  5
D9D4
330
D936
100
AcDbEntity
  8
SUNPOU
 62
    60
100
AcDbMText
 10
110.6495351100378
 20
448.8362249536139
 30
0.0
 40
20.0
 41
0.0
 71
     5
 72
     1
  1
\A1;360
  7
SUNPOU
 11
0.0000000000000001
 21
1.0
 31
0.0
 73
     1
 44
1.0
1001
ACAD
1000
MTEXTBEGIN
1070
    73
1070
     1
1070
    44
1040
1.0
1070
    74
1070
     0
1000
MTEXTEND
  0
POINT
  5
D9D5
330
D936
100
AcDbEntity
  8
DEFPOINTS
 62
     0
100
AcDbPoint
 10
273.2012700086384
 20
628.8362249536137
 30
0.0
  0
POINT
  5
D9D6
330
D936
100
AcDbEntity
  8
DEFPOINTS
 62
     0
100
AcDbPoint
 10
273.2012700086384
 20
268.8362249536141
 30
0.0
  0
POINT
  5
D9D7
330
D936
100
AcDbEntity
  8
DEFPOINTS
 62
     0
100
AcDbPoint
 10
130.6495351100379
 20
268.8362249536141
 30
0.0
  0
ENDBLK
  5
D941
330
D936
100
AcDbEntity
  8
0
100
AcDbBlockEnd
  0
BLOCK
  5
D968
330
D95E
100
AcDbEntity
  8
0
100
AcDbBlockBegin
  2
*D11
 70
     1
 10
0.0
 20
0.0
 30
0.0
  3
*D11
  1

  0
LINE
  5
D9D8
330
D95E
100
AcDbEntity
  8
SUNPOU
 62
    70
370
    -2
100
AcDbLine
 10
267.2012700086384
 20
1233.836224953614
 30
0.0
 11
130.649535110038
 21
1233.836224953614
 31
0.0
  0
LINE
  5
D9D9
330
D95E
100
AcDbEntity
  8
SUNPOU
 62
    70
370
    -2
100
AcDbLine
 10
267.2012700086384
 20
628.8362249536137
 30
0.0
 11
130.6495351100378
 21
628.8362249536138
 31
0.0
  0
LINE
  5
D9DA
330
D95E
100
AcDbEntity
  8
SUNPOU
 62
    60
370
    -2
100
AcDbLine
 10
130.649535110038
 20
1227.836224953614
 30
0.0
 11
130.6495351100378
 21
634.8362249536138
 31
0.0
  0
INSERT
  5
D9DB
330
D95E
100
AcDbEntity
  8
SUNPOU
 62
    60
370
    -2
100
AcDbBlockReference
  2
_Dot
 10
130.649535110038
 20
1233.836224953614
 30
0.0
 41
6.0
 42
6.0
 43
6.0
 50
90.0
  0
INSERT
  5
D9DC
330
D95E
100
AcDbEntity
  8
SUNPOU
 62
    60
370
    -2
100
AcDbBlockReference
  2
_Dot
 10
130.6495351100378
 20
628.8362249536138
 30
0.0
 41
6.0
 42
6.0
 43
6.0
 50
270.0
  0
MTEXT
  5
D9DD
330
D95E
100
AcDbEntity
  8
SUNPOU
 62
    60
100
AcDbMText
 10
110.6495351100378
 20
931.3362249536142
 30
0.0
 40
20.0
 41
0.0
 71
     5
 72
     1
  1
\A1;605
  7
SUNPOU
 11
0.0000000000000001
 21
1.0
 31
0.0
 73
     1
 44
1.0
1001
ACAD
1000
MTEXTBEGIN
1070
    73
1070
     1
1070
    44
1040
1.0
1070
    74
1070
     0
1000
MTEXTEND
  0
POINT
  5
D9DE
330
D95E
100
AcDbEntity
  8
DEFPOINTS
 62
     0
100
AcDbPoint
 10
273.2012700086384
 20
1233.836224953614
 30
0.0
  0
POINT
  5
D9DF
330
D95E
100
AcDbEntity
  8
DEFPOINTS
 62
     0
100
AcDbPoint
 10
273.2012700086384
 20
628.8362249536137
 30
0.0
  0
POINT
  5
D9E0
330
D95E
100
AcDbEntity
  8
DEFPOINTS
 62
     0
100
AcDbPoint
 10
130.6495351100378
 20
628.8362249536138
 30
0.0
  0
ENDBLK
  5
D969
330
D95E
100
AcDbEntity
  8
0
100
AcDbBlockEnd
  0
BLOCK
  5
D97E
330
D974
100
AcDbEntity
  8
0
100
AcDbBlockBegin
  2
*D12
 70
     1
 10
0.0
 20
0.0
 30
0.0
  3
*D12
  1

  0
LINE
  5
D9A4
330
D974
100
AcDbEntity
  8
SUNPOU
 62
    70
370
    -2
100
AcDbLine
 10
267.2012700086385
 20
1368.836224953614
 30
0.0
 11
130.6495351100379
 21
1368.836224953614
 31
0.0
  0
LINE
  5
D9A5
330
D974
100
AcDbEntity
  8
SUNPOU
 62
    70
370
    -2
100
AcDbLine
 10
267.2012700086384
 20
1233.836224953614
 30
0.0
 11
130.6495351100379
 21
1233.836224953614
 31
0.0
  0
LINE
  5
D9A6
330
D974
100
AcDbEntity
  8
SUNPOU
 62
    60
370
    -2
100
AcDbLine
 10
130.6495351100379
 20
1362.836224953614
 30
0.0
 11
130.6495351100379
 21
1239.836224953614
 31
0.0
  0
INSERT
  5
D9A7
330
D974
100
AcDbEntity
  8
SUNPOU
 62
    60
370
    -2
100
AcDbBlockReference
  2
_Dot
 10
130.6495351100379
 20
1368.836224953614
 30
0.0
 41
6.0
 42
6.0
 43
6.0
 50
90.0
  0
INSERT
  5
D9A8
330
D974
100
AcDbEntity
  8
SUNPOU
 62
    60
370
    -2
100
AcDbBlockReference
  2
_Dot
 10
130.6495351100379
 20
1233.836224953614
 30
0.0
 41
6.0
 42
6.0
 43
6.0
 50
270.0
  0
MTEXT
  5
D9A9
330
D974
100
AcDbEntity
  8
SUNPOU
 62
    60
100
AcDbMText
 10
110.6495351100377
 20
1301.336224953614
 30
0.0
 40
20.0
 41
0.0
 71
     5
 72
     1
  1
\A1;135
  7
SUNPOU
 11
0.0000000000000001
 21
1.0
 31
0.0
 73
     1
 44
1.0
1001
ACAD
1000
MTEXTBEGIN
1070
    73
1070
     1
1070
    44
1040
1.0
1070
    74
1070
     0
1000
MTEXTEND
  0
POINT
  5
D9AA
330
D974
100
AcDbEntity
  8
DEFPOINTS
 62
     0
100
AcDbPoint
 10
273.2012700086385
 20
1368.836224953614
 30
0.0
  0
POINT
  5
D9AB
330
D974
100
AcDbEntity
  8
DEFPOINTS
 62
     0
100
AcDbPoint
 10
273.2012700086384
 20
1233.836224953614
 30
0.0
  0
POINT
  5
D9AC
330
D974
100
AcDbEntity
  8
DEFPOINTS
 62
     0
100
AcDbPoint
 10
130.6495351100379
 20
1233.836224953614
 30
0.0
  0
ENDBLK
  5
D97F
330
D974
100
AcDbEntity
  8
0
100
AcDbBlockEnd
  0
ENDSEC
  0
SECTION
  2
ENTITIES
  0
LINE
  5
1F
330
2
100
AcDbEntity
  8
WAKU
100
AcDbLine
 10
0.0
 20
70.0
 30
0.0
 11
610.6489978526152
 21
70.0
 31
0.0
  0
LINE
  5
20
330
2
100
AcDbEntity
  8
WAKU
100
AcDbLine
 10
0.0
 20
0.0
 30
0.0
 11
610.6489978526152
 21
0.0
 31
0.0
  0
TEXT
  5
21
330
2
100
AcDbEntity
  8
HOJO
100
AcDbText
 10
48.26983000000012
 20
11.83313000000009
 30
0.0
 40
45.0
  1
F-3
  7
SUNPOU
100
AcDbText
  0
TEXT
  5
4A3
330
2
100
AcDbEntity
  8
HOJO
100
AcDbText
 10
225.60543919488
 20
20.97829970797568
 30
0.0
 40
35.0
  1
1100x70x70
  7
SUNPOU
100
AcDbText
  0
LINE
  5
AFC5
330
2
100
AcDbEntity
  8
KIJUN
100
AcDbLine
 10
336.7012700086384
 20
646.836224953614
 30
0.0
 11
336.7012700086385
 21
642.836224953614
 31
0.0
  0
LINE
  5
AFCF
330
2
100
AcDbEntity
  8
KIJUN
100
AcDbLine
 10
339.2012700086385
 20
628.8362249536139
 30
0.0
 11
273.2012700086384
 21
628.8362249536137
 31
0.0
  0
LINE
  5
B0B0
330
2
100
AcDbEntity
  8
KIJUN
100
AcDbLine
 10
339.2012700086383
 20
1233.836224953614
 30
0.0
 11
273.2012700086384
 21
1233.836224953614
 31
0.0
  0
LINE
  5
B118
330
2
100
AcDbEntity
  8
KIJUN
100
AcDbLine
 10
280.7012700086378
 20
1144.836224953614
 30
0.0
 11
331.701270008639
 21
1144.836224953614
 31
0.0
  0
LINE
  5
B119
330
2
100
AcDbEntity
  8
KIJUN
100
AcDbLine
 10
329.7012700086384
 20
1144.836224953614
 30
0.0
 11
338.6725661698553
 21
978.6778645240788
 31
0.0
  0
LINE
  5
B140
330
2
100
AcDbEntity
  8
KIJUN
100
AcDbLine
 10
334.2012700086318
 20
961.8362249536144
 30
0.0
 11
278.2012700086451
 21
961.836224953614
 31
0.0
  0
LINE
  5
B15A
330
2
100
AcDbEntity
  8
KIJUN
100
AcDbLine
 10
310.2012700086384
 20
1124.685566216186
 30
0.0
 11
310.2012700086386
 21
995.9868836910443
 31
0.0
  0
LINE
  5
B176
330
2
100
AcDbEntity
  8
KIJUN
100
AcDbLine
 10
327.4207849645604
 20
1123.172137893868
 30
0.0
 11
333.3304866210049
 21
998.0981847678064
 31
0.0
  0
LINE
  5
B183
330
2
100
AcDbEntity
  8
KIJUN
  6
CENTER
100
AcDbLine
 10
306.2012700086384
 20
297.8333523108845
 30
0.0
 11
306.2012700086384
 21
1386.196406155961
 31
0.0
  0
LINE
  5
B184
330
2
100
AcDbEntity
  8
KIJUN
100
AcDbLine
 10
273.2012700086385
 20
1368.836224953614
 30
0.0
 11
339.2012700086383
 21
1368.836224953614
 31
0.0
  0
LINE
  5
B186
330
2
100
AcDbEntity
  8
KIJUN
100
AcDbLine
 10
341.2012700086383
 20
270.836224953614
 30
0.0
 11
341.2012700086382
 21
626.8362249536139
 31
0.0
  0
LINE
  5
B187
330
2
100
AcDbEntity
  8
KIJUN
100
AcDbLine
 10
341.2012700086384
 20
1235.836224953614
 30
0.0
 11
341.2012700086385
 21
1366.836224953614
 31
0.0
  0
ARC
  5
B18A
330
2
100
AcDbEntity
  8
KIJUN
100
AcDbCircle
 10
339.2012700086384
 20
626.8362249536139
 30
0.0
 40
2.0
100
AcDbArc
 50
0.0
 51
90.0
  0
ARC
  5
B192
330
2
100
AcDbEntity
  8
KIJUN
100
AcDbCircle
 10
339.2012700086383
 20
1235.836224953614
 30
0.0
 40
2.0
100
AcDbArc
 50
270.0
 51
0.0
  0
DIMENSION
  5
B193
330
2
100
AcDbEntity
  8
SUNPOU
100
AcDbDimension
  2
*D1
 10
341.2012700086383
 20
150.2736303179613
 30
0.0
 11
306.2012700086384
 21
170.2736303179613
 31
0.0
 70
    32
 71
     5
 42
69.99999999999983
  3
STANDARD$0
100
AcDbAlignedDimension
 13
271.2012700086385
 23
270.836224953614
 33
0.0
 14
341.2012700086383
 24
270.836224953614
 34
0.0
100
AcDbRotatedDimension
1001
ACAD
1000
DSTYLE
1002
{
1070
    41
1040
3.0
1070
    42
1040
3.0
1070
    44
1040
0.0
1070
    77
1070
     1
1070
   140
1040
10.0
1070
   146
1040
0.064286
1070
   147
1040
5.0
1070
   176
1070
    60
1070
   177
1070
    70
1070
   178
1070
    60
1070
   271
1070
     0
1070
   272
1070
     0
1070
   340
1005
1C
1070
   342
1005
109
1002
}
  0
DIMENSION
  5
B1AD
330
2
100
AcDbEntity
  8
SUNPOU
100
AcDbDimension
  2
*D2
 10
45.42208489875469
 20
268.8362249536141
 30
0.0
 11
25.42208489875469
 21
818.8362249536142
 31
0.0
 70
    32
 71
     5
 42
1100.0
  3
STANDARD$0
100
AcDbAlignedDimension
 13
273.2012700086385
 23
1368.836224953614
 33
0.0
 14
273.2012700086384
 24
268.8362249536141
 34
0.0
 50
90.0
100
AcDbRotatedDimension
1001
ACAD
1000
DSTYLE
1002
{
1070
    41
1040
3.0
1070
    42
1040
3.0
1070
    44
1040
0.0
1070
    77
1070
     1
1070
   140
1040
10.0
1070
   146
1040
0.064286
1070
   147
1040
5.0
1070
   176
1070
    60
1070
   177
1070
    70
1070
   178
1070
    60
1070
   271
1070
     0
1070
   272
1070
     0
1070
   340
1005
1C
1070
   342
1005
109
1002
}
  0
ARC
  5
B9B3
330
2
100
AcDbEntity
  8
KIJUN
100
AcDbCircle
 10
332.1397350052045
 20
635.6643844177771
 30
0.0
 40
8.499582240264954
100
AcDbArc
 50
306.5485676228397
 51
57.54224935493423
  0
ARC
  5
B9CA
330
2
100
AcDbEntity
  8
KIJUN
100
AcDbCircle
 10
294.6323038566288
 20
693.4747659329276
 30
0.0
 40
45.95063492394966
100
AcDbArc
 50
326.9891002685352
 51
30.55753941186301
  0
ARC
  5
B9CB
330
2
100
AcDbEntity
  8
KIJUN
100
AcDbCircle
 10
342.7112019355164
 20
658.911699468691
 30
0.0
 40
13.48837894374232
100
AcDbArc
 50
135.0510270396896
 51
243.5405907165883
  0
ARC
  5
B9CE
330
2
100
AcDbEntity
  8
KIJUN
100
AcDbCircle
 10
330.2556004174161
 20
722.5269372077609
 30
0.0
 40
6.924775410263795
100
AcDbArc
 50
304.7356013395212
 51
50.05927425547593
  0
ARC
  5
B9D0
330
2
100
AcDbEntity
  8
KIJUN
100
AcDbCircle
 10
333.3907764482323
 20
738.6397034869636
 30
0.0
 40
6.681323311717108
100
AcDbArc
 50
111.9609047899553
 51
248.3269521147662
  0
LINE
  5
B9D4
330
2
100
AcDbEntity
  8
KIJUN
100
AcDbLine
 10
336.2012700086384
 20
1217.836224953614
 30
0.0
 11
336.2012700086384
 21
1220.836224953613
 31
0.0
  0
ARC
  5
B9D6
330
2
100
AcDbEntity
  8
KIJUN
100
AcDbCircle
 10
331.545410706518
 20
1227.524911849849
 30
0.0
 40
8.149574113842689
100
AcDbArc
 50
304.8409937404353
 51
50.75380993603312
  0
ARC
  5
B9D7
330
2
100
AcDbEntity
  8
KIJUN
100
AcDbCircle
 10
327.960999936075
 20
1191.612369209295
 30
0.0
 40
12.6943977364607
100
AcDbArc
 50
291.9263428369253
 51
71.58562865939668
  0
ARC
  5
B9D8
330
2
100
AcDbEntity
  8
KIJUN
100
AcDbCircle
 10
333.4927627357942
 20
1210.923524159431
 30
0.0
 40
7.4243817195062
100
AcDbArc
 50
111.3960442309434
 51
258.1723228104745
  0
ARC
  5
BA13
330
2
100
AcDbEntity
  8
KIJUN
100
AcDbCircle
 10
327.6559693170442
 20
1176.517991850812
 30
0.0
 40
6.038686114804582
100
AcDbArc
 50
289.7976676812916
 51
33.33243467286351
  0
LINE
  5
BA15
330
2
100
AcDbEntity
  8
KIJUN
100
AcDbLine
 10
331.7012700086384
 20
1160.836224953614
 30
0.0
 11
280.7012700086384
 21
1160.836224953614
 31
0.0
  0
LINE
  5
BA2C
330
2
100
AcDbEntity
  8
KIJUN
100
AcDbLine
 10
280.7012700086381
 20
1157.836224953614
 30
0.0
 11
331.7012700086388
 21
1157.836224953614
 31
0.0
  0
LINE
  5
BA2E
330
2
100
AcDbEntity
  8
KIJUN
100
AcDbLine
 10
280.7012700086377
 20
1147.836224953614
 30
0.0
 11
331.701270008639
 21
1147.836224953614
 31
0.0
  0
LINE
  5
BA57
330
2
100
AcDbEntity
  8
KIJUN
100
AcDbLine
 10
331.701270008639
 20
1144.836224953614
 30
0.0
 11
331.701270008639
 21
1147.836224953614
 31
0.0
  0
ARC
  5
BA58
330
2
100
AcDbEntity
  8
KIJUN
100
AcDbCircle
 10
331.6948418548088
 20
1152.836224953614
 30
0.0
 40
5.000004132114685
100
AcDbArc
 50
270.0736611763149
 51
89.92633882368247
  0
LINE
  5
BA60
330
2
100
AcDbEntity
  8
KIJUN
100
AcDbLine
 10
331.7012700086388
 20
1157.836224953614
 30
0.0
 11
331.7012700086384
 21
1160.836224953614
 31
0.0
  0
ARC
  5
BA65
330
2
100
AcDbEntity
  8
KIJUN
100
AcDbCircle
 10
332.0681259401986
 20
968.3584156316888
 30
0.0
 40
6.86216254965244
100
AcDbArc
 50
288.1108216626493
 51
52.96453392119011
  0
ARC
  5
BA66
330
2
100
AcDbEntity
  8
KIJUN
100
AcDbCircle
 10
333.5902697609313
 20
978.2204720260262
 30
0.0
 40
5.102836925224683
100
AcDbArc
 50
300.775545747331
 51
5.142605996622519
  0
LINE
  5
BA67
330
2
100
AcDbEntity
  8
KIJUN
100
AcDbLine
 10
334.2012700086319
 20
958.8362249536142
 30
0.0
 11
278.201270008645
 21
958.8362249536144
 31
0.0
  0
LINE
  5
BA68
330
2
100
AcDbEntity
  8
KIJUN
100
AcDbLine
 10
334.2012700086318
 20
961.8362249536144
 30
0.0
 11
334.2012700086319
 21
958.8362249536142
 31
0.0
  0
ARC
  5
BB0D
330
2
100
AcDbEntity
  8
KIJUN
100
AcDbCircle
 10
334.1137576840479
 20
951.9258613474617
 30
0.0
 40
6.910917708683075
100
AcDbArc
 50
89.27444934581128
 51
249.0761506703886
  0
LINE
  5
BCE4
330
2
100
AcDbEntity
  8
KIJUN
100
AcDbLine
 10
272.2012700086384
 20
941.8362249536142
 30
0.0
 11
340.2012700086384
 21
941.8362249536139
 31
0.0
  0
LINE
  5
BCE5
330
2
100
AcDbEntity
  8
KIJUN
100
AcDbLine
 10
340.2012700086384
 20
941.8362249536139
 30
0.0
 11
340.2012700086385
 21
938.8362249536138
 31
0.0
  0
ARC
  5
BD12
330
2
100
AcDbEntity
  8
KIJUN
100
AcDbCircle
 10
386.166803487357
 20
889.3359647717177
 30
0.0
 40
53.42087749975697
100
AcDbArc
 50
132.3182947924356
 51
194.8721782518066
  0
ARC
  5
BD13
330
2
100
AcDbEntity
  8
KIJUN
100
AcDbCircle
 10
293.5301470369387
 20
797.5409611791867
 30
0.0
 40
57.06652747974248
100
AcDbArc
 50
306.7836089969889
 51
4.373286982479732
  0
ARC
  5
BD14
330
2
100
AcDbEntity
  8
KIJUN
100
AcDbCircle
 10
71.81553875987804
 20
780.4087448433908
 30
0.0
 40
279.4420523420001
100
AcDbArc
 50
4.409306200004071
 51
19.92173522276847
  0
ARC
  5
BD18
330
2
100
AcDbEntity
  8
KIJUN
100
AcDbCircle
 10
337.0339828566256
 20
925.6689378016126
 30
0.0
 40
13.54286376090988
100
AcDbArc
 50
13.5250991115545
 51
76.47490088823879
  0
ARC
  5
BDC8
330
2
100
AcDbEntity
  8
KIJUN
100
AcDbCircle
 10
344.5056789389888
 20
936.2651569899389
 30
0.0
 40
9.361024988396067
100
AcDbArc
 50
232.5234488058265
 51
307.4765511941722
  0
ARC
  5
BDC9
330
2
100
AcDbEntity
  8
KIJUN
100
AcDbCircle
 10
331.6600001598647
 20
935.1064489674332
 30
0.0
 40
9.509966531812331
100
AcDbArc
 50
221.2489372624552
 51
318.7510627375441
  0
ARC
  5
BDCB
330
2
100
AcDbEntity
  8
KIJUN
100
AcDbCircle
 10
315.3555912295303
 20
938.5190586849612
 30
0.0
 40
13.32512161611238
100
AcDbArc
 50
226.6071213681596
 51
313.3928786318414
  0
ELLIPSE
  5
BDD2
330
2
100
AcDbEntity
  8
KIJUN
100
AcDbEllipse
 10
325.6309868271819
 20
1117.033792717844
 30
0.0
 11
-1.394146204444415
 21
11.35412321375272
 31
0.0
210
0.0
220
0.0
230
1.0
 40
0.2571919106168968
 41
-1.031503806724701
 42
0.9894702514095094
  0
ELLIPSE
  5
BDD4
330
2
100
AcDbEntity
  8
KIJUN
100
AcDbEllipse
 10
330.7668145285406
 20
998.8171776688144
 30
0.0
 11
-0.5034911783637312
 21
5.581429966609562
 31
0.0
210
0.0
220
0.0
230
-1.0
 40
0.4505589212316221
 41
1.740488675910598
 42
4.587182758541459
  0
ARC
  5
BDD8
330
2
100
AcDbEntity
  8
KIJUN
100
AcDbCircle
 10
306.2012700086387
 20
995.8389592250448
 30
0.0
 40
4.00273427143056
100
AcDbArc
 50
177.8821032317018
 51
2.117896768337311
  0
ARC
  5
BDDE
330
2
100
AcDbEntity
  8
KIJUN
100
AcDbCircle
 10
306.2012700086384
 20
1124.833490682183
 30
0.0
 40
4.002734271430496
100
AcDbArc
 50
357.8821032316903
 51
182.1178967683193
  0
ARC
  5
BDE0
330
2
100
AcDbEntity
  8
KIJUN
100
AcDbCircle
 10
427.1200731574971
 20
889.5140986035741
 30
0.0
 40
109.8866447800653
100
AcDbArc
 50
159.0322362653885
 51
191.4437328806995
  0
ARC
  5
BDE1
330
2
100
AcDbEntity
  8
KIJUN
100
AcDbCircle
 10
-435.8128280289501
 20
839.5658418866227
 30
0.0
 40
758.1230493077251
100
AcDbArc
 50
353.9287936579561
 51
357.4067004927637
  0
ARC
  5
BDE2
330
2
100
AcDbEntity
  8
KIJUN
100
AcDbCircle
 10
-114.0736975408599
 20
821.7647214493208
 30
0.0
 40
435.9199226302372
100
AcDbArc
 50
357.8306433566714
 51
6.050384823721369
  0
ARC
  5
BDE3
330
2
100
AcDbEntity
  8
KIJUN
100
AcDbCircle
 10
436.4877351823727
 20
880.8933230610726
 30
0.0
 40
108.8092120479397
100
AcDbArc
 50
153.8569133793164
 51
173.1672836499728
  0
ARC
  5
BDE4
330
2
100
AcDbEntity
  8
KIJUN
100
AcDbCircle
 10
381.3715165394097
 20
887.9868407031441
 30
0.0
 40
53.24273816623096
100
AcDbArc
 50
173.6901894408865
 51
196.5637931061514
  0
ARC
  5
BDE5
330
2
100
AcDbEntity
  8
KIJUN
100
AcDbCircle
 10
260.6460360179017
 20
800.6640890390084
 30
0.0
 40
79.41943905106199
100
AcDbArc
 50
328.6824963563034
 51
357.9420744308496
  0
LINE
  5
BE45
330
2
100
AcDbEntity
  8
KIJUN
100
AcDbLine
 10
329.7012700086384
 20
1170.836224953614
 30
0.0
 11
282.7012700086541
 21
1170.836224953614
 31
0.0
  0
LINE
  5
BE46
330
2
100
AcDbEntity
  8
KIJUN
100
AcDbLine
 10
329.7012700086384
 20
1160.836224953614
 30
0.0
 11
329.7012700086384
 21
1170.836224953614
 31
0.0
  0
LINE
  5
BE4A
330
2
100
AcDbEntity
  8
KIJUN
100
AcDbLine
 10
340.2012700086384
 20
941.8362249536139
 30
0.0
 11
331.6456835476843
 21
945.4706778772882
 31
0.0
  0
LINE
  5
BF04
330
2
100
AcDbEntity
  8
KIJUN
100
AcDbLine
 10
336.2012700086384
 20
1220.836224953613
 30
0.0
 11
276.2012700086384
 21
1220.836224953613
 31
0.0
  0
LINE
  5
BF05
330
2
100
AcDbEntity
  8
KIJUN
100
AcDbLine
 10
332.7012700086384
 20
1179.836224953614
 30
0.0
 11
279.7012700086444
 21
1179.836224953614
 31
0.0
  0
LINE
  5
BF26
330
2
100
AcDbEntity
  8
KIJUN
100
AcDbLine
 10
336.2012700086384
 20
1217.836224953614
 30
0.0
 11
276.2012700086384
 21
1217.836224953614
 31
0.0
  0
LINE
  5
C001
330
2
100
AcDbEntity
  8
KIJUN
100
AcDbLine
 10
336.2012700086431
 20
973.8362249536143
 30
0.0
 11
276.2012700086383
 21
973.8362249536137
 31
0.0
  0
LINE
  5
C008
330
2
100
AcDbEntity
  8
KIJUN
100
AcDbLine
 10
272.2012700086383
 20
938.8362249536134
 30
0.0
 11
340.2012700086384
 21
938.836224953614
 31
0.0
  0
LINE
  5
C01E
330
2
100
AcDbEntity
  8
KIJUN
100
AcDbLine
 10
284.7012700086424
 20
751.836224953614
 30
0.0
 11
327.7012700086384
 21
751.8362249536141
 31
0.0
  0
ARC
  5
C054
330
2
100
AcDbEntity
  8
KIJUN
100
AcDbCircle
 10
324.0871537681349
 20
740.8022815784625
 30
0.0
 40
11.61075977728956
100
AcDbArc
 50
43.39687041470432
 51
71.86403476533128
  0
LINE
  5
C056
330
2
100
AcDbEntity
  8
KIJUN
100
AcDbLine
 10
281.5104037810559
 20
744.8362249536143
 30
0.0
 11
330.8921362362297
 21
744.8362249536139
 31
0.0
  0
LINE
  5
C058
330
2
100
AcDbEntity
  8
KIJUN
100
AcDbLine
 10
277.7012700086383
 20
730.8362249536141
 30
0.0
 11
334.7012700086383
 21
730.8362249536138
 31
0.0
  0
LINE
  5
C059
330
2
100
AcDbEntity
  8
KIJUN
100
AcDbLine
 10
277.7012700086384
 20
727.8362249536142
 30
0.0
 11
334.7012700086383
 21
727.8362249536138
 31
0.0
  0
LINE
  5
C060
330
2
100
AcDbEntity
  8
KIJUN
100
AcDbLine
 10
334.7012700086383
 20
727.8362249536138
 30
0.0
 11
334.7012700086385
 21
730.836224953614
 31
0.0
  0
LINE
  5
C128
330
2
100
AcDbEntity
  8
KIJUN
100
AcDbLine
 10
306.2012700086384
 20
928.836224953614
 30
0.0
 11
306.2012700086384
 21
754.7457621165711
 31
0.0
  0
ARC
  5
C12D
330
2
100
AcDbEntity
  8
KIJUN
100
AcDbCircle
 10
54.03541977798513
 20
799.0371994001703
 30
0.0
 40
285.9814562579547
100
AcDbArc
 50
359.7545628982262
 51
14.94890088818744
  0
LINE
  5
C262
330
2
100
AcDbEntity
  8
KIJUN
100
AcDbLine
 10
306.2012700086385
 20
928.836224953614
 30
0.0
 11
306.2012700086385
 21
759.3834433540331
 31
0.0
  0
LINE
  5
C367
330
2
100
AcDbEntity
  8
KIJUN
100
AcDbLine
 10
302.2012700086384
 20
1124.685566216185
 30
0.0
 11
302.2012700086386
 21
995.9868836910416
 31
0.0
  0
LINE
  5
D4C6
330
2
100
AcDbEntity
  8
KIJUN
100
AcDbLine
 10
336.7012700086385
 20
642.836224953614
 30
0.0
 11
275.7012700086383
 21
642.8362249536137
 31
0.0
  0
LINE
  5
D4C7
330
2
100
AcDbEntity
  8
KIJUN
100
AcDbLine
 10
336.7012700086384
 20
646.836224953614
 30
0.0
 11
275.7012700086383
 21
646.8362249536138
 31
0.0
  0
LINE
  5
D4CB
330
2
100
AcDbEntity
  8
KIJUN
100
AcDbLine
 10
334.2012700086383
 20
716.8362249536141
 30
0.0
 11
278.2012700086384
 21
716.8362249536138
 31
0.0
  0
ARC
  5
D595
330
2
100
AcDbEntity
  8
KIJUN
100
AcDbCircle
 10
306.2012700086386
 20
1291.877891620281
 30
0.0
 40
57.04166666666651
100
AcDbArc
 50
232.1507111678971
 51
307.8492888321022
  0
DIMENSION
  5
D59E
330
2
100
AcDbEntity
  8
SUNPOU
100
AcDbDimension
  2
*D3
 10
341.2012700086385
 20
1487.398819589266
 30
0.0
 11
306.2012700086384
 21
1507.398819589266
 31
0.0
 70
    32
 71
     5
 42
70.00000000000011
  3
STANDARD$0
100
AcDbAlignedDimension
 13
271.2012700086384
 23
1366.836224953614
 33
0.0
 14
341.2012700086385
 24
1366.836224953614
 34
0.0
100
AcDbRotatedDimension
1001
ACAD
1000
DSTYLE
1002
{
1070
    41
1040
3.0
1070
    42
1040
3.0
1070
    44
1040
0.0
1070
    77
1070
     1
1070
   140
1040
10.0
1070
   146
1040
0.064286
1070
   147
1040
5.0
1070
   176
1070
    60
1070
   177
1070
    70
1070
   178
1070
    60
1070
   271
1070
     0
1070
   272
1070
     0
1070
   340
1005
1C
1070
   342
1005
109
1002
}
  0
ARC
  5
D5FD
330
2
100
AcDbEntity
  8
KIJUN
100
AcDbCircle
 10
339.2012700086383
 20
1366.836224953614
 30
0.0
 40
2.0
100
AcDbArc
 50
0.0
 51
90.0
  0
LINE
  5
D60E
330
2
100
AcDbEntity
  8
KIJUN
100
AcDbLine
 10
339.2012700086385
 20
268.836224953614
 30
0.0
 11
273.2012700086384
 21
268.8362249536141
 31
0.0
  0
ARC
  5
D60F
330
2
100
AcDbEntity
  8
KIJUN
100
AcDbCircle
 10
339.2012700086384
 20
270.836224953614
 30
0.0
 40
2.0
100
AcDbArc
 50
270.0
 51
0.0
  0
ARC
  5
D838
330
2
100
AcDbEntity
  8
KIJUN
100
AcDbCircle
 10
330.8921362362298
 20
747.1453587260228
 30
0.0
 40
2.309133772408668
100
AcDbArc
 50
270.0
 51
45.04443936292868
  0
LINE
  5
D83C
330
2
100
AcDbEntity
  8
KIJUN
100
AcDbLine
 10
334.7012700086383
 20
730.8362249536138
 30
0.0
 11
330.92329927779
 21
732.4307069811633
 31
0.0
  0
LINE
  5
D884
330
2
100
AcDbEntity
  8
KIJUN
100
AcDbLine
 10
322.4249111827822
 20
1122.969048857876
 30
0.0
 11
328.3346128392267
 21
997.8950957318138
 31
0.0
  0
LINE
  5
D888
330
2
100
AcDbEntity
  8
KIJUN
100
AcDbLine
 10
271.2012700086384
 20
1235.836224953614
 30
0.0
 11
271.2012700086384
 21
1366.836224953614
 31
0.0
  0
ARC
  5
D889
330
2
100
AcDbEntity
  8
KIJUN
100
AcDbCircle
 10
273.2012700086384
 20
1235.836224953614
 30
0.0
 40
2.0
100
AcDbArc
 50
180.0
 51
270.0
  0
LINE
  5
D88A
330
2
100
AcDbEntity
  8
KIJUN
100
AcDbLine
 10
276.2012700086384
 20
1217.836224953614
 30
0.0
 11
276.2012700086384
 21
1220.836224953613
 31
0.0
  0
ARC
  5
D88B
330
2
100
AcDbEntity
  8
KIJUN
100
AcDbCircle
 10
280.8571293107588
 20
1227.524911849849
 30
0.0
 40
8.149574113842689
100
AcDbArc
 50
129.2461900639668
 51
235.1590062595652
  0
ARC
  5
D88C
330
2
100
AcDbEntity
  8
KIJUN
100
AcDbCircle
 10
284.4415400812018
 20
1191.612369209295
 30
0.0
 40
12.6943977364607
100
AcDbArc
 50
108.4143713406012
 51
248.0736571630721
  0
ARC
  5
D88D
330
2
100
AcDbEntity
  8
KIJUN
100
AcDbCircle
 10
278.9097772814827
 20
1210.923524159431
 30
0.0
 40
7.4243817195062
100
AcDbArc
 50
281.8276771895245
 51
68.60395576905898
  0
ARC
  5
D88E
330
2
100
AcDbEntity
  8
KIJUN
100
AcDbCircle
 10
284.7465707002326
 20
1176.517991850812
 30
0.0
 40
6.038686114804582
100
AcDbArc
 50
146.667565327106
 51
250.2023323188483
  0
LINE
  5
D88F
330
2
100
AcDbEntity
  8
KIJUN
100
AcDbLine
 10
280.7012700086378
 20
1144.836224953614
 30
0.0
 11
280.7012700086377
 21
1147.836224953614
 31
0.0
  0
LINE
  5
D890
330
2
100
AcDbEntity
  8
KIJUN
100
AcDbLine
 10
280.7012700086381
 20
1157.836224953614
 30
0.0
 11
280.7012700086384
 21
1160.836224953614
 31
0.0
  0
ARC
  5
D891
330
2
100
AcDbEntity
  8
KIJUN
100
AcDbCircle
 10
280.707698162468
 20
1152.836224953614
 30
0.0
 40
5.000004132114685
100
AcDbArc
 50
90.0736611763183
 51
269.9263388236882
  0
LINE
  5
D892
330
2
100
AcDbEntity
  8
KIJUN
100
AcDbLine
 10
282.7012700086384
 20
1160.836224953614
 30
0.0
 11
282.7012700086384
 21
1170.836224953614
 31
0.0
  0
ARC
  5
D893
330
2
100
AcDbEntity
  8
KIJUN
100
AcDbCircle
 10
273.2012700086384
 20
1366.836224953614
 30
0.0
 40
2.0
100
AcDbArc
 50
90.0
 51
180.0
  0
LINE
  5
D894
330
2
100
AcDbEntity
  8
KIJUN
100
AcDbLine
 10
282.7012700086384
 20
1144.836224953614
 30
0.0
 11
273.7299738474215
 21
978.6778645240788
 31
0.0
  0
LINE
  5
D895
330
2
100
AcDbEntity
  8
KIJUN
100
AcDbLine
 10
284.9817550527164
 20
1123.172137893868
 30
0.0
 11
279.0720533962719
 21
998.0981847678064
 31
0.0
  0
LINE
  5
D896
330
2
100
AcDbEntity
  8
KIJUN
100
AcDbLine
 10
289.9776288344946
 20
1122.969048857876
 30
0.0
 11
284.0679271780501
 21
997.8950957318138
 31
0.0
  0
ARC
  5
D897
330
2
100
AcDbEntity
  8
KIJUN
100
AcDbCircle
 10
280.3344140770782
 20
968.3584156316888
 30
0.0
 40
6.86216254965244
100
AcDbArc
 50
127.0354660788095
 51
251.8891783373507
  0
ARC
  5
D898
330
2
100
AcDbEntity
  8
KIJUN
100
AcDbCircle
 10
278.8122702563455
 20
978.2204720260262
 30
0.0
 40
5.102836925224683
100
AcDbArc
 50
174.8573940033774
 51
239.2244542526631
  0
LINE
  5
D899
330
2
100
AcDbEntity
  8
KIJUN
100
AcDbLine
 10
278.2012700086451
 20
961.836224953614
 30
0.0
 11
278.201270008645
 21
958.8362249536144
 31
0.0
  0
ARC
  5
D89A
330
2
100
AcDbEntity
  8
KIJUN
100
AcDbCircle
 10
278.288782333229
 20
951.9258613474617
 30
0.0
 40
6.910917708683075
100
AcDbArc
 50
290.9238493296085
 51
90.72555065418814
  0
LINE
  5
D89B
330
2
100
AcDbEntity
  8
KIJUN
100
AcDbLine
 10
272.2012700086384
 20
941.8362249536142
 30
0.0
 11
272.2012700086383
 21
938.8362249536134
 31
0.0
  0
ARC
  5
D89C
330
2
100
AcDbEntity
  8
KIJUN
100
AcDbCircle
 10
275.3685571606512
 20
925.6689378016126
 30
0.0
 40
13.54286376090988
100
AcDbArc
 50
103.5250991117593
 51
166.474900888446
  0
ELLIPSE
  5
D89D
330
2
100
AcDbEntity
  8
KIJUN
100
AcDbEllipse
 10
286.7715531900949
 20
1117.033792717844
 30
0.0
 11
1.394146204444415
 21
11.35412321375272
 31
0.0
210
0.0
220
0.0
230
-1.0
 40
0.2571919106168968
 41
-1.031503806724701
 42
0.9894702514095094
  0
ELLIPSE
  5
D89E
330
2
100
AcDbEntity
  8
KIJUN
100
AcDbEllipse
 10
281.6357254887362
 20
998.8171776688144
 30
0.0
 11
0.5034911783637312
 21
5.581429966609562
 31
0.0
210
0.0
220
0.0
230
1.0
 40
0.4505589212316221
 41
1.740488675910598
 42
4.587182758541459
  0
LINE
  5
D89F
330
2
100
AcDbEntity
  8
KIJUN
100
AcDbLine
 10
272.2012700086384
 20
941.8362249536139
 30
0.0
 11
280.7568564695925
 21
945.4706778772882
 31
0.0
  0
LINE
  5
D8A0
330
2
100
AcDbEntity
  8
KIJUN
100
AcDbLine
 10
275.7012700086383
 20
646.8362249536138
 30
0.0
 11
275.7012700086383
 21
642.8362249536137
 31
0.0
  0
ARC
  5
D8A1
330
2
100
AcDbEntity
  8
KIJUN
100
AcDbCircle
 10
273.2012700086384
 20
626.8362249536139
 30
0.0
 40
2.0
100
AcDbArc
 50
90.0
 51
180.0
  0
ARC
  5
D8A2
330
2
100
AcDbEntity
  8
KIJUN
100
AcDbCircle
 10
280.2628050120723
 20
635.6643844177771
 30
0.0
 40
8.499582240264958
100
AcDbArc
 50
122.4577506450662
 51
233.4514323771613
  0
ARC
  5
D8A3
330
2
100
AcDbEntity
  8
KIJUN
100
AcDbCircle
 10
317.7702361606479
 20
693.4747659329275
 30
0.0
 40
45.95063492394948
100
AcDbArc
 50
149.4424605881371
 51
213.0108997314653
  0
ARC
  5
D8A4
330
2
100
AcDbEntity
  8
KIJUN
100
AcDbCircle
 10
269.6913380817604
 20
658.911699468691
 30
0.0
 40
13.48837894374232
100
AcDbArc
 50
296.459409283409
 51
44.94897296030816
  0
ARC
  5
D8A5
330
2
100
AcDbEntity
  8
KIJUN
100
AcDbCircle
 10
282.1469395998607
 20
722.5269372077609
 30
0.0
 40
6.924775410263798
100
AcDbArc
 50
129.9407257445252
 51
235.264398660478
  0
ARC
  5
D8A6
330
2
100
AcDbEntity
  8
KIJUN
100
AcDbCircle
 10
279.0117635690445
 20
738.6397034869636
 30
0.0
 40
6.68132331171711
100
AcDbArc
 50
291.6730478852366
 51
68.03909520997592
  0
ARC
  5
D8A7
330
2
100
AcDbEntity
  8
KIJUN
100
AcDbCircle
 10
226.2357365299197
 20
889.3359647717177
 30
0.0
 40
53.420877499757
100
AcDbArc
 50
345.1278217481927
 51
47.68170520756506
  0
ARC
  5
D8A8
330
2
100
AcDbEntity
  8
KIJUN
100
AcDbCircle
 10
318.8723929803381
 20
797.5409611791867
 30
0.0
 40
57.06652747974251
100
AcDbArc
 50
175.6267130175203
 51
233.2163910030124
  0
ARC
  5
D8A9
330
2
100
AcDbEntity
  8
KIJUN
100
AcDbCircle
 10
540.5870012573988
 20
780.4087448433908
 30
0.0
 40
279.4420523420003
100
AcDbArc
 50
160.0782647772319
 51
175.5906937999957
  0
ARC
  5
D8AA
330
2
100
AcDbEntity
  8
KIJUN
100
AcDbCircle
 10
267.896861078288
 20
936.2651569899389
 30
0.0
 40
9.361024988396071
100
AcDbArc
 50
232.5234488058287
 51
307.4765511941718
  0
ARC
  5
D8AB
330
2
100
AcDbEntity
  8
KIJUN
100
AcDbCircle
 10
280.7425398574121
 20
935.1064489674332
 30
0.0
 40
9.509966531812334
100
AcDbArc
 50
221.2489372624545
 51
318.7510627375459
  0
ARC
  5
D8AC
330
2
100
AcDbEntity
  8
KIJUN
100
AcDbCircle
 10
185.2824668597795
 20
889.5140986035741
 30
0.0
 40
109.8866447800654
100
AcDbArc
 50
348.5562671193001
 51
20.96776373461258
  0
ARC
  5
D8AD
330
2
100
AcDbEntity
  8
KIJUN
100
AcDbCircle
 10
1048.215368046227
 20
839.5658418866227
 30
0.0
 40
758.1230493077255
100
AcDbArc
 50
182.5932995072363
 51
186.0712063420439
  0
ARC
  5
D8AE
330
2
100
AcDbEntity
  8
KIJUN
100
AcDbCircle
 10
726.4762375581369
 20
821.7647214493208
 30
0.0
 40
435.9199226302374
100
AcDbArc
 50
173.9496151762788
 51
182.1693566433287
  0
ARC
  5
D8AF
330
2
100
AcDbEntity
  8
KIJUN
100
AcDbCircle
 10
175.914804834904
 20
880.8933230610726
 30
0.0
 40
108.8092120479397
100
AcDbArc
 50
6.832716350027443
 51
26.14308662068479
  0
ARC
  5
D8B0
330
2
100
AcDbEntity
  8
KIJUN
100
AcDbCircle
 10
231.0310234778671
 20
887.9868407031441
 30
0.0
 40
53.24273816623097
100
AcDbArc
 50
343.4362068938484
 51
6.309810559113377
  0
ARC
  5
D8B1
330
2
100
AcDbEntity
  8
KIJUN
100
AcDbCircle
 10
351.7565039993751
 20
800.6640890390084
 30
0.0
 40
79.41943905106203
100
AcDbArc
 50
182.0579255691504
 51
211.3175036436973
  0
ARC
  5
D8B2
330
2
100
AcDbEntity
  8
KIJUN
100
AcDbCircle
 10
558.3671202392918
 20
799.0371994001703
 30
0.0
 40
285.9814562579548
100
AcDbArc
 50
165.0510991118121
 51
180.2454371017738
  0
ARC
  5
D8B3
330
2
100
AcDbEntity
  8
KIJUN
100
AcDbCircle
 10
288.3153862491419
 20
740.8022815784625
 30
0.0
 40
11.61075977728957
100
AcDbArc
 50
108.1359652346495
 51
136.6031295852963
  0
LINE
  5
D8B4
330
2
100
AcDbEntity
  8
KIJUN
100
AcDbLine
 10
277.7012700086384
 20
727.8362249536142
 30
0.0
 11
277.7012700086383
 21
730.8362249536141
 31
0.0
  0
ARC
  5
D8B5
330
2
100
AcDbEntity
  8
KIJUN
100
AcDbCircle
 10
281.510403781047
 20
747.1453587260228
 30
0.0
 40
2.309133772408669
100
AcDbArc
 50
134.9555606370694
 51
270.0
  0
LINE
  5
D8B6
330
2
100
AcDbEntity
  8
KIJUN
100
AcDbLine
 10
277.7012700086384
 20
730.8362249536138
 30
0.0
 11
281.4792407394867
 21
732.4307069811633
 31
0.0
  0
ARC
  5
D8B7
330
2
100
AcDbEntity
  8
KIJUN
100
AcDbCircle
 10
297.0469487877466
 20
938.5190586849612
 30
0.0
 40
13.32512161611238
100
AcDbArc
 50
226.607121368159
 51
313.3928786318406
  0
LINE
  5
D8B8
330
2
100
AcDbEntity
  8
KIJUN
100
AcDbLine
 10
271.2012700086386
 20
270.836224953614
 30
0.0
 11
271.2012700086386
 21
626.8362249536139
 31
0.0
  0
ARC
  5
D8B9
330
2
100
AcDbEntity
  8
KIJUN
100
AcDbCircle
 10
273.2012700086384
 20
270.836224953614
 30
0.0
 40
1.999999999999999
100
AcDbArc
 50
180.0
 51
270.0
  0
ARC
  5
D905
330
2
100
AcDbEntity
  8
KIJUN
100
AcDbCircle
 10
306.2012700086386
 20
1310.794558286947
 30
0.0
 40
57.04166666666651
100
AcDbArc
 50
52.15071116789474
 51
127.8492888321057
  0
ARC
  5
D913
330
2
100
AcDbEntity
  8
KIJUN
100
AcDbCircle
 10
306.2012700086386
 20
570.7945582869469
 30
0.0
 40
57.04166666666651
100
AcDbArc
 50
52.15071116789474
 51
127.8492888321057
  0
ARC
  5
D921
330
2
100
AcDbEntity
  8
KIJUN
100
AcDbCircle
 10
306.2012700086386
 20
326.8778916202809
 30
0.0
 40
57.04166666666651
100
AcDbArc
 50
232.1507111678924
 51
307.8492888321071
  0
TEXT
  5
D934
330
2
100
AcDbEntity
  8
HOJO
100
AcDbText
 10
6.700160236725366
 20
-33.91424818027542
 30
0.0
 40
20.0
  1
※ 形状・寸法は製品特性や、生産ロットにより誤差があるものがあります。
  7
SUNPOU
100
AcDbText
  0
DIMENSION
  5
D935
330
2
100
AcDbEntity
  8
SUNPOU
100
AcDbDimension
  2
*D10
 10
130.6495351100379
 20
268.8362249536141
 30
0.0
 11
110.6495351100378
 21
448.8362249536139
 31
0.0
 70
    32
 71
     5
 42
359.9999999999997
  3
STANDARD$0
100
AcDbAlignedDimension
 13
273.2012700086384
 23
628.8362249536137
 33
0.0
 14
273.2012700086384
 24
268.8362249536141
 34
0.0
 50
90.0
100
AcDbRotatedDimension
1001
ACAD
1000
DSTYLE
1002
{
1070
    41
1040
3.0
1070
    42
1040
3.0
1070
    44
1040
0.0
1070
    77
1070
     1
1070
   140
1040
10.0
1070
   146
1040
0.064286
1070
   147
1040
5.0
1070
   176
1070
    60
1070
   177
1070
    70
1070
   178
1070
    60
1070
   271
1070
     0
1070
   272
1070
     0
1070
   340
1005
1C
1070
   342
1005
109
1002
}
  0
DIMENSION
  5
D95D
330
2
100
AcDbEntity
  8
SUNPOU
100
AcDbDimension
  2
*D11
 10
130.6495351100378
 20
628.8362249536138
 30
0.0
 11
110.6495351100378
 21
931.3362249536142
 31
0.0
 70
    32
 71
     5
 42
605.0000000000006
  3
STANDARD$0
100
AcDbAlignedDimension
 13
273.2012700086384
 23
1233.836224953614
 33
0.0
 14
273.2012700086384
 24
628.8362249536137
 34
0.0
 50
90.0
100
AcDbRotatedDimension
1001
ACAD
1000
DSTYLE
1002
{
1070
    41
1040
3.0
1070
    42
1040
3.0
1070
    44
1040
0.0
1070
    77
1070
     1
1070
   140
1040
10.0
1070
   146
1040
0.064286
1070
   147
1040
5.0
1070
   176
1070
    60
1070
   177
1070
    70
1070
   178
1070
    60
1070
   271
1070
     0
1070
   272
1070
     0
1070
   340
1005
1C
1070
   342
1005
109
1002
}
  0
DIMENSION
  5
D973
330
2
100
AcDbEntity
  8
SUNPOU
100
AcDbDimension
  2
*D12
 10
130.6495351100379
 20
1233.836224953614
 30
0.0
 11
110.6495351100377
 21
1301.336224953614
 31
0.0
 70
    32
 71
     5
 42
135.0000000000002
  3
STANDARD$0
100
AcDbAlignedDimension
 13
273.2012700086385
 23
1368.836224953614
 33
0.0
 14
273.2012700086384
 24
1233.836224953614
 34
0.0
 50
90.0
100
AcDbRotatedDimension
1001
ACAD
1000
DSTYLE
1002
{
1070
    41
1040
3.0
1070
    42
1040
3.0
1070
    44
1040
0.0
1070
    77
1070
     1
1070
   140
1040
10.0
1070
   146
1040
0.064286
1070
   147
1040
5.0
1070
   176
1070
    60
1070
   177
1070
    70
1070
   178
1070
    60
1070
   271
1070
     0
1070
   272
1070
     0
1070
   340
1005
1C
1070
   342
1005
109
1002
}
  0
ENDSEC
  0
SECTION
  2
OBJECTS
  0
DICTIONARY
  5
1A
330
0
100
AcDbDictionary
281
     1
  3
ACAD_COLOR
350
B1BF
  3
ACAD_GROUP
350
18
  3
ACAD_LAYOUT
350
58
  3
ACAD_MATERIAL
350
B1BE
  3
ACAD_MLINESTYLE
350
19
  3
ACAD_PLOTSETTINGS
350
59
  3
ACAD_PLOTSTYLENAME
350
56
  3
ACAD_TABLESTYLE
350
B1C0
  3
ACDBHEADERROUNDTRIPXREC
350
D9E8
  3
AcDbVariableDictionary
350
B97E
  0
DICTIONARY
  5
BEBB
330
A
100
AcDbDictionary
280
     1
281
     1
  3
ACAD_LAYERFILTERS
360
D5C6
  3
ACLYDICTIONARY
360
D5C5
  0
DICTIONARY
  5
BA61
330
2
100
AcDbDictionary
280
     1
281
     1
  3
ACAD_SORTENTS
360
BA62
  0
DICTIONARY
  5
B1BF
102
{ACAD_REACTORS
330
1A
102
}
330
1A
100
AcDbDictionary
281
     1
  0
DICTIONARY
  5
18
102
{ACAD_REACTORS
330
1A
102
}
330
1A
100
AcDbDictionary
281
     1
  3
*A1
350
3A0
  3
*A10
350
4FAD
  3
*A11
350
8937
  3
*A12
350
A9E7
  3
*A13
350
A3EA
  3
*A14
350
ADDD
  3
*A15
350
5DF8
  3
*A16
350
2FC7
  3
*A17
350
2766
  3
*A18
350
38D5
  3
*A19
350
46AB
  3
*A2
350
A3E9
  3
*A20
350
4FAE
  3
*A22
350
38D6
  3
*A23
350
6398
  3
*A24
350
ACC
  3
*A25
350
2120
  3
*A26
350
795C
  3
*A27
350
2765
  3
*A28
350
54B2
  3
*A3
350
595A
  3
*A4
350
3A1
  3
*A5
350
A9E8
  3
*A6
350
795A
  3
*A7
350
46A2
  3
*A8
350
2FC6
  3
*A9
350
8936
  0
DICTIONARY
  5
58
102
{ACAD_REACTORS
330
1A
102
}
330
1A
100
AcDbDictionary
281
     1
  3
Model
350
5A
  3
ﾚｲｱｳﾄ1
350
5B
  0
DICTIONARY
  5
B1BE
102
{ACAD_REACTORS
330
1A
102
}
330
1A
100
AcDbDictionary
281
     1
  0
DICTIONARY
  5
19
102
{ACAD_REACTORS
330
1A
102
}
330
1A
100
AcDbDictionary
281
     1
  3
STANDARD
350
1D
  0
DICTIONARY
  5
59
102
{ACAD_REACTORS
330
1A
102
}
330
1A
100
AcDbDictionary
281
     1
  0
ACDBDICTIONARYWDFLT
  5
56
102
{ACAD_REACTORS
330
1A
102
}
330
1A
100
AcDbDictionary
281
     1
  3
Normal
350
57
100
AcDbDictionaryWithDefault
340
57
  0
DICTIONARY
  5
B1C0
102
{ACAD_REACTORS
330
1A
102
}
330
1A
100
AcDbDictionary
281
     1
  3
Standard
350
B1C1
  0
DICTIONARY
  5
D9E8
102
{ACAD_REACTORS
330
1A
102
}
330
1A
100
AcDbDictionary
281
     1
  0
DICTIONARY
  5
B97E
102
{ACAD_REACTORS
330
1A
102
}
330
1A
100
AcDbDictionary
281
     1
  3
CTABLESTYLE
350
B97F
  3
DIMASSOC
350
BA4F
  3
PROJECTNAME
350
BA50
  0
DICTIONARY
  5
D5C6
102
{ACAD_REACTORS
330
BEBB
102
}
330
BEBB
100
AcDbDictionary
281
     1
  0
DICTIONARY
  5
D5C5
102
{ACAD_REACTORS
330
BEBB
102
}
330
BEBB
100
AcDbDictionary
281
     1
1001
ACAD
1000
<All
  0
SORTENTSTABLE
  5
BA62
102
{ACAD_REACTORS
330
BA61
102
}
330
BA61
100
AcDbSortentsTable
330
2
331
D4C6
  5
D4C7
331
C060
  5
C262
331
BA66
  5
BB0D
331
BDD4
  5
BDE0
331
AFC5
  5
AFC5
331
B9D8
  5
BA2C
331
C367
  5
D4C6
331
BD18
  5
BDCB
331
D60F
  5
D610
331
BDE2
  5
BDE5
331
B15A
  5
B15A
331
BDE5
  5
BE4A
331
BF04
  5
C008
331
BA58
  5
BA67
331
B119
  5
B119
331
BDC9
  5
BDD4
331
C01E
  5
C059
331
B183
  5
B187
331
4A3
  5
4A3
331
D595
  5
D59E
331
BCE5
  5
BD14
331
C058
  5
C0C6
331
B9D0
  5
B9D7
331
B186
  5
B18C
331
BE46
  5
BF26
331
C262
  5
C384
331
C054
  5
C05A
331
B1AD
  5
B9CB
331
B176
  5
B176
331
B9CB
  5
B9D4
331
C008
  5
C058
331
BDD2
  5
BDDE
331
B9CE
  5
B9D6
331
B9D6
  5
BA13
331
BD13
  5
BD18
331
D59E
  5
D5FD
331
D4C7
  5
D4CB
331
BA67
  5
BCE4
331
D838
  5
D83C
331
BDE0
  5
BDE3
331
B192
  5
B1AD
331
BB0D
  5
BD12
331
BDE3
  5
BDE6
331
D884
  5
B186
331
20
  5
20
331
B9B3
  5
B9CE
331
AFCF
  5
AFCF
331
BF05
  5
C015
331
C12D
  5
BE94
331
BA15
  5
BA57
331
C059
  5
C128
331
D5FD
  5
D5FF
331
B184
  5
B18A
331
BDD8
  5
BDE1
331
B187
  5
B190
331
B9D4
  5
B9D8
331
B140
  5
B140
331
BF26
  5
C054
331
B9D7
  5
BA15
331
BE4A
  5
C001
331
C001
  5
C056
331
BA2E
  5
BA60
331
BA65
  5
BA68
331
B18A
  5
B1A0
331
BD14
  5
BDC9
331
BDDE
  5
BDE2
331
D60E
  5
D60F
331
BDE1
  5
BDE4
331
D4CB
  5
D595
331
D83C
  5
D884
331
BDE4
  5
BE46
331
B193
  5
B9CA
331
C128
  5
C2CC
331
BA57
  5
BA65
331
B118
  5
B118
331
BDC8
  5
BDD2
331
21
  5
21
331
B0B0
  5
B0B0
331
BA13
  5
BA2E
331
BCE4
  5
BD13
331
BDCB
  5
BDD8
331
BE45
  5
BF05
331
B9CA
  5
B9D0
331
1F
  5
1F
331
BA60
  5
BA66
331
BA68
  5
BCE5
331
BD12
  5
BD17
331
BA2C
  5
BA58
331
C056
  5
C060
  0
GROUP
  5
3A0
102
{ACAD_REACTORS
330
18
102
}
330
18
100
AcDbGroup
300

 70
     1
 71
     1
  0
GROUP
  5
4FAD
102
{ACAD_REACTORS
330
18
102
}
330
18
100
AcDbGroup
300

 70
     1
 71
     1
  0
GROUP
  5
8937
102
{ACAD_REACTORS
330
18
102
}
330
18
100
AcDbGroup
300

 70
     1
 71
     1
  0
GROUP
  5
A9E7
102
{ACAD_REACTORS
330
18
102
}
330
18
100
AcDbGroup
300

 70
     1
 71
     1
  0
GROUP
  5
A3EA
102
{ACAD_REACTORS
330
18
102
}
330
18
100
AcDbGroup
300

 70
     1
 71
     1
  0
GROUP
  5
ADDD
102
{ACAD_REACTORS
330
18
102
}
330
18
100
AcDbGroup
300

 70
     1
 71
     1
  0
GROUP
  5
5DF8
102
{ACAD_REACTORS
330
18
102
}
330
18
100
AcDbGroup
300

 70
     1
 71
     1
  0
GROUP
  5
2FC7
102
{ACAD_REACTORS
330
18
102
}
330
18
100
AcDbGroup
300

 70
     1
 71
     1
  0
GROUP
  5
2766
102
{ACAD_REACTORS
330
18
102
}
330
18
100
AcDbGroup
300

 70
     1
 71
     1
  0
GROUP
  5
38D5
102
{ACAD_REACTORS
330
18
102
}
330
18
100
AcDbGroup
300

 70
     1
 71
     1
  0
GROUP
  5
46AB
102
{ACAD_REACTORS
330
18
102
}
330
18
100
AcDbGroup
300

 70
     1
 71
     1
  0
GROUP
  5
A3E9
102
{ACAD_REACTORS
330
18
102
}
330
18
100
AcDbGroup
300

 70
     1
 71
     1
  0
GROUP
  5
4FAE
102
{ACAD_REACTORS
330
18
102
}
330
18
100
AcDbGroup
300

 70
     1
 71
     1
  0
GROUP
  5
38D6
102
{ACAD_REACTORS
330
18
102
}
330
18
100
AcDbGroup
300

 70
     1
 71
     1
  0
GROUP
  5
6398
102
{ACAD_REACTORS
330
18
102
}
330
18
100
AcDbGroup
300

 70
     1
 71
     1
  0
GROUP
  5
ACC
102
{ACAD_REACTORS
330
18
102
}
330
18
100
AcDbGroup
300

 70
     1
 71
     1
  0
GROUP
  5
2120
102
{ACAD_REACTORS
330
18
102
}
330
18
100
AcDbGroup
300

 70
     1
 71
     1
  0
GROUP
  5
795C
102
{ACAD_REACTORS
330
18
102
}
330
18
100
AcDbGroup
300

 70
     1
 71
     1
  0
GROUP
  5
2765
102
{ACAD_REACTORS
330
18
102
}
330
18
100
AcDbGroup
300

 70
     1
 71
     1
  0
GROUP
  5
54B2
102
{ACAD_REACTORS
330
18
102
}
330
18
100
AcDbGroup
300

 70
     1
 71
     1
  0
GROUP
  5
595A
102
{ACAD_REACTORS
330
18
102
}
330
18
100
AcDbGroup
300

 70
     1
 71
     1
  0
GROUP
  5
3A1
102
{ACAD_REACTORS
330
18
102
}
330
18
100
AcDbGroup
300

 70
     1
 71
     1
  0
GROUP
  5
A9E8
102
{ACAD_REACTORS
330
18
102
}
330
18
100
AcDbGroup
300

 70
     1
 71
     1
  0
GROUP
  5
795A
102
{ACAD_REACTORS
330
18
102
}
330
18
100
AcDbGroup
300

 70
     1
 71
     1
  0
GROUP
  5
46A2
102
{ACAD_REACTORS
330
18
102
}
330
18
100
AcDbGroup
300

 70
     1
 71
     1
  0
GROUP
  5
2FC6
102
{ACAD_REACTORS
330
18
102
}
330
18
100
AcDbGroup
300

 70
     1
 71
     1
  0
GROUP
  5
8936
102
{ACAD_REACTORS
330
18
102
}
330
18
100
AcDbGroup
300

 70
     1
 71
     1
  0
LAYOUT
  5
5A
102
{ACAD_XDICTIONARY
360
D9E9
102
}
102
{ACAD_REACTORS
330
58
102
}
330
58
100
AcDbPlotSettings
  1

  2
none_device
  4
Letter_(8.50_x_11.00_Inches)
  6

 40
6.349999904632568
 41
6.349999904632568
 42
6.350006103515625
 43
6.350006103515625
 44
215.8999938964844
 45
279.3999938964844
 46
0.0
 47
0.0
 48
0.0
 49
0.0
140
0.0
141
0.0
142
1.0
143
225.6774977072561
 70
 11952
 72
     0
 73
     1
 74
     0
  7
monochrome.ctb
 75
     0
147
0.0044311019492833
148
22480.86193866463
149
147.8683046958414
100
AcDbLayout
  1
Model
 70
     1
 71
     0
 10
0.0
 20
0.0
 11
12.0
 21
9.0
 12
0.0
 22
0.0
 32
0.0
 14
0.0
 24
0.0
 34
0.0
 15
0.0
 25
0.0
 35
0.0
146
0.0
 13
0.0
 23
0.0
 33
0.0
 16
1.0
 26
0.0
 36
0.0
 17
0.0
 27
1.0
 37
0.0
 76
     0
330
2
1001
ACAD_PSEXT
1000
なし
1000
なし
1000
適切ではありません
1000
新しいプロッタ環境設定名を選択しない限り、レイアウトは印刷されません。
1070
     0
  0
LAYOUT
  5
5B
102
{ACAD_XDICTIONARY
360
D9EB
102
}
102
{ACAD_REACTORS
330
58
102
}
330
58
100
AcDbPlotSettings
  1

  2
なし
  4

  6

 40
0.0
 41
0.0
 42
0.0
 43
0.0
 44
0.0
 45
0.0
 46
0.0
 47
0.0
 48
0.0
 49
0.0
140
0.0
141
0.0
142
1.0
143
1.0
 70
   688
 72
     0
 73
     0
 74
     5
  7
monochrome.ctb
 75
    16
147
1.0
148
0.0
149
0.0
100
AcDbLayout
  1
ﾚｲｱｳﾄ1
 70
     1
 71
     1
 10
0.0
 20
0.0
 11
12.0
 21
9.0
 12
0.0
 22
0.0
 32
0.0
 14
1.000000000000000E+20
 24
1.000000000000000E+20
 34
1.000000000000000E+20
 15
-1.000000000000000E+20
 25
-1.000000000000000E+20
 35
-1.000000000000000E+20
146
0.0
 13
0.0
 23
0.0
 33
0.0
 16
1.0
 26
0.0
 36
0.0
 17
0.0
 27
1.0
 37
0.0
 76
     0
330
7
  0
MLINESTYLE
  5
1D
102
{ACAD_REACTORS
330
19
102
}
330
19
100
AcDbMlineStyle
  2
STANDARD
 70
     0
  3

 62
   256
 51
90.0
 52
90.0
 71
     2
 49
0.5
 62
   256
  6
BYLAYER
 49
-0.5
 62
   256
  6
BYLAYER
  0
ACDBPLACEHOLDER
  5
57
102
{ACAD_REACTORS
330
56
102
}
330
56
  0
TABLESTYLE
  5
B1C1
102
{ACAD_REACTORS
330
B1C0
102
}
330
B1C0
100
AcDbTableStyle
  3
Standard
 70
     0
 71
     0
 40
0.06
 41
0.06
280
     0
281
     0
  7
STANDARD
140
0.18
170
     2
 62
     0
 63
     7
283
     0
274
    -2
284
     1
 64
     0
275
    -2
285
     1
 65
     0
276
    -2
286
     1
 66
     0
277
    -2
287
     1
 67
     0
278
    -2
288
     1
 68
     0
279
    -2
289
     1
 69
     0
  7
STANDARD
140
0.25
170
     5
 62
     0
 63
     7
283
     0
274
    -2
284
     1
 64
     0
275
    -2
285
     1
 65
     0
276
    -2
286
     1
 66
     0
277
    -2
287
     1
 67
     0
278
    -2
288
     1
 68
     0
279
    -2
289
     1
 69
     0
  7
STANDARD
140
0.18
170
     5
 62
     0
 63
     7
283
     0
274
    -2
284
     1
 64
     0
275
    -2
285
     1
 65
     0
276
    -2
286
     1
 66
     0
277
    -2
287
     1
 67
     0
278
    -2
288
     1
 68
     0
279
    -2
289
     1
 69
     0
  0
DICTIONARYVAR
  5
B97F
102
{ACAD_REACTORS
330
B97E
102
}
330
B97E
100
DictionaryVariables
280
     0
  1
STANDARD
  0
DICTIONARYVAR
  5
BA4F
102
{ACAD_REACTORS
330
B97E
102
}
330
B97E
100
DictionaryVariables
280
     0
  1
1
  0
DICTIONARYVAR
  5
BA50
102
{ACAD_REACTORS
330
B97E
102
}
330
B97E
100
DictionaryVariables
280
     0
  1

  0
DICTIONARY
  5
D9E9
330
5A
100
AcDbDictionary
280
     1
281
     1
  3
ACAD_XREC_ROUNDTRIP
360
D9EA
  0
DICTIONARY
  5
D9EB
330
5B
100
AcDbDictionary
280
     1
281
     1
  3
ACAD_XREC_ROUNDTRIP
360
D9EC
  0
XRECORD
  5
D9EA
102
{ACAD_REACTORS
330
D9E9
102
}
330
D9E9
100
AcDbXrecord
280
     1
102
SHADEPLOT
 70
     0
102
SHADEPLOTRESLEVEL
 70
     2
102
SHADEPLOTCUSTOMDPI
 70
   300
  0
XRECORD
  5
D9EC
102
{ACAD_REACTORS
330
D9EB
102
}
330
D9EB
100
AcDbXrecord
280
     1
102
SHADEPLOT
 70
     0
102
SHADEPLOTRESLEVEL
 70
     2
102
SHADEPLOTCUSTOMDPI
 70
   300
  0
ENDSEC
  0
EOF
