  0
SECTION
  2
HEADER
  9
$ACADVER
  1
AC1015
  9
$ACADMAINTVER
 70
    20
  9
$DWGCODEPAGE
  3
ANSI_932
  9
$INSBASE
 10
922.019522
 20
-675.4306699999999
 30
0.0
  9
$EXTMIN
 10
-0.0093112237170772
 20
-35.24817431540851
 30
-0.0000000000112498
  9
$EXTMAX
 10
822.0576030670828
 20
1503.76229169394
 30
0.0000000000002956
  9
$LIMMIN
 10
0.0
 20
0.0
  9
$LIMMAX
 10
420.0
 20
297.0
  9
$ORTHOMODE
 70
     1
  9
$REGENMODE
 70
     1
  9
$FILLMODE
 70
     1
  9
$QTEXTMODE
 70
     0
  9
$MIRRTEXT
 70
     1
  9
$LTSCALE
 40
20.0
  9
$ATTMODE
 70
     1
  9
$TEXTSIZE
 40
30.0
  9
$TRACEWID
 40
0.05
  9
$TEXTSTYLE
  7
SUNPOU
  9
$CLAYER
  8
0
  9
$CELTYPE
  6
BYLAYER
  9
$CECOLOR
 62
   256
  9
$CELTSCALE
 40
1.0
  9
$DISPSILH
 70
     0
  9
$DIMSCALE
 40
1.0
  9
$DIMASZ
 40
3.0
  9
$DIMEXO
 40
3.0
  9
$DIMDLI
 40
0.38
  9
$DIMRND
 40
0.0
  9
$DIMDLE
 40
0.0
  9
$DIMEXE
 40
0.0
  9
$DIMTP
 40
0.0
  9
$DIMTM
 40
0.0
  9
$DIMTXT
 40
10.0
  9
$DIMCEN
 40
0.0
  9
$DIMTSZ
 40
0.0
  9
$DIMTOL
 70
     0
  9
$DIMLIM
 70
     0
  9
$DIMTIH
 70
     0
  9
$DIMTOH
 70
     0
  9
$DIMSE1
 70
     0
  9
$DIMSE2
 70
     0
  9
$DIMTAD
 70
     1
  9
$DIMZIN
 70
     0
  9
$DIMBLK
  1
Dot
  9
$DIMASO
 70
     1
  9
$DIMSHO
 70
     1
  9
$DIMPOST
  1

  9
$DIMAPOST
  1

  9
$DIMALT
 70
     0
  9
$DIMALTD
 70
     2
  9
$DIMALTF
 40
25.4
  9
$DIMLFAC
 40
1.0
  9
$DIMTOFL
 70
     0
  9
$DIMTVP
 40
0.0
  9
$DIMTIX
 70
     0
  9
$DIMSOXD
 70
     0
  9
$DIMSAH
 70
     0
  9
$DIMBLK1
  1

  9
$DIMBLK2
  1

  9
$DIMSTYLE
  2
STANDARD
  9
$DIMCLRD
 70
    60
  9
$DIMCLRE
 70
    70
  9
$DIMCLRT
 70
    60
  9
$DIMTFAC
 40
0.064286
  9
$DIMGAP
 40
5.0
  9
$DIMJUST
 70
     0
  9
$DIMSD1
 70
     0
  9
$DIMSD2
 70
     0
  9
$DIMTOLJ
 70
     1
  9
$DIMTZIN
 70
     0
  9
$DIMALTZ
 70
     0
  9
$DIMALTTZ
 70
     0
  9
$DIMUPT
 70
     0
  9
$DIMDEC
 70
     0
  9
$DIMTDEC
 70
     0
  9
$DIMALTU
 70
     2
  9
$DIMALTTD
 70
     2
  9
$DIMTXSTY
  7
SUNPOU
  9
$DIMAUNIT
 70
     0
  9
$DIMADEC
 70
     0
  9
$DIMALTRND
 40
0.0
  9
$DIMAZIN
 70
     0
  9
$DIMDSEP
 70
    46
  9
$DIMATFIT
 70
     3
  9
$DIMFRAC
 70
     0
  9
$DIMLDRBLK
  1

  9
$DIMLUNIT
 70
     2
  9
$DIMLWD
 70
    -2
  9
$DIMLWE
 70
    -2
  9
$DIMTMOVE
 70
     0
  9
$LUNITS
 70
     2
  9
$LUPREC
 70
     5
  9
$SKETCHINC
 40
0.1
  9
$FILLETRAD
 40
0.0
  9
$AUNITS
 70
     0
  9
$AUPREC
 70
     0
  9
$MENU
  1
acad
  9
$ELEVATION
 40
0.0
  9
$PELEVATION
 40
0.0
  9
$THICKNESS
 40
0.0
  9
$LIMCHECK
 70
     0
  9
$CHAMFERA
 40
0.0
  9
$CHAMFERB
 40
0.0
  9
$CHAMFERC
 40
0.0
  9
$CHAMFERD
 40
0.0
  9
$SKPOLY
 70
     0
  9
$TDCREATE
 40
2450623.654673033
  9
$TDUCREATE
 40
2450623.279673032
  9
$TDUPDATE
 40
2454580.668886377
  9
$TDUUPDATE
 40
2454580.293886377
  9
$TDINDWG
 40
0.6340372338
  9
$TDUSRTIMER
 40
0.6340370602
  9
$USRTIMER
 70
     1
  9
$ANGBASE
 50
0.0
  9
$ANGDIR
 70
     0
  9
$PDMODE
 70
     0
  9
$PDSIZE
 40
0.0
  9
$PLINEWID
 40
0.0
  9
$SPLFRAME
 70
     0
  9
$SPLINETYPE
 70
     6
  9
$SPLINESEGS
 70
     8
  9
$HANDSEED
  5
C44E
  9
$SURFTAB1
 70
     6
  9
$SURFTAB2
 70
     6
  9
$SURFTYPE
 70
     6
  9
$SURFU
 70
     6
  9
$SURFV
 70
     6
  9
$UCSBASE
  2

  9
$UCSNAME
  2

  9
$UCSORG
 10
0.0
 20
0.0
 30
0.0
  9
$UCSXDIR
 10
1.0
 20
0.0
 30
0.0
  9
$UCSYDIR
 10
0.0
 20
1.0
 30
0.0
  9
$UCSORTHOREF
  2

  9
$UCSORTHOVIEW
 70
     0
  9
$UCSORGTOP
 10
0.0
 20
0.0
 30
0.0
  9
$UCSORGBOTTOM
 10
0.0
 20
0.0
 30
0.0
  9
$UCSORGLEFT
 10
0.0
 20
0.0
 30
0.0
  9
$UCSORGRIGHT
 10
0.0
 20
0.0
 30
0.0
  9
$UCSORGFRONT
 10
0.0
 20
0.0
 30
0.0
  9
$UCSORGBACK
 10
0.0
 20
0.0
 30
0.0
  9
$PUCSBASE
  2

  9
$PUCSNAME
  2

  9
$PUCSORG
 10
0.0
 20
0.0
 30
0.0
  9
$PUCSXDIR
 10
1.0
 20
0.0
 30
0.0
  9
$PUCSYDIR
 10
0.0
 20
1.0
 30
0.0
  9
$PUCSORTHOREF
  2

  9
$PUCSORTHOVIEW
 70
     0
  9
$PUCSORGTOP
 10
0.0
 20
0.0
 30
0.0
  9
$PUCSORGBOTTOM
 10
0.0
 20
0.0
 30
0.0
  9
$PUCSORGLEFT
 10
0.0
 20
0.0
 30
0.0
  9
$PUCSORGRIGHT
 10
0.0
 20
0.0
 30
0.0
  9
$PUCSORGFRONT
 10
0.0
 20
0.0
 30
0.0
  9
$PUCSORGBACK
 10
0.0
 20
0.0
 30
0.0
  9
$USERI1
 70
     0
  9
$USERI2
 70
     0
  9
$USERI3
 70
     0
  9
$USERI4
 70
     0
  9
$USERI5
 70
     0
  9
$USERR1
 40
0.0
  9
$USERR2
 40
0.0
  9
$USERR3
 40
0.0
  9
$USERR4
 40
0.0
  9
$USERR5
 40
0.0
  9
$WORLDVIEW
 70
     1
  9
$SHADEDGE
 70
     3
  9
$SHADEDIF
 70
    70
  9
$TILEMODE
 70
     1
  9
$MAXACTVP
 70
    16
  9
$PINSBASE
 10
0.0
 20
0.0
 30
0.0
  9
$PLIMCHECK
 70
     0
  9
$PEXTMIN
 10
1.000000000000000E+20
 20
1.000000000000000E+20
 30
1.000000000000000E+20
  9
$PEXTMAX
 10
-1.000000000000000E+20
 20
-1.000000000000000E+20
 30
-1.000000000000000E+20
  9
$PLIMMIN
 10
0.0
 20
0.0
  9
$PLIMMAX
 10
12.0
 20
9.0
  9
$UNITMODE
 70
     0
  9
$VISRETAIN
 70
     0
  9
$PLINEGEN
 70
     0
  9
$PSLTSCALE
 70
     1
  9
$TREEDEPTH
 70
  3020
  9
$CMLSTYLE
  2
STANDARD
  9
$CMLJUST
 70
     0
  9
$CMLSCALE
 40
1.0
  9
$PROXYGRAPHICS
 70
     1
  9
$MEASUREMENT
 70
     0
  9
$CELWEIGHT
370
    -1
  9
$ENDCAPS
280
     0
  9
$JOINSTYLE
280
     0
  9
$LWDISPLAY
290
     0
  9
$INSUNITS
 70
     0
  9
$HYPERLINKBASE
  1

  9
$STYLESHEET
  1
monochrome.ctb
  9
$XEDIT
290
     1
  9
$CEPSNTYPE
380
     0
  9
$PSTYLEMODE
290
     1
  9
$FINGERPRINTGUID
  2
{FB88A696-E29C-4009-92AF-A3599A8169D5}
  9
$VERSIONGUID
  2
{485B66B5-28FE-437B-88CC-F015092DF204}
  9
$EXTNAMES
290
     1
  9
$PSVPSCALE
 40
0.0
  9
$OLESTARTUP
290
     0
  0
ENDSEC
  0
SECTION
  2
CLASSES
  0
CLASS
  1
DICTIONARYVAR
  2
AcDbDictionaryVar
  3
ObjectDBX Classes
 90
        0
280
     0
281
     0
  0
CLASS
  1
ACDBDICTIONARYWDFLT
  2
AcDbDictionaryWithDefault
  3
ObjectDBX Classes
 90
        0
280
     0
281
     0
  0
CLASS
  1
ACDBPLACEHOLDER
  2
AcDbPlaceHolder
  3
ObjectDBX Classes
 90
        0
280
     0
281
     0
  0
CLASS
  1
LAYOUT
  2
AcDbLayout
  3
ObjectDBX Classes
 90
        0
280
     0
281
     0
  0
CLASS
  1
TABLESTYLE
  2
AcDbTableStyle
  3
ObjectDBX Classes
 90
     2047
280
     0
281
     0
  0
CLASS
  1
SORTENTSTABLE
  2
AcDbSortentsTable
  3
ObjectDBX Classes
 90
        0
280
     0
281
     0
  0
ENDSEC
  0
SECTION
  2
TABLES
  0
TABLE
  2
VPORT
  5
12
330
0
100
AcDbSymbolTable
 70
     2
  0
VPORT
  5
C448
330
12
100
AcDbSymbolTableRecord
100
AcDbViewportTableRecord
  2
*Active
 70
     0
 10
0.0
 20
0.0
 11
1.0
 21
1.0
 12
411.0241459216829
 22
734.2570586892657
 13
0.0
 23
0.0
 14
1.0
 24
1.0
 15
0.0
 25
0.0
 16
0.0
 26
0.0
 36
1.0
 17
0.0
 27
0.0
 37
0.0
 40
1550.758637505603
 41
1.528662420382165
 42
50.0
 43
0.0
 44
0.0
 50
0.0
 51
0.0
 71
     0
 72
 20000
 73
     1
 74
     1
 75
     0
 76
     0
 77
     0
 78
     0
281
     0
 65
     1
110
0.0
120
0.0
130
0.0
111
1.0
121
0.0
131
0.0
112
0.0
122
1.0
132
0.0
 79
     0
146
0.0
  0
ENDTAB
  0
TABLE
  2
LTYPE
  5
D
330
0
100
AcDbSymbolTable
 70
     2
  0
LTYPE
  5
E
330
D
100
AcDbSymbolTableRecord
100
AcDbLinetypeTableRecord
  2
BYBLOCK
 70
     0
  3

 72
    65
 73
     0
 40
0.0
  0
LTYPE
  5
F
330
D
100
AcDbSymbolTableRecord
100
AcDbLinetypeTableRecord
  2
BYLAYER
 70
     0
  3

 72
    65
 73
     0
 40
0.0
  0
LTYPE
  5
5
330
D
100
AcDbSymbolTableRecord
100
AcDbLinetypeTableRecord
  2
CONTINUOUS
 70
     0
  3
Solid line
 72
    65
 73
     0
 40
0.0
  0
LTYPE
  5
1AC
330
D
100
AcDbSymbolTableRecord
100
AcDbLinetypeTableRecord
  2
CENTER
 70
     0
  3
Center ____ _ ____ _ ____ _ ____ _ ____ _ ____
 72
    65
 73
     4
 40
2.0
 49
1.25
 74
     0
 49
-0.25
 74
     0
 49
0.25
 74
     0
 49
-0.25
 74
     0
  0
ENDTAB
  0
TABLE
  2
LAYER
  5
A
102
{ACAD_XDICTIONARY
360
BEBB
102
}
330
0
100
AcDbSymbolTable
 70
     6
  0
LAYER
  5
4
330
A
100
AcDbSymbolTableRecord
100
AcDbLayerTableRecord
  2
0
 70
     0
 62
     7
  6
CONTINUOUS
370
    -3
390
57
  0
LAYER
  5
25
330
A
100
AcDbSymbolTableRecord
100
AcDbLayerTableRecord
  2
KIJUN
 70
     0
 62
     7
  6
CONTINUOUS
370
    -3
390
57
  0
LAYER
  5
22
330
A
100
AcDbSymbolTableRecord
100
AcDbLayerTableRecord
  2
HOJO
 70
     0
 62
     3
  6
CONTINUOUS
370
    -3
390
57
  0
LAYER
  5
1B
330
A
100
AcDbSymbolTableRecord
100
AcDbLayerTableRecord
  2
WAKU
 70
     0
 62
     1
  6
CONTINUOUS
370
    -3
390
57
  0
LAYER
  5
31
330
A
100
AcDbSymbolTableRecord
100
AcDbLayerTableRecord
  2
DEFPOINTS
 70
     0
 62
     7
  6
CONTINUOUS
290
     0
370
    -3
390
57
  0
LAYER
  5
28
330
A
100
AcDbSymbolTableRecord
100
AcDbLayerTableRecord
  2
SUNPOU
 70
     0
 62
    70
  6
CONTINUOUS
370
    -3
390
57
  0
ENDTAB
  0
TABLE
  2
STYLE
  5
B
330
0
100
AcDbSymbolTable
 70
     3
  0
STYLE
  5
C
330
B
100
AcDbSymbolTableRecord
100
AcDbTextStyleTableRecord
  2
STANDARD
 70
     0
 40
0.0
 41
1.0
 50
0.0
 71
     0
 42
0.2
  3
txt
  4

  0
STYLE
  5
1C
330
B
100
AcDbSymbolTableRecord
100
AcDbTextStyleTableRecord
  2
SUNPOU
 70
     0
 40
0.0
 41
1.0
 50
0.0
 71
     0
 42
30.0
  3
txt
  4
bigfont
  0
STYLE
  5
1AD
330
B
100
AcDbSymbolTableRecord
100
AcDbTextStyleTableRecord
  2
LIFE
 70
     0
 40
0.0
 41
0.7
 50
0.0
 71
     0
 42
10.0
  3
romans
  4
extfont
  0
ENDTAB
  0
TABLE
  2
VIEW
  5
10
330
0
100
AcDbSymbolTable
 70
     0
  0
ENDTAB
  0
TABLE
  2
UCS
  5
11
330
0
100
AcDbSymbolTable
 70
     0
  0
ENDTAB
  0
TABLE
  2
APPID
  5
14
330
0
100
AcDbSymbolTable
 70
     3
  0
APPID
  5
15
330
14
100
AcDbSymbolTableRecord
100
AcDbRegAppTableRecord
  2
ACAD
 70
     0
  0
APPID
  5
B946
330
14
100
AcDbSymbolTableRecord
100
AcDbRegAppTableRecord
  2
ACAD_EXEMPT_FROM_CAD_STANDARDS
 70
     0
  0
APPID
  5
BEBE
330
14
100
AcDbSymbolTableRecord
100
AcDbRegAppTableRecord
  2
ACAD_PSEXT
 70
     0
  0
ENDTAB
  0
TABLE
  2
DIMSTYLE
  5
16
330
0
100
AcDbSymbolTable
 70
     2
100
AcDbDimStyleTable
 71
     1
340
1E
  0
DIMSTYLE
105
1E
330
16
100
AcDbSymbolTableRecord
100
AcDbDimStyleTableRecord
  2
STANDARD
 70
     0
340
C
  0
DIMSTYLE
105
1AE
102
{ACAD_REACTORS
330
B193
330
B1A0
330
B1AD
330
C3D0
330
C3F8
330
C40E
102
}
330
16
100
AcDbSymbolTableRecord
100
AcDbDimStyleTableRecord
  2
STANDARD$0
 70
     0
 40
2.0
 41
1.0
 42
2.0
 43
0.0
 44
1.0
 73
     0
 74
     0
 77
     3
 78
     9
140
4.5
141
0.0
147
1.0
172
     1
173
     1
178
     3
271
     2
340
1AD
341
109
343
109
344
109
  0
ENDTAB
  0
TABLE
  2
BLOCK_RECORD
  5
1
330
0
100
AcDbSymbolTable
 70
    14
  0
BLOCK_RECORD
  5
2
102
{ACAD_XDICTIONARY
360
BA61
102
}
330
1
100
AcDbSymbolTableRecord
100
AcDbBlockTableRecord
  2
*MODEL_SPACE
340
5A
  0
BLOCK_RECORD
  5
7
330
1
100
AcDbSymbolTableRecord
100
AcDbBlockTableRecord
  2
*PAPER_SPACE
340
5B
  0
BLOCK_RECORD
  5
109
330
1
100
AcDbSymbolTableRecord
100
AcDbBlockTableRecord
  2
_Dot
340
0
102
{BLKREFS
331
C280
331
C281
331
C289
331
C28A
331
C292
331
C293
331
C361
331
C362
331
C36F
331
C370
331
C37E
331
C37F
331
C392
331
C393
331
C3A0
331
C3A1
331
C3AE
331
C3AF
331
C3F2
331
C3F3
331
C430
331
C431
331
C442
331
C443
102
}
  0
BLOCK_RECORD
  5
B194
330
1
100
AcDbSymbolTableRecord
100
AcDbBlockTableRecord
  2
*D1
340
0
  0
BLOCK_RECORD
  5
B1A1
330
1
100
AcDbSymbolTableRecord
100
AcDbBlockTableRecord
  2
*D2
340
0
  0
BLOCK_RECORD
  5
B1AE
330
1
100
AcDbSymbolTableRecord
100
AcDbBlockTableRecord
  2
*D3
340
0
  0
BLOCK_RECORD
  5
C3D1
330
1
100
AcDbSymbolTableRecord
100
AcDbBlockTableRecord
  2
*D11
340
0
  0
BLOCK_RECORD
  5
C3F9
330
1
100
AcDbSymbolTableRecord
100
AcDbBlockTableRecord
  2
*D12
340
0
  0
BLOCK_RECORD
  5
C40F
330
1
100
AcDbSymbolTableRecord
100
AcDbBlockTableRecord
  2
*D13
340
0
  0
ENDTAB
  0
ENDSEC
  0
SECTION
  2
BLOCKS
  0
BLOCK
  5
3
330
2
100
AcDbEntity
  8
0
100
AcDbBlockBegin
  2
*MODEL_SPACE
 70
     0
 10
0.0
 20
0.0
 30
0.0
  3
*MODEL_SPACE
  1

  0
ENDBLK
  5
6
330
2
100
AcDbEntity
  8
0
100
AcDbBlockEnd
  0
BLOCK
  5
8
330
7
100
AcDbEntity
 67
     1
  8
0
100
AcDbBlockBegin
  2
*PAPER_SPACE
 70
     0
 10
0.0
 20
0.0
 30
0.0
  3
*PAPER_SPACE
  1

  0
ENDBLK
  5
9
330
7
100
AcDbEntity
 67
     1
  8
0
100
AcDbBlockEnd
  0
BLOCK
  5
10C
330
109
100
AcDbEntity
  8
0
100
AcDbBlockBegin
  2
_Dot
 70
     0
 10
0.0
 20
0.0
 30
0.0
  3
_Dot
  1

  0
LWPOLYLINE
  5
10A
330
109
100
AcDbEntity
  8
0
  6
ByBlock
 62
     0
100
AcDbPolyline
 90
        2
 70
     1
 43
0.5
 10
-0.25
 20
0.0
 42
1.0
 10
0.25
 20
0.0
 42
1.0
  0
LINE
  5
10B
330
109
100
AcDbEntity
  8
0
  6
ByBlock
 62
     0
370
    -2
100
AcDbLine
 10
-0.5
 20
0.0
 30
0.0
 11
-1.0
 21
0.0
 31
0.0
  0
ENDBLK
  5
10D
330
109
100
AcDbEntity
  8
0
100
AcDbBlockEnd
  0
BLOCK
  5
B19E
330
B194
100
AcDbEntity
  8
0
100
AcDbBlockBegin
  2
*D1
 70
     1
 10
0.0
 20
0.0
 30
0.0
  3
*D1
  1

  0
LINE
  5
C27D
330
B194
100
AcDbEntity
  8
SUNPOU
 62
    70
370
    -2
100
AcDbLine
 10
296.4012349950603
 20
297.4178380622402
 30
0.0
 11
296.4012349950603
 21
184.8552434265875
 31
0.0
  0
LINE
  5
C27E
330
B194
100
AcDbEntity
  8
SUNPOU
 62
    70
370
    -2
100
AcDbLine
 10
386.4012349950603
 20
297.4178380622402
 30
0.0
 11
386.4012349950603
 21
184.8552434265875
 31
0.0
  0
LINE
  5
C27F
330
B194
100
AcDbEntity
  8
SUNPOU
 62
    60
370
    -2
100
AcDbLine
 10
302.4012349950603
 20
184.8552434265875
 30
0.0
 11
380.4012349950604
 21
184.8552434265875
 31
0.0
  0
INSERT
  5
C280
330
B194
100
AcDbEntity
  8
SUNPOU
 62
    60
370
    -2
100
AcDbBlockReference
  2
_Dot
 10
296.4012349950603
 20
184.8552434265875
 30
0.0
 41
6.0
 42
6.0
 43
6.0
 50
180.0
  0
INSERT
  5
C281
330
B194
100
AcDbEntity
  8
SUNPOU
 62
    60
370
    -2
100
AcDbBlockReference
  2
_Dot
 10
386.4012349950603
 20
184.8552434265875
 30
0.0
 41
6.0
 42
6.0
 43
6.0
  0
MTEXT
  5
C282
330
B194
100
AcDbEntity
  8
SUNPOU
 62
    60
100
AcDbMText
 10
341.4012349950604
 20
204.8552434265876
 30
0.0
 40
20.0
 41
0.0
 71
     5
 72
     1
  1
\A1;90
  7
SUNPOU
 73
     1
 44
1.0
1001
ACAD
1000
MTEXTBEGIN
1070
    73
1070
     1
1070
    44
1040
1.0
1070
    74
1070
     0
1000
MTEXTEND
  0
POINT
  5
C283
330
B194
100
AcDbEntity
  8
DEFPOINTS
 62
     0
100
AcDbPoint
 10
296.4012349950603
 20
303.4178380622402
 30
0.0
  0
POINT
  5
C284
330
B194
100
AcDbEntity
  8
DEFPOINTS
 62
     0
100
AcDbPoint
 10
386.4012349950603
 20
303.4178380622402
 30
0.0
  0
POINT
  5
C285
330
B194
100
AcDbEntity
  8
DEFPOINTS
 62
     0
100
AcDbPoint
 10
386.4012349950603
 20
184.8552434265875
 30
0.0
  0
ENDBLK
  5
B19F
330
B194
100
AcDbEntity
  8
0
100
AcDbBlockEnd
  0
BLOCK
  5
B1AB
330
B1A1
100
AcDbEntity
  8
0
100
AcDbBlockBegin
  2
*D2
 70
     1
 10
0.0
 20
0.0
 30
0.0
  3
*D2
  1

  0
LINE
  5
C286
330
B1A1
100
AcDbEntity
  8
SUNPOU
 62
    70
370
    -2
100
AcDbLine
 10
296.4012349950603
 20
1407.417838062239
 30
0.0
 11
296.4012349950603
 21
1473.739341550477
 31
0.0
  0
LINE
  5
C287
330
B1A1
100
AcDbEntity
  8
SUNPOU
 62
    70
370
    -2
100
AcDbLine
 10
386.4012349950603
 20
1407.41783806224
 30
0.0
 11
386.4012349950603
 21
1473.739341550477
 31
0.0
  0
LINE
  5
C288
330
B1A1
100
AcDbEntity
  8
SUNPOU
 62
    60
370
    -2
100
AcDbLine
 10
302.4012349950603
 20
1473.739341550477
 30
0.0
 11
380.4012349950604
 21
1473.739341550477
 31
0.0
  0
INSERT
  5
C289
330
B1A1
100
AcDbEntity
  8
SUNPOU
 62
    60
370
    -2
100
AcDbBlockReference
  2
_Dot
 10
296.4012349950603
 20
1473.739341550477
 30
0.0
 41
6.0
 42
6.0
 43
6.0
 50
180.0
  0
INSERT
  5
C28A
330
B1A1
100
AcDbEntity
  8
SUNPOU
 62
    60
370
    -2
100
AcDbBlockReference
  2
_Dot
 10
386.4012349950603
 20
1473.739341550477
 30
0.0
 41
6.0
 42
6.0
 43
6.0
  0
MTEXT
  5
C28B
330
B1A1
100
AcDbEntity
  8
SUNPOU
 62
    60
100
AcDbMText
 10
341.4012349950604
 20
1493.739341550477
 30
0.0
 40
20.0
 41
0.0
 71
     5
 72
     1
  1
\A1;90
  7
SUNPOU
 73
     1
 44
1.0
1001
ACAD
1000
MTEXTBEGIN
1070
    73
1070
     1
1070
    44
1040
1.0
1070
    74
1070
     0
1000
MTEXTEND
  0
POINT
  5
C28C
330
B1A1
100
AcDbEntity
  8
DEFPOINTS
 62
     0
100
AcDbPoint
 10
296.4012349950603
 20
1401.417838062239
 30
0.0
  0
POINT
  5
C28D
330
B1A1
100
AcDbEntity
  8
DEFPOINTS
 62
     0
100
AcDbPoint
 10
386.4012349950603
 20
1401.41783806224
 30
0.0
  0
POINT
  5
C28E
330
B1A1
100
AcDbEntity
  8
DEFPOINTS
 62
     0
100
AcDbPoint
 10
386.4012349950603
 20
1473.739341550477
 30
0.0
  0
ENDBLK
  5
B1AC
330
B1A1
100
AcDbEntity
  8
0
100
AcDbBlockEnd
  0
BLOCK
  5
B1B8
330
B1AE
100
AcDbEntity
  8
0
100
AcDbBlockBegin
  2
*D3
 70
     1
 10
0.0
 20
0.0
 30
0.0
  3
*D3
  1

  0
LINE
  5
C28F
330
B1AE
100
AcDbEntity
  8
SUNPOU
 62
    70
370
    -2
100
AcDbLine
 10
292.4012349950603
 20
1403.41783806224
 30
0.0
 11
80.6220498851769
 21
1403.41783806224
 31
0.0
  0
LINE
  5
C290
330
B1AE
100
AcDbEntity
  8
SUNPOU
 62
    70
370
    -2
100
AcDbLine
 10
290.4012349950603
 20
303.4178380622402
 30
0.0
 11
80.62204988517665
 21
303.4178380622403
 31
0.0
  0
LINE
  5
C291
330
B1AE
100
AcDbEntity
  8
SUNPOU
 62
    60
370
    -2
100
AcDbLine
 10
80.62204988517688
 20
1397.41783806224
 30
0.0
 11
80.62204988517663
 21
309.4178380622403
 31
0.0
  0
INSERT
  5
C292
330
B1AE
100
AcDbEntity
  8
SUNPOU
 62
    60
370
    -2
100
AcDbBlockReference
  2
_Dot
 10
80.62204988517688
 20
1403.41783806224
 30
0.0
 41
6.0
 42
6.0
 43
6.0
 50
90.0
  0
INSERT
  5
C293
330
B1AE
100
AcDbEntity
  8
SUNPOU
 62
    60
370
    -2
100
AcDbBlockReference
  2
_Dot
 10
80.62204988517663
 20
303.4178380622403
 30
0.0
 41
6.0
 42
6.0
 43
6.0
 50
270.0
  0
MTEXT
  5
C294
330
B1AE
100
AcDbEntity
  8
SUNPOU
 62
    60
100
AcDbMText
 10
60.62204988517661
 20
853.41783806224
 30
0.0
 40
20.0
 41
0.0
 71
     5
 72
     1
  1
\A1;1100
  7
SUNPOU
 11
0.0000000000000001
 21
1.0
 31
0.0
 73
     1
 44
1.0
1001
ACAD
1000
MTEXTBEGIN
1070
    73
1070
     1
1070
    44
1040
1.0
1070
    74
1070
     0
1000
MTEXTEND
  0
POINT
  5
C295
330
B1AE
100
AcDbEntity
  8
DEFPOINTS
 62
     0
100
AcDbPoint
 10
298.4012349950603
 20
1403.41783806224
 30
0.0
  0
POINT
  5
C296
330
B1AE
100
AcDbEntity
  8
DEFPOINTS
 62
     0
100
AcDbPoint
 10
296.4012349950603
 20
303.4178380622402
 30
0.0
  0
POINT
  5
C297
330
B1AE
100
AcDbEntity
  8
DEFPOINTS
 62
     0
100
AcDbPoint
 10
80.62204988517663
 20
303.4178380622403
 30
0.0
  0
ENDBLK
  5
B1B9
330
B1AE
100
AcDbEntity
  8
0
100
AcDbBlockEnd
  0
BLOCK
  5
C3DB
330
C3D1
100
AcDbEntity
  8
0
100
AcDbBlockBegin
  2
*D11
 70
     1
 10
0.0
 20
0.0
 30
0.0
  3
*D11
  1

  0
LINE
  5
C3EF
330
C3D1
100
AcDbEntity
  8
SUNPOU
 62
    70
370
    -2
100
AcDbLine
 10
292.4012349950603
 20
1403.41783806224
 30
0.0
 11
165.0352862618744
 21
1403.41783806224
 31
0.0
  0
LINE
  5
C3F0
330
C3D1
100
AcDbEntity
  8
SUNPOU
 62
    70
370
    -2
100
AcDbLine
 10
292.4012349950605
 20
1268.41783806224
 30
0.0
 11
165.0352862618744
 21
1268.41783806224
 31
0.0
  0
LINE
  5
C3F1
330
C3D1
100
AcDbEntity
  8
SUNPOU
 62
    60
370
    -2
100
AcDbLine
 10
165.0352862618744
 20
1397.41783806224
 30
0.0
 11
165.0352862618744
 21
1274.41783806224
 31
0.0
  0
INSERT
  5
C3F2
330
C3D1
100
AcDbEntity
  8
SUNPOU
 62
    60
370
    -2
100
AcDbBlockReference
  2
_Dot
 10
165.0352862618744
 20
1403.41783806224
 30
0.0
 41
6.0
 42
6.0
 43
6.0
 50
90.0
  0
INSERT
  5
C3F3
330
C3D1
100
AcDbEntity
  8
SUNPOU
 62
    60
370
    -2
100
AcDbBlockReference
  2
_Dot
 10
165.0352862618744
 20
1268.41783806224
 30
0.0
 41
6.0
 42
6.0
 43
6.0
 50
270.0
  0
MTEXT
  5
C3F4
330
C3D1
100
AcDbEntity
  8
SUNPOU
 62
    60
100
AcDbMText
 10
145.0352862618742
 20
1335.91783806224
 30
0.0
 40
20.0
 41
0.0
 71
     5
 72
     1
  1
\A1;135
  7
SUNPOU
 11
0.0000000000000001
 21
1.0
 31
0.0
 73
     1
 44
1.0
1001
ACAD
1000
MTEXTBEGIN
1070
    73
1070
     1
1070
    44
1040
1.0
1070
    74
1070
     0
1000
MTEXTEND
  0
POINT
  5
C3F5
330
C3D1
100
AcDbEntity
  8
DEFPOINTS
 62
     0
100
AcDbPoint
 10
298.4012349950603
 20
1403.41783806224
 30
0.0
  0
POINT
  5
C3F6
330
C3D1
100
AcDbEntity
  8
DEFPOINTS
 62
     0
100
AcDbPoint
 10
298.4012349950605
 20
1268.41783806224
 30
0.0
  0
POINT
  5
C3F7
330
C3D1
100
AcDbEntity
  8
DEFPOINTS
 62
     0
100
AcDbPoint
 10
165.0352862618744
 20
1268.41783806224
 30
0.0
  0
ENDBLK
  5
C3DC
330
C3D1
100
AcDbEntity
  8
0
100
AcDbBlockEnd
  0
BLOCK
  5
C403
330
C3F9
100
AcDbEntity
  8
0
100
AcDbBlockBegin
  2
*D12
 70
     1
 10
0.0
 20
0.0
 30
0.0
  3
*D12
  1

  0
LINE
  5
C43F
330
C3F9
100
AcDbEntity
  8
SUNPOU
 62
    70
370
    -2
100
AcDbLine
 10
292.4012349950605
 20
1268.41783806224
 30
0.0
 11
165.0352862618745
 21
1268.41783806224
 31
0.0
  0
LINE
  5
C440
330
C3F9
100
AcDbEntity
  8
SUNPOU
 62
    70
370
    -2
100
AcDbLine
 10
292.4012349950605
 20
668.4178380622401
 30
0.0
 11
165.0352862618744
 21
668.4178380622402
 31
0.0
  0
LINE
  5
C441
330
C3F9
100
AcDbEntity
  8
SUNPOU
 62
    60
370
    -2
100
AcDbLine
 10
165.0352862618745
 20
1262.41783806224
 30
0.0
 11
165.0352862618744
 21
674.4178380622401
 31
0.0
  0
INSERT
  5
C442
330
C3F9
100
AcDbEntity
  8
SUNPOU
 62
    60
370
    -2
100
AcDbBlockReference
  2
_Dot
 10
165.0352862618745
 20
1268.41783806224
 30
0.0
 41
6.0
 42
6.0
 43
6.0
 50
90.0
  0
INSERT
  5
C443
330
C3F9
100
AcDbEntity
  8
SUNPOU
 62
    60
370
    -2
100
AcDbBlockReference
  2
_Dot
 10
165.0352862618744
 20
668.4178380622402
 30
0.0
 41
6.0
 42
6.0
 43
6.0
 50
270.0
  0
MTEXT
  5
C444
330
C3F9
100
AcDbEntity
  8
SUNPOU
 62
    60
100
AcDbMText
 10
145.0352862618743
 20
968.4178380622403
 30
0.0
 40
20.0
 41
0.0
 71
     5
 72
     1
  1
\A1;600
  7
SUNPOU
 11
0.0000000000000001
 21
1.0
 31
0.0
 73
     1
 44
1.0
1001
ACAD
1000
MTEXTBEGIN
1070
    73
1070
     1
1070
    44
1040
1.0
1070
    74
1070
     0
1000
MTEXTEND
  0
POINT
  5
C445
330
C3F9
100
AcDbEntity
  8
DEFPOINTS
 62
     0
100
AcDbPoint
 10
298.4012349950605
 20
1268.41783806224
 30
0.0
  0
POINT
  5
C446
330
C3F9
100
AcDbEntity
  8
DEFPOINTS
 62
     0
100
AcDbPoint
 10
298.4012349950605
 20
668.4178380622401
 30
0.0
  0
POINT
  5
C447
330
C3F9
100
AcDbEntity
  8
DEFPOINTS
 62
     0
100
AcDbPoint
 10
165.0352862618744
 20
668.4178380622402
 30
0.0
  0
ENDBLK
  5
C404
330
C3F9
100
AcDbEntity
  8
0
100
AcDbBlockEnd
  0
BLOCK
  5
C419
330
C40F
100
AcDbEntity
  8
0
100
AcDbBlockBegin
  2
*D13
 70
     1
 10
0.0
 20
0.0
 30
0.0
  3
*D13
  1

  0
LINE
  5
C42D
330
C40F
100
AcDbEntity
  8
SUNPOU
 62
    70
370
    -2
100
AcDbLine
 10
292.4012349950605
 20
668.4178380622401
 30
0.0
 11
165.0352862618744
 21
668.4178380622402
 31
0.0
  0
LINE
  5
C42E
330
C40F
100
AcDbEntity
  8
SUNPOU
 62
    70
370
    -2
100
AcDbLine
 10
290.4012349950603
 20
303.4178380622402
 30
0.0
 11
165.0352862618744
 21
303.4178380622402
 31
0.0
  0
LINE
  5
C42F
330
C40F
100
AcDbEntity
  8
SUNPOU
 62
    60
370
    -2
100
AcDbLine
 10
165.0352862618744
 20
662.4178380622402
 30
0.0
 11
165.0352862618744
 21
309.4178380622402
 31
0.0
  0
INSERT
  5
C430
330
C40F
100
AcDbEntity
  8
SUNPOU
 62
    60
370
    -2
100
AcDbBlockReference
  2
_Dot
 10
165.0352862618744
 20
668.4178380622402
 30
0.0
 41
6.0
 42
6.0
 43
6.0
 50
90.0
  0
INSERT
  5
C431
330
C40F
100
AcDbEntity
  8
SUNPOU
 62
    60
370
    -2
100
AcDbBlockReference
  2
_Dot
 10
165.0352862618744
 20
303.4178380622402
 30
0.0
 41
6.0
 42
6.0
 43
6.0
 50
270.0
  0
MTEXT
  5
C432
330
C40F
100
AcDbEntity
  8
SUNPOU
 62
    60
100
AcDbMText
 10
145.0352862618743
 20
485.9178380622402
 30
0.0
 40
20.0
 41
0.0
 71
     5
 72
     1
  1
\A1;365
  7
SUNPOU
 11
0.0000000000000001
 21
1.0
 31
0.0
 73
     1
 44
1.0
1001
ACAD
1000
MTEXTBEGIN
1070
    73
1070
     1
1070
    44
1040
1.0
1070
    74
1070
     0
1000
MTEXTEND
  0
POINT
  5
C433
330
C40F
100
AcDbEntity
  8
DEFPOINTS
 62
     0
100
AcDbPoint
 10
298.4012349950605
 20
668.4178380622401
 30
0.0
  0
POINT
  5
C434
330
C40F
100
AcDbEntity
  8
DEFPOINTS
 62
     0
100
AcDbPoint
 10
296.4012349950603
 20
303.4178380622402
 30
0.0
  0
POINT
  5
C435
330
C40F
100
AcDbEntity
  8
DEFPOINTS
 62
     0
100
AcDbPoint
 10
165.0352862618744
 20
303.4178380622402
 30
0.0
  0
ENDBLK
  5
C41A
330
C40F
100
AcDbEntity
  8
0
100
AcDbBlockEnd
  0
ENDSEC
  0
SECTION
  2
ENTITIES
  0
LINE
  5
1F
330
2
100
AcDbEntity
  8
WAKU
100
AcDbLine
 10
0.0
 20
70.0
 30
0.0
 11
610.6489978526152
 21
70.0
 31
0.0
  0
LINE
  5
20
330
2
100
AcDbEntity
  8
WAKU
100
AcDbLine
 10
0.0
 20
0.0
 30
0.0
 11
610.6489978526152
 21
0.0
 31
0.0
  0
TEXT
  5
21
330
2
100
AcDbEntity
  8
HOJO
100
AcDbText
 10
48.26983000000012
 20
11.83313000000009
 30
0.0
 40
45.0
  1
F-2
  7
SUNPOU
100
AcDbText
  0
TEXT
  5
4A3
330
2
100
AcDbEntity
  8
HOJO
100
AcDbText
 10
225.60543919488
 20
20.97829970797568
 30
0.0
 40
35.0
  1
1100x90x90
  7
SUNPOU
100
AcDbText
  0
LINE
  5
AFC5
102
{ACAD_REACTORS
330
C3B7
102
}
330
2
100
AcDbEntity
  8
KIJUN
100
AcDbLine
 10
378.2796331124345
 20
687.4178380622402
 30
0.0
 11
378.2796331124345
 21
684.4178380622402
 31
0.0
  0
LINE
  5
AFCF
102
{ACAD_REACTORS
330
C3B7
102
}
330
2
100
AcDbEntity
  8
KIJUN
100
AcDbLine
 10
384.4012349950603
 20
668.4178380622402
 30
0.0
 11
298.4012349950605
 21
668.4178380622401
 31
0.0
  0
LINE
  5
B0B0
102
{ACAD_REACTORS
330
C3B7
102
}
330
2
100
AcDbEntity
  8
KIJUN
100
AcDbLine
 10
384.4012349950603
 20
1268.41783806224
 30
0.0
 11
298.4012349950605
 21
1268.41783806224
 31
0.0
  0
LINE
  5
B118
102
{ACAD_REACTORS
330
C3B7
102
}
330
2
100
AcDbEntity
  8
KIJUN
100
AcDbLine
 10
306.3136926335131
 20
1176.41783806224
 30
0.0
 11
376.4887773566075
 21
1176.41783806224
 31
0.0
  0
LINE
  5
B119
102
{ACAD_REACTORS
330
C3B7
102
}
330
2
100
AcDbEntity
  8
KIJUN
100
AcDbLine
 10
374.4012349950604
 20
1176.41783806224
 30
0.0
 11
383.3996888610572
 21
1013.6734492707
 31
0.0
  0
LINE
  5
B140
102
{ACAD_REACTORS
330
C3B7
102
}
330
2
100
AcDbEntity
  8
KIJUN
100
AcDbLine
 10
376.6302558165993
 20
996.4178380622401
 30
0.0
 11
306.1722141735213
 21
996.4178380622401
 31
0.0
  0
LINE
  5
B15A
102
{ACAD_REACTORS
330
C3B7
102
}
330
2
100
AcDbEntity
  8
KIJUN
100
AcDbLine
 10
345.9012349950604
 20
1158.91783806224
 30
0.0
 11
345.9012349950604
 21
1029.91783806224
 31
0.0
  0
LINE
  5
B176
102
{ACAD_REACTORS
330
C3B7
102
}
330
2
100
AcDbEntity
  8
KIJUN
100
AcDbLine
 10
368.2888125778104
 20
1159.404409740069
 30
0.0
 11
374.1985142342549
 21
1030.029139138857
 31
0.0
  0
LINE
  5
B17D
102
{ACAD_REACTORS
330
C3B7
102
}
330
2
100
AcDbEntity
  8
KIJUN
100
AcDbLine
 10
367.505816844813
 20
1029.423585047557
 30
0.0
 11
361.5960813879923
 21
1158.799229333109
 31
0.0
  0
LINE
  5
B181
102
{ACAD_REACTORS
330
C3B7
102
}
330
2
100
AcDbEntity
  8
KIJUN
100
AcDbLine
 10
296.4012349950603
 20
303.4178380622402
 30
0.0
 11
386.4012349950603
 21
303.4178380622402
 31
0.0
  0
LINE
  5
B183
102
{ACAD_REACTORS
330
C3B7
102
}
330
2
100
AcDbEntity
  8
KIJUN
  6
CENTER
100
AcDbLine
 10
341.4012349950604
 20
262.9392357932957
 30
0.0
 11
341.4012349950604
 21
1425.778019264588
 31
0.0
  0
LINE
  5
B184
102
{ACAD_REACTORS
330
C3B7
102
}
330
2
100
AcDbEntity
  8
KIJUN
100
AcDbLine
 10
298.4012349950603
 20
1403.41783806224
 30
0.0
 11
384.4012349950603
 21
1403.41783806224
 31
0.0
  0
LINE
  5
B186
102
{ACAD_REACTORS
330
C3B7
102
}
330
2
100
AcDbEntity
  8
KIJUN
100
AcDbLine
 10
386.4012349950603
 20
303.4178380622402
 30
0.0
 11
386.4012349950602
 21
666.4178380622402
 31
0.0
  0
LINE
  5
B187
102
{ACAD_REACTORS
330
C3B7
102
}
330
2
100
AcDbEntity
  8
KIJUN
100
AcDbLine
 10
386.4012349950603
 20
1270.41783806224
 30
0.0
 11
386.4012349950603
 21
1401.41783806224
 31
0.0
  0
ARC
  5
B18A
102
{ACAD_REACTORS
330
C3B7
102
}
330
2
100
AcDbEntity
  8
KIJUN
100
AcDbCircle
 10
384.4012349950603
 20
666.4178380622402
 30
0.0
 40
2.0
100
AcDbArc
 50
0.0
 51
90.00000000000005
  0
ARC
  5
B190
102
{ACAD_REACTORS
330
C3B7
102
}
330
2
100
AcDbEntity
  8
KIJUN
100
AcDbCircle
 10
384.4012349950603
 20
1401.41783806224
 30
0.0
 40
2.0
100
AcDbArc
 50
0.0
 51
90.00000000000039
  0
ARC
  5
B192
102
{ACAD_REACTORS
330
C3B7
102
}
330
2
100
AcDbEntity
  8
KIJUN
100
AcDbCircle
 10
384.4012349950603
 20
1270.41783806224
 30
0.0
 40
2.0
100
AcDbArc
 50
270.0
 51
0.0
  0
DIMENSION
  5
B193
330
2
100
AcDbEntity
  8
SUNPOU
100
AcDbDimension
  2
*D1
 10
386.4012349950603
 20
184.8552434265875
 30
0.0
 11
341.4012349950604
 21
204.8552434265876
 31
0.0
 70
    32
 71
     5
 42
90.0
  3
STANDARD$0
100
AcDbAlignedDimension
 13
296.4012349950603
 23
303.4178380622402
 33
0.0
 14
386.4012349950603
 24
303.4178380622402
 34
0.0
100
AcDbRotatedDimension
1001
ACAD
1000
DSTYLE
1002
{
1070
    41
1040
3.0
1070
    42
1040
3.0
1070
    44
1040
0.0
1070
    77
1070
     1
1070
   140
1040
10.0
1070
   146
1040
0.064286
1070
   147
1040
5.0
1070
   176
1070
    60
1070
   177
1070
    70
1070
   178
1070
    60
1070
   271
1070
     0
1070
   272
1070
     0
1070
   340
1005
1C
1070
   342
1005
109
1002
}
  0
DIMENSION
  5
B1A0
330
2
100
AcDbEntity
  8
SUNPOU
100
AcDbDimension
  2
*D2
 10
386.4012349950603
 20
1473.739341550477
 30
0.0
 11
341.4012349950604
 21
1493.739341550477
 31
0.0
 70
    32
 71
     5
 42
90.00000000000005
  3
STANDARD$0
100
AcDbAlignedDimension
 13
296.4012349950603
 23
1401.417838062239
 33
0.0
 14
386.4012349950603
 24
1401.41783806224
 34
0.0
100
AcDbRotatedDimension
1001
ACAD
1000
DSTYLE
1002
{
1070
    41
1040
3.0
1070
    42
1040
3.0
1070
    44
1040
0.0
1070
    77
1070
     1
1070
   140
1040
10.0
1070
   146
1040
0.064286
1070
   147
1040
5.0
1070
   176
1070
    60
1070
   177
1070
    70
1070
   178
1070
    60
1070
   271
1070
     0
1070
   272
1070
     0
1070
   340
1005
1C
1070
   342
1005
109
1002
}
  0
DIMENSION
  5
B1AD
330
2
100
AcDbEntity
  8
SUNPOU
100
AcDbDimension
  2
*D3
 10
80.62204988517663
 20
303.4178380622403
 30
0.0
 11
60.62204988517661
 21
853.41783806224
 31
0.0
 70
    32
 71
     5
 42
1099.999999999999
  3
STANDARD$0
100
AcDbAlignedDimension
 13
298.4012349950603
 23
1403.41783806224
 33
0.0
 14
296.4012349950603
 24
303.4178380622402
 34
0.0
 50
90.0
100
AcDbRotatedDimension
1001
ACAD
1000
DSTYLE
1002
{
1070
    41
1040
3.0
1070
    42
1040
3.0
1070
    44
1040
0.0
1070
    77
1070
     1
1070
   140
1040
10.0
1070
   146
1040
0.064286
1070
   147
1040
5.0
1070
   176
1070
    60
1070
   177
1070
    70
1070
   178
1070
    60
1070
   271
1070
     0
1070
   272
1070
     0
1070
   340
1005
1C
1070
   342
1005
109
1002
}
  0
ARC
  5
B9B3
102
{ACAD_REACTORS
330
C3B7
102
}
330
2
100
AcDbEntity
  8
KIJUN
100
AcDbCircle
 10
375.5177716932497
 20
676.5398643705732
 30
0.0
 40
8.348074507656123
100
AcDbArc
 50
283.3637973320541
 51
70.68034510732281
  0
ARC
  5
B9CA
102
{ACAD_REACTORS
330
C3B7
102
}
330
2
100
AcDbEntity
  8
KIJUN
100
AcDbCircle
 10
362.343470899826
 20
721.6620116964707
 30
0.0
 40
21.56802024704966
100
AcDbArc
 50
302.8209385565968
 51
46.92983488828649
  0
ARC
  5
B9CB
102
{ACAD_REACTORS
330
C3B7
102
}
330
2
100
AcDbEntity
  8
KIJUN
100
AcDbCircle
 10
378.6692932387759
 20
696.1392421560244
 30
0.0
 40
8.730104488557577
100
AcDbArc
 50
122.0725707466797
 51
267.4418060740015
  0
ARC
  5
B9CE
102
{ACAD_REACTORS
330
C3B7
102
}
330
2
100
AcDbEntity
  8
KIJUN
100
AcDbCircle
 10
376.9001790518199
 20
744.4167821189998
 30
0.0
 40
7.001056022872472
100
AcDbArc
 50
271.4073763370266
 51
89.99135829064732
  0
ARC
  5
B9D0
102
{ACAD_REACTORS
330
C3B7
102
}
330
2
100
AcDbEntity
  8
KIJUN
100
AcDbCircle
 10
376.6372167139355
 20
762.6221680560948
 30
0.0
 40
8.208576996095194
100
AcDbArc
 50
108.250187098827
 51
271.8431626608694
  0
LINE
  5
B9D4
102
{ACAD_REACTORS
330
C3B7
102
}
330
2
100
AcDbEntity
  8
KIJUN
100
AcDbLine
 10
378.4210772289892
 20
1252.41783806224
 30
0.0
 11
378.4210772289892
 21
1255.41783806224
 31
0.0
  0
ARC
  5
B9D6
102
{ACAD_REACTORS
330
C3B7
102
}
330
2
100
AcDbEntity
  8
KIJUN
100
AcDbCircle
 10
376.3856659289428
 20
1263.105520873543
 30
0.0
 40
7.95256978388533
100
AcDbArc
 50
284.8295196792741
 51
41.9128964315482
  0
ARC
  5
B9D7
102
{ACAD_REACTORS
330
C3B7
102
}
330
2
100
AcDbEntity
  8
KIJUN
100
AcDbCircle
 10
372.5853661190694
 20
1228.095214059486
 30
0.0
 40
11.79330943842973
100
AcDbArc
 50
278.0404538815689
 51
70.75927466858313
  0
ARC
  5
B9D8
102
{ACAD_REACTORS
330
C3B7
102
}
330
2
100
AcDbEntity
  8
KIJUN
100
AcDbCircle
 10
378.6595204459948
 20
1245.644491304417
 30
0.0
 40
6.7775424358283
100
AcDbArc
 50
92.01615998026969
 51
251.1674601687267
  0
ARC
  5
BA13
102
{ACAD_REACTORS
330
C3B7
102
}
330
2
100
AcDbEntity
  8
KIJUN
100
AcDbCircle
 10
373.2932807921543
 20
1209.937725808668
 30
0.0
 40
6.548171083505076
100
AcDbArc
 50
275.3272047576456
 51
81.7320710659912
  0
LINE
  5
BA15
102
{ACAD_REACTORS
330
C3B7
102
}
330
2
100
AcDbEntity
  8
KIJUN
100
AcDbLine
 10
376.488777356607
 20
1192.41783806224
 30
0.0
 11
306.3136926335138
 21
1192.41783806224
 31
0.0
  0
LINE
  5
BA2C
102
{ACAD_REACTORS
330
C3B7
102
}
330
2
100
AcDbEntity
  8
KIJUN
100
AcDbLine
 10
306.3136926335134
 20
1189.41783806224
 30
0.0
 11
376.4887773566073
 21
1189.41783806224
 31
0.0
  0
LINE
  5
BA2E
102
{ACAD_REACTORS
330
C3B7
102
}
330
2
100
AcDbEntity
  8
KIJUN
100
AcDbLine
 10
306.3136926335131
 20
1179.41783806224
 30
0.0
 11
376.4887773566075
 21
1179.41783806224
 31
0.0
  0
LINE
  5
BA57
102
{ACAD_REACTORS
330
C3B7
102
}
330
2
100
AcDbEntity
  8
KIJUN
100
AcDbLine
 10
376.4887773566075
 20
1176.41783806224
 30
0.0
 11
376.4887773566075
 21
1179.41783806224
 31
0.0
  0
ARC
  5
BA58
102
{ACAD_REACTORS
330
C3B7
102
}
330
2
100
AcDbEntity
  8
KIJUN
100
AcDbCircle
 10
375.7668222833296
 20
1184.41783806224
 30
0.0
 40
5.05185303901761
100
AcDbArc
 50
278.2162104910309
 51
81.78378950897153
  0
LINE
  5
BA60
102
{ACAD_REACTORS
330
C3B7
102
}
330
2
100
AcDbEntity
  8
KIJUN
100
AcDbLine
 10
376.4887773566073
 20
1189.41783806224
 30
0.0
 11
376.488777356607
 21
1192.41783806224
 31
0.0
  0
ARC
  5
BA65
102
{ACAD_REACTORS
330
C3B7
102
}
330
2
100
AcDbEntity
  8
KIJUN
100
AcDbCircle
 10
376.6625735754388
 20
1003.16638832027
 30
0.0
 40
6.748627639949632
100
AcDbArc
 50
269.7256215098933
 51
51.0915713785325
  0
ARC
  5
BA66
102
{ACAD_REACTORS
330
C3B7
102
}
330
2
100
AcDbEntity
  8
KIJUN
100
AcDbCircle
 10
376.6532387916817
 20
1013.658956914455
 30
0.0
 40
6.746465635202138
100
AcDbArc
 50
309.0252244391219
 51
0.1230794806520283
  0
LINE
  5
BA67
102
{ACAD_REACTORS
330
C3B7
102
}
330
2
100
AcDbEntity
  8
KIJUN
100
AcDbLine
 10
376.6302558165995
 20
993.4178380622403
 30
0.0
 11
306.1722141735212
 21
993.4178380622403
 31
0.0
  0
LINE
  5
BA68
102
{ACAD_REACTORS
330
C3B7
102
}
330
2
100
AcDbEntity
  8
KIJUN
100
AcDbLine
 10
376.6302558165993
 20
996.4178380622401
 30
0.0
 11
376.6302558165995
 21
993.4178380622403
 31
0.0
  0
ARC
  5
BB0D
102
{ACAD_REACTORS
330
C3B7
102
}
330
2
100
AcDbEntity
  8
KIJUN
100
AcDbCircle
 10
377.3037029979811
 20
987.5708624072697
 30
0.0
 40
5.885631267411327
100
AcDbArc
 50
96.57030253463375
 51
249.750563178038
  0
LINE
  5
BCE4
102
{ACAD_REACTORS
330
C3B7
102
}
330
2
100
AcDbEntity
  8
KIJUN
100
AcDbLine
 10
297.9012349950604
 20
978.4178380622405
 30
0.0
 11
384.9012349950604
 21
978.4178380622401
 31
0.0
  0
LINE
  5
BCE5
102
{ACAD_REACTORS
330
C3B7
102
}
330
2
100
AcDbEntity
  8
KIJUN
100
AcDbLine
 10
384.9012349950604
 20
978.4178380622401
 30
0.0
 11
384.9012349950604
 21
975.41783806224
 31
0.0
  0
ARC
  5
BD12
102
{ACAD_REACTORS
330
C3B7
102
}
330
2
100
AcDbEntity
  8
KIJUN
100
AcDbCircle
 10
422.411079230252
 20
928.050379525361
 30
0.0
 40
44.50155962398617
100
AcDbArc
 50
127.3686819754879
 51
191.2725750742732
  0
ARC
  5
BD13
102
{ACAD_REACTORS
330
C3B7
102
}
330
2
100
AcDbEntity
  8
KIJUN
100
AcDbCircle
 10
324.3232876114703
 20
828.0205759633483
 30
0.0
 40
69.07908968642586
100
AcDbArc
 50
314.1056884371466
 51
0.3295001018895536
  0
ARC
  5
BD14
102
{ACAD_REACTORS
330
C3B7
102
}
330
2
100
AcDbEntity
  8
KIJUN
100
AcDbCircle
 10
1.041898320828228
 20
811.9227428724807
 30
0.0
 40
392.7059169922993
100
AcDbArc
 50
2.407342046445968
 51
15.87621580458868
  0
ARC
  5
BD17
102
{ACAD_REACTORS
330
C3B7
102
}
330
2
100
AcDbEntity
  8
KIJUN
100
AcDbCircle
 10
357.0214949300063
 20
755.5850362253669
 30
0.0
 40
27.52949771046607
100
AcDbArc
 50
47.27820949145878
 51
56.03654339599264
  0
ARC
  5
BD18
102
{ACAD_REACTORS
330
C3B7
102
}
330
2
100
AcDbEntity
  8
KIJUN
100
AcDbCircle
 10
383.0384838224303
 20
963.1941807861885
 30
0.0
 40
12.36477412383655
100
AcDbArc
 50
1.03643760427758
 51
81.33541272714326
  0
ARC
  5
BDC8
102
{ACAD_REACTORS
330
C3B7
102
}
330
2
100
AcDbEntity
  8
KIJUN
100
AcDbCircle
 10
390.2870446870668
 20
970.1475626801594
 30
0.0
 40
8.452463306007365
100
AcDbArc
 50
232.7673269286349
 51
307.2326730713659
  0
ARC
  5
BDC9
102
{ACAD_REACTORS
330
C3B7
102
}
330
2
100
AcDbEntity
  8
KIJUN
100
AcDbCircle
 10
378.4630917923834
 20
967.9388085680555
 30
0.0
 40
8.090740898348023
100
AcDbArc
 50
213.9716931735326
 51
326.0283068264674
  0
ARC
  5
BDCA
102
{ACAD_REACTORS
330
C3B7
102
}
330
2
100
AcDbEntity
  8
KIJUN
100
AcDbCircle
 10
364.7169876180371
 20
966.85437656675
 30
0.0
 40
7.83070238427947
100
AcDbArc
 50
206.0308126839985
 51
333.9691873159994
  0
ARC
  5
BDCB
102
{ACAD_REACTORS
330
C3B7
102
}
330
2
100
AcDbEntity
  8
KIJUN
100
AcDbCircle
 10
349.5409405127206
 20
967.7367104314836
 30
0.0
 40
9.214524646233329
100
AcDbArc
 50
207.9501174016948
 51
332.0498825983042
  0
ELLIPSE
  5
BDD2
102
{ACAD_REACTORS
330
C3B7
102
}
330
2
100
AcDbEntity
  8
KIJUN
100
AcDbEllipse
 10
364.9424469829014
 20
1159.101819536589
 30
0.0
 11
0.3902696483280001
 21
-4.316018525651157
 31
0.0
210
0.0
220
0.0
230
1.0
 40
0.7753362445088687
 41
1.570796326794896
 42
4.712388980384689
  0
ELLIPSE
  5
BDD4
102
{ACAD_REACTORS
330
C3B7
102
}
330
2
100
AcDbEntity
  8
KIJUN
100
AcDbEllipse
 10
370.8521655395339
 20
1029.726362093207
 30
0.0
 11
-0.3905106304451347
 21
4.315996728413889
 31
0.0
210
0.0
220
0.0
230
-1.0
 40
0.7753362445088689
 41
1.570796326794896
 42
4.712388980384689
  0
ARC
  5
BDD8
102
{ACAD_REACTORS
330
C3B7
102
}
330
2
100
AcDbEntity
  8
KIJUN
100
AcDbCircle
 10
341.4012349950606
 20
1029.91783806224
 30
0.0
 40
4.5
100
AcDbArc
 50
180.0
 51
0.0
  0
ARC
  5
BDDE
102
{ACAD_REACTORS
330
C3B7
102
}
330
2
100
AcDbEntity
  8
KIJUN
100
AcDbCircle
 10
341.4012349950606
 20
1158.91783806224
 30
0.0
 40
4.5
100
AcDbArc
 50
0.0
 51
180.0
  0
ARC
  5
BDE0
102
{ACAD_REACTORS
330
C3B7
102
}
330
2
100
AcDbEntity
  8
KIJUN
100
AcDbCircle
 10
560.3276595798933
 20
929.6639319457169
 30
0.0
 40
205.4388918356489
100
AcDbArc
 50
170.5433437875283
 51
187.6562007901122
  0
ARC
  5
BDE1
102
{ACAD_REACTORS
330
C3B7
102
}
330
2
100
AcDbEntity
  8
KIJUN
100
AcDbCircle
 10
-398.5106139133913
 20
874.147454995249
 30
0.0
 40
758.1230493077251
100
AcDbArc
 50
353.5762024816477
 51
357.4067004927639
  0
ARC
  5
BDE2
102
{ACAD_REACTORS
330
C3B7
102
}
330
2
100
AcDbEntity
  8
KIJUN
100
AcDbCircle
 10
-76.77148342530109
 20
856.3463345579469
 30
0.0
 40
435.9199226302372
100
AcDbArc
 50
357.8306433566715
 51
6.050384823721198
  0
ARC
  5
BDE3
102
{ACAD_REACTORS
330
C3B7
102
}
330
2
100
AcDbEntity
  8
KIJUN
100
AcDbCircle
 10
482.8505016921392
 20
915.4749361696987
 30
0.0
 40
108.8092120479397
100
AcDbArc
 50
153.8569133793165
 51
173.1672836499726
  0
ARC
  5
BDE4
102
{ACAD_REACTORS
330
C3B7
102
}
330
2
100
AcDbEntity
  8
KIJUN
100
AcDbCircle
 10
427.7342830491762
 20
922.5684538117704
 30
0.0
 40
53.24273816623096
100
AcDbArc
 50
173.6901894408865
 51
196.5637931061516
  0
ARC
  5
BDE5
102
{ACAD_REACTORS
330
C3B7
102
}
330
2
100
AcDbEntity
  8
KIJUN
100
AcDbCircle
 10
278.6458982813978
 20
837.0873082184633
 30
0.0
 40
105.0560510836581
100
AcDbArc
 50
332.9599103362937
 51
357.5911983645144
  0
ARC
  5
BDE6
102
{ACAD_REACTORS
330
C3B7
102
}
330
2
100
AcDbEntity
  8
KIJUN
100
AcDbCircle
 10
465.2891602024484
 20
924.7103658266205
 30
0.0
 40
101.2285537144773
100
AcDbArc
 50
157.5190016087021
 51
196.4477822428706
  0
ARC
  5
BDE7
102
{ACAD_REACTORS
330
C3B7
102
}
330
2
100
AcDbEntity
  8
KIJUN
100
AcDbCircle
 10
139.2230124969085
 20
854.4763517509228
 30
0.0
 40
233.964474884716
100
AcDbArc
 50
343.8318824434282
 51
357.0437484821353
  0
ARC
  5
BDE8
102
{ACAD_REACTORS
330
C3B7
102
}
330
2
100
AcDbEntity
  8
KIJUN
100
AcDbCircle
 10
178.4541024316822
 20
852.4943743947448
 30
0.0
 40
194.6833810711178
100
AcDbArc
 50
357.0308161841468
 51
12.92744960411283
  0
LINE
  5
BE45
102
{ACAD_REACTORS
330
C3B7
102
}
330
2
100
AcDbEntity
  8
KIJUN
100
AcDbLine
 10
373.9012349950604
 20
1203.417838062241
 30
0.0
 11
308.9012349950603
 21
1203.41783806224
 31
0.0
  0
LINE
  5
BE46
102
{ACAD_REACTORS
330
C3B7
102
}
330
2
100
AcDbEntity
  8
KIJUN
100
AcDbLine
 10
373.9012349950604
 20
1192.41783806224
 30
0.0
 11
373.9012349950604
 21
1203.417838062241
 31
0.0
  0
LINE
  5
BE4A
102
{ACAD_REACTORS
330
C3B7
102
}
330
2
100
AcDbEntity
  8
KIJUN
100
AcDbLine
 10
384.9012349950604
 20
978.4178380622401
 30
0.0
 11
375.2666399007239
 21
982.0489941225565
 31
0.0
  0
LINE
  5
BF04
102
{ACAD_REACTORS
330
C3B7
102
}
330
2
100
AcDbEntity
  8
KIJUN
100
AcDbLine
 10
378.4210772289892
 20
1255.41783806224
 30
0.0
 11
304.3813927611314
 21
1255.41783806224
 31
0.0
  0
LINE
  5
BF05
102
{ACAD_REACTORS
330
C3B7
102
}
330
2
100
AcDbEntity
  8
KIJUN
100
AcDbLine
 10
374.2349228260337
 20
1216.41783806224
 30
0.0
 11
308.5675471641447
 21
1216.41783806224
 31
0.0
  0
LINE
  5
BF26
102
{ACAD_REACTORS
330
C3B7
102
}
330
2
100
AcDbEntity
  8
KIJUN
100
AcDbLine
 10
378.4210772289892
 20
1252.41783806224
 30
0.0
 11
304.3813927611314
 21
1252.41783806224
 31
0.0
  0
LINE
  5
C001
102
{ACAD_REACTORS
330
C3B7
102
}
330
2
100
AcDbEntity
  8
KIJUN
100
AcDbLine
 10
380.9012349950603
 20
1008.41783806224
 30
0.0
 11
301.901234995061
 21
1008.41783806224
 31
0.0
  0
LINE
  5
C008
102
{ACAD_REACTORS
330
C3B7
102
}
330
2
100
AcDbEntity
  8
KIJUN
100
AcDbLine
 10
297.9012349950603
 20
975.4178380622402
 30
0.0
 11
384.9012349950604
 21
975.41783806224
 31
0.0
  0
LINE
  5
C015
102
{ACAD_REACTORS
330
C3B7
102
}
330
2
100
AcDbEntity
  8
KIJUN
100
AcDbLine
 10
336.9012349950608
 20
1158.91783806224
 30
0.0
 11
336.9012349950608
 21
1029.91783806224
 31
0.0
  0
LINE
  5
C01E
102
{ACAD_REACTORS
330
C3B7
102
}
330
2
100
AcDbEntity
  8
KIJUN
100
AcDbLine
 10
310.4012349950595
 20
778.4178380622401
 30
0.0
 11
372.4012349950604
 21
778.4178380622401
 31
0.0
  0
ARC
  5
C054
102
{ACAD_REACTORS
330
C3B7
102
}
330
2
100
AcDbEntity
  8
KIJUN
100
AcDbCircle
 10
373.8944162846321
 20
773.412894963059
 30
0.0
 40
3.0
100
AcDbArc
 50
273.2895486629772
 51
53.03056088043369
  0
LINE
  5
C056
102
{ACAD_REACTORS
330
C3B7
102
}
330
2
100
AcDbEntity
  8
KIJUN
100
AcDbLine
 10
309.0801994601812
 20
770.4178380622403
 30
0.0
 11
374.0665620393229
 21
770.4178380622402
 31
0.0
  0
LINE
  5
C058
102
{ACAD_REACTORS
330
C3B7
102
}
330
2
100
AcDbEntity
  8
KIJUN
100
AcDbLine
 10
305.9012349950605
 20
754.4178380622403
 30
0.0
 11
376.9012349950603
 21
754.4178380622402
 31
0.0
  0
LINE
  5
C059
102
{ACAD_REACTORS
330
C3B7
102
}
330
2
100
AcDbEntity
  8
KIJUN
100
AcDbLine
 10
305.9012349950604
 20
751.4178380622404
 30
0.0
 11
376.9012349950604
 21
751.4178380622401
 31
0.0
  0
LINE
  5
C05A
102
{ACAD_REACTORS
330
C3B7
102
}
330
2
100
AcDbEntity
  8
KIJUN
100
AcDbLine
 10
305.7303388352393
 20
737.4178380622403
 30
0.0
 11
377.0721311548813
 21
737.4178380622402
 31
0.0
  0
LINE
  5
C060
102
{ACAD_REACTORS
330
C3B7
102
}
330
2
100
AcDbEntity
  8
KIJUN
100
AcDbLine
 10
376.9012349950604
 20
751.4178380622401
 30
0.0
 11
376.9012349950603
 21
754.4178380622402
 31
0.0
  0
LINE
  5
C0C6
102
{ACAD_REACTORS
330
C3B7
102
}
330
2
100
AcDbEntity
  8
KIJUN
100
AcDbLine
 10
304.5228368776863
 20
687.4178380622402
 30
0.0
 11
378.2796331124345
 21
687.4178380622402
 31
0.0
  0
LINE
  5
C0C7
102
{ACAD_REACTORS
330
C3B7
102
}
330
2
100
AcDbEntity
  8
KIJUN
100
AcDbLine
 10
304.5228368776863
 20
684.4178380622403
 30
0.0
 11
378.2796331124345
 21
684.4178380622402
 31
0.0
  0
LINE
  5
C128
102
{ACAD_REACTORS
330
C3B7
102
}
330
2
100
AcDbEntity
  8
KIJUN
100
AcDbLine
 10
341.4012349950604
 20
963.4178380622403
 30
0.0
 11
341.4012349950604
 21
789.3273752251973
 31
0.0
  0
ARC
  5
C12D
102
{ACAD_REACTORS
330
C3B7
102
}
330
2
100
AcDbEntity
  8
KIJUN
100
AcDbCircle
 10
102.7528497292222
 20
844.3832655184802
 30
0.0
 40
281.1003396804686
100
AcDbArc
 50
357.6122174672474
 51
12.95247403961138
  0
LINE
  5
C22A
102
{ACAD_REACTORS
330
C3B7
102
}
330
2
100
AcDbEntity
  8
KIJUN
100
AcDbLine
 10
308.4012349950604
 20
1176.41783806224
 30
0.0
 11
299.4027811290635
 21
1013.6734492707
 31
0.0
  0
LINE
  5
C22B
102
{ACAD_REACTORS
330
C3B7
102
}
330
2
100
AcDbEntity
  8
KIJUN
100
AcDbLine
 10
314.5136574123102
 20
1159.404409740069
 30
0.0
 11
308.6039557558658
 21
1030.029139138857
 31
0.0
  0
LINE
  5
C22C
102
{ACAD_REACTORS
330
C3B7
102
}
330
2
100
AcDbEntity
  8
KIJUN
100
AcDbLine
 10
315.2966531453078
 20
1029.423585047557
 30
0.0
 11
321.2063886021284
 21
1158.799229333109
 31
0.0
  0
LINE
  5
C22D
102
{ACAD_REACTORS
330
C3B7
102
}
330
2
100
AcDbEntity
  8
KIJUN
100
AcDbLine
 10
296.4012349950604
 20
1270.41783806224
 30
0.0
 11
296.4012349950603
 21
1401.41783806224
 31
0.0
  0
ARC
  5
C230
102
{ACAD_REACTORS
330
C3B7
102
}
330
2
100
AcDbEntity
  8
KIJUN
100
AcDbCircle
 10
298.4012349950603
 20
1401.41783806224
 30
0.0
 40
2.0
100
AcDbArc
 50
90.0
 51
180.0
  0
ARC
  5
C231
102
{ACAD_REACTORS
330
C3B7
102
}
330
2
100
AcDbEntity
  8
KIJUN
100
AcDbCircle
 10
298.4012349950604
 20
1270.41783806224
 30
0.0
 40
2.0
100
AcDbArc
 50
180.0
 51
270.0
  0
LINE
  5
C232
102
{ACAD_REACTORS
330
C3B7
102
}
330
2
100
AcDbEntity
  8
KIJUN
100
AcDbLine
 10
304.3813927611314
 20
1252.41783806224
 30
0.0
 11
304.3813927611314
 21
1255.41783806224
 31
0.0
  0
ARC
  5
C233
102
{ACAD_REACTORS
330
C3B7
102
}
330
2
100
AcDbEntity
  8
KIJUN
100
AcDbCircle
 10
306.4168040611779
 20
1263.105520873543
 30
0.0
 40
7.95256978388533
100
AcDbArc
 50
138.0871035684525
 51
255.1704803207243
  0
ARC
  5
C234
102
{ACAD_REACTORS
330
C3B7
102
}
330
2
100
AcDbEntity
  8
KIJUN
100
AcDbCircle
 10
310.2171038710513
 20
1228.095214059486
 30
0.0
 40
11.79330943842973
100
AcDbArc
 50
109.2407253314185
 51
261.9595461184334
  0
ARC
  5
C235
102
{ACAD_REACTORS
330
C3B7
102
}
330
2
100
AcDbEntity
  8
KIJUN
100
AcDbCircle
 10
304.1429495441259
 20
1245.644491304417
 30
0.0
 40
6.7775424358283
100
AcDbArc
 50
288.8325398312751
 51
87.98384001973024
  0
ARC
  5
C236
102
{ACAD_REACTORS
330
C3B7
102
}
330
2
100
AcDbEntity
  8
KIJUN
100
AcDbCircle
 10
309.5091891979664
 20
1209.937725808668
 30
0.0
 40
6.548171083505076
100
AcDbArc
 50
98.26792893350905
 51
264.6727952423559
  0
LINE
  5
C237
102
{ACAD_REACTORS
330
C3B7
102
}
330
2
100
AcDbEntity
  8
KIJUN
100
AcDbLine
 10
306.3136926335131
 20
1176.41783806224
 30
0.0
 11
306.3136926335131
 21
1179.41783806224
 31
0.0
  0
LINE
  5
C238
102
{ACAD_REACTORS
330
C3B7
102
}
330
2
100
AcDbEntity
  8
KIJUN
100
AcDbLine
 10
306.3136926335134
 20
1189.41783806224
 30
0.0
 11
306.3136926335138
 21
1192.41783806224
 31
0.0
  0
ARC
  5
C239
102
{ACAD_REACTORS
330
C3B7
102
}
330
2
100
AcDbEntity
  8
KIJUN
100
AcDbCircle
 10
307.0356477067911
 20
1184.41783806224
 30
0.0
 40
5.05185303901761
100
AcDbArc
 50
98.21621049103098
 51
261.783789508969
  0
ARC
  5
C23A
102
{ACAD_REACTORS
330
C3B7
102
}
330
2
100
AcDbEntity
  8
KIJUN
100
AcDbCircle
 10
306.1398964146818
 20
1003.16638832027
 30
0.0
 40
6.748627639949632
100
AcDbArc
 50
128.9084286214389
 51
270.2743784901089
  0
ARC
  5
C23B
102
{ACAD_REACTORS
330
C3B7
102
}
330
2
100
AcDbEntity
  8
KIJUN
100
AcDbCircle
 10
306.149231198439
 20
1013.658956914455
 30
0.0
 40
6.746465635202138
100
AcDbArc
 50
179.876920519348
 51
230.9747755608771
  0
LINE
  5
C23C
102
{ACAD_REACTORS
330
C3B7
102
}
330
2
100
AcDbEntity
  8
KIJUN
100
AcDbLine
 10
306.1722141735213
 20
996.4178380622401
 30
0.0
 11
306.1722141735212
 21
993.4178380622403
 31
0.0
  0
ARC
  5
C23D
102
{ACAD_REACTORS
330
C3B7
102
}
330
2
100
AcDbEntity
  8
KIJUN
100
AcDbCircle
 10
305.4987669921396
 20
987.5708624072697
 30
0.0
 40
5.885631267411327
100
AcDbArc
 50
290.249436821965
 51
83.42969746536319
  0
LINE
  5
C23E
102
{ACAD_REACTORS
330
C3B7
102
}
330
2
100
AcDbEntity
  8
KIJUN
100
AcDbLine
 10
297.9012349950604
 20
978.4178380622405
 30
0.0
 11
297.9012349950603
 21
975.4178380622402
 31
0.0
  0
ARC
  5
C23F
102
{ACAD_REACTORS
330
C3B7
102
}
330
2
100
AcDbEntity
  8
KIJUN
100
AcDbCircle
 10
299.7639861676904
 20
963.1941807861885
 30
0.0
 40
12.36477412383655
100
AcDbArc
 50
98.66458727285785
 51
178.9635623957213
  0
ELLIPSE
  5
C240
102
{ACAD_REACTORS
330
C3B7
102
}
330
2
100
AcDbEntity
  8
KIJUN
100
AcDbEllipse
 10
317.8600230072193
 20
1159.101819536589
 30
0.0
 11
-0.3902696483280001
 21
-4.316018525651157
 31
0.0
210
0.0
220
0.0
230
-1.0
 40
0.7753362445088687
 41
1.570796326794896
 42
4.712388980384689
  0
ELLIPSE
  5
C241
102
{ACAD_REACTORS
330
C3B7
102
}
330
2
100
AcDbEntity
  8
KIJUN
100
AcDbEllipse
 10
311.9503044505868
 20
1029.726362093207
 30
0.0
 11
0.3905106304451347
 21
4.315996728413889
 31
0.0
210
0.0
220
0.0
230
1.0
 40
0.7753362445088689
 41
1.570796326794896
 42
4.712388980384689
  0
LINE
  5
C242
102
{ACAD_REACTORS
330
C3B7
102
}
330
2
100
AcDbEntity
  8
KIJUN
100
AcDbLine
 10
308.9012349950603
 20
1192.41783806224
 30
0.0
 11
308.9012349950603
 21
1203.41783806224
 31
0.0
  0
LINE
  5
C243
102
{ACAD_REACTORS
330
C3B7
102
}
330
2
100
AcDbEntity
  8
KIJUN
100
AcDbLine
 10
297.9012349950604
 20
978.4178380622401
 30
0.0
 11
307.5358300893967
 21
982.0489941225565
 31
0.0
  0
LINE
  5
C245
102
{ACAD_REACTORS
330
C3B7
102
}
330
2
100
AcDbEntity
  8
KIJUN
100
AcDbLine
 10
304.5228368776863
 20
687.4178380622402
 30
0.0
 11
304.5228368776863
 21
684.4178380622403
 31
0.0
  0
LINE
  5
C246
102
{ACAD_REACTORS
330
C3B7
102
}
330
2
100
AcDbEntity
  8
KIJUN
100
AcDbLine
 10
296.4012349950605
 20
303.4178380622402
 30
0.0
 11
296.4012349950606
 21
666.4178380622402
 31
0.0
  0
ARC
  5
C247
102
{ACAD_REACTORS
330
C3B7
102
}
330
2
100
AcDbEntity
  8
KIJUN
100
AcDbCircle
 10
298.4012349950605
 20
666.4178380622402
 30
0.0
 40
1.999999999999999
100
AcDbArc
 50
90.0
 51
180.0
  0
ARC
  5
C248
102
{ACAD_REACTORS
330
C3B7
102
}
330
2
100
AcDbEntity
  8
KIJUN
100
AcDbCircle
 10
307.2846982968711
 20
676.5398643705732
 30
0.0
 40
8.348074507656122
100
AcDbArc
 50
109.3196548926766
 51
256.6362026679491
  0
ARC
  5
C249
102
{ACAD_REACTORS
330
C3B7
102
}
330
2
100
AcDbEntity
  8
KIJUN
100
AcDbCircle
 10
320.4589990902948
 20
721.6620116964707
 30
0.0
 40
21.56802024704966
100
AcDbArc
 50
133.0701651117131
 51
237.1790614434006
  0
ARC
  5
C24A
102
{ACAD_REACTORS
330
C3B7
102
}
330
2
100
AcDbEntity
  8
KIJUN
100
AcDbCircle
 10
304.1331767513448
 20
696.1392421560244
 30
0.0
 40
8.730104488557575
100
AcDbArc
 50
272.5581939260009
 51
57.92742925332238
  0
ARC
  5
C24B
102
{ACAD_REACTORS
330
C3B7
102
}
330
2
100
AcDbEntity
  8
KIJUN
100
AcDbCircle
 10
305.9022909383009
 20
744.4167821189998
 30
0.0
 40
7.001056022872471
100
AcDbArc
 50
90.008641709355
 51
268.5926236629732
  0
ARC
  5
C24C
102
{ACAD_REACTORS
330
C3B7
102
}
330
2
100
AcDbEntity
  8
KIJUN
100
AcDbCircle
 10
306.1652532761852
 20
762.6221680560948
 30
0.0
 40
8.208576996095192
100
AcDbArc
 50
268.1568373391284
 51
71.7498129011713
  0
ARC
  5
C24D
102
{ACAD_REACTORS
330
C3B7
102
}
330
2
100
AcDbEntity
  8
KIJUN
100
AcDbCircle
 10
260.3913907598688
 20
928.050379525361
 30
0.0
 40
44.50155962398617
100
AcDbArc
 50
348.7274249257266
 51
52.63131802451042
  0
ARC
  5
C24E
102
{ACAD_REACTORS
330
C3B7
102
}
330
2
100
AcDbEntity
  8
KIJUN
100
AcDbCircle
 10
358.4791823786505
 20
828.0205759633483
 30
0.0
 40
69.07908968642584
100
AcDbArc
 50
179.6704998981104
 51
225.8943115628524
  0
ARC
  5
C24F
102
{ACAD_REACTORS
330
C3B7
102
}
330
2
100
AcDbEntity
  8
KIJUN
100
AcDbCircle
 10
681.7605716692924
 20
811.9227428724807
 30
0.0
 40
392.7059169922992
100
AcDbArc
 50
164.1237841954108
 51
177.5926579535539
  0
ARC
  5
C250
102
{ACAD_REACTORS
330
C3B7
102
}
330
2
100
AcDbEntity
  8
KIJUN
100
AcDbCircle
 10
325.7809750601145
 20
755.5850362253669
 30
0.0
 40
27.52949771046606
100
AcDbArc
 50
123.963456604009
 51
132.7217905085398
  0
ARC
  5
C251
102
{ACAD_REACTORS
330
C3B7
102
}
330
2
100
AcDbEntity
  8
KIJUN
100
AcDbCircle
 10
292.5154253030541
 20
970.1475626801594
 30
0.0
 40
8.452463306007363
100
AcDbArc
 50
232.7673269286315
 51
307.232673071363
  0
ARC
  5
C252
102
{ACAD_REACTORS
330
C3B7
102
}
330
2
100
AcDbEntity
  8
KIJUN
100
AcDbCircle
 10
304.3393781977373
 20
967.9388085680555
 30
0.0
 40
8.090740898348022
100
AcDbArc
 50
213.971693173534
 51
326.0283068264661
  0
ARC
  5
C253
102
{ACAD_REACTORS
330
C3B7
102
}
330
2
100
AcDbEntity
  8
KIJUN
100
AcDbCircle
 10
318.0854823720836
 20
966.85437656675
 30
0.0
 40
7.830702384279468
100
AcDbArc
 50
206.0308126840001
 51
333.9691873160016
  0
ARC
  5
C254
102
{ACAD_REACTORS
330
C3B7
102
}
330
2
100
AcDbEntity
  8
KIJUN
100
AcDbCircle
 10
333.2615294774001
 20
967.7367104314836
 30
0.0
 40
9.214524646233327
100
AcDbArc
 50
207.9501174016969
 51
332.0498825983039
  0
ARC
  5
C255
102
{ACAD_REACTORS
330
C3B7
102
}
330
2
100
AcDbEntity
  8
KIJUN
100
AcDbCircle
 10
122.4748104102274
 20
929.6639319457169
 30
0.0
 40
205.4388918356488
100
AcDbArc
 50
352.343799209888
 51
9.456656212472072
  0
ARC
  5
C256
102
{ACAD_REACTORS
330
C3B7
102
}
330
2
100
AcDbEntity
  8
KIJUN
100
AcDbCircle
 10
1081.313083903512
 20
874.147454995249
 30
0.0
 40
758.123049307725
100
AcDbArc
 50
182.5932995072361
 51
186.4237975183526
  0
ARC
  5
C257
102
{ACAD_REACTORS
330
C3B7
102
}
330
2
100
AcDbEntity
  8
KIJUN
100
AcDbCircle
 10
759.5739534154217
 20
856.3463345579469
 30
0.0
 40
435.9199226302371
100
AcDbArc
 50
173.9496151762789
 51
182.1693566433286
  0
ARC
  5
C258
102
{ACAD_REACTORS
330
C3B7
102
}
330
2
100
AcDbEntity
  8
KIJUN
100
AcDbCircle
 10
199.9519682979816
 20
915.4749361696987
 30
0.0
 40
108.8092120479396
100
AcDbArc
 50
6.832716350027618
 51
26.14308662068467
  0
ARC
  5
C259
102
{ACAD_REACTORS
330
C3B7
102
}
330
2
100
AcDbEntity
  8
KIJUN
100
AcDbCircle
 10
255.0681869409446
 20
922.5684538117704
 30
0.0
 40
53.24273816623094
100
AcDbArc
 50
343.4362068938481
 51
6.309810559113377
  0
ARC
  5
C25A
102
{ACAD_REACTORS
330
C3B7
102
}
330
2
100
AcDbEntity
  8
KIJUN
100
AcDbCircle
 10
404.1565717087229
 20
837.0873082184633
 30
0.0
 40
105.0560510836581
100
AcDbArc
 50
182.4088016354858
 51
207.0400896637055
  0
ARC
  5
C25B
102
{ACAD_REACTORS
330
C3B7
102
}
330
2
100
AcDbEntity
  8
KIJUN
100
AcDbCircle
 10
580.0496202608985
 20
844.3832655184802
 30
0.0
 40
281.1003396804685
100
AcDbArc
 50
167.0475259603882
 51
182.3877825327525
  0
ARC
  5
C25C
102
{ACAD_REACTORS
330
C3B7
102
}
330
2
100
AcDbEntity
  8
KIJUN
100
AcDbCircle
 10
217.5133097876723
 20
924.7103658266205
 30
0.0
 40
101.2285537144773
100
AcDbArc
 50
343.5522177571288
 51
22.48099839129844
  0
ARC
  5
C25D
102
{ACAD_REACTORS
330
C3B7
102
}
330
2
100
AcDbEntity
  8
KIJUN
100
AcDbCircle
 10
543.5794574932121
 20
854.4763517509228
 30
0.0
 40
233.964474884716
100
AcDbArc
 50
182.9562515178646
 51
196.1681175565725
  0
ARC
  5
C25E
102
{ACAD_REACTORS
330
C3B7
102
}
330
2
100
AcDbEntity
  8
KIJUN
100
AcDbCircle
 10
504.3483675584385
 20
852.4943743947448
 30
0.0
 40
194.6833810711178
100
AcDbArc
 50
167.0725503958868
 51
182.9691838158533
  0
ARC
  5
C260
102
{ACAD_REACTORS
330
C3B7
102
}
330
2
100
AcDbEntity
  8
KIJUN
100
AcDbCircle
 10
308.9080537054886
 20
773.412894963059
 30
0.0
 40
2.999999999999999
100
AcDbArc
 50
126.9694391195669
 51
273.2895486630119
  0
LINE
  5
C261
102
{ACAD_REACTORS
330
C3B7
102
}
330
2
100
AcDbEntity
  8
KIJUN
100
AcDbLine
 10
305.9012349950604
 20
751.4178380622404
 30
0.0
 11
305.9012349950605
 21
754.4178380622403
 31
0.0
  0
LINE
  5
C262
102
{ACAD_REACTORS
330
C3B7
102
}
330
2
100
AcDbEntity
  8
KIJUN
100
AcDbLine
 10
341.4012349950604
 20
963.4178380622403
 30
0.0
 11
341.4012349950604
 21
789.3273752251973
 31
0.0
  0
ARC
  5
C33B
102
{ACAD_REACTORS
330
C3B7
102
}
330
2
100
AcDbEntity
  8
KIJUN
100
AcDbCircle
 10
341.4012349950608
 20
1327.417838062241
 30
0.0
 40
74.99999999999904
100
AcDbArc
 50
53.13010235415581
 51
126.8698976458449
  0
ARC
  5
C39A
102
{ACAD_REACTORS
330
C3B7
102
}
330
2
100
AcDbEntity
  8
KIJUN
100
AcDbCircle
 10
341.4012349950608
 20
1344.417838062239
 30
0.0
 40
74.99999999999904
100
AcDbArc
 50
233.1301023541617
 51
306.8698976458379
  0
ARC
  5
C3A8
102
{ACAD_REACTORS
330
C3B7
102
}
330
2
100
AcDbEntity
  8
KIJUN
100
AcDbCircle
 10
341.4012349950608
 20
592.4178380622408
 30
0.0
 40
74.99999999999904
100
AcDbArc
 50
53.13010235415834
 51
126.8698976458419
  0
ARC
  5
C3B6
102
{ACAD_REACTORS
330
C3B7
102
}
330
2
100
AcDbEntity
  8
KIJUN
100
AcDbCircle
 10
341.4012349950608
 20
379.4178380622395
 30
0.0
 40
74.99999999999904
100
AcDbArc
 50
233.1301023541596
 51
306.8698976458401
  0
TEXT
  5
C3CF
330
2
100
AcDbEntity
  8
HOJO
100
AcDbText
 10
11.37723086126692
 20
-35.23198413219495
 30
0.0
 40
20.0
  1
※ 形状・寸法は製品特性や、生産ロットにより誤差があるものがあります。
  7
SUNPOU
100
AcDbText
  0
DIMENSION
  5
C3D0
330
2
100
AcDbEntity
  8
SUNPOU
100
AcDbDimension
  2
*D11
 10
165.0352862618744
 20
1268.41783806224
 30
0.0
 11
145.0352862618742
 21
1335.91783806224
 31
0.0
 70
    32
 71
     5
 42
134.9999999999993
  3
STANDARD$0
100
AcDbAlignedDimension
 13
298.4012349950603
 23
1403.41783806224
 33
0.0
 14
298.4012349950605
 24
1268.41783806224
 34
0.0
 50
90.0
100
AcDbRotatedDimension
1001
ACAD
1000
DSTYLE
1002
{
1070
    41
1040
3.0
1070
    42
1040
3.0
1070
    44
1040
0.0
1070
    77
1070
     1
1070
   140
1040
10.0
1070
   146
1040
0.064286
1070
   147
1040
5.0
1070
   176
1070
    60
1070
   177
1070
    70
1070
   178
1070
    60
1070
   271
1070
     0
1070
   272
1070
     0
1070
   340
1005
1C
1070
   342
1005
109
1002
}
  0
DIMENSION
  5
C3F8
330
2
100
AcDbEntity
  8
SUNPOU
100
AcDbDimension
  2
*D12
 10
165.0352862618744
 20
668.4178380622402
 30
0.0
 11
145.0352862618743
 21
968.4178380622403
 31
0.0
 70
    32
 71
     5
 42
600.0000000000002
  3
STANDARD$0
100
AcDbAlignedDimension
 13
298.4012349950605
 23
1268.41783806224
 33
0.0
 14
298.4012349950605
 24
668.4178380622401
 34
0.0
 50
90.0
100
AcDbRotatedDimension
1001
ACAD
1000
DSTYLE
1002
{
1070
    41
1040
3.0
1070
    42
1040
3.0
1070
    44
1040
0.0
1070
    77
1070
     1
1070
   140
1040
10.0
1070
   146
1040
0.064286
1070
   147
1040
5.0
1070
   176
1070
    60
1070
   177
1070
    70
1070
   178
1070
    60
1070
   271
1070
     0
1070
   272
1070
     0
1070
   340
1005
1C
1070
   342
1005
109
1002
}
  0
DIMENSION
  5
C40E
330
2
100
AcDbEntity
  8
SUNPOU
100
AcDbDimension
  2
*D13
 10
165.0352862618744
 20
303.4178380622402
 30
0.0
 11
145.0352862618743
 21
485.9178380622402
 31
0.0
 70
    32
 71
     5
 42
364.9999999999999
  3
STANDARD$0
100
AcDbAlignedDimension
 13
298.4012349950605
 23
668.4178380622401
 33
0.0
 14
296.4012349950603
 24
303.4178380622402
 34
0.0
 50
90.0
100
AcDbRotatedDimension
1001
ACAD
1000
DSTYLE
1002
{
1070
    41
1040
3.0
1070
    42
1040
3.0
1070
    44
1040
0.0
1070
    77
1070
     1
1070
   140
1040
10.0
1070
   146
1040
0.064286
1070
   147
1040
5.0
1070
   176
1070
    60
1070
   177
1070
    70
1070
   178
1070
    60
1070
   271
1070
     0
1070
   272
1070
     0
1070
   340
1005
1C
1070
   342
1005
109
1002
}
  0
ENDSEC
  0
SECTION
  2
OBJECTS
  0
DICTIONARY
  5
1A
330
0
100
AcDbDictionary
281
     1
  3
ACAD_COLOR
350
B1BF
  3
ACAD_GROUP
350
18
  3
ACAD_LAYOUT
350
58
  3
ACAD_MATERIAL
350
B1BE
  3
ACAD_MLINESTYLE
350
19
  3
ACAD_PLOTSETTINGS
350
59
  3
ACAD_PLOTSTYLENAME
350
56
  3
ACAD_TABLESTYLE
350
B1C0
  3
ACDBHEADERROUNDTRIPXREC
350
C449
  3
AcDbVariableDictionary
350
B97E
  0
DICTIONARY
  5
BEBB
330
A
100
AcDbDictionary
280
     1
281
     1
  3
ACAD_LAYERFILTERS
360
C2B2
  3
ACLYDICTIONARY
360
C2B1
  0
DICTIONARY
  5
BA61
330
2
100
AcDbDictionary
280
     1
281
     1
  3
ACAD_SORTENTS
360
BA62
  0
DICTIONARY
  5
B1BF
102
{ACAD_REACTORS
330
1A
102
}
330
1A
100
AcDbDictionary
281
     1
  0
DICTIONARY
  5
18
102
{ACAD_REACTORS
330
1A
102
}
330
1A
100
AcDbDictionary
281
     1
  3
*A1
350
3A0
  3
*A10
350
A9E8
  3
*A11
350
6398
  3
*A12
350
2FC7
  3
*A13
350
795A
  3
*A14
350
2FC6
  3
*A15
350
8936
  3
*A16
350
4FAD
  3
*A17
350
8937
  3
*A18
350
A3EA
  3
*A19
350
3A1
  3
*A2
350
ACC
  3
*A20
350
ADDD
  3
*A21
350
C3B7
  3
*A22
350
46A2
  3
*A23
350
2766
  3
*A24
350
38D5
  3
*A25
350
46AB
  3
*A26
350
4FAE
  3
*A27
350
A9E7
  3
*A28
350
38D6
  3
*A3
350
5DF8
  3
*A4
350
795C
  3
*A5
350
2120
  3
*A6
350
2765
  3
*A7
350
54B2
  3
*A8
350
A3E9
  3
*A9
350
595A
  0
DICTIONARY
  5
58
102
{ACAD_REACTORS
330
1A
102
}
330
1A
100
AcDbDictionary
281
     1
  3
Model
350
5A
  3
ﾚｲｱｳﾄ1
350
5B
  0
DICTIONARY
  5
B1BE
102
{ACAD_REACTORS
330
1A
102
}
330
1A
100
AcDbDictionary
281
     1
  0
DICTIONARY
  5
19
102
{ACAD_REACTORS
330
1A
102
}
330
1A
100
AcDbDictionary
281
     1
  3
STANDARD
350
1D
  0
DICTIONARY
  5
59
102
{ACAD_REACTORS
330
1A
102
}
330
1A
100
AcDbDictionary
281
     1
  0
ACDBDICTIONARYWDFLT
  5
56
102
{ACAD_REACTORS
330
1A
102
}
330
1A
100
AcDbDictionary
281
     1
  3
Normal
350
57
100
AcDbDictionaryWithDefault
340
57
  0
DICTIONARY
  5
B1C0
102
{ACAD_REACTORS
330
1A
102
}
330
1A
100
AcDbDictionary
281
     1
  3
Standard
350
B1C1
  0
DICTIONARY
  5
C449
102
{ACAD_REACTORS
330
1A
102
}
330
1A
100
AcDbDictionary
281
     1
  0
DICTIONARY
  5
B97E
102
{ACAD_REACTORS
330
1A
102
}
330
1A
100
AcDbDictionary
281
     1
  3
CTABLESTYLE
350
B97F
  3
DIMASSOC
350
BA4F
  3
PROJECTNAME
350
BA50
  0
DICTIONARY
  5
C2B2
102
{ACAD_REACTORS
330
BEBB
102
}
330
BEBB
100
AcDbDictionary
281
     1
  0
DICTIONARY
  5
C2B1
102
{ACAD_REACTORS
330
BEBB
102
}
330
BEBB
100
AcDbDictionary
281
     1
1001
ACAD
1000
<All
  0
SORTENTSTABLE
  5
BA62
102
{ACAD_REACTORS
330
BA61
102
}
330
BA61
100
AcDbSortentsTable
330
2
331
20
  5
20
331
BDC8
  5
BDC8
331
B9CA
  5
B9CA
331
C24D
  5
C24D
331
BDD8
  5
BDD8
331
C255
  5
C255
331
BDE0
  5
BDE0
331
C0C6
  5
C0C7
331
C25D
  5
C25D
331
BDE8
  5
BE45
331
AFC5
  5
AFC5
331
B184
  5
B184
331
C236
  5
C236
331
C23E
  5
C23E
331
C246
  5
C246
331
21
  5
21
331
B9B3
  5
B9B3
331
BDC9
  5
BDC9
331
B9CB
  5
B9CB
331
C24E
  5
C24E
331
BDE1
  5
BDE1
331
C256
  5
C256
331
C0C7
  5
C128
331
C25E
  5
C25E
331
B17D
  5
B17D
331
BA13
  5
BA13
331
C008
  5
C015
331
BD12
  5
BD12
331
C237
  5
C237
331
C23F
  5
C23F
331
C247
  5
C247
331
BDCA
  5
BDCA
331
C058
  5
C059
331
BDD2
  5
BDD2
331
C060
  5
C0C6
331
C001
  5
C008
331
B1AD
  5
B1AD
331
B9D4
  5
B9D4
331
C24F
  5
C24F
331
C257
  5
C257
331
B176
  5
B176
331
BDE2
  5
BDE2
331
C128
  5
C12D
331
BA2C
  5
BA2C
331
B186
  5
B186
331
C230
  5
C230
331
AFCF
  5
AFCF
331
BD13
  5
BD13
331
BE4A
  5
BE94
331
C238
  5
C238
331
C240
  5
C240
331
BDCB
  5
BDCB
331
C059
  5
C05A
331
C248
  5
C248
331
C250
  5
C250
331
C258
  5
C258
331
BDE3
  5
BDE3
331
BA15
  5
BA15
331
BCE4
  5
BCE4
331
B187
  5
B187
331
C260
  5
C260
331
C231
  5
C231
331
B0B0
  5
B0B0
331
BD14
  5
BD14
331
C239
  5
C239
331
C241
  5
C241
331
4A3
  5
4A3
331
B118
  5
B118
331
B140
  5
B140
331
C05A
  5
C060
331
B9CE
  5
B9CE
331
BA65
  5
BA65
331
BDD4
  5
BDD4
331
C249
  5
C249
331
B9D6
  5
B9D6
331
C251
  5
C251
331
C259
  5
C259
331
BDE4
  5
BDE4
331
BB0D
  5
BB0D
331
C22A
  5
C22A
331
BA2E
  5
BA2E
331
BCE5
  5
BCE5
331
C261
  5
C261
331
C232
  5
C232
331
B190
  5
B190
331
C23A
  5
C23A
331
C242
  5
C242
331
B119
  5
B119
331
B1A0
  5
B1A0
331
BF04
  5
BF05
331
BA66
  5
BA66
331
C24A
  5
C24A
331
B9D7
  5
B9D7
331
C252
  5
C252
331
C25A
  5
C25A
331
BDE5
  5
BDE5
331
B181
  5
B181
331
C262
  5
C262
331
BE45
  5
BE46
331
C22B
  5
C22B
331
C233
  5
C233
331
BA57
  5
BA57
331
C23B
  5
C23B
331
C054
  5
C056
331
C243
  5
C243
331
BF05
  5
BF26
331
B15A
  5
B15A
331
B9D0
  5
B9D0
331
BA67
  5
BA67
331
C24B
  5
C24B
331
C253
  5
C253
331
B9D8
  5
B9D8
331
BDDE
  5
BDDE
331
C25B
  5
C25B
331
BDE6
  5
BDE7
331
B18A
  5
B18A
331
1F
  5
1F
331
BE46
  5
BE4A
331
C22C
  5
C22C
331
C015
  5
C017
331
BD17
  5
BD17
331
B192
  5
B192
331
C234
  5
C234
331
C23C
  5
C23C
331
BA58
  5
BA60
331
BA60
  5
BA58
331
C24C
  5
C24C
331
BF26
  5
C001
331
BA68
  5
BA68
331
C254
  5
C254
331
C25C
  5
C25C
331
BDE7
  5
BDE8
331
C12D
  5
BDE6
331
B183
  5
B183
331
C22D
  5
C22D
331
C235
  5
C235
331
BD18
  5
BD18
331
B193
  5
B193
331
C01E
  5
C054
331
C23D
  5
C23D
331
C245
  5
C245
331
C056
  5
C058
  0
GROUP
  5
3A0
102
{ACAD_REACTORS
330
18
102
}
330
18
100
AcDbGroup
300

 70
     1
 71
     1
  0
GROUP
  5
A9E8
102
{ACAD_REACTORS
330
18
102
}
330
18
100
AcDbGroup
300

 70
     1
 71
     1
  0
GROUP
  5
6398
102
{ACAD_REACTORS
330
18
102
}
330
18
100
AcDbGroup
300

 70
     1
 71
     1
  0
GROUP
  5
2FC7
102
{ACAD_REACTORS
330
18
102
}
330
18
100
AcDbGroup
300

 70
     1
 71
     1
  0
GROUP
  5
795A
102
{ACAD_REACTORS
330
18
102
}
330
18
100
AcDbGroup
300

 70
     1
 71
     1
  0
GROUP
  5
2FC6
102
{ACAD_REACTORS
330
18
102
}
330
18
100
AcDbGroup
300

 70
     1
 71
     1
  0
GROUP
  5
8936
102
{ACAD_REACTORS
330
18
102
}
330
18
100
AcDbGroup
300

 70
     1
 71
     1
  0
GROUP
  5
4FAD
102
{ACAD_REACTORS
330
18
102
}
330
18
100
AcDbGroup
300

 70
     1
 71
     1
  0
GROUP
  5
8937
102
{ACAD_REACTORS
330
18
102
}
330
18
100
AcDbGroup
300

 70
     1
 71
     1
  0
GROUP
  5
A3EA
102
{ACAD_REACTORS
330
18
102
}
330
18
100
AcDbGroup
300

 70
     1
 71
     1
  0
GROUP
  5
3A1
102
{ACAD_REACTORS
330
18
102
}
330
18
100
AcDbGroup
300

 70
     1
 71
     1
  0
GROUP
  5
ACC
102
{ACAD_REACTORS
330
18
102
}
330
18
100
AcDbGroup
300

 70
     1
 71
     1
  0
GROUP
  5
ADDD
102
{ACAD_REACTORS
330
18
102
}
330
18
100
AcDbGroup
300

 70
     1
 71
     1
  0
GROUP
  5
C3B7
102
{ACAD_REACTORS
330
18
102
}
330
18
100
AcDbGroup
300

 70
     1
 71
     1
340
C3B6
340
C3A8
340
C39A
340
C33B
340
C262
340
C261
340
C260
340
C25E
340
C25D
340
C25C
340
C25B
340
C25A
340
C259
340
C258
340
C257
340
C256
340
C255
340
C254
340
C253
340
C252
340
C251
340
C250
340
C24F
340
C24E
340
C24D
340
C24C
340
C24B
340
C24A
340
C249
340
C248
340
C247
340
C246
340
C245
340
C243
340
C242
340
C241
340
C240
340
C23F
340
C23E
340
C23D
340
C23C
340
C23B
340
C23A
340
C239
340
C238
340
C237
340
C236
340
C235
340
C234
340
C233
340
C232
340
C231
340
C230
340
C22D
340
C22C
340
C22B
340
C22A
340
C128
340
C0C7
340
C0C6
340
C060
340
C05A
340
C059
340
C058
340
C056
340
C054
340
C01E
340
C015
340
C008
340
C001
340
BF26
340
BF05
340
BF04
340
BE4A
340
BE46
340
BE45
340
BDE8
340
BDE7
340
BDE6
340
C12D
340
BDE5
340
BDE4
340
BDE3
340
BDE2
340
BDE1
340
BDE0
340
BDDE
340
BDD8
340
BDD4
340
BDD2
340
BDCB
340
BDCA
340
BDC9
340
BDC8
340
BD18
340
BD17
340
BD14
340
BD13
340
BD12
340
BCE5
340
BCE4
340
BB0D
340
BA68
340
BA67
340
BA66
340
BA65
340
BA58
340
BA60
340
BA57
340
BA2E
340
BA2C
340
BA15
340
BA13
340
B9D8
340
B9D7
340
B9D6
340
B9D4
340
B9D0
340
B9CE
340
B9CB
340
B9CA
340
B9B3
340
B192
340
B190
340
B18A
340
B187
340
B186
340
B184
340
B183
340
B181
340
B17D
340
B176
340
B15A
340
B140
340
B119
340
B118
340
B0B0
340
AFCF
340
AFC5
  0
GROUP
  5
46A2
102
{ACAD_REACTORS
330
18
102
}
330
18
100
AcDbGroup
300

 70
     1
 71
     1
  0
GROUP
  5
2766
102
{ACAD_REACTORS
330
18
102
}
330
18
100
AcDbGroup
300

 70
     1
 71
     1
  0
GROUP
  5
38D5
102
{ACAD_REACTORS
330
18
102
}
330
18
100
AcDbGroup
300

 70
     1
 71
     1
  0
GROUP
  5
46AB
102
{ACAD_REACTORS
330
18
102
}
330
18
100
AcDbGroup
300

 70
     1
 71
     1
  0
GROUP
  5
4FAE
102
{ACAD_REACTORS
330
18
102
}
330
18
100
AcDbGroup
300

 70
     1
 71
     1
  0
GROUP
  5
A9E7
102
{ACAD_REACTORS
330
18
102
}
330
18
100
AcDbGroup
300

 70
     1
 71
     1
  0
GROUP
  5
38D6
102
{ACAD_REACTORS
330
18
102
}
330
18
100
AcDbGroup
300

 70
     1
 71
     1
  0
GROUP
  5
5DF8
102
{ACAD_REACTORS
330
18
102
}
330
18
100
AcDbGroup
300

 70
     1
 71
     1
  0
GROUP
  5
795C
102
{ACAD_REACTORS
330
18
102
}
330
18
100
AcDbGroup
300

 70
     1
 71
     1
  0
GROUP
  5
2120
102
{ACAD_REACTORS
330
18
102
}
330
18
100
AcDbGroup
300

 70
     1
 71
     1
  0
GROUP
  5
2765
102
{ACAD_REACTORS
330
18
102
}
330
18
100
AcDbGroup
300

 70
     1
 71
     1
  0
GROUP
  5
54B2
102
{ACAD_REACTORS
330
18
102
}
330
18
100
AcDbGroup
300

 70
     1
 71
     1
  0
GROUP
  5
A3E9
102
{ACAD_REACTORS
330
18
102
}
330
18
100
AcDbGroup
300

 70
     1
 71
     1
  0
GROUP
  5
595A
102
{ACAD_REACTORS
330
18
102
}
330
18
100
AcDbGroup
300

 70
     1
 71
     1
  0
LAYOUT
  5
5A
102
{ACAD_XDICTIONARY
360
C44A
102
}
102
{ACAD_REACTORS
330
58
102
}
330
58
100
AcDbPlotSettings
  1

  2
none_device
  4
Letter_(8.50_x_11.00_Inches)
  6

 40
6.349999904632568
 41
6.349999904632568
 42
6.350006103515625
 43
6.350006103515625
 44
215.8999938964844
 45
279.3999938964844
 46
0.0
 47
0.0
 48
0.0
 49
0.0
140
0.0
141
0.0
142
1.0
143
225.6774977072561
 70
 11952
 72
     0
 73
     1
 74
     0
  7
monochrome.ctb
 75
     0
147
0.0044311019492833
148
22480.86193866463
149
147.8683046958414
100
AcDbLayout
  1
Model
 70
     1
 71
     0
 10
0.0
 20
0.0
 11
12.0
 21
9.0
 12
0.0
 22
0.0
 32
0.0
 14
0.0
 24
0.0
 34
0.0
 15
0.0
 25
0.0
 35
0.0
146
0.0
 13
0.0
 23
0.0
 33
0.0
 16
1.0
 26
0.0
 36
0.0
 17
0.0
 27
1.0
 37
0.0
 76
     0
330
2
1001
ACAD_PSEXT
1000
なし
1000
なし
1000
適切ではありません
1000
新しいプロッタ環境設定名を選択しない限り、レイアウトは印刷されません。
1070
     0
  0
LAYOUT
  5
5B
102
{ACAD_XDICTIONARY
360
C44C
102
}
102
{ACAD_REACTORS
330
58
102
}
330
58
100
AcDbPlotSettings
  1

  2
なし
  4

  6

 40
0.0
 41
0.0
 42
0.0
 43
0.0
 44
0.0
 45
0.0
 46
0.0
 47
0.0
 48
0.0
 49
0.0
140
0.0
141
0.0
142
1.0
143
1.0
 70
   688
 72
     0
 73
     0
 74
     5
  7
monochrome.ctb
 75
    16
147
1.0
148
0.0
149
0.0
100
AcDbLayout
  1
ﾚｲｱｳﾄ1
 70
     1
 71
     1
 10
0.0
 20
0.0
 11
12.0
 21
9.0
 12
0.0
 22
0.0
 32
0.0
 14
1.000000000000000E+20
 24
1.000000000000000E+20
 34
1.000000000000000E+20
 15
-1.000000000000000E+20
 25
-1.000000000000000E+20
 35
-1.000000000000000E+20
146
0.0
 13
0.0
 23
0.0
 33
0.0
 16
1.0
 26
0.0
 36
0.0
 17
0.0
 27
1.0
 37
0.0
 76
     0
330
7
  0
MLINESTYLE
  5
1D
102
{ACAD_REACTORS
330
19
102
}
330
19
100
AcDbMlineStyle
  2
STANDARD
 70
     0
  3

 62
   256
 51
90.0
 52
90.0
 71
     2
 49
0.5
 62
   256
  6
BYLAYER
 49
-0.5
 62
   256
  6
BYLAYER
  0
ACDBPLACEHOLDER
  5
57
102
{ACAD_REACTORS
330
56
102
}
330
56
  0
TABLESTYLE
  5
B1C1
102
{ACAD_REACTORS
330
B1C0
102
}
330
B1C0
100
AcDbTableStyle
  3
Standard
 70
     0
 71
     0
 40
0.06
 41
0.06
280
     0
281
     0
  7
STANDARD
140
0.18
170
     2
 62
     0
 63
     7
283
     0
274
    -2
284
     1
 64
     0
275
    -2
285
     1
 65
     0
276
    -2
286
     1
 66
     0
277
    -2
287
     1
 67
     0
278
    -2
288
     1
 68
     0
279
    -2
289
     1
 69
     0
  7
STANDARD
140
0.25
170
     5
 62
     0
 63
     7
283
     0
274
    -2
284
     1
 64
     0
275
    -2
285
     1
 65
     0
276
    -2
286
     1
 66
     0
277
    -2
287
     1
 67
     0
278
    -2
288
     1
 68
     0
279
    -2
289
     1
 69
     0
  7
STANDARD
140
0.18
170
     5
 62
     0
 63
     7
283
     0
274
    -2
284
     1
 64
     0
275
    -2
285
     1
 65
     0
276
    -2
286
     1
 66
     0
277
    -2
287
     1
 67
     0
278
    -2
288
     1
 68
     0
279
    -2
289
     1
 69
     0
  0
DICTIONARYVAR
  5
B97F
102
{ACAD_REACTORS
330
B97E
102
}
330
B97E
100
DictionaryVariables
280
     0
  1
STANDARD
  0
DICTIONARYVAR
  5
BA4F
102
{ACAD_REACTORS
330
B97E
102
}
330
B97E
100
DictionaryVariables
280
     0
  1
1
  0
DICTIONARYVAR
  5
BA50
102
{ACAD_REACTORS
330
B97E
102
}
330
B97E
100
DictionaryVariables
280
     0
  1

  0
DICTIONARY
  5
C44A
330
5A
100
AcDbDictionary
280
     1
281
     1
  3
ACAD_XREC_ROUNDTRIP
360
C44B
  0
DICTIONARY
  5
C44C
330
5B
100
AcDbDictionary
280
     1
281
     1
  3
ACAD_XREC_ROUNDTRIP
360
C44D
  0
XRECORD
  5
C44B
102
{ACAD_REACTORS
330
C44A
102
}
330
C44A
100
AcDbXrecord
280
     1
102
SHADEPLOT
 70
     0
102
SHADEPLOTRESLEVEL
 70
     2
102
SHADEPLOTCUSTOMDPI
 70
   300
  0
XRECORD
  5
C44D
102
{ACAD_REACTORS
330
C44C
102
}
330
C44C
100
AcDbXrecord
280
     1
102
SHADEPLOT
 70
     0
102
SHADEPLOTRESLEVEL
 70
     2
102
SHADEPLOTCUSTOMDPI
 70
   300
  0
ENDSEC
  0
EOF
