  0
SECTION
  2
HEADER
  9
$ACADVER
  1
AC1015
  9
$ACADMAINTVER
 70
    20
  9
$DWGCODEPAGE
  3
ANSI_932
  9
$INSBASE
 10
922.019522
 20
-675.4306699999999
 30
0.0
  9
$EXTMIN
 10
-0.0186341067426383
 20
-36.06991604945188
 30
-0.0015258207003583
  9
$EXTMAX
 10
819.9446200894174
 20
1503.785235534532
 30
0.0000000349246037
  9
$LIMMIN
 10
0.0
 20
0.0
  9
$LIMMAX
 10
420.0
 20
297.0
  9
$ORTHOMODE
 70
     1
  9
$REGENMODE
 70
     1
  9
$FILLMODE
 70
     1
  9
$QTEXTMODE
 70
     0
  9
$MIRRTEXT
 70
     1
  9
$LTSCALE
 40
20.0
  9
$ATTMODE
 70
     1
  9
$TEXTSIZE
 40
30.0
  9
$TRACEWID
 40
0.05
  9
$TEXTSTYLE
  7
SUNPOU
  9
$CLAYER
  8
0
  9
$CELTYPE
  6
BYLAYER
  9
$CECOLOR
 62
   256
  9
$CELTSCALE
 40
1.0
  9
$DISPSILH
 70
     0
  9
$DIMSCALE
 40
1.0
  9
$DIMASZ
 40
3.0
  9
$DIMEXO
 40
3.0
  9
$DIMDLI
 40
0.38
  9
$DIMRND
 40
0.0
  9
$DIMDLE
 40
0.0
  9
$DIMEXE
 40
0.0
  9
$DIMTP
 40
0.0
  9
$DIMTM
 40
0.0
  9
$DIMTXT
 40
10.0
  9
$DIMCEN
 40
0.0
  9
$DIMTSZ
 40
0.0
  9
$DIMTOL
 70
     0
  9
$DIMLIM
 70
     0
  9
$DIMTIH
 70
     0
  9
$DIMTOH
 70
     0
  9
$DIMSE1
 70
     0
  9
$DIMSE2
 70
     0
  9
$DIMTAD
 70
     1
  9
$DIMZIN
 70
     0
  9
$DIMBLK
  1
Dot
  9
$DIMASO
 70
     1
  9
$DIMSHO
 70
     1
  9
$DIMPOST
  1

  9
$DIMAPOST
  1

  9
$DIMALT
 70
     0
  9
$DIMALTD
 70
     2
  9
$DIMALTF
 40
25.4
  9
$DIMLFAC
 40
1.0
  9
$DIMTOFL
 70
     0
  9
$DIMTVP
 40
0.0
  9
$DIMTIX
 70
     0
  9
$DIMSOXD
 70
     0
  9
$DIMSAH
 70
     0
  9
$DIMBLK1
  1

  9
$DIMBLK2
  1

  9
$DIMSTYLE
  2
STANDARD
  9
$DIMCLRD
 70
    60
  9
$DIMCLRE
 70
    70
  9
$DIMCLRT
 70
    60
  9
$DIMTFAC
 40
0.064286
  9
$DIMGAP
 40
5.0
  9
$DIMJUST
 70
     0
  9
$DIMSD1
 70
     0
  9
$DIMSD2
 70
     0
  9
$DIMTOLJ
 70
     1
  9
$DIMTZIN
 70
     0
  9
$DIMALTZ
 70
     0
  9
$DIMALTTZ
 70
     0
  9
$DIMUPT
 70
     0
  9
$DIMDEC
 70
     0
  9
$DIMTDEC
 70
     0
  9
$DIMALTU
 70
     2
  9
$DIMALTTD
 70
     2
  9
$DIMTXSTY
  7
SUNPOU
  9
$DIMAUNIT
 70
     0
  9
$DIMADEC
 70
     0
  9
$DIMALTRND
 40
0.0
  9
$DIMAZIN
 70
     0
  9
$DIMDSEP
 70
    46
  9
$DIMATFIT
 70
     3
  9
$DIMFRAC
 70
     0
  9
$DIMLDRBLK
  1

  9
$DIMLUNIT
 70
     2
  9
$DIMLWD
 70
    -2
  9
$DIMLWE
 70
    -2
  9
$DIMTMOVE
 70
     0
  9
$LUNITS
 70
     2
  9
$LUPREC
 70
     5
  9
$SKETCHINC
 40
0.1
  9
$FILLETRAD
 40
0.0
  9
$AUNITS
 70
     0
  9
$AUPREC
 70
     0
  9
$MENU
  1
acad
  9
$ELEVATION
 40
0.0
  9
$PELEVATION
 40
0.0
  9
$THICKNESS
 40
0.0
  9
$LIMCHECK
 70
     0
  9
$CHAMFERA
 40
0.0
  9
$CHAMFERB
 40
0.0
  9
$CHAMFERC
 40
0.0
  9
$CHAMFERD
 40
0.0
  9
$SKPOLY
 70
     0
  9
$TDCREATE
 40
2450623.654673033
  9
$TDUCREATE
 40
2450623.279673032
  9
$TDUPDATE
 40
2454580.667956273
  9
$TDUUPDATE
 40
2454580.292956273
  9
$TDINDWG
 40
0.7040332060
  9
$TDUSRTIMER
 40
0.7040330324
  9
$USRTIMER
 70
     1
  9
$ANGBASE
 50
0.0
  9
$ANGDIR
 70
     0
  9
$PDMODE
 70
     0
  9
$PDSIZE
 40
0.0
  9
$PLINEWID
 40
0.0
  9
$SPLFRAME
 70
     0
  9
$SPLINETYPE
 70
     6
  9
$SPLINESEGS
 70
     8
  9
$HANDSEED
  5
C664
  9
$SURFTAB1
 70
     6
  9
$SURFTAB2
 70
     6
  9
$SURFTYPE
 70
     6
  9
$SURFU
 70
     6
  9
$SURFV
 70
     6
  9
$UCSBASE
  2

  9
$UCSNAME
  2

  9
$UCSORG
 10
0.0
 20
0.0
 30
0.0
  9
$UCSXDIR
 10
1.0
 20
0.0
 30
0.0
  9
$UCSYDIR
 10
0.0
 20
1.0
 30
0.0
  9
$UCSORTHOREF
  2

  9
$UCSORTHOVIEW
 70
     0
  9
$UCSORGTOP
 10
0.0
 20
0.0
 30
0.0
  9
$UCSORGBOTTOM
 10
0.0
 20
0.0
 30
0.0
  9
$UCSORGLEFT
 10
0.0
 20
0.0
 30
0.0
  9
$UCSORGRIGHT
 10
0.0
 20
0.0
 30
0.0
  9
$UCSORGFRONT
 10
0.0
 20
0.0
 30
0.0
  9
$UCSORGBACK
 10
0.0
 20
0.0
 30
0.0
  9
$PUCSBASE
  2

  9
$PUCSNAME
  2

  9
$PUCSORG
 10
0.0
 20
0.0
 30
0.0
  9
$PUCSXDIR
 10
1.0
 20
0.0
 30
0.0
  9
$PUCSYDIR
 10
0.0
 20
1.0
 30
0.0
  9
$PUCSORTHOREF
  2

  9
$PUCSORTHOVIEW
 70
     0
  9
$PUCSORGTOP
 10
0.0
 20
0.0
 30
0.0
  9
$PUCSORGBOTTOM
 10
0.0
 20
0.0
 30
0.0
  9
$PUCSORGLEFT
 10
0.0
 20
0.0
 30
0.0
  9
$PUCSORGRIGHT
 10
0.0
 20
0.0
 30
0.0
  9
$PUCSORGFRONT
 10
0.0
 20
0.0
 30
0.0
  9
$PUCSORGBACK
 10
0.0
 20
0.0
 30
0.0
  9
$USERI1
 70
     0
  9
$USERI2
 70
     0
  9
$USERI3
 70
     0
  9
$USERI4
 70
     0
  9
$USERI5
 70
     0
  9
$USERR1
 40
0.0
  9
$USERR2
 40
0.0
  9
$USERR3
 40
0.0
  9
$USERR4
 40
0.0
  9
$USERR5
 40
0.0
  9
$WORLDVIEW
 70
     1
  9
$SHADEDGE
 70
     3
  9
$SHADEDIF
 70
    70
  9
$TILEMODE
 70
     1
  9
$MAXACTVP
 70
    16
  9
$PINSBASE
 10
0.0
 20
0.0
 30
0.0
  9
$PLIMCHECK
 70
     0
  9
$PEXTMIN
 10
1.000000000000000E+20
 20
1.000000000000000E+20
 30
1.000000000000000E+20
  9
$PEXTMAX
 10
-1.000000000000000E+20
 20
-1.000000000000000E+20
 30
-1.000000000000000E+20
  9
$PLIMMIN
 10
0.0
 20
0.0
  9
$PLIMMAX
 10
12.0
 20
9.0
  9
$UNITMODE
 70
     0
  9
$VISRETAIN
 70
     0
  9
$PLINEGEN
 70
     0
  9
$PSLTSCALE
 70
     1
  9
$TREEDEPTH
 70
  3020
  9
$CMLSTYLE
  2
STANDARD
  9
$CMLJUST
 70
     0
  9
$CMLSCALE
 40
1.0
  9
$PROXYGRAPHICS
 70
     1
  9
$MEASUREMENT
 70
     0
  9
$CELWEIGHT
370
    -1
  9
$ENDCAPS
280
     0
  9
$JOINSTYLE
280
     0
  9
$LWDISPLAY
290
     0
  9
$INSUNITS
 70
     0
  9
$HYPERLINKBASE
  1

  9
$STYLESHEET
  1
monochrome.ctb
  9
$XEDIT
290
     1
  9
$CEPSNTYPE
380
     0
  9
$PSTYLEMODE
290
     1
  9
$FINGERPRINTGUID
  2
{FB88A696-E29C-4009-92AF-A3599A8169D5}
  9
$VERSIONGUID
  2
{255A6B00-31A0-4290-9696-AC8AE1D25BF2}
  9
$EXTNAMES
290
     1
  9
$PSVPSCALE
 40
0.0
  9
$OLESTARTUP
290
     0
  0
ENDSEC
  0
SECTION
  2
CLASSES
  0
CLASS
  1
DICTIONARYVAR
  2
AcDbDictionaryVar
  3
ObjectDBX Classes
 90
        0
280
     0
281
     0
  0
CLASS
  1
ACDBDICTIONARYWDFLT
  2
AcDbDictionaryWithDefault
  3
ObjectDBX Classes
 90
        0
280
     0
281
     0
  0
CLASS
  1
ACDBPLACEHOLDER
  2
AcDbPlaceHolder
  3
ObjectDBX Classes
 90
        0
280
     0
281
     0
  0
CLASS
  1
LAYOUT
  2
AcDbLayout
  3
ObjectDBX Classes
 90
        0
280
     0
281
     0
  0
CLASS
  1
TABLESTYLE
  2
AcDbTableStyle
  3
ObjectDBX Classes
 90
     2047
280
     0
281
     0
  0
CLASS
  1
SORTENTSTABLE
  2
AcDbSortentsTable
  3
ObjectDBX Classes
 90
        0
280
     0
281
     0
  0
ENDSEC
  0
SECTION
  2
TABLES
  0
TABLE
  2
VPORT
  5
12
330
0
100
AcDbSymbolTable
 70
     3
  0
VPORT
  5
C65E
330
12
100
AcDbSymbolTableRecord
100
AcDbViewportTableRecord
  2
*Active
 70
     0
 10
0.0
 20
0.0
 11
1.0
 21
1.0
 12
409.9629929913374
 22
733.8576597425402
 13
0.0
 23
0.0
 14
1.0
 24
1.0
 15
0.0
 25
0.0
 16
0.0
 26
0.0
 36
1.0
 17
0.0
 27
0.0
 37
0.0
 40
1551.609771061724
 41
1.528662420382165
 42
50.0
 43
0.0
 44
0.0
 50
0.0
 51
0.0
 71
     0
 72
 20000
 73
     1
 74
     1
 75
     0
 76
     0
 77
     0
 78
     0
281
     0
 65
     1
110
0.0
120
0.0
130
0.0
111
1.0
121
0.0
131
0.0
112
0.0
122
1.0
132
0.0
 79
     0
146
0.0
  0
ENDTAB
  0
TABLE
  2
LTYPE
  5
D
330
0
100
AcDbSymbolTable
 70
     2
  0
LTYPE
  5
E
330
D
100
AcDbSymbolTableRecord
100
AcDbLinetypeTableRecord
  2
BYBLOCK
 70
     0
  3

 72
    65
 73
     0
 40
0.0
  0
LTYPE
  5
F
330
D
100
AcDbSymbolTableRecord
100
AcDbLinetypeTableRecord
  2
BYLAYER
 70
     0
  3

 72
    65
 73
     0
 40
0.0
  0
LTYPE
  5
5
330
D
100
AcDbSymbolTableRecord
100
AcDbLinetypeTableRecord
  2
CONTINUOUS
 70
     0
  3
Solid line
 72
    65
 73
     0
 40
0.0
  0
LTYPE
  5
1AC
330
D
100
AcDbSymbolTableRecord
100
AcDbLinetypeTableRecord
  2
CENTER
 70
     0
  3
Center ____ _ ____ _ ____ _ ____ _ ____ _ ____
 72
    65
 73
     4
 40
2.0
 49
1.25
 74
     0
 49
-0.25
 74
     0
 49
0.25
 74
     0
 49
-0.25
 74
     0
  0
ENDTAB
  0
TABLE
  2
LAYER
  5
A
102
{ACAD_XDICTIONARY
360
BEBB
102
}
330
0
100
AcDbSymbolTable
 70
     6
  0
LAYER
  5
4
330
A
100
AcDbSymbolTableRecord
100
AcDbLayerTableRecord
  2
0
 70
     0
 62
     7
  6
CONTINUOUS
370
    -3
390
57
  0
LAYER
  5
25
330
A
100
AcDbSymbolTableRecord
100
AcDbLayerTableRecord
  2
KIJUN
 70
     0
 62
     7
  6
CONTINUOUS
370
    -3
390
57
  0
LAYER
  5
22
330
A
100
AcDbSymbolTableRecord
100
AcDbLayerTableRecord
  2
HOJO
 70
     0
 62
     3
  6
CONTINUOUS
370
    -3
390
57
  0
LAYER
  5
1B
330
A
100
AcDbSymbolTableRecord
100
AcDbLayerTableRecord
  2
WAKU
 70
     0
 62
     1
  6
CONTINUOUS
370
    -3
390
57
  0
LAYER
  5
31
330
A
100
AcDbSymbolTableRecord
100
AcDbLayerTableRecord
  2
DEFPOINTS
 70
     0
 62
     7
  6
CONTINUOUS
290
     0
370
    -3
390
57
  0
LAYER
  5
28
330
A
100
AcDbSymbolTableRecord
100
AcDbLayerTableRecord
  2
SUNPOU
 70
     0
 62
    70
  6
CONTINUOUS
370
    -3
390
57
  0
ENDTAB
  0
TABLE
  2
STYLE
  5
B
330
0
100
AcDbSymbolTable
 70
     3
  0
STYLE
  5
C
330
B
100
AcDbSymbolTableRecord
100
AcDbTextStyleTableRecord
  2
STANDARD
 70
     0
 40
0.0
 41
1.0
 50
0.0
 71
     0
 42
0.2
  3
txt
  4

  0
STYLE
  5
1C
330
B
100
AcDbSymbolTableRecord
100
AcDbTextStyleTableRecord
  2
SUNPOU
 70
     0
 40
0.0
 41
1.0
 50
0.0
 71
     0
 42
30.0
  3
txt
  4
bigfont
  0
STYLE
  5
1AD
330
B
100
AcDbSymbolTableRecord
100
AcDbTextStyleTableRecord
  2
LIFE
 70
     0
 40
0.0
 41
0.7
 50
0.0
 71
     0
 42
10.0
  3
romans
  4
extfont
  0
ENDTAB
  0
TABLE
  2
VIEW
  5
10
330
0
100
AcDbSymbolTable
 70
     0
  0
ENDTAB
  0
TABLE
  2
UCS
  5
11
330
0
100
AcDbSymbolTable
 70
     0
  0
ENDTAB
  0
TABLE
  2
APPID
  5
14
330
0
100
AcDbSymbolTable
 70
     3
  0
APPID
  5
15
330
14
100
AcDbSymbolTableRecord
100
AcDbRegAppTableRecord
  2
ACAD
 70
     0
  0
APPID
  5
B946
330
14
100
AcDbSymbolTableRecord
100
AcDbRegAppTableRecord
  2
ACAD_EXEMPT_FROM_CAD_STANDARDS
 70
     0
  0
APPID
  5
BEBE
330
14
100
AcDbSymbolTableRecord
100
AcDbRegAppTableRecord
  2
ACAD_PSEXT
 70
     0
  0
ENDTAB
  0
TABLE
  2
DIMSTYLE
  5
16
330
0
100
AcDbSymbolTable
 70
     2
100
AcDbDimStyleTable
 71
     1
340
1E
  0
DIMSTYLE
105
1E
330
16
100
AcDbSymbolTableRecord
100
AcDbDimStyleTableRecord
  2
STANDARD
 70
     0
340
C
  0
DIMSTYLE
105
1AE
102
{ACAD_REACTORS
330
B193
330
B1A0
330
B1AD
330
C5E0
330
C608
330
C61E
102
}
330
16
100
AcDbSymbolTableRecord
100
AcDbDimStyleTableRecord
  2
STANDARD$0
 70
     0
 40
2.0
 41
1.0
 42
2.0
 43
0.0
 44
1.0
 73
     0
 74
     0
 77
     3
 78
     9
140
4.5
141
0.0
147
1.0
172
     1
173
     1
178
     3
271
     2
340
1AD
341
109
343
109
344
109
  0
ENDTAB
  0
TABLE
  2
BLOCK_RECORD
  5
1
330
0
100
AcDbSymbolTable
 70
    33
  0
BLOCK_RECORD
  5
2
102
{ACAD_XDICTIONARY
360
BA61
102
}
330
1
100
AcDbSymbolTableRecord
100
AcDbBlockTableRecord
  2
*MODEL_SPACE
340
5A
  0
BLOCK_RECORD
  5
7
330
1
100
AcDbSymbolTableRecord
100
AcDbBlockTableRecord
  2
*PAPER_SPACE
340
5B
  0
BLOCK_RECORD
  5
109
330
1
100
AcDbSymbolTableRecord
100
AcDbBlockTableRecord
  2
_Dot
340
0
102
{BLKREFS
331
C361
331
C362
331
C36F
331
C370
331
C37E
331
C37F
331
C392
331
C393
331
C3A0
331
C3A1
331
C3AE
331
C3AF
331
C3DB
331
C3DC
331
C3EC
331
C3ED
331
C41B
331
C41C
331
C428
331
C429
331
C437
331
C438
331
C446
331
C447
331
C455
331
C456
331
C46A
331
C46B
331
C47D
331
C47E
331
C491
331
C492
331
C4AB
331
C4AC
331
C4BA
331
C4BB
331
C4CD
331
C4CE
331
C4DA
331
C4DB
331
C4E9
331
C4EA
331
C517
331
C518
331
C531
331
C532
331
C57F
331
C580
331
C59A
331
C59B
331
C5A3
331
C5A4
331
C5B0
331
C5B1
331
C5BD
331
C5BE
331
C602
331
C603
331
C640
331
C641
331
C652
331
C653
102
}
  0
BLOCK_RECORD
  5
B194
330
1
100
AcDbSymbolTableRecord
100
AcDbBlockTableRecord
  2
*D1
340
0
  0
BLOCK_RECORD
  5
B1A1
330
1
100
AcDbSymbolTableRecord
100
AcDbBlockTableRecord
  2
*D2
340
0
  0
BLOCK_RECORD
  5
B1AE
330
1
100
AcDbSymbolTableRecord
100
AcDbBlockTableRecord
  2
*D3
340
0
  0
BLOCK_RECORD
  5
C5E1
330
1
100
AcDbSymbolTableRecord
100
AcDbBlockTableRecord
  2
*D30
340
0
  0
BLOCK_RECORD
  5
C609
330
1
100
AcDbSymbolTableRecord
100
AcDbBlockTableRecord
  2
*D31
340
0
  0
BLOCK_RECORD
  5
C61F
330
1
100
AcDbSymbolTableRecord
100
AcDbBlockTableRecord
  2
*D32
340
0
  0
ENDTAB
  0
ENDSEC
  0
SECTION
  2
BLOCKS
  0
BLOCK
  5
3
330
2
100
AcDbEntity
  8
0
100
AcDbBlockBegin
  2
*MODEL_SPACE
 70
     0
 10
0.0
 20
0.0
 30
0.0
  3
*MODEL_SPACE
  1

  0
ENDBLK
  5
6
330
2
100
AcDbEntity
  8
0
100
AcDbBlockEnd
  0
BLOCK
  5
8
330
7
100
AcDbEntity
 67
     1
  8
0
100
AcDbBlockBegin
  2
*PAPER_SPACE
 70
     0
 10
0.0
 20
0.0
 30
0.0
  3
*PAPER_SPACE
  1

  0
ENDBLK
  5
9
330
7
100
AcDbEntity
 67
     1
  8
0
100
AcDbBlockEnd
  0
BLOCK
  5
10C
330
109
100
AcDbEntity
  8
0
100
AcDbBlockBegin
  2
_Dot
 70
     0
 10
0.0
 20
0.0
 30
0.0
  3
_Dot
  1

  0
LWPOLYLINE
  5
10A
330
109
100
AcDbEntity
  8
0
  6
ByBlock
 62
     0
100
AcDbPolyline
 90
        2
 70
     1
 43
0.5
 10
-0.25
 20
0.0
 42
1.0
 10
0.25
 20
0.0
 42
1.0
  0
LINE
  5
10B
330
109
100
AcDbEntity
  8
0
  6
ByBlock
 62
     0
370
    -2
100
AcDbLine
 10
-0.5
 20
0.0
 30
0.0
 11
-1.0
 21
0.0
 31
0.0
  0
ENDBLK
  5
10D
330
109
100
AcDbEntity
  8
0
100
AcDbBlockEnd
  0
BLOCK
  5
B19E
330
B194
100
AcDbEntity
  8
0
100
AcDbBlockBegin
  2
*D1
 70
     1
 10
0.0
 20
0.0
 30
0.0
  3
*D1
  1

  0
LINE
  5
C57C
330
B194
100
AcDbEntity
  8
SUNPOU
 62
    70
370
    -2
100
AcDbLine
 10
283.9012349950605
 20
297.4178380622402
 30
0.0
 11
283.9012349950605
 21
184.8552434265875
 31
0.0
  0
LINE
  5
C57D
330
B194
100
AcDbEntity
  8
SUNPOU
 62
    70
370
    -2
100
AcDbLine
 10
398.9012349950603
 20
297.4178380622402
 30
0.0
 11
398.9012349950603
 21
184.8552434265875
 31
0.0
  0
LINE
  5
C57E
330
B194
100
AcDbEntity
  8
SUNPOU
 62
    60
370
    -2
100
AcDbLine
 10
289.9012349950605
 20
184.8552434265875
 30
0.0
 11
392.9012349950604
 21
184.8552434265875
 31
0.0
  0
INSERT
  5
C57F
330
B194
100
AcDbEntity
  8
SUNPOU
 62
    60
370
    -2
100
AcDbBlockReference
  2
_Dot
 10
283.9012349950605
 20
184.8552434265875
 30
0.0
 41
6.0
 42
6.0
 43
6.0
 50
180.0
  0
INSERT
  5
C580
330
B194
100
AcDbEntity
  8
SUNPOU
 62
    60
370
    -2
100
AcDbBlockReference
  2
_Dot
 10
398.9012349950603
 20
184.8552434265875
 30
0.0
 41
6.0
 42
6.0
 43
6.0
  0
MTEXT
  5
C581
330
B194
100
AcDbEntity
  8
SUNPOU
 62
    60
100
AcDbMText
 10
341.4012349950604
 20
204.8552434265876
 30
0.0
 40
20.0
 41
0.0
 71
     5
 72
     1
  1
\A1;115
  7
SUNPOU
 73
     1
 44
1.0
1001
ACAD
1000
MTEXTBEGIN
1070
    73
1070
     1
1070
    44
1040
1.0
1070
    74
1070
     0
1000
MTEXTEND
  0
POINT
  5
C582
330
B194
100
AcDbEntity
  8
DEFPOINTS
 62
     0
100
AcDbPoint
 10
283.9012349950605
 20
303.4178380622402
 30
0.0
  0
POINT
  5
C583
330
B194
100
AcDbEntity
  8
DEFPOINTS
 62
     0
100
AcDbPoint
 10
398.9012349950603
 20
303.4178380622402
 30
0.0
  0
POINT
  5
C584
330
B194
100
AcDbEntity
  8
DEFPOINTS
 62
     0
100
AcDbPoint
 10
398.9012349950603
 20
184.8552434265875
 30
0.0
  0
ENDBLK
  5
B19F
330
B194
100
AcDbEntity
  8
0
100
AcDbBlockEnd
  0
BLOCK
  5
B1AB
330
B1A1
100
AcDbEntity
  8
0
100
AcDbBlockBegin
  2
*D2
 70
     1
 10
0.0
 20
0.0
 30
0.0
  3
*D2
  1

  0
LINE
  5
C597
330
B1A1
100
AcDbEntity
  8
SUNPOU
 62
    70
370
    -2
100
AcDbLine
 10
283.9012349950605
 20
1407.41783806224
 30
0.0
 11
283.9012349950605
 21
1473.739341550477
 31
0.0
  0
LINE
  5
C598
330
B1A1
100
AcDbEntity
  8
SUNPOU
 62
    70
370
    -2
100
AcDbLine
 10
398.9012349950603
 20
1407.41783806224
 30
0.0
 11
398.9012349950603
 21
1473.739341550477
 31
0.0
  0
LINE
  5
C599
330
B1A1
100
AcDbEntity
  8
SUNPOU
 62
    60
370
    -2
100
AcDbLine
 10
289.9012349950605
 20
1473.739341550477
 30
0.0
 11
392.9012349950604
 21
1473.739341550477
 31
0.0
  0
INSERT
  5
C59A
330
B1A1
100
AcDbEntity
  8
SUNPOU
 62
    60
370
    -2
100
AcDbBlockReference
  2
_Dot
 10
283.9012349950605
 20
1473.739341550477
 30
0.0
 41
6.0
 42
6.0
 43
6.0
 50
180.0
  0
INSERT
  5
C59B
330
B1A1
100
AcDbEntity
  8
SUNPOU
 62
    60
370
    -2
100
AcDbBlockReference
  2
_Dot
 10
398.9012349950603
 20
1473.739341550477
 30
0.0
 41
6.0
 42
6.0
 43
6.0
  0
MTEXT
  5
C59C
330
B1A1
100
AcDbEntity
  8
SUNPOU
 62
    60
100
AcDbMText
 10
341.4012349950604
 20
1493.739341550477
 30
0.0
 40
20.0
 41
0.0
 71
     5
 72
     1
  1
\A1;115
  7
SUNPOU
 73
     1
 44
1.0
1001
ACAD
1000
MTEXTBEGIN
1070
    73
1070
     1
1070
    44
1040
1.0
1070
    74
1070
     0
1000
MTEXTEND
  0
POINT
  5
C59D
330
B1A1
100
AcDbEntity
  8
DEFPOINTS
 62
     0
100
AcDbPoint
 10
283.9012349950605
 20
1401.41783806224
 30
0.0
  0
POINT
  5
C59E
330
B1A1
100
AcDbEntity
  8
DEFPOINTS
 62
     0
100
AcDbPoint
 10
398.9012349950603
 20
1401.41783806224
 30
0.0
  0
POINT
  5
C59F
330
B1A1
100
AcDbEntity
  8
DEFPOINTS
 62
     0
100
AcDbPoint
 10
398.9012349950603
 20
1473.739341550477
 30
0.0
  0
ENDBLK
  5
B1AC
330
B1A1
100
AcDbEntity
  8
0
100
AcDbBlockEnd
  0
BLOCK
  5
B1B8
330
B1AE
100
AcDbEntity
  8
0
100
AcDbBlockBegin
  2
*D3
 70
     1
 10
0.0
 20
0.0
 30
0.0
  3
*D3
  1

  0
LINE
  5
C5A0
330
B1AE
100
AcDbEntity
  8
SUNPOU
 62
    70
370
    -2
100
AcDbLine
 10
279.9012349950605
 20
1403.417838062239
 30
0.0
 11
80.6220498851769
 21
1403.417838062239
 31
0.0
  0
LINE
  5
C5A1
330
B1AE
100
AcDbEntity
  8
SUNPOU
 62
    70
370
    -2
100
AcDbLine
 10
277.9012349950605
 20
303.4178380622402
 30
0.0
 11
80.62204988517665
 21
303.4178380622403
 31
0.0
  0
LINE
  5
C5A2
330
B1AE
100
AcDbEntity
  8
SUNPOU
 62
    60
370
    -2
100
AcDbLine
 10
80.62204988517688
 20
1397.417838062239
 30
0.0
 11
80.62204988517663
 21
309.4178380622403
 31
0.0
  0
INSERT
  5
C5A3
330
B1AE
100
AcDbEntity
  8
SUNPOU
 62
    60
370
    -2
100
AcDbBlockReference
  2
_Dot
 10
80.62204988517688
 20
1403.417838062239
 30
0.0
 41
6.0
 42
6.0
 43
6.0
 50
90.0
  0
INSERT
  5
C5A4
330
B1AE
100
AcDbEntity
  8
SUNPOU
 62
    60
370
    -2
100
AcDbBlockReference
  2
_Dot
 10
80.62204988517663
 20
303.4178380622403
 30
0.0
 41
6.0
 42
6.0
 43
6.0
 50
270.0
  0
MTEXT
  5
C5A5
330
B1AE
100
AcDbEntity
  8
SUNPOU
 62
    60
100
AcDbMText
 10
60.62204988517661
 20
853.4178380622398
 30
0.0
 40
20.0
 41
0.0
 71
     5
 72
     1
  1
\A1;1100
  7
SUNPOU
 11
0.0000000000000001
 21
1.0
 31
0.0
 73
     1
 44
1.0
1001
ACAD
1000
MTEXTBEGIN
1070
    73
1070
     1
1070
    44
1040
1.0
1070
    74
1070
     0
1000
MTEXTEND
  0
POINT
  5
C5A6
330
B1AE
100
AcDbEntity
  8
DEFPOINTS
 62
     0
100
AcDbPoint
 10
285.9012349950605
 20
1403.417838062239
 30
0.0
  0
POINT
  5
C5A7
330
B1AE
100
AcDbEntity
  8
DEFPOINTS
 62
     0
100
AcDbPoint
 10
283.9012349950605
 20
303.4178380622402
 30
0.0
  0
POINT
  5
C5A8
330
B1AE
100
AcDbEntity
  8
DEFPOINTS
 62
     0
100
AcDbPoint
 10
80.62204988517663
 20
303.4178380622403
 30
0.0
  0
ENDBLK
  5
B1B9
330
B1AE
100
AcDbEntity
  8
0
100
AcDbBlockEnd
  0
BLOCK
  5
C5EB
330
C5E1
100
AcDbEntity
  8
0
100
AcDbBlockBegin
  2
*D30
 70
     1
 10
0.0
 20
0.0
 30
0.0
  3
*D30
  1

  0
LINE
  5
C5FF
330
C5E1
100
AcDbEntity
  8
SUNPOU
 62
    70
370
    -2
100
AcDbLine
 10
279.9012349950605
 20
1403.417838062239
 30
0.0
 11
164.2597018878375
 21
1403.417838062239
 31
0.0
  0
LINE
  5
C600
330
C5E1
100
AcDbEntity
  8
SUNPOU
 62
    70
370
    -2
100
AcDbLine
 10
279.9012349950605
 20
1243.41783806224
 30
0.0
 11
164.2597018878374
 21
1243.41783806224
 31
0.0
  0
LINE
  5
C601
330
C5E1
100
AcDbEntity
  8
SUNPOU
 62
    60
370
    -2
100
AcDbLine
 10
164.2597018878375
 20
1397.417838062239
 30
0.0
 11
164.2597018878374
 21
1249.41783806224
 31
0.0
  0
INSERT
  5
C602
330
C5E1
100
AcDbEntity
  8
SUNPOU
 62
    60
370
    -2
100
AcDbBlockReference
  2
_Dot
 10
164.2597018878375
 20
1403.417838062239
 30
0.0
 41
6.0
 42
6.0
 43
6.0
 50
90.0
  0
INSERT
  5
C603
330
C5E1
100
AcDbEntity
  8
SUNPOU
 62
    60
370
    -2
100
AcDbBlockReference
  2
_Dot
 10
164.2597018878374
 20
1243.41783806224
 30
0.0
 41
6.0
 42
6.0
 43
6.0
 50
270.0
  0
MTEXT
  5
C604
330
C5E1
100
AcDbEntity
  8
SUNPOU
 62
    60
100
AcDbMText
 10
144.2597018878372
 20
1323.41783806224
 30
0.0
 40
20.0
 41
0.0
 71
     5
 72
     1
  1
\A1;160
  7
SUNPOU
 11
0.0000000000000001
 21
1.0
 31
0.0
 73
     1
 44
1.0
1001
ACAD
1000
MTEXTBEGIN
1070
    73
1070
     1
1070
    44
1040
1.0
1070
    74
1070
     0
1000
MTEXTEND
  0
POINT
  5
C605
330
C5E1
100
AcDbEntity
  8
DEFPOINTS
 62
     0
100
AcDbPoint
 10
285.9012349950605
 20
1403.417838062239
 30
0.0
  0
POINT
  5
C606
330
C5E1
100
AcDbEntity
  8
DEFPOINTS
 62
     0
100
AcDbPoint
 10
285.9012349950605
 20
1243.41783806224
 30
0.0
  0
POINT
  5
C607
330
C5E1
100
AcDbEntity
  8
DEFPOINTS
 62
     0
100
AcDbPoint
 10
164.2597018878374
 20
1243.41783806224
 30
0.0
  0
ENDBLK
  5
C5EC
330
C5E1
100
AcDbEntity
  8
0
100
AcDbBlockEnd
  0
BLOCK
  5
C613
330
C609
100
AcDbEntity
  8
0
100
AcDbBlockBegin
  2
*D31
 70
     1
 10
0.0
 20
0.0
 30
0.0
  3
*D31
  1

  0
LINE
  5
C64F
330
C609
100
AcDbEntity
  8
SUNPOU
 62
    70
370
    -2
100
AcDbLine
 10
279.9012349950605
 20
1243.41783806224
 30
0.0
 11
164.2597018878376
 21
1243.41783806224
 31
0.0
  0
LINE
  5
C650
330
C609
100
AcDbEntity
  8
SUNPOU
 62
    70
370
    -2
100
AcDbLine
 10
279.9012349950605
 20
643.4178380622398
 30
0.0
 11
164.2597018878374
 21
643.4178380622399
 31
0.0
  0
LINE
  5
C651
330
C609
100
AcDbEntity
  8
SUNPOU
 62
    60
370
    -2
100
AcDbLine
 10
164.2597018878376
 20
1237.41783806224
 30
0.0
 11
164.2597018878374
 21
649.41783806224
 31
0.0
  0
INSERT
  5
C652
330
C609
100
AcDbEntity
  8
SUNPOU
 62
    60
370
    -2
100
AcDbBlockReference
  2
_Dot
 10
164.2597018878376
 20
1243.41783806224
 30
0.0
 41
6.0
 42
6.0
 43
6.0
 50
90.0
  0
INSERT
  5
C653
330
C609
100
AcDbEntity
  8
SUNPOU
 62
    60
370
    -2
100
AcDbBlockReference
  2
_Dot
 10
164.2597018878374
 20
643.4178380622399
 30
0.0
 41
6.0
 42
6.0
 43
6.0
 50
270.0
  0
MTEXT
  5
C654
330
C609
100
AcDbEntity
  8
SUNPOU
 62
    60
100
AcDbMText
 10
144.2597018878373
 20
943.41783806224
 30
0.0
 40
20.0
 41
0.0
 71
     5
 72
     1
  1
\A1;600
  7
SUNPOU
 11
0.0000000000000001
 21
1.0
 31
0.0
 73
     1
 44
1.0
1001
ACAD
1000
MTEXTBEGIN
1070
    73
1070
     1
1070
    44
1040
1.0
1070
    74
1070
     0
1000
MTEXTEND
  0
POINT
  5
C655
330
C609
100
AcDbEntity
  8
DEFPOINTS
 62
     0
100
AcDbPoint
 10
285.9012349950605
 20
1243.41783806224
 30
0.0
  0
POINT
  5
C656
330
C609
100
AcDbEntity
  8
DEFPOINTS
 62
     0
100
AcDbPoint
 10
285.9012349950605
 20
643.4178380622398
 30
0.0
  0
POINT
  5
C657
330
C609
100
AcDbEntity
  8
DEFPOINTS
 62
     0
100
AcDbPoint
 10
164.2597018878374
 20
643.4178380622399
 30
0.0
  0
ENDBLK
  5
C614
330
C609
100
AcDbEntity
  8
0
100
AcDbBlockEnd
  0
BLOCK
  5
C629
330
C61F
100
AcDbEntity
  8
0
100
AcDbBlockBegin
  2
*D32
 70
     1
 10
0.0
 20
0.0
 30
0.0
  3
*D32
  1

  0
LINE
  5
C63D
330
C61F
100
AcDbEntity
  8
SUNPOU
 62
    70
370
    -2
100
AcDbLine
 10
279.9012349950605
 20
643.4178380622398
 30
0.0
 11
164.2597018878375
 21
643.4178380622399
 31
0.0
  0
LINE
  5
C63E
330
C61F
100
AcDbEntity
  8
SUNPOU
 62
    70
370
    -2
100
AcDbLine
 10
277.9012349950605
 20
303.4178380622402
 30
0.0
 11
164.2597018878374
 21
303.4178380622402
 31
0.0
  0
LINE
  5
C63F
330
C61F
100
AcDbEntity
  8
SUNPOU
 62
    60
370
    -2
100
AcDbLine
 10
164.2597018878375
 20
637.4178380622399
 30
0.0
 11
164.2597018878374
 21
309.4178380622402
 31
0.0
  0
INSERT
  5
C640
330
C61F
100
AcDbEntity
  8
SUNPOU
 62
    60
370
    -2
100
AcDbBlockReference
  2
_Dot
 10
164.2597018878375
 20
643.4178380622399
 30
0.0
 41
6.0
 42
6.0
 43
6.0
 50
90.0
  0
INSERT
  5
C641
330
C61F
100
AcDbEntity
  8
SUNPOU
 62
    60
370
    -2
100
AcDbBlockReference
  2
_Dot
 10
164.2597018878374
 20
303.4178380622402
 30
0.0
 41
6.0
 42
6.0
 43
6.0
 50
270.0
  0
MTEXT
  5
C642
330
C61F
100
AcDbEntity
  8
SUNPOU
 62
    60
100
AcDbMText
 10
144.2597018878374
 20
473.4178380622401
 30
0.0
 40
20.0
 41
0.0
 71
     5
 72
     1
  1
\A1;340
  7
SUNPOU
 11
0.0000000000000001
 21
1.0
 31
0.0
 73
     1
 44
1.0
1001
ACAD
1000
MTEXTBEGIN
1070
    73
1070
     1
1070
    44
1040
1.0
1070
    74
1070
     0
1000
MTEXTEND
  0
POINT
  5
C643
330
C61F
100
AcDbEntity
  8
DEFPOINTS
 62
     0
100
AcDbPoint
 10
285.9012349950605
 20
643.4178380622398
 30
0.0
  0
POINT
  5
C644
330
C61F
100
AcDbEntity
  8
DEFPOINTS
 62
     0
100
AcDbPoint
 10
283.9012349950605
 20
303.4178380622402
 30
0.0
  0
POINT
  5
C645
330
C61F
100
AcDbEntity
  8
DEFPOINTS
 62
     0
100
AcDbPoint
 10
164.2597018878374
 20
303.4178380622402
 30
0.0
  0
ENDBLK
  5
C62A
330
C61F
100
AcDbEntity
  8
0
100
AcDbBlockEnd
  0
ENDSEC
  0
SECTION
  2
ENTITIES
  0
LINE
  5
1F
330
2
100
AcDbEntity
  8
WAKU
100
AcDbLine
 10
0.0
 20
70.0
 30
0.0
 11
610.6489978526152
 21
70.0
 31
0.0
  0
LINE
  5
20
330
2
100
AcDbEntity
  8
WAKU
100
AcDbLine
 10
0.0
 20
0.0
 30
0.0
 11
610.6489978526152
 21
0.0
 31
0.0
  0
TEXT
  5
21
330
2
100
AcDbEntity
  8
HOJO
100
AcDbText
 10
48.26983000000012
 20
11.83313000000009
 30
0.0
 40
45.0
  1
F-1
  7
SUNPOU
100
AcDbText
  0
TEXT
  5
4A3
330
2
100
AcDbEntity
  8
HOJO
100
AcDbText
 10
225.60543919488
 20
20.97829970797568
 30
0.0
 40
35.0
  1
1100x115x115
  7
SUNPOU
100
AcDbText
  0
LINE
  5
AFC5
102
{ACAD_REACTORS
330
C5C7
102
}
330
2
100
AcDbEntity
  8
KIJUN
100
AcDbLine
 10
390.9012349950604
 20
659.4178380622401
 30
0.0
 11
390.9012349950604
 21
656.41783806224
 31
0.0
  0
LINE
  5
AFCF
102
{ACAD_REACTORS
330
C5C7
102
}
330
2
100
AcDbEntity
  8
KIJUN
100
AcDbLine
 10
396.9012349950603
 20
643.4178380622399
 30
0.0
 11
285.9012349950605
 21
643.4178380622398
 31
0.0
  0
LINE
  5
B0B0
102
{ACAD_REACTORS
330
C5C7
102
}
330
2
100
AcDbEntity
  8
KIJUN
100
AcDbLine
 10
396.9012349950603
 20
1243.41783806224
 30
0.0
 11
285.9012349950605
 21
1243.41783806224
 31
0.0
  0
LINE
  5
B118
102
{ACAD_REACTORS
330
C5C7
102
}
330
2
100
AcDbEntity
  8
KIJUN
100
AcDbLine
 10
298.9012349950603
 20
1146.41783806224
 30
0.0
 11
383.9012349950603
 21
1146.41783806224
 31
0.0
  0
LINE
  5
B119
102
{ACAD_REACTORS
330
C5C7
102
}
330
2
100
AcDbEntity
  8
KIJUN
100
AcDbLine
 10
382.4012349950603
 20
1146.41783806224
 30
0.0
 11
391.3994553709536
 21
991.6360050287803
 31
0.0
  0
LINE
  5
B140
102
{ACAD_REACTORS
330
C5C7
102
}
330
2
100
AcDbEntity
  8
KIJUN
100
AcDbLine
 10
387.9012349950603
 20
972.4178380622399
 30
0.0
 11
294.9012349950603
 21
972.4178380622399
 31
0.0
  0
LINE
  5
B15A
102
{ACAD_REACTORS
330
C5C7
102
}
330
2
100
AcDbEntity
  8
KIJUN
100
AcDbLine
 10
345.4012349950603
 20
1126.309881241776
 30
0.0
 11
345.4012349950604
 21
1012.43294765766
 31
0.0
  0
LINE
  5
B17D
102
{ACAD_REACTORS
330
C5C7
102
}
330
2
100
AcDbEntity
  8
KIJUN
100
AcDbLine
 10
375.005816844813
 20
1012.70020464643
 30
0.0
 11
369.0960813879923
 21
1126.952782512756
 31
0.0
  0
LINE
  5
B181
102
{ACAD_REACTORS
330
C5C7
102
}
330
2
100
AcDbEntity
  8
KIJUN
100
AcDbLine
 10
283.9012349950605
 20
303.4178380622402
 30
0.0
 11
398.9012349950603
 21
303.4178380622402
 31
0.0
  0
LINE
  5
B183
102
{ACAD_REACTORS
330
C5C7
102
}
330
2
100
AcDbEntity
  8
KIJUN
  6
CENTER
100
AcDbLine
 10
341.4012349950604
 20
262.9392357932957
 30
0.0
 11
341.4012349950604
 21
1425.778019264588
 31
0.0
  0
LINE
  5
B184
102
{ACAD_REACTORS
330
C5C7
102
}
330
2
100
AcDbEntity
  8
KIJUN
100
AcDbLine
 10
285.9012349950605
 20
1403.417838062239
 30
0.0
 11
396.9012349950603
 21
1403.41783806224
 31
0.0
  0
LINE
  5
B186
102
{ACAD_REACTORS
330
C5C7
102
}
330
2
100
AcDbEntity
  8
KIJUN
100
AcDbLine
 10
398.9012349950603
 20
303.4178380622402
 30
0.0
 11
398.9012349950602
 21
641.4178380622399
 31
0.0
  0
LINE
  5
B187
102
{ACAD_REACTORS
330
C5C7
102
}
330
2
100
AcDbEntity
  8
KIJUN
100
AcDbLine
 10
398.9012349950603
 20
1245.41783806224
 30
0.0
 11
398.9012349950603
 21
1401.41783806224
 31
0.0
  0
ARC
  5
B18A
102
{ACAD_REACTORS
330
C5C7
102
}
330
2
100
AcDbEntity
  8
KIJUN
100
AcDbCircle
 10
396.9012349950603
 20
641.4178380622399
 30
0.0
 40
2.0
100
AcDbArc
 50
0.0
 51
90.00000000000007
  0
ARC
  5
B190
102
{ACAD_REACTORS
330
C5C7
102
}
330
2
100
AcDbEntity
  8
KIJUN
100
AcDbCircle
 10
396.9012349950603
 20
1401.41783806224
 30
0.0
 40
2.0
100
AcDbArc
 50
0.0
 51
90.0000000000004
  0
ARC
  5
B192
102
{ACAD_REACTORS
330
C5C7
102
}
330
2
100
AcDbEntity
  8
KIJUN
100
AcDbCircle
 10
396.9012349950603
 20
1245.41783806224
 30
0.0
 40
2.0
100
AcDbArc
 50
270.0
 51
0.0
  0
DIMENSION
  5
B193
330
2
100
AcDbEntity
  8
SUNPOU
100
AcDbDimension
  2
*D1
 10
398.9012349950603
 20
184.8552434265875
 30
0.0
 11
341.4012349950604
 21
204.8552434265876
 31
0.0
 70
    32
 71
     5
 42
114.9999999999999
  3
STANDARD$0
100
AcDbAlignedDimension
 13
283.9012349950605
 23
303.4178380622402
 33
0.0
 14
398.9012349950603
 24
303.4178380622402
 34
0.0
100
AcDbRotatedDimension
1001
ACAD
1000
DSTYLE
1002
{
1070
    41
1040
3.0
1070
    42
1040
3.0
1070
    44
1040
0.0
1070
    77
1070
     1
1070
   140
1040
10.0
1070
   146
1040
0.064286
1070
   147
1040
5.0
1070
   176
1070
    60
1070
   177
1070
    70
1070
   178
1070
    60
1070
   271
1070
     0
1070
   272
1070
     0
1070
   340
1005
1C
1070
   342
1005
109
1002
}
  0
DIMENSION
  5
B1A0
330
2
100
AcDbEntity
  8
SUNPOU
100
AcDbDimension
  2
*D2
 10
398.9012349950603
 20
1473.739341550477
 30
0.0
 11
341.4012349950604
 21
1493.739341550477
 31
0.0
 70
    32
 71
     5
 42
114.9999999999999
  3
STANDARD$0
100
AcDbAlignedDimension
 13
283.9012349950605
 23
1401.41783806224
 33
0.0
 14
398.9012349950603
 24
1401.41783806224
 34
0.0
100
AcDbRotatedDimension
1001
ACAD
1000
DSTYLE
1002
{
1070
    41
1040
3.0
1070
    42
1040
3.0
1070
    44
1040
0.0
1070
    77
1070
     1
1070
   140
1040
10.0
1070
   146
1040
0.064286
1070
   147
1040
5.0
1070
   176
1070
    60
1070
   177
1070
    70
1070
   178
1070
    60
1070
   271
1070
     0
1070
   272
1070
     0
1070
   340
1005
1C
1070
   342
1005
109
1002
}
  0
DIMENSION
  5
B1AD
330
2
100
AcDbEntity
  8
SUNPOU
100
AcDbDimension
  2
*D3
 10
80.62204988517663
 20
303.4178380622403
 30
0.0
 11
60.62204988517661
 21
853.4178380622398
 31
0.0
 70
    32
 71
     5
 42
1099.999999999999
  3
STANDARD$0
100
AcDbAlignedDimension
 13
285.9012349950605
 23
1403.417838062239
 33
0.0
 14
283.9012349950605
 24
303.4178380622402
 34
0.0
 50
90.0
100
AcDbRotatedDimension
1001
ACAD
1000
DSTYLE
1002
{
1070
    41
1040
3.0
1070
    42
1040
3.0
1070
    44
1040
0.0
1070
    77
1070
     1
1070
   140
1040
10.0
1070
   146
1040
0.064286
1070
   147
1040
5.0
1070
   176
1070
    60
1070
   177
1070
    70
1070
   178
1070
    60
1070
   271
1070
     0
1070
   272
1070
     0
1070
   340
1005
1C
1070
   342
1005
109
1002
}
  0
ARC
  5
B9B3
102
{ACAD_REACTORS
330
C5C7
102
}
330
2
100
AcDbEntity
  8
KIJUN
100
AcDbCircle
 10
387.541508302797
 20
649.4436388285172
 30
0.0
 40
7.741267234656408
100
AcDbArc
 50
308.8857059918876
 51
64.27818331846872
  0
ARC
  5
B9CA
102
{ACAD_REACTORS
330
C5C7
102
}
330
2
100
AcDbEntity
  8
KIJUN
100
AcDbCircle
 10
378.04839347385
 20
700.459201590699
 30
0.0
 40
16.83742374549642
100
AcDbArc
 50
327.3386578603837
 51
45.25456480541692
  0
ARC
  5
B9CB
102
{ACAD_REACTORS
330
C5C7
102
}
330
2
100
AcDbEntity
  8
KIJUN
100
AcDbCircle
 10
393.031641356025
 20
671.2590933506632
 30
0.0
 40
12.03137390610241
100
AcDbArc
 50
139.4080942100888
 51
259.8008049740516
  0
ARC
  5
B9CE
102
{ACAD_REACTORS
330
C5C7
102
}
330
2
100
AcDbEntity
  8
KIJUN
100
AcDbCircle
 10
386.8442864679685
 20
718.7211497140019
 30
0.0
 40
7.005474436219649
100
AcDbArc
 50
295.8722252892298
 51
72.9251854207613
  0
ARC
  5
B9D0
102
{ACAD_REACTORS
330
C5C7
102
}
330
2
100
AcDbEntity
  8
KIJUN
100
AcDbCircle
 10
378.3740459396581
 20
737.2627661407797
 30
0.0
 40
5.422925589095304
100
AcDbArc
 50
109.8421287585273
 51
252.0281320627563
  0
LINE
  5
B9D4
102
{ACAD_REACTORS
330
C5C7
102
}
330
2
100
AcDbEntity
  8
KIJUN
100
AcDbLine
 10
390.9012349950604
 20
1228.417838062239
 30
0.0
 11
390.9012349950604
 21
1230.41783806224
 31
0.0
  0
ARC
  5
B9D6
102
{ACAD_REACTORS
330
C5C7
102
}
330
2
100
AcDbEntity
  8
KIJUN
100
AcDbCircle
 10
388.3830903441664
 20
1237.459091085454
 30
0.0
 40
7.477987471221576
100
AcDbArc
 50
289.6784394106746
 51
52.82923606421694
  0
ARC
  5
B9D7
102
{ACAD_REACTORS
330
C5C7
102
}
330
2
100
AcDbEntity
  8
KIJUN
100
AcDbCircle
 10
381.6953163507832
 20
1198.281142931431
 30
0.0
 40
11.15286384178687
100
AcDbArc
 50
297.8253936003022
 51
71.36880945477447
  0
ARC
  5
B9D8
102
{ACAD_REACTORS
330
C5C7
102
}
330
2
100
AcDbEntity
  8
KIJUN
100
AcDbCircle
 10
388.6208853803195
 20
1218.477658358564
 30
0.0
 40
10.19839040764847
100
AcDbArc
 50
102.9205063717027
 51
250.7488595659344
  0
ARC
  5
BA13
102
{ACAD_REACTORS
330
C5C7
102
}
330
2
100
AcDbEntity
  8
KIJUN
100
AcDbCircle
 10
382.4659890606077
 20
1183.797495305173
 30
0.0
 40
6.404605662478937
100
AcDbArc
 50
264.9411240314053
 51
46.1709664077579
  0
LINE
  5
BA15
102
{ACAD_REACTORS
330
C5C7
102
}
330
2
100
AcDbEntity
  8
KIJUN
100
AcDbLine
 10
383.9012349950597
 20
1164.41783806224
 30
0.0
 11
298.9012349950609
 21
1164.41783806224
 31
0.0
  0
LINE
  5
BA2C
102
{ACAD_REACTORS
330
C5C7
102
}
330
2
100
AcDbEntity
  8
KIJUN
100
AcDbLine
 10
298.9012349950606
 20
1160.41783806224
 30
0.0
 11
383.9012349950601
 21
1160.41783806224
 31
0.0
  0
LINE
  5
BA2E
102
{ACAD_REACTORS
330
C5C7
102
}
330
2
100
AcDbEntity
  8
KIJUN
100
AcDbLine
 10
298.9012349950604
 20
1150.417838062239
 30
0.0
 11
383.9012349950603
 21
1150.41783806224
 31
0.0
  0
LINE
  5
BA57
102
{ACAD_REACTORS
330
C5C7
102
}
330
2
100
AcDbEntity
  8
KIJUN
100
AcDbLine
 10
383.9012349950603
 20
1146.41783806224
 30
0.0
 11
383.9012349950603
 21
1150.41783806224
 31
0.0
  0
ARC
  5
BA58
102
{ACAD_REACTORS
330
C5C7
102
}
330
2
100
AcDbEntity
  8
KIJUN
100
AcDbCircle
 10
382.0571827013445
 20
1155.417838062239
 30
0.0
 40
5.329214657147789
100
AcDbArc
 50
290.2445018002633
 51
69.75549819973903
  0
LINE
  5
BA60
102
{ACAD_REACTORS
330
C5C7
102
}
330
2
100
AcDbEntity
  8
KIJUN
100
AcDbLine
 10
383.9012349950601
 20
1160.41783806224
 30
0.0
 11
383.9012349950597
 21
1164.41783806224
 31
0.0
  0
ARC
  5
BA65
102
{ACAD_REACTORS
330
C5C7
102
}
330
2
100
AcDbEntity
  8
KIJUN
100
AcDbCircle
 10
383.5673942586217
 20
980.6290168270983
 30
0.0
 40
9.284698823186213
100
AcDbArc
 50
297.8249862615784
 51
46.98572700124039
  0
ARC
  5
BA66
102
{ACAD_REACTORS
330
C5C7
102
}
330
2
100
AcDbEntity
  8
KIJUN
100
AcDbCircle
 10
384.8694354237975
 20
991.5802012902776
 30
0.0
 40
6.530258384434685
100
AcDbArc
 50
320.4020510716408
 51
0.489621914450864
  0
LINE
  5
BA67
102
{ACAD_REACTORS
330
C5C7
102
}
330
2
100
AcDbEntity
  8
KIJUN
100
AcDbLine
 10
387.9012349950605
 20
968.41783806224
 30
0.0
 11
294.9012349950603
 21
968.41783806224
 31
0.0
  0
LINE
  5
BA68
102
{ACAD_REACTORS
330
C5C7
102
}
330
2
100
AcDbEntity
  8
KIJUN
100
AcDbLine
 10
387.9012349950603
 20
972.4178380622399
 30
0.0
 11
387.9012349950605
 21
968.41783806224
 31
0.0
  0
ARC
  5
BB0D
102
{ACAD_REACTORS
330
C5C7
102
}
330
2
100
AcDbEntity
  8
KIJUN
100
AcDbCircle
 10
388.4591388297376
 20
961.4569260774972
 30
0.0
 40
6.983233659851626
100
AcDbArc
 50
94.58235241603352
 51
249.6758699941809
  0
LINE
  5
BCE4
102
{ACAD_REACTORS
330
C5C7
102
}
330
2
100
AcDbEntity
  8
KIJUN
100
AcDbLine
 10
286.9012349950603
 20
950.4178380622402
 30
0.0
 11
395.9012349950604
 21
950.4178380622398
 31
0.0
  0
LINE
  5
BCE5
102
{ACAD_REACTORS
330
C5C7
102
}
330
2
100
AcDbEntity
  8
KIJUN
100
AcDbLine
 10
395.9012349950604
 20
950.4178380622398
 30
0.0
 11
395.9012349950604
 21
947.4178380622397
 31
0.0
  0
ARC
  5
BD12
102
{ACAD_REACTORS
330
C5C7
102
}
330
2
100
AcDbEntity
  8
KIJUN
100
AcDbCircle
 10
438.5794299387881
 20
897.8065842929934
 30
0.0
 40
50.59641669893017
100
AcDbArc
 50
126.6160151572672
 51
197.2395930951886
  0
ARC
  5
BD13
102
{ACAD_REACTORS
330
C5C7
102
}
330
2
100
AcDbEntity
  8
KIJUN
100
AcDbCircle
 10
361.8413247690038
 20
799.1929961798854
 30
0.0
 40
49.39468967707649
100
AcDbArc
 50
292.0704942302296
 51
10.66714995898145
  0
ARC
  5
BD14
102
{ACAD_REACTORS
330
C5C7
102
}
330
2
100
AcDbEntity
  8
KIJUN
100
AcDbCircle
 10
-2930.863974761147
 20
-54.64981560393796
 30
0.0
 40
3450.894411880219
100
AcDbArc
 50
14.48201048838961
 51
15.76291964174935
  0
ARC
  5
BD17
102
{ACAD_REACTORS
330
C5C7
102
}
330
2
100
AcDbEntity
  8
KIJUN
100
AcDbCircle
 10
366.323153665462
 20
738.7572191878821
 30
0.0
 40
20.32550416845703
100
AcDbArc
 50
26.28887985646111
 51
46.16123458336762
  0
ARC
  5
BD18
102
{ACAD_REACTORS
330
C5C7
102
}
330
2
100
AcDbEntity
  8
KIJUN
100
AcDbCircle
 10
394.5159607358034
 20
932.3132904799383
 30
0.0
 40
15.16793797585468
100
AcDbArc
 50
23.732299849864
 51
84.75992564126325
  0
ARC
  5
BDC8
102
{ACAD_REACTORS
330
C5C7
102
}
330
2
100
AcDbEntity
  8
KIJUN
100
AcDbCircle
 10
402.0370446870668
 20
947.9213801591848
 30
0.0
 40
11.43766718630871
100
AcDbArc
 50
236.1911608985125
 51
303.8088391014882
  0
ARC
  5
BDC9
102
{ACAD_REACTORS
330
C5C7
102
}
330
2
100
AcDbEntity
  8
KIJUN
100
AcDbCircle
 10
387.9630917923835
 20
943.0221179315953
 30
0.0
 40
8.979968388501228
100
AcDbArc
 50
210.8457017784079
 51
329.1542982215908
  0
ARC
  5
BDCA
102
{ACAD_REACTORS
330
C5C7
102
}
330
2
100
AcDbEntity
  8
KIJUN
100
AcDbCircle
 10
370.4669876180371
 20
944.0551287855484
 30
0.0
 40
11.29387127469523
100
AcDbArc
 50
209.9435161848322
 51
330.0564838151637
  0
ARC
  5
BDCB
102
{ACAD_REACTORS
330
C5C7
102
}
330
2
100
AcDbEntity
  8
KIJUN
100
AcDbCircle
 10
349.5539928268079
 20
946.4736632704825
 30
0.0
 40
13.73676567822018
100
AcDbArc
 50
233.5942910767744
 51
324.0950281694609
  0
ELLIPSE
  5
BDD2
102
{ACAD_REACTORS
330
C5C7
102
}
330
2
100
AcDbEntity
  8
KIJUN
100
AcDbEllipse
 10
371.8242117905829
 20
1125.225170360525
 30
0.0
 11
-0.7956433298603737
 21
5.192667701714754
 31
0.0
210
0.0
220
0.0
230
1.0
 40
0.5066462943346247
 41
-1.263323838792122
 42
1.155211634893776
  0
ELLIPSE
  5
BDD4
102
{ACAD_REACTORS
330
C5C7
102
}
330
2
100
AcDbEntity
  8
KIJUN
100
AcDbEllipse
 10
377.5464779228606
 20
1013.9023511923
 30
0.0
 11
0.3462254794443876
 21
5.535733632688893
 31
0.0
210
0.0
220
0.0
230
-1.0
 40
0.4575738736410006
 41
1.718979253432356
 42
4.464964133992689
  0
ARC
  5
BDD8
102
{ACAD_REACTORS
330
C5C7
102
}
330
2
100
AcDbEntity
  8
KIJUN
100
AcDbCircle
 10
341.4012349950606
 20
1012.417866492344
 30
0.0
 40
4.000028430104715
100
AcDbArc
 50
179.7839792429051
 51
0.216020757094868
  0
ARC
  5
BDDE
102
{ACAD_REACTORS
330
C5C7
102
}
330
2
100
AcDbEntity
  8
KIJUN
100
AcDbCircle
 10
341.401234995061
 20
1126.416419513362
 30
0.0
 40
4.001418548878157
100
AcDbArc
 50
358.4743123765301
 51
181.5256876229879
  0
ARC
  5
BDE0
102
{ACAD_REACTORS
330
C5C7
102
}
330
2
100
AcDbEntity
  8
KIJUN
100
AcDbCircle
 10
563.3276595798934
 20
904.6639319457167
 30
0.0
 40
205.4388918356489
100
AcDbArc
 50
170.5433437875282
 51
187.6562007901123
  0
ARC
  5
BDE1
102
{ACAD_REACTORS
330
C5C7
102
}
330
2
100
AcDbEntity
  8
KIJUN
100
AcDbCircle
 10
-395.5106139133913
 20
849.1474549952489
 30
0.0
 40
758.1230493077251
100
AcDbArc
 50
353.5762024816476
 51
357.4067004927639
  0
ARC
  5
BDE2
102
{ACAD_REACTORS
330
C5C7
102
}
330
2
100
AcDbEntity
  8
KIJUN
100
AcDbCircle
 10
-73.77148342530109
 20
831.3463345579467
 30
0.0
 40
435.9199226302372
100
AcDbArc
 50
357.8306433566714
 51
6.05038482372114
  0
ARC
  5
BDE3
102
{ACAD_REACTORS
330
C5C7
102
}
330
2
100
AcDbEntity
  8
KIJUN
100
AcDbCircle
 10
597.2998395565338
 20
849.9143962423676
 30
0.0
 40
220.1960498413069
100
AcDbArc
 50
156.301099971114
 51
164.0444777472606
  0
ARC
  5
BDE4
102
{ACAD_REACTORS
330
C5C7
102
}
330
2
100
AcDbEntity
  8
KIJUN
100
AcDbCircle
 10
434.0987658142331
 20
895.4834415438773
 30
0.0
 40
50.76655142605071
100
AcDbArc
 50
162.8604771728729
 51
199.6948881386946
  0
ARC
  5
BDE5
102
{ACAD_REACTORS
330
C5C7
102
}
330
2
100
AcDbEntity
  8
KIJUN
100
AcDbCircle
 10
335.2007847397017
 20
809.6895221001128
 30
0.0
 40
65.69339792641812
100
AcDbArc
 50
316.3292670882574
 51
356.3824763440649
  0
ARC
  5
BDE6
102
{ACAD_REACTORS
330
C5C7
102
}
330
2
100
AcDbEntity
  8
KIJUN
100
AcDbCircle
 10
473.7891602024484
 20
899.7103658266203
 30
0.0
 40
101.2285537144773
100
AcDbArc
 50
157.5190016087022
 51
196.4477822428706
  0
ARC
  5
BDE7
102
{ACAD_REACTORS
330
C5C7
102
}
330
2
100
AcDbEntity
  8
KIJUN
100
AcDbCircle
 10
147.7230124969085
 20
829.4763517509224
 30
0.0
 40
233.964474884716
100
AcDbArc
 50
343.8318824434281
 51
357.0437484821354
  0
ARC
  5
BDE8
102
{ACAD_REACTORS
330
C5C7
102
}
330
2
100
AcDbEntity
  8
KIJUN
100
AcDbCircle
 10
186.9541024316822
 20
827.4943743947446
 30
0.0
 40
194.6833810711178
100
AcDbArc
 50
357.0308161841468
 51
12.9274496041129
  0
LINE
  5
BE45
102
{ACAD_REACTORS
330
C5C7
102
}
330
2
100
AcDbEntity
  8
KIJUN
100
AcDbLine
 10
381.9012349950603
 20
1177.41783806224
 30
0.0
 11
300.9012349950604
 21
1177.417838062239
 31
0.0
  0
LINE
  5
BE46
102
{ACAD_REACTORS
330
C5C7
102
}
330
2
100
AcDbEntity
  8
KIJUN
100
AcDbLine
 10
381.9012349950603
 20
1164.41783806224
 30
0.0
 11
381.9012349950603
 21
1177.41783806224
 31
0.0
  0
LINE
  5
BE4A
102
{ACAD_REACTORS
330
C5C7
102
}
330
2
100
AcDbEntity
  8
KIJUN
100
AcDbLine
 10
395.9012349950604
 20
950.4178380622398
 30
0.0
 11
386.0336480166714
 21
954.9084494100718
 31
0.0
  0
LINE
  5
BF04
102
{ACAD_REACTORS
330
C5C7
102
}
330
2
100
AcDbEntity
  8
KIJUN
100
AcDbLine
 10
390.9012349950604
 20
1230.41783806224
 30
0.0
 11
291.9012349950605
 21
1230.41783806224
 31
0.0
  0
LINE
  5
BF05
102
{ACAD_REACTORS
330
C5C7
102
}
330
2
100
AcDbEntity
  8
KIJUN
100
AcDbLine
 10
386.9012349950714
 20
1188.41783806224
 30
0.0
 11
295.9012349950494
 21
1188.41783806224
 31
0.0
  0
LINE
  5
C001
102
{ACAD_REACTORS
330
C5C7
102
}
330
2
100
AcDbEntity
  8
KIJUN
100
AcDbLine
 10
389.9012349950611
 20
987.4178380622401
 30
0.0
 11
292.9012349950625
 21
987.4178380622399
 31
0.0
  0
LINE
  5
C008
102
{ACAD_REACTORS
330
C5C7
102
}
330
2
100
AcDbEntity
  8
KIJUN
100
AcDbLine
 10
286.9012349950603
 20
947.4178380622401
 30
0.0
 11
395.9012349950604
 21
947.4178380622397
 31
0.0
  0
LINE
  5
C015
102
{ACAD_REACTORS
330
C5C7
102
}
330
2
100
AcDbEntity
  8
KIJUN
100
AcDbLine
 10
337.4012349950608
 20
1126.30988124181
 30
0.0
 11
337.4012349950608
 21
1012.43294765766
 31
0.0
  0
LINE
  5
C01E
102
{ACAD_REACTORS
330
C5C7
102
}
330
2
100
AcDbEntity
  8
KIJUN
100
AcDbLine
 10
302.4012349950587
 20
753.41783806224
 30
0.0
 11
380.4012349950619
 21
753.41783806224
 31
0.0
  0
ARC
  5
C054
102
{ACAD_REACTORS
330
C5C7
102
}
330
2
100
AcDbEntity
  8
KIJUN
100
AcDbCircle
 10
382.8471643274852
 20
747.180729298534
 30
0.0
 40
1.795080381725585
100
AcDbArc
 50
280.8667962335652
 51
18.80356512819322
  0
LINE
  5
C056
102
{ACAD_REACTORS
330
C5C7
102
}
330
2
100
AcDbEntity
  8
KIJUN
100
AcDbLine
 10
299.6168857077659
 20
745.41783806224
 30
0.0
 11
383.1855842823543
 21
745.41783806224
 31
0.0
  0
LINE
  5
C058
102
{ACAD_REACTORS
330
C5C7
102
}
330
2
100
AcDbEntity
  8
KIJUN
100
AcDbLine
 10
293.9012349950603
 20
728.4178380622401
 30
0.0
 11
388.9012349950604
 21
728.41783806224
 31
0.0
  0
LINE
  5
C059
102
{ACAD_REACTORS
330
C5C7
102
}
330
2
100
AcDbEntity
  8
KIJUN
100
AcDbLine
 10
293.9012349950602
 20
725.4178380622404
 30
0.0
 11
388.9012349950604
 21
725.4178380622398
 31
0.0
  0
LINE
  5
C05A
102
{ACAD_REACTORS
330
C5C7
102
}
330
2
100
AcDbEntity
  8
KIJUN
100
AcDbLine
 10
292.9012349950583
 20
712.4178380622403
 30
0.0
 11
389.9012349950603
 21
712.4178380622399
 31
0.0
  0
LINE
  5
C060
102
{ACAD_REACTORS
330
C5C7
102
}
330
2
100
AcDbEntity
  8
KIJUN
100
AcDbLine
 10
388.9012349950604
 20
725.4178380622398
 30
0.0
 11
388.9012349950604
 21
728.41783806224
 31
0.0
  0
LINE
  5
C0C6
102
{ACAD_REACTORS
330
C5C7
102
}
330
2
100
AcDbEntity
  8
KIJUN
100
AcDbLine
 10
291.9012349950605
 20
659.4178380622397
 30
0.0
 11
390.9012349950604
 21
659.4178380622401
 31
0.0
  0
LINE
  5
C0C7
102
{ACAD_REACTORS
330
C5C7
102
}
330
2
100
AcDbEntity
  8
KIJUN
100
AcDbLine
 10
291.9012349950605
 20
656.4178380622401
 30
0.0
 11
390.9012349950604
 21
656.41783806224
 31
0.0
  0
LINE
  5
C128
102
{ACAD_REACTORS
330
C5C7
102
}
330
2
100
AcDbEntity
  8
KIJUN
100
AcDbLine
 10
341.4012349950604
 20
938.4178380622401
 30
0.0
 11
341.4012349950604
 21
764.3273752251971
 31
0.0
  0
ARC
  5
C12D
102
{ACAD_REACTORS
330
C5C7
102
}
330
2
100
AcDbEntity
  8
KIJUN
100
AcDbCircle
 10
7.005543219898779
 20
765.2099940520091
 30
0.0
 40
395.818186861391
100
AcDbArc
 50
5.848690404021017
 51
16.61267281081919
  0
LINE
  5
C262
102
{ACAD_REACTORS
330
C5C7
102
}
330
2
100
AcDbEntity
  8
KIJUN
100
AcDbLine
 10
341.4012349950604
 20
938.4178380622401
 30
0.0
 11
341.4012349950604
 21
764.3273752251971
 31
0.0
  0
ARC
  5
C3A8
102
{ACAD_REACTORS
330
C5C7
102
}
330
2
100
AcDbEntity
  8
KIJUN
100
AcDbCircle
 10
341.4012349950604
 20
545.9112591148724
 30
0.0
 40
96.50657894736754
100
AcDbArc
 50
53.4292963453608
 51
126.5707036546393
  0
LINE
  5
C3FD
102
{ACAD_REACTORS
330
C5C7
102
}
330
2
100
AcDbEntity
  8
KIJUN
100
AcDbLine
 10
390.9012349950604
 20
1228.417838062239
 30
0.0
 11
291.9012349950605
 21
1228.41783806224
 31
0.0
  0
LINE
  5
C4F8
102
{ACAD_REACTORS
330
C5C7
102
}
330
2
100
AcDbEntity
  8
KIJUN
100
AcDbLine
 10
388.9012349950604
 20
728.41783806224
 30
0.0
 11
376.7008022972214
 21
732.1044352423285
 31
0.0
  0
LINE
  5
C4F9
102
{ACAD_REACTORS
330
C5C7
102
}
330
2
100
AcDbEntity
  8
KIJUN
100
AcDbLine
 10
383.1855842823543
 20
745.41783806224
 30
0.0
 11
376.5333442340179
 21
742.3637404767
 31
0.0
  0
ARC
  5
C4FF
102
{ACAD_REACTORS
330
C5C7
102
}
330
2
100
AcDbEntity
  8
KIJUN
100
AcDbCircle
 10
328.8870337118901
 20
725.3427020087532
 30
0.0
 40
71.87120080004406
100
AcDbArc
 50
319.9403705708099
 51
331.7933034371628
  0
LINE
  5
C537
102
{ACAD_REACTORS
330
C5C7
102
}
330
2
100
AcDbEntity
  8
KIJUN
100
AcDbLine
 10
380.0006085920681
 20
1012.92836117505
 30
0.0
 11
374.0908731352475
 21
1127.180939041376
 31
0.0
  0
LINE
  5
C53C
102
{ACAD_REACTORS
330
C5C7
102
}
330
2
100
AcDbEntity
  8
KIJUN
100
AcDbLine
 10
283.9012349950605
 20
1245.41783806224
 30
0.0
 11
283.9012349950605
 21
1401.41783806224
 31
0.0
  0
ARC
  5
C53D
102
{ACAD_REACTORS
330
C5C7
102
}
330
2
100
AcDbEntity
  8
KIJUN
100
AcDbCircle
 10
285.9012349950605
 20
1401.41783806224
 30
0.0
 40
1.999999999999999
100
AcDbArc
 50
90.0
 51
180.0
  0
ARC
  5
C53E
102
{ACAD_REACTORS
330
C5C7
102
}
330
2
100
AcDbEntity
  8
KIJUN
100
AcDbCircle
 10
285.9012349950605
 20
1245.41783806224
 30
0.0
 40
1.999999999999999
100
AcDbArc
 50
180.0
 51
270.0
  0
LINE
  5
C53F
102
{ACAD_REACTORS
330
C5C7
102
}
330
2
100
AcDbEntity
  8
KIJUN
100
AcDbLine
 10
291.9012349950605
 20
1228.41783806224
 30
0.0
 11
291.9012349950605
 21
1230.41783806224
 31
0.0
  0
ARC
  5
C540
102
{ACAD_REACTORS
330
C5C7
102
}
330
2
100
AcDbEntity
  8
KIJUN
100
AcDbCircle
 10
294.4193796459544
 20
1237.459091085454
 30
0.0
 40
7.477987471221574
100
AcDbArc
 50
127.1707639357837
 51
250.3215605893252
  0
ARC
  5
C541
102
{ACAD_REACTORS
330
C5C7
102
}
330
2
100
AcDbEntity
  8
KIJUN
100
AcDbCircle
 10
301.1071536393376
 20
1198.281142931431
 30
0.0
 40
11.15286384178687
100
AcDbArc
 50
108.6311905452259
 51
242.1746063996977
  0
ARC
  5
C542
102
{ACAD_REACTORS
330
C5C7
102
}
330
2
100
AcDbEntity
  8
KIJUN
100
AcDbCircle
 10
294.1815846098013
 20
1218.477658358564
 30
0.0
 40
10.19839040764846
100
AcDbArc
 50
289.2511404340634
 51
77.07949362829916
  0
ARC
  5
C543
102
{ACAD_REACTORS
330
C5C7
102
}
330
2
100
AcDbEntity
  8
KIJUN
100
AcDbCircle
 10
300.3364809295131
 20
1183.797495305173
 30
0.0
 40
6.404605662478935
100
AcDbArc
 50
133.8290335922422
 51
275.0588759685915
  0
LINE
  5
C544
102
{ACAD_REACTORS
330
C5C7
102
}
330
2
100
AcDbEntity
  8
KIJUN
100
AcDbLine
 10
298.9012349950603
 20
1146.41783806224
 30
0.0
 11
298.9012349950604
 21
1150.417838062239
 31
0.0
  0
LINE
  5
C545
102
{ACAD_REACTORS
330
C5C7
102
}
330
2
100
AcDbEntity
  8
KIJUN
100
AcDbLine
 10
298.9012349950606
 20
1160.41783806224
 30
0.0
 11
298.9012349950609
 21
1164.41783806224
 31
0.0
  0
ARC
  5
C546
102
{ACAD_REACTORS
330
C5C7
102
}
330
2
100
AcDbEntity
  8
KIJUN
100
AcDbCircle
 10
300.7452872887763
 20
1155.417838062239
 30
0.0
 40
5.329214657147788
100
AcDbArc
 50
110.2445018002597
 51
249.7554981997339
  0
LINE
  5
C547
102
{ACAD_REACTORS
330
C5C7
102
}
330
2
100
AcDbEntity
  8
KIJUN
100
AcDbLine
 10
300.9012349950604
 20
1164.41783806224
 30
0.0
 11
300.9012349950604
 21
1177.417838062239
 31
0.0
  0
LINE
  5
C548
102
{ACAD_REACTORS
330
C5C7
102
}
330
2
100
AcDbEntity
  8
KIJUN
100
AcDbLine
 10
300.4012349950603
 20
1146.41783806224
 30
0.0
 11
291.4030146191672
 21
991.6360050287803
 31
0.0
  0
LINE
  5
C549
102
{ACAD_REACTORS
330
C5C7
102
}
330
2
100
AcDbEntity
  8
KIJUN
100
AcDbLine
 10
307.7966531453077
 20
1012.70020464643
 30
0.0
 11
313.7063886021284
 21
1126.952782512756
 31
0.0
  0
LINE
  5
C54A
102
{ACAD_REACTORS
330
C5C7
102
}
330
2
100
AcDbEntity
  8
KIJUN
100
AcDbLine
 10
302.8018613980525
 20
1012.92836117505
 30
0.0
 11
308.7115968548732
 21
1127.180939041376
 31
0.0
  0
ARC
  5
C54B
102
{ACAD_REACTORS
330
C5C7
102
}
330
2
100
AcDbEntity
  8
KIJUN
100
AcDbCircle
 10
299.235075731499
 20
980.6290168270983
 30
0.0
 40
9.284698823186213
100
AcDbArc
 50
133.0142729987504
 51
242.1750137384233
  0
ARC
  5
C54C
102
{ACAD_REACTORS
330
C5C7
102
}
330
2
100
AcDbEntity
  8
KIJUN
100
AcDbCircle
 10
297.9330345663232
 20
991.5802012902776
 30
0.0
 40
6.530258384434685
100
AcDbArc
 50
179.5103780855491
 51
219.5979489283603
  0
LINE
  5
C54D
102
{ACAD_REACTORS
330
C5C7
102
}
330
2
100
AcDbEntity
  8
KIJUN
100
AcDbLine
 10
294.9012349950603
 20
972.4178380622399
 30
0.0
 11
294.9012349950603
 21
968.41783806224
 31
0.0
  0
ARC
  5
C54E
102
{ACAD_REACTORS
330
C5C7
102
}
330
2
100
AcDbEntity
  8
KIJUN
100
AcDbCircle
 10
294.3433311603831
 20
961.4569260774972
 30
0.0
 40
6.983233659851626
100
AcDbArc
 50
290.3241300058208
 51
85.41764758396828
  0
LINE
  5
C54F
102
{ACAD_REACTORS
330
C5C7
102
}
330
2
100
AcDbEntity
  8
KIJUN
100
AcDbLine
 10
286.9012349950603
 20
950.4178380622402
 30
0.0
 11
286.9012349950603
 21
947.4178380622401
 31
0.0
  0
ARC
  5
C550
102
{ACAD_REACTORS
330
C5C7
102
}
330
2
100
AcDbEntity
  8
KIJUN
100
AcDbCircle
 10
288.2865092543172
 20
932.3132904799383
 30
0.0
 40
15.16793797585468
100
AcDbArc
 50
95.24007435873459
 51
156.2677001501367
  0
ELLIPSE
  5
C551
102
{ACAD_REACTORS
330
C5C7
102
}
330
2
100
AcDbEntity
  8
KIJUN
100
AcDbEllipse
 10
310.9782581995378
 20
1125.225170360525
 30
0.0
 11
0.7956433298603737
 21
5.192667701714754
 31
0.0
210
0.0
220
0.0
230
-1.0
 40
0.5066462943346247
 41
-1.263323838792122
 42
1.155211634893776
  0
ELLIPSE
  5
C552
102
{ACAD_REACTORS
330
C5C7
102
}
330
2
100
AcDbEntity
  8
KIJUN
100
AcDbEllipse
 10
305.2559920672601
 20
1013.9023511923
 30
0.0
 11
-0.3462254794443876
 21
5.535733632688893
 31
0.0
210
0.0
220
0.0
230
1.0
 40
0.4575738736410006
 41
1.718979253432356
 42
4.464964133992689
  0
LINE
  5
C553
102
{ACAD_REACTORS
330
C5C7
102
}
330
2
100
AcDbEntity
  8
KIJUN
100
AcDbLine
 10
286.9012349950604
 20
950.4178380622398
 30
0.0
 11
296.7688219734493
 21
954.9084494100718
 31
0.0
  0
ARC
  5
C554
102
{ACAD_REACTORS
330
C5C7
102
}
330
2
100
AcDbEntity
  8
KIJUN
100
AcDbCircle
 10
304.7540765162707
 20
700.459201590699
 30
0.0
 40
16.83742374549642
100
AcDbArc
 50
134.7454351945871
 51
212.6613421396162
  0
ARC
  5
C555
102
{ACAD_REACTORS
330
C5C7
102
}
330
2
100
AcDbEntity
  8
KIJUN
100
AcDbCircle
 10
289.7708286340957
 20
671.2590933506632
 30
0.0
 40
12.03137390610241
100
AcDbArc
 50
280.1991950259509
 51
40.59190578991005
  0
ARC
  5
C556
102
{ACAD_REACTORS
330
C5C7
102
}
330
2
100
AcDbEntity
  8
KIJUN
100
AcDbCircle
 10
295.9581835221522
 20
718.7211497140019
 30
0.0
 40
7.005474436219649
100
AcDbArc
 50
107.0748145792415
 51
244.1277747107682
  0
ARC
  5
C557
102
{ACAD_REACTORS
330
C5C7
102
}
330
2
100
AcDbEntity
  8
KIJUN
100
AcDbCircle
 10
304.4284240504626
 20
737.2627661407797
 30
0.0
 40
5.422925589095304
100
AcDbArc
 50
287.9718679372458
 51
70.15787124147287
  0
ARC
  5
C558
102
{ACAD_REACTORS
330
C5C7
102
}
330
2
100
AcDbEntity
  8
KIJUN
100
AcDbCircle
 10
244.2230400513325
 20
897.8065842929934
 30
0.0
 40
50.59641669893017
100
AcDbArc
 50
342.7604069048123
 51
53.38398484273244
  0
ARC
  5
C559
102
{ACAD_REACTORS
330
C5C7
102
}
330
2
100
AcDbEntity
  8
KIJUN
100
AcDbCircle
 10
320.9611452211169
 20
799.1929961798854
 30
0.0
 40
49.39468967707649
100
AcDbArc
 50
169.3328500410187
 51
247.9295057697684
  0
ARC
  5
C55A
102
{ACAD_REACTORS
330
C5C7
102
}
330
2
100
AcDbEntity
  8
KIJUN
100
AcDbCircle
 10
3613.666444751268
 20
-54.64981560393796
 30
0.0
 40
3450.894411880219
100
AcDbArc
 50
164.2370803582511
 51
165.5179895116102
  0
ARC
  5
C55B
102
{ACAD_REACTORS
330
C5C7
102
}
330
2
100
AcDbEntity
  8
KIJUN
100
AcDbCircle
 10
316.4793163246587
 20
738.7572191878821
 30
0.0
 40
20.32550416845703
100
AcDbArc
 50
133.8387654166327
 51
153.7111201435379
  0
ARC
  5
C55C
102
{ACAD_REACTORS
330
C5C7
102
}
330
2
100
AcDbEntity
  8
KIJUN
100
AcDbCircle
 10
280.7654253030539
 20
947.9213801591848
 30
0.0
 40
11.43766718630871
100
AcDbArc
 50
236.1911608985111
 51
303.8088391014887
  0
ARC
  5
C55D
102
{ACAD_REACTORS
330
C5C7
102
}
330
2
100
AcDbEntity
  8
KIJUN
100
AcDbCircle
 10
294.8393781977372
 20
943.0221179315953
 30
0.0
 40
8.979968388501228
100
AcDbArc
 50
210.8457017784077
 51
329.1542982215934
  0
ARC
  5
C55E
102
{ACAD_REACTORS
330
C5C7
102
}
330
2
100
AcDbEntity
  8
KIJUN
100
AcDbCircle
 10
312.3354823720835
 20
944.0551287855484
 30
0.0
 40
11.29387127469523
100
AcDbArc
 50
209.9435161848376
 51
330.0564838151688
  0
ARC
  5
C55F
102
{ACAD_REACTORS
330
C5C7
102
}
330
2
100
AcDbEntity
  8
KIJUN
100
AcDbCircle
 10
119.4748104102273
 20
904.6639319457167
 30
0.0
 40
205.4388918356489
100
AcDbArc
 50
352.3437992098879
 51
9.456656212472172
  0
ARC
  5
C560
102
{ACAD_REACTORS
330
C5C7
102
}
330
2
100
AcDbEntity
  8
KIJUN
100
AcDbCircle
 10
1078.313083903512
 20
849.1474549952489
 30
0.0
 40
758.1230493077251
100
AcDbArc
 50
182.5932995072361
 51
186.4237975183527
  0
ARC
  5
C561
102
{ACAD_REACTORS
330
C5C7
102
}
330
2
100
AcDbEntity
  8
KIJUN
100
AcDbCircle
 10
756.5739534154218
 20
831.3463345579467
 30
0.0
 40
435.9199226302372
100
AcDbArc
 50
173.949615176279
 51
182.1693566433287
  0
ARC
  5
C562
102
{ACAD_REACTORS
330
C5C7
102
}
330
2
100
AcDbEntity
  8
KIJUN
100
AcDbCircle
 10
85.50263043358688
 20
849.9143962423676
 30
0.0
 40
220.1960498413069
100
AcDbArc
 50
15.95552225273868
 51
23.69890002888614
  0
ARC
  5
C563
102
{ACAD_REACTORS
330
C5C7
102
}
330
2
100
AcDbEntity
  8
KIJUN
100
AcDbCircle
 10
248.7037041758876
 20
895.4834415438773
 30
0.0
 40
50.76655142605071
100
AcDbArc
 50
340.3051118613049
 51
17.13952282712798
  0
ARC
  5
C564
102
{ACAD_REACTORS
330
C5C7
102
}
330
2
100
AcDbEntity
  8
KIJUN
100
AcDbCircle
 10
347.601685250419
 20
809.6895221001128
 30
0.0
 40
65.69339792641812
100
AcDbArc
 50
183.617523655935
 51
223.6707329117423
  0
ARC
  5
C565
102
{ACAD_REACTORS
330
C5C7
102
}
330
2
100
AcDbEntity
  8
KIJUN
100
AcDbCircle
 10
675.7969267702219
 20
765.2099940520091
 30
0.0
 40
395.818186861391
100
AcDbArc
 50
163.3873271891801
 51
174.1513095959787
  0
ARC
  5
C566
102
{ACAD_REACTORS
330
C5C7
102
}
330
2
100
AcDbEntity
  8
KIJUN
100
AcDbCircle
 10
209.0133097876722
 20
899.7103658266203
 30
0.0
 40
101.2285537144773
100
AcDbArc
 50
343.5522177571288
 51
22.48099839129842
  0
ARC
  5
C567
102
{ACAD_REACTORS
330
C5C7
102
}
330
2
100
AcDbEntity
  8
KIJUN
100
AcDbCircle
 10
535.0794574932121
 20
829.4763517509224
 30
0.0
 40
233.964474884716
100
AcDbArc
 50
182.9562515178645
 51
196.1681175565726
  0
ARC
  5
C568
102
{ACAD_REACTORS
330
C5C7
102
}
330
2
100
AcDbEntity
  8
KIJUN
100
AcDbCircle
 10
495.8483675584384
 20
827.4943743947446
 30
0.0
 40
194.6833810711178
100
AcDbArc
 50
167.0725503958868
 51
182.9691838158533
  0
ARC
  5
C569
102
{ACAD_REACTORS
330
C5C7
102
}
330
2
100
AcDbEntity
  8
KIJUN
100
AcDbCircle
 10
299.9553056626354
 20
747.180729298534
 30
0.0
 40
1.795080381725585
100
AcDbArc
 50
161.1964348718075
 51
259.133203766434
  0
LINE
  5
C56A
102
{ACAD_REACTORS
330
C5C7
102
}
330
2
100
AcDbEntity
  8
KIJUN
100
AcDbLine
 10
293.9012349950602
 20
725.4178380622404
 30
0.0
 11
293.9012349950603
 21
728.4178380622401
 31
0.0
  0
LINE
  5
C56B
102
{ACAD_REACTORS
330
C5C7
102
}
330
2
100
AcDbEntity
  8
KIJUN
100
AcDbLine
 10
293.9012349950603
 20
728.41783806224
 30
0.0
 11
306.1016676928993
 21
732.1044352423285
 31
0.0
  0
LINE
  5
C56C
102
{ACAD_REACTORS
330
C5C7
102
}
330
2
100
AcDbEntity
  8
KIJUN
100
AcDbLine
 10
299.6168857077659
 20
745.41783806224
 30
0.0
 11
306.2691257561028
 21
742.3637404767
 31
0.0
  0
ARC
  5
C56D
102
{ACAD_REACTORS
330
C5C7
102
}
330
2
100
AcDbEntity
  8
KIJUN
100
AcDbCircle
 10
353.9154362782306
 20
725.3427020087532
 30
0.0
 40
71.87120080004406
100
AcDbArc
 50
208.2066965628381
 51
220.0596294291901
  0
ARC
  5
C56E
102
{ACAD_REACTORS
330
C5C7
102
}
330
2
100
AcDbEntity
  8
KIJUN
100
AcDbCircle
 10
333.2484771633129
 20
946.4736632704825
 30
0.0
 40
13.73676567822019
100
AcDbArc
 50
215.9049718305397
 51
306.4057089232262
  0
LINE
  5
C56F
102
{ACAD_REACTORS
330
C5C7
102
}
330
2
100
AcDbEntity
  8
KIJUN
100
AcDbLine
 10
291.9012349950605
 20
659.4178380622397
 30
0.0
 11
291.9012349950605
 21
656.4178380622401
 31
0.0
  0
ARC
  5
C570
102
{ACAD_REACTORS
330
C5C7
102
}
330
2
100
AcDbEntity
  8
KIJUN
100
AcDbCircle
 10
285.9012349950605
 20
641.4178380622399
 30
0.0
 40
1.999999999999999
100
AcDbArc
 50
90.0
 51
180.0
  0
ARC
  5
C571
102
{ACAD_REACTORS
330
C5C7
102
}
330
2
100
AcDbEntity
  8
KIJUN
100
AcDbCircle
 10
295.2609616873239
 20
649.4436388285172
 30
0.0
 40
7.741267234656406
100
AcDbArc
 50
115.7218166815314
 51
231.114294008112
  0
LINE
  5
C572
102
{ACAD_REACTORS
330
C5C7
102
}
330
2
100
AcDbEntity
  8
KIJUN
100
AcDbLine
 10
283.9012349950605
 20
303.4178380622402
 30
0.0
 11
283.9012349950605
 21
641.4178380622399
 31
0.0
  0
ARC
  5
C5C5
102
{ACAD_REACTORS
330
C5C7
102
}
330
2
100
AcDbEntity
  8
KIJUN
100
AcDbCircle
 10
341.4012349950604
 20
1340.924417009607
 30
0.0
 40
96.50657894736754
100
AcDbArc
 50
233.42929634536
 51
306.5707036546398
  0
ARC
  5
C5C6
102
{ACAD_REACTORS
330
C5C7
102
}
330
2
100
AcDbEntity
  8
KIJUN
100
AcDbCircle
 10
341.4012349950604
 20
1305.911259114873
 30
0.0
 40
96.50657894736754
100
AcDbArc
 50
53.42929634536749
 51
126.5707036546326
  0
TEXT
  5
C5DF
330
2
100
AcDbEntity
  8
HOJO
100
AcDbText
 10
9.266813502595994
 20
-36.00124622380588
 30
0.0
 40
20.0
  1
※ 形状・寸法は製品特性や、生産ロットにより誤差があるものがあります。
  7
SUNPOU
100
AcDbText
  0
DIMENSION
  5
C5E0
330
2
100
AcDbEntity
  8
SUNPOU
100
AcDbDimension
  2
*D30
 10
164.2597018878374
 20
1243.41783806224
 30
0.0
 11
144.2597018878372
 21
1323.41783806224
 31
0.0
 70
    32
 71
     5
 42
159.9999999999993
  3
STANDARD$0
100
AcDbAlignedDimension
 13
285.9012349950605
 23
1403.417838062239
 33
0.0
 14
285.9012349950605
 24
1243.41783806224
 34
0.0
 50
90.0
100
AcDbRotatedDimension
1001
ACAD
1000
DSTYLE
1002
{
1070
    41
1040
3.0
1070
    42
1040
3.0
1070
    44
1040
0.0
1070
    77
1070
     1
1070
   140
1040
10.0
1070
   146
1040
0.064286
1070
   147
1040
5.0
1070
   176
1070
    60
1070
   177
1070
    70
1070
   178
1070
    60
1070
   271
1070
     0
1070
   272
1070
     0
1070
   340
1005
1C
1070
   342
1005
109
1002
}
  0
DIMENSION
  5
C608
330
2
100
AcDbEntity
  8
SUNPOU
100
AcDbDimension
  2
*D31
 10
164.2597018878374
 20
643.4178380622399
 30
0.0
 11
144.2597018878373
 21
943.41783806224
 31
0.0
 70
    32
 71
     5
 42
600.0000000000002
  3
STANDARD$0
100
AcDbAlignedDimension
 13
285.9012349950605
 23
1243.41783806224
 33
0.0
 14
285.9012349950605
 24
643.4178380622398
 34
0.0
 50
90.0
100
AcDbRotatedDimension
1001
ACAD
1000
DSTYLE
1002
{
1070
    41
1040
3.0
1070
    42
1040
3.0
1070
    44
1040
0.0
1070
    77
1070
     1
1070
   140
1040
10.0
1070
   146
1040
0.064286
1070
   147
1040
5.0
1070
   176
1070
    60
1070
   177
1070
    70
1070
   178
1070
    60
1070
   271
1070
     0
1070
   272
1070
     0
1070
   340
1005
1C
1070
   342
1005
109
1002
}
  0
DIMENSION
  5
C61E
330
2
100
AcDbEntity
  8
SUNPOU
100
AcDbDimension
  2
*D32
 10
164.2597018878374
 20
303.4178380622402
 30
0.0
 11
144.2597018878374
 21
473.4178380622401
 31
0.0
 70
    32
 71
     5
 42
339.9999999999997
  3
STANDARD$0
100
AcDbAlignedDimension
 13
285.9012349950605
 23
643.4178380622398
 33
0.0
 14
283.9012349950605
 24
303.4178380622402
 34
0.0
 50
90.0
100
AcDbRotatedDimension
1001
ACAD
1000
DSTYLE
1002
{
1070
    41
1040
3.0
1070
    42
1040
3.0
1070
    44
1040
0.0
1070
    77
1070
     1
1070
   140
1040
10.0
1070
   146
1040
0.064286
1070
   147
1040
5.0
1070
   176
1070
    60
1070
   177
1070
    70
1070
   178
1070
    60
1070
   271
1070
     0
1070
   272
1070
     0
1070
   340
1005
1C
1070
   342
1005
109
1002
}
  0
ENDSEC
  0
SECTION
  2
OBJECTS
  0
DICTIONARY
  5
1A
330
0
100
AcDbDictionary
281
     1
  3
ACAD_COLOR
350
B1BF
  3
ACAD_GROUP
350
18
  3
ACAD_LAYOUT
350
58
  3
ACAD_MATERIAL
350
B1BE
  3
ACAD_MLINESTYLE
350
19
  3
ACAD_PLOTSETTINGS
350
59
  3
ACAD_PLOTSTYLENAME
350
56
  3
ACAD_TABLESTYLE
350
B1C0
  3
ACDBHEADERROUNDTRIPXREC
350
C65F
  3
AcDbVariableDictionary
350
B97E
  0
DICTIONARY
  5
BEBB
330
A
100
AcDbDictionary
280
     1
281
     1
  3
ACAD_LAYERFILTERS
360
C2B2
  3
ACLYDICTIONARY
360
C2B1
  0
DICTIONARY
  5
BA61
330
2
100
AcDbDictionary
280
     1
281
     1
  3
ACAD_SORTENTS
360
BA62
  0
DICTIONARY
  5
B1BF
102
{ACAD_REACTORS
330
1A
102
}
330
1A
100
AcDbDictionary
281
     1
  0
DICTIONARY
  5
18
102
{ACAD_REACTORS
330
1A
102
}
330
1A
100
AcDbDictionary
281
     1
  3
*A1
350
3A0
  3
*A10
350
A9E8
  3
*A11
350
6398
  3
*A12
350
2FC7
  3
*A13
350
795A
  3
*A14
350
2FC6
  3
*A15
350
8936
  3
*A16
350
4FAD
  3
*A17
350
8937
  3
*A18
350
A3EA
  3
*A19
350
3A1
  3
*A2
350
ACC
  3
*A20
350
ADDD
  3
*A21
350
46A2
  3
*A22
350
C5C7
  3
*A23
350
2766
  3
*A24
350
38D5
  3
*A25
350
46AB
  3
*A26
350
4FAE
  3
*A27
350
A9E7
  3
*A28
350
38D6
  3
*A3
350
5DF8
  3
*A4
350
795C
  3
*A5
350
2120
  3
*A6
350
2765
  3
*A7
350
54B2
  3
*A8
350
A3E9
  3
*A9
350
595A
  0
DICTIONARY
  5
58
102
{ACAD_REACTORS
330
1A
102
}
330
1A
100
AcDbDictionary
281
     1
  3
Model
350
5A
  3
ﾚｲｱｳﾄ1
350
5B
  0
DICTIONARY
  5
B1BE
102
{ACAD_REACTORS
330
1A
102
}
330
1A
100
AcDbDictionary
281
     1
  0
DICTIONARY
  5
19
102
{ACAD_REACTORS
330
1A
102
}
330
1A
100
AcDbDictionary
281
     1
  3
STANDARD
350
1D
  0
DICTIONARY
  5
59
102
{ACAD_REACTORS
330
1A
102
}
330
1A
100
AcDbDictionary
281
     1
  0
ACDBDICTIONARYWDFLT
  5
56
102
{ACAD_REACTORS
330
1A
102
}
330
1A
100
AcDbDictionary
281
     1
  3
Normal
350
57
100
AcDbDictionaryWithDefault
340
57
  0
DICTIONARY
  5
B1C0
102
{ACAD_REACTORS
330
1A
102
}
330
1A
100
AcDbDictionary
281
     1
  3
Standard
350
B1C1
  0
DICTIONARY
  5
C65F
102
{ACAD_REACTORS
330
1A
102
}
330
1A
100
AcDbDictionary
281
     1
  0
DICTIONARY
  5
B97E
102
{ACAD_REACTORS
330
1A
102
}
330
1A
100
AcDbDictionary
281
     1
  3
CTABLESTYLE
350
B97F
  3
DIMASSOC
350
BA4F
  3
PROJECTNAME
350
BA50
  0
DICTIONARY
  5
C2B2
102
{ACAD_REACTORS
330
BEBB
102
}
330
BEBB
100
AcDbDictionary
281
     1
  0
DICTIONARY
  5
C2B1
102
{ACAD_REACTORS
330
BEBB
102
}
330
BEBB
100
AcDbDictionary
281
     1
1001
ACAD
1000
<All
  0
SORTENTSTABLE
  5
BA62
102
{ACAD_REACTORS
330
BA61
102
}
330
BA61
100
AcDbSortentsTable
330
2
331
B181
  5
B183
331
B118
  5
B118
331
C001
  5
C015
331
BDD2
  5
BDD4
331
C01E
  5
C056
331
BE46
  5
BE94
331
BA66
  5
BA67
331
B187
  5
B18A
331
BCE4
  5
BCE5
331
C0C7
  5
C12D
331
B184
  5
B186
331
C4F9
  5
C4FF
331
B18A
  5
B190
331
C12D
  5
BDE7
331
BDDE
  5
BDE0
331
C054
  5
C058
331
C4FF
  5
C537
331
BD18
  5
BDC8
331
B9D8
  5
BA13
331
B190
  5
B192
331
BD12
  5
BD13
331
B15A
  5
B15A
331
B193
  5
B1A0
331
BB0D
  5
BCE4
331
BDE4
  5
BDE5
331
C05A
  5
C0C6
331
BDE7
  5
BE45
331
BA57
  5
BA58
331
AFCF
  5
AFCF
331
C060
  5
C0C7
331
BDE1
  5
BDE2
331
C537
  5
B181
331
B9B3
  5
B9CA
331
BDC9
  5
BDCA
331
BDD8
  5
BDDE
331
20
  5
20
331
B1A0
  5
B1AD
331
B119
  5
B119
331
21
  5
21
331
C3A8
  5
C3B6
331
C3FD
  5
C4F8
331
B9D0
  5
B9D4
331
BA67
  5
BA68
331
BA2E
  5
BA57
331
BCE5
  5
BD12
331
4A3
  5
4A3
331
B9D6
  5
B9D7
331
BD13
  5
BD14
331
BE4A
  5
BF05
331
C128
  5
C262
331
BDE5
  5
BDE6
331
BA58
  5
BA65
331
B0B0
  5
B0B0
331
BDE2
  5
BDE3
331
C058
  5
C05A
331
C008
  5
C017
331
BF04
  5
BF26
331
BA15
  5
BA2C
331
BDCA
  5
BDCB
331
BDE8
  5
BE46
331
B9CA
  5
B9CB
331
B183
  5
B184
331
BE45
  5
BE4A
331
BA65
  5
BA66
331
BDD4
  5
BDD8
331
B9CE
  5
B9D0
331
B186
  5
B187
331
BA2C
  5
BA2E
331
B9CB
  5
B9CE
331
BA68
  5
BB0D
331
C4F8
  5
C4F9
331
B140
  5
B140
331
BD14
  5
BD17
331
B9D4
  5
B9D6
331
C056
  5
C059
331
BD17
  5
BD18
331
B9D7
  5
B9D8
331
B1AD
  5
B9B3
331
AFC5
  5
AFC5
331
C0C6
  5
C128
331
B192
  5
B193
331
C262
  5
C33B
331
C015
  5
C054
331
BDE6
  5
BDE8
331
BDE3
  5
BDE4
331
C059
  5
C060
331
BDE0
  5
BDE1
331
BDCB
  5
BDD2
331
1F
  5
1F
331
BF05
  5
C008
331
B17D
  5
B17D
331
BA13
  5
BA15
331
BDC8
  5
BDC9
  0
GROUP
  5
3A0
102
{ACAD_REACTORS
330
18
102
}
330
18
100
AcDbGroup
300

 70
     1
 71
     1
  0
GROUP
  5
A9E8
102
{ACAD_REACTORS
330
18
102
}
330
18
100
AcDbGroup
300

 70
     1
 71
     1
  0
GROUP
  5
6398
102
{ACAD_REACTORS
330
18
102
}
330
18
100
AcDbGroup
300

 70
     1
 71
     1
  0
GROUP
  5
2FC7
102
{ACAD_REACTORS
330
18
102
}
330
18
100
AcDbGroup
300

 70
     1
 71
     1
  0
GROUP
  5
795A
102
{ACAD_REACTORS
330
18
102
}
330
18
100
AcDbGroup
300

 70
     1
 71
     1
  0
GROUP
  5
2FC6
102
{ACAD_REACTORS
330
18
102
}
330
18
100
AcDbGroup
300

 70
     1
 71
     1
  0
GROUP
  5
8936
102
{ACAD_REACTORS
330
18
102
}
330
18
100
AcDbGroup
300

 70
     1
 71
     1
  0
GROUP
  5
4FAD
102
{ACAD_REACTORS
330
18
102
}
330
18
100
AcDbGroup
300

 70
     1
 71
     1
  0
GROUP
  5
8937
102
{ACAD_REACTORS
330
18
102
}
330
18
100
AcDbGroup
300

 70
     1
 71
     1
  0
GROUP
  5
A3EA
102
{ACAD_REACTORS
330
18
102
}
330
18
100
AcDbGroup
300

 70
     1
 71
     1
  0
GROUP
  5
3A1
102
{ACAD_REACTORS
330
18
102
}
330
18
100
AcDbGroup
300

 70
     1
 71
     1
  0
GROUP
  5
ACC
102
{ACAD_REACTORS
330
18
102
}
330
18
100
AcDbGroup
300

 70
     1
 71
     1
  0
GROUP
  5
ADDD
102
{ACAD_REACTORS
330
18
102
}
330
18
100
AcDbGroup
300

 70
     1
 71
     1
  0
GROUP
  5
46A2
102
{ACAD_REACTORS
330
18
102
}
330
18
100
AcDbGroup
300

 70
     1
 71
     1
  0
GROUP
  5
C5C7
102
{ACAD_REACTORS
330
18
102
}
330
18
100
AcDbGroup
300

 70
     1
 71
     1
340
C5C6
340
C5C5
340
C572
340
C571
340
C570
340
C56F
340
C56E
340
C56D
340
C56C
340
C56B
340
C56A
340
C569
340
C568
340
C567
340
C566
340
C565
340
C564
340
C563
340
C562
340
C561
340
C560
340
C55F
340
C55E
340
C55D
340
C55C
340
C55B
340
C55A
340
C559
340
C558
340
C557
340
C556
340
C555
340
C554
340
C553
340
C552
340
C551
340
C550
340
C54F
340
C54E
340
C54D
340
C54C
340
C54B
340
C54A
340
C549
340
C548
340
C547
340
C546
340
C545
340
C544
340
C543
340
C542
340
C541
340
C540
340
C53F
340
C53E
340
C53D
340
C53C
340
C4FF
340
C4F9
340
C4F8
340
C3FD
340
C3A8
340
C262
340
C128
340
C0C7
340
C0C6
340
C060
340
C05A
340
C059
340
C058
340
C056
340
C054
340
C01E
340
C015
340
C008
340
C001
340
BF05
340
BF04
340
BE4A
340
BE46
340
BE45
340
BDE8
340
BDE7
340
BDE6
340
C12D
340
BDE5
340
BDE4
340
BDE3
340
BDE2
340
BDE1
340
BDE0
340
BDDE
340
BDD8
340
BDD4
340
BDD2
340
BDCB
340
BDCA
340
BDC9
340
BDC8
340
BD18
340
BD17
340
BD14
340
BD13
340
BD12
340
BCE5
340
BCE4
340
BB0D
340
BA68
340
BA67
340
BA66
340
BA65
340
BA58
340
BA60
340
BA57
340
BA2E
340
BA2C
340
BA15
340
BA13
340
B9D8
340
B9D7
340
B9D6
340
B9D4
340
B9D0
340
B9CE
340
B9CB
340
B9CA
340
B9B3
340
B192
340
B190
340
B18A
340
B187
340
B186
340
B184
340
B183
340
B181
340
C537
340
B17D
340
B15A
340
B140
340
B119
340
B118
340
B0B0
340
AFCF
340
AFC5
  0
GROUP
  5
2766
102
{ACAD_REACTORS
330
18
102
}
330
18
100
AcDbGroup
300

 70
     1
 71
     1
  0
GROUP
  5
38D5
102
{ACAD_REACTORS
330
18
102
}
330
18
100
AcDbGroup
300

 70
     1
 71
     1
  0
GROUP
  5
46AB
102
{ACAD_REACTORS
330
18
102
}
330
18
100
AcDbGroup
300

 70
     1
 71
     1
  0
GROUP
  5
4FAE
102
{ACAD_REACTORS
330
18
102
}
330
18
100
AcDbGroup
300

 70
     1
 71
     1
  0
GROUP
  5
A9E7
102
{ACAD_REACTORS
330
18
102
}
330
18
100
AcDbGroup
300

 70
     1
 71
     1
  0
GROUP
  5
38D6
102
{ACAD_REACTORS
330
18
102
}
330
18
100
AcDbGroup
300

 70
     1
 71
     1
  0
GROUP
  5
5DF8
102
{ACAD_REACTORS
330
18
102
}
330
18
100
AcDbGroup
300

 70
     1
 71
     1
  0
GROUP
  5
795C
102
{ACAD_REACTORS
330
18
102
}
330
18
100
AcDbGroup
300

 70
     1
 71
     1
  0
GROUP
  5
2120
102
{ACAD_REACTORS
330
18
102
}
330
18
100
AcDbGroup
300

 70
     1
 71
     1
  0
GROUP
  5
2765
102
{ACAD_REACTORS
330
18
102
}
330
18
100
AcDbGroup
300

 70
     1
 71
     1
  0
GROUP
  5
54B2
102
{ACAD_REACTORS
330
18
102
}
330
18
100
AcDbGroup
300

 70
     1
 71
     1
  0
GROUP
  5
A3E9
102
{ACAD_REACTORS
330
18
102
}
330
18
100
AcDbGroup
300

 70
     1
 71
     1
  0
GROUP
  5
595A
102
{ACAD_REACTORS
330
18
102
}
330
18
100
AcDbGroup
300

 70
     1
 71
     1
  0
LAYOUT
  5
5A
102
{ACAD_XDICTIONARY
360
C660
102
}
102
{ACAD_REACTORS
330
58
102
}
330
58
100
AcDbPlotSettings
  1

  2
none_device
  4
Letter_(8.50_x_11.00_Inches)
  6

 40
6.349999904632568
 41
6.349999904632568
 42
6.350006103515625
 43
6.350006103515625
 44
215.8999938964844
 45
279.3999938964844
 46
0.0
 47
0.0
 48
0.0
 49
0.0
140
0.0
141
0.0
142
1.0
143
225.6774977072561
 70
 11952
 72
     0
 73
     1
 74
     0
  7
monochrome.ctb
 75
     0
147
0.0044311019492833
148
22480.86193866463
149
147.8683046958414
100
AcDbLayout
  1
Model
 70
     1
 71
     0
 10
0.0
 20
0.0
 11
12.0
 21
9.0
 12
0.0
 22
0.0
 32
0.0
 14
0.0
 24
0.0
 34
0.0
 15
0.0
 25
0.0
 35
0.0
146
0.0
 13
0.0
 23
0.0
 33
0.0
 16
1.0
 26
0.0
 36
0.0
 17
0.0
 27
1.0
 37
0.0
 76
     0
330
2
1001
ACAD_PSEXT
1000
なし
1000
なし
1000
適切ではありません
1000
新しいプロッタ環境設定名を選択しない限り、レイアウトは印刷されません。
1070
     0
  0
LAYOUT
  5
5B
102
{ACAD_XDICTIONARY
360
C662
102
}
102
{ACAD_REACTORS
330
58
102
}
330
58
100
AcDbPlotSettings
  1

  2
なし
  4

  6

 40
0.0
 41
0.0
 42
0.0
 43
0.0
 44
0.0
 45
0.0
 46
0.0
 47
0.0
 48
0.0
 49
0.0
140
0.0
141
0.0
142
1.0
143
1.0
 70
   688
 72
     0
 73
     0
 74
     5
  7
monochrome.ctb
 75
    16
147
1.0
148
0.0
149
0.0
100
AcDbLayout
  1
ﾚｲｱｳﾄ1
 70
     1
 71
     1
 10
0.0
 20
0.0
 11
12.0
 21
9.0
 12
0.0
 22
0.0
 32
0.0
 14
1.000000000000000E+20
 24
1.000000000000000E+20
 34
1.000000000000000E+20
 15
-1.000000000000000E+20
 25
-1.000000000000000E+20
 35
-1.000000000000000E+20
146
0.0
 13
0.0
 23
0.0
 33
0.0
 16
1.0
 26
0.0
 36
0.0
 17
0.0
 27
1.0
 37
0.0
 76
     0
330
7
  0
MLINESTYLE
  5
1D
102
{ACAD_REACTORS
330
19
102
}
330
19
100
AcDbMlineStyle
  2
STANDARD
 70
     0
  3

 62
   256
 51
90.0
 52
90.0
 71
     2
 49
0.5
 62
   256
  6
BYLAYER
 49
-0.5
 62
   256
  6
BYLAYER
  0
ACDBPLACEHOLDER
  5
57
102
{ACAD_REACTORS
330
56
102
}
330
56
  0
TABLESTYLE
  5
B1C1
102
{ACAD_REACTORS
330
B1C0
102
}
330
B1C0
100
AcDbTableStyle
  3
Standard
 70
     0
 71
     0
 40
0.06
 41
0.06
280
     0
281
     0
  7
STANDARD
140
0.18
170
     2
 62
     0
 63
     7
283
     0
274
    -2
284
     1
 64
     0
275
    -2
285
     1
 65
     0
276
    -2
286
     1
 66
     0
277
    -2
287
     1
 67
     0
278
    -2
288
     1
 68
     0
279
    -2
289
     1
 69
     0
  7
STANDARD
140
0.25
170
     5
 62
     0
 63
     7
283
     0
274
    -2
284
     1
 64
     0
275
    -2
285
     1
 65
     0
276
    -2
286
     1
 66
     0
277
    -2
287
     1
 67
     0
278
    -2
288
     1
 68
     0
279
    -2
289
     1
 69
     0
  7
STANDARD
140
0.18
170
     5
 62
     0
 63
     7
283
     0
274
    -2
284
     1
 64
     0
275
    -2
285
     1
 65
     0
276
    -2
286
     1
 66
     0
277
    -2
287
     1
 67
     0
278
    -2
288
     1
 68
     0
279
    -2
289
     1
 69
     0
  0
DICTIONARYVAR
  5
B97F
102
{ACAD_REACTORS
330
B97E
102
}
330
B97E
100
DictionaryVariables
280
     0
  1
STANDARD
  0
DICTIONARYVAR
  5
BA4F
102
{ACAD_REACTORS
330
B97E
102
}
330
B97E
100
DictionaryVariables
280
     0
  1
1
  0
DICTIONARYVAR
  5
BA50
102
{ACAD_REACTORS
330
B97E
102
}
330
B97E
100
DictionaryVariables
280
     0
  1

  0
DICTIONARY
  5
C660
330
5A
100
AcDbDictionary
280
     1
281
     1
  3
ACAD_XREC_ROUNDTRIP
360
C661
  0
DICTIONARY
  5
C662
330
5B
100
AcDbDictionary
280
     1
281
     1
  3
ACAD_XREC_ROUNDTRIP
360
C663
  0
XRECORD
  5
C661
102
{ACAD_REACTORS
330
C660
102
}
330
C660
100
AcDbXrecord
280
     1
102
SHADEPLOT
 70
     0
102
SHADEPLOTRESLEVEL
 70
     2
102
SHADEPLOTCUSTOMDPI
 70
   300
  0
XRECORD
  5
C663
102
{ACAD_REACTORS
330
C662
102
}
330
C662
100
AcDbXrecord
280
     1
102
SHADEPLOT
 70
     0
102
SHADEPLOTRESLEVEL
 70
     2
102
SHADEPLOTCUSTOMDPI
 70
   300
  0
ENDSEC
  0
EOF
