  0
SECTION
  2
HEADER
  9
$ACADVER
  1
AC1015
  9
$ACADMAINTVER
 70
    20
  9
$DWGCODEPAGE
  3
ANSI_932
  9
$INSBASE
 10
922.019522
 20
-675.4306699999999
 30
0.0
  9
$EXTMIN
 10
-153.9677362914742
 20
-35.08219456243728
 30
-0.0000000000000058
  9
$EXTMAX
 10
816.6230577222764
 20
528.4352807450233
 30
0.0000000000000104
  9
$LIMMIN
 10
0.0
 20
0.0
  9
$LIMMAX
 10
420.0
 20
297.0
  9
$ORTHOMODE
 70
     1
  9
$REGENMODE
 70
     1
  9
$FILLMODE
 70
     1
  9
$QTEXTMODE
 70
     0
  9
$MIRRTEXT
 70
     1
  9
$LTSCALE
 40
50.0
  9
$ATTMODE
 70
     1
  9
$TEXTSIZE
 40
30.0
  9
$TRACEWID
 40
0.05
  9
$TEXTSTYLE
  7
SUNPOU
  9
$CLAYER
  8
0
  9
$CELTYPE
  6
BYLAYER
  9
$CECOLOR
 62
   256
  9
$CELTSCALE
 40
1.0
  9
$DISPSILH
 70
     0
  9
$DIMSCALE
 40
1.0
  9
$DIMASZ
 40
3.0
  9
$DIMEXO
 40
3.0
  9
$DIMDLI
 40
0.38
  9
$DIMRND
 40
0.0
  9
$DIMDLE
 40
0.0
  9
$DIMEXE
 40
0.0
  9
$DIMTP
 40
0.0
  9
$DIMTM
 40
0.0
  9
$DIMTXT
 40
10.0
  9
$DIMCEN
 40
0.0
  9
$DIMTSZ
 40
0.0
  9
$DIMTOL
 70
     0
  9
$DIMLIM
 70
     0
  9
$DIMTIH
 70
     0
  9
$DIMTOH
 70
     0
  9
$DIMSE1
 70
     0
  9
$DIMSE2
 70
     0
  9
$DIMTAD
 70
     1
  9
$DIMZIN
 70
     0
  9
$DIMBLK
  1
Dot
  9
$DIMASO
 70
     1
  9
$DIMSHO
 70
     1
  9
$DIMPOST
  1

  9
$DIMAPOST
  1

  9
$DIMALT
 70
     0
  9
$DIMALTD
 70
     2
  9
$DIMALTF
 40
25.4
  9
$DIMLFAC
 40
1.0
  9
$DIMTOFL
 70
     0
  9
$DIMTVP
 40
0.0
  9
$DIMTIX
 70
     0
  9
$DIMSOXD
 70
     0
  9
$DIMSAH
 70
     0
  9
$DIMBLK1
  1

  9
$DIMBLK2
  1

  9
$DIMSTYLE
  2
STANDARD
  9
$DIMCLRD
 70
    60
  9
$DIMCLRE
 70
    70
  9
$DIMCLRT
 70
    60
  9
$DIMTFAC
 40
0.064286
  9
$DIMGAP
 40
5.0
  9
$DIMJUST
 70
     0
  9
$DIMSD1
 70
     0
  9
$DIMSD2
 70
     0
  9
$DIMTOLJ
 70
     1
  9
$DIMTZIN
 70
     0
  9
$DIMALTZ
 70
     0
  9
$DIMALTTZ
 70
     0
  9
$DIMUPT
 70
     0
  9
$DIMDEC
 70
     0
  9
$DIMTDEC
 70
     0
  9
$DIMALTU
 70
     2
  9
$DIMALTTD
 70
     2
  9
$DIMTXSTY
  7
SUNPOU
  9
$DIMAUNIT
 70
     0
  9
$DIMADEC
 70
     0
  9
$DIMALTRND
 40
0.0
  9
$DIMAZIN
 70
     0
  9
$DIMDSEP
 70
    46
  9
$DIMATFIT
 70
     3
  9
$DIMFRAC
 70
     0
  9
$DIMLDRBLK
  1

  9
$DIMLUNIT
 70
     2
  9
$DIMLWD
 70
    -2
  9
$DIMLWE
 70
    -2
  9
$DIMTMOVE
 70
     0
  9
$LUNITS
 70
     2
  9
$LUPREC
 70
     5
  9
$SKETCHINC
 40
0.1
  9
$FILLETRAD
 40
0.0
  9
$AUNITS
 70
     0
  9
$AUPREC
 70
     0
  9
$MENU
  1
acad
  9
$ELEVATION
 40
0.0
  9
$PELEVATION
 40
0.0
  9
$THICKNESS
 40
0.0
  9
$LIMCHECK
 70
     0
  9
$CHAMFERA
 40
0.0
  9
$CHAMFERB
 40
0.0
  9
$CHAMFERC
 40
0.0
  9
$CHAMFERD
 40
0.0
  9
$SKPOLY
 70
     0
  9
$TDCREATE
 40
2450623.654673033
  9
$TDUCREATE
 40
2450623.279673032
  9
$TDUPDATE
 40
2454580.666859248
  9
$TDUUPDATE
 40
2454580.291859248
  9
$TDINDWG
 40
0.2872290394
  9
$TDUSRTIMER
 40
0.2872288657
  9
$USRTIMER
 70
     1
  9
$ANGBASE
 50
0.0
  9
$ANGDIR
 70
     0
  9
$PDMODE
 70
     0
  9
$PDSIZE
 40
0.0
  9
$PLINEWID
 40
0.0
  9
$SPLFRAME
 70
     0
  9
$SPLINETYPE
 70
     6
  9
$SPLINESEGS
 70
     8
  9
$HANDSEED
  5
AA32
  9
$SURFTAB1
 70
     6
  9
$SURFTAB2
 70
     6
  9
$SURFTYPE
 70
     6
  9
$SURFU
 70
     6
  9
$SURFV
 70
     6
  9
$UCSBASE
  2

  9
$UCSNAME
  2

  9
$UCSORG
 10
0.0
 20
0.0
 30
0.0
  9
$UCSXDIR
 10
1.0
 20
0.0
 30
0.0
  9
$UCSYDIR
 10
0.0
 20
1.0
 30
0.0
  9
$UCSORTHOREF
  2

  9
$UCSORTHOVIEW
 70
     0
  9
$UCSORGTOP
 10
0.0
 20
0.0
 30
0.0
  9
$UCSORGBOTTOM
 10
0.0
 20
0.0
 30
0.0
  9
$UCSORGLEFT
 10
0.0
 20
0.0
 30
0.0
  9
$UCSORGRIGHT
 10
0.0
 20
0.0
 30
0.0
  9
$UCSORGFRONT
 10
0.0
 20
0.0
 30
0.0
  9
$UCSORGBACK
 10
0.0
 20
0.0
 30
0.0
  9
$PUCSBASE
  2

  9
$PUCSNAME
  2

  9
$PUCSORG
 10
0.0
 20
0.0
 30
0.0
  9
$PUCSXDIR
 10
1.0
 20
0.0
 30
0.0
  9
$PUCSYDIR
 10
0.0
 20
1.0
 30
0.0
  9
$PUCSORTHOREF
  2

  9
$PUCSORTHOVIEW
 70
     0
  9
$PUCSORGTOP
 10
0.0
 20
0.0
 30
0.0
  9
$PUCSORGBOTTOM
 10
0.0
 20
0.0
 30
0.0
  9
$PUCSORGLEFT
 10
0.0
 20
0.0
 30
0.0
  9
$PUCSORGRIGHT
 10
0.0
 20
0.0
 30
0.0
  9
$PUCSORGFRONT
 10
0.0
 20
0.0
 30
0.0
  9
$PUCSORGBACK
 10
0.0
 20
0.0
 30
0.0
  9
$USERI1
 70
     0
  9
$USERI2
 70
     0
  9
$USERI3
 70
     0
  9
$USERI4
 70
     0
  9
$USERI5
 70
     0
  9
$USERR1
 40
0.0
  9
$USERR2
 40
0.0
  9
$USERR3
 40
0.0
  9
$USERR4
 40
0.0
  9
$USERR5
 40
0.0
  9
$WORLDVIEW
 70
     1
  9
$SHADEDGE
 70
     3
  9
$SHADEDIF
 70
    70
  9
$TILEMODE
 70
     1
  9
$MAXACTVP
 70
    16
  9
$PINSBASE
 10
0.0
 20
0.0
 30
0.0
  9
$PLIMCHECK
 70
     0
  9
$PEXTMIN
 10
1.000000000000000E+20
 20
1.000000000000000E+20
 30
1.000000000000000E+20
  9
$PEXTMAX
 10
-1.000000000000000E+20
 20
-1.000000000000000E+20
 30
-1.000000000000000E+20
  9
$PLIMMIN
 10
0.0
 20
0.0
  9
$PLIMMAX
 10
12.0
 20
9.0
  9
$UNITMODE
 70
     0
  9
$VISRETAIN
 70
     0
  9
$PLINEGEN
 70
     0
  9
$PSLTSCALE
 70
     1
  9
$TREEDEPTH
 70
  3020
  9
$CMLSTYLE
  2
STANDARD
  9
$CMLJUST
 70
     0
  9
$CMLSCALE
 40
1.0
  9
$PROXYGRAPHICS
 70
     1
  9
$MEASUREMENT
 70
     0
  9
$CELWEIGHT
370
    -1
  9
$ENDCAPS
280
     0
  9
$JOINSTYLE
280
     0
  9
$LWDISPLAY
290
     0
  9
$INSUNITS
 70
     0
  9
$HYPERLINKBASE
  1

  9
$STYLESHEET
  1

  9
$XEDIT
290
     1
  9
$CEPSNTYPE
380
     0
  9
$PSTYLEMODE
290
     1
  9
$FINGERPRINTGUID
  2
{FB88A696-E29C-4009-92AF-A3599A8169D5}
  9
$VERSIONGUID
  2
{9CE4678C-4314-46AE-8F9F-9115661DBC94}
  9
$EXTNAMES
290
     1
  9
$PSVPSCALE
 40
0.0
  9
$OLESTARTUP
290
     0
  0
ENDSEC
  0
SECTION
  2
CLASSES
  0
CLASS
  1
DICTIONARYVAR
  2
AcDbDictionaryVar
  3
ObjectDBX Classes
 90
        0
280
     0
281
     0
  0
CLASS
  1
ACDBDICTIONARYWDFLT
  2
AcDbDictionaryWithDefault
  3
ObjectDBX Classes
 90
        0
280
     0
281
     0
  0
CLASS
  1
ACDBPLACEHOLDER
  2
AcDbPlaceHolder
  3
ObjectDBX Classes
 90
        0
280
     0
281
     0
  0
CLASS
  1
LAYOUT
  2
AcDbLayout
  3
ObjectDBX Classes
 90
        0
280
     0
281
     0
  0
CLASS
  1
TABLESTYLE
  2
AcDbTableStyle
  3
ObjectDBX Classes
 90
     2047
280
     0
281
     0
  0
ENDSEC
  0
SECTION
  2
TABLES
  0
TABLE
  2
VPORT
  5
12
330
0
100
AcDbSymbolTable
 70
     3
  0
VPORT
  5
AA2C
330
12
100
AcDbSymbolTableRecord
100
AcDbViewportTableRecord
  2
*Active
 70
     0
 10
0.0
 20
0.0
 11
1.0
 21
1.0
 12
331.3276607154011
 22
246.6765430912931
 13
0.0
 23
0.0
 14
1.0
 24
1.0
 15
0.0
 25
0.0
 16
0.0
 26
0.0
 36
1.0
 17
0.0
 27
0.0
 37
0.0
 40
638.0987461563081
 41
1.528662420382165
 42
50.0
 43
0.0
 44
0.0
 50
0.0
 51
0.0
 71
     0
 72
 20000
 73
     1
 74
     1
 75
     0
 76
     0
 77
     0
 78
     0
281
     0
 65
     1
110
0.0
120
0.0
130
0.0
111
1.0
121
0.0
131
0.0
112
0.0
122
1.0
132
0.0
 79
     0
146
0.0
  0
ENDTAB
  0
TABLE
  2
LTYPE
  5
D
330
0
100
AcDbSymbolTable
 70
     2
  0
LTYPE
  5
E
330
D
100
AcDbSymbolTableRecord
100
AcDbLinetypeTableRecord
  2
BYBLOCK
 70
     0
  3

 72
    65
 73
     0
 40
0.0
  0
LTYPE
  5
F
330
D
100
AcDbSymbolTableRecord
100
AcDbLinetypeTableRecord
  2
BYLAYER
 70
     0
  3

 72
    65
 73
     0
 40
0.0
  0
LTYPE
  5
5
330
D
100
AcDbSymbolTableRecord
100
AcDbLinetypeTableRecord
  2
CONTINUOUS
 70
     0
  3
Solid line
 72
    65
 73
     0
 40
0.0
  0
ENDTAB
  0
TABLE
  2
LAYER
  5
A
330
0
100
AcDbSymbolTable
 70
     6
  0
LAYER
  5
4
330
A
100
AcDbSymbolTableRecord
100
AcDbLayerTableRecord
  2
0
 70
     0
 62
     7
  6
CONTINUOUS
370
    -3
390
57
  0
LAYER
  5
25
330
A
100
AcDbSymbolTableRecord
100
AcDbLayerTableRecord
  2
KIJUN
 70
     0
 62
     7
  6
CONTINUOUS
370
    -3
390
57
  0
LAYER
  5
22
330
A
100
AcDbSymbolTableRecord
100
AcDbLayerTableRecord
  2
HOJO
 70
     0
 62
     3
  6
CONTINUOUS
370
    -3
390
57
  0
LAYER
  5
1B
330
A
100
AcDbSymbolTableRecord
100
AcDbLayerTableRecord
  2
WAKU
 70
     0
 62
     1
  6
CONTINUOUS
370
    -3
390
57
  0
LAYER
  5
31
330
A
100
AcDbSymbolTableRecord
100
AcDbLayerTableRecord
  2
DEFPOINTS
 70
     0
 62
     7
  6
CONTINUOUS
290
     0
370
    -3
390
57
  0
LAYER
  5
28
330
A
100
AcDbSymbolTableRecord
100
AcDbLayerTableRecord
  2
SUNPOU
 70
     0
 62
    70
  6
CONTINUOUS
370
    -3
390
57
  0
ENDTAB
  0
TABLE
  2
STYLE
  5
B
330
0
100
AcDbSymbolTable
 70
     3
  0
STYLE
  5
C
330
B
100
AcDbSymbolTableRecord
100
AcDbTextStyleTableRecord
  2
STANDARD
 70
     0
 40
0.0
 41
1.0
 50
0.0
 71
     0
 42
0.2
  3
txt
  4

  0
STYLE
  5
1C
330
B
100
AcDbSymbolTableRecord
100
AcDbTextStyleTableRecord
  2
SUNPOU
 70
     0
 40
0.0
 41
1.0
 50
0.0
 71
     0
 42
30.0
  3
txt
  4
bigfont
  0
STYLE
  5
1AD
330
B
100
AcDbSymbolTableRecord
100
AcDbTextStyleTableRecord
  2
LIFE
 70
     0
 40
0.0
 41
0.7
 50
0.0
 71
     0
 42
10.0
  3
romans
  4
extfont
  0
ENDTAB
  0
TABLE
  2
VIEW
  5
10
330
0
100
AcDbSymbolTable
 70
     0
  0
ENDTAB
  0
TABLE
  2
UCS
  5
11
330
0
100
AcDbSymbolTable
 70
     0
  0
ENDTAB
  0
TABLE
  2
APPID
  5
14
330
0
100
AcDbSymbolTable
 70
     1
  0
APPID
  5
15
330
14
100
AcDbSymbolTableRecord
100
AcDbRegAppTableRecord
  2
ACAD
 70
     0
  0
ENDTAB
  0
TABLE
  2
DIMSTYLE
  5
16
330
0
100
AcDbSymbolTable
 70
     2
100
AcDbDimStyleTable
 71
     1
340
1E
  0
DIMSTYLE
105
1E
330
16
100
AcDbSymbolTableRecord
100
AcDbDimStyleTableRecord
  2
STANDARD
 70
     0
340
C
  0
DIMSTYLE
105
1AE
102
{ACAD_REACTORS
330
A97B
330
A99A
330
A9C3
330
A9DA
102
}
330
16
100
AcDbSymbolTableRecord
100
AcDbDimStyleTableRecord
  2
STANDARD$0
 70
     0
 40
2.0
 41
1.0
 42
2.0
 43
0.0
 44
1.0
 73
     0
 74
     0
 77
     3
 78
     9
140
4.5
141
0.0
147
1.0
172
     1
173
     1
178
     3
271
     2
340
1AD
341
109
343
109
344
109
  0
ENDTAB
  0
TABLE
  2
BLOCK_RECORD
  5
1
330
0
100
AcDbSymbolTable
 70
    12
  0
BLOCK_RECORD
  5
2
330
1
100
AcDbSymbolTableRecord
100
AcDbBlockTableRecord
  2
*MODEL_SPACE
340
5A
  0
BLOCK_RECORD
  5
7
330
1
100
AcDbSymbolTableRecord
100
AcDbBlockTableRecord
  2
*PAPER_SPACE
340
5B
  0
BLOCK_RECORD
  5
109
330
1
100
AcDbSymbolTableRecord
100
AcDbBlockTableRecord
  2
_Dot
340
0
102
{BLKREFS
331
A649
331
A64A
331
A652
331
A653
331
A65B
331
A65C
331
A664
331
A665
331
A9BB
331
A9BC
331
A9EC
331
A9ED
331
A9F5
331
A9F6
331
A9FE
331
A9FF
331
AA07
331
AA08
102
}
  0
BLOCK_RECORD
  5
A97C
330
1
100
AcDbSymbolTableRecord
100
AcDbBlockTableRecord
  2
*D6
340
0
  0
BLOCK_RECORD
  5
A99B
330
1
100
AcDbSymbolTableRecord
100
AcDbBlockTableRecord
  2
*D7
340
0
  0
BLOCK_RECORD
  5
A9C4
330
1
100
AcDbSymbolTableRecord
100
AcDbBlockTableRecord
  2
*D9
340
0
  0
BLOCK_RECORD
  5
A9DB
330
1
100
AcDbSymbolTableRecord
100
AcDbBlockTableRecord
  2
*D10
340
0
  0
ENDTAB
  0
ENDSEC
  0
SECTION
  2
BLOCKS
  0
BLOCK
  5
3
330
2
100
AcDbEntity
  8
0
100
AcDbBlockBegin
  2
*MODEL_SPACE
 70
     0
 10
0.0
 20
0.0
 30
0.0
  3
*MODEL_SPACE
  1

  0
ENDBLK
  5
6
330
2
100
AcDbEntity
  8
0
100
AcDbBlockEnd
  0
BLOCK
  5
8
330
7
100
AcDbEntity
 67
     1
  8
0
100
AcDbBlockBegin
  2
*PAPER_SPACE
 70
     0
 10
0.0
 20
0.0
 30
0.0
  3
*PAPER_SPACE
  1

  0
ENDBLK
  5
9
330
7
100
AcDbEntity
 67
     1
  8
0
100
AcDbBlockEnd
  0
BLOCK
  5
10C
330
109
100
AcDbEntity
  8
0
100
AcDbBlockBegin
  2
_Dot
 70
     0
 10
0.0
 20
0.0
 30
0.0
  3
_Dot
  1

  0
LWPOLYLINE
  5
10A
330
109
100
AcDbEntity
  8
0
  6
ByBlock
 62
     0
100
AcDbPolyline
 90
        2
 70
     1
 43
0.5
 10
-0.25
 20
0.0
 42
1.0
 10
0.25
 20
0.0
 42
1.0
  0
LINE
  5
10B
330
109
100
AcDbEntity
  8
0
  6
ByBlock
 62
     0
370
    -2
100
AcDbLine
 10
-0.5
 20
0.0
 30
0.0
 11
-1.0
 21
0.0
 31
0.0
  0
ENDBLK
  5
10D
330
109
100
AcDbEntity
  8
0
100
AcDbBlockEnd
  0
BLOCK
  5
A986
330
A97C
100
AcDbEntity
  8
0
100
AcDbBlockBegin
  2
*D6
 70
     1
 10
0.0
 20
0.0
 30
0.0
  3
*D6
  1

  0
LINE
  5
AA04
330
A97C
100
AcDbEntity
  8
SUNPOU
 62
    70
370
    -2
100
AcDbLine
 10
657.6887887668645
 20
359.4294700544383
 30
0.0
 11
657.6887887668645
 21
213.6300036757302
 31
0.0
  0
LINE
  5
AA05
330
A97C
100
AcDbEntity
  8
SUNPOU
 62
    70
370
    -2
100
AcDbLine
 10
467.6887887668644
 20
359.4294700544381
 30
0.0
 11
467.6887887668644
 21
213.6300036757302
 31
0.0
  0
LINE
  5
AA06
330
A97C
100
AcDbEntity
  8
SUNPOU
 62
    60
370
    -2
100
AcDbLine
 10
651.6887887668644
 20
213.6300036757302
 30
0.0
 11
473.6887887668644
 21
213.6300036757302
 31
0.0
  0
INSERT
  5
AA07
330
A97C
100
AcDbEntity
  8
SUNPOU
 62
    60
370
    -2
100
AcDbBlockReference
  2
_Dot
 10
657.6887887668645
 20
213.6300036757302
 30
0.0
 41
6.0
 42
6.0
 43
6.0
  0
INSERT
  5
AA08
330
A97C
100
AcDbEntity
  8
SUNPOU
 62
    60
370
    -2
100
AcDbBlockReference
  2
_Dot
 10
467.6887887668644
 20
213.6300036757302
 30
0.0
 41
6.0
 42
6.0
 43
6.0
 50
180.0
  0
MTEXT
  5
AA09
330
A97C
100
AcDbEntity
  8
SUNPOU
 62
    60
100
AcDbMText
 10
562.6887887668645
 20
233.6300036757302
 30
0.0
 40
20.0
 41
0.0
 71
     5
 72
     1
  1
\A1;190
  7
SUNPOU
 73
     1
 44
1.0
1001
ACAD
1000
MTEXTBEGIN
1070
    73
1070
     1
1070
    44
1040
1.0
1070
    74
1070
     0
1000
MTEXTEND
  0
POINT
  5
AA0A
330
A97C
100
AcDbEntity
  8
DEFPOINTS
 62
     0
100
AcDbPoint
 10
657.6887887668645
 20
365.4294700544383
 30
0.0
  0
POINT
  5
AA0B
330
A97C
100
AcDbEntity
  8
DEFPOINTS
 62
     0
100
AcDbPoint
 10
467.6887887668644
 20
365.4294700544381
 30
0.0
  0
POINT
  5
AA0C
330
A97C
100
AcDbEntity
  8
DEFPOINTS
 62
     0
100
AcDbPoint
 10
467.6887887668644
 20
213.6300036757302
 30
0.0
  0
ENDBLK
  5
A987
330
A97C
100
AcDbEntity
  8
0
100
AcDbBlockEnd
  0
BLOCK
  5
A9A5
330
A99B
100
AcDbEntity
  8
0
100
AcDbBlockBegin
  2
*D7
 70
     1
 10
0.0
 20
0.0
 30
0.0
  3
*D7
  1

  0
LINE
  5
A9F2
330
A99B
100
AcDbEntity
  8
SUNPOU
 62
    70
370
    -2
100
AcDbLine
 10
461.6887887668644
 20
365.4294700544381
 30
0.0
 11
364.2610137537758
 21
365.4294700544382
 31
0.0
  0
LINE
  5
A9F3
330
A99B
100
AcDbEntity
  8
SUNPOU
 62
    70
370
    -2
100
AcDbLine
 10
495.5177777669537
 20
525.4294700544382
 30
0.0
 11
364.2610137537758
 21
525.4294700544382
 31
0.0
  0
LINE
  5
A9F4
330
A99B
100
AcDbEntity
  8
SUNPOU
 62
    60
370
    -2
100
AcDbLine
 10
364.2610137537758
 20
371.4294700544382
 30
0.0
 11
364.2610137537758
 21
519.4294700544381
 31
0.0
  0
INSERT
  5
A9F5
330
A99B
100
AcDbEntity
  8
SUNPOU
 62
    60
370
    -2
100
AcDbBlockReference
  2
_Dot
 10
364.2610137537758
 20
365.4294700544382
 30
0.0
 41
6.0
 42
6.0
 43
6.0
 50
270.0
  0
INSERT
  5
A9F6
330
A99B
100
AcDbEntity
  8
SUNPOU
 62
    60
370
    -2
100
AcDbBlockReference
  2
_Dot
 10
364.2610137537758
 20
525.4294700544382
 30
0.0
 41
6.0
 42
6.0
 43
6.0
 50
90.0
  0
MTEXT
  5
A9F7
330
A99B
100
AcDbEntity
  8
SUNPOU
 62
    60
100
AcDbMText
 10
344.2610137537757
 20
445.4294700544383
 30
0.0
 40
20.0
 41
0.0
 71
     5
 72
     1
  1
\A1;160
  7
SUNPOU
 11
0.0000000000000001
 21
1.0
 31
0.0
 73
     1
 44
1.0
1001
ACAD
1000
MTEXTBEGIN
1070
    73
1070
     1
1070
    44
1040
1.0
1070
    74
1070
     0
1000
MTEXTEND
  0
POINT
  5
A9F8
330
A99B
100
AcDbEntity
  8
DEFPOINTS
 62
     0
100
AcDbPoint
 10
467.6887887668644
 20
365.4294700544381
 30
0.0
  0
POINT
  5
A9F9
330
A99B
100
AcDbEntity
  8
DEFPOINTS
 62
     0
100
AcDbPoint
 10
501.5177777669537
 20
525.4294700544382
 30
0.0
  0
POINT
  5
A9FA
330
A99B
100
AcDbEntity
  8
DEFPOINTS
 62
     0
100
AcDbPoint
 10
364.2610137537758
 20
525.4294700544382
 30
0.0
  0
ENDBLK
  5
A9A6
330
A99B
100
AcDbEntity
  8
0
100
AcDbBlockEnd
  0
BLOCK
  5
A9CE
330
A9C4
100
AcDbEntity
  8
0
100
AcDbBlockBegin
  2
*D9
 70
     1
 10
0.0
 20
0.0
 30
0.0
  3
*D9
  1

  0
LINE
  5
A9FB
330
A9C4
100
AcDbEntity
  8
SUNPOU
 62
    70
370
    -2
100
AcDbLine
 10
-34.46538745176213
 20
359.4294700544383
 30
0.0
 11
-34.46538745176213
 21
214.1382253623624
 31
0.0
  0
LINE
  5
A9FC
330
A9C4
100
AcDbEntity
  8
SUNPOU
 62
    70
370
    -2
100
AcDbLine
 10
155.5346125482379
 20
359.4294700544383
 30
0.0
 11
155.5346125482379
 21
214.1382253623624
 31
0.0
  0
LINE
  5
A9FD
330
A9C4
100
AcDbEntity
  8
SUNPOU
 62
    60
370
    -2
100
AcDbLine
 10
-28.46538745176213
 20
214.1382253623624
 30
0.0
 11
149.5346125482379
 21
214.1382253623624
 31
0.0
  0
INSERT
  5
A9FE
330
A9C4
100
AcDbEntity
  8
SUNPOU
 62
    60
370
    -2
100
AcDbBlockReference
  2
_Dot
 10
-34.46538745176213
 20
214.1382253623624
 30
0.0
 41
6.0
 42
6.0
 43
6.0
 50
180.0
  0
INSERT
  5
A9FF
330
A9C4
100
AcDbEntity
  8
SUNPOU
 62
    60
370
    -2
100
AcDbBlockReference
  2
_Dot
 10
155.5346125482379
 20
214.1382253623624
 30
0.0
 41
6.0
 42
6.0
 43
6.0
  0
MTEXT
  5
AA00
330
A9C4
100
AcDbEntity
  8
SUNPOU
 62
    60
100
AcDbMText
 10
60.53461254823789
 20
234.1382253623624
 30
0.0
 40
20.0
 41
0.0
 71
     5
 72
     1
  1
\A1;190
  7
SUNPOU
 73
     1
 44
1.0
1001
ACAD
1000
MTEXTBEGIN
1070
    73
1070
     1
1070
    44
1040
1.0
1070
    74
1070
     0
1000
MTEXTEND
  0
POINT
  5
AA01
330
A9C4
100
AcDbEntity
  8
DEFPOINTS
 62
     0
100
AcDbPoint
 10
-34.46538745176213
 20
365.4294700544383
 30
0.0
  0
POINT
  5
AA02
330
A9C4
100
AcDbEntity
  8
DEFPOINTS
 62
     0
100
AcDbPoint
 10
155.5346125482379
 20
365.4294700544383
 30
0.0
  0
POINT
  5
AA03
330
A9C4
100
AcDbEntity
  8
DEFPOINTS
 62
     0
100
AcDbPoint
 10
155.5346125482379
 20
214.1382253623624
 30
0.0
  0
ENDBLK
  5
A9CF
330
A9C4
100
AcDbEntity
  8
0
100
AcDbBlockEnd
  0
BLOCK
  5
A9E5
330
A9DB
100
AcDbEntity
  8
0
100
AcDbBlockBegin
  2
*D10
 70
     1
 10
0.0
 20
0.0
 30
0.0
  3
*D10
  1

  0
LINE
  5
A9E9
330
A9DB
100
AcDbEntity
  8
SUNPOU
 62
    70
370
    -2
100
AcDbLine
 10
-40.46538745176213
 20
365.4294700544383
 30
0.0
 11
-123.9109663358177
 21
365.4294700544383
 31
0.0
  0
LINE
  5
A9EA
330
A9DB
100
AcDbEntity
  8
SUNPOU
 62
    70
370
    -2
100
AcDbLine
 10
-12.54556293228552
 20
525.4294700544383
 30
0.0
 11
-123.9109663358176
 21
525.4294700544383
 31
0.0
  0
LINE
  5
A9EB
330
A9DB
100
AcDbEntity
  8
SUNPOU
 62
    60
370
    -2
100
AcDbLine
 10
-123.9109663358176
 20
371.4294700544383
 30
0.0
 11
-123.9109663358176
 21
519.4294700544382
 31
0.0
  0
INSERT
  5
A9EC
330
A9DB
100
AcDbEntity
  8
SUNPOU
 62
    60
370
    -2
100
AcDbBlockReference
  2
_Dot
 10
-123.9109663358176
 20
365.4294700544383
 30
0.0
 41
6.0
 42
6.0
 43
6.0
 50
270.0
  0
INSERT
  5
A9ED
330
A9DB
100
AcDbEntity
  8
SUNPOU
 62
    60
370
    -2
100
AcDbBlockReference
  2
_Dot
 10
-123.9109663358176
 20
525.4294700544383
 30
0.0
 41
6.0
 42
6.0
 43
6.0
 50
90.0
  0
MTEXT
  5
A9EE
330
A9DB
100
AcDbEntity
  8
SUNPOU
 62
    60
100
AcDbMText
 10
-143.9109663358177
 20
445.4294700544383
 30
0.0
 40
20.0
 41
0.0
 71
     5
 72
     1
  1
\A1;160
  7
SUNPOU
 11
0.0000000000000001
 21
1.0
 31
0.0
 73
     1
 44
1.0
1001
ACAD
1000
MTEXTBEGIN
1070
    73
1070
     1
1070
    44
1040
1.0
1070
    74
1070
     0
1000
MTEXTEND
  0
POINT
  5
A9EF
330
A9DB
100
AcDbEntity
  8
DEFPOINTS
 62
     0
100
AcDbPoint
 10
-34.46538745176213
 20
365.4294700544383
 30
0.0
  0
POINT
  5
A9F0
330
A9DB
100
AcDbEntity
  8
DEFPOINTS
 62
     0
100
AcDbPoint
 10
-6.545562932285519
 20
525.4294700544383
 30
0.0
  0
POINT
  5
A9F1
330
A9DB
100
AcDbEntity
  8
DEFPOINTS
 62
     0
100
AcDbPoint
 10
-123.9109663358176
 20
525.4294700544383
 30
0.0
  0
ENDBLK
  5
A9E6
330
A9DB
100
AcDbEntity
  8
0
100
AcDbBlockEnd
  0
ENDSEC
  0
SECTION
  2
ENTITIES
  0
LINE
  5
1F
330
2
100
AcDbEntity
  8
WAKU
100
AcDbLine
 10
0.0
 20
70.0
 30
0.0
 11
610.6489978526152
 21
70.0
 31
0.0
  0
LINE
  5
20
330
2
100
AcDbEntity
  8
WAKU
100
AcDbLine
 10
0.0
 20
0.0
 30
0.0
 11
610.6489978526152
 21
0.0
 31
0.0
  0
TEXT
  5
21
330
2
100
AcDbEntity
  8
HOJO
100
AcDbText
 10
48.26983000000012
 20
11.83313000000009
 30
0.0
 40
45.0
  1
E-5
  7
SUNPOU
100
AcDbText
  0
TEXT
  5
4A3
330
2
100
AcDbEntity
  8
HOJO
100
AcDbText
 10
225.60543919488
 20
20.97829970797568
 30
0.0
 40
35.0
  1
160x190x190
  7
SUNPOU
100
AcDbText
  0
LINE
  5
A66A
102
{ACAD_REACTORS
330
A9E7
102
}
330
2
100
AcDbEntity
  8
KIJUN
  6
Continuous
100
AcDbLine
 10
123.1307920489127
 20
525.4294700544383
 30
0.0
 11
123.1307920489126
 21
508.1226695543522
 31
0.0
  0
LINE
  5
A66B
102
{ACAD_REACTORS
330
A9E7
102
}
330
2
100
AcDbEntity
  8
KIJUN
  6
Continuous
100
AcDbLine
 10
123.1307920489126
 20
508.1226695543522
 30
0.0
 11
123.1307920489126
 21
496.914157554464
 31
0.0
  0
LINE
  5
A66C
102
{ACAD_REACTORS
330
A9E7
102
}
330
2
100
AcDbEntity
  8
KIJUN
  6
Continuous
100
AcDbLine
 10
123.1307920489126
 20
496.914157554464
 30
0.0
 11
124.7302300488883
 21
478.836215554395
 31
0.0
  0
LINE
  5
A66D
102
{ACAD_REACTORS
330
A9E7
102
}
330
2
100
AcDbEntity
  8
KIJUN
  6
Continuous
100
AcDbLine
 10
124.7302300488883
 20
478.836215554395
 30
0.0
 11
125.6638070489135
 21
466.0606505544133
 31
0.0
  0
LINE
  5
A66E
102
{ACAD_REACTORS
330
A9E7
102
}
330
2
100
AcDbEntity
  8
KIJUN
  6
Continuous
100
AcDbLine
 10
125.6638070489135
 20
466.0606505544133
 30
0.0
 11
130.3297870488606
 21
455.5756575543568
 31
0.0
  0
LINE
  5
A66F
102
{ACAD_REACTORS
330
A9E7
102
}
330
2
100
AcDbEntity
  8
KIJUN
  6
Continuous
100
AcDbLine
 10
130.3297870488606
 20
455.5756575543568
 30
0.0
 11
138.7282970489906
 21
447.380220554362
 31
0.0
  0
LINE
  5
A670
102
{ACAD_REACTORS
330
A9E7
102
}
330
2
100
AcDbEntity
  8
KIJUN
  6
Continuous
100
AcDbLine
 10
138.7282970489906
 20
447.380220554362
 30
0.0
 11
146.0602610489005
 21
438.9437375545388
 31
0.0
  0
LINE
  5
A671
102
{ACAD_REACTORS
330
A9E7
102
}
330
2
100
AcDbEntity
  8
KIJUN
  6
Continuous
100
AcDbLine
 10
146.0602610489005
 20
438.9437375545388
 30
0.0
 11
150.19284104892
 21
428.3377135543999
 31
0.0
  0
LINE
  5
A672
102
{ACAD_REACTORS
330
A9E7
102
}
330
2
100
AcDbEntity
  8
KIJUN
  6
Continuous
100
AcDbLine
 10
150.19284104892
 20
428.3377135543999
 30
0.0
 11
150.8593370488598
 21
419.1777115545124
 31
0.0
  0
LINE
  5
A673
102
{ACAD_REACTORS
330
A9E7
102
}
330
2
100
AcDbEntity
  8
KIJUN
  6
Continuous
100
AcDbLine
 10
150.8593370488598
 20
419.1777115545124
 30
0.0
 11
149.259772049074
 21
412.4286775544246
 31
0.0
  0
LINE
  5
A674
102
{ACAD_REACTORS
330
A9E7
102
}
330
2
100
AcDbEntity
  8
KIJUN
  6
Continuous
100
AcDbLine
 10
149.259772049074
 20
412.4286775544246
 30
0.0
 11
145.6603380488887
 21
404.1127175545193
 31
0.0
  0
LINE
  5
A675
102
{ACAD_REACTORS
330
A9E7
102
}
330
2
100
AcDbEntity
  8
KIJUN
  6
Continuous
100
AcDbLine
 10
145.6603380488887
 20
404.1127175545193
 30
0.0
 11
138.1947700490274
 21
397.3636835544315
 31
0.0
  0
LINE
  5
A676
102
{ACAD_REACTORS
330
A9E7
102
}
330
2
100
AcDbEntity
  8
KIJUN
  6
Continuous
100
AcDbLine
 10
138.1947700490274
 20
397.3636835544315
 30
0.0
 11
128.7298410489458
 21
394.4711315544559
 31
0.0
  0
LINE
  5
A677
102
{ACAD_REACTORS
330
A9E7
102
}
330
2
100
AcDbEntity
  8
KIJUN
  6
Continuous
100
AcDbLine
 10
128.7298410489458
 20
394.4711315544559
 30
0.0
 11
117.6653470490711
 21
395.6762345544707
 31
0.0
  0
LINE
  5
A678
102
{ACAD_REACTORS
330
A9E7
102
}
330
2
100
AcDbEntity
  8
KIJUN
  6
Continuous
100
AcDbLine
 10
117.6653470490711
 20
395.6762345544707
 30
0.0
 11
106.7338220489329
 21
398.9302285543676
 31
0.0
  0
LINE
  5
A679
102
{ACAD_REACTORS
330
A9E7
102
}
330
2
100
AcDbEntity
  8
KIJUN
  6
Continuous
100
AcDbLine
 10
106.7338220489329
 20
398.9302285543676
 30
0.0
 11
97.93526204896636
 21
408.0897225545417
 31
0.0
  0
LINE
  5
A67A
102
{ACAD_REACTORS
330
A9E7
102
}
330
2
100
AcDbEntity
  8
KIJUN
  6
Continuous
100
AcDbLine
 10
97.93526204896636
 20
408.0897225545417
 30
0.0
 11
94.86884704904525
 21
418.2136545545658
 31
0.0
  0
LINE
  5
A67B
102
{ACAD_REACTORS
330
A9E7
102
}
330
2
100
AcDbEntity
  8
KIJUN
  6
Continuous
100
AcDbLine
 10
94.86884704904525
 20
418.2136545545658
 30
0.0
 11
92.60278604886128
 21
428.8196785544645
 31
0.0
  0
LINE
  5
A67C
102
{ACAD_REACTORS
330
A9E7
102
}
330
2
100
AcDbEntity
  8
KIJUN
  6
Continuous
100
AcDbLine
 10
92.60278604886128
 20
428.8196785544645
 30
0.0
 11
91.40276304895825
 21
448.4646735544086
 31
0.0
  0
LINE
  5
A67D
102
{ACAD_REACTORS
330
A9E7
102
}
330
2
100
AcDbEntity
  8
KIJUN
  6
Continuous
100
AcDbLine
 10
91.40276304895825
 20
448.4646735544086
 30
0.0
 11
93.13580504888534
 21
477.9926815543588
 31
0.0
  0
LINE
  5
A67E
102
{ACAD_REACTORS
330
A9E7
102
}
330
2
100
AcDbEntity
  8
KIJUN
  6
Continuous
100
AcDbLine
 10
93.13580504888534
 20
477.9926815543588
 30
0.0
 11
93.53585504894011
 21
504.3867105543835
 31
0.0
  0
LINE
  5
A67F
102
{ACAD_REACTORS
330
A9E7
102
}
330
2
100
AcDbEntity
  8
KIJUN
  6
Continuous
100
AcDbLine
 10
93.53585504894011
 20
504.3867105543835
 30
0.0
 11
93.53585504894011
 21
525.4294700544383
 31
0.0
  0
LINE
  5
A685
102
{ACAD_REACTORS
330
A9E7
102
}
330
2
100
AcDbEntity
  8
KIJUN
  6
Continuous
100
AcDbLine
 10
-6.545562932285519
 20
525.4294700544383
 30
0.0
 11
-6.54556293228552
 21
507.4876695544522
 31
0.0
  0
LINE
  5
A686
102
{ACAD_REACTORS
330
A9E7
102
}
330
2
100
AcDbEntity
  8
KIJUN
  6
Continuous
100
AcDbLine
 10
-6.54556293228552
 20
507.4876695544522
 30
0.0
 11
-6.54556293228552
 21
496.2791575545638
 31
0.0
  0
LINE
  5
A687
102
{ACAD_REACTORS
330
A9E7
102
}
330
2
100
AcDbEntity
  8
KIJUN
  6
Continuous
100
AcDbLine
 10
-6.54556293228552
 20
496.2791575545638
 30
0.0
 11
-8.145000932261154
 21
478.2012155544947
 31
0.0
  0
LINE
  5
A688
102
{ACAD_REACTORS
330
A9E7
102
}
330
2
100
AcDbEntity
  8
KIJUN
  6
Continuous
100
AcDbLine
 10
-8.145000932261154
 20
478.2012155544947
 30
0.0
 11
-10.01151993232224
 21
461.689691554537
 31
0.0
  0
LINE
  5
A689
102
{ACAD_REACTORS
330
A9E7
102
}
330
2
100
AcDbEntity
  8
KIJUN
  6
Continuous
100
AcDbLine
 10
-10.01151993232224
 20
461.689691554537
 30
0.0
 11
-14.81059593227428
 21
453.1326855543451
 31
0.0
  0
LINE
  5
A68A
102
{ACAD_REACTORS
330
A9E7
102
}
330
2
100
AcDbEntity
  8
KIJUN
  6
Continuous
100
AcDbLine
 10
-14.81059593227428
 20
453.1326855543451
 30
0.0
 11
-22.27603693233277
 21
447.2271855545263
 31
0.0
  0
LINE
  5
A68B
102
{ACAD_REACTORS
330
A9E7
102
}
330
2
100
AcDbEntity
  8
KIJUN
  6
Continuous
100
AcDbLine
 10
-22.27603693233277
 20
447.2271855545263
 30
0.0
 11
-29.4750319322734
 21
438.3087375544057
 31
0.0
  0
LINE
  5
A68C
102
{ACAD_REACTORS
330
A9E7
102
}
330
2
100
AcDbEntity
  8
KIJUN
  6
Continuous
100
AcDbLine
 10
-29.4750319322734
 20
438.3087375544057
 30
0.0
 11
-33.60761193229291
 21
427.7027135544998
 31
0.0
  0
LINE
  5
A68D
102
{ACAD_REACTORS
330
A9E7
102
}
330
2
100
AcDbEntity
  8
KIJUN
  6
Continuous
100
AcDbLine
 10
-33.60761193229291
 20
427.7027135544998
 30
0.0
 11
-32.80751193240894
 21
419.6276725543724
 31
0.0
  0
LINE
  5
A68E
102
{ACAD_REACTORS
330
A9E7
102
}
330
2
100
AcDbEntity
  8
KIJUN
  6
Continuous
100
AcDbLine
 10
-32.80751193240894
 20
419.6276725543724
 30
0.0
 11
-32.67454293243964
 21
411.7936775545317
 31
0.0
  0
LINE
  5
A68F
102
{ACAD_REACTORS
330
A9E7
102
}
330
2
100
AcDbEntity
  8
KIJUN
  6
Continuous
100
AcDbLine
 10
-32.67454293243964
 20
411.7936775545317
 30
0.0
 11
-28.80853593234088
 21
402.3931375545293
 31
0.0
  0
LINE
  5
A690
102
{ACAD_REACTORS
330
A9E7
102
}
330
2
100
AcDbEntity
  8
KIJUN
  6
Continuous
100
AcDbLine
 10
-28.80853593234088
 20
402.3931375545293
 30
0.0
 11
-23.0760099323993
 21
396.7286835545386
 31
0.0
  0
LINE
  5
A691
102
{ACAD_REACTORS
330
A9E7
102
}
330
2
100
AcDbEntity
  8
KIJUN
  6
Continuous
100
AcDbLine
 10
-23.0760099323993
 20
396.7286835545386
 30
0.0
 11
-12.14461193231136
 21
393.836131554563
 31
0.0
  0
LINE
  5
A692
102
{ACAD_REACTORS
330
A9E7
102
}
330
2
100
AcDbEntity
  8
KIJUN
  6
Continuous
100
AcDbLine
 10
-12.14461193231136
 20
393.836131554563
 30
0.0
 11
-1.080117932436678
 21
395.0412345545633
 31
0.0
  0
LINE
  5
A693
102
{ACAD_REACTORS
330
A9E7
102
}
330
2
100
AcDbEntity
  8
KIJUN
  6
Continuous
100
AcDbLine
 10
-1.080117932436678
 20
395.0412345545633
 30
0.0
 11
9.851407067701529
 21
398.29522855446
 31
0.0
  0
LINE
  5
A694
102
{ACAD_REACTORS
330
A9E7
102
}
330
2
100
AcDbEntity
  8
KIJUN
  6
Continuous
100
AcDbLine
 10
9.851407067701529
 20
398.29522855446
 30
0.0
 11
18.64996706766078
 21
407.4547225544086
 31
0.0
  0
LINE
  5
A695
102
{ACAD_REACTORS
330
A9E7
102
}
330
2
100
AcDbEntity
  8
KIJUN
  6
Continuous
100
AcDbLine
 10
18.64996706766078
 20
407.4547225544086
 30
0.0
 11
21.71638206758917
 21
417.5786545544402
 31
0.0
  0
LINE
  5
A696
102
{ACAD_REACTORS
330
A9E7
102
}
330
2
100
AcDbEntity
  8
KIJUN
  6
Continuous
100
AcDbLine
 10
21.71638206758917
 20
417.5786545544402
 30
0.0
 11
23.98244306776587
 21
428.1846785543313
 31
0.0
  0
LINE
  5
A697
102
{ACAD_REACTORS
330
A9E7
102
}
330
2
100
AcDbEntity
  8
KIJUN
  6
Continuous
100
AcDbLine
 10
23.98244306776587
 20
428.1846785543313
 30
0.0
 11
25.18246606766889
 21
447.8296735545083
 31
0.0
  0
LINE
  5
A698
102
{ACAD_REACTORS
330
A9E7
102
}
330
2
100
AcDbEntity
  8
KIJUN
  6
Continuous
100
AcDbLine
 10
25.18246606766889
 20
447.8296735545083
 30
0.0
 11
23.4494240677418
 21
477.3576815544588
 31
0.0
  0
LINE
  5
A699
102
{ACAD_REACTORS
330
A9E7
102
}
330
2
100
AcDbEntity
  8
KIJUN
  6
Continuous
100
AcDbLine
 10
23.4494240677418
 20
477.3576815544588
 30
0.0
 11
23.31594706760052
 21
501.7026925545436
 31
0.0
  0
LINE
  5
A69A
102
{ACAD_REACTORS
330
A9E7
102
}
330
2
100
AcDbEntity
  8
KIJUN
  6
Continuous
100
AcDbLine
 10
23.31594706760052
 20
501.7026925545436
 30
0.0
 11
21.79071809761325
 21
525.4294700544383
 31
0.0
  0
LINE
  5
A6A0
102
{ACAD_REACTORS
330
A9E7
102
}
330
2
100
AcDbEntity
  8
KIJUN
  6
Continuous
100
AcDbLine
 10
-5.910562932385346
 20
521.7121775545169
 30
0.0
 11
-0.0070949323303466
 21
523.5324685544113
 31
0.0
  0
LINE
  5
A6A1
102
{ACAD_REACTORS
330
A9E7
102
}
330
2
100
AcDbEntity
  8
KIJUN
  6
Continuous
100
AcDbLine
 10
-0.0070949323303466
 20
523.5324685544113
 30
0.0
 11
4.54166406766717
 21
520.5268865545154
 31
0.0
  0
LINE
  5
A6A2
102
{ACAD_REACTORS
330
A9E7
102
}
330
2
100
AcDbEntity
  8
KIJUN
  6
Continuous
100
AcDbLine
 10
4.54166406766717
 20
520.5268865545154
 30
0.0
 11
8.9794250677337
 21
516.7591775544281
 31
0.0
  0
LINE
  5
A6A3
102
{ACAD_REACTORS
330
A9E7
102
}
330
2
100
AcDbEntity
  8
KIJUN
  6
Continuous
100
AcDbLine
 10
19.48943706771069
 20
523.9981775545242
 30
0.0
 11
14.69264706760123
 21
524.0169735544189
 31
0.0
  0
LINE
  5
A6A4
102
{ACAD_REACTORS
330
A9E7
102
}
330
2
100
AcDbEntity
  8
KIJUN
  6
Continuous
100
AcDbLine
 10
14.69264706760123
 20
524.0169735544189
 30
0.0
 11
10.5620990675784
 21
522.4553815545444
 31
0.0
  0
LINE
  5
A6A5
102
{ACAD_REACTORS
330
A9E7
102
}
330
2
100
AcDbEntity
  8
KIJUN
  6
Continuous
100
AcDbLine
 10
10.5620990675784
 20
522.4553815545444
 30
0.0
 11
8.096902067667997
 21
518.4101775545354
 31
0.0
  0
LINE
  5
A6A6
102
{ACAD_REACTORS
330
A9E7
102
}
330
2
100
AcDbEntity
  8
KIJUN
  6
Continuous
100
AcDbLine
 10
93.92079204897175
 20
518.4101775545354
 30
0.0
 11
98.1771970488627
 21
523.0150705543568
 31
0.0
  0
LINE
  5
A6A7
102
{ACAD_REACTORS
330
A9E7
102
}
330
2
100
AcDbEntity
  8
KIJUN
  6
Continuous
100
AcDbLine
 10
98.1771970488627
 20
523.0150705543568
 30
0.0
 11
104.720999049001
 21
523.6688665543774
 31
0.0
  0
LINE
  5
A6A8
102
{ACAD_REACTORS
330
A9E7
102
}
330
2
100
AcDbEntity
  8
KIJUN
  6
Continuous
100
AcDbLine
 10
104.720999049001
 20
523.6688665543774
 30
0.0
 11
110.5097860490424
 21
522.3471775544097
 31
0.0
  0
LINE
  5
A6A9
102
{ACAD_REACTORS
330
A9E7
102
}
330
2
100
AcDbEntity
  8
KIJUN
  6
Continuous
100
AcDbLine
 10
-8.450562932444427
 20
473.5791775544133
 30
0.0
 11
-4.582777932427688
 21
473.4051875544176
 31
0.0
  0
LINE
  5
A6AA
102
{ACAD_REACTORS
330
A9E7
102
}
330
2
100
AcDbEntity
  8
KIJUN
  6
Continuous
100
AcDbLine
 10
-4.582777932427688
 20
473.4051875544176
 30
0.0
 11
-1.159111932388896
 21
472.0175855545388
 31
0.0
  0
LINE
  5
A6AB
102
{ACAD_REACTORS
330
A9E7
102
}
330
2
100
AcDbEntity
  8
KIJUN
  6
Continuous
100
AcDbLine
 10
-1.159111932388896
 20
472.0175855545388
 30
0.0
 11
2.441973067664093
 21
469.6421775545316
 31
0.0
  0
LINE
  5
A6AC
102
{ACAD_REACTORS
330
A9E7
102
}
330
2
100
AcDbEntity
  8
KIJUN
  6
Continuous
100
AcDbLine
 10
-8.450562932444427
 20
465.1971775545539
 30
0.0
 11
-2.069828932293148
 21
463.5790705544937
 31
0.0
  0
LINE
  5
A6AD
102
{ACAD_REACTORS
330
A9E7
102
}
330
2
100
AcDbEntity
  8
KIJUN
  6
Continuous
100
AcDbLine
 10
-2.069828932293148
 20
463.5790705544937
 30
0.0
 11
1.757316067586089
 21
457.247866554477
 31
0.0
  0
LINE
  5
A6AE
102
{ACAD_REACTORS
330
A9E7
102
}
330
2
100
AcDbEntity
  8
KIJUN
  6
Continuous
100
AcDbLine
 10
1.757316067586089
 20
457.247866554477
 30
0.0
 11
3.741437067732931
 21
448.9411775544726
 31
0.0
  0
LINE
  5
A6AF
102
{ACAD_REACTORS
330
A9E7
102
}
330
2
100
AcDbEntity
  8
KIJUN
  6
Continuous
100
AcDbLine
 10
-13.78456293237423
 20
400.173177554469
 30
0.0
 11
-10.65312393238446
 21
405.281371554433
 31
0.0
  0
LINE
  5
A6B0
102
{ACAD_REACTORS
330
A9E7
102
}
330
2
100
AcDbEntity
  8
KIJUN
  6
Continuous
100
AcDbLine
 10
-10.65312393238446
 20
405.281371554433
 30
0.0
 11
-6.722473932346019
 21
409.8815655545045
 31
0.0
  0
LINE
  5
A6B1
102
{ACAD_REACTORS
330
A9E7
102
}
330
2
100
AcDbEntity
  8
KIJUN
  6
Continuous
100
AcDbLine
 10
-6.722473932346019
 20
409.8815655545045
 30
0.0
 11
-2.392027932331529
 21
413.1271775543431
 31
0.0
  0
LINE
  5
A6B2
102
{ACAD_REACTORS
330
A9E7
102
}
330
2
100
AcDbEntity
  8
KIJUN
  6
Continuous
100
AcDbLine
 10
-26.48456293242225
 20
406.9041775544613
 30
0.0
 11
-19.35224293240344
 21
411.3538765544149
 31
0.0
  0
LINE
  5
A6B3
102
{ACAD_REACTORS
330
A9E7
102
}
330
2
100
AcDbEntity
  8
KIJUN
  6
Continuous
100
AcDbLine
 10
-19.35224293240344
 20
411.3538765544149
 30
0.0
 11
-11.93125193238984
 21
412.6991875545283
 31
0.0
  0
LINE
  5
A6B4
102
{ACAD_REACTORS
330
A9E7
102
}
330
2
100
AcDbEntity
  8
KIJUN
  6
Continuous
100
AcDbLine
 10
-11.93125193238984
 20
412.6991875545283
 30
0.0
 11
-4.199618932314024
 21
409.698177554565
 31
0.0
  0
LINE
  5
A6B5
102
{ACAD_REACTORS
330
A9E7
102
}
330
2
100
AcDbEntity
  8
KIJUN
  6
Continuous
100
AcDbLine
 10
17.83843706760353
 20
432.6851775543913
 30
0.0
 11
11.53326806761879
 21
436.7928655545331
 31
0.0
  0
LINE
  5
A6B6
102
{ACAD_REACTORS
330
A9E7
102
}
330
2
100
AcDbEntity
  8
KIJUN
  6
Continuous
100
AcDbLine
 10
11.53326806761879
 20
436.7928655545331
 30
0.0
 11
2.174003067736066
 21
439.543177554406
 31
0.0
  0
LINE
  5
A6B7
102
{ACAD_REACTORS
330
A9E7
102
}
330
2
100
AcDbEntity
  8
KIJUN
  6
Continuous
100
AcDbLine
 10
2.174003067736066
 20
439.543177554406
 30
0.0
 11
-6.697962932357313
 21
439.1502395544454
 31
0.0
  0
LINE
  5
A6B8
102
{ACAD_REACTORS
330
A9E7
102
}
330
2
100
AcDbEntity
  8
KIJUN
  6
Continuous
100
AcDbLine
 10
-6.697962932357313
 20
439.1502395544454
 30
0.0
 11
-11.54161593238996
 21
433.8281775543949
 31
0.0
  0
LINE
  5
A6B9
102
{ACAD_REACTORS
330
A9E7
102
}
330
2
100
AcDbEntity
  8
KIJUN
  6
Continuous
100
AcDbLine
 10
-21.65856293235584
 20
366.6451775543395
 30
0.0
 11
-20.75902193230604
 21
375.027177554432
 31
0.0
  0
LINE
  5
A6BA
102
{ACAD_REACTORS
330
A9E7
102
}
330
2
100
AcDbEntity
  8
KIJUN
  6
Continuous
100
AcDbLine
 10
-20.75902193230604
 20
375.027177554432
 30
0.0
 11
-17.26156893222969
 21
380.6151775544206
 31
0.0
  0
LINE
  5
A6BB
102
{ACAD_REACTORS
330
A9E7
102
}
330
2
100
AcDbEntity
  8
KIJUN
  6
Continuous
100
AcDbLine
 10
-17.26156893222969
 20
380.6151775544206
 30
0.0
 11
-12.46452493226707
 21
383.9171775543949
 31
0.0
  0
LINE
  5
A6BC
102
{ACAD_REACTORS
330
A9E7
102
}
330
2
100
AcDbEntity
  8
KIJUN
  6
Continuous
100
AcDbLine
 10
-12.46452493226707
 20
383.9171775543949
 30
0.0
 11
-5.469618932347202
 21
383.9171775543949
 31
0.0
  0
LINE
  5
A6BD
102
{ACAD_REACTORS
330
A9E7
102
}
330
2
100
AcDbEntity
  8
KIJUN
  6
Continuous
100
AcDbLine
 10
-5.469618932347202
 20
383.9171775543949
 30
0.0
 11
0.7264570676675249
 21
382.2661775545207
 31
0.0
  0
LINE
  5
A6BE
102
{ACAD_REACTORS
330
A9E7
102
}
330
2
100
AcDbEntity
  8
KIJUN
  6
Continuous
100
AcDbLine
 10
0.7264570676675249
 20
382.2661775545207
 30
0.0
 11
6.422407067690528
 21
376.678177554539
 31
0.0
  0
LINE
  5
A6BF
102
{ACAD_REACTORS
330
A9E7
102
}
330
2
100
AcDbEntity
  8
KIJUN
  6
Continuous
100
AcDbLine
 10
6.422407067690528
 20
376.678177554539
 30
0.0
 11
8.121413067649427
 21
369.947177554554
 31
0.0
  0
LINE
  5
A6C0
102
{ACAD_REACTORS
330
A9E7
102
}
330
2
100
AcDbEntity
  8
KIJUN
  6
Continuous
100
AcDbLine
 10
8.121413067649427
 20
369.947177554554
 30
0.0
 11
8.62090406764446
 21
366.0101775544467
 31
0.0
  0
LINE
  5
A6C1
102
{ACAD_REACTORS
330
A9E7
102
}
330
2
100
AcDbEntity
  8
KIJUN
  6
Continuous
100
AcDbLine
 10
8.62090406764446
 20
366.0101775544467
 30
0.0
 11
-21.65856293235584
 21
366.6451775543395
 31
0.0
  0
LINE
  5
A6C2
102
{ACAD_REACTORS
330
A9E7
102
}
330
2
100
AcDbEntity
  8
KIJUN
  6
Continuous
100
AcDbLine
 10
-34.46538745176213
 20
365.4294700544383
 30
0.0
 11
-34.46538745176213
 21
377.8211775545426
 31
0.0
  0
LINE
  5
A6C3
102
{ACAD_REACTORS
330
A9E7
102
}
330
2
100
AcDbEntity
  8
KIJUN
  6
Continuous
100
AcDbLine
 10
-34.46538745176213
 20
377.8211775545426
 30
0.0
 11
-31.8080219322469
 21
386.7111775544984
 31
0.0
  0
LINE
  5
A6C4
102
{ACAD_REACTORS
330
A9E7
102
}
330
2
100
AcDbEntity
  8
KIJUN
  6
Continuous
100
AcDbLine
 10
-31.8080219322469
 20
386.7111775544984
 30
0.0
 11
-27.01161293227369
 21
392.9341775543802
 31
0.0
  0
LINE
  5
A6C5
102
{ACAD_REACTORS
330
A9E7
102
}
330
2
100
AcDbEntity
  8
KIJUN
  6
Continuous
100
AcDbLine
 10
-27.01161293227369
 20
392.9341775543802
 30
0.0
 11
-19.11653093230734
 21
396.8711775544946
 31
0.0
  0
LINE
  5
A6C6
102
{ACAD_REACTORS
330
A9E7
102
}
330
2
100
AcDbEntity
  8
KIJUN
  6
Continuous
100
AcDbLine
 10
-19.11653093230734
 20
396.8711775544946
 30
0.0
 11
-9.723102932406163
 21
397.5061775543876
 31
0.0
  0
LINE
  5
A6C7
102
{ACAD_REACTORS
330
A9E7
102
}
330
2
100
AcDbEntity
  8
KIJUN
  6
Continuous
100
AcDbLine
 10
-9.723102932406163
 20
397.5061775543876
 30
0.0
 11
2.368948067658948
 21
397.5061775543876
 31
0.0
  0
LINE
  5
A6C8
102
{ACAD_REACTORS
330
A9E7
102
}
330
2
100
AcDbEntity
  8
KIJUN
  6
Continuous
100
AcDbLine
 10
2.368948067658948
 20
397.5061775543876
 30
0.0
 11
12.96189106775682
 21
394.0771775543839
 31
0.0
  0
LINE
  5
A6C9
102
{ACAD_REACTORS
330
A9E7
102
}
330
2
100
AcDbEntity
  8
KIJUN
  6
Continuous
100
AcDbLine
 10
12.96189106775682
 20
394.0771775543839
 30
0.0
 11
19.05738306766989
 21
388.9971775544984
 31
0.0
  0
LINE
  5
A6CA
102
{ACAD_REACTORS
330
A9E7
102
}
330
2
100
AcDbEntity
  8
KIJUN
  6
Continuous
100
AcDbLine
 10
19.05738306766989
 20
388.9971775544984
 30
0.0
 11
21.65593006767858
 21
381.7581775544244
 31
0.0
  0
LINE
  5
A6CB
102
{ACAD_REACTORS
330
A9E7
102
}
330
2
100
AcDbEntity
  8
KIJUN
  6
Continuous
100
AcDbLine
 10
21.65593006767858
 20
381.7581775544244
 30
0.0
 11
23.45437706757047
 21
372.7411775544246
 31
0.0
  0
LINE
  5
A6CC
102
{ACAD_REACTORS
330
A9E7
102
}
330
2
100
AcDbEntity
  8
KIJUN
  6
Continuous
100
AcDbLine
 10
23.45437706757047
 20
372.7411775544246
 30
0.0
 11
23.45437706757047
 21
365.4294700544382
 31
0.0
  0
LINE
  5
A6CE
102
{ACAD_REACTORS
330
A9E7
102
}
330
2
100
AcDbEntity
  8
KIJUN
  6
Continuous
100
AcDbLine
 10
-11.17610993224252
 20
451.7351775543505
 30
0.0
 11
-7.633825932239687
 21
443.7388765545478
 31
0.0
  0
LINE
  5
A6CF
102
{ACAD_REACTORS
330
A9E7
102
}
330
2
100
AcDbEntity
  8
KIJUN
  6
Continuous
100
AcDbLine
 10
-7.633825932239687
 20
443.7388765545478
 30
0.0
 11
-7.089757932396878
 21
435.0934785544526
 31
0.0
  0
LINE
  5
A6D0
102
{ACAD_REACTORS
330
A9E7
102
}
330
2
100
AcDbEntity
  8
KIJUN
  6
Continuous
100
AcDbLine
 10
-7.089757932396878
 20
435.0934785544526
 30
0.0
 11
-10.27656893242556
 21
427.097177554417
 31
0.0
  0
LINE
  5
A6D1
102
{ACAD_REACTORS
330
A9E7
102
}
330
2
100
AcDbEntity
  8
KIJUN
  6
Continuous
100
AcDbLine
 10
-11.24456293231514
 20
459.6091775545649
 30
0.0
 11
-5.207871932437683
 21
454.6984685544815
 31
0.0
  0
LINE
  5
A6D2
102
{ACAD_REACTORS
330
A9E7
102
}
330
2
100
AcDbEntity
  8
KIJUN
  6
Continuous
100
AcDbLine
 10
-5.207871932437683
 20
454.6984685544815
 30
0.0
 11
-4.123418932390904
 21
445.7238865545227
 31
0.0
  0
LINE
  5
A6D3
102
{ACAD_REACTORS
330
A9E7
102
}
330
2
100
AcDbEntity
  8
KIJUN
  6
Continuous
100
AcDbLine
 10
-4.123418932390904
 20
445.7238865545227
 30
0.0
 11
-5.948027932364766
 21
435.9871775543801
 31
0.0
  0
LINE
  5
A6D4
102
{ACAD_REACTORS
330
A9E7
102
}
330
2
100
AcDbEntity
  8
KIJUN
  6
Continuous
100
AcDbLine
 10
-23.43656293225968
 20
445.5121775544691
 30
0.0
 11
-18.42882593235436
 21
438.5130805545127
 31
0.0
  0
LINE
  5
A6D5
102
{ACAD_REACTORS
330
A9E7
102
}
330
2
100
AcDbEntity
  8
KIJUN
  6
Continuous
100
AcDbLine
 10
-18.42882593235436
 20
438.5130805545127
 30
0.0
 11
-16.55227393236009
 21
429.6512745543879
 31
0.0
  0
LINE
  5
A6D6
102
{ACAD_REACTORS
330
A9E7
102
}
330
2
100
AcDbEntity
  8
KIJUN
  6
Continuous
100
AcDbLine
 10
-16.55227393236009
 20
429.6512745543879
 30
0.0
 11
-17.74061293222939
 21
420.3661775544246
 31
0.0
  0
LINE
  5
A6D7
102
{ACAD_REACTORS
330
A9E7
102
}
330
2
100
AcDbEntity
  8
KIJUN
  6
Continuous
100
AcDbLine
 10
-31.81856293235205
 20
419.2231775544209
 30
0.0
 11
-26.08171893233839
 21
420.305090554539
 31
0.0
  0
LINE
  5
A6D8
102
{ACAD_REACTORS
330
A9E7
102
}
330
2
100
AcDbEntity
  8
KIJUN
  6
Continuous
100
AcDbLine
 10
-26.08171893233839
 20
420.305090554539
 30
0.0
 11
-20.89999193243739
 21
418.7339735544451
 31
0.0
  0
LINE
  5
A6D9
102
{ACAD_REACTORS
330
A9E7
102
}
330
2
100
AcDbEntity
  8
KIJUN
  6
Continuous
100
AcDbLine
 10
-20.89999193243739
 20
418.7339735544451
 30
0.0
 11
-16.02903393240876
 21
414.1431775545426
 31
0.0
  0
LINE
  5
A6DA
102
{ACAD_REACTORS
330
A9E7
102
}
330
2
100
AcDbEntity
  8
KIJUN
  6
Continuous
100
AcDbLine
 10
-17.74061293222939
 20
420.3661775544246
 30
0.0
 11
-19.72790893229421
 21
427.6898865545448
 31
0.0
  0
LINE
  5
A6DB
102
{ACAD_REACTORS
330
A9E7
102
}
330
2
100
AcDbEntity
  8
KIJUN
  6
Continuous
100
AcDbLine
 10
-19.72790893229421
 20
427.6898865545448
 30
0.0
 11
-24.18040193227671
 21
433.2354685544928
 31
0.0
  0
LINE
  5
A6DC
102
{ACAD_REACTORS
330
A9E7
102
}
330
2
100
AcDbEntity
  8
KIJUN
  6
Continuous
100
AcDbLine
 10
-24.18040193227671
 20
433.2354685544928
 30
0.0
 11
-30.03205393233975
 21
435.9871775543801
 31
0.0
  0
LINE
  5
A6DD
102
{ACAD_REACTORS
330
A9E7
102
}
330
2
100
AcDbEntity
  8
KIJUN
  6
Continuous
100
AcDbLine
 10
-14.67356293232615
 20
451.2271775544727
 30
0.0
 11
-13.56675793233035
 21
451.3588765544777
 31
0.0
  0
LINE
  5
A6DE
102
{ACAD_REACTORS
330
A9E7
102
}
330
2
100
AcDbEntity
  8
KIJUN
  6
Continuous
100
AcDbLine
 10
-13.56675793233035
 20
451.3588765544777
 30
0.0
 11
-12.28253393234217
 21
451.6034785543529
 31
0.0
  0
LINE
  5
A6DF
102
{ACAD_REACTORS
330
A9E7
102
}
330
2
100
AcDbEntity
  8
KIJUN
  6
Continuous
100
AcDbLine
 10
-12.28253393234217
 20
451.6034785543529
 30
0.0
 11
-11.17610993224252
 21
451.7351775543505
 31
0.0
  0
LINE
  5
A6E0
102
{ACAD_REACTORS
330
A9E7
102
}
330
2
100
AcDbEntity
  8
KIJUN
  6
Continuous
100
AcDbLine
 10
141.29179204892
 20
441.0671775544908
 30
0.0
 11
134.9552540489459
 21
443.4754785545451
 31
0.0
  0
LINE
  5
A6E1
102
{ACAD_REACTORS
330
A9E7
102
}
330
2
100
AcDbEntity
  8
KIJUN
  6
Continuous
100
AcDbLine
 10
134.9552540489459
 20
443.4754785545451
 30
0.0
 11
128.8409660489052
 21
442.9768765543853
 31
0.0
  0
LINE
  5
A6E2
102
{ACAD_REACTORS
330
A9E7
102
}
330
2
100
AcDbEntity
  8
KIJUN
  6
Continuous
100
AcDbLine
 10
128.8409660489052
 20
442.9768765543853
 30
0.0
 11
123.7038160490775
 21
438.2731775543801
 31
0.0
  0
LINE
  5
A6E3
102
{ACAD_REACTORS
330
A9E7
102
}
330
2
100
AcDbEntity
  8
KIJUN
  6
Continuous
100
AcDbLine
 10
99.63579204897554
 20
434.3361775545059
 30
0.0
 11
104.3732730488701
 21
438.8846825544099
 31
0.0
  0
LINE
  5
A6E4
102
{ACAD_REACTORS
330
A9E7
102
}
330
2
100
AcDbEntity
  8
KIJUN
  6
Continuous
100
AcDbLine
 10
104.3732730488701
 20
438.8846825544099
 30
0.0
 11
109.7547710489381
 21
440.1593815544114
 31
0.0
  0
LINE
  5
A6E5
102
{ACAD_REACTORS
330
A9E7
102
}
330
2
100
AcDbEntity
  8
KIJUN
  6
Continuous
100
AcDbLine
 10
109.7547710489381
 20
440.1593815544114
 30
0.0
 11
115.4253210489188
 21
438.2731775543801
 31
0.0
  0
LINE
  5
A6E6
102
{ACAD_REACTORS
330
A9E7
102
}
330
2
100
AcDbEntity
  8
KIJUN
  6
Continuous
100
AcDbLine
 10
106.6207920490125
 20
407.5391775543543
 30
0.0
 11
113.0497860488686
 21
412.2240805544719
 31
0.0
  0
LINE
  5
A6E7
102
{ACAD_REACTORS
330
A9E7
102
}
330
2
100
AcDbEntity
  8
KIJUN
  6
Continuous
100
AcDbLine
 10
113.0497860488686
 20
412.2240805544719
 30
0.0
 11
120.8779390490382
 21
413.352983554549
 31
0.0
  0
LINE
  5
A6E8
102
{ACAD_REACTORS
330
A9E7
102
}
330
2
100
AcDbEntity
  8
KIJUN
  6
Continuous
100
AcDbLine
 10
120.8779390490382
 20
413.352983554549
 30
0.0
 11
128.5063210490408
 21
411.3491775544393
 31
0.0
  0
LINE
  5
A6E9
102
{ACAD_REACTORS
330
A9E7
102
}
330
2
100
AcDbEntity
  8
KIJUN
  6
Continuous
100
AcDbLine
 10
106.6207920490125
 20
420.3661775544246
 30
0.0
 11
112.6168430489925
 21
421.7067895545629
 31
0.0
  0
LINE
  5
A6EA
102
{ACAD_REACTORS
330
A9E7
102
}
330
2
100
AcDbEntity
  8
KIJUN
  6
Continuous
100
AcDbLine
 10
112.6168430489925
 20
421.7067895545629
 30
0.0
 11
118.5460920489932
 21
421.2692745545359
 31
0.0
  0
LINE
  5
A6EB
102
{ACAD_REACTORS
330
A9E7
102
}
330
2
100
AcDbEntity
  8
KIJUN
  6
Continuous
100
AcDbLine
 10
118.5460920489932
 20
421.2692745545359
 30
0.0
 11
124.6088180489097
 21
419.2231775544209
 31
0.0
  0
LINE
  5
A6EC
102
{ACAD_REACTORS
330
A9E7
102
}
330
2
100
AcDbEntity
  8
KIJUN
  6
Continuous
100
AcDbLine
 10
101.7947920489533
 20
427.097177554417
 30
0.0
 11
109.4710530489975
 21
430.7613815543448
 31
0.0
  0
LINE
  5
A6ED
102
{ACAD_REACTORS
330
A9E7
102
}
330
2
100
AcDbEntity
  8
KIJUN
  6
Continuous
100
AcDbLine
 10
109.4710530489975
 20
430.7613815543448
 30
0.0
 11
118.5020230488591
 21
431.4339735544931
 31
0.0
  0
LINE
  5
A6EE
102
{ACAD_REACTORS
330
A9E7
102
}
330
2
100
AcDbEntity
  8
KIJUN
  6
Continuous
100
AcDbLine
 10
118.5020230488591
 20
431.4339735544931
 30
0.0
 11
124.9792770488785
 21
425.4461775545428
 31
0.0
  0
LINE
  5
A6EF
102
{ACAD_REACTORS
330
A9E7
102
}
330
2
100
AcDbEntity
  8
KIJUN
  6
Continuous
100
AcDbLine
 10
155.5346125482379
 20
365.4294700544383
 30
0.0
 11
153.7563340489506
 21
378.4561775544357
 31
0.0
  0
LINE
  5
A6F0
102
{ACAD_REACTORS
330
A9E7
102
}
330
2
100
AcDbEntity
  8
KIJUN
  6
Continuous
100
AcDbLine
 10
153.7563340489506
 20
378.4561775544357
 30
0.0
 11
151.2582440489933
 21
386.838177554528
 31
0.0
  0
LINE
  5
A6F1
102
{ACAD_REACTORS
330
A9E7
102
}
330
2
100
AcDbEntity
  8
KIJUN
  6
Continuous
100
AcDbLine
 10
151.2582440489933
 20
386.838177554528
 30
0.0
 11
146.5612760489531
 21
394.2041775544134
 31
0.0
  0
LINE
  5
A6F2
102
{ACAD_REACTORS
330
A9E7
102
}
330
2
100
AcDbEntity
  8
KIJUN
  6
Continuous
100
AcDbLine
 10
146.5612760489531
 20
394.2041775544134
 30
0.0
 11
139.2662690490762
 21
396.8711775544946
 31
0.0
  0
LINE
  5
A6F3
102
{ACAD_REACTORS
330
A9E7
102
}
330
2
100
AcDbEntity
  8
KIJUN
  6
Continuous
100
AcDbLine
 10
139.2662690490762
 20
396.8711775544946
 30
0.0
 11
127.174345049054
 21
398.1411775545132
 31
0.0
  0
LINE
  5
A6F4
102
{ACAD_REACTORS
330
A9E7
102
}
330
2
100
AcDbEntity
  8
KIJUN
  6
Continuous
100
AcDbLine
 10
127.174345049054
 20
398.1411775545132
 30
0.0
 11
116.1817330490304
 21
397.5061775543876
 31
0.0
  0
LINE
  5
A6F5
102
{ACAD_REACTORS
330
A9E7
102
}
330
2
100
AcDbEntity
  8
KIJUN
  6
Continuous
100
AcDbLine
 10
116.1817330490304
 20
397.5061775543876
 30
0.0
 11
107.687338049007
 21
394.7121775545097
 31
0.0
  0
LINE
  5
A6F6
102
{ACAD_REACTORS
330
A9E7
102
}
330
2
100
AcDbEntity
  8
KIJUN
  6
Continuous
100
AcDbLine
 10
107.687338049007
 20
394.7121775545097
 30
0.0
 11
101.5918460488611
 21
389.6321775544059
 31
0.0
  0
LINE
  5
A6F7
102
{ACAD_REACTORS
330
A9E7
102
}
330
2
100
AcDbEntity
  8
KIJUN
  6
Continuous
100
AcDbLine
 10
101.5918460488611
 20
389.6321775544059
 30
0.0
 11
98.9932990490853
 21
382.3931775545501
 31
0.0
  0
LINE
  5
A6F8
102
{ACAD_REACTORS
330
A9E7
102
}
330
2
100
AcDbEntity
  8
KIJUN
  6
Continuous
100
AcDbLine
 10
98.9932990490853
 20
382.3931775545501
 30
0.0
 11
97.19485204896058
 21
373.3761775545575
 31
0.0
  0
LINE
  5
A6F9
102
{ACAD_REACTORS
330
A9E7
102
}
330
2
100
AcDbEntity
  8
KIJUN
  6
Continuous
100
AcDbLine
 10
97.19485204896058
 20
373.3761775545575
 30
0.0
 11
97.19485204896058
 21
365.4294700544382
 31
0.0
  0
LINE
  5
A6FB
102
{ACAD_REACTORS
330
A9E7
102
}
330
2
100
AcDbEntity
  8
KIJUN
  6
Continuous
100
AcDbLine
 10
43.94123361744505
 20
369.1851775543985
 30
0.0
 11
44.64074961746746
 21
377.4401775544615
 31
0.0
  0
LINE
  5
A6FC
102
{ACAD_REACTORS
330
A9E7
102
}
330
2
100
AcDbEntity
  8
KIJUN
  6
Continuous
100
AcDbLine
 10
44.64074961746746
 20
377.4401775544615
 30
0.0
 11
46.53978061745374
 21
384.1711775544468
 31
0.0
  0
LINE
  5
A6FD
102
{ACAD_REACTORS
330
A9E7
102
}
330
2
100
AcDbEntity
  8
KIJUN
  6
Continuous
100
AcDbLine
 10
46.53978061745374
 20
384.1711775544468
 30
0.0
 11
51.13629161744256
 21
387.9811775545317
 31
0.0
  0
LINE
  5
A6FE
102
{ACAD_REACTORS
330
A9E7
102
}
330
2
100
AcDbEntity
  8
KIJUN
  6
Continuous
100
AcDbLine
 10
51.13629161744256
 20
387.9811775545317
 30
0.0
 11
56.73267361748958
 21
389.8861775544504
 31
0.0
  0
LINE
  5
A6FF
102
{ACAD_REACTORS
330
A9E7
102
}
330
2
100
AcDbEntity
  8
KIJUN
  6
Continuous
100
AcDbLine
 10
56.73267361748958
 20
389.8861775544504
 30
0.0
 11
62.02920861744724
 21
390.3941775545612
 31
0.0
  0
LINE
  5
A700
102
{ACAD_REACTORS
330
A9E7
102
}
330
2
100
AcDbEntity
  8
KIJUN
  6
Continuous
100
AcDbLine
 10
62.02920861744724
 20
390.3941775545612
 30
0.0
 11
67.32574361739762
 21
389.8861775544504
 31
0.0
  0
LINE
  5
A701
102
{ACAD_REACTORS
330
A9E7
102
}
330
2
100
AcDbEntity
  8
KIJUN
  6
Continuous
100
AcDbLine
 10
67.32574361739762
 20
389.8861775544504
 30
0.0
 11
71.82268661740318
 21
388.9971775544984
 31
0.0
  0
LINE
  5
A702
102
{ACAD_REACTORS
330
A9E7
102
}
330
2
100
AcDbEntity
  8
KIJUN
  6
Continuous
100
AcDbLine
 10
71.82268661740318
 20
388.9971775544984
 30
0.0
 11
75.52029161732434
 21
386.0761775543654
 31
0.0
  0
LINE
  5
A703
102
{ACAD_REACTORS
330
A9E7
102
}
330
2
100
AcDbEntity
  8
KIJUN
  6
Continuous
100
AcDbLine
 10
75.52029161732434
 20
386.0761775543654
 30
0.0
 11
77.41868761732849
 21
382.2661775545207
 31
0.0
  0
LINE
  5
A704
102
{ACAD_REACTORS
330
A9E7
102
}
330
2
100
AcDbEntity
  8
KIJUN
  6
Continuous
100
AcDbLine
 10
77.41868761732849
 20
382.2661775545207
 30
0.0
 11
78.61769461734593
 21
376.9321775543507
 31
0.0
  0
LINE
  5
A705
102
{ACAD_REACTORS
330
A9E7
102
}
330
2
100
AcDbEntity
  8
KIJUN
  6
Continuous
100
AcDbLine
 10
78.61769461734593
 20
376.9321775543507
 30
0.0
 11
78.91779561752855
 21
369.6931775545021
 31
0.0
  0
LINE
  5
A706
102
{ACAD_REACTORS
330
A9E7
102
}
330
2
100
AcDbEntity
  8
KIJUN
  6
Continuous
100
AcDbLine
 10
78.91779561752855
 20
369.6931775545021
 30
0.0
 11
43.94123361744505
 21
369.1851775543985
 31
0.0
  0
LINE
  5
A707
102
{ACAD_REACTORS
330
A9E7
102
}
330
2
100
AcDbEntity
  8
KIJUN
  6
Continuous
100
AcDbLine
 10
-5.912594932382035
 20
421.5091775544283
 30
0.0
 11
-5.790420932371034
 21
420.7988665544548
 31
0.0
  0
LINE
  5
A708
102
{ACAD_REACTORS
330
A9E7
102
}
330
2
100
AcDbEntity
  8
KIJUN
  6
Continuous
100
AcDbLine
 10
-5.790420932371034
 20
420.7988665544548
 30
0.0
 11
-5.468221932332653
 21
420.1450705544268
 31
0.0
  0
LINE
  5
A709
102
{ACAD_REACTORS
330
A9E7
102
}
330
2
100
AcDbEntity
  8
KIJUN
  6
Continuous
100
AcDbLine
 10
-5.468221932332653
 20
420.1450705544268
 30
0.0
 11
-5.013053932324964
 21
419.8581775545539
 31
0.0
  0
LINE
  5
A70A
102
{ACAD_REACTORS
330
A9E7
102
}
330
2
100
AcDbEntity
  8
KIJUN
  6
Continuous
100
AcDbLine
 10
-1.467594932396877
 20
402.9671775543469
 30
0.0
 11
-1.067544932342116
 21
401.8241775543433
 31
0.0
  0
LINE
  5
A70B
102
{ACAD_REACTORS
330
A9E7
102
}
330
2
100
AcDbEntity
  8
KIJUN
  6
Continuous
100
AcDbLine
 10
12.12343706759247
 20
409.698177554565
 30
0.0
 11
7.023117067762086
 21
410.3237795545213
 31
0.0
  0
LINE
  5
A70C
102
{ACAD_REACTORS
330
A9E7
102
}
330
2
100
AcDbEntity
  8
KIJUN
  6
Continuous
100
AcDbLine
 10
7.023117067762086
 20
410.3237795545213
 30
0.0
 11
1.834024067681184
 21
408.3528665544512
 31
0.0
  0
LINE
  5
A70D
102
{ACAD_REACTORS
330
A9E7
102
}
330
2
100
AcDbEntity
  8
KIJUN
  6
Continuous
100
AcDbLine
 10
1.834024067681184
 20
408.3528665544512
 30
0.0
 11
-1.467594932396877
 21
402.9671775543469
 31
0.0
  0
LINE
  5
A70E
102
{ACAD_REACTORS
330
A9E7
102
}
330
2
100
AcDbEntity
  8
KIJUN
  6
Continuous
100
AcDbLine
 10
-2.392027932331529
 20
413.1271775543431
 30
0.0
 11
0.7649380677507907
 21
413.352983554549
 31
0.0
  0
LINE
  5
A70F
102
{ACAD_REACTORS
330
A9E7
102
}
330
2
100
AcDbEntity
  8
KIJUN
  6
Continuous
100
AcDbLine
 10
0.7649380677507907
 20
413.352983554549
 30
0.0
 11
5.809759067739378
 21
413.5787895545295
 31
0.0
  0
LINE
  5
A710
102
{ACAD_REACTORS
330
A9E7
102
}
330
2
100
AcDbEntity
  8
KIJUN
  6
Continuous
100
AcDbLine
 10
5.809759067739378
 20
413.5787895545295
 30
0.0
 11
7.301374067709275
 21
413.1271775543431
 31
0.0
  0
LINE
  5
A711
102
{ACAD_REACTORS
330
A9E7
102
}
330
2
100
AcDbEntity
  8
KIJUN
  6
Continuous
100
AcDbLine
 10
13.77443706769964
 20
422.6521775544244
 30
0.0
 11
7.982094067611342
 21
427.8027895544222
 31
0.0
  0
LINE
  5
A712
102
{ACAD_REACTORS
330
A9E7
102
}
330
2
100
AcDbEntity
  8
KIJUN
  6
Continuous
100
AcDbLine
 10
7.982094067611342
 20
427.8027895544222
 30
0.0
 11
0.1464480676700077
 21
426.7725655544859
 31
0.0
  0
LINE
  5
A713
102
{ACAD_REACTORS
330
A9E7
102
}
330
2
100
AcDbEntity
  8
KIJUN
  6
Continuous
100
AcDbLine
 10
0.1464480676700077
 20
426.7725655544859
 30
0.0
 11
-5.912594932382035
 21
421.5091775544283
 31
0.0
  0
LINE
  5
A714
102
{ACAD_REACTORS
330
A9E7
102
}
330
2
100
AcDbEntity
  8
KIJUN
  6
Continuous
100
AcDbLine
 10
142.3077920488941
 20
367.2801775544654
 30
0.0
 11
141.4082510490699
 21
375.6621775545577
 31
0.0
  0
LINE
  5
A715
102
{ACAD_REACTORS
330
A9E7
102
}
330
2
100
AcDbEntity
  8
KIJUN
  6
Continuous
100
AcDbLine
 10
141.4082510490699
 20
375.6621775545577
 30
0.0
 11
137.9107980489935
 21
381.2501775545464
 31
0.0
  0
LINE
  5
A716
102
{ACAD_REACTORS
330
A9E7
102
}
330
2
100
AcDbEntity
  8
KIJUN
  6
Continuous
100
AcDbLine
 10
137.9107980489935
 20
381.2501775545464
 30
0.0
 11
133.1137540490309
 21
384.5521775545206
 31
0.0
  0
LINE
  5
A717
102
{ACAD_REACTORS
330
A9E7
102
}
330
2
100
AcDbEntity
  8
KIJUN
  6
Continuous
100
AcDbLine
 10
133.1137540490309
 20
384.5521775545206
 30
0.0
 11
126.1188480488782
 21
384.5521775545206
 31
0.0
  0
LINE
  5
A718
102
{ACAD_REACTORS
330
A9E7
102
}
330
2
100
AcDbEntity
  8
KIJUN
  6
Continuous
100
AcDbLine
 10
126.1188480488782
 20
384.5521775545206
 30
0.0
 11
119.9227720488708
 21
382.9011775544209
 31
0.0
  0
LINE
  5
A719
102
{ACAD_REACTORS
330
A9E7
102
}
330
2
100
AcDbEntity
  8
KIJUN
  6
Continuous
100
AcDbLine
 10
119.9227720488708
 20
382.9011775544209
 30
0.0
 11
114.2268220490733
 21
377.313177554432
 31
0.0
  0
LINE
  5
A71A
102
{ACAD_REACTORS
330
A9E7
102
}
330
2
100
AcDbEntity
  8
KIJUN
  6
Continuous
100
AcDbLine
 10
114.2268220490733
 20
377.313177554432
 30
0.0
 11
112.5278160488816
 21
370.5821775544541
 31
0.0
  0
LINE
  5
A71B
102
{ACAD_REACTORS
330
A9E7
102
}
330
2
100
AcDbEntity
  8
KIJUN
  6
Continuous
100
AcDbLine
 10
112.5278160488816
 20
370.5821775544541
 30
0.0
 11
112.0283250488866
 21
366.6451775543395
 31
0.0
  0
LINE
  5
A71C
102
{ACAD_REACTORS
330
A9E7
102
}
330
2
100
AcDbEntity
  8
KIJUN
  6
Continuous
100
AcDbLine
 10
112.0283250488866
 20
366.6451775543395
 30
0.0
 11
142.3077920488941
 21
367.2801775544654
 31
0.0
  0
LINE
  5
A71D
102
{ACAD_REACTORS
330
A9E7
102
}
330
2
100
AcDbEntity
  8
KIJUN
  6
Continuous
100
AcDbLine
 10
149.5467920489828
 20
414.7781775544428
 30
0.0
 11
145.9342770489894
 21
419.2701675543943
 31
0.0
  0
LINE
  5
A71E
102
{ACAD_REACTORS
330
A9E7
102
}
330
2
100
AcDbEntity
  8
KIJUN
  6
Continuous
100
AcDbLine
 10
145.9342770489894
 20
419.2701675543943
 30
0.0
 11
141.0339820489608
 21
420.1497695544025
 31
0.0
  0
LINE
  5
A71F
102
{ACAD_REACTORS
330
A9E7
102
}
330
2
100
AcDbEntity
  8
KIJUN
  6
Continuous
100
AcDbLine
 10
141.0339820489608
 20
420.1497695544025
 30
0.0
 11
135.9557600489935
 21
418.7151775545503
 31
0.0
  0
LINE
  5
A720
102
{ACAD_REACTORS
330
A9E7
102
}
330
2
100
AcDbEntity
  8
KIJUN
  6
Continuous
100
AcDbLine
 10
122.3687920489902
 20
403.6021775544799
 30
0.0
 11
127.0620770489332
 21
405.7611775544576
 31
0.0
  0
LINE
  5
A721
102
{ACAD_REACTORS
330
A9E7
102
}
330
2
100
AcDbEntity
  8
KIJUN
  6
Continuous
100
AcDbLine
 10
127.0620770489332
 20
405.7611775544576
 30
0.0
 11
131.6663350490054
 21
406.3114685545518
 31
0.0
  0
LINE
  5
A722
102
{ACAD_REACTORS
330
A9E7
102
}
330
2
100
AcDbEntity
  8
KIJUN
  6
Continuous
100
AcDbLine
 10
131.6663350490054
 20
406.3114685545518
 30
0.0
 11
136.3592390490522
 21
404.7451775544762
 31
0.0
  0
LINE
  5
A723
102
{ACAD_REACTORS
330
A9E7
102
}
330
2
100
AcDbEntity
  8
KIJUN
  6
Continuous
100
AcDbLine
 10
143.4507920488978
 20
407.5391775543543
 30
0.0
 11
140.0456680488861
 21
411.6031775544909
 31
0.0
  0
LINE
  5
A724
102
{ACAD_REACTORS
330
A9E7
102
}
330
2
100
AcDbEntity
  8
KIJUN
  6
Continuous
100
AcDbLine
 10
140.0456680488861
 20
411.6031775544909
 30
0.0
 11
135.2637370489611
 21
414.0584685545111
 31
0.0
  0
LINE
  5
A725
102
{ACAD_REACTORS
330
A9E7
102
}
330
2
100
AcDbEntity
  8
KIJUN
  6
Continuous
100
AcDbLine
 10
135.2637370489611
 20
414.0584685545111
 30
0.0
 11
130.6593520490788
 21
413.6351775544467
 31
0.0
  0
LINE
  5
A726
102
{ACAD_REACTORS
330
A9E7
102
}
330
2
100
AcDbEntity
  8
KIJUN
  6
Continuous
100
AcDbLine
 10
146.4987920490531
 20
433.8281775543949
 30
0.0
 11
139.9440680489134
 21
436.7585755544791
 31
0.0
  0
LINE
  5
A727
102
{ACAD_REACTORS
330
A9E7
102
}
330
2
100
AcDbEntity
  8
KIJUN
  6
Continuous
100
AcDbLine
 10
139.9440680489134
 20
436.7585755544791
 30
0.0
 11
132.9005210489196
 21
436.6974885543534
 31
0.0
  0
LINE
  5
A728
102
{ACAD_REACTORS
330
A9E7
102
}
330
2
100
AcDbEntity
  8
KIJUN
  6
Continuous
100
AcDbLine
 10
132.9005210489196
 20
436.6974885543534
 30
0.0
 11
127.2118100490335
 21
432.1771775545207
 31
0.0
  0
LINE
  5
A729
102
{ACAD_REACTORS
330
A9E7
102
}
330
2
100
AcDbEntity
  8
KIJUN
  6
Continuous
100
AcDbLine
 10
150.8167920490087
 20
423.6681775544132
 30
0.0
 11
145.6350650488822
 21
427.8403815544447
 31
0.0
  0
LINE
  5
A72A
102
{ACAD_REACTORS
330
A9E7
102
}
330
2
100
AcDbEntity
  8
KIJUN
  6
Continuous
100
AcDbLine
 10
145.6350650488822
 20
427.8403815544447
 30
0.0
 11
140.4756900489302
 21
428.0049735544893
 31
0.0
  0
LINE
  5
A72B
102
{ACAD_REACTORS
330
A9E7
102
}
330
2
100
AcDbEntity
  8
KIJUN
  6
Continuous
100
AcDbLine
 10
140.4756900489302
 20
428.0049735544893
 30
0.0
 11
135.0272630490655
 21
424.303177554539
 31
0.0
  0
LINE
  5
A72C
102
{ACAD_REACTORS
330
A9E7
102
}
330
2
100
AcDbEntity
  8
KIJUN
  6
Continuous
100
AcDbLine
 10
95.57179204907162
 20
513.3301775544246
 30
0.0
 11
100.4277640488873
 21
515.5173715544809
 31
0.0
  0
LINE
  5
A72D
102
{ACAD_REACTORS
330
A9E7
102
}
330
2
100
AcDbEntity
  8
KIJUN
  6
Continuous
100
AcDbLine
 10
100.4277640488873
 20
515.5173715544809
 30
0.0
 11
105.7723050489222
 21
515.6725655543416
 31
0.0
  0
LINE
  5
A72E
102
{ACAD_REACTORS
330
A9E7
102
}
330
2
100
AcDbEntity
  8
KIJUN
  6
Continuous
100
AcDbLine
 10
105.7723050489222
 20
515.6725655543416
 30
0.0
 11
110.9612710489601
 21
514.4731775544283
 31
0.0
  0
LINE
  5
A72F
102
{ACAD_REACTORS
330
A9E7
102
}
330
2
100
AcDbEntity
  8
KIJUN
  6
Continuous
100
AcDbLine
 10
93.92079204897175
 20
504.9481775545578
 30
0.0
 11
111.4088190489202
 21
509.3931775545502
 31
0.0
  0
LINE
  5
A730
102
{ACAD_REACTORS
330
A9E7
102
}
330
2
100
AcDbEntity
  8
KIJUN
  6
Continuous
100
AcDbLine
 10
109.1277720489816
 20
486.4061775544837
 30
0.0
 11
109.1277720489816
 21
485.3901775545095
 31
0.0
  0
LINE
  5
A731
102
{ACAD_REACTORS
330
A9E7
102
}
330
2
100
AcDbEntity
  8
KIJUN
  6
Continuous
100
AcDbLine
 10
93.03179204901983
 20
481.4531775543949
 30
0.0
 11
98.54283004905312
 21
487.3515655543455
 31
0.0
  0
LINE
  5
A732
102
{ACAD_REACTORS
330
A9E7
102
}
330
2
100
AcDbEntity
  8
KIJUN
  6
Continuous
100
AcDbLine
 10
98.54283004905312
 20
487.3515655543455
 30
0.0
 11
104.1427680489142
 21
489.5247895545257
 31
0.0
  0
LINE
  5
A733
102
{ACAD_REACTORS
330
A9E7
102
}
330
2
100
AcDbEntity
  8
KIJUN
  6
Continuous
100
AcDbLine
 10
104.1427680489142
 20
489.5247895545257
 30
0.0
 11
110.5198190489756
 21
489.8351775544873
 31
0.0
  0
LINE
  5
A734
102
{ACAD_REACTORS
330
A9E7
102
}
330
2
100
AcDbEntity
  8
KIJUN
  6
Continuous
100
AcDbLine
 10
93.92079204897175
 20
495.9311775543468
 30
0.0
 11
98.66576604885644
 21
500.09868255441
 31
0.0
  0
LINE
  5
A735
102
{ACAD_REACTORS
330
A9E7
102
}
330
2
100
AcDbEntity
  8
KIJUN
  6
Continuous
100
AcDbLine
 10
98.66576604885644
 20
500.09868255441
 30
0.0
 11
104.2325570490503
 21
501.6696725544537
 31
0.0
  0
LINE
  5
A736
102
{ACAD_REACTORS
330
A9E7
102
}
330
2
100
AcDbEntity
  8
KIJUN
  6
Continuous
100
AcDbLine
 10
104.2325570490503
 20
501.6696725544537
 30
0.0
 11
110.5097860490424
 21
501.0111775544578
 31
0.0
  0
LINE
  5
A737
102
{ACAD_REACTORS
330
A9E7
102
}
330
2
100
AcDbEntity
  8
KIJUN
  6
Continuous
100
AcDbLine
 10
122.7497920490642
 20
494.2801775544726
 30
0.0
 11
117.8530530490826
 21
498.2218765545552
 31
0.0
  0
LINE
  5
A738
102
{ACAD_REACTORS
330
A9E7
102
}
330
2
100
AcDbEntity
  8
KIJUN
  6
Continuous
100
AcDbLine
 10
117.8530530490826
 20
498.2218765545552
 30
0.0
 11
110.8910400489768
 21
500.6677695544062
 31
0.0
  0
LINE
  5
A739
102
{ACAD_REACTORS
330
A9E7
102
}
330
2
100
AcDbEntity
  8
KIJUN
  6
Continuous
100
AcDbLine
 10
110.8910400489768
 20
500.6677695544062
 30
0.0
 11
105.6613070489985
 21
499.3601775543506
 31
0.0
  0
LINE
  5
A73A
102
{ACAD_REACTORS
330
A9E7
102
}
330
2
100
AcDbEntity
  8
KIJUN
  6
Continuous
100
AcDbLine
 10
122.3687920489902
 20
506.5991775544392
 30
0.0
 11
116.0618450488692
 21
508.6734685543929
 31
0.0
  0
LINE
  5
A73B
102
{ACAD_REACTORS
330
A9E7
102
}
330
2
100
AcDbEntity
  8
KIJUN
  6
Continuous
100
AcDbLine
 10
116.0618450488692
 20
508.6734685543929
 30
0.0
 11
110.4211400490604
 21
508.6311775543877
 31
0.0
  0
LINE
  5
A73C
102
{ACAD_REACTORS
330
A9E7
102
}
330
2
100
AcDbEntity
  8
KIJUN
  6
Continuous
100
AcDbLine
 10
110.4211400490604
 20
508.6311775543877
 30
0.0
 11
104.3807660488675
 21
505.4561775544357
 31
0.0
  0
LINE
  5
A73D
102
{ACAD_REACTORS
330
A9E7
102
}
330
2
100
AcDbEntity
  8
KIJUN
  6
Continuous
100
AcDbLine
 10
122.7497920490642
 20
516.7591775544281
 30
0.0
 11
118.2490390489257
 21
519.5061875545729
 31
0.0
  0
LINE
  5
A73E
102
{ACAD_REACTORS
330
A9E7
102
}
330
2
100
AcDbEntity
  8
KIJUN
  6
Continuous
100
AcDbLine
 10
118.2490390489257
 20
519.5061875545729
 30
0.0
 11
113.6595130489878
 21
520.2775855544391
 31
0.0
  0
LINE
  5
A73F
102
{ACAD_REACTORS
330
A9E7
102
}
330
2
100
AcDbEntity
  8
KIJUN
  6
Continuous
100
AcDbLine
 10
113.6595130489878
 20
520.2775855544391
 30
0.0
 11
109.1587600490749
 21
517.7751775544023
 31
0.0
  0
LINE
  5
A740
102
{ACAD_REACTORS
330
A9E7
102
}
330
2
100
AcDbEntity
  8
KIJUN
  6
Continuous
100
AcDbLine
 10
96.46079204902356
 20
470.7851775545354
 30
0.0
 11
102.1347710490082
 21
473.1981775545723
 31
0.0
  0
LINE
  5
A741
102
{ACAD_REACTORS
330
A9E7
102
}
330
2
100
AcDbEntity
  8
KIJUN
  6
Continuous
100
AcDbLine
 10
102.1347710490082
 20
473.1981775545723
 30
0.0
 11
107.5423040488823
 21
473.2404685545629
 31
0.0
  0
LINE
  5
A742
102
{ACAD_REACTORS
330
A9E7
102
}
330
2
100
AcDbEntity
  8
KIJUN
  6
Continuous
100
AcDbLine
 10
107.5423040488823
 20
473.2404685545629
 30
0.0
 11
113.5492770488637
 21
471.9281775545391
 31
0.0
  0
LINE
  5
A743
102
{ACAD_REACTORS
330
A9E7
102
}
330
2
100
AcDbEntity
  8
KIJUN
  6
Continuous
100
AcDbLine
 10
94.68279204889416
 20
477.5161775545133
 30
0.0
 11
100.6195340488922
 21
480.2160705544159
 31
0.0
  0
LINE
  5
A744
102
{ACAD_REACTORS
330
A9E7
102
}
330
2
100
AcDbEntity
  8
KIJUN
  6
Continuous
100
AcDbLine
 10
100.6195340488922
 20
480.2160705544159
 30
0.0
 11
106.9337200489173
 21
480.5735755544013
 31
0.0
  0
LINE
  5
A745
102
{ACAD_REACTORS
330
A9E7
102
}
330
2
100
AcDbEntity
  8
KIJUN
  6
Continuous
100
AcDbLine
 10
106.9337200489173
 20
480.5735755544013
 30
0.0
 11
112.2707680489549
 21
480.3101775543914
 31
0.0
  0
LINE
  5
A746
102
{ACAD_REACTORS
330
A9E7
102
}
330
2
100
AcDbEntity
  8
KIJUN
  6
Continuous
100
AcDbLine
 10
96.84179204887199
 20
442.2101775544874
 30
0.0
 11
102.4490960489203
 21
443.9317895544738
 31
0.0
  0
LINE
  5
A747
102
{ACAD_REACTORS
330
A9E7
102
}
330
2
100
AcDbEntity
  8
KIJUN
  6
Continuous
100
AcDbLine
 10
102.4490960489203
 20
443.9317895544738
 30
0.0
 11
108.9226670490826
 21
444.5525655544044
 31
0.0
  0
LINE
  5
A748
102
{ACAD_REACTORS
330
A9E7
102
}
330
2
100
AcDbEntity
  8
KIJUN
  6
Continuous
100
AcDbLine
 10
108.9226670490826
 20
444.5525655544044
 30
0.0
 11
113.9302770489377
 21
442.2101775544874
 31
0.0
  0
LINE
  5
A749
102
{ACAD_REACTORS
330
A9E7
102
}
330
2
100
AcDbEntity
  8
KIJUN
  6
Continuous
100
AcDbLine
 10
96.84179204887199
 20
447.7981775544688
 30
0.0
 11
103.5411690490074
 21
450.5968765545552
 31
0.0
  0
LINE
  5
A74A
102
{ACAD_REACTORS
330
A9E7
102
}
330
2
100
AcDbEntity
  8
KIJUN
  6
Continuous
100
AcDbLine
 10
103.5411690490074
 20
450.5968765545552
 30
0.0
 11
110.0626190489712
 21
451.137769554473
 31
0.0
  0
LINE
  5
A74B
102
{ACAD_REACTORS
330
A9E7
102
}
330
2
100
AcDbEntity
  8
KIJUN
  6
Continuous
100
AcDbLine
 10
110.0626190489712
 20
451.137769554473
 30
0.0
 11
117.0283150489414
 21
449.4491775543433
 31
0.0
  0
LINE
  5
A74C
102
{ACAD_REACTORS
330
A9E7
102
}
330
2
100
AcDbEntity
  8
KIJUN
  6
Continuous
100
AcDbLine
 10
95.57179204907162
 20
453.3861775544578
 30
0.0
 11
100.7645680490169
 21
460.3382845544477
 31
0.0
  0
LINE
  5
A74D
102
{ACAD_REACTORS
330
A9E7
102
}
330
2
100
AcDbEntity
  8
KIJUN
  6
Continuous
100
AcDbLine
 10
100.7645680490169
 20
460.3382845544477
 30
0.0
 11
109.2662020489443
 21
461.4200705545157
 31
0.0
  0
LINE
  5
A74E
102
{ACAD_REACTORS
330
A9E7
102
}
330
2
100
AcDbEntity
  8
KIJUN
  6
Continuous
100
AcDbLine
 10
109.2662020489443
 20
461.4200705545157
 30
0.0
 11
117.0572710490379
 21
458.9741775544393
 31
0.0
  0
LINE
  5
A74F
102
{ACAD_REACTORS
330
A9E7
102
}
330
2
100
AcDbEntity
  8
KIJUN
  6
Continuous
100
AcDbLine
 10
125.4167920489127
 20
477.5161775545133
 30
0.0
 11
120.8606670489681
 21
482.5867795544477
 31
0.0
  0
LINE
  5
A750
102
{ACAD_REACTORS
330
A9E7
102
}
330
2
100
AcDbEntity
  8
KIJUN
  6
Continuous
100
AcDbLine
 10
120.8606670489681
 20
482.5867795544477
 30
0.0
 11
115.0829290489783
 21
485.1455755544087
 31
0.0
  0
LINE
  5
A751
102
{ACAD_REACTORS
330
A9E7
102
}
330
2
100
AcDbEntity
  8
KIJUN
  6
Continuous
100
AcDbLine
 10
115.0829290489783
 20
485.1455755544087
 30
0.0
 11
109.1277720489816
 21
486.4061775544837
 31
0.0
  0
LINE
  5
A752
102
{ACAD_REACTORS
330
A9E7
102
}
330
2
100
AcDbEntity
  8
KIJUN
  6
Continuous
100
AcDbLine
 10
22.53743706763316
 20
485.8981775543802
 30
0.0
 11
16.50823906775304
 21
486.6178865545375
 31
0.0
  0
LINE
  5
A753
102
{ACAD_REACTORS
330
A9E7
102
}
330
2
100
AcDbEntity
  8
KIJUN
  6
Continuous
100
AcDbLine
 10
16.50823906775304
 20
486.6178865545375
 30
0.0
 11
10.87871006757314
 21
484.6281775543469
 31
0.0
  0
LINE
  5
A754
102
{ACAD_REACTORS
330
A9E7
102
}
330
2
100
AcDbEntity
  8
KIJUN
  6
Continuous
100
AcDbLine
 10
10.87871006757314
 20
484.6281775543469
 30
0.0
 11
7.247907067631331
 21
478.659177554517
 31
0.0
  0
LINE
  5
A755
102
{ACAD_REACTORS
330
A9E7
102
}
330
2
100
AcDbEntity
  8
KIJUN
  6
Continuous
100
AcDbLine
 10
5.872878067621513
 20
484.7551775543839
 30
0.0
 11
7.042548067639017
 21
482.6243715544773
 31
0.0
  0
LINE
  5
A756
102
{ACAD_REACTORS
330
A9E7
102
}
330
2
100
AcDbEntity
  8
KIJUN
  6
Continuous
100
AcDbLine
 10
7.042548067639017
 20
482.6243715544773
 30
0.0
 11
8.101220067740086
 21
479.6469835544197
 31
0.0
  0
LINE
  5
A757
102
{ACAD_REACTORS
330
A9E7
102
}
330
2
100
AcDbEntity
  8
KIJUN
  6
Continuous
100
AcDbLine
 10
8.101220067740086
 20
479.6469835544197
 30
0.0
 11
8.071883067747421
 21
477.5161775545133
 31
0.0
  0
LINE
  5
A758
102
{ACAD_REACTORS
330
A9E7
102
}
330
2
100
AcDbEntity
  8
KIJUN
  6
Continuous
100
AcDbLine
 10
2.441973067664093
 20
469.6421775545316
 30
0.0
 11
3.308113067727845
 21
465.8697695544765
 31
0.0
  0
LINE
  5
A759
102
{ACAD_REACTORS
330
A9E7
102
}
330
2
100
AcDbEntity
  8
KIJUN
  6
Continuous
100
AcDbLine
 10
3.308113067727845
 20
465.8697695544765
 30
0.0
 11
3.974355067581655
 21
462.2385855543983
 31
0.0
  0
LINE
  5
A75A
102
{ACAD_REACTORS
330
A9E7
102
}
330
2
100
AcDbEntity
  8
KIJUN
  6
Continuous
100
AcDbLine
 10
3.974355067581655
 20
462.2385855543983
 30
0.0
 11
4.240928067727963
 21
458.4661775545687
 31
0.0
  0
LINE
  5
A75B
102
{ACAD_REACTORS
330
A9E7
102
}
330
2
100
AcDbEntity
  8
KIJUN
  6
Continuous
100
AcDbLine
 10
21.64843706768852
 20
458.9741775544393
 30
0.0
 11
15.90791006757763
 21
461.1519735545448
 31
0.0
  0
LINE
  5
A75C
102
{ACAD_REACTORS
330
A9E7
102
}
330
2
100
AcDbEntity
  8
KIJUN
  6
Continuous
100
AcDbLine
 10
15.90791006757763
 20
461.1519735545448
 30
0.0
 11
9.234568067714008
 21
460.9873815545001
 31
0.0
  0
LINE
  5
A75D
102
{ACAD_REACTORS
330
A9E7
102
}
330
2
100
AcDbEntity
  8
KIJUN
  6
Continuous
100
AcDbLine
 10
9.234568067714008
 20
460.9873815545001
 30
0.0
 11
4.55995206761554
 21
456.8151775544615
 31
0.0
  0
LINE
  5
A75E
102
{ACAD_REACTORS
330
A9E7
102
}
330
2
100
AcDbEntity
  8
KIJUN
  6
Continuous
100
AcDbLine
 10
19.48943706771069
 20
442.7181775543579
 30
0.0
 11
14.13372006758118
 21
447.0831675545198
 31
0.0
  0
LINE
  5
A75F
102
{ACAD_REACTORS
330
A9E7
102
}
330
2
100
AcDbEntity
  8
KIJUN
  6
Continuous
100
AcDbLine
 10
14.13372006758118
 20
447.0831675545198
 30
0.0
 11
6.490733067720157
 21
447.9204785545229
 31
0.0
  0
LINE
  5
A760
102
{ACAD_REACTORS
330
A9E7
102
}
330
2
100
AcDbEntity
  8
KIJUN
  6
Continuous
100
AcDbLine
 10
6.490733067720157
 20
447.9204785545229
 30
0.0
 11
0.2024550676837862
 21
445.5121775544691
 31
0.0
  0
LINE
  5
A761
102
{ACAD_REACTORS
330
A9E7
102
}
330
2
100
AcDbEntity
  8
KIJUN
  6
Continuous
100
AcDbLine
 10
23.42643706758508
 20
472.4361775544098
 30
0.0
 11
16.57542206762855
 21
473.4897695544062
 31
0.0
  0
LINE
  5
A762
102
{ACAD_REACTORS
330
A9E7
102
}
330
2
100
AcDbEntity
  8
KIJUN
  6
Continuous
100
AcDbLine
 10
16.57542206762855
 20
473.4897695544062
 30
0.0
 11
9.990980067592772
 21
470.7051675544794
 31
0.0
  0
LINE
  5
A763
102
{ACAD_REACTORS
330
A9E7
102
}
330
2
100
AcDbEntity
  8
KIJUN
  6
Continuous
100
AcDbLine
 10
9.990980067592772
 20
470.7051675544794
 30
0.0
 11
6.337952067744936
 21
463.5461775544467
 31
0.0
  0
LINE
  5
A764
102
{ACAD_REACTORS
330
A9E7
102
}
330
2
100
AcDbEntity
  8
KIJUN
  6
Continuous
100
AcDbLine
 10
-7.180562932411248
 20
480.3101775543914
 30
0.0
 11
-1.003155932255594
 21
479.1530805544685
 31
0.0
  0
LINE
  5
A765
102
{ACAD_REACTORS
330
A9E7
102
}
330
2
100
AcDbEntity
  8
KIJUN
  6
Continuous
100
AcDbLine
 10
-1.003155932255594
 20
479.1530805544685
 30
0.0
 11
6.662183067547175
 21
475.6252745545138
 31
0.0
  0
LINE
  5
A766
102
{ACAD_REACTORS
330
A9E7
102
}
330
2
100
AcDbEntity
  8
KIJUN
  6
Continuous
100
AcDbLine
 10
6.662183067547175
 20
475.6252745545138
 30
0.0
 11
7.309883067592181
 21
469.6421775545316
 31
0.0
  0
LINE
  5
A767
102
{ACAD_REACTORS
330
A9E7
102
}
330
2
100
AcDbEntity
  8
KIJUN
  6
Continuous
100
AcDbLine
 10
8.046991067637009
 20
505.4561775544357
 30
0.0
 11
7.677040067600046
 21
503.6405855545166
 31
0.0
  0
LINE
  5
A768
102
{ACAD_REACTORS
330
A9E7
102
}
330
2
100
AcDbEntity
  8
KIJUN
  6
Continuous
100
AcDbLine
 10
7.677040067600046
 20
503.6405855545166
 30
0.0
 11
7.484635067612998
 21
501.6837695543731
 31
0.0
  0
LINE
  5
A769
102
{ACAD_REACTORS
330
A9E7
102
}
330
2
100
AcDbEntity
  8
KIJUN
  6
Continuous
100
AcDbLine
 10
7.484635067612998
 20
501.6837695543731
 30
0.0
 11
7.647449067746947
 21
499.8681775544541
 31
0.0
  0
LINE
  5
A76A
102
{ACAD_REACTORS
330
A9E7
102
}
330
2
100
AcDbEntity
  8
KIJUN
  6
Continuous
100
AcDbLine
 10
-6.418562932263284
 20
502.6621775545576
 30
0.0
 11
-0.6446349323991854
 21
503.0948665543478
 31
0.0
  0
LINE
  5
A76B
102
{ACAD_REACTORS
330
A9E7
102
}
330
2
100
AcDbEntity
  8
KIJUN
  6
Continuous
100
AcDbLine
 10
-0.6446349323991854
 20
503.0948665543478
 30
0.0
 11
4.529599067737308
 21
500.7900705544456
 31
0.0
  0
LINE
  5
A76C
102
{ACAD_REACTORS
330
A9E7
102
}
330
2
100
AcDbEntity
  8
KIJUN
  6
Continuous
100
AcDbLine
 10
4.529599067737308
 20
500.7900705544456
 30
0.0
 11
6.772419067671307
 21
493.7721775543618
 31
0.0
  0
LINE
  5
A76D
102
{ACAD_REACTORS
330
A9E7
102
}
330
2
100
AcDbEntity
  8
KIJUN
  6
Continuous
100
AcDbLine
 10
22.74546306760431
 20
497.0741775543506
 30
0.0
 11
16.76071506775452
 21
498.5746825545507
 31
0.0
  0
LINE
  5
A76E
102
{ACAD_REACTORS
330
A9E7
102
}
330
2
100
AcDbEntity
  8
KIJUN
  6
Continuous
100
AcDbLine
 10
16.76071506775452
 20
498.5746825545507
 30
0.0
 11
10.7758400676289
 21
496.7166725543651
 31
0.0
  0
LINE
  5
A76F
102
{ACAD_REACTORS
330
A9E7
102
}
330
2
100
AcDbEntity
  8
KIJUN
  6
Continuous
100
AcDbLine
 10
10.7758400676289
 20
496.7166725543651
 30
0.0
 11
8.05550006774547
 21
490.3431775543581
 31
0.0
  0
LINE
  5
A770
102
{ACAD_REACTORS
330
A9E7
102
}
330
2
100
AcDbEntity
  8
KIJUN
  6
Continuous
100
AcDbLine
 10
8.090425067548949
 20
490.978177554491
 30
0.0
 11
8.219965067747125
 21
489.2377695543841
 31
0.0
  0
LINE
  5
A771
102
{ACAD_REACTORS
330
A9E7
102
}
330
2
100
AcDbEntity
  8
KIJUN
  6
Continuous
100
AcDbLine
 10
8.219965067747125
 20
489.2377695543841
 30
0.0
 11
8.460376067585912
 21
487.5538765544556
 31
0.0
  0
LINE
  5
A772
102
{ACAD_REACTORS
330
A9E7
102
}
330
2
100
AcDbEntity
  8
KIJUN
  6
Continuous
100
AcDbLine
 10
8.460376067585912
 20
487.5538765544556
 30
0.0
 11
8.589916067543981
 21
485.8981775543802
 31
0.0
  0
LINE
  5
A773
102
{ACAD_REACTORS
330
A9E7
102
}
330
2
100
AcDbEntity
  8
KIJUN
  6
Continuous
100
AcDbLine
 10
-6.799562932337494
 20
494.9151775543653
 30
0.0
 11
-1.273665932352287
 21
495.7288665544623
 31
0.0
  0
LINE
  5
A774
102
{ACAD_REACTORS
330
A9E7
102
}
330
2
100
AcDbEntity
  8
KIJUN
  6
Continuous
100
AcDbLine
 10
-1.273665932352287
 20
495.7288665544623
 30
0.0
 11
3.164222067757236
 21
494.5670705545638
 31
0.0
  0
LINE
  5
A775
102
{ACAD_REACTORS
330
A9E7
102
}
330
2
100
AcDbEntity
  8
KIJUN
  6
Continuous
100
AcDbLine
 10
3.164222067757236
 20
494.5670705545638
 30
0.0
 11
8.090425067548949
 21
490.978177554491
 31
0.0
  0
LINE
  5
A776
102
{ACAD_REACTORS
330
A9E7
102
}
330
2
100
AcDbEntity
  8
KIJUN
  6
Continuous
100
AcDbLine
 10
-6.418562932263284
 20
486.4061775544837
 30
0.0
 11
-2.143615932323427
 21
487.8972845545217
 31
0.0
  0
LINE
  5
A777
102
{ACAD_REACTORS
330
A9E7
102
}
330
2
100
AcDbEntity
  8
KIJUN
  6
Continuous
100
AcDbLine
 10
-2.143615932323427
 20
487.8972845545217
 30
0.0
 11
1.931306067581772
 21
487.8360705543458
 31
0.0
  0
LINE
  5
A778
102
{ACAD_REACTORS
330
A9E7
102
}
330
2
100
AcDbEntity
  8
KIJUN
  6
Continuous
100
AcDbLine
 10
1.931306067581772
 20
487.8360705543458
 30
0.0
 11
5.872878067621513
 21
484.7551775543839
 31
0.0
  0
LINE
  5
A779
102
{ACAD_REACTORS
330
A9E7
102
}
330
2
100
AcDbEntity
  8
KIJUN
  6
Continuous
100
AcDbLine
 10
22.15643706755918
 20
516.7591775544281
 30
0.0
 11
16.24547606773967
 21
517.7234885544679
 31
0.0
  0
LINE
  5
A77A
102
{ACAD_REACTORS
330
A9E7
102
}
330
2
100
AcDbEntity
  8
KIJUN
  6
Continuous
100
AcDbLine
 10
16.24547606773967
 20
517.7234885544679
 30
0.0
 11
10.64553806763842
 21
516.0912845544885
 31
0.0
  0
LINE
  5
A77B
102
{ACAD_REACTORS
330
A9E7
102
}
330
2
100
AcDbEntity
  8
KIJUN
  6
Continuous
100
AcDbLine
 10
10.64553806763842
 20
516.0912845544885
 30
0.0
 11
7.665991067555751
 21
510.0281775544431
 31
0.0
  0
LINE
  5
A77C
102
{ACAD_REACTORS
330
A9E7
102
}
330
2
100
AcDbEntity
  8
KIJUN
  6
Continuous
100
AcDbLine
 10
22.53743706763316
 20
506.0911775545613
 30
0.0
 11
17.73696406767385
 21
507.902070554512
 31
0.0
  0
LINE
  5
A77D
102
{ACAD_REACTORS
330
A9E7
102
}
330
2
100
AcDbEntity
  8
KIJUN
  6
Continuous
100
AcDbLine
 10
17.73696406767385
 20
507.902070554512
 30
0.0
 11
13.18071206767899
 21
507.3705755545383
 31
0.0
  0
LINE
  5
A77E
102
{ACAD_REACTORS
330
A9E7
102
}
330
2
100
AcDbEntity
  8
KIJUN
  6
Continuous
100
AcDbLine
 10
13.18071206767899
 20
507.3705755545383
 30
0.0
 11
8.046991067637009
 21
505.4561775544357
 31
0.0
  0
LINE
  5
A77F
102
{ACAD_REACTORS
330
A9E7
102
}
330
2
100
AcDbEntity
  8
KIJUN
  6
Continuous
100
AcDbLine
 10
12.44792206771353
 20
513.838177554528
 30
0.0
 11
12.76986706765865
 21
513.2784885544826
 31
0.0
  0
LINE
  5
A780
102
{ACAD_REACTORS
330
A9E7
102
}
330
2
100
AcDbEntity
  8
KIJUN
  6
Continuous
100
AcDbLine
 10
12.76986706765865
 20
513.2784885544826
 30
0.0
 11
13.2918370676457
 21
512.2388665543622
 31
0.0
  0
LINE
  5
A781
102
{ACAD_REACTORS
330
A9E7
102
}
330
2
100
AcDbEntity
  8
KIJUN
  6
Continuous
100
AcDbLine
 10
13.2918370676457
 20
512.2388665543622
 30
0.0
 11
13.34746306776333
 21
511.6791775545502
 31
0.0
  0
LINE
  5
A782
102
{ACAD_REACTORS
330
A9E7
102
}
330
2
100
AcDbEntity
  8
KIJUN
  6
Continuous
100
AcDbLine
 10
-4.640562932359443
 20
514.9811775545243
 30
0.0
 11
1.077739067612583
 21
517.4788865543672
 31
0.0
  0
LINE
  5
A783
102
{ACAD_REACTORS
330
A9E7
102
}
330
2
100
AcDbEntity
  8
KIJUN
  6
Continuous
100
AcDbLine
 10
1.077739067612583
 20
517.4788865543672
 30
0.0
 11
7.062614067730919
 21
517.4364685545518
 31
0.0
  0
LINE
  5
A784
102
{ACAD_REACTORS
330
A9E7
102
}
330
2
100
AcDbEntity
  8
KIJUN
  6
Continuous
100
AcDbLine
 10
7.062614067730919
 20
517.4364685545518
 30
0.0
 11
12.44792206771353
 21
513.838177554528
 31
0.0
  0
LINE
  5
A785
102
{ACAD_REACTORS
330
A9E7
102
}
330
2
100
AcDbEntity
  8
KIJUN
  6
Continuous
100
AcDbLine
 10
-5.910562932385346
 20
507.7421775544357
 30
0.0
 11
-0.2588089323066924
 21
509.4872845545255
 31
0.0
  0
LINE
  5
A786
102
{ACAD_REACTORS
330
A9E7
102
}
330
2
100
AcDbEntity
  8
KIJUN
  6
Continuous
100
AcDbLine
 10
-0.2588089323066924
 20
509.4872845545255
 30
0.0
 11
5.259595067680947
 21
508.833488554505
 31
0.0
  0
LINE
  5
A787
102
{ACAD_REACTORS
330
A9E7
102
}
330
2
100
AcDbEntity
  8
KIJUN
  6
Continuous
100
AcDbLine
 10
5.259595067680947
 20
508.833488554505
 30
0.0
 11
9.378967067623761
 21
503.8051775545613
 31
0.0
  0
LINE
  5
A788
102
{ACAD_REACTORS
330
A9E7
102
}
330
2
100
AcDbEntity
  8
KIJUN
  6
Continuous
100
AcDbLine
 10
136.8467920489348
 20
448.3061775543396
 30
0.0
 11
130.984091049053
 21
450.6344685543449
 31
0.0
  0
LINE
  5
A789
102
{ACAD_REACTORS
330
A9E7
102
}
330
2
100
AcDbEntity
  8
KIJUN
  6
Continuous
100
AcDbLine
 10
130.984091049053
 20
450.6344685543449
 30
0.0
 11
122.9227660489488
 21
451.6928865543599
 31
0.0
  0
LINE
  5
A78A
102
{ACAD_REACTORS
330
A9E7
102
}
330
2
100
AcDbEntity
  8
KIJUN
  6
Continuous
100
AcDbLine
 10
122.9227660489488
 20
451.6928865543599
 30
0.0
 11
118.8587660490449
 21
449.4491775543433
 31
0.0
  0
LINE
  5
A78B
102
{ACAD_REACTORS
330
A9E7
102
}
330
2
100
AcDbEntity
  8
KIJUN
  6
Continuous
100
AcDbLine
 10
130.6237920490531
 20
455.6721775544578
 30
0.0
 11
124.5354120490084
 21
458.278090554421
 31
0.0
  0
LINE
  5
A78C
102
{ACAD_REACTORS
330
A9E7
102
}
330
2
100
AcDbEntity
  8
KIJUN
  6
Continuous
100
AcDbLine
 10
124.5354120490084
 20
458.278090554421
 30
0.0
 11
118.3581320488884
 21
458.992973554567
 31
0.0
  0
LINE
  5
A78D
102
{ACAD_REACTORS
330
A9E7
102
}
330
2
100
AcDbEntity
  8
KIJUN
  6
Continuous
100
AcDbLine
 10
118.3581320488884
 20
458.992973554567
 30
0.0
 11
113.1357650488645
 21
458.9741775544393
 31
0.0
  0
LINE
  5
A78E
102
{ACAD_REACTORS
330
A9E7
102
}
330
2
100
AcDbEntity
  8
KIJUN
  6
Continuous
100
AcDbLine
 10
125.4167920489127
 20
469.6421775545316
 30
0.0
 11
121.9783940489652
 21
474.1530905544208
 31
0.0
  0
LINE
  5
A78F
102
{ACAD_REACTORS
330
A9E7
102
}
330
2
100
AcDbEntity
  8
KIJUN
  6
Continuous
100
AcDbLine
 10
121.9783940489652
 20
474.1530905544208
 30
0.0
 11
116.9631640490626
 21
476.0109735545706
 31
0.0
  0
LINE
  5
A790
102
{ACAD_REACTORS
330
A9E7
102
}
330
2
100
AcDbEntity
  8
KIJUN
  6
Continuous
100
AcDbLine
 10
116.9631640490626
 20
476.0109735545706
 30
0.0
 11
111.7258110490512
 21
476.373177554517
 31
0.0
  0
LINE
  5
A791
102
{ACAD_REACTORS
330
A9E7
102
}
330
2
100
AcDbEntity
  8
KIJUN
  6
Continuous
100
AcDbLine
 10
125.9247920490235
 20
461.76817755455
 30
0.0
 11
120.9650610489699
 21
465.3100805544239
 31
0.0
  0
LINE
  5
A792
102
{ACAD_REACTORS
330
A9E7
102
}
330
2
100
AcDbEntity
  8
KIJUN
  6
Continuous
100
AcDbLine
 10
120.9650610489699
 20
465.3100805544239
 30
0.0
 11
115.6946880488614
 21
466.5659835545307
 31
0.0
  0
LINE
  5
A793
102
{ACAD_REACTORS
330
A9E7
102
}
330
2
100
AcDbEntity
  8
KIJUN
  6
Continuous
100
AcDbLine
 10
115.6946880488614
 20
466.5659835545307
 30
0.0
 11
110.1352630490729
 21
465.1971775545539
 31
0.0
  0
LINE
  5
A794
102
{ACAD_REACTORS
330
A9E7
102
}
330
2
100
AcDbEntity
  8
KIJUN
  6
Continuous
100
AcDbLine
 10
124.0197920488646
 20
487.5491775544801
 30
0.0
 11
120.314948049032
 21
491.1427695545357
 31
0.0
  0
LINE
  5
A795
102
{ACAD_REACTORS
330
A9E7
102
}
330
2
100
AcDbEntity
  8
KIJUN
  6
Continuous
100
AcDbLine
 10
120.314948049032
 20
491.1427695545357
 30
0.0
 11
115.1666220488915
 21
493.3535855544981
 31
0.0
  0
LINE
  5
A796
102
{ACAD_REACTORS
330
A9E7
102
}
330
2
100
AcDbEntity
  8
KIJUN
  6
Continuous
100
AcDbLine
 10
115.1666220488915
 20
493.3535855544981
 30
0.0
 11
110.9287590490349
 21
493.1371775544688
 31
0.0
  0
LINE
  5
A7A1
102
{ACAD_REACTORS
330
A9E8
102
}
330
2
100
AcDbEntity
  8
KIJUN
100
AcDbLine
 10
621.9137777669904
 20
525.4294700544383
 30
0.0
 11
621.9137777669902
 21
505.7619300544431
 31
0.0
  0
LINE
  5
A7A2
102
{ACAD_REACTORS
330
A9E8
102
}
330
2
100
AcDbEntity
  8
KIJUN
100
AcDbLine
 10
621.9137777669902
 20
505.7619300544431
 30
0.0
 11
621.9137777669902
 21
494.7329960543681
 31
0.0
  0
LINE
  5
A7A3
102
{ACAD_REACTORS
330
A9E8
102
}
330
2
100
AcDbEntity
  8
KIJUN
100
AcDbLine
 10
621.9137777669902
 20
494.7329960543681
 30
0.0
 11
623.7898217668202
 21
476.9444870543339
 31
0.0
  0
LINE
  5
A7A4
102
{ACAD_REACTORS
330
A9E8
102
}
330
2
100
AcDbEntity
  8
KIJUN
100
AcDbLine
 10
623.7898217668202
 20
476.9444870543339
 30
0.0
 11
624.8843077668002
 21
464.3740270544769
 31
0.0
  0
LINE
  5
A7A5
102
{ACAD_REACTORS
330
A9E8
102
}
330
2
100
AcDbEntity
  8
KIJUN
100
AcDbLine
 10
624.8843077668002
 20
464.3740270544769
 30
0.0
 11
630.3567377669324
 21
454.0569280544409
 31
0.0
  0
LINE
  5
A7A6
102
{ACAD_REACTORS
330
A9E8
102
}
330
2
100
AcDbEntity
  8
KIJUN
100
AcDbLine
 10
630.3567377669324
 20
454.0569280544409
 30
0.0
 11
640.2067307668562
 21
445.9929360543501
 31
0.0
  0
LINE
  5
A7A7
102
{ACAD_REACTORS
330
A9E8
102
}
330
2
100
AcDbEntity
  8
KIJUN
100
AcDbLine
 10
640.2067307668562
 20
445.9929360543501
 30
0.0
 11
648.8062817668992
 21
437.6914540544937
 31
0.0
  0
LINE
  5
A7A8
102
{ACAD_REACTORS
330
A9E8
102
}
330
2
100
AcDbEntity
  8
KIJUN
100
AcDbLine
 10
648.8062817668992
 20
437.6914540544937
 30
0.0
 11
653.6527287669533
 21
427.2554830543998
 31
0.0
  0
LINE
  5
A7A9
102
{ACAD_REACTORS
330
A9E8
102
}
330
2
100
AcDbEntity
  8
KIJUN
100
AcDbLine
 10
653.6527287669533
 20
427.2554830543998
 30
0.0
 11
654.4347947669676
 21
418.2429280545368
 31
0.0
  0
LINE
  5
A7AA
102
{ACAD_REACTORS
330
A9E8
102
}
330
2
100
AcDbEntity
  8
KIJUN
100
AcDbLine
 10
654.4347947669676
 20
418.2429280545368
 30
0.0
 11
652.5582427669733
 21
411.6019710543153
 31
0.0
  0
LINE
  5
A7AB
102
{ACAD_REACTORS
330
A9E8
102
}
330
2
100
AcDbEntity
  8
KIJUN
100
AcDbLine
 10
652.5582427669733
 20
411.6019710543153
 30
0.0
 11
648.337270766825
 21
403.4189800543648
 31
0.0
  0
LINE
  5
A7AC
102
{ACAD_REACTORS
330
A9E8
102
}
330
2
100
AcDbEntity
  8
KIJUN
100
AcDbLine
 10
648.337270766825
 20
403.4189800543648
 30
0.0
 11
639.5812557669492
 21
396.7780230543688
 31
0.0
  0
LINE
  5
A7AD
102
{ACAD_REACTORS
330
A9E8
102
}
330
2
100
AcDbEntity
  8
KIJUN
100
AcDbLine
 10
639.5812557669492
 20
396.7780230543688
 30
0.0
 11
628.4803127669743
 21
393.9319530544202
 31
0.0
  0
LINE
  5
A7AE
102
{ACAD_REACTORS
330
A9E8
102
}
330
2
100
AcDbEntity
  8
KIJUN
100
AcDbLine
 10
628.4803127669743
 20
393.9319530544202
 30
0.0
 11
615.5033257669502
 21
395.1180060544396
 31
0.0
  0
LINE
  5
A7AF
102
{ACAD_REACTORS
330
A9E8
102
}
330
2
100
AcDbEntity
  8
KIJUN
100
AcDbLine
 10
615.5033257669502
 20
395.1180060544396
 30
0.0
 11
602.6828027669912
 21
398.3199300544989
 31
0.0
  0
LINE
  5
A7B0
102
{ACAD_REACTORS
330
A9E8
102
}
330
2
100
AcDbEntity
  8
KIJUN
100
AcDbLine
 10
602.6828027669912
 20
398.3199300544989
 30
0.0
 11
592.3632907668302
 21
407.3324850543688
 31
0.0
  0
LINE
  5
A7B1
102
{ACAD_REACTORS
330
A9E8
102
}
330
2
100
AcDbEntity
  8
KIJUN
100
AcDbLine
 10
592.3632907668302
 20
407.3324850543688
 30
0.0
 11
588.7672857668812
 21
417.2939840543953
 31
0.0
  0
LINE
  5
A7B2
102
{ACAD_REACTORS
330
A9E8
102
}
330
2
100
AcDbEntity
  8
KIJUN
100
AcDbLine
 10
588.7672857668812
 20
417.2939840543953
 30
0.0
 11
586.1093027668475
 21
427.7299550544817
 31
0.0
  0
LINE
  5
A7B3
102
{ACAD_REACTORS
330
A9E8
102
}
330
2
100
AcDbEntity
  8
KIJUN
100
AcDbLine
 10
586.1093027668475
 20
427.7299550544817
 30
0.0
 11
584.7022697668662
 21
447.0599900545171
 31
0.0
  0
LINE
  5
A7B4
102
{ACAD_REACTORS
330
A9E8
102
}
330
2
100
AcDbEntity
  8
KIJUN
100
AcDbLine
 10
584.7022697668662
 20
447.0599900545171
 30
0.0
 11
586.7347777669861
 21
476.114415054468
 31
0.0
  0
LINE
  5
A7B5
102
{ACAD_REACTORS
330
A9E8
102
}
330
2
100
AcDbEntity
  8
KIJUN
100
AcDbLine
 10
586.7347777669861
 20
476.114415054468
 30
0.0
 11
587.2037887668352
 21
502.0854070545071
 31
0.0
  0
LINE
  5
A7B6
102
{ACAD_REACTORS
330
A9E8
102
}
330
2
100
AcDbEntity
  8
KIJUN
100
AcDbLine
 10
587.2037887668352
 20
502.0854070545071
 30
0.0
 11
587.2037887668352
 21
525.4294700544383
 31
0.0
  0
LINE
  5
A7B8
102
{ACAD_REACTORS
330
A9E8
102
}
330
2
100
AcDbEntity
  8
KIJUN
100
AcDbLine
 10
535.3689040403288
 20
525.4294700544382
 30
0.0
 11
536.2667557669205
 21
510.859456054484
 31
0.0
  0
LINE
  5
A7B9
102
{ACAD_REACTORS
330
A9E8
102
}
330
2
100
AcDbEntity
  8
KIJUN
100
AcDbLine
 10
536.2667557669205
 20
510.859456054484
 30
0.0
 11
537.2042697668889
 21
495.4885190544122
 31
0.0
  0
LINE
  5
A7BA
102
{ACAD_REACTORS
330
A9E8
102
}
330
2
100
AcDbEntity
  8
KIJUN
100
AcDbLine
 10
537.2042697668889
 20
495.4885190544122
 30
0.0
 11
537.2042697668889
 21
484.9914610544329
 31
0.0
  0
LINE
  5
A7BB
102
{ACAD_REACTORS
330
A9E8
102
}
330
2
100
AcDbEntity
  8
KIJUN
100
AcDbLine
 10
537.2042697668889
 20
484.9914610544329
 30
0.0
 11
537.2042697668889
 21
473.9949120544659
 31
0.0
  0
LINE
  5
A7BC
102
{ACAD_REACTORS
330
A9E8
102
}
330
2
100
AcDbEntity
  8
KIJUN
100
AcDbLine
 10
537.2042697668889
 20
473.9949120544659
 30
0.0
 11
537.2042697668889
 21
462.8730140543301
 31
0.0
  0
LINE
  5
A7BD
102
{ACAD_REACTORS
330
A9E8
102
}
330
2
100
AcDbEntity
  8
KIJUN
100
AcDbLine
 10
537.2042697668889
 20
462.8730140543301
 30
0.0
 11
536.2667557669205
 21
452.500924054384
 31
0.0
  0
LINE
  5
A7BE
102
{ACAD_REACTORS
330
A9E8
102
}
330
2
100
AcDbEntity
  8
KIJUN
100
AcDbLine
 10
536.2667557669205
 20
452.500924054384
 30
0.0
 11
535.2117667669094
 21
442.50399205439
 31
0.0
  0
LINE
  5
A7BF
102
{ACAD_REACTORS
330
A9E8
102
}
330
2
100
AcDbEntity
  8
KIJUN
100
AcDbLine
 10
535.2117667669094
 20
442.50399205439
 30
0.0
 11
532.0473077668293
 21
433.7564860543756
 31
0.0
  0
LINE
  5
A7C0
102
{ACAD_REACTORS
330
A9E8
102
}
330
2
100
AcDbEntity
  8
KIJUN
100
AcDbLine
 10
532.0473077668293
 20
433.7564860543756
 30
0.0
 11
528.5313127669446
 21
425.50897905431
 31
0.0
  0
LINE
  5
A7C1
102
{ACAD_REACTORS
330
A9E8
102
}
330
2
100
AcDbEntity
  8
KIJUN
100
AcDbLine
 10
528.5313127669446
 20
425.50897905431
 30
0.0
 11
527.0078207668056
 21
419.8854190545357
 31
0.0
  0
LINE
  5
A7C2
102
{ACAD_REACTORS
330
A9E8
102
}
330
2
100
AcDbEntity
  8
KIJUN
100
AcDbLine
 10
527.0078207668056
 20
419.8854190545357
 30
0.0
 11
525.3667267668147
 21
410.5129460543286
 31
0.0
  0
LINE
  5
A7C3
102
{ACAD_REACTORS
330
A9E8
102
}
330
2
100
AcDbEntity
  8
KIJUN
100
AcDbLine
 10
525.3667267668147
 20
410.5129460543286
 30
0.0
 11
526.4217157668258
 21
402.8905330545063
 31
0.0
  0
LINE
  5
A7C4
102
{ACAD_REACTORS
330
A9E8
102
}
330
2
100
AcDbEntity
  8
KIJUN
100
AcDbLine
 10
526.4217157668258
 20
402.8905330545063
 30
0.0
 11
530.0548047668503
 21
395.1425170544213
 31
0.0
  0
LINE
  5
A7C5
102
{ACAD_REACTORS
330
A9E8
102
}
330
2
100
AcDbEntity
  8
KIJUN
100
AcDbLine
 10
530.0548047668503
 20
395.1425170544213
 30
0.0
 11
537.2042697668889
 21
390.7690180543982
 31
0.0
  0
LINE
  5
A7C6
102
{ACAD_REACTORS
330
A9E8
102
}
330
2
100
AcDbEntity
  8
KIJUN
100
AcDbLine
 10
537.2042697668889
 20
390.7690180543982
 30
0.0
 11
548.5733097668353
 21
389.6439250544466
 31
0.0
  0
LINE
  5
A7C7
102
{ACAD_REACTORS
330
A9E8
102
}
330
2
100
AcDbEntity
  8
KIJUN
100
AcDbLine
 10
548.5733097668353
 20
389.6439250544466
 30
0.0
 11
561.4657147668704
 21
389.0194660544188
 31
0.0
  0
LINE
  5
A7C8
102
{ACAD_REACTORS
330
A9E8
102
}
330
2
100
AcDbEntity
  8
KIJUN
100
AcDbLine
 10
561.4657147668704
 20
389.0194660544188
 30
0.0
 11
572.7172797667744
 21
389.0194660544188
 31
0.0
  0
LINE
  5
A7C9
102
{ACAD_REACTORS
330
A9E8
102
}
330
2
100
AcDbEntity
  8
KIJUN
100
AcDbLine
 10
572.7172797667744
 20
389.0194660544188
 30
0.0
 11
580.9217337668173
 21
390.143924054388
 31
0.0
  0
LINE
  5
A7CA
102
{ACAD_REACTORS
330
A9E8
102
}
330
2
100
AcDbEntity
  8
KIJUN
100
AcDbLine
 10
580.9217337668173
 20
390.143924054388
 30
0.0
 11
589.7117847669083
 21
391.7685080543274
 31
0.0
  0
LINE
  5
A7CB
102
{ACAD_REACTORS
330
A9E8
102
}
330
2
100
AcDbEntity
  8
KIJUN
100
AcDbLine
 10
589.7117847669083
 20
391.7685080543274
 30
0.0
 11
594.4002437668391
 21
396.2674830543297
 31
0.0
  0
LINE
  5
A7CC
102
{ACAD_REACTORS
330
A9E8
102
}
330
2
100
AcDbEntity
  8
KIJUN
100
AcDbLine
 10
594.4002437668391
 20
396.2674830543297
 30
0.0
 11
596.9787247669819
 21
405.0149890543293
 31
0.0
  0
LINE
  5
A7CD
102
{ACAD_REACTORS
330
A9E8
102
}
330
2
100
AcDbEntity
  8
KIJUN
100
AcDbLine
 10
596.9787247669819
 20
405.0149890543293
 30
0.0
 11
597.4472277668842
 21
412.7624970544681
 31
0.0
  0
LINE
  5
A7CE
102
{ACAD_REACTORS
330
A9E8
102
}
330
2
100
AcDbEntity
  8
KIJUN
100
AcDbLine
 10
597.4472277668842
 20
412.7624970544681
 30
0.0
 11
595.923735766978
 21
421.6349710545076
 31
0.0
  0
LINE
  5
A7CF
102
{ACAD_REACTORS
330
A9E8
102
}
330
2
100
AcDbEntity
  8
KIJUN
100
AcDbLine
 10
595.923735766978
 20
421.6349710545076
 30
0.0
 11
592.2902657668242
 21
432.0069340544036
 31
0.0
  0
LINE
  5
A7D0
102
{ACAD_REACTORS
330
A9E8
102
}
330
2
100
AcDbEntity
  8
KIJUN
100
AcDbLine
 10
592.2902657668242
 20
432.0069340544036
 30
0.0
 11
588.1882927670021
 21
443.6284500543441
 31
0.0
  0
LINE
  5
A7D1
102
{ACAD_REACTORS
330
A9E8
102
}
330
2
100
AcDbEntity
  8
KIJUN
100
AcDbLine
 10
588.1882927670021
 20
443.6284500543441
 30
0.0
 11
587.133303766991
 21
457.3744220543481
 31
0.0
  0
LINE
  5
A7D2
102
{ACAD_REACTORS
330
A9E8
102
}
330
2
100
AcDbEntity
  8
KIJUN
100
AcDbLine
 10
587.133303766991
 20
457.3744220543481
 30
0.0
 11
586.0788227669263
 21
473.9949120544659
 31
0.0
  0
LINE
  5
A7D3
102
{ACAD_REACTORS
330
A9E8
102
}
330
2
100
AcDbEntity
  8
KIJUN
100
AcDbLine
 10
586.0788227669263
 20
473.9949120544659
 30
0.0
 11
586.6648007668645
 21
494.8639330543479
 31
0.0
  0
LINE
  5
A7D4
102
{ACAD_REACTORS
330
A9E8
102
}
330
2
100
AcDbEntity
  8
KIJUN
100
AcDbLine
 10
586.6648007668645
 20
494.8639330543479
 30
0.0
 11
587.6065712545014
 21
525.4294700544383
 31
0.0
  0
LINE
  5
A7D6
102
{ACAD_REACTORS
330
A9E8
102
}
330
2
100
AcDbEntity
  8
KIJUN
100
AcDbLine
 10
501.5177777669537
 20
525.4294700544382
 30
0.0
 11
501.5177777669537
 21
505.1269300543172
 31
0.0
  0
LINE
  5
A7D7
102
{ACAD_REACTORS
330
A9E8
102
}
330
2
100
AcDbEntity
  8
KIJUN
100
AcDbLine
 10
501.5177777669537
 20
505.1269300543172
 30
0.0
 11
501.5177777669537
 21
494.0979960544679
 31
0.0
  0
LINE
  5
A7D8
102
{ACAD_REACTORS
330
A9E8
102
}
330
2
100
AcDbEntity
  8
KIJUN
100
AcDbLine
 10
501.5177777669537
 20
494.0979960544679
 30
0.0
 11
499.6417337668986
 21
476.3094870544408
 31
0.0
  0
LINE
  5
A7D9
102
{ACAD_REACTORS
330
A9E8
102
}
330
2
100
AcDbEntity
  8
KIJUN
100
AcDbLine
 10
499.6417337668986
 20
476.3094870544408
 30
0.0
 11
497.4527617669386
 21
460.0630120543461
 31
0.0
  0
LINE
  5
A7DA
102
{ACAD_REACTORS
330
A9E8
102
}
330
2
100
AcDbEntity
  8
KIJUN
100
AcDbLine
 10
497.4527617669386
 20
460.0630120543461
 30
0.0
 11
491.8242487668699
 21
451.642912054525
 31
0.0
  0
LINE
  5
A7DB
102
{ACAD_REACTORS
330
A9E8
102
}
330
2
100
AcDbEntity
  8
KIJUN
100
AcDbLine
 10
491.8242487668699
 20
451.642912054525
 30
0.0
 11
483.06823376698
 21
445.832027054403
 31
0.0
  0
LINE
  5
A7DC
102
{ACAD_REACTORS
330
A9E8
102
}
330
2
100
AcDbEntity
  8
KIJUN
100
AcDbLine
 10
483.06823376698
 20
445.832027054403
 30
0.0
 11
474.6252737668196
 21
437.0564540543603
 31
0.0
  0
LINE
  5
A7DD
102
{ACAD_REACTORS
330
A9E8
102
}
330
2
100
AcDbEntity
  8
KIJUN
100
AcDbLine
 10
474.6252737668196
 20
437.0564540543603
 30
0.0
 11
469.778826766998
 21
426.620483054507
 31
0.0
  0
LINE
  5
A7DE
102
{ACAD_REACTORS
330
A9E8
102
}
330
2
100
AcDbEntity
  8
KIJUN
100
AcDbLine
 10
469.778826766998
 20
426.620483054507
 30
0.0
 11
470.7167217668698
 21
418.6749820543449
 31
0.0
  0
LINE
  5
A7DF
102
{ACAD_REACTORS
330
A9E8
102
}
330
2
100
AcDbEntity
  8
KIJUN
100
AcDbLine
 10
470.7167217668698
 20
418.6749820543449
 30
0.0
 11
470.873312766978
 21
410.966971054408
 31
0.0
  0
LINE
  5
A7E0
102
{ACAD_REACTORS
330
A9E8
102
}
330
2
100
AcDbEntity
  8
KIJUN
100
AcDbLine
 10
470.873312766978
 20
410.966971054408
 30
0.0
 11
475.407339766834
 21
401.7169260545307
 31
0.0
  0
LINE
  5
A7E1
102
{ACAD_REACTORS
330
A9E8
102
}
330
2
100
AcDbEntity
  8
KIJUN
100
AcDbLine
 10
475.407339766834
 20
401.7169260545307
 30
0.0
 11
482.1303387668827
 21
396.1430230544689
 31
0.0
  0
LINE
  5
A7E2
102
{ACAD_REACTORS
330
A9E8
102
}
330
2
100
AcDbEntity
  8
KIJUN
100
AcDbLine
 10
482.1303387668827
 20
396.1430230544689
 30
0.0
 11
494.9512427669701
 21
393.2969530545199
 31
0.0
  0
LINE
  5
A7E3
102
{ACAD_REACTORS
330
A9E8
102
}
330
2
100
AcDbEntity
  8
KIJUN
100
AcDbLine
 10
494.9512427669701
 20
393.2969530545199
 30
0.0
 11
507.9282297669938
 21
394.4830060543138
 31
0.0
  0
LINE
  5
A7E4
102
{ACAD_REACTORS
330
A9E8
102
}
330
2
100
AcDbEntity
  8
KIJUN
100
AcDbLine
 10
507.9282297669938
 20
394.4830060543138
 30
0.0
 11
520.7487527669595
 21
397.6849300543731
 31
0.0
  0
LINE
  5
A7E5
102
{ACAD_REACTORS
330
A9E8
102
}
330
2
100
AcDbEntity
  8
KIJUN
100
AcDbLine
 10
520.7487527669595
 20
397.6849300543731
 30
0.0
 11
531.0682647668886
 21
406.6974850544761
 31
0.0
  0
LINE
  5
A7E6
102
{ACAD_REACTORS
330
A9E8
102
}
330
2
100
AcDbEntity
  8
KIJUN
100
AcDbLine
 10
531.0682647668886
 20
406.6974850544761
 30
0.0
 11
534.6642697668371
 21
416.6589840544881
 31
0.0
  0
LINE
  5
A7E7
102
{ACAD_REACTORS
330
A9E8
102
}
330
2
100
AcDbEntity
  8
KIJUN
100
AcDbLine
 10
534.6642697668371
 20
416.6589840544881
 30
0.0
 11
537.3222527668636
 21
427.0949550543489
 31
0.0
  0
LINE
  5
A7E8
102
{ACAD_REACTORS
330
A9E8
102
}
330
2
100
AcDbEntity
  8
KIJUN
100
AcDbLine
 10
537.3222527668636
 20
427.0949550543489
 30
0.0
 11
538.7292857668521
 21
446.4249900543911
 31
0.0
  0
LINE
  5
A7E9
102
{ACAD_REACTORS
330
A9E8
102
}
330
2
100
AcDbEntity
  8
KIJUN
100
AcDbLine
 10
538.7292857668521
 20
446.4249900543911
 30
0.0
 11
536.6967777669579
 21
475.479415054342
 31
0.0
  0
LINE
  5
A7EA
102
{ACAD_REACTORS
330
A9E8
102
}
330
2
100
AcDbEntity
  8
KIJUN
100
AcDbLine
 10
536.6967777669579
 20
475.479415054342
 30
0.0
 11
537.1657887667984
 21
499.7905170544941
 31
0.0
  0
LINE
  5
A7EB
102
{ACAD_REACTORS
330
A9E8
102
}
330
2
100
AcDbEntity
  8
KIJUN
100
AcDbLine
 10
537.1657887667984
 20
499.7905170544941
 30
0.0
 11
534.7911686930938
 21
525.4294700544382
 31
0.0
  0
LINE
  5
A7EF
102
{ACAD_REACTORS
330
A9E8
102
}
330
2
100
AcDbEntity
  8
KIJUN
100
AcDbLine
 10
517.5586397669698
 20
524.7066470543319
 30
0.0
 11
515.587726766907
 21
521.4670040544409
 31
0.0
  0
LINE
  5
A7F0
102
{ACAD_REACTORS
330
A9E8
102
}
330
2
100
AcDbEntity
  8
KIJUN
100
AcDbLine
 10
567.0497777669011
 20
523.0364700544339
 30
0.0
 11
574.0646227668771
 21
523.5918410544072
 31
0.0
  0
LINE
  5
A7F1
102
{ACAD_REACTORS
330
A9E8
102
}
330
2
100
AcDbEntity
  8
KIJUN
100
AcDbLine
 10
574.0646227668771
 20
523.5918410544072
 30
0.0
 11
580.8972227668423
 21
522.897659054342
 31
0.0
  0
LINE
  5
A7F2
102
{ACAD_REACTORS
330
A9E8
102
}
330
2
100
AcDbEntity
  8
KIJUN
100
AcDbLine
 10
580.8972227668423
 20
522.897659054342
 30
0.0
 11
587.6777527669633
 21
520.786919054528
 31
0.0
  0
LINE
  5
A7F3
102
{ACAD_REACTORS
330
A9E8
102
}
330
2
100
AcDbEntity
  8
KIJUN
100
AcDbLine
 10
535.1727777668798
 20
514.2734700545011
 30
0.0
 11
528.2402287668096
 21
515.2222870543738
 31
0.0
  0
LINE
  5
A7F4
102
{ACAD_REACTORS
330
A9E8
102
}
330
2
100
AcDbEntity
  8
KIJUN
100
AcDbLine
 10
528.2402287668096
 20
515.2222870543738
 30
0.0
 11
521.6724237668618
 21
513.6163720545121
 31
0.0
  0
LINE
  5
A7F5
102
{ACAD_REACTORS
330
A9E8
102
}
330
2
100
AcDbEntity
  8
KIJUN
100
AcDbLine
 10
521.6724237668618
 20
513.6163720545121
 30
0.0
 11
518.178272766972
 21
507.6504200543309
 31
0.0
  0
LINE
  5
A7F6
102
{ACAD_REACTORS
330
A9E8
102
}
330
2
100
AcDbEntity
  8
KIJUN
100
AcDbLine
 10
535.6807777669833
 20
503.732470054438
 30
0.0
 11
530.0507407668569
 21
505.5142800544672
 31
0.0
  0
LINE
  5
A7F7
102
{ACAD_REACTORS
330
A9E8
102
}
330
2
100
AcDbEntity
  8
KIJUN
100
AcDbLine
 10
530.0507407668569
 20
505.5142800544672
 30
0.0
 11
524.7070887668901
 21
504.9912940543689
 31
0.0
  0
LINE
  5
A7F8
102
{ACAD_REACTORS
330
A9E8
102
}
330
2
100
AcDbEntity
  8
KIJUN
100
AcDbLine
 10
524.7070887668901
 20
504.9912940543689
 30
0.0
 11
518.6862727668499
 21
503.1075030544712
 31
0.0
  0
LINE
  5
A7F9
102
{ACAD_REACTORS
330
A9E8
102
}
330
2
100
AcDbEntity
  8
KIJUN
100
AcDbLine
 10
536.1887777668539
 20
494.96947005449
 30
0.0
 11
529.078428766888
 21
496.4458450543932
 31
0.0
  0
LINE
  5
A7FA
102
{ACAD_REACTORS
330
A9E8
102
}
330
2
100
AcDbEntity
  8
KIJUN
100
AcDbLine
 10
529.078428766888
 20
496.4458450543932
 30
0.0
 11
521.8899747668197
 21
494.6178070544151
 31
0.0
  0
LINE
  5
A7FB
102
{ACAD_REACTORS
330
A9E8
102
}
330
2
100
AcDbEntity
  8
KIJUN
100
AcDbLine
 10
521.8899747668197
 20
494.6178070544151
 30
0.0
 11
518.6082947667832
 21
488.3464200543199
 31
0.0
  0
LINE
  5
A7FC
102
{ACAD_REACTORS
330
A9E8
102
}
330
2
100
AcDbEntity
  8
KIJUN
100
AcDbLine
 10
536.6967777669579
 20
470.7124700544041
 30
0.0
 11
528.6617417669776
 21
471.7491710544599
 31
0.0
  0
LINE
  5
A7FD
102
{ACAD_REACTORS
330
A9E8
102
}
330
2
100
AcDbEntity
  8
KIJUN
100
AcDbLine
 10
528.6617417669776
 20
471.7491710544599
 30
0.0
 11
520.9391257669499
 21
469.009273054409
 31
0.0
  0
LINE
  5
A7FE
102
{ACAD_REACTORS
330
A9E8
102
}
330
2
100
AcDbEntity
  8
KIJUN
100
AcDbLine
 10
520.9391257669499
 20
469.009273054409
 30
0.0
 11
516.6547807668407
 21
461.9649640544049
 31
0.0
  0
LINE
  5
A7FF
102
{ACAD_REACTORS
330
A9E8
102
}
330
2
100
AcDbEntity
  8
KIJUN
100
AcDbLine
 10
534.5377777669796
 20
457.3774700544561
 30
0.0
 11
527.8048727668151
 21
459.520214054482
 31
0.0
  0
LINE
  5
A800
102
{ACAD_REACTORS
330
A9E8
102
}
330
2
100
AcDbEntity
  8
KIJUN
100
AcDbLine
 10
527.8048727668151
 20
459.520214054482
 30
0.0
 11
519.9782437669214
 21
459.358162054366
 31
0.0
  0
LINE
  5
A801
102
{ACAD_REACTORS
330
A9E8
102
}
330
2
100
AcDbEntity
  8
KIJUN
100
AcDbLine
 10
519.9782437669214
 20
459.358162054366
 30
0.0
 11
514.4957807668629
 21
455.2530140543931
 31
0.0
  0
LINE
  5
A802
102
{ACAD_REACTORS
330
A9E8
102
}
330
2
100
AcDbEntity
  8
KIJUN
100
AcDbLine
 10
535.6807777669833
 20
483.920470054323
 30
0.0
 11
528.6095447668644
 21
484.6284950544541
 31
0.0
  0
LINE
  5
A803
102
{ACAD_REACTORS
330
A9E8
102
}
330
2
100
AcDbEntity
  8
KIJUN
100
AcDbLine
 10
528.6095447668644
 20
484.6284950544541
 30
0.0
 11
522.0069417669087
 21
482.6707900544748
 31
0.0
  0
LINE
  5
A804
102
{ACAD_REACTORS
330
A9E8
102
}
330
2
100
AcDbEntity
  8
KIJUN
100
AcDbLine
 10
522.0069417669087
 20
482.6707900544748
 30
0.0
 11
517.7482507669424
 21
476.797421054445
 31
0.0
  0
LINE
  5
A805
102
{ACAD_REACTORS
330
A9E8
102
}
330
2
100
AcDbEntity
  8
KIJUN
100
AcDbLine
 10
551.0477777668797
 20
409.6254700544343
 30
0.0
 11
544.7795657669352
 21
409.7872680544573
 31
0.0
  0
LINE
  5
A806
102
{ACAD_REACTORS
330
A9E8
102
}
330
2
100
AcDbEntity
  8
KIJUN
100
AcDbLine
 10
544.7795657669352
 20
409.7872680544573
 30
0.0
 11
538.9540757669465
 21
408.4218910544844
 31
0.0
  0
LINE
  5
A807
102
{ACAD_REACTORS
330
A9E8
102
}
330
2
100
AcDbEntity
  8
KIJUN
100
AcDbLine
 10
538.9540757669465
 20
408.4218910544844
 30
0.0
 11
532.9982837669681
 21
405.751462054392
 31
0.0
  0
LINE
  5
A808
102
{ACAD_REACTORS
330
A9E8
102
}
330
2
100
AcDbEntity
  8
KIJUN
100
AcDbLine
 10
551.0477777668797
 20
415.5944700544901
 30
0.0
 11
542.3833297668111
 21
417.5844330545411
 31
0.0
  0
LINE
  5
A809
102
{ACAD_REACTORS
330
A9E8
102
}
330
2
100
AcDbEntity
  8
KIJUN
100
AcDbLine
 10
542.3833297668111
 20
417.5844330545411
 30
0.0
 11
534.6303607669047
 21
415.4369900543064
 31
0.0
  0
LINE
  5
A80A
102
{ACAD_REACTORS
330
A9E8
102
}
330
2
100
AcDbEntity
  8
KIJUN
100
AcDbLine
 10
534.6303607669047
 20
415.4369900543064
 30
0.0
 11
527.3723107668351
 21
410.0960050543258
 31
0.0
  0
LINE
  5
A80B
102
{ACAD_REACTORS
330
A9E8
102
}
330
2
100
AcDbEntity
  8
KIJUN
100
AcDbLine
 10
553.0797777668353
 20
424.4844700544531
 30
0.0
 11
541.5371287667962
 21
426.1783960543074
 31
0.0
  0
LINE
  5
A80C
102
{ACAD_REACTORS
330
A9E8
102
}
330
2
100
AcDbEntity
  8
KIJUN
100
AcDbLine
 10
541.5371287667962
 20
426.1783960543074
 30
0.0
 11
530.9062127667798
 21
421.7906730543148
 31
0.0
  0
LINE
  5
A80D
102
{ACAD_REACTORS
330
A9E8
102
}
330
2
100
AcDbEntity
  8
KIJUN
100
AcDbLine
 10
530.9062127667798
 20
421.7906730543148
 30
0.0
 11
524.8333267668945
 21
411.7379880543781
 31
0.0
  0
LINE
  5
A80E
102
{ACAD_REACTORS
330
A9E8
102
}
330
2
100
AcDbEntity
  8
KIJUN
100
AcDbLine
 10
552.1907777668834
 20
434.263470054368
 30
0.0
 11
543.070653766868
 21
436.3786550545303
 31
0.0
  0
LINE
  5
A80F
102
{ACAD_REACTORS
330
A9E8
102
}
330
2
100
AcDbEntity
  8
KIJUN
100
AcDbLine
 10
543.070653766868
 20
436.3786550545303
 30
0.0
 11
535.4871027667918
 21
434.7726130544001
 31
0.0
  0
LINE
  5
A810
102
{ACAD_REACTORS
330
A9E8
102
}
330
2
100
AcDbEntity
  8
KIJUN
100
AcDbLine
 10
535.4871027667918
 20
434.7726130544001
 30
0.0
 11
529.5702997668431
 21
427.6404200544316
 31
0.0
  0
LINE
  5
A816
102
{ACAD_REACTORS
330
A9E8
102
}
330
2
100
AcDbEntity
  8
KIJUN
100
AcDbLine
 10
467.6887887668645
 20
378.2125280544174
 30
0.0
 11
471.8387667669389
 21
386.3249070544812
 31
0.0
  0
LINE
  5
A817
102
{ACAD_REACTORS
330
A9E8
102
}
330
2
100
AcDbEntity
  8
KIJUN
100
AcDbLine
 10
471.8387667669389
 20
386.3249070544812
 30
0.0
 11
477.4642317668999
 21
392.4479580544834
 31
0.0
  0
LINE
  5
A818
102
{ACAD_REACTORS
330
A9E8
102
}
330
2
100
AcDbEntity
  8
KIJUN
100
AcDbLine
 10
477.4642317668999
 20
392.4479580544834
 30
0.0
 11
484.7312987667842
 21
395.197508054331
 31
0.0
  0
LINE
  5
A819
102
{ACAD_REACTORS
330
A9E8
102
}
330
2
100
AcDbEntity
  8
KIJUN
100
AcDbLine
 10
484.7312987667842
 20
395.197508054331
 30
0.0
 11
499.1473227667752
 21
396.3219660545259
 31
0.0
  0
LINE
  5
A81A
102
{ACAD_REACTORS
330
A9E8
102
}
330
2
100
AcDbEntity
  8
KIJUN
100
AcDbLine
 10
499.1473227667752
 20
396.3219660545259
 30
0.0
 11
511.9222527667748
 21
395.197508054331
 31
0.0
  0
LINE
  5
A81B
102
{ACAD_REACTORS
330
A9E8
102
}
330
2
100
AcDbEntity
  8
KIJUN
100
AcDbLine
 10
511.9222527667748
 20
395.197508054331
 30
0.0
 11
524.3462817669588
 21
393.5729240543919
 31
0.0
  0
LINE
  5
A81C
102
{ACAD_REACTORS
330
A9E8
102
}
330
2
100
AcDbEntity
  8
KIJUN
100
AcDbLine
 10
524.3462817669588
 20
393.5729240543919
 30
0.0
 11
531.4957467669969
 21
388.5744580543873
 31
0.0
  0
LINE
  5
A81D
102
{ACAD_REACTORS
330
A9E8
102
}
330
2
100
AcDbEntity
  8
KIJUN
100
AcDbLine
 10
531.4957467669969
 20
388.5744580543873
 30
0.0
 11
534.5427307668087
 21
381.4514090545094
 31
0.0
  0
LINE
  5
A81E
102
{ACAD_REACTORS
330
A9E8
102
}
330
2
100
AcDbEntity
  8
KIJUN
100
AcDbLine
 10
534.5427307668087
 20
381.4514090545094
 30
0.0
 11
536.6528357668662
 21
372.5789350544769
 31
0.0
  0
LINE
  5
A81F
102
{ACAD_REACTORS
330
A9E8
102
}
330
2
100
AcDbEntity
  8
KIJUN
100
AcDbLine
 10
536.6528357668662
 20
372.5789350544769
 30
0.0
 11
536.6528357668662
 21
365.4560130544163
 31
0.0
  0
LINE
  5
A821
102
{ACAD_REACTORS
330
A9E8
102
}
330
2
100
AcDbEntity
  8
KIJUN
100
AcDbLine
 10
533.1017887668945
 20
365.4294700544382
 30
0.0
 11
533.1017887668945
 21
372.5525190543089
 31
0.0
  0
LINE
  5
A822
102
{ACAD_REACTORS
330
A9E8
102
}
330
2
100
AcDbEntity
  8
KIJUN
100
AcDbLine
 10
533.1017887668945
 20
372.5525190543089
 30
0.0
 11
533.1017887668945
 21
379.1754420544424
 31
0.0
  0
LINE
  5
A823
102
{ACAD_REACTORS
330
A9E8
102
}
330
2
100
AcDbEntity
  8
KIJUN
100
AcDbLine
 10
533.1017887668945
 20
379.1754420544424
 30
0.0
 11
536.2662477669814
 21
385.7984920543788
 31
0.0
  0
LINE
  5
A824
102
{ACAD_REACTORS
330
A9E8
102
}
330
2
100
AcDbEntity
  8
KIJUN
100
AcDbLine
 10
536.2662477669814
 20
385.7984920543788
 30
0.0
 11
542.3612317669554
 21
389.6725000544216
 31
0.0
  0
LINE
  5
A825
102
{ACAD_REACTORS
330
A9E8
102
}
330
2
100
AcDbEntity
  8
KIJUN
100
AcDbLine
 10
542.3612317669554
 20
389.6725000544216
 30
0.0
 11
552.6752827668834
 21
392.4214150545124
 31
0.0
  0
LINE
  5
A826
102
{ACAD_REACTORS
330
A9E8
102
}
330
2
100
AcDbEntity
  8
KIJUN
100
AcDbLine
 10
552.6752827668834
 20
392.4214150545124
 30
0.0
 11
564.9818367667981
 21
392.9214140544467
 31
0.0
  0
LINE
  5
A827
102
{ACAD_REACTORS
330
A9E8
102
}
330
2
100
AcDbEntity
  8
KIJUN
100
AcDbLine
 10
564.9818367667981
 20
392.9214140544467
 30
0.0
 11
577.4052307669935
 21
392.4214150545124
 31
0.0
  0
LINE
  5
A828
102
{ACAD_REACTORS
330
A9E8
102
}
330
2
100
AcDbEntity
  8
KIJUN
100
AcDbLine
 10
577.4052307669935
 20
392.4214150545124
 30
0.0
 11
585.140800766786
 21
389.0475330544544
 31
0.0
  0
LINE
  5
A829
102
{ACAD_REACTORS
330
A9E8
102
}
330
2
100
AcDbEntity
  8
KIJUN
100
AcDbLine
 10
585.140800766786
 20
389.0475330544544
 30
0.0
 11
589.7117847669083
 21
384.6739070543814
 31
0.0
  0
LINE
  5
A82A
102
{ACAD_REACTORS
330
A9E8
102
}
330
2
100
AcDbEntity
  8
KIJUN
100
AcDbLine
 10
589.7117847669083
 20
384.6739070543814
 30
0.0
 11
590.7662657669725
 21
379.1754420544424
 31
0.0
  0
LINE
  5
A82B
102
{ACAD_REACTORS
330
A9E8
102
}
330
2
100
AcDbEntity
  8
KIJUN
100
AcDbLine
 10
590.7662657669725
 20
379.1754420544424
 30
0.0
 11
591.2352767668135
 21
373.177486054516
 31
0.0
  0
LINE
  5
A82C
102
{ACAD_REACTORS
330
A9E8
102
}
330
2
100
AcDbEntity
  8
KIJUN
100
AcDbLine
 10
591.2352767668135
 20
373.177486054516
 30
0.0
 11
591.8616780184841
 21
365.4294700544382
 31
0.0
  0
LINE
  5
A82E
102
{ACAD_REACTORS
330
A9E8
102
}
330
2
100
AcDbEntity
  8
KIJUN
100
AcDbLine
 10
496.0567777669943
 20
458.0124700543641
 30
0.0
 11
503.1369007668923
 21
453.180501054358
 31
0.0
  0
LINE
  5
A82F
102
{ACAD_REACTORS
330
A9E8
102
}
330
2
100
AcDbEntity
  8
KIJUN
100
AcDbLine
 10
503.1369007668923
 20
453.180501054358
 30
0.0
 11
504.4086787668288
 21
444.3495560545161
 31
0.0
  0
LINE
  5
A830
102
{ACAD_REACTORS
330
A9E8
102
}
330
2
100
AcDbEntity
  8
KIJUN
100
AcDbLine
 10
504.4086787668288
 20
444.3495560545161
 30
0.0
 11
502.2687287668317
 21
434.7689300545432
 31
0.0
  0
LINE
  5
A831
102
{ACAD_REACTORS
330
A9E8
102
}
330
2
100
AcDbEntity
  8
KIJUN
100
AcDbLine
 10
495.9677507668907
 20
450.257469054453
 30
0.0
 11
500.1221747669128
 21
442.3893110543692
 31
0.0
  0
LINE
  5
A832
102
{ACAD_REACTORS
330
A9E8
102
}
330
2
100
AcDbEntity
  8
KIJUN
100
AcDbLine
 10
500.1221747669128
 20
442.3893110543692
 30
0.0
 11
500.7603497669565
 21
433.8825970543298
 31
0.0
  0
LINE
  5
A833
102
{ACAD_REACTORS
330
A9E8
102
}
330
2
100
AcDbEntity
  8
KIJUN
100
AcDbLine
 10
500.7603497669565
 20
433.8825970543298
 30
0.0
 11
497.0227397668946
 21
426.0144390544779
 31
0.0
  0
LINE
  5
A834
102
{ACAD_REACTORS
330
A9E8
102
}
330
2
100
AcDbEntity
  8
KIJUN
100
AcDbLine
 10
481.5787777668242
 20
444.169470054312
 30
0.0
 11
487.4520197668039
 21
437.2825140544268
 31
0.0
  0
LINE
  5
A835
102
{ACAD_REACTORS
330
A9E8
102
}
330
2
100
AcDbEntity
  8
KIJUN
100
AcDbLine
 10
487.4520197668039
 20
437.2825140544268
 30
0.0
 11
489.6528027668332
 21
428.5628210543693
 31
0.0
  0
LINE
  5
A836
102
{ACAD_REACTORS
330
A9E8
102
}
330
2
100
AcDbEntity
  8
KIJUN
100
AcDbLine
 10
489.6528027668332
 20
428.5628210543693
 30
0.0
 11
488.259231766789
 21
419.4264410543876
 31
0.0
  0
LINE
  5
A837
102
{ACAD_REACTORS
330
A9E8
102
}
330
2
100
AcDbEntity
  8
KIJUN
100
AcDbLine
 10
532.9982837669681
 20
405.751462054392
 30
0.0
 11
532.0127637669152
 21
401.7110840544015
 31
0.0
  0
LINE
  5
A838
102
{ACAD_REACTORS
330
A9E8
102
}
330
2
100
AcDbEntity
  8
KIJUN
100
AcDbLine
 10
532.0127637669152
 20
401.7110840544015
 30
0.0
 11
531.2878477668432
 21
398.0870120544243
 31
0.0
  0
LINE
  5
A839
102
{ACAD_REACTORS
330
A9E8
102
}
330
2
100
AcDbEntity
  8
KIJUN
100
AcDbLine
 10
531.2878477668432
 20
398.0870120544243
 30
0.0
 11
531.0057807669886
 21
394.1299460544582
 31
0.0
  0
LINE
  5
A83A
102
{ACAD_REACTORS
330
A9E8
102
}
330
2
100
AcDbEntity
  8
KIJUN
100
AcDbLine
 10
493.0087777668391
 20
399.5924700544677
 30
0.0
 11
496.6813637668324
 21
404.6187490544148
 31
0.0
  0
LINE
  5
A83B
102
{ACAD_REACTORS
330
A9E8
102
}
330
2
100
AcDbEntity
  8
KIJUN
100
AcDbLine
 10
496.6813637668324
 20
404.6187490544148
 30
0.0
 11
501.2914637668091
 21
409.1452830544991
 31
0.0
  0
LINE
  5
A83C
102
{ACAD_REACTORS
330
A9E8
102
}
330
2
100
AcDbEntity
  8
KIJUN
100
AcDbLine
 10
501.2914637668091
 20
409.1452830544991
 30
0.0
 11
506.370320766991
 21
412.33895205431
 31
0.0
  0
LINE
  5
A83D
102
{ACAD_REACTORS
330
A9E8
102
}
330
2
100
AcDbEntity
  8
KIJUN
100
AcDbLine
 10
483.7377777667947
 20
366.5724700544418
 30
0.0
 11
484.7927667668058
 21
374.8199770545073
 31
0.0
  0
LINE
  5
A83E
102
{ACAD_REACTORS
330
A9E8
102
}
330
2
100
AcDbEntity
  8
KIJUN
100
AcDbLine
 10
484.7927667668058
 20
374.8199770545073
 30
0.0
 11
488.8947397668612
 21
380.3184420544464
 31
0.0
  0
LINE
  5
A83F
102
{ACAD_REACTORS
330
A9E8
102
}
330
2
100
AcDbEntity
  8
KIJUN
100
AcDbLine
 10
488.8947397668612
 20
380.3184420544464
 30
0.0
 11
494.5208397668043
 21
383.5674830545144
 31
0.0
  0
LINE
  5
A840
102
{ACAD_REACTORS
330
A9E8
102
}
330
2
100
AcDbEntity
  8
KIJUN
100
AcDbLine
 10
494.5208397668043
 20
383.5674830545144
 30
0.0
 11
502.7247857669076
 21
383.5674830545144
 31
0.0
  0
LINE
  5
A841
102
{ACAD_REACTORS
330
A9E8
102
}
330
2
100
AcDbEntity
  8
KIJUN
100
AcDbLine
 10
502.7247857669076
 20
383.5674830545144
 30
0.0
 11
509.9917257669817
 21
381.9430260543853
 31
0.0
  0
LINE
  5
A842
102
{ACAD_REACTORS
330
A9E8
102
}
330
2
100
AcDbEntity
  8
KIJUN
100
AcDbLine
 10
509.9917257669817
 20
381.9430260543853
 30
0.0
 11
516.6723067669968
 21
376.4444340544108
 31
0.0
  0
LINE
  5
A843
102
{ACAD_REACTORS
330
A9E8
102
}
330
2
100
AcDbEntity
  8
KIJUN
100
AcDbLine
 10
516.6723067669968
 20
376.4444340544108
 30
0.0
 11
518.6648097669767
 21
369.8215110545104
 31
0.0
  0
LINE
  5
A844
102
{ACAD_REACTORS
330
A9E8
102
}
330
2
100
AcDbEntity
  8
KIJUN
100
AcDbLine
 10
518.6648097669767
 20
369.8215110545104
 30
0.0
 11
519.2507877669136
 21
365.9475030544749
 31
0.0
  0
LINE
  5
A845
102
{ACAD_REACTORS
330
A9E8
102
}
330
2
100
AcDbEntity
  8
KIJUN
100
AcDbLine
 10
519.2507877669136
 20
365.9475030544749
 30
0.0
 11
483.7377777667947
 21
366.5724700544418
 31
0.0
  0
LINE
  5
A846
102
{ACAD_REACTORS
330
A9E8
102
}
330
2
100
AcDbEntity
  8
KIJUN
100
AcDbLine
 10
471.9267777669315
 20
418.2614700543456
 30
0.0
 11
478.6552377669809
 21
419.3259840543437
 31
0.0
  0
LINE
  5
A847
102
{ACAD_REACTORS
330
A9E8
102
}
330
2
100
AcDbEntity
  8
KIJUN
100
AcDbLine
 10
478.6552377669809
 20
419.3259840543437
 30
0.0
 11
484.7325687669813
 21
417.7801400544886
 31
0.0
  0
LINE
  5
A848
102
{ACAD_REACTORS
330
A9E8
102
}
330
2
100
AcDbEntity
  8
KIJUN
100
AcDbLine
 10
484.7325687669813
 20
417.7801400544886
 30
0.0
 11
490.4452827669096
 21
413.2630040543485
 31
0.0
  0
LINE
  5
A849
102
{ACAD_REACTORS
330
A9E8
102
}
330
2
100
AcDbEntity
  8
KIJUN
100
AcDbLine
 10
488.259231766789
 20
419.4264410543876
 30
0.0
 11
485.9284007668552
 21
426.6328020545156
 31
0.0
  0
LINE
  5
A84A
102
{ACAD_REACTORS
330
A9E8
102
}
330
2
100
AcDbEntity
  8
KIJUN
100
AcDbLine
 10
485.9284007668552
 20
426.6328020545156
 30
0.0
 11
480.7061607668665
 21
432.0896110544384
 31
0.0
  0
LINE
  5
A84B
102
{ACAD_REACTORS
330
A9E8
102
}
330
2
100
AcDbEntity
  8
KIJUN
100
AcDbLine
 10
480.7061607668665
 20
432.0896110544384
 30
0.0
 11
473.8433347668411
 21
434.7969970543313
 31
0.0
  0
LINE
  5
A84C
102
{ACAD_REACTORS
330
A9E8
102
}
330
2
100
AcDbEntity
  8
KIJUN
100
AcDbLine
 10
478.1497777668132
 20
406.1964700544233
 30
0.0
 11
486.5147597669215
 21
410.5747950544794
 31
0.0
  0
LINE
  5
A84D
102
{ACAD_REACTORS
330
A9E8
102
}
330
2
100
AcDbEntity
  8
KIJUN
100
AcDbLine
 10
486.5147597669215
 20
410.5747950544794
 30
0.0
 11
495.218196766787
 21
411.8983890544008
 31
0.0
  0
LINE
  5
A84E
102
{ACAD_REACTORS
330
A9E8
102
}
330
2
100
AcDbEntity
  8
KIJUN
100
AcDbLine
 10
495.218196766787
 20
411.8983890544008
 30
0.0
 11
504.2862507669647
 21
408.9455120543319
 31
0.0
  0
LINE
  5
A84F
102
{ACAD_REACTORS
330
A9E8
102
}
330
2
100
AcDbEntity
  8
KIJUN
100
AcDbLine
 10
502.1772887668353
 20
420.5660120543873
 30
0.0
 11
502.3205447668238
 21
419.867004054537
 31
0.0
  0
LINE
  5
A850
102
{ACAD_REACTORS
330
A9E8
102
}
330
2
100
AcDbEntity
  8
KIJUN
100
AcDbLine
 10
502.3205447668238
 20
419.867004054537
 30
0.0
 11
502.6983697669725
 21
419.2237490543886
 31
0.0
  0
LINE
  5
A851
102
{ACAD_REACTORS
330
A9E8
102
}
330
2
100
AcDbEntity
  8
KIJUN
100
AcDbLine
 10
502.6983697669725
 20
419.2237490543886
 30
0.0
 11
503.2322777668391
 21
418.9414280544479
 31
0.0
  0
LINE
  5
A852
102
{ACAD_REACTORS
330
A9E8
102
}
330
2
100
AcDbEntity
  8
KIJUN
100
AcDbLine
 10
506.370320766991
 20
412.33895205431
 30
0.0
 11
510.0728787669663
 21
412.561075054426
 31
0.0
  0
LINE
  5
A853
102
{ACAD_REACTORS
330
A9E8
102
}
330
2
100
AcDbEntity
  8
KIJUN
100
AcDbLine
 10
510.0728787669663
 20
412.561075054426
 30
0.0
 11
515.9895547668725
 21
412.7831980543164
 31
0.0
  0
LINE
  5
A854
102
{ACAD_REACTORS
330
A9E8
102
}
330
2
100
AcDbEntity
  8
KIJUN
100
AcDbLine
 10
515.9895547668725
 20
412.7831980543164
 30
0.0
 11
517.7387257669479
 21
412.33895205431
 31
0.0
  0
LINE
  5
A855
102
{ACAD_REACTORS
330
A9E8
102
}
330
2
100
AcDbEntity
  8
KIJUN
100
AcDbLine
 10
523.3617777667837
 20
408.9904700545417
 30
0.0
 11
517.3799507669987
 21
409.6060390543248
 31
0.0
  0
LINE
  5
A856
102
{ACAD_REACTORS
330
A9E8
102
}
330
2
100
AcDbEntity
  8
KIJUN
100
AcDbLine
 10
517.3799507669987
 20
409.6060390543248
 30
0.0
 11
511.2939837668468
 21
407.6668760543803
 31
0.0
  0
LINE
  5
A857
102
{ACAD_REACTORS
330
A9E8
102
}
330
2
100
AcDbEntity
  8
KIJUN
100
AcDbLine
 10
511.2939837668468
 20
407.6668760543803
 30
0.0
 11
507.4217537669478
 21
402.3674200543648
 31
0.0
  0
LINE
  5
A858
102
{ACAD_REACTORS
330
A9E8
102
}
330
2
100
AcDbEntity
  8
KIJUN
100
AcDbLine
 10
507.4217537669478
 20
402.3674200543648
 30
0.0
 11
507.8907647667888
 21
401.2424540544563
 31
0.0
  0
LINE
  5
A859
102
{ACAD_REACTORS
330
A9E8
102
}
330
2
100
AcDbEntity
  8
KIJUN
100
AcDbLine
 10
527.3723107668351
 20
410.0960050543258
 30
0.0
 11
527.6631407668842
 21
408.4899630544208
 31
0.0
  0
LINE
  5
A85A
102
{ACAD_REACTORS
330
A9E8
102
}
330
2
100
AcDbEntity
  8
KIJUN
100
AcDbLine
 10
527.6631407668842
 20
408.4899630544208
 30
0.0
 11
528.2926797667837
 21
406.9951730545328
 31
0.0
  0
LINE
  5
A85B
102
{ACAD_REACTORS
330
A9E8
102
}
330
2
100
AcDbEntity
  8
KIJUN
100
AcDbLine
 10
528.2926797667837
 20
406.9951730545328
 30
0.0
 11
528.8963107669196
 21
405.7225060545207
 31
0.0
  0
LINE
  5
A85C
102
{ACAD_REACTORS
330
A9E8
102
}
330
2
100
AcDbEntity
  8
KIJUN
100
AcDbLine
 10
525.2667777669426
 20
421.6904700543498
 30
0.0
 11
518.4732937668245
 21
426.7585320543406
 31
0.0
  0
LINE
  5
A85D
102
{ACAD_REACTORS
330
A9E8
102
}
330
2
100
AcDbEntity
  8
KIJUN
100
AcDbLine
 10
518.4732937668245
 20
426.7585320543406
 30
0.0
 11
509.2834467669977
 21
425.7449450544921
 31
0.0
  0
LINE
  5
A85E
102
{ACAD_REACTORS
330
A9E8
102
}
330
2
100
AcDbEntity
  8
KIJUN
100
AcDbLine
 10
509.2834467669977
 20
425.7449450544921
 30
0.0
 11
502.1772887668353
 21
420.5660120543873
 31
0.0
  0
LINE
  5
A85F
102
{ACAD_REACTORS
330
A9E8
102
}
330
2
100
AcDbEntity
  8
KIJUN
100
AcDbLine
 10
529.9657777669717
 20
431.5964700545123
 30
0.0
 11
522.5708217669903
 21
435.6382450545173
 31
0.0
  0
LINE
  5
A860
102
{ACAD_REACTORS
330
A9E8
102
}
330
2
100
AcDbEntity
  8
KIJUN
100
AcDbLine
 10
522.5708217669903
 20
435.6382450545173
 30
0.0
 11
511.5939577669864
 21
438.3444880544886
 31
0.0
  0
LINE
  5
A861
102
{ACAD_REACTORS
330
A9E8
102
}
330
2
100
AcDbEntity
  8
KIJUN
100
AcDbLine
 10
511.5939577669864
 20
438.3444880544886
 30
0.0
 11
501.1884667668209
 21
437.9579000543712
 31
0.0
  0
LINE
  5
A862
102
{ACAD_REACTORS
330
A9E8
102
}
330
2
100
AcDbEntity
  8
KIJUN
100
AcDbLine
 10
501.1884667668209
 20
437.9579000543712
 30
0.0
 11
495.5077567668713
 21
432.7209280544816
 31
0.0
  0
LINE
  5
A863
102
{ACAD_REACTORS
330
A9E8
102
}
330
2
100
AcDbEntity
  8
KIJUN
100
AcDbLine
 10
516.0608017669665
 20
482.8040130545231
 30
0.0
 11
517.4326557668259
 21
480.7073700544021
 31
0.0
  0
LINE
  5
A864
102
{ACAD_REACTORS
330
A9E8
102
}
330
2
100
AcDbEntity
  8
KIJUN
100
AcDbLine
 10
517.4326557668259
 20
480.7073700544021
 30
0.0
 11
518.674080766877
 21
477.7776070543081
 31
0.0
  0
LINE
  5
A865
102
{ACAD_REACTORS
330
A9E8
102
}
330
2
100
AcDbEntity
  8
KIJUN
100
AcDbLine
 10
518.674080766877
 20
477.7776070543081
 30
0.0
 11
518.6392827668838
 21
475.6809640544202
 31
0.0
  0
LINE
  5
A866
102
{ACAD_REACTORS
330
A9E8
102
}
330
2
100
AcDbEntity
  8
KIJUN
100
AcDbLine
 10
499.2317777669463
 20
463.6004700543379
 30
0.0
 11
506.7155067669532
 21
462.0082710545071
 31
0.0
  0
LINE
  5
A867
102
{ACAD_REACTORS
330
A9E8
102
}
330
2
100
AcDbEntity
  8
KIJUN
100
AcDbLine
 10
506.7155067669532
 20
462.0082710545071
 30
0.0
 11
511.2040677668933
 21
455.7785400544199
 31
0.0
  0
LINE
  5
A868
102
{ACAD_REACTORS
330
A9E8
102
}
330
2
100
AcDbEntity
  8
KIJUN
100
AcDbLine
 10
511.2040677668933
 20
455.7785400544199
 30
0.0
 11
513.530834766841
 21
447.604947054428
 31
0.0
  0
LINE
  5
A869
102
{ACAD_REACTORS
330
A9E8
102
}
330
2
100
AcDbEntity
  8
KIJUN
100
AcDbLine
 10
512.0072157668923
 20
467.9814620543661
 30
0.0
 11
513.0228347669704
 21
464.2695060544389
 31
0.0
  0
LINE
  5
A86A
102
{ACAD_REACTORS
330
A9E8
102
}
330
2
100
AcDbEntity
  8
KIJUN
100
AcDbLine
 10
513.0228347669704
 20
464.2695060544389
 30
0.0
 11
513.804265766777
 21
460.6966150544651
 31
0.0
  0
LINE
  5
A86B
102
{ACAD_REACTORS
330
A9E8
102
}
330
2
100
AcDbEntity
  8
KIJUN
100
AcDbLine
 10
513.804265766777
 20
460.6966150544651
 30
0.0
 11
514.1168127667783
 21
456.984913054399
 31
0.0
  0
LINE
  5
A86C
102
{ACAD_REACTORS
330
A9E8
102
}
330
2
100
AcDbEntity
  8
KIJUN
100
AcDbLine
 10
531.9977777669273
 20
441.3754700544339
 30
0.0
 11
525.7164847669496
 21
445.6703560544229
 31
0.0
  0
LINE
  5
A86D
102
{ACAD_REACTORS
330
A9E8
102
}
330
2
100
AcDbEntity
  8
KIJUN
100
AcDbLine
 10
525.7164847669496
 20
445.6703560544229
 30
0.0
 11
516.7525707669133
 21
446.4942050544891
 31
0.0
  0
LINE
  5
A86E
102
{ACAD_REACTORS
330
A9E8
102
}
330
2
100
AcDbEntity
  8
KIJUN
100
AcDbLine
 10
516.7525707669133
 20
446.4942050544891
 30
0.0
 11
509.3772997668943
 21
444.1245120543349
 31
0.0
  0
LINE
  5
A86F
102
{ACAD_REACTORS
330
A9E8
102
}
330
2
100
AcDbEntity
  8
KIJUN
100
AcDbLine
 10
491.8657777668349
 20
449.757470054526
 30
0.0
 11
493.1638447668969
 21
449.887137054528
 31
0.0
  0
LINE
  5
A870
102
{ACAD_REACTORS
330
A9E8
102
}
330
2
100
AcDbEntity
  8
KIJUN
100
AcDbLine
 10
493.1638447668969
 20
449.887137054528
 30
0.0
 11
494.6700647669577
 21
450.1278020544521
 31
0.0
  0
LINE
  5
A871
102
{ACAD_REACTORS
330
A9E8
102
}
330
2
100
AcDbEntity
  8
KIJUN
100
AcDbLine
 10
494.6700647669577
 20
450.1278020544521
 30
0.0
 11
495.9677507668907
 21
450.257469054453
 31
0.0
  0
LINE
  5
A872
102
{ACAD_REACTORS
330
A9E8
102
}
330
2
100
AcDbEntity
  8
KIJUN
100
AcDbLine
 10
499.2317777669463
 20
471.855470054401
 30
0.0
 11
503.768217766928
 21
471.684274054427
 31
0.0
  0
LINE
  5
A873
102
{ACAD_REACTORS
330
A9E8
102
}
330
2
100
AcDbEntity
  8
KIJUN
100
AcDbLine
 10
503.768217766928
 20
471.684274054427
 30
0.0
 11
507.783576766998
 21
470.318897054454
 31
0.0
  0
LINE
  5
A874
102
{ACAD_REACTORS
330
A9E8
102
}
330
2
100
AcDbEntity
  8
KIJUN
100
AcDbLine
 10
507.783576766998
 20
470.318897054454
 30
0.0
 11
512.0072157668923
 21
467.9814620543661
 31
0.0
  0
LINE
  5
A875
102
{ACAD_REACTORS
330
A9E8
102
}
330
2
100
AcDbEntity
  8
KIJUN
100
AcDbLine
 10
500.7557777667984
 20
478.4594700543641
 30
0.0
 11
508.0008737668699
 21
477.3209150544821
 31
0.0
  0
LINE
  5
A876
102
{ACAD_REACTORS
330
A9E8
102
}
330
2
100
AcDbEntity
  8
KIJUN
100
AcDbLine
 10
508.0008737668699
 20
477.3209150544821
 30
0.0
 11
516.9908227669452
 21
473.8497510545238
 31
0.0
  0
LINE
  5
A877
102
{ACAD_REACTORS
330
A9E8
102
}
330
2
100
AcDbEntity
  8
KIJUN
100
AcDbLine
 10
516.9908227669452
 20
473.8497510545238
 30
0.0
 11
517.7502827669314
 21
467.9624120543918
 31
0.0
  0
LINE
  5
A878
102
{ACAD_REACTORS
330
A9E8
102
}
330
2
100
AcDbEntity
  8
KIJUN
100
AcDbLine
 10
502.2797777668761
 20
505.383470054538
 30
0.0
 11
508.9084157668635
 21
507.1006370544022
 31
0.0
  0
LINE
  5
A879
102
{ACAD_REACTORS
330
A9E8
102
}
330
2
100
AcDbEntity
  8
KIJUN
100
AcDbLine
 10
508.9084157668635
 20
507.1006370544022
 30
0.0
 11
515.3807167668219
 21
506.4572550544362
 31
0.0
  0
LINE
  5
A87A
102
{ACAD_REACTORS
330
A9E8
102
}
330
2
100
AcDbEntity
  8
KIJUN
100
AcDbLine
 10
515.3807167668219
 20
506.4572550544362
 30
0.0
 11
520.2123047669243
 21
501.5094620544951
 31
0.0
  0
LINE
  5
A87B
102
{ACAD_REACTORS
330
A9E8
102
}
330
2
100
AcDbEntity
  8
KIJUN
100
AcDbLine
 10
518.6862727668499
 20
503.1075030544712
 30
0.0
 11
518.2520597667767
 21
501.3211210544941
 31
0.0
  0
LINE
  5
A87C
102
{ACAD_REACTORS
330
A9E8
102
}
330
2
100
AcDbEntity
  8
KIJUN
100
AcDbLine
 10
518.2520597667767
 20
501.3211210544941
 30
0.0
 11
518.0262537667963
 21
499.3959280544332
 31
0.0
  0
LINE
  5
A87D
102
{ACAD_REACTORS
330
A9E8
102
}
330
2
100
AcDbEntity
  8
KIJUN
100
AcDbLine
 10
518.0262537667963
 20
499.3959280544332
 30
0.0
 11
518.217261766776
 21
497.6094190544281
 31
0.0
  0
LINE
  5
A87E
102
{ACAD_REACTORS
330
A9E8
102
}
330
2
100
AcDbEntity
  8
KIJUN
100
AcDbLine
 10
501.1367777668797
 20
492.8104700545191
 30
0.0
 11
507.6178417667993
 21
493.6110780543422
 31
0.0
  0
LINE
  5
A87F
102
{ACAD_REACTORS
330
A9E8
102
}
330
2
100
AcDbEntity
  8
KIJUN
100
AcDbLine
 10
507.6178417667993
 20
493.6110780543422
 30
0.0
 11
512.822555766857
 21
492.467824054485
 31
0.0
  0
LINE
  5
A880
102
{ACAD_REACTORS
330
A9E8
102
}
330
2
100
AcDbEntity
  8
KIJUN
100
AcDbLine
 10
512.822555766857
 20
492.467824054485
 30
0.0
 11
518.600293766854
 21
488.936462054476
 31
0.0
  0
LINE
  5
A881
102
{ACAD_REACTORS
330
A9E8
102
}
330
2
100
AcDbEntity
  8
KIJUN
100
AcDbLine
 10
501.6447777669831
 20
500.4304700544492
 30
0.0
 11
508.4166717669518
 21
500.8561740544139
 31
0.0
  0
LINE
  5
A882
102
{ACAD_REACTORS
330
A9E8
102
}
330
2
100
AcDbEntity
  8
KIJUN
100
AcDbLine
 10
508.4166717669518
 20
500.8561740544139
 30
0.0
 11
514.4852397669901
 21
498.588335054326
 31
0.0
  0
LINE
  5
A883
102
{ACAD_REACTORS
330
A9E8
102
}
330
2
100
AcDbEntity
  8
KIJUN
100
AcDbLine
 10
514.4852397669901
 20
498.588335054326
 30
0.0
 11
517.1157907669708
 21
491.682964054449
 31
0.0
  0
LINE
  5
A884
102
{ACAD_REACTORS
330
A9E8
102
}
330
2
100
AcDbEntity
  8
KIJUN
100
AcDbLine
 10
501.6447777669831
 20
484.4284700544189
 30
0.0
 11
506.6584837668288
 21
485.8955740544152
 31
0.0
  0
LINE
  5
A885
102
{ACAD_REACTORS
330
A9E8
102
}
330
2
100
AcDbEntity
  8
KIJUN
100
AcDbLine
 10
506.6584837668288
 20
485.8955740544152
 30
0.0
 11
511.437747767
 21
485.8355030544079
 31
0.0
  0
LINE
  5
A886
102
{ACAD_REACTORS
330
A9E8
102
}
330
2
100
AcDbEntity
  8
KIJUN
100
AcDbLine
 10
511.437747767
 20
485.8355030544079
 30
0.0
 11
516.0608017669665
 21
482.8040130545231
 31
0.0
  0
LINE
  5
A887
102
{ACAD_REACTORS
330
A9E8
102
}
330
2
100
AcDbEntity
  8
KIJUN
100
AcDbLine
 10
518.600293766854
 20
488.936462054476
 30
0.0
 11
518.7521857669871
 21
487.2239940543551
 31
0.0
  0
LINE
  5
A888
102
{ACAD_REACTORS
330
A9E8
102
}
330
2
100
AcDbEntity
  8
KIJUN
100
AcDbLine
 10
518.7521857669871
 20
487.2239940543551
 30
0.0
 11
519.034379766877
 21
485.5671520543512
 31
0.0
  0
LINE
  5
A889
102
{ACAD_REACTORS
330
A9E8
102
}
330
2
100
AcDbEntity
  8
KIJUN
100
AcDbLine
 10
519.034379766877
 20
485.5671520543512
 30
0.0
 11
519.1862717667913
 21
483.9379960544789
 31
0.0
  0
LINE
  5
A88A
102
{ACAD_REACTORS
330
A9E8
102
}
330
2
100
AcDbEntity
  8
KIJUN
100
AcDbLine
 10
502.2797777668761
 20
519.2264700543489
 30
0.0
 11
509.2035637669846
 21
521.017678054337
 31
0.0
  0
LINE
  5
A88B
102
{ACAD_REACTORS
330
A9E8
102
}
330
2
100
AcDbEntity
  8
KIJUN
100
AcDbLine
 10
509.2035637669846
 20
521.017678054337
 30
0.0
 11
514.5384527669898
 21
518.060102054525
 31
0.0
  0
LINE
  5
A88C
102
{ACAD_REACTORS
330
A9E8
102
}
330
2
100
AcDbEntity
  8
KIJUN
100
AcDbLine
 10
514.5384527669898
 20
518.060102054525
 30
0.0
 11
519.7432937668573
 21
514.3529720543848
 31
0.0
  0
LINE
  5
A88D
102
{ACAD_REACTORS
330
A9E8
102
}
330
2
100
AcDbEntity
  8
KIJUN
100
AcDbLine
 10
503.8037777669537
 20
512.4954700543712
 30
0.0
 11
510.510520766818
 21
514.9530470544736
 31
0.0
  0
LINE
  5
A88E
102
{ACAD_REACTORS
330
A9E8
102
}
330
2
100
AcDbEntity
  8
KIJUN
100
AcDbLine
 10
510.510520766818
 20
514.9530470544736
 30
0.0
 11
517.5296837668656
 21
514.911391054466
 31
0.0
  0
LINE
  5
A88F
102
{ACAD_REACTORS
330
A9E8
102
}
330
2
100
AcDbEntity
  8
KIJUN
100
AcDbLine
 10
517.5296837668656
 20
514.911391054466
 30
0.0
 11
523.8457747668449
 21
511.3710120544022
 31
0.0
  0
LINE
  5
A890
102
{ACAD_REACTORS
330
A9E8
102
}
330
2
100
AcDbEntity
  8
KIJUN
100
AcDbLine
 10
523.8457747668449
 20
511.3710120544022
 30
0.0
 11
524.2233457669149
 21
510.8202130543611
 31
0.0
  0
LINE
  5
A891
102
{ACAD_REACTORS
330
A9E8
102
}
330
2
100
AcDbEntity
  8
KIJUN
100
AcDbLine
 10
524.2233457669149
 20
510.8202130543611
 30
0.0
 11
524.8354857669341
 21
509.797228054336
 31
0.0
  0
LINE
  5
A892
102
{ACAD_REACTORS
330
A9E8
102
}
330
2
100
AcDbEntity
  8
KIJUN
100
AcDbLine
 10
524.8354857669341
 20
509.797228054336
 30
0.0
 11
524.900763766856
 21
509.2464290545288
 31
0.0
  0
LINE
  5
A893
102
{ACAD_REACTORS
330
A9E8
102
}
330
2
100
AcDbEntity
  8
KIJUN
100
AcDbLine
 10
531.9977777669273
 20
521.3854700543341
 30
0.0
 11
526.3719317668378
 21
521.4040120543682
 31
0.0
  0
LINE
  5
A894
102
{ACAD_REACTORS
330
A9E8
102
}
330
2
100
AcDbEntity
  8
KIJUN
100
AcDbLine
 10
526.3719317668378
 20
521.4040120543682
 30
0.0
 11
521.52751676678
 21
519.8674390544222
 31
0.0
  0
LINE
  5
A895
102
{ACAD_REACTORS
330
A9E8
102
}
330
2
100
AcDbEntity
  8
KIJUN
100
AcDbLine
 10
521.52751676678
 20
519.8674390544222
 30
0.0
 11
518.6362347667759
 21
515.8870050543949
 31
0.0
  0
LINE
  5
A896
102
{ACAD_REACTORS
330
A9E8
102
}
330
2
100
AcDbEntity
  8
KIJUN
100
AcDbLine
 10
643.12277776692
 20
439.8514700543497
 30
0.0
 11
635.6912457668013
 21
442.221163054502
 31
0.0
  0
LINE
  5
A897
102
{ACAD_REACTORS
330
A9E8
102
}
330
2
100
AcDbEntity
  8
KIJUN
100
AcDbLine
 10
635.6912457668013
 20
442.221163054502
 30
0.0
 11
628.5199367669934
 21
441.730562054512
 31
0.0
  0
LINE
  5
A898
102
{ACAD_REACTORS
330
A9E8
102
}
330
2
100
AcDbEntity
  8
KIJUN
100
AcDbLine
 10
628.5199367669934
 20
441.730562054512
 30
0.0
 11
622.4948027668733
 21
437.1024280544483
 31
0.0
  0
LINE
  5
A899
102
{ACAD_REACTORS
330
A9E8
102
}
330
2
100
AcDbEntity
  8
KIJUN
100
AcDbLine
 10
556.7627777668908
 20
443.661470054434
 30
0.0
 11
549.0924857667937
 21
444.707442054391
 31
0.0
  0
LINE
  5
A89A
102
{ACAD_REACTORS
330
A9E8
102
}
330
2
100
AcDbEntity
  8
KIJUN
100
AcDbLine
 10
549.0924857667937
 20
444.707442054391
 30
0.0
 11
542.750359766776
 21
443.0319310545349
 31
0.0
  0
LINE
  5
A89B
102
{ACAD_REACTORS
330
A9E8
102
}
330
2
100
AcDbEntity
  8
KIJUN
100
AcDbLine
 10
542.750359766776
 20
443.0319310545349
 30
0.0
 11
536.7207807669997
 21
438.1630050545031
 31
0.0
  0
LINE
  5
A89C
102
{ACAD_REACTORS
330
A9E8
102
}
330
2
100
AcDbEntity
  8
KIJUN
100
AcDbLine
 10
589.5287777668645
 20
435.9144700544753
 30
0.0
 11
584.4283307669911
 21
439.8207360543423
 31
0.0
  0
LINE
  5
A89D
102
{ACAD_REACTORS
330
A9E8
102
}
330
2
100
AcDbEntity
  8
KIJUN
100
AcDbLine
 10
584.4283307669911
 20
439.8207360543423
 30
0.0
 11
578.1817087669701
 21
441.838766054421
 31
0.0
  0
LINE
  5
A89E
102
{ACAD_REACTORS
330
A9E8
102
}
330
2
100
AcDbEntity
  8
KIJUN
100
AcDbLine
 10
578.1817087669701
 20
441.838766054421
 30
0.0
 11
572.0652617668902
 21
440.9129360544721
 31
0.0
  0
LINE
  5
A89F
102
{ACAD_REACTORS
330
A9E8
102
}
330
2
100
AcDbEntity
  8
KIJUN
100
AcDbLine
 10
596.7677777669532
 20
426.0084700545381
 30
0.0
 11
605.7708077668294
 21
429.6140000544658
 31
0.0
  0
LINE
  5
A8A0
102
{ACAD_REACTORS
330
A9E8
102
}
330
2
100
AcDbEntity
  8
KIJUN
100
AcDbLine
 10
605.7708077668294
 20
429.6140000544658
 30
0.0
 11
616.3626077667731
 21
430.27579705443
 31
0.0
  0
LINE
  5
A8A1
102
{ACAD_REACTORS
330
A9E8
102
}
330
2
100
AcDbEntity
  8
KIJUN
100
AcDbLine
 10
616.3626077667731
 20
430.27579705443
 30
0.0
 11
623.959239766883
 21
424.3840130544088
 31
0.0
  0
LINE
  5
A8A2
102
{ACAD_REACTORS
330
A9E8
102
}
330
2
100
AcDbEntity
  8
KIJUN
100
AcDbLine
 10
602.4827777669643
 20
406.8314700543236
 30
0.0
 11
610.0228947668811
 21
411.4411890543963
 31
0.0
  0
LINE
  5
A8A3
102
{ACAD_REACTORS
330
A9E8
102
}
330
2
100
AcDbEntity
  8
KIJUN
100
AcDbLine
 10
610.0228947668811
 20
411.4411890543963
 30
0.0
 11
619.2039787669723
 21
412.5520580543783
 31
0.0
  0
LINE
  5
A8A4
102
{ACAD_REACTORS
330
A9E8
102
}
330
2
100
AcDbEntity
  8
KIJUN
100
AcDbLine
 10
619.2039787669723
 20
412.5520580543783
 30
0.0
 11
628.1507477669811
 21
410.5805100543333
 31
0.0
  0
LINE
  5
A8A5
102
{ACAD_REACTORS
330
A9E8
102
}
330
2
100
AcDbEntity
  8
KIJUN
100
AcDbLine
 10
602.4827777669643
 20
419.4044700543495
 30
0.0
 11
609.5150217668206
 21
420.7236190543739
 31
0.0
  0
LINE
  5
A8A6
102
{ACAD_REACTORS
330
A9E8
102
}
330
2
100
AcDbEntity
  8
KIJUN
100
AcDbLine
 10
609.5150217668206
 20
420.7236190543739
 30
0.0
 11
616.4691607668073
 21
420.2932160544408
 31
0.0
  0
LINE
  5
A8A7
102
{ACAD_REACTORS
330
A9E8
102
}
330
2
100
AcDbEntity
  8
KIJUN
100
AcDbLine
 10
616.4691607668073
 20
420.2932160544408
 30
0.0
 11
623.5797637668593
 21
418.2800120543801
 31
0.0
  0
LINE
  5
A8A8
102
{ACAD_REACTORS
330
A9E8
102
}
330
2
100
AcDbEntity
  8
KIJUN
100
AcDbLine
 10
620.8977777667914
 20
402.8944700544491
 30
0.0
 11
626.4022117668941
 21
405.0187990544623
 31
0.0
  0
LINE
  5
A8A9
102
{ACAD_REACTORS
330
A9E8
102
}
330
2
100
AcDbEntity
  8
KIJUN
100
AcDbLine
 10
626.4022117668941
 20
405.0187990544623
 30
0.0
 11
631.8022517667714
 21
405.5603270543693
 31
0.0
  0
LINE
  5
A8AA
102
{ACAD_REACTORS
330
A9E8
102
}
330
2
100
AcDbEntity
  8
KIJUN
100
AcDbLine
 10
631.8022517667714
 20
405.5603270543693
 30
0.0
 11
637.3063047669793
 21
404.0189280544111
 31
0.0
  0
LINE
  5
A8AB
102
{ACAD_REACTORS
330
A9E8
102
}
330
2
100
AcDbEntity
  8
KIJUN
100
AcDbLine
 10
644.3927777669532
 20
367.2074700543421
 30
0.0
 11
643.3377887669494
 21
375.4549770544077
 31
0.0
  0
LINE
  5
A8AC
102
{ACAD_REACTORS
330
A9E8
102
}
330
2
100
AcDbEntity
  8
KIJUN
100
AcDbLine
 10
643.3377887669494
 20
375.4549770544077
 30
0.0
 11
639.2358157668873
 21
380.953442054339
 31
0.0
  0
LINE
  5
A8AD
102
{ACAD_REACTORS
330
A9E8
102
}
330
2
100
AcDbEntity
  8
KIJUN
100
AcDbLine
 10
639.2358157668873
 20
380.953442054339
 30
0.0
 11
633.6097157669442
 21
384.2024830544074
 31
0.0
  0
LINE
  5
A8AE
102
{ACAD_REACTORS
330
A9E8
102
}
330
2
100
AcDbEntity
  8
KIJUN
100
AcDbLine
 10
633.6097157669442
 20
384.2024830544074
 30
0.0
 11
625.4057697668404
 21
384.2024830544074
 31
0.0
  0
LINE
  5
A8AF
102
{ACAD_REACTORS
330
A9E8
102
}
330
2
100
AcDbEntity
  8
KIJUN
100
AcDbLine
 10
625.4057697668404
 20
384.2024830544074
 30
0.0
 11
618.1388297669991
 21
382.5780260545113
 31
0.0
  0
LINE
  5
A8B0
102
{ACAD_REACTORS
330
A9E8
102
}
330
2
100
AcDbEntity
  8
KIJUN
100
AcDbLine
 10
618.1388297669991
 20
382.5780260545113
 30
0.0
 11
611.458248766984
 21
377.0794340545363
 31
0.0
  0
LINE
  5
A8B1
102
{ACAD_REACTORS
330
A9E8
102
}
330
2
100
AcDbEntity
  8
KIJUN
100
AcDbLine
 10
611.458248766984
 20
377.0794340545363
 30
0.0
 11
609.4657457667722
 21
370.4565110544029
 31
0.0
  0
LINE
  5
A8B2
102
{ACAD_REACTORS
330
A9E8
102
}
330
2
100
AcDbEntity
  8
KIJUN
100
AcDbLine
 10
609.4657457667722
 20
370.4565110544029
 30
0.0
 11
608.8797677668345
 21
366.5825030543754
 31
0.0
  0
LINE
  5
A8B3
102
{ACAD_REACTORS
330
A9E8
102
}
330
2
100
AcDbEntity
  8
KIJUN
100
AcDbLine
 10
608.8797677668345
 20
366.5825030543754
 30
0.0
 11
644.3927777669532
 21
367.2074700543421
 31
0.0
  0
LINE
  5
A8B5
102
{ACAD_REACTORS
330
A9E8
102
}
330
2
100
AcDbEntity
  8
KIJUN
100
AcDbLine
 10
657.6887887668645
 20
378.2125280544174
 30
0.0
 11
656.1647887667873
 21
386.9599070543884
 31
0.0
  0
LINE
  5
A8B6
102
{ACAD_REACTORS
330
A9E8
102
}
330
2
100
AcDbEntity
  8
KIJUN
100
AcDbLine
 10
656.1647887667873
 20
386.9599070543884
 30
0.0
 11
651.2422687668595
 21
392.9579900543507
 31
0.0
  0
LINE
  5
A8B7
102
{ACAD_REACTORS
330
A9E8
102
}
330
2
100
AcDbEntity
  8
KIJUN
100
AcDbLine
 10
651.2422687668595
 20
392.9579900543507
 30
0.0
 11
643.2722567669416
 21
395.8325080544568
 31
0.0
  0
LINE
  5
A8B8
102
{ACAD_REACTORS
330
A9E8
102
}
330
2
100
AcDbEntity
  8
KIJUN
100
AcDbLine
 10
643.2722567669416
 20
395.8325080544568
 30
0.0
 11
630.1457907668964
 21
396.3319990544519
 31
0.0
  0
LINE
  5
A8B9
102
{ACAD_REACTORS
330
A9E8
102
}
330
2
100
AcDbEntity
  8
KIJUN
100
AcDbLine
 10
630.1457907668964
 20
396.3319990544519
 30
0.0
 11
616.081302766951
 21
395.8325080544568
 31
0.0
  0
LINE
  5
A8BA
102
{ACAD_REACTORS
330
A9E8
102
}
330
2
100
AcDbEntity
  8
KIJUN
100
AcDbLine
 10
616.081302766951
 20
395.8325080544568
 30
0.0
 11
603.6572737670003
 21
394.2079240545248
 31
0.0
  0
LINE
  5
A8BB
102
{ACAD_REACTORS
330
A9E8
102
}
330
2
100
AcDbEntity
  8
KIJUN
100
AcDbLine
 10
603.6572737670003
 20
394.2079240545248
 30
0.0
 11
596.5078087669613
 21
389.2094580545203
 31
0.0
  0
LINE
  5
A8BC
102
{ACAD_REACTORS
330
A9E8
102
}
330
2
100
AcDbEntity
  8
KIJUN
100
AcDbLine
 10
596.5078087669613
 20
389.2094580545203
 30
0.0
 11
593.4608247669171
 21
382.0864090544169
 31
0.0
  0
LINE
  5
A8BD
102
{ACAD_REACTORS
330
A9E8
102
}
330
2
100
AcDbEntity
  8
KIJUN
100
AcDbLine
 10
593.4608247669171
 20
382.0864090544169
 30
0.0
 11
591.3507197668523
 21
373.2139350543771
 31
0.0
  0
LINE
  5
A8BE
102
{ACAD_REACTORS
330
A9E8
102
}
330
2
100
AcDbEntity
  8
KIJUN
100
AcDbLine
 10
591.3507197668523
 20
373.2139350543771
 30
0.0
 11
591.3507197668523
 21
365.4294700544382
 31
0.0
  0
LINE
  5
A8C0
102
{ACAD_REACTORS
330
A9E8
102
}
330
2
100
AcDbEntity
  8
KIJUN
100
AcDbLine
 10
537.7127777669389
 20
391.8454700545084
 30
0.0
 11
557.2857637669817
 21
405.7164100543056
 31
0.0
  0
LINE
  5
A8C1
102
{ACAD_REACTORS
330
A9E8
102
}
330
2
100
AcDbEntity
  8
KIJUN
100
AcDbLine
 10
575.1777777669421
 20
393.6234700544048
 30
0.0
 11
570.1901067669032
 21
397.9833800544625
 31
0.0
  0
LINE
  5
A8C2
102
{ACAD_REACTORS
330
A9E8
102
}
330
2
100
AcDbEntity
  8
KIJUN
100
AcDbLine
 10
570.1901067669032
 20
397.9833800544625
 30
0.0
 11
563.9522477668442
 21
400.0106810544353
 31
0.0
  0
LINE
  5
A8C3
102
{ACAD_REACTORS
330
A9E8
102
}
330
2
100
AcDbEntity
  8
KIJUN
100
AcDbLine
 10
563.9522477668442
 20
400.0106810544353
 30
0.0
 11
557.2452507669018
 21
399.6219340545108
 31
0.0
  0
LINE
  5
A8C8
102
{ACAD_REACTORS
330
A9E8
102
}
330
2
100
AcDbEntity
  8
KIJUN
100
AcDbLine
 10
588.0047777667869
 20
392.4804700544014
 30
0.0
 11
582.4223657668421
 21
400.2885570544862
 31
0.0
  0
LINE
  5
A8C9
102
{ACAD_REACTORS
330
A9E8
102
}
330
2
100
AcDbEntity
  8
KIJUN
100
AcDbLine
 10
582.4223657668421
 20
400.2885570544862
 30
0.0
 11
573.1935297669925
 21
404.5419140545023
 31
0.0
  0
LINE
  5
A8CA
102
{ACAD_REACTORS
330
A9E8
102
}
330
2
100
AcDbEntity
  8
KIJUN
100
AcDbLine
 10
573.1935297669925
 20
404.5419140545023
 30
0.0
 11
563.8608077668404
 21
404.6019850545095
 31
0.0
  0
LINE
  5
A8CB
102
{ACAD_REACTORS
330
A9E8
102
}
330
2
100
AcDbEntity
  8
KIJUN
100
AcDbLine
 10
593.5927777670013
 20
397.4334700544901
 30
0.0
 11
588.9264167669252
 21
407.6573510543934
 31
0.0
  0
LINE
  5
A8CC
102
{ACAD_REACTORS
330
A9E8
102
}
330
2
100
AcDbEntity
  8
KIJUN
100
AcDbLine
 10
588.9264167669252
 20
407.6573510543934
 30
0.0
 11
579.7801307668351
 21
412.2440830545352
 31
0.0
  0
LINE
  5
A8CD
102
{ACAD_REACTORS
330
A9E8
102
}
330
2
100
AcDbEntity
  8
KIJUN
100
AcDbLine
 10
579.7801307668351
 20
412.2440830545352
 30
0.0
 11
568.8628297668842
 21
413.3040250543748
 31
0.0
  0
LINE
  5
A8CE
102
{ACAD_REACTORS
330
A9E8
102
}
330
2
100
AcDbEntity
  8
KIJUN
100
AcDbLine
 10
546.4757777668723
 20
367.332922668705
 30
0.0
 11
547.5307667668757
 21
372.3313886687025
 31
0.0
  0
LINE
  5
A8CF
102
{ACAD_REACTORS
330
A9E8
102
}
330
2
100
AcDbEntity
  8
KIJUN
100
AcDbLine
 10
547.5307667668757
 20
372.3313886687025
 30
0.0
 11
550.1092477667925
 21
377.3299816687499
 31
0.0
  0
LINE
  5
A8D0
102
{ACAD_REACTORS
330
A9E8
102
}
330
2
100
AcDbEntity
  8
KIJUN
100
AcDbLine
 10
550.1092477667925
 20
377.3299816687499
 30
0.0
 11
556.3208177669671
 21
379.4544376688133
 31
0.0
  0
LINE
  5
A8D1
102
{ACAD_REACTORS
330
A9E8
102
}
330
2
100
AcDbEntity
  8
KIJUN
100
AcDbLine
 10
556.3208177669671
 20
379.4544376688133
 30
0.0
 11
563.4702827667724
 21
380.578895668775
 31
0.0
  0
LINE
  5
A8D2
102
{ACAD_REACTORS
330
A9E8
102
}
330
2
100
AcDbEntity
  8
KIJUN
100
AcDbLine
 10
563.4702827667724
 20
380.578895668775
 30
0.0
 11
571.6747367668221
 21
379.4544376688133
 31
0.0
  0
LINE
  5
A8D3
102
{ACAD_REACTORS
330
A9E8
102
}
330
2
100
AcDbEntity
  8
KIJUN
100
AcDbLine
 10
571.6747367668221
 20
379.4544376688133
 30
0.0
 11
577.8868147669355
 21
376.7053956689118
 31
0.0
  0
LINE
  5
A8D4
102
{ACAD_REACTORS
330
A9E8
102
}
330
2
100
AcDbEntity
  8
KIJUN
100
AcDbLine
 10
577.8868147669355
 20
376.7053956689118
 30
0.0
 11
581.5197767669169
 21
372.8313876688695
 31
0.0
  0
LINE
  5
A8D5
102
{ACAD_REACTORS
330
A9E8
102
}
330
2
100
AcDbEntity
  8
KIJUN
100
AcDbLine
 10
581.5197767669169
 20
372.8313876688695
 30
0.0
 11
582.5747657669212
 21
367.332922668705
 31
0.0
  0
LINE
  5
A8D6
102
{ACAD_REACTORS
330
A9E8
102
}
330
2
100
AcDbEntity
  8
KIJUN
100
AcDbLine
 10
582.5747657669212
 20
367.332922668705
 30
0.0
 11
546.4757777668723
 21
367.332922668705
 31
0.0
  0
LINE
  5
A8D7
102
{ACAD_REACTORS
330
A9E8
102
}
330
2
100
AcDbEntity
  8
KIJUN
100
AcDbLine
 10
558.7947777668391
 20
427.6594700544123
 30
0.0
 11
567.0858457668741
 21
428.2520520545044
 31
0.0
  0
LINE
  5
A8D8
102
{ACAD_REACTORS
330
A9E8
102
}
330
2
100
AcDbEntity
  8
KIJUN
100
AcDbLine
 10
567.0858457668741
 20
428.2520520545044
 30
0.0
 11
576.6792987668091
 21
427.3170780544645
 31
0.0
  0
LINE
  5
A8D9
102
{ACAD_REACTORS
330
A9E8
102
}
330
2
100
AcDbEntity
  8
KIJUN
100
AcDbLine
 10
576.6792987668091
 20
427.3170780544645
 30
0.0
 11
582.9387477667851
 21
422.6610040544153
 31
0.0
  0
LINE
  5
A8DA
102
{ACAD_REACTORS
330
A9E8
102
}
330
2
100
AcDbEntity
  8
KIJUN
100
AcDbLine
 10
557.2707777669948
 20
421.6904700543498
 30
0.0
 11
565.0411457667814
 21
421.824709054516
 31
0.0
  0
LINE
  5
A8DB
102
{ACAD_REACTORS
330
A9E8
102
}
330
2
100
AcDbEntity
  8
KIJUN
100
AcDbLine
 10
565.0411457667814
 20
421.824709054516
 30
0.0
 11
573.9573077668183
 21
420.5982700544521
 31
0.0
  0
LINE
  5
A8DC
102
{ACAD_REACTORS
330
A9E8
102
}
330
2
100
AcDbEntity
  8
KIJUN
100
AcDbLine
 10
573.9573077668183
 20
420.5982700544521
 30
0.0
 11
579.3052777668572
 21
415.5674190543473
 31
0.0
  0
LINE
  5
A8DD
102
{ACAD_REACTORS
330
A9E8
102
}
330
2
100
AcDbEntity
  8
KIJUN
100
AcDbLine
 10
594.7357777670049
 20
421.0554700544492
 30
0.0
 11
591.3715477669761
 21
426.5770490543547
 31
0.0
  0
LINE
  5
A8DE
102
{ACAD_REACTORS
330
A9E8
102
}
330
2
100
AcDbEntity
  8
KIJUN
100
AcDbLine
 10
591.3715477669761
 20
426.5770490543547
 30
0.0
 11
584.2308457668991
 21
429.2383340543498
 31
0.0
  0
LINE
  5
A8DF
102
{ACAD_REACTORS
330
A9E8
102
}
330
2
100
AcDbEntity
  8
KIJUN
100
AcDbLine
 10
584.2308457668991
 20
429.2383340543498
 30
0.0
 11
577.741272766872
 21
429.9279440544889
 31
0.0
  0
LINE
  5
A8E0
102
{ACAD_REACTORS
330
A9E8
102
}
330
2
100
AcDbEntity
  8
KIJUN
100
AcDbLine
 10
554.7307777669425
 20
413.94347005439
 30
0.0
 11
560.1699337668915
 21
415.0728810544065
 31
0.0
  0
LINE
  5
A8E1
102
{ACAD_REACTORS
330
A9E8
102
}
330
2
100
AcDbEntity
  8
KIJUN
100
AcDbLine
 10
560.1699337668915
 20
415.0728810544065
 30
0.0
 11
564.9579607667992
 21
414.8136740544473
 31
0.0
  0
LINE
  5
A8E2
102
{ACAD_REACTORS
330
A9E8
102
}
330
2
100
AcDbEntity
  8
KIJUN
100
AcDbLine
 10
564.9579607667992
 20
414.8136740544473
 30
0.0
 11
570.0848237668333
 21
414.4434690543245
 31
0.0
  0
LINE
  5
A8E3
102
{ACAD_REACTORS
330
A9E8
102
}
330
2
100
AcDbEntity
  8
KIJUN
100
AcDbLine
 10
558.2867777669685
 20
438.7084700543458
 30
0.0
 11
572.702801766959
 21
436.5840140545228
 31
0.0
  0
LINE
  5
A8E4
102
{ACAD_REACTORS
330
A9E8
102
}
330
2
100
AcDbEntity
  8
KIJUN
100
AcDbLine
 10
596.2597777668502
 20
408.9904700545417
 30
0.0
 11
593.5901107667891
 21
414.5628490543133
 31
0.0
  0
LINE
  5
A8E5
102
{ACAD_REACTORS
330
A9E8
102
}
330
2
100
AcDbEntity
  8
KIJUN
100
AcDbLine
 10
593.5901107667891
 20
414.5628490543133
 30
0.0
 11
588.0295427668543
 21
418.497055054399
 31
0.0
  0
LINE
  5
A8E6
102
{ACAD_REACTORS
330
A9E8
102
}
330
2
100
AcDbEntity
  8
KIJUN
100
AcDbLine
 10
588.0295427668543
 20
418.497055054399
 30
0.0
 11
581.843753766866
 21
419.9875270544549
 31
0.0
  0
LINE
  5
A8E7
102
{ACAD_REACTORS
330
A9E8
102
}
330
2
100
AcDbEntity
  8
KIJUN
100
AcDbLine
 10
594.2277777669014
 20
433.2474700543937
 30
0.0
 11
599.7841547668003
 21
437.7229500545257
 31
0.0
  0
LINE
  5
A8E8
102
{ACAD_REACTORS
330
A9E8
102
}
330
2
100
AcDbEntity
  8
KIJUN
100
AcDbLine
 10
599.7841547668003
 20
437.7229500545257
 30
0.0
 11
606.0958007668891
 21
438.9773290543494
 31
0.0
  0
LINE
  5
A8E9
102
{ACAD_REACTORS
330
A9E8
102
}
330
2
100
AcDbEntity
  8
KIJUN
100
AcDbLine
 10
606.0958007668891
 20
438.9773290543494
 30
0.0
 11
612.7462827668791
 21
437.1214780544291
 31
0.0
  0
LINE
  5
A8EA
102
{ACAD_REACTORS
330
A9E8
102
}
330
2
100
AcDbEntity
  8
KIJUN
100
AcDbLine
 10
652.7747777668118
 20
413.94347005439
 30
0.0
 11
648.5379307668408
 21
418.3634510544473
 31
0.0
  0
LINE
  5
A8EB
102
{ACAD_REACTORS
330
A9E8
102
}
330
2
100
AcDbEntity
  8
KIJUN
100
AcDbLine
 10
648.5379307668408
 20
418.3634510544473
 30
0.0
 11
642.7905457669562
 21
419.2290830543393
 31
0.0
  0
LINE
  5
A8EC
102
{ACAD_REACTORS
330
A9E8
102
}
330
2
100
AcDbEntity
  8
KIJUN
100
AcDbLine
 10
642.7905457669562
 20
419.2290830543393
 30
0.0
 11
636.834753766977
 21
417.8174780544253
 31
0.0
  0
LINE
  5
A8ED
102
{ACAD_REACTORS
330
A9E8
102
}
330
2
100
AcDbEntity
  8
KIJUN
100
AcDbLine
 10
645.6627777669791
 20
406.8314700543236
 30
0.0
 11
641.6691357668692
 21
410.8301920545456
 31
0.0
  0
LINE
  5
A8EE
102
{ACAD_REACTORS
330
A9E8
102
}
330
2
100
AcDbEntity
  8
KIJUN
100
AcDbLine
 10
641.6691357668692
 20
410.8301920545456
 30
0.0
 11
636.0606887668918
 21
413.2462400544431
 31
0.0
  0
LINE
  5
A8EF
102
{ACAD_REACTORS
330
A9E8
102
}
330
2
100
AcDbEntity
  8
KIJUN
100
AcDbLine
 10
636.0606887668918
 20
413.2462400544431
 30
0.0
 11
630.6607757668253
 21
412.8299340544294
 31
0.0
  0
LINE
  5
A8F0
102
{ACAD_REACTORS
330
A9E8
102
}
330
2
100
AcDbEntity
  8
KIJUN
100
AcDbLine
 10
654.2987777668904
 20
422.7064700543237
 30
0.0
 11
648.22144676689
 21
426.8116180545297
 31
0.0
  0
LINE
  5
A8F1
102
{ACAD_REACTORS
330
A9E8
102
}
330
2
100
AcDbEntity
  8
KIJUN
100
AcDbLine
 10
648.22144676689
 20
426.8116180545297
 30
0.0
 11
642.1702777669643
 21
426.9736700544132
 31
0.0
  0
LINE
  5
A8F2
102
{ACAD_REACTORS
330
A9E8
102
}
330
2
100
AcDbEntity
  8
KIJUN
100
AcDbLine
 10
642.1702777669643
 20
426.9736700544132
 30
0.0
 11
635.7802727669122
 21
423.3314370545234
 31
0.0
  0
LINE
  5
A8F3
102
{ACAD_REACTORS
330
A9E8
102
}
330
2
100
AcDbEntity
  8
KIJUN
100
AcDbLine
 10
649.2187777667795
 20
432.7394700545158
 30
0.0
 11
641.5310867668022
 21
435.6230050544441
 31
0.0
  0
LINE
  5
A8F4
102
{ACAD_REACTORS
330
A9E8
102
}
330
2
100
AcDbEntity
  8
KIJUN
100
AcDbLine
 10
641.5310867668022
 20
435.6230050544441
 30
0.0
 11
633.2702447668353
 21
435.5628070544011
 31
0.0
  0
LINE
  5
A8F5
102
{ACAD_REACTORS
330
A9E8
102
}
330
2
100
AcDbEntity
  8
KIJUN
100
AcDbLine
 10
633.2702447668353
 20
435.5628070544011
 30
0.0
 11
626.5982997669794
 21
431.1150130543943
 31
0.0
  0
LINE
  5
A8F6
102
{ACAD_REACTORS
330
A9E8
102
}
330
2
100
AcDbEntity
  8
KIJUN
100
AcDbLine
 10
624.580777766846
 20
467.918470054527
 30
0.0
 11
620.5480197668885
 21
472.3568660543488
 31
0.0
  0
LINE
  5
A8F7
102
{ACAD_REACTORS
330
A9E8
102
}
330
2
100
AcDbEntity
  8
KIJUN
100
AcDbLine
 10
620.5480197668885
 20
472.3568660543488
 30
0.0
 11
614.6661417669902
 21
474.18503105437
 31
0.0
  0
LINE
  5
A8F8
102
{ACAD_REACTORS
330
A9E8
102
}
330
2
100
AcDbEntity
  8
KIJUN
100
AcDbLine
 10
614.6661417669902
 20
474.18503105437
 30
0.0
 11
608.5237867669142
 21
474.5415200544699
 31
0.0
  0
LINE
  5
A8F9
102
{ACAD_REACTORS
330
A9E8
102
}
330
2
100
AcDbEntity
  8
KIJUN
100
AcDbLine
 10
630.676777766931
 20
454.2024700545041
 30
0.0
 11
623.5359487668111
 21
456.7666000544091
 31
0.0
  0
LINE
  5
A8FA
102
{ACAD_REACTORS
330
A9E8
102
}
330
2
100
AcDbEntity
  8
KIJUN
100
AcDbLine
 10
623.5359487668111
 20
456.7666000544091
 30
0.0
 11
616.2908527669651
 21
457.470053054381
 31
0.0
  0
LINE
  5
A8FB
102
{ACAD_REACTORS
330
A9E8
102
}
330
2
100
AcDbEntity
  8
KIJUN
100
AcDbLine
 10
616.2908527669651
 20
457.470053054381
 30
0.0
 11
610.1657697669734
 21
457.4515110543471
 31
0.0
  0
LINE
  5
A8FC
102
{ACAD_REACTORS
330
A9E8
102
}
330
2
100
AcDbEntity
  8
KIJUN
100
AcDbLine
 10
625.0887777669495
 20
460.171470054334
 30
0.0
 11
619.271923766872
 21
463.656477054359
 31
0.0
  0
LINE
  5
A8FD
102
{ACAD_REACTORS
330
A9E8
102
}
330
2
100
AcDbEntity
  8
KIJUN
100
AcDbLine
 10
619.271923766872
 20
463.656477054359
 30
0.0
 11
613.0904527669636
 21
464.892187054324
 31
0.0
  0
LINE
  5
A8FE
102
{ACAD_REACTORS
330
A9E8
102
}
330
2
100
AcDbEntity
  8
KIJUN
100
AcDbLine
 10
613.0904527669636
 20
464.892187054324
 30
0.0
 11
606.570272766964
 21
463.545479054435
 31
0.0
  0
LINE
  5
A8FF
102
{ACAD_REACTORS
330
A9E8
102
}
330
2
100
AcDbEntity
  8
KIJUN
100
AcDbLine
 10
637.9157777667869
 20
446.963470054408
 30
0.0
 11
631.0397437669089
 21
449.2545500545269
 31
0.0
  0
LINE
  5
A900
102
{ACAD_REACTORS
330
A9E8
102
}
330
2
100
AcDbEntity
  8
KIJUN
100
AcDbLine
 10
631.0397437669089
 20
449.2545500545269
 30
0.0
 11
621.5851017668401
 21
450.2958230545082
 31
0.0
  0
LINE
  5
A901
102
{ACAD_REACTORS
330
A9E8
102
}
330
2
100
AcDbEntity
  8
KIJUN
100
AcDbLine
 10
621.5851017668401
 20
450.2958230545082
 30
0.0
 11
616.818791766892
 21
448.0879280543781
 31
0.0
  0
LINE
  5
A902
102
{ACAD_REACTORS
330
A9E8
102
}
330
2
100
AcDbEntity
  8
KIJUN
100
AcDbLine
 10
624.580777766846
 20
475.6654700544861
 30
0.0
 11
619.2371257668792
 21
480.6547920544001
 31
0.0
  0
LINE
  5
A903
102
{ACAD_REACTORS
330
A9E8
102
}
330
2
100
AcDbEntity
  8
KIJUN
100
AcDbLine
 10
619.2371257668792
 20
480.6547920544001
 30
0.0
 11
612.4609137668312
 21
483.172694054363
 31
0.0
  0
LINE
  5
A904
102
{ACAD_REACTORS
330
A9E8
102
}
330
2
100
AcDbEntity
  8
KIJUN
100
AcDbLine
 10
612.4609137668312
 20
483.172694054363
 30
0.0
 11
605.4762947669233
 21
484.4129760545001
 31
0.0
  0
LINE
  5
A905
102
{ACAD_REACTORS
330
A9E8
102
}
330
2
100
AcDbEntity
  8
KIJUN
100
AcDbLine
 10
553.7147777669611
 20
485.0634700543271
 30
0.0
 11
547.9022417669707
 21
486.3499800543981
 31
0.0
  0
LINE
  5
A906
102
{ACAD_REACTORS
330
A9E8
102
}
330
2
100
AcDbEntity
  8
KIJUN
100
AcDbLine
 10
547.9022417669707
 20
486.3499800543981
 30
0.0
 11
542.2200077669636
 21
484.6931380543942
 31
0.0
  0
LINE
  5
A907
102
{ACAD_REACTORS
330
A9E8
102
}
330
2
100
AcDbEntity
  8
KIJUN
100
AcDbLine
 10
542.2200077669636
 20
484.6931380543942
 30
0.0
 11
538.8297427669035
 21
480.0650040543299
 31
0.0
  0
LINE
  5
A908
102
{ACAD_REACTORS
330
A9E8
102
}
330
2
100
AcDbEntity
  8
KIJUN
100
AcDbLine
 10
586.4807777669352
 20
479.602470054368
 30
0.0
 11
592.9443157669311
 21
485.406243054396
 31
0.0
  0
LINE
  5
A909
102
{ACAD_REACTORS
330
A9E8
102
}
330
2
100
AcDbEntity
  8
KIJUN
100
AcDbLine
 10
592.9443157669311
 20
485.406243054396
 30
0.0
 11
599.5122477669292
 21
487.544542054526
 31
0.0
  0
LINE
  5
A90A
102
{ACAD_REACTORS
330
A9E8
102
}
330
2
100
AcDbEntity
  8
KIJUN
100
AcDbLine
 10
599.5122477669292
 20
487.544542054526
 30
0.0
 11
606.9917857669001
 21
487.8499770544331
 31
0.0
  0
LINE
  5
A90B
102
{ACAD_REACTORS
330
A9E8
102
}
330
2
100
AcDbEntity
  8
KIJUN
100
AcDbLine
 10
567.0497777669011
 20
480.1104700544639
 30
0.0
 11
572.9881707670001
 21
480.0271580544471
 31
0.0
  0
LINE
  5
A90C
102
{ACAD_REACTORS
330
A9E8
102
}
330
2
100
AcDbEntity
  8
KIJUN
100
AcDbLine
 10
572.9881707670001
 20
480.0271580544471
 30
0.0
 11
578.6140167668572
 21
478.610854054332
 31
0.0
  0
LINE
  5
A90D
102
{ACAD_REACTORS
330
A9E8
102
}
330
2
100
AcDbEntity
  8
KIJUN
100
AcDbLine
 10
578.6140167668572
 20
478.610854054332
 30
0.0
 11
582.5207907669041
 21
474.112006054373
 31
0.0
  0
LINE
  5
A90E
102
{ACAD_REACTORS
330
A9E8
102
}
330
2
100
AcDbEntity
  8
KIJUN
100
AcDbLine
 10
564.5097777668492
 20
466.7754700545232
 30
0.0
 11
572.5620857669063
 21
468.9184680543951
 31
0.0
  0
LINE
  5
A90F
102
{ACAD_REACTORS
330
A9E8
102
}
330
2
100
AcDbEntity
  8
KIJUN
100
AcDbLine
 10
572.5620857669063
 20
468.9184680543951
 30
0.0
 11
580.4842187667823
 21
469.0896640543692
 31
0.0
  0
LINE
  5
A910
102
{ACAD_REACTORS
330
A9E8
102
}
330
2
100
AcDbEntity
  8
KIJUN
100
AcDbLine
 10
580.4842187667823
 20
469.0896640543692
 30
0.0
 11
587.1302557668832
 21
464.65101405446
 31
0.0
  0
LINE
  5
A911
102
{ACAD_REACTORS
330
A9E8
102
}
330
2
100
AcDbEntity
  8
KIJUN
100
AcDbLine
 10
585.8457777668091
 20
445.3124700543082
 30
0.0
 11
579.6122367668222
 21
447.770047054418
 31
0.0
  0
LINE
  5
A912
102
{ACAD_REACTORS
330
A9E8
102
}
330
2
100
AcDbEntity
  8
KIJUN
100
AcDbLine
 10
579.6122367668222
 20
447.770047054418
 30
0.0
 11
571.6074267669109
 21
448.3948870543421
 31
0.0
  0
LINE
  5
A913
102
{ACAD_REACTORS
330
A9E8
102
}
330
2
100
AcDbEntity
  8
KIJUN
100
AcDbLine
 10
571.6074267669109
 20
448.3948870543421
 30
0.0
 11
567.3272727668313
 21
448.68647905441
 31
0.0
  0
LINE
  5
A914
102
{ACAD_REACTORS
330
A9E8
102
}
330
2
100
AcDbEntity
  8
KIJUN
100
AcDbLine
 10
561.8427777670013
 20
457.3774700544561
 30
0.0
 11
569.7953907667993
 21
460.5801560543151
 31
0.0
  0
LINE
  5
A915
102
{ACAD_REACTORS
330
A9E8
102
}
330
2
100
AcDbEntity
  8
KIJUN
100
AcDbLine
 10
569.7953907667993
 20
460.5801560543151
 30
0.0
 11
578.3469357669973
 21
460.6727390544651
 31
0.0
  0
LINE
  5
A916
102
{ACAD_REACTORS
330
A9E8
102
}
330
2
100
AcDbEntity
  8
KIJUN
100
AcDbLine
 10
578.3469357669973
 20
460.6727390544651
 30
0.0
 11
585.9867477669403
 21
456.877471054522
 31
0.0
  0
LINE
  5
A917
102
{ACAD_REACTORS
330
A9E8
102
}
330
2
100
AcDbEntity
  8
KIJUN
100
AcDbLine
 10
555.2387777668132
 20
449.1224700543942
 30
0.0
 11
560.9730817668832
 21
449.923078054449
 31
0.0
  0
LINE
  5
A918
102
{ACAD_REACTORS
330
A9E8
102
}
330
2
100
AcDbEntity
  8
KIJUN
100
AcDbLine
 10
560.9730817668832
 20
449.923078054449
 30
0.0
 11
567.4366197668791
 21
449.6130710543769
 31
0.0
  0
LINE
  5
A919
102
{ACAD_REACTORS
330
A9E8
102
}
330
2
100
AcDbEntity
  8
KIJUN
100
AcDbLine
 10
567.4366197668791
 20
449.6130710543769
 30
0.0
 11
572.2332827669393
 21
447.4980130544969
 31
0.0
  0
LINE
  5
A91A
102
{ACAD_REACTORS
330
A9E8
102
}
330
2
100
AcDbEntity
  8
KIJUN
100
AcDbLine
 10
538.2207777668095
 20
454.7104700543751
 30
0.0
 11
545.1575177669087
 21
457.0014230544442
 31
0.0
  0
LINE
  5
A91B
102
{ACAD_REACTORS
330
A9E8
102
}
330
2
100
AcDbEntity
  8
KIJUN
100
AcDbLine
 10
545.1575177669087
 20
457.0014230544442
 30
0.0
 11
551.5213607668788
 21
457.2930150545182
 31
0.0
  0
LINE
  5
A91C
102
{ACAD_REACTORS
330
A9E8
102
}
330
2
100
AcDbEntity
  8
KIJUN
100
AcDbLine
 10
551.5213607668788
 20
457.2930150545182
 30
0.0
 11
558.8487527668635
 21
455.8349280543439
 31
0.0
  0
LINE
  5
A91D
102
{ACAD_REACTORS
330
A9E8
102
}
330
2
100
AcDbEntity
  8
KIJUN
100
AcDbLine
 10
539.7447777668872
 20
477.8244700544639
 30
0.0
 11
546.6684367669454
 21
480.3837740543571
 31
0.0
  0
LINE
  5
A91E
102
{ACAD_REACTORS
330
A9E8
102
}
330
2
100
AcDbEntity
  8
KIJUN
100
AcDbLine
 10
546.6684367669454
 20
480.3837740543571
 30
0.0
 11
552.7847567669827
 21
479.472041054334
 31
0.0
  0
LINE
  5
A91F
102
{ACAD_REACTORS
330
A9E8
102
}
330
2
100
AcDbEntity
  8
KIJUN
100
AcDbLine
 10
552.7847567669827
 20
479.472041054334
 30
0.0
 11
559.3177637669373
 21
475.7000140543929
 31
0.0
  0
LINE
  5
A920
102
{ACAD_REACTORS
330
A9E8
102
}
330
2
100
AcDbEntity
  8
KIJUN
100
AcDbLine
 10
539.2367777667836
 20
463.6004700543379
 30
0.0
 11
544.1592977669438
 21
465.7155280544571
 31
0.0
  0
LINE
  5
A921
102
{ACAD_REACTORS
330
A9E8
102
}
330
2
100
AcDbEntity
  8
KIJUN
100
AcDbLine
 10
544.1592977669438
 20
465.7155280544571
 30
0.0
 11
549.0819447669209
 21
466.0255350545299
 31
0.0
  0
LINE
  5
A922
102
{ACAD_REACTORS
330
A9E8
102
}
330
2
100
AcDbEntity
  8
KIJUN
100
AcDbLine
 10
549.0819447669209
 20
466.0255350545299
 30
0.0
 11
554.7077907667785
 21
465.224927054467
 31
0.0
  0
LINE
  5
A923
102
{ACAD_REACTORS
330
A9E8
102
}
330
2
100
AcDbEntity
  8
KIJUN
100
AcDbLine
 10
591.0527777669422
 20
446.455470054312
 30
0.0
 11
598.9098867669899
 21
449.209338054465
 31
0.0
  0
LINE
  5
A924
102
{ACAD_REACTORS
330
A9E8
102
}
330
2
100
AcDbEntity
  8
KIJUN
100
AcDbLine
 10
598.9098867669899
 20
449.209338054465
 30
0.0
 11
606.5584617668942
 21
449.741468054421
 31
0.0
  0
LINE
  5
A925
102
{ACAD_REACTORS
330
A9E8
102
}
330
2
100
AcDbEntity
  8
KIJUN
100
AcDbLine
 10
606.5584617668942
 20
449.741468054421
 30
0.0
 11
614.7282447669872
 21
448.079927054434
 31
0.0
  0
LINE
  5
A926
102
{ACAD_REACTORS
330
A9E8
102
}
330
2
100
AcDbEntity
  8
KIJUN
100
AcDbLine
 10
591.0527777669422
 20
440.9944700543531
 30
0.0
 11
597.6293457668589
 21
442.68839605444
 31
0.0
  0
LINE
  5
A927
102
{ACAD_REACTORS
330
A9E8
102
}
330
2
100
AcDbEntity
  8
KIJUN
100
AcDbLine
 10
597.6293457668589
 20
442.68839605444
 30
0.0
 11
605.2215327668464
 21
443.2992660544879
 31
0.0
  0
LINE
  5
A928
102
{ACAD_REACTORS
330
A9E8
102
}
330
2
100
AcDbEntity
  8
KIJUN
100
AcDbLine
 10
605.2215327668464
 20
443.2992660544879
 30
0.0
 11
611.0947747668333
 21
440.9944700543531
 31
0.0
  0
LINE
  5
A929
102
{ACAD_REACTORS
330
A9E8
102
}
330
2
100
AcDbEntity
  8
KIJUN
100
AcDbLine
 10
589.5287777668645
 20
451.9164700544969
 30
0.0
 11
595.6190627668629
 21
458.7570710543911
 31
0.0
  0
LINE
  5
A92A
102
{ACAD_REACTORS
330
A9E8
102
}
330
2
100
AcDbEntity
  8
KIJUN
100
AcDbLine
 10
595.6190627668629
 20
458.7570710543911
 30
0.0
 11
605.5900867668761
 21
459.8217120544401
 31
0.0
  0
LINE
  5
A92B
102
{ACAD_REACTORS
330
A9E8
102
}
330
2
100
AcDbEntity
  8
KIJUN
100
AcDbLine
 10
605.5900867668761
 20
459.8217120544401
 30
0.0
 11
614.7277367668152
 21
457.414935054436
 31
0.0
  0
LINE
  5
A92C
102
{ACAD_REACTORS
330
A9E8
102
}
330
2
100
AcDbEntity
  8
KIJUN
100
AcDbLine
 10
588.5127777668904
 20
475.6654700544861
 30
0.0
 11
595.4756797668315
 21
478.3219290544691
 31
0.0
  0
LINE
  5
A92D
102
{ACAD_REACTORS
330
A9E8
102
}
330
2
100
AcDbEntity
  8
KIJUN
100
AcDbLine
 10
595.4756797668315
 20
478.3219290544691
 30
0.0
 11
602.8811767669253
 21
478.6735920543179
 31
0.0
  0
LINE
  5
A92E
102
{ACAD_REACTORS
330
A9E8
102
}
330
2
100
AcDbEntity
  8
KIJUN
100
AcDbLine
 10
602.8811767669253
 20
478.6735920543179
 30
0.0
 11
609.1407527669444
 21
478.4145120543942
 31
0.0
  0
LINE
  5
A92F
102
{ACAD_REACTORS
330
A9E8
102
}
330
2
100
AcDbEntity
  8
KIJUN
100
AcDbLine
 10
590.5447777668391
 20
469.0614700545231
 30
0.0
 11
597.1994507668582
 21
471.435735054383
 31
0.0
  0
LINE
  5
A930
102
{ACAD_REACTORS
330
A9E8
102
}
330
2
100
AcDbEntity
  8
KIJUN
100
AcDbLine
 10
597.1994507668582
 20
471.435735054383
 30
0.0
 11
603.5414497668321
 21
471.477264054349
 31
0.0
  0
LINE
  5
A931
102
{ACAD_REACTORS
330
A9E8
102
}
330
2
100
AcDbEntity
  8
KIJUN
100
AcDbLine
 10
603.5414497668321
 20
471.477264054349
 30
0.0
 11
610.5867747669622
 21
470.1859280544922
 31
0.0
  0
LINE
  5
A932
102
{ACAD_REACTORS
330
A9E8
102
}
330
2
100
AcDbEntity
  8
KIJUN
100
AcDbLine
 10
567.0497777669011
 20
510.4634700544161
 30
0.0
 11
571.3864467669423
 21
509.8802860545001
 31
0.0
  0
LINE
  5
A933
102
{ACAD_REACTORS
330
A9E8
102
}
330
2
100
AcDbEntity
  8
KIJUN
100
AcDbLine
 10
571.3864467669423
 20
509.8802860545001
 30
0.0
 11
576.4263147668693
 21
508.7972300544678
 31
0.0
  0
LINE
  5
A934
102
{ACAD_REACTORS
330
A9E8
102
}
330
2
100
AcDbEntity
  8
KIJUN
100
AcDbLine
 10
576.4263147668693
 20
508.7972300544678
 30
0.0
 11
579.3563317668172
 21
508.2139190545088
 31
0.0
  0
LINE
  5
A935
102
{ACAD_REACTORS
330
A9E8
102
}
330
2
100
AcDbEntity
  8
KIJUN
100
AcDbLine
 10
561.8427777670013
 20
514.7814700543711
 30
0.0
 11
569.513196766908
 21
514.8971670545031
 31
0.0
  0
LINE
  5
A936
102
{ACAD_REACTORS
330
A9E8
102
}
330
2
100
AcDbEntity
  8
KIJUN
100
AcDbLine
 10
569.513196766908
 20
514.8971670545031
 30
0.0
 11
580.0745167669242
 21
513.5410610544239
 31
0.0
  0
LINE
  5
A937
102
{ACAD_REACTORS
330
A9E8
102
}
330
2
100
AcDbEntity
  8
KIJUN
100
AcDbLine
 10
580.0745167669242
 20
513.5410610544239
 30
0.0
 11
583.9942447669614
 21
508.1584200544271
 31
0.0
  0
LINE
  5
A938
102
{ACAD_REACTORS
330
A9E8
102
}
330
2
100
AcDbEntity
  8
KIJUN
100
AcDbLine
 10
559.3027777669426
 20
490.5244700545122
 30
0.0
 11
568.006214766815
 21
491.380831054495
 31
0.0
  0
LINE
  5
A939
102
{ACAD_REACTORS
330
A9E8
102
}
330
2
100
AcDbEntity
  8
KIJUN
100
AcDbLine
 10
568.006214766815
 20
491.380831054495
 30
0.0
 11
578.7673057667793
 21
490.543139054363
 31
0.0
  0
LINE
  5
A93A
102
{ACAD_REACTORS
330
A9E8
102
}
330
2
100
AcDbEntity
  8
KIJUN
100
AcDbLine
 10
578.7673057667793
 20
490.543139054363
 30
0.0
 11
584.0327257668182
 21
484.4014190545088
 31
0.0
  0
LINE
  5
A93B
102
{ACAD_REACTORS
330
A9E8
102
}
330
2
100
AcDbEntity
  8
KIJUN
100
AcDbLine
 10
557.2707777669948
 20
503.2244700543268
 30
0.0
 11
566.3694387669034
 21
504.0067900544349
 31
0.0
  0
LINE
  5
A93C
102
{ACAD_REACTORS
330
A9E8
102
}
330
2
100
AcDbEntity
  8
KIJUN
100
AcDbLine
 10
566.3694387669034
 20
504.0067900544349
 30
0.0
 11
575.3638327668673
 21
502.9004930543847
 31
0.0
  0
LINE
  5
A93D
102
{ACAD_REACTORS
330
A9E8
102
}
330
2
100
AcDbEntity
  8
KIJUN
100
AcDbLine
 10
575.3638327668673
 20
502.9004930543847
 30
0.0
 11
581.414747766933
 21
496.60142005439
 31
0.0
  0
LINE
  5
A93E
102
{ACAD_REACTORS
330
A9E8
102
}
330
2
100
AcDbEntity
  8
KIJUN
100
AcDbLine
 10
538.8557777669352
 20
491.0324700543821
 30
0.0
 11
544.9719707669296
 21
493.874222054492
 31
0.0
  0
LINE
  5
A93F
102
{ACAD_REACTORS
330
A9E8
102
}
330
2
100
AcDbEntity
  8
KIJUN
100
AcDbLine
 10
544.9719707669296
 20
493.874222054492
 30
0.0
 11
550.5153937668374
 21
493.6057440543769
 31
0.0
  0
LINE
  5
A940
102
{ACAD_REACTORS
330
A9E8
102
}
330
2
100
AcDbEntity
  8
KIJUN
100
AcDbLine
 10
550.5153937668374
 20
493.6057440543769
 30
0.0
 11
556.3192937669168
 21
490.532471054448
 31
0.0
  0
LINE
  5
A941
102
{ACAD_REACTORS
330
A9E8
102
}
330
2
100
AcDbEntity
  8
KIJUN
100
AcDbLine
 10
538.8292347669644
 20
499.3060120544941
 30
0.0
 11
538.2954537669079
 21
498.088463054435
 31
0.0
  0
LINE
  5
A942
102
{ACAD_REACTORS
330
A9E8
102
}
330
2
100
AcDbEntity
  8
KIJUN
100
AcDbLine
 10
538.2954537669079
 20
498.088463054435
 30
0.0
 11
537.9178827668379
 21
496.5657330543138
 31
0.0
  0
LINE
  5
A943
102
{ACAD_REACTORS
330
A9E8
102
}
330
2
100
AcDbEntity
  8
KIJUN
100
AcDbLine
 10
537.9178827668379
 20
496.5657330543138
 30
0.0
 11
537.7747537668924
 21
494.9320050545101
 31
0.0
  0
LINE
  5
A944
102
{ACAD_REACTORS
330
A9E8
102
}
330
2
100
AcDbEntity
  8
KIJUN
100
AcDbLine
 10
552.1907777668834
 20
500.4304700544492
 30
0.0
 11
547.6589097668343
 21
500.8885590545212
 31
0.0
  0
LINE
  5
A945
102
{ACAD_REACTORS
330
A9E8
102
}
330
2
100
AcDbEntity
  8
KIJUN
100
AcDbLine
 10
547.6589097668343
 20
500.8885590545212
 30
0.0
 11
543.2831247669469
 21
500.3471580544318
 31
0.0
  0
LINE
  5
A946
102
{ACAD_REACTORS
330
A9E8
102
}
330
2
100
AcDbEntity
  8
KIJUN
100
AcDbLine
 10
543.2831247669469
 20
500.3471580544318
 30
0.0
 11
538.8292347669644
 21
499.3060120544941
 31
0.0
  0
LINE
  5
A947
102
{ACAD_REACTORS
330
A9E8
102
}
330
2
100
AcDbEntity
  8
KIJUN
100
AcDbLine
 10
557.2707777669948
 20
498.7794700543491
 30
0.0
 11
563.6605287669599
 21
498.5664910543239
 31
0.0
  0
LINE
  5
A948
102
{ACAD_REACTORS
330
A9E8
102
}
330
2
100
AcDbEntity
  8
KIJUN
100
AcDbLine
 10
563.6605287669599
 20
498.5664910543239
 30
0.0
 11
569.7118247669282
 21
497.7427690545258
 31
0.0
  0
LINE
  5
A949
102
{ACAD_REACTORS
330
A9E8
102
}
330
2
100
AcDbEntity
  8
KIJUN
100
AcDbLine
 10
569.7118247669282
 20
497.7427690545258
 30
0.0
 11
575.7892827669793
 21
496.0304280544402
 31
0.0
  0
LINE
  5
A94A
102
{ACAD_REACTORS
330
A9E8
102
}
330
2
100
AcDbEntity
  8
KIJUN
100
AcDbLine
 10
558.2867777669685
 20
486.2064700543229
 30
0.0
 11
563.5480067669791
 21
486.081502054523
 31
0.0
  0
LINE
  5
A94B
102
{ACAD_REACTORS
330
A9E8
102
}
330
2
100
AcDbEntity
  8
KIJUN
100
AcDbLine
 10
563.5480067669791
 20
486.081502054523
 30
0.0
 11
568.8092357669961
 21
485.2067260543079
 31
0.0
  0
LINE
  5
A94C
102
{ACAD_REACTORS
330
A9E8
102
}
330
2
100
AcDbEntity
  8
KIJUN
100
AcDbLine
 10
568.8092357669961
 20
485.2067260543079
 30
0.0
 11
573.7577907669633
 21
482.832461054455
 31
0.0
  0
LINE
  5
A94D
102
{ACAD_REACTORS
330
A9E8
102
}
330
2
100
AcDbEntity
  8
KIJUN
100
AcDbLine
 10
556.2547777667873
 20
509.828470054515
 30
0.0
 11
550.4508777669411
 21
512.7813470543588
 31
0.0
  0
LINE
  5
A94E
102
{ACAD_REACTORS
330
A9E8
102
}
330
2
100
AcDbEntity
  8
KIJUN
100
AcDbLine
 10
550.4508777669411
 20
512.7813470543588
 30
0.0
 11
543.1885097667995
 21
513.3736750543571
 31
0.0
  0
LINE
  5
A94F
102
{ACAD_REACTORS
330
A9E8
102
}
330
2
100
AcDbEntity
  8
KIJUN
100
AcDbLine
 10
543.1885097667995
 20
513.3736750543571
 30
0.0
 11
538.7912617668125
 21
509.3284710543478
 31
0.0
  0
LINE
  5
A950
102
{ACAD_REACTORS
330
A9E8
102
}
330
2
100
AcDbEntity
  8
KIJUN
100
AcDbLine
 10
538.2207777668095
 20
505.383470054538
 30
0.0
 11
545.1271647667977
 21
508.3965450544239
 31
0.0
  0
LINE
  5
A951
102
{ACAD_REACTORS
330
A9E8
102
}
330
2
100
AcDbEntity
  8
KIJUN
100
AcDbLine
 10
545.1271647667977
 20
508.3965450544239
 30
0.0
 11
551.4346197668573
 21
508.5771390543341
 31
0.0
  0
LINE
  5
A952
102
{ACAD_REACTORS
330
A9E8
102
}
330
2
100
AcDbEntity
  8
KIJUN
100
AcDbLine
 10
551.4346197668573
 20
508.5771390543341
 30
0.0
 11
557.3252607669578
 21
504.2590120543429
 31
0.0
  0
LINE
  5
A953
102
{ACAD_REACTORS
330
A9E8
102
}
330
2
100
AcDbEntity
  8
KIJUN
100
AcDbLine
 10
537.7127777669389
 20
517.067470054379
 30
0.0
 11
544.0938927669789
 21
519.631473054473
 31
0.0
  0
LINE
  5
A954
102
{ACAD_REACTORS
330
A9E8
102
}
330
2
100
AcDbEntity
  8
KIJUN
100
AcDbLine
 10
544.0938927669789
 20
519.631473054473
 30
0.0
 11
550.6313447668158
 21
520.2516140544209
 31
0.0
  0
LINE
  5
A955
102
{ACAD_REACTORS
330
A9E8
102
}
330
2
100
AcDbEntity
  8
KIJUN
100
AcDbLine
 10
550.6313447668158
 20
520.2516140544209
 30
0.0
 11
556.6997857668188
 21
518.0669600545328
 31
0.0
  0
LINE
  5
A956
102
{ACAD_REACTORS
330
A9E8
102
}
330
2
100
AcDbEntity
  8
KIJUN
100
AcDbLine
 10
587.4967777669162
 20
493.8264700544858
 30
0.0
 11
593.0619177667772
 21
497.9271730543441
 31
0.0
  0
LINE
  5
A957
102
{ACAD_REACTORS
330
A9E8
102
}
330
2
100
AcDbEntity
  8
KIJUN
100
AcDbLine
 10
593.0619177667772
 20
497.9271730543441
 30
0.0
 11
599.5906067668852
 21
499.4728900543808
 31
0.0
  0
LINE
  5
A958
102
{ACAD_REACTORS
330
A9E8
102
}
330
2
100
AcDbEntity
  8
KIJUN
100
AcDbLine
 10
599.5906067668852
 20
499.4728900543808
 30
0.0
 11
606.9527967668632
 21
498.824936054498
 31
0.0
  0
LINE
  5
A959
102
{ACAD_REACTORS
330
A9E8
102
}
330
2
100
AcDbEntity
  8
KIJUN
100
AcDbLine
 10
605.4762947669233
 20
484.4129760545001
 30
0.0
 11
605.4762947669233
 21
483.413486054331
 31
0.0
  0
LINE
  5
A95A
102
{ACAD_REACTORS
330
A9E8
102
}
330
2
100
AcDbEntity
  8
KIJUN
100
AcDbLine
 10
621.4057777668872
 20
492.1754700543861
 30
0.0
 11
615.6627107668473
 21
496.0540500543542
 31
0.0
  0
LINE
  5
A95B
102
{ACAD_REACTORS
330
A9E8
102
}
330
2
100
AcDbEntity
  8
KIJUN
100
AcDbLine
 10
615.6627107668473
 20
496.0540500543542
 30
0.0
 11
607.4974997669206
 21
498.460700054315
 31
0.0
  0
LINE
  5
A95C
102
{ACAD_REACTORS
330
A9E8
102
}
330
2
100
AcDbEntity
  8
KIJUN
100
AcDbLine
 10
607.4974997669206
 20
498.460700054315
 30
0.0
 11
601.3637807669965
 21
497.1739360543831
 31
0.0
  0
LINE
  5
A95D
102
{ACAD_REACTORS
330
A9E8
102
}
330
2
100
AcDbEntity
  8
KIJUN
100
AcDbLine
 10
622.9297777669721
 20
485.571470054423
 30
0.0
 11
618.584599766823
 21
489.1075310544072
 31
0.0
  0
LINE
  5
A95E
102
{ACAD_REACTORS
330
A9E8
102
}
330
2
100
AcDbEntity
  8
KIJUN
100
AcDbLine
 10
618.584599766823
 20
489.1075310544072
 30
0.0
 11
612.5463847668952
 21
491.2829140543871
 31
0.0
  0
LINE
  5
A95F
102
{ACAD_REACTORS
330
A9E8
102
}
330
2
100
AcDbEntity
  8
KIJUN
100
AcDbLine
 10
612.5463847668952
 20
491.2829140543871
 30
0.0
 11
607.5757317668403
 21
491.069935054362
 31
0.0
  0
LINE
  5
A960
102
{ACAD_REACTORS
330
A9E8
102
}
330
2
100
AcDbEntity
  8
KIJUN
100
AcDbLine
 10
589.5287777668645
 20
510.971470054512
 30
0.0
 11
595.2240927669131
 21
513.1236120544819
 31
0.0
  0
LINE
  5
A961
102
{ACAD_REACTORS
330
A9E8
102
}
330
2
100
AcDbEntity
  8
KIJUN
100
AcDbLine
 10
595.2240927669131
 20
513.1236120544819
 30
0.0
 11
601.4923047668498
 21
513.2762660544139
 31
0.0
  0
LINE
  5
A962
102
{ACAD_REACTORS
330
A9E8
102
}
330
2
100
AcDbEntity
  8
KIJUN
100
AcDbLine
 10
601.4923047668498
 20
513.2762660544139
 30
0.0
 11
607.5782717667689
 21
512.0959280544812
 31
0.0
  0
LINE
  5
A963
102
{ACAD_REACTORS
330
A9E8
102
}
330
2
100
AcDbEntity
  8
KIJUN
100
AcDbLine
 10
620.8977777667914
 20
504.2404700545338
 30
0.0
 11
613.5007897668051
 21
506.2814870545371
 31
0.0
  0
LINE
  5
A964
102
{ACAD_REACTORS
330
A9E8
102
}
330
2
100
AcDbEntity
  8
KIJUN
100
AcDbLine
 10
613.5007897668051
 20
506.2814870545371
 30
0.0
 11
606.8851057668226
 21
506.2399580543389
 31
0.0
  0
LINE
  5
A965
102
{ACAD_REACTORS
330
A9E8
102
}
330
2
100
AcDbEntity
  8
KIJUN
100
AcDbLine
 10
606.8851057668226
 20
506.2399580543389
 30
0.0
 11
599.8007917668883
 21
503.1160120543389
 31
0.0
  0
LINE
  5
A966
102
{ACAD_REACTORS
330
A9E8
102
}
330
2
100
AcDbEntity
  8
KIJUN
100
AcDbLine
 10
587.4967777669162
 20
502.7164700544489
 30
0.0
 11
608.0077857668738
 21
507.0899690544861
 31
0.0
  0
LINE
  5
A967
102
{ACAD_REACTORS
330
A9E8
102
}
330
2
100
AcDbEntity
  8
KIJUN
100
AcDbLine
 10
587.4967777669162
 20
515.9244700543752
 30
0.0
 11
592.4888937668452
 21
520.4555760543988
 31
0.0
  0
LINE
  5
A968
102
{ACAD_REACTORS
330
A9E8
102
}
330
2
100
AcDbEntity
  8
KIJUN
100
AcDbLine
 10
592.4888937668452
 20
520.4555760543988
 30
0.0
 11
600.1636307668241
 21
521.0989580543571
 31
0.0
  0
LINE
  5
A969
102
{ACAD_REACTORS
330
A9E8
102
}
330
2
100
AcDbEntity
  8
KIJUN
100
AcDbLine
 10
600.1636307668241
 20
521.0989580543571
 30
0.0
 11
606.9527967668632
 21
519.798478054417
 31
0.0
  0
LINE
  5
A96A
102
{ACAD_REACTORS
330
A9E8
102
}
330
2
100
AcDbEntity
  8
KIJUN
100
AcDbLine
 10
587.6777527669633
 20
520.786919054528
 30
0.0
 11
587.6777527669633
 21
518.6629710544041
 31
0.0
  0
LINE
  5
A96B
102
{ACAD_REACTORS
330
A9E8
102
}
330
2
100
AcDbEntity
  8
KIJUN
100
AcDbLine
 10
621.4057777668872
 20
514.2734700545011
 30
0.0
 11
616.1271497669886
 21
516.9764110545043
 31
0.0
  0
LINE
  5
A96C
102
{ACAD_REACTORS
330
A9E8
102
}
330
2
100
AcDbEntity
  8
KIJUN
100
AcDbLine
 10
616.1271497669886
 20
516.9764110545043
 30
0.0
 11
610.7443817669491
 21
517.7353630543178
 31
0.0
  0
LINE
  5
A96D
102
{ACAD_REACTORS
330
A9E8
102
}
330
2
100
AcDbEntity
  8
KIJUN
100
AcDbLine
 10
610.7443817669491
 20
517.7353630543178
 30
0.0
 11
605.4657537668254
 21
515.2729600544299
 31
0.0
  0
LINE
  5
A96E
102
{ACAD_REACTORS
330
A9E8
102
}
330
2
100
AcDbEntity
  8
KIJUN
100
AcDbLine
 10
516.1227777669278
 20
524.687470054308
 30
0.0
 11
513.5486147668502
 21
524.55780305454
 31
0.0
  0
LINE
  5
A96F
102
{ACAD_REACTORS
330
A9E8
102
}
330
2
100
AcDbEntity
  8
KIJUN
100
AcDbLine
 10
513.5486147668502
 20
524.55780305454
 30
0.0
 11
511.0004867668189
 21
524.3171380543831
 31
0.0
  0
LINE
  5
A970
102
{ACAD_REACTORS
330
A9E8
102
}
330
2
100
AcDbEntity
  8
KIJUN
100
AcDbLine
 10
511.0004867668189
 20
524.3171380543831
 30
0.0
 11
508.5043017668153
 21
524.1874710543739
 31
0.0
  0
LINE
  5
A973
102
{ACAD_REACTORS
330
A9E8
102
}
330
2
100
AcDbEntity
  8
KIJUN
100
AcDbLine
 10
546.0663297668665
 20
524.7670990544678
 30
0.0
 11
541.8382457668571
 21
523.0729190545349
 31
0.0
  0
LINE
  5
A974
102
{ACAD_REACTORS
330
A9E8
102
}
330
2
100
AcDbEntity
  8
KIJUN
100
AcDbLine
 10
590.036777766968
 20
524.1794700544381
 30
0.0
 11
601.8743207668094
 21
524.1794700544381
 31
0.0
  0
LINE
  5
A976
102
{ACAD_REACTORS
330
A9E8
102
}
330
2
100
AcDbEntity
  8
KIJUN
100
AcDbLine
 10
617.0694897669832
 20
523.671597054377
 30
0.0
 11
611.6390967669872
 21
524.092856054453
 31
0.0
  0
LINE
  5
A977
102
{ACAD_REACTORS
330
A9E8
102
}
330
2
100
AcDbEntity
  8
KIJUN
100
AcDbLine
 10
611.6390967669872
 20
524.092856054453
 30
0.0
 11
608.0057537668771
 21
524.1529270544601
 31
0.0
  0
LINE
  5
A978
102
{ACAD_REACTORS
330
A9E8
102
}
330
2
100
AcDbEntity
  8
KIJUN
100
AcDbLine
 10
657.6887887668645
 20
365.4294700544383
 30
0.0
 11
467.6887887668644
 21
365.4294700544381
 31
0.0
  0
LINE
  5
A979
102
{ACAD_REACTORS
330
A9E8
102
}
330
2
100
AcDbEntity
  8
KIJUN
100
AcDbLine
 10
657.6887887668645
 20
378.2125280544174
 30
0.0
 11
657.6887887668645
 21
365.4294700544383
 31
0.0
  0
LINE
  5
A97A
102
{ACAD_REACTORS
330
A9E7
102
}
330
2
100
AcDbEntity
  8
KIJUN
100
AcDbLine
 10
155.5346125482379
 20
365.4294700544383
 30
0.0
 11
97.19485204896058
 21
365.4294700544383
 31
0.0
  0
DIMENSION
  5
A97B
330
2
100
AcDbEntity
  8
SUNPOU
100
AcDbDimension
  2
*D6
 10
467.6887887668644
 20
213.6300036757302
 30
0.0
 11
562.6887887668645
 21
233.6300036757302
 31
0.0
 70
    32
 71
     5
 42
190.0
  3
STANDARD$0
100
AcDbAlignedDimension
 13
657.6887887668645
 23
365.4294700544383
 33
0.0
 14
467.6887887668644
 24
365.4294700544381
 34
0.0
100
AcDbRotatedDimension
1001
ACAD
1000
DSTYLE
1002
{
1070
    41
1040
3.0
1070
    42
1040
3.0
1070
    44
1040
0.0
1070
    77
1070
     1
1070
   140
1040
10.0
1070
   146
1040
0.064286
1070
   147
1040
5.0
1070
   176
1070
    60
1070
   177
1070
    70
1070
   178
1070
    60
1070
   271
1070
     0
1070
   272
1070
     0
1070
   340
1005
1C
1070
   342
1005
109
1002
}
  0
LINE
  5
A988
102
{ACAD_REACTORS
330
A9E8
102
}
330
2
100
AcDbEntity
  8
KIJUN
100
AcDbLine
 10
467.6887887668645
 20
378.2125280544174
 30
0.0
 11
467.6887887668644
 21
365.4294700544381
 31
0.0
  0
LINE
  5
A999
102
{ACAD_REACTORS
330
A9E8
102
}
330
2
100
AcDbEntity
  8
KIJUN
100
AcDbLine
 10
621.9137777669904
 20
525.4294700544383
 30
0.0
 11
501.5177777669537
 21
525.4294700544382
 31
0.0
  0
DIMENSION
  5
A99A
330
2
100
AcDbEntity
  8
SUNPOU
100
AcDbDimension
  2
*D7
 10
364.2610137537758
 20
525.4294700544382
 30
0.0
 11
344.2610137537757
 21
445.4294700544383
 31
0.0
 70
    32
 71
     5
 42
160.0
  3
STANDARD$0
100
AcDbAlignedDimension
 13
467.6887887668644
 23
365.4294700544381
 33
0.0
 14
501.5177777669537
 24
525.4294700544382
 34
0.0
 50
90.0
100
AcDbRotatedDimension
1001
ACAD
1000
DSTYLE
1002
{
1070
    41
1040
3.0
1070
    42
1040
3.0
1070
    44
1040
0.0
1070
    77
1070
     1
1070
   140
1040
10.0
1070
   146
1040
0.064286
1070
   147
1040
5.0
1070
   176
1070
    60
1070
   177
1070
    70
1070
   178
1070
    60
1070
   271
1070
     0
1070
   272
1070
     0
1070
   340
1005
1C
1070
   342
1005
109
1002
}
  0
LINE
  5
A9A7
102
{ACAD_REACTORS
330
A9E7
102
}
330
2
100
AcDbEntity
  8
KIJUN
100
AcDbLine
 10
23.45437706757047
 20
365.4294700544382
 30
0.0
 11
-34.46538745176213
 21
365.4294700544383
 31
0.0
  0
LINE
  5
A9A8
102
{ACAD_REACTORS
330
A9E7
102
}
330
2
100
AcDbEntity
  8
KIJUN
100
AcDbLine
 10
123.1307920489127
 20
525.4294700544383
 30
0.0
 11
-6.545562932285519
 21
525.4294700544383
 31
0.0
  0
DIMENSION
  5
A9C3
330
2
100
AcDbEntity
  8
SUNPOU
100
AcDbDimension
  2
*D9
 10
155.5346125482379
 20
214.1382253623624
 30
0.0
 11
60.53461254823789
 21
234.1382253623624
 31
0.0
 70
    32
 71
     5
 42
190.0
  3
STANDARD$0
100
AcDbAlignedDimension
 13
-34.46538745176213
 23
365.4294700544383
 33
0.0
 14
155.5346125482379
 24
365.4294700544383
 34
0.0
100
AcDbRotatedDimension
1001
ACAD
1000
DSTYLE
1002
{
1070
    41
1040
3.0
1070
    42
1040
3.0
1070
    44
1040
0.0
1070
    77
1070
     1
1070
   140
1040
10.0
1070
   146
1040
0.064286
1070
   147
1040
5.0
1070
   176
1070
    60
1070
   177
1070
    70
1070
   178
1070
    60
1070
   271
1070
     0
1070
   272
1070
     0
1070
   340
1005
1C
1070
   342
1005
109
1002
}
  0
DIMENSION
  5
A9DA
330
2
100
AcDbEntity
  8
SUNPOU
100
AcDbDimension
  2
*D10
 10
-123.9109663358176
 20
525.4294700544383
 30
0.0
 11
-143.9109663358177
 21
445.4294700544383
 31
0.0
 70
    32
 71
     5
 42
160.0
  3
STANDARD$0
100
AcDbAlignedDimension
 13
-34.46538745176213
 23
365.4294700544383
 33
0.0
 14
-6.545562932285519
 24
525.4294700544383
 34
0.0
 50
90.0
100
AcDbRotatedDimension
1001
ACAD
1000
DSTYLE
1002
{
1070
    41
1040
3.0
1070
    42
1040
3.0
1070
    44
1040
0.0
1070
    77
1070
     1
1070
   140
1040
10.0
1070
   146
1040
0.064286
1070
   147
1040
5.0
1070
   176
1070
    60
1070
   177
1070
    70
1070
   178
1070
    60
1070
   271
1070
     0
1070
   272
1070
     0
1070
   340
1005
1C
1070
   342
1005
109
1002
}
  0
TEXT
  5
AA1D
330
2
100
AcDbEntity
  8
HOJO
100
AcDbText
 10
5.949284688457225
 20
-35.04707784162395
 30
0.0
 40
20.0
  1
※ 形状・寸法は製品特性や、生産ロットにより誤差があるものがあります。
  7
SUNPOU
100
AcDbText
  0
ENDSEC
  0
SECTION
  2
OBJECTS
  0
DICTIONARY
  5
1A
330
0
100
AcDbDictionary
281
     1
  3
ACAD_COLOR
350
AA10
  3
ACAD_GROUP
350
18
  3
ACAD_LAYOUT
350
58
  3
ACAD_MATERIAL
350
AA0F
  3
ACAD_MLINESTYLE
350
19
  3
ACAD_PLOTSETTINGS
350
59
  3
ACAD_PLOTSTYLENAME
350
56
  3
ACAD_TABLESTYLE
350
AA11
  3
ACDBHEADERROUNDTRIPXREC
350
AA2D
  3
AcDbVariableDictionary
350
AA28
  0
DICTIONARY
  5
AA10
102
{ACAD_REACTORS
330
1A
102
}
330
1A
100
AcDbDictionary
281
     1
  0
DICTIONARY
  5
18
102
{ACAD_REACTORS
330
1A
102
}
330
1A
100
AcDbDictionary
281
     1
  3
*A1
350
3A0
  3
*A10
350
3A1
  3
*A11
350
ACC
  3
*A12
350
5DF8
  3
*A13
350
2120
  3
*A14
350
2765
  3
*A15
350
2766
  3
*A16
350
54B2
  3
*A17
350
595A
  3
*A18
350
A9E7
  3
*A19
350
A9E8
  3
*A2
350
6398
  3
*A20
350
795A
  3
*A21
350
2FC6
  3
*A22
350
795C
  3
*A23
350
8936
  3
*A24
350
8937
  3
*A25
350
A3E9
  3
*A26
350
A3EA
  3
*A3
350
2FC7
  3
*A4
350
46A2
  3
*A5
350
38D5
  3
*A6
350
46AB
  3
*A7
350
4FAD
  3
*A8
350
4FAE
  3
*A9
350
38D6
  0
DICTIONARY
  5
58
102
{ACAD_REACTORS
330
1A
102
}
330
1A
100
AcDbDictionary
281
     1
  3
Model
350
5A
  3
ﾚｲｱｳﾄ1
350
5B
  0
DICTIONARY
  5
AA0F
102
{ACAD_REACTORS
330
1A
102
}
330
1A
100
AcDbDictionary
281
     1
  0
DICTIONARY
  5
19
102
{ACAD_REACTORS
330
1A
102
}
330
1A
100
AcDbDictionary
281
     1
  3
STANDARD
350
1D
  0
DICTIONARY
  5
59
102
{ACAD_REACTORS
330
1A
102
}
330
1A
100
AcDbDictionary
281
     1
  0
ACDBDICTIONARYWDFLT
  5
56
102
{ACAD_REACTORS
330
1A
102
}
330
1A
100
AcDbDictionary
281
     1
  3
Normal
350
57
100
AcDbDictionaryWithDefault
340
57
  0
DICTIONARY
  5
AA11
102
{ACAD_REACTORS
330
1A
102
}
330
1A
100
AcDbDictionary
281
     1
  3
Standard
350
AA12
  0
DICTIONARY
  5
AA2D
102
{ACAD_REACTORS
330
1A
102
}
330
1A
100
AcDbDictionary
281
     1
  0
DICTIONARY
  5
AA28
102
{ACAD_REACTORS
330
1A
102
}
330
1A
100
AcDbDictionary
281
     1
  3
CTABLESTYLE
350
AA29
  3
DIMASSOC
350
AA2A
  3
PROJECTNAME
350
AA2B
  0
GROUP
  5
3A0
102
{ACAD_REACTORS
330
18
102
}
330
18
100
AcDbGroup
300

 70
     1
 71
     1
  0
GROUP
  5
3A1
102
{ACAD_REACTORS
330
18
102
}
330
18
100
AcDbGroup
300

 70
     1
 71
     1
  0
GROUP
  5
ACC
102
{ACAD_REACTORS
330
18
102
}
330
18
100
AcDbGroup
300

 70
     1
 71
     1
  0
GROUP
  5
5DF8
102
{ACAD_REACTORS
330
18
102
}
330
18
100
AcDbGroup
300

 70
     1
 71
     1
  0
GROUP
  5
2120
102
{ACAD_REACTORS
330
18
102
}
330
18
100
AcDbGroup
300

 70
     1
 71
     1
  0
GROUP
  5
2765
102
{ACAD_REACTORS
330
18
102
}
330
18
100
AcDbGroup
300

 70
     1
 71
     1
  0
GROUP
  5
2766
102
{ACAD_REACTORS
330
18
102
}
330
18
100
AcDbGroup
300

 70
     1
 71
     1
  0
GROUP
  5
54B2
102
{ACAD_REACTORS
330
18
102
}
330
18
100
AcDbGroup
300

 70
     1
 71
     1
  0
GROUP
  5
595A
102
{ACAD_REACTORS
330
18
102
}
330
18
100
AcDbGroup
300

 70
     1
 71
     1
  0
GROUP
  5
A9E7
102
{ACAD_REACTORS
330
18
102
}
330
18
100
AcDbGroup
300

 70
     1
 71
     1
340
A6A6
340
A6A5
340
A6A1
340
A6A0
340
A69A
340
A685
340
A67F
340
A66A
340
A9A7
340
A6D1
340
A6D0
340
A6CE
340
A6C7
340
A6C1
340
A6BC
340
A6B8
340
A6B4
340
A6B0
340
A6AC
340
A6A9
340
A692
340
A688
340
A6D4
340
A68B
340
A690
340
A6C3
340
A6BA
340
A6C2
340
A6B9
340
A6C4
340
A6C6
340
A6C5
340
A6BB
340
A691
340
A6D8
340
A6D7
340
A68D
340
A68F
340
A68E
340
A6D9
340
A6B3
340
A6B2
340
A6AF
340
A68C
340
A6DC
340
A6DB
340
A6DA
340
A6D6
340
A6D5
340
A689
340
A6DF
340
A6DE
340
A6DD
340
A68A
340
A6E2
340
A6D3
340
A6CF
340
A697
340
A67C
340
A670
340
A694
340
A6CB
340
A6BE
340
A6C0
340
A6BF
340
A6CC
340
A6C9
340
A6C8
340
A6BD
340
A693
340
A6CA
340
A704
340
A6FC
340
A706
340
A6FB
340
A705
340
A6FF
340
A6FE
340
A6FD
340
A703
340
A702
340
A701
340
A700
340
A709
340
A696
340
A710
340
A70F
340
A70E
340
A70D
340
A70C
340
A70B
340
A70A
340
A6B1
340
A695
340
A6B5
340
A713
340
A712
340
A711
340
A708
340
A707
340
A6B7
340
A6B6
340
A679
340
A675
340
A97A
340
A71C
340
A717
340
A6F3
340
A677
340
A719
340
A6F8
340
A6F9
340
A71B
340
A71A
340
A6F6
340
A6F7
340
A718
340
A6F5
340
A6F4
340
A678
340
A715
340
A6F0
340
A714
340
A6EF
340
A6F1
340
A716
340
A6F2
340
A676
340
A721
340
A6E8
340
A6EB
340
A67B
340
A67A
340
A720
340
A6E7
340
A6E6
340
A6EC
340
A6E4
340
A6E3
340
A6EE
340
A6ED
340
A6EA
340
A6E9
340
A6E5
340
A71F
340
A71E
340
A672
340
A673
340
A725
340
A724
340
A723
340
A722
340
A71D
340
A674
340
A729
340
A671
340
A72B
340
A72A
340
A728
340
A727
340
A726
340
A756
340
A754
340
A699
340
A687
340
A75D
340
A75B
340
A75A
340
A6AD
340
A698
340
A75E
340
A760
340
A75F
340
A6D2
340
A6AE
340
A762
340
A75C
340
A766
340
A765
340
A764
340
A763
340
A759
340
A758
340
A757
340
A6AB
340
A6AA
340
A761
340
A76B
340
A769
340
A686
340
A76E
340
A753
340
A778
340
A777
340
A776
340
A775
340
A774
340
A773
340
A772
340
A771
340
A770
340
A76F
340
A76C
340
A755
340
A76D
340
A752
340
A77D
340
A77A
340
A787
340
A786
340
A785
340
A784
340
A783
340
A782
340
A781
340
A780
340
A77F
340
A77E
340
A77B
340
A76A
340
A768
340
A767
340
A6A2
340
A77C
340
A779
340
A74F
340
A67E
340
A66C
340
A78B
340
A789
340
A66E
340
A74E
340
A74D
340
A67D
340
A74A
340
A747
340
A74C
340
A749
340
A746
340
A78D
340
A78C
340
A78A
340
A74B
340
A748
340
A744
340
A741
340
A743
340
A740
340
A793
340
A792
340
A791
340
A790
340
A78F
340
A78E
340
A745
340
A742
340
A66D
340
A788
340
A6E1
340
A6E0
340
A66F
340
A736
340
A735
340
A66B
340
A733
340
A734
340
A732
340
A731
340
A796
340
A795
340
A794
340
A751
340
A750
340
A739
340
A738
340
A737
340
A730
340
A73C
340
A72F
340
A72D
340
A72C
340
A73F
340
A73E
340
A73D
340
A73B
340
A73A
340
A72E
340
A9A8
340
A6A4
340
A6A3
340
A6A7
340
A6A8
  0
GROUP
  5
A9E8
102
{ACAD_REACTORS
330
18
102
}
330
18
100
AcDbGroup
300

 70
     1
 71
     1
340
A7F2
340
A7EF
340
A7EB
340
A7D6
340
A7D4
340
A7B8
340
A7B6
340
A7A1
340
A978
340
A823
340
A81D
340
A810
340
A80C
340
A80A
340
A807
340
A802
340
A7FF
340
A7FC
340
A7F9
340
A7F6
340
A7F3
340
A7E6
340
A7C5
340
A7BF
340
A834
340
A832
340
A830
340
A7DC
340
A83A
340
A838
340
A7E5
340
A7E1
340
A7C4
340
A845
340
A83E
340
A819
340
A7E2
340
A816
340
A988
340
A83D
340
A818
340
A817
340
A842
340
A844
340
A843
340
A822
340
A821
340
A81A
340
A7E4
340
A841
340
A840
340
A83F
340
A7E3
340
A839
340
A81C
340
A81B
340
A84D
340
A849
340
A848
340
A835
340
A7DE
340
A84C
340
A847
340
A846
340
A7E0
340
A7DF
340
A84B
340
A84A
340
A7DD
340
A84F
340
A836
340
A80D
340
A7C1
340
A857
340
A853
340
A858
340
A852
340
A851
340
A850
340
A84E
340
A83C
340
A83B
340
A85B
340
A85A
340
A859
340
A856
340
A855
340
A854
340
A837
340
A7C3
340
A7C2
340
A861
340
A85D
340
A862
340
A85E
340
A833
340
A860
340
A85F
340
A85C
340
A7C0
340
A863
340
A804
340
A7D8
340
A7DB
340
A86A
340
A867
340
A7D9
340
A86E
340
A871
340
A870
340
A86F
340
A831
340
A82F
340
A82E
340
A7DA
340
A86D
340
A86C
340
A86B
340
A868
340
A801
340
A800
340
A876
340
A874
340
A875
340
A873
340
A872
340
A866
340
A877
340
A869
340
A865
340
A864
340
A7FE
340
A7FD
340
A87B
340
A87A
340
A7D7
340
A885
340
A882
340
A87F
340
A884
340
A881
340
A87E
340
A889
340
A888
340
A887
340
A886
340
A883
340
A880
340
A87D
340
A87C
340
A803
340
A7FB
340
A7FA
340
A88E
340
A88B
340
A879
340
A88D
340
A88A
340
A878
340
A895
340
A894
340
A893
340
A892
340
A891
340
A890
340
A88F
340
A88C
340
A7F8
340
A7F7
340
A7F5
340
A7F4
340
A89D
340
A89B
340
A898
340
A896
340
A7E8
340
A7D0
340
A7B3
340
A7A7
340
A8B9
340
A8B3
340
A8AF
340
A8A8
340
A8A4
340
A8A1
340
A7AE
340
A8CB
340
A8C8
340
A8C3
340
A8C2
340
A8C0
340
A7CC
340
A7B0
340
A8D6
340
A8D4
340
A828
340
A7C9
340
A8D3
340
A8D0
340
A81E
340
A8CF
340
A8CE
340
A81F
340
A826
340
A7C7
340
A825
340
A824
340
A7C6
340
A8D2
340
A8D1
340
A8C1
340
A827
340
A7C8
340
A8BD
340
A8B0
340
A82A
340
A8D5
340
A8BE
340
A82C
340
A82B
340
A8B2
340
A8B1
340
A8BB
340
A8BC
340
A829
340
A7CB
340
A7CA
340
A8BA
340
A7AF
340
A8DF
340
A8DC
340
A8D9
340
A8CD
340
A8C9
340
A7E7
340
A8E0
340
A809
340
A808
340
A806
340
A805
340
A8E2
340
A8E1
340
A8CA
340
A80F
340
A80E
340
A80B
340
A8E3
340
A8DB
340
A8DA
340
A8D8
340
A8D7
340
A8A7
340
A8A5
340
A7CE
340
A7B2
340
A8E6
340
A8E5
340
A8E4
340
A8CC
340
A7CD
340
A7B1
340
A8A3
340
A8A2
340
A8E8
340
A89F
340
A8E7
340
A8DE
340
A8DD
340
A89C
340
A7CF
340
A8E9
340
A8A6
340
A8A0
340
A7AC
340
A8B5
340
A8AC
340
A8AB
340
A979
340
A8B7
340
A8B8
340
A8AE
340
A8AD
340
A7AD
340
A8B6
340
A7A9
340
A8EB
340
A8EF
340
A8EE
340
A8ED
340
A8EC
340
A8AA
340
A8A9
340
A8EA
340
A7AB
340
A7AA
340
A8F3
340
A8F1
340
A8F5
340
A8F4
340
A8F2
340
A8F0
340
A7A8
340
A902
340
A900
340
A8FC
340
A8F9
340
A8F6
340
A7A3
340
A908
340
A907
340
A903
340
A7EA
340
A7D3
340
A7BB
340
A7B5
340
A916
340
A912
340
A90F
340
A90C
340
A7E9
340
A7BD
340
A91C
340
A917
340
A899
340
A91B
340
A91A
340
A89A
340
A7BE
340
A919
340
A918
340
A915
340
A914
340
A913
340
A89E
340
A91F
340
A922
340
A921
340
A920
340
A91E
340
A91D
340
A7BC
340
A90E
340
A90B
340
A7D2
340
A7B4
340
A92A
340
A927
340
A924
340
A929
340
A926
340
A923
340
A911
340
A7D1
340
A92B
340
A928
340
A925
340
A901
340
A8FB
340
A8FA
340
A930
340
A92D
340
A92F
340
A92C
340
A910
340
A90D
340
A931
340
A92E
340
A8FE
340
A8FD
340
A8F8
340
A8F7
340
A93D
340
A939
340
A936
340
A934
340
A7B9
340
A940
340
A946
340
A945
340
A944
340
A943
340
A942
340
A941
340
A93F
340
A93E
340
A906
340
A905
340
A7BA
340
A94C
340
A94B
340
A94A
340
A949
340
A948
340
A947
340
A938
340
A955
340
A952
340
A94D
340
A954
340
A953
340
A951
340
A950
340
A94F
340
A94E
340
A93C
340
A93B
340
A935
340
A933
340
A932
340
A7A2
340
A958
340
A90A
340
A957
340
A956
340
A93A
340
A909
340
A95F
340
A95E
340
A95D
340
A95C
340
A95B
340
A95A
340
A959
340
A904
340
A969
340
A966
340
A965
340
A961
340
A96A
340
A968
340
A967
340
A960
340
A937
340
A96D
340
A96C
340
A96B
340
A964
340
A963
340
A962
340
A7A5
340
A8FF
340
A897
340
A7A6
340
A7A4
340
A999
340
A970
340
A96F
340
A96E
340
A7F1
340
A973
340
A7F0
340
A974
340
A977
340
A976
  0
GROUP
  5
6398
102
{ACAD_REACTORS
330
18
102
}
330
18
100
AcDbGroup
300

 70
     1
 71
     1
  0
GROUP
  5
795A
102
{ACAD_REACTORS
330
18
102
}
330
18
100
AcDbGroup
300

 70
     1
 71
     1
  0
GROUP
  5
2FC6
102
{ACAD_REACTORS
330
18
102
}
330
18
100
AcDbGroup
300

 70
     1
 71
     1
  0
GROUP
  5
795C
102
{ACAD_REACTORS
330
18
102
}
330
18
100
AcDbGroup
300

 70
     1
 71
     1
  0
GROUP
  5
8936
102
{ACAD_REACTORS
330
18
102
}
330
18
100
AcDbGroup
300

 70
     1
 71
     1
  0
GROUP
  5
8937
102
{ACAD_REACTORS
330
18
102
}
330
18
100
AcDbGroup
300

 70
     1
 71
     1
  0
GROUP
  5
A3E9
102
{ACAD_REACTORS
330
18
102
}
330
18
100
AcDbGroup
300

 70
     1
 71
     1
  0
GROUP
  5
A3EA
102
{ACAD_REACTORS
330
18
102
}
330
18
100
AcDbGroup
300

 70
     1
 71
     1
  0
GROUP
  5
2FC7
102
{ACAD_REACTORS
330
18
102
}
330
18
100
AcDbGroup
300

 70
     1
 71
     1
  0
GROUP
  5
46A2
102
{ACAD_REACTORS
330
18
102
}
330
18
100
AcDbGroup
300

 70
     1
 71
     1
  0
GROUP
  5
38D5
102
{ACAD_REACTORS
330
18
102
}
330
18
100
AcDbGroup
300

 70
     1
 71
     1
  0
GROUP
  5
46AB
102
{ACAD_REACTORS
330
18
102
}
330
18
100
AcDbGroup
300

 70
     1
 71
     1
  0
GROUP
  5
4FAD
102
{ACAD_REACTORS
330
18
102
}
330
18
100
AcDbGroup
300

 70
     1
 71
     1
  0
GROUP
  5
4FAE
102
{ACAD_REACTORS
330
18
102
}
330
18
100
AcDbGroup
300

 70
     1
 71
     1
  0
GROUP
  5
38D6
102
{ACAD_REACTORS
330
18
102
}
330
18
100
AcDbGroup
300

 70
     1
 71
     1
  0
LAYOUT
  5
5A
102
{ACAD_XDICTIONARY
360
AA2E
102
}
102
{ACAD_REACTORS
330
58
102
}
330
58
100
AcDbPlotSettings
  1

  2
なし
  4

  6

 40
0.0
 41
0.0
 42
0.0
 43
0.0
 44
0.0
 45
0.0
 46
0.0
 47
0.0
 48
0.0
 49
0.0
140
0.0
141
0.0
142
1.0
143
1.0
 70
  1712
 72
     0
 73
     0
 74
     0
  7
monochrome.ctb
 75
     0
147
1.0
148
0.0
149
0.0
100
AcDbLayout
  1
Model
 70
     1
 71
     0
 10
0.0
 20
0.0
 11
12.0
 21
9.0
 12
0.0
 22
0.0
 32
0.0
 14
0.0
 24
0.0
 34
0.0
 15
0.0
 25
0.0
 35
0.0
146
0.0
 13
0.0
 23
0.0
 33
0.0
 16
1.0
 26
0.0
 36
0.0
 17
0.0
 27
1.0
 37
0.0
 76
     0
330
2
  0
LAYOUT
  5
5B
102
{ACAD_XDICTIONARY
360
AA30
102
}
102
{ACAD_REACTORS
330
58
102
}
330
58
100
AcDbPlotSettings
  1

  2
なし
  4

  6

 40
0.0
 41
0.0
 42
0.0
 43
0.0
 44
0.0
 45
0.0
 46
0.0
 47
0.0
 48
0.0
 49
0.0
140
0.0
141
0.0
142
1.0
143
1.0
 70
   688
 72
     0
 73
     0
 74
     5
  7
monochrome.ctb
 75
    16
147
1.0
148
0.0
149
0.0
100
AcDbLayout
  1
ﾚｲｱｳﾄ1
 70
     1
 71
     1
 10
0.0
 20
0.0
 11
12.0
 21
9.0
 12
0.0
 22
0.0
 32
0.0
 14
1.000000000000000E+20
 24
1.000000000000000E+20
 34
1.000000000000000E+20
 15
-1.000000000000000E+20
 25
-1.000000000000000E+20
 35
-1.000000000000000E+20
146
0.0
 13
0.0
 23
0.0
 33
0.0
 16
1.0
 26
0.0
 36
0.0
 17
0.0
 27
1.0
 37
0.0
 76
     0
330
7
  0
MLINESTYLE
  5
1D
102
{ACAD_REACTORS
330
19
102
}
330
19
100
AcDbMlineStyle
  2
STANDARD
 70
     0
  3

 62
   256
 51
90.0
 52
90.0
 71
     2
 49
0.5
 62
   256
  6
BYLAYER
 49
-0.5
 62
   256
  6
BYLAYER
  0
ACDBPLACEHOLDER
  5
57
102
{ACAD_REACTORS
330
56
102
}
330
56
  0
TABLESTYLE
  5
AA12
102
{ACAD_REACTORS
330
AA11
102
}
330
AA11
100
AcDbTableStyle
  3
Standard
 70
     0
 71
     0
 40
0.06
 41
0.06
280
     0
281
     0
  7
STANDARD
140
0.18
170
     2
 62
     0
 63
     7
283
     0
274
    -2
284
     1
 64
     0
275
    -2
285
     1
 65
     0
276
    -2
286
     1
 66
     0
277
    -2
287
     1
 67
     0
278
    -2
288
     1
 68
     0
279
    -2
289
     1
 69
     0
  7
STANDARD
140
0.25
170
     5
 62
     0
 63
     7
283
     0
274
    -2
284
     1
 64
     0
275
    -2
285
     1
 65
     0
276
    -2
286
     1
 66
     0
277
    -2
287
     1
 67
     0
278
    -2
288
     1
 68
     0
279
    -2
289
     1
 69
     0
  7
STANDARD
140
0.18
170
     5
 62
     0
 63
     7
283
     0
274
    -2
284
     1
 64
     0
275
    -2
285
     1
 65
     0
276
    -2
286
     1
 66
     0
277
    -2
287
     1
 67
     0
278
    -2
288
     1
 68
     0
279
    -2
289
     1
 69
     0
  0
DICTIONARYVAR
  5
AA29
102
{ACAD_REACTORS
330
AA28
102
}
330
AA28
100
DictionaryVariables
280
     0
  1
STANDARD
  0
DICTIONARYVAR
  5
AA2A
102
{ACAD_REACTORS
330
AA28
102
}
330
AA28
100
DictionaryVariables
280
     0
  1
1
  0
DICTIONARYVAR
  5
AA2B
102
{ACAD_REACTORS
330
AA28
102
}
330
AA28
100
DictionaryVariables
280
     0
  1

  0
DICTIONARY
  5
AA2E
330
5A
100
AcDbDictionary
280
     1
281
     1
  3
ACAD_XREC_ROUNDTRIP
360
AA2F
  0
DICTIONARY
  5
AA30
330
5B
100
AcDbDictionary
280
     1
281
     1
  3
ACAD_XREC_ROUNDTRIP
360
AA31
  0
XRECORD
  5
AA2F
102
{ACAD_REACTORS
330
AA2E
102
}
330
AA2E
100
AcDbXrecord
280
     1
102
SHADEPLOT
 70
     0
102
SHADEPLOTRESLEVEL
 70
     2
102
SHADEPLOTCUSTOMDPI
 70
   300
  0
XRECORD
  5
AA31
102
{ACAD_REACTORS
330
AA30
102
}
330
AA30
100
AcDbXrecord
280
     1
102
SHADEPLOT
 70
     0
102
SHADEPLOTRESLEVEL
 70
     2
102
SHADEPLOTCUSTOMDPI
 70
   300
  0
ENDSEC
  0
EOF
