  0
SECTION
  2
HEADER
  9
$ACADVER
  1
AC1015
  9
$ACADMAINTVER
 70
    10
  9
$DWGCODEPAGE
  3
ANSI_932
  9
$INSBASE
 10
922.019522
 20
-675.4306699999999
 30
0.0
  9
$EXTMIN
 10
-0.0632119473275452
 20
-0.0478777257812908
 30
-0.0015258207003583
  9
$EXTMAX
 10
610.6880270971194
 20
1270.125397639361
 30
0.0000000349246037
  9
$LIMMIN
 10
0.0
 20
0.0
  9
$LIMMAX
 10
420.0
 20
297.0
  9
$ORTHOMODE
 70
     0
  9
$REGENMODE
 70
     1
  9
$FILLMODE
 70
     1
  9
$QTEXTMODE
 70
     0
  9
$MIRRTEXT
 70
     1
  9
$LTSCALE
 40
50.0
  9
$ATTMODE
 70
     1
  9
$TEXTSIZE
 40
30.0
  9
$TRACEWID
 40
0.05
  9
$TEXTSTYLE
  7
SUNPOU
  9
$CLAYER
  8
0
  9
$CELTYPE
  6
BYLAYER
  9
$CECOLOR
 62
   256
  9
$CELTSCALE
 40
1.0
  9
$DISPSILH
 70
     0
  9
$DIMSCALE
 40
1.0
  9
$DIMASZ
 40
3.0
  9
$DIMEXO
 40
3.0
  9
$DIMDLI
 40
0.38
  9
$DIMRND
 40
0.0
  9
$DIMDLE
 40
0.0
  9
$DIMEXE
 40
0.0
  9
$DIMTP
 40
0.0
  9
$DIMTM
 40
0.0
  9
$DIMTXT
 40
10.0
  9
$DIMCEN
 40
0.0
  9
$DIMTSZ
 40
0.0
  9
$DIMTOL
 70
     0
  9
$DIMLIM
 70
     0
  9
$DIMTIH
 70
     0
  9
$DIMTOH
 70
     0
  9
$DIMSE1
 70
     0
  9
$DIMSE2
 70
     0
  9
$DIMTAD
 70
     1
  9
$DIMZIN
 70
     0
  9
$DIMBLK
  1
Dot
  9
$DIMASO
 70
     1
  9
$DIMSHO
 70
     1
  9
$DIMPOST
  1

  9
$DIMAPOST
  1

  9
$DIMALT
 70
     0
  9
$DIMALTD
 70
     2
  9
$DIMALTF
 40
25.4
  9
$DIMLFAC
 40
1.0
  9
$DIMTOFL
 70
     0
  9
$DIMTVP
 40
0.0
  9
$DIMTIX
 70
     0
  9
$DIMSOXD
 70
     0
  9
$DIMSAH
 70
     0
  9
$DIMBLK1
  1

  9
$DIMBLK2
  1

  9
$DIMSTYLE
  2
STANDARD
  9
$DIMCLRD
 70
    60
  9
$DIMCLRE
 70
    70
  9
$DIMCLRT
 70
    60
  9
$DIMTFAC
 40
0.064286
  9
$DIMGAP
 40
5.0
  9
$DIMJUST
 70
     0
  9
$DIMSD1
 70
     0
  9
$DIMSD2
 70
     0
  9
$DIMTOLJ
 70
     1
  9
$DIMTZIN
 70
     0
  9
$DIMALTZ
 70
     0
  9
$DIMALTTZ
 70
     0
  9
$DIMUPT
 70
     0
  9
$DIMDEC
 70
     0
  9
$DIMTDEC
 70
     0
  9
$DIMALTU
 70
     2
  9
$DIMALTTD
 70
     2
  9
$DIMTXSTY
  7
SUNPOU
  9
$DIMAUNIT
 70
     0
  9
$DIMADEC
 70
     0
  9
$DIMALTRND
 40
0.0
  9
$DIMAZIN
 70
     0
  9
$DIMDSEP
 70
    46
  9
$DIMATFIT
 70
     3
  9
$DIMFRAC
 70
     0
  9
$DIMLDRBLK
  1

  9
$DIMLUNIT
 70
     2
  9
$DIMLWD
 70
    -2
  9
$DIMLWE
 70
    -2
  9
$DIMTMOVE
 70
     0
  9
$LUNITS
 70
     2
  9
$LUPREC
 70
     5
  9
$SKETCHINC
 40
0.1
  9
$FILLETRAD
 40
0.0
  9
$AUNITS
 70
     0
  9
$AUPREC
 70
     0
  9
$MENU
  1
acad
  9
$ELEVATION
 40
0.0
  9
$PELEVATION
 40
0.0
  9
$THICKNESS
 40
0.0
  9
$LIMCHECK
 70
     0
  9
$CHAMFERA
 40
0.0
  9
$CHAMFERB
 40
0.0
  9
$CHAMFERC
 40
0.0
  9
$CHAMFERD
 40
0.0
  9
$SKPOLY
 70
     0
  9
$TDCREATE
 40
2450623.654673032
  9
$TDUCREATE
 40
2450623.279673032
  9
$TDUPDATE
 40
2453850.627508437
  9
$TDUUPDATE
 40
2453850.252508437
  9
$TDINDWG
 40
0.2239323032
  9
$TDUSRTIMER
 40
0.2239321296
  9
$USRTIMER
 70
     1
  9
$ANGBASE
 50
0.0
  9
$ANGDIR
 70
     0
  9
$PDMODE
 70
     0
  9
$PDSIZE
 40
0.0
  9
$PLINEWID
 40
0.0
  9
$SPLFRAME
 70
     0
  9
$SPLINETYPE
 70
     6
  9
$SPLINESEGS
 70
     8
  9
$HANDSEED
  5
639A
  9
$SURFTAB1
 70
     6
  9
$SURFTAB2
 70
     6
  9
$SURFTYPE
 70
     6
  9
$SURFU
 70
     6
  9
$SURFV
 70
     6
  9
$UCSBASE
  2

  9
$UCSNAME
  2

  9
$UCSORG
 10
0.0
 20
0.0
 30
0.0
  9
$UCSXDIR
 10
1.0
 20
0.0
 30
0.0
  9
$UCSYDIR
 10
0.0
 20
1.0
 30
0.0
  9
$UCSORTHOREF
  2

  9
$UCSORTHOVIEW
 70
     0
  9
$UCSORGTOP
 10
0.0
 20
0.0
 30
0.0
  9
$UCSORGBOTTOM
 10
0.0
 20
0.0
 30
0.0
  9
$UCSORGLEFT
 10
0.0
 20
0.0
 30
0.0
  9
$UCSORGRIGHT
 10
0.0
 20
0.0
 30
0.0
  9
$UCSORGFRONT
 10
0.0
 20
0.0
 30
0.0
  9
$UCSORGBACK
 10
0.0
 20
0.0
 30
0.0
  9
$PUCSBASE
  2

  9
$PUCSNAME
  2

  9
$PUCSORG
 10
0.0
 20
0.0
 30
0.0
  9
$PUCSXDIR
 10
1.0
 20
0.0
 30
0.0
  9
$PUCSYDIR
 10
0.0
 20
1.0
 30
0.0
  9
$PUCSORTHOREF
  2

  9
$PUCSORTHOVIEW
 70
     0
  9
$PUCSORGTOP
 10
0.0
 20
0.0
 30
0.0
  9
$PUCSORGBOTTOM
 10
0.0
 20
0.0
 30
0.0
  9
$PUCSORGLEFT
 10
0.0
 20
0.0
 30
0.0
  9
$PUCSORGRIGHT
 10
0.0
 20
0.0
 30
0.0
  9
$PUCSORGFRONT
 10
0.0
 20
0.0
 30
0.0
  9
$PUCSORGBACK
 10
0.0
 20
0.0
 30
0.0
  9
$USERI1
 70
     0
  9
$USERI2
 70
     0
  9
$USERI3
 70
     0
  9
$USERI4
 70
     0
  9
$USERI5
 70
     0
  9
$USERR1
 40
0.0
  9
$USERR2
 40
0.0
  9
$USERR3
 40
0.0
  9
$USERR4
 40
0.0
  9
$USERR5
 40
0.0
  9
$WORLDVIEW
 70
     1
  9
$SHADEDGE
 70
     3
  9
$SHADEDIF
 70
    70
  9
$TILEMODE
 70
     1
  9
$MAXACTVP
 70
    16
  9
$PINSBASE
 10
0.0
 20
0.0
 30
0.0
  9
$PLIMCHECK
 70
     0
  9
$PEXTMIN
 10
1.000000000000000E+20
 20
1.000000000000000E+20
 30
1.000000000000000E+20
  9
$PEXTMAX
 10
-1.000000000000000E+20
 20
-1.000000000000000E+20
 30
-1.000000000000000E+20
  9
$PLIMMIN
 10
0.0
 20
0.0
  9
$PLIMMAX
 10
12.0
 20
9.0
  9
$UNITMODE
 70
     0
  9
$VISRETAIN
 70
     0
  9
$PLINEGEN
 70
     0
  9
$PSLTSCALE
 70
     1
  9
$TREEDEPTH
 70
  3020
  9
$CMLSTYLE
  2
STANDARD
  9
$CMLJUST
 70
     0
  9
$CMLSCALE
 40
1.0
  9
$PROXYGRAPHICS
 70
     1
  9
$MEASUREMENT
 70
     0
  9
$CELWEIGHT
370
    -1
  9
$ENDCAPS
280
     0
  9
$JOINSTYLE
280
     0
  9
$LWDISPLAY
290
     0
  9
$INSUNITS
 70
     0
  9
$HYPERLINKBASE
  1

  9
$STYLESHEET
  1

  9
$XEDIT
290
     1
  9
$CEPSNTYPE
380
     0
  9
$PSTYLEMODE
290
     1
  9
$FINGERPRINTGUID
  2
{FB88A696-E29C-4009-92AF-A3599A8169D5}
  9
$VERSIONGUID
  2
{FE264AB0-013E-4A12-8AA3-B2E7621557F4}
  9
$EXTNAMES
290
     1
  9
$PSVPSCALE
 40
0.0
  9
$OLESTARTUP
290
     0
  0
ENDSEC
  0
SECTION
  2
CLASSES
  0
CLASS
  1
DICTIONARYVAR
  2
AcDbDictionaryVar
  3
AutoCAD 2000
 90
    32768
280
     0
281
     0
  0
CLASS
  1
LWPOLYLINE
  2
AcDbPolyline
  3
AutoCAD 2000
 90
    32768
280
     0
281
     1
  0
CLASS
  1
ACDBDICTIONARYWDFLT
  2
AcDbDictionaryWithDefault
  3
AutoCAD 2000
 90
        0
280
     0
281
     0
  0
CLASS
  1
ACDBPLACEHOLDER
  2
AcDbPlaceHolder
  3
AutoCAD 2000
 90
        0
280
     0
281
     0
  0
CLASS
  1
LAYOUT
  2
AcDbLayout
  3
AutoCAD 2000
 90
        0
280
     0
281
     0
  0
ENDSEC
  0
SECTION
  2
TABLES
  0
TABLE
  2
VPORT
  5
12
330
0
100
AcDbSymbolTable
 70
    12
  0
VPORT
  5
6399
330
12
100
AcDbSymbolTableRecord
100
AcDbViewportTableRecord
  2
*Active
 70
     0
 10
0.0
 20
0.0
 11
1.0
 21
1.0
 12
305.312407574896
 22
635.0387599567901
 13
0.0
 23
0.0
 14
1.0
 24
1.0
 15
0.0
 25
0.0
 16
0.0
 26
0.0
 36
1.0
 17
0.0
 27
0.0
 37
0.0
 40
1284.47166120415
 41
1.800751879699248
 42
50.0
 43
0.0
 44
0.0
 50
0.0
 51
0.0
 71
     0
 72
 20000
 73
     1
 74
     1
 75
     0
 76
     0
 77
     0
 78
     0
281
     0
 65
     1
110
0.0
120
0.0
130
0.0
111
1.0
121
0.0
131
0.0
112
0.0
122
1.0
132
0.0
 79
     0
146
0.0
  0
ENDTAB
  0
TABLE
  2
LTYPE
  5
D
330
0
100
AcDbSymbolTable
 70
     2
  0
LTYPE
  5
E
330
D
100
AcDbSymbolTableRecord
100
AcDbLinetypeTableRecord
  2
BYBLOCK
 70
     0
  3

 72
    65
 73
     0
 40
0.0
  0
LTYPE
  5
F
330
D
100
AcDbSymbolTableRecord
100
AcDbLinetypeTableRecord
  2
BYLAYER
 70
     0
  3

 72
    65
 73
     0
 40
0.0
  0
LTYPE
  5
5
330
D
100
AcDbSymbolTableRecord
100
AcDbLinetypeTableRecord
  2
CONTINUOUS
 70
     0
  3
Solid line
 72
    65
 73
     0
 40
0.0
  0
LTYPE
  5
1AC
330
D
100
AcDbSymbolTableRecord
100
AcDbLinetypeTableRecord
  2
CENTER
 70
     0
  3
Center ____ _ ____ _ ____ _ ____ _ ____ _ ____
 72
    65
 73
     4
 40
2.0
 49
1.25
 74
     0
 49
-0.25
 74
     0
 49
0.25
 74
     0
 49
-0.25
 74
     0
  0
ENDTAB
  0
TABLE
  2
LAYER
  5
A
330
0
100
AcDbSymbolTable
 70
     6
  0
LAYER
  5
4
330
A
100
AcDbSymbolTableRecord
100
AcDbLayerTableRecord
  2
0
 70
     0
 62
     7
  6
CONTINUOUS
370
    -3
390
57
  0
LAYER
  5
25
330
A
100
AcDbSymbolTableRecord
100
AcDbLayerTableRecord
  2
KIJUN
 70
     0
 62
     7
  6
CONTINUOUS
370
    -3
390
57
  0
LAYER
  5
22
330
A
100
AcDbSymbolTableRecord
100
AcDbLayerTableRecord
  2
HOJO
 70
     0
 62
     3
  6
CONTINUOUS
370
    -3
390
57
  0
LAYER
  5
1B
330
A
100
AcDbSymbolTableRecord
100
AcDbLayerTableRecord
  2
WAKU
 70
     0
 62
     1
  6
CONTINUOUS
370
    -3
390
57
  0
LAYER
  5
31
330
A
100
AcDbSymbolTableRecord
100
AcDbLayerTableRecord
  2
DEFPOINTS
 70
     0
 62
     7
  6
CONTINUOUS
290
     0
370
    -3
390
57
  0
LAYER
  5
28
330
A
100
AcDbSymbolTableRecord
100
AcDbLayerTableRecord
  2
SUNPOU
 70
     0
 62
    70
  6
CONTINUOUS
370
    -3
390
57
  0
ENDTAB
  0
TABLE
  2
STYLE
  5
B
330
0
100
AcDbSymbolTable
 70
     3
  0
STYLE
  5
C
330
B
100
AcDbSymbolTableRecord
100
AcDbTextStyleTableRecord
  2
STANDARD
 70
     0
 40
0.0
 41
1.0
 50
0.0
 71
     0
 42
0.2
  3
txt
  4

  0
STYLE
  5
1C
330
B
100
AcDbSymbolTableRecord
100
AcDbTextStyleTableRecord
  2
SUNPOU
 70
     0
 40
0.0
 41
1.0
 50
0.0
 71
     0
 42
30.0
  3
txt
  4
bigfont
  0
STYLE
  5
1AD
330
B
100
AcDbSymbolTableRecord
100
AcDbTextStyleTableRecord
  2
LIFE
 70
     0
 40
0.0
 41
0.7
 50
0.0
 71
     0
 42
10.0
  3
romans
  4
extfont
  0
ENDTAB
  0
TABLE
  2
VIEW
  5
10
330
0
100
AcDbSymbolTable
 70
     0
  0
ENDTAB
  0
TABLE
  2
UCS
  5
11
330
0
100
AcDbSymbolTable
 70
     0
  0
ENDTAB
  0
TABLE
  2
APPID
  5
14
330
0
100
AcDbSymbolTable
 70
     1
  0
APPID
  5
15
330
14
100
AcDbSymbolTableRecord
100
AcDbRegAppTableRecord
  2
ACAD
 70
     0
  0
ENDTAB
  0
TABLE
  2
DIMSTYLE
  5
16
330
0
100
AcDbSymbolTable
 70
     2
100
AcDbDimStyleTable
 71
     1
340
1E
  0
DIMSTYLE
105
1E
330
16
100
AcDbSymbolTableRecord
100
AcDbDimStyleTableRecord
  2
STANDARD
 70
     0
340
C
  0
DIMSTYLE
105
1AE
102
{ACAD_REACTORS
330
630A
330
6318
330
6326
102
}
330
16
100
AcDbSymbolTableRecord
100
AcDbDimStyleTableRecord
  2
STANDARD$0
 70
     0
 40
2.0
 41
1.0
 42
2.0
 43
0.0
 44
1.0
 73
     0
 74
     0
 77
     3
 78
     9
140
4.5
141
0.0
147
1.0
172
     1
173
     1
178
     3
271
     2
340
1AD
341
109
343
109
344
109
  0
ENDTAB
  0
TABLE
  2
BLOCK_RECORD
  5
1
330
0
100
AcDbSymbolTable
 70
    57
  0
BLOCK_RECORD
  5
2
330
1
100
AcDbSymbolTableRecord
100
AcDbBlockTableRecord
  2
*MODEL_SPACE
340
5A
  0
BLOCK_RECORD
  5
7
330
1
100
AcDbSymbolTableRecord
100
AcDbBlockTableRecord
  2
*PAPER_SPACE
340
5B
  0
BLOCK_RECORD
  5
109
330
1
100
AcDbSymbolTableRecord
100
AcDbBlockTableRecord
  2
_Dot
340
0
102
{BLKREFS
331
4635
331
4636
331
464A
331
464B
331
4655
331
4656
331
4679
331
467A
331
468E
331
468F
331
4699
331
469A
331
46BE
331
46BF
331
46CA
331
46CB
331
46B2
331
46B3
331
4EF7
331
4EF8
331
4F00
331
4F01
331
4F09
331
4F0A
331
4F15
331
4F16
331
4F40
331
4F41
331
4F4B
331
4F4C
331
4F61
331
4F62
331
4F6F
331
4F70
331
4F7C
331
4F7D
331
4F8A
331
4F8B
331
4F98
331
4F99
331
4FA5
331
4FA6
331
4FC7
331
4FC8
331
4FBB
331
4FBC
331
5065
331
5066
331
5071
331
5072
331
507C
331
507D
331
5085
331
5086
331
508E
331
508F
331
5097
331
5098
331
5462
331
5463
331
546E
331
546F
331
5479
331
547A
331
5490
331
5491
331
549D
331
549E
331
54AA
331
54AB
331
54C5
331
54C6
331
54B9
331
54BA
331
555D
331
555E
331
5569
331
556A
331
5574
331
5575
331
557D
331
557E
331
5586
331
5587
331
558F
331
5590
331
5938
331
5939
331
5945
331
5946
331
5952
331
5953
331
596D
331
596E
331
5961
331
5962
331
5A07
331
5A08
331
5A13
331
5A14
331
5A1E
331
5A1F
331
5A27
331
5A28
331
5A30
331
5A31
331
5A39
331
5A3A
331
5DFE
331
5DFF
331
5E0B
331
5E0C
331
5E18
331
5E19
331
5E32
331
5E33
331
5E26
331
5E27
331
5ED2
331
5ED3
331
5EDE
331
5EDF
331
5EE9
331
5EEA
331
5EF2
331
5EF3
331
5EFB
331
5EFC
331
5F04
331
5F05
331
6310
331
6311
331
631E
331
631F
331
632B
331
632C
331
6338
331
6339
331
6342
331
6343
331
634C
331
634D
331
6356
331
6357
331
6360
331
6361
331
636C
331
636D
331
6375
331
6376
331
637E
331
637F
331
6388
331
6389
331
6392
331
6393
102
}
  0
BLOCK_RECORD
  5
146
330
1
100
AcDbSymbolTableRecord
100
AcDbBlockTableRecord
  2
_DOTSMALL
340
0
  0
BLOCK_RECORD
  5
4F5C
330
1
100
AcDbSymbolTableRecord
100
AcDbBlockTableRecord
  2
*D17
340
0
  0
BLOCK_RECORD
  5
4F6A
330
1
100
AcDbSymbolTableRecord
100
AcDbBlockTableRecord
  2
*D18
340
0
  0
BLOCK_RECORD
  5
4F78
330
1
100
AcDbSymbolTableRecord
100
AcDbBlockTableRecord
  2
*D19
340
0
  0
BLOCK_RECORD
  5
4F85
330
1
100
AcDbSymbolTableRecord
100
AcDbBlockTableRecord
  2
*D20
340
0
  0
BLOCK_RECORD
  5
4F93
330
1
100
AcDbSymbolTableRecord
100
AcDbBlockTableRecord
  2
*D21
340
0
  0
BLOCK_RECORD
  5
4FA1
330
1
100
AcDbSymbolTableRecord
100
AcDbBlockTableRecord
  2
*D22
340
0
  0
BLOCK_RECORD
  5
4FB7
330
1
100
AcDbSymbolTableRecord
100
AcDbBlockTableRecord
  2
*D23
340
0
  0
BLOCK_RECORD
  5
4FC3
330
1
100
AcDbSymbolTableRecord
100
AcDbBlockTableRecord
  2
*D24
340
0
  0
BLOCK_RECORD
  5
5061
330
1
100
AcDbSymbolTableRecord
100
AcDbBlockTableRecord
  2
*D26
340
0
  0
BLOCK_RECORD
  5
506D
330
1
100
AcDbSymbolTableRecord
100
AcDbBlockTableRecord
  2
*D27
340
0
  0
BLOCK_RECORD
  5
545E
330
1
100
AcDbSymbolTableRecord
100
AcDbBlockTableRecord
  2
*D28
340
0
  0
BLOCK_RECORD
  5
5475
330
1
100
AcDbSymbolTableRecord
100
AcDbBlockTableRecord
  2
*D29
340
0
  0
BLOCK_RECORD
  5
548C
330
1
100
AcDbSymbolTableRecord
100
AcDbBlockTableRecord
  2
*D30
340
0
  0
BLOCK_RECORD
  5
5499
330
1
100
AcDbSymbolTableRecord
100
AcDbBlockTableRecord
  2
*D31
340
0
  0
BLOCK_RECORD
  5
54A6
330
1
100
AcDbSymbolTableRecord
100
AcDbBlockTableRecord
  2
*D32
340
0
  0
BLOCK_RECORD
  5
54B5
330
1
100
AcDbSymbolTableRecord
100
AcDbBlockTableRecord
  2
*D33
340
0
  0
BLOCK_RECORD
  5
54C1
330
1
100
AcDbSymbolTableRecord
100
AcDbBlockTableRecord
  2
*D34
340
0
  0
BLOCK_RECORD
  5
5559
330
1
100
AcDbSymbolTableRecord
100
AcDbBlockTableRecord
  2
*D36
340
0
  0
BLOCK_RECORD
  5
5565
330
1
100
AcDbSymbolTableRecord
100
AcDbBlockTableRecord
  2
*D37
340
0
  0
BLOCK_RECORD
  5
5934
330
1
100
AcDbSymbolTableRecord
100
AcDbBlockTableRecord
  2
*D38
340
0
  0
BLOCK_RECORD
  5
5941
330
1
100
AcDbSymbolTableRecord
100
AcDbBlockTableRecord
  2
*D39
340
0
  0
BLOCK_RECORD
  5
594E
330
1
100
AcDbSymbolTableRecord
100
AcDbBlockTableRecord
  2
*D40
340
0
  0
BLOCK_RECORD
  5
595D
330
1
100
AcDbSymbolTableRecord
100
AcDbBlockTableRecord
  2
*D41
340
0
  0
BLOCK_RECORD
  5
5969
330
1
100
AcDbSymbolTableRecord
100
AcDbBlockTableRecord
  2
*D42
340
0
  0
BLOCK_RECORD
  5
5A03
330
1
100
AcDbSymbolTableRecord
100
AcDbBlockTableRecord
  2
*D44
340
0
  0
BLOCK_RECORD
  5
5A0F
330
1
100
AcDbSymbolTableRecord
100
AcDbBlockTableRecord
  2
*D45
340
0
  0
BLOCK_RECORD
  5
5DFA
330
1
100
AcDbSymbolTableRecord
100
AcDbBlockTableRecord
  2
*D46
340
0
  0
BLOCK_RECORD
  5
5E07
330
1
100
AcDbSymbolTableRecord
100
AcDbBlockTableRecord
  2
*D47
340
0
  0
BLOCK_RECORD
  5
5E14
330
1
100
AcDbSymbolTableRecord
100
AcDbBlockTableRecord
  2
*D48
340
0
  0
BLOCK_RECORD
  5
5E22
330
1
100
AcDbSymbolTableRecord
100
AcDbBlockTableRecord
  2
*D49
340
0
  0
BLOCK_RECORD
  5
5E2E
330
1
100
AcDbSymbolTableRecord
100
AcDbBlockTableRecord
  2
*D50
340
0
  0
BLOCK_RECORD
  5
5ECE
330
1
100
AcDbSymbolTableRecord
100
AcDbBlockTableRecord
  2
*D52
340
0
  0
BLOCK_RECORD
  5
5EDA
330
1
100
AcDbSymbolTableRecord
100
AcDbBlockTableRecord
  2
*D53
340
0
  0
BLOCK_RECORD
  5
630B
330
1
100
AcDbSymbolTableRecord
100
AcDbBlockTableRecord
  2
*D54
340
0
  0
BLOCK_RECORD
  5
6319
330
1
100
AcDbSymbolTableRecord
100
AcDbBlockTableRecord
  2
*D55
340
0
  0
BLOCK_RECORD
  5
6327
330
1
100
AcDbSymbolTableRecord
100
AcDbBlockTableRecord
  2
*D56
340
0
  0
ENDTAB
  0
ENDSEC
  0
SECTION
  2
BLOCKS
  0
BLOCK
  5
3
330
2
100
AcDbEntity
  8
0
100
AcDbBlockBegin
  2
*MODEL_SPACE
 70
     0
 10
0.0
 20
0.0
 30
0.0
  3
*MODEL_SPACE
  1

  0
ENDBLK
  5
6
330
2
100
AcDbEntity
  8
0
100
AcDbBlockEnd
  0
BLOCK
  5
8
330
7
100
AcDbEntity
 67
     1
  8
0
100
AcDbBlockBegin
  2
*PAPER_SPACE
 70
     0
 10
0.0
 20
0.0
 30
0.0
  3
*PAPER_SPACE
  1

  0
ENDBLK
  5
9
330
7
100
AcDbEntity
 67
     1
  8
0
100
AcDbBlockEnd
  0
BLOCK
  5
10C
330
109
100
AcDbEntity
  8
0
100
AcDbBlockBegin
  2
_Dot
 70
     0
 10
0.0
 20
0.0
 30
0.0
  3
_Dot
  1

  0
LWPOLYLINE
  5
10A
330
109
100
AcDbEntity
  8
0
  6
ByBlock
 62
     0
100
AcDbPolyline
 90
        2
 70
     1
 43
0.5
 10
-0.25
 20
0.0
 42
1.0
 10
0.25
 20
0.0
 42
1.0
  0
LINE
  5
10B
330
109
100
AcDbEntity
  8
0
  6
ByBlock
 62
     0
370
    -2
100
AcDbLine
 10
-0.5
 20
0.0
 30
0.0
 11
-1.0
 21
0.0
 31
0.0
  0
ENDBLK
  5
10D
330
109
100
AcDbEntity
  8
0
100
AcDbBlockEnd
  0
BLOCK
  5
148
330
146
100
AcDbEntity
  8
0
100
AcDbBlockBegin
  2
_DOTSMALL
 70
     0
 10
0.0
 20
0.0
 30
0.0
  3
_DOTSMALL
  1

  0
LWPOLYLINE
  5
147
330
146
100
AcDbEntity
  8
0
  6
ByBlock
 62
     0
100
AcDbPolyline
 90
        2
 70
     1
 43
0.5
 10
-0.0625
 20
0.0
 42
1.0
 10
0.0625
 20
0.0
 42
1.0
  0
ENDBLK
  5
149
330
146
100
AcDbEntity
  8
0
100
AcDbBlockEnd
  0
BLOCK
  5
4F67
330
4F5C
100
AcDbEntity
  8
0
100
AcDbBlockBegin
  2
*D17
 70
     1
 10
0.0
 20
0.0
 30
0.0
  3
*D17
  1

  0
LINE
  5
4F5D
330
4F5C
100
AcDbEntity
  8
SUNPOU
 62
    70
370
    -2
100
AcDbLine
 10
-12.33255014964675
 20
406.0571122366986
 30
0.0
 11
-12.33255014964675
 21
274.2797638662177
 31
0.0
  0
LINE
  5
4F5E
330
4F5C
100
AcDbEntity
  8
SUNPOU
 62
    70
370
    -2
100
AcDbLine
 10
40.66744985035326
 20
406.0571122366987
 30
0.0
 11
40.66744985035325
 21
274.2797638662177
 31
0.0
  0
LINE
  5
4F5F
330
4F5C
100
AcDbEntity
  8
SUNPOU
 62
    60
370
    -2
100
AcDbLine
 10
-6.332550149646758
 20
274.2797638662177
 30
0.0
 11
34.66744985035325
 21
274.2797638662177
 31
0.0
  0
LINE
  5
4F60
330
4F5C
100
AcDbEntity
  8
SUNPOU
 62
    60
370
    -2
100
AcDbLine
 10
40.66744985035325
 20
274.2797638662177
 30
0.0
 11
100.0007831836865
 21
274.2797638662177
 31
0.0
  0
INSERT
  5
4F61
330
4F5C
100
AcDbEntity
  8
SUNPOU
 62
    60
370
    -2
100
AcDbBlockReference
  2
_Dot
 10
-12.33255014964675
 20
274.2797638662177
 30
0.0
 41
6.0
 42
6.0
 43
6.0
 50
180.0
  0
INSERT
  5
4F62
330
4F5C
100
AcDbEntity
  8
SUNPOU
 62
    60
370
    -2
100
AcDbBlockReference
  2
_Dot
 10
40.66744985035325
 20
274.2797638662177
 30
0.0
 41
6.0
 42
6.0
 43
6.0
  0
MTEXT
  5
4F63
330
4F5C
100
AcDbEntity
  8
SUNPOU
 62
    60
100
AcDbMText
 10
73.3341165170199
 20
294.2797638662177
 30
0.0
 40
20.0
 41
0.0
 71
     5
 72
     1
  1
\A1;53
  7
SUNPOU
 73
     1
 44
1.0
  0
POINT
  5
4F64
330
4F5C
100
AcDbEntity
  8
DEFPOINTS
 62
     0
100
AcDbPoint
 10
-12.33255014964675
 20
412.0571122366986
 30
0.0
  0
POINT
  5
4F65
330
4F5C
100
AcDbEntity
  8
DEFPOINTS
 62
     0
100
AcDbPoint
 10
40.66744985035326
 20
412.0571122366986
 30
0.0
  0
POINT
  5
4F66
330
4F5C
100
AcDbEntity
  8
DEFPOINTS
 62
     0
100
AcDbPoint
 10
40.66744985035325
 20
274.2797638662177
 30
0.0
  0
ENDBLK
  5
4F68
330
4F5C
100
AcDbEntity
  8
0
100
AcDbBlockEnd
  0
BLOCK
  5
4F75
330
4F6A
100
AcDbEntity
  8
0
100
AcDbBlockBegin
  2
*D18
 70
     1
 10
0.0
 20
0.0
 30
0.0
  3
*D18
  1

  0
LINE
  5
4F6B
330
4F6A
100
AcDbEntity
  8
SUNPOU
 62
    70
370
    -2
100
AcDbLine
 10
-12.33255014964675
 20
1466.057112236698
 30
0.0
 11
-12.33255014964674
 21
1538.977020019356
 31
0.0
  0
LINE
  5
4F6C
330
4F6A
100
AcDbEntity
  8
SUNPOU
 62
    70
370
    -2
100
AcDbLine
 10
40.66744985035326
 20
1466.057112236698
 30
0.0
 11
40.66744985035326
 21
1538.977020019356
 31
0.0
  0
LINE
  5
4F6D
330
4F6A
100
AcDbEntity
  8
SUNPOU
 62
    60
370
    -2
100
AcDbLine
 10
-6.332550149646744
 20
1538.977020019356
 30
0.0
 11
34.66744985035326
 21
1538.977020019356
 31
0.0
  0
LINE
  5
4F6E
330
4F6A
100
AcDbEntity
  8
SUNPOU
 62
    60
370
    -2
100
AcDbLine
 10
40.66744985035326
 20
1538.977020019356
 30
0.0
 11
100.0007831836865
 21
1538.977020019356
 31
0.0
  0
INSERT
  5
4F6F
330
4F6A
100
AcDbEntity
  8
SUNPOU
 62
    60
370
    -2
100
AcDbBlockReference
  2
_Dot
 10
-12.33255014964674
 20
1538.977020019356
 30
0.0
 41
6.0
 42
6.0
 43
6.0
 50
180.0
  0
INSERT
  5
4F70
330
4F6A
100
AcDbEntity
  8
SUNPOU
 62
    60
370
    -2
100
AcDbBlockReference
  2
_Dot
 10
40.66744985035326
 20
1538.977020019356
 30
0.0
 41
6.0
 42
6.0
 43
6.0
  0
MTEXT
  5
4F71
330
4F6A
100
AcDbEntity
  8
SUNPOU
 62
    60
100
AcDbMText
 10
73.33411651701993
 20
1558.977020019356
 30
0.0
 40
20.0
 41
0.0
 71
     5
 72
     1
  1
\A1;53
  7
SUNPOU
 73
     1
 44
1.0
  0
POINT
  5
4F72
330
4F6A
100
AcDbEntity
  8
DEFPOINTS
 62
     0
100
AcDbPoint
 10
-12.33255014964675
 20
1460.057112236698
 30
0.0
  0
POINT
  5
4F73
330
4F6A
100
AcDbEntity
  8
DEFPOINTS
 62
     0
100
AcDbPoint
 10
40.66744985035326
 20
1460.057112236698
 30
0.0
  0
POINT
  5
4F74
330
4F6A
100
AcDbEntity
  8
DEFPOINTS
 62
     0
100
AcDbPoint
 10
40.66744985035326
 20
1538.977020019356
 30
0.0
  0
ENDBLK
  5
4F76
330
4F6A
100
AcDbEntity
  8
0
100
AcDbBlockEnd
  0
BLOCK
  5
4F82
330
4F78
100
AcDbEntity
  8
0
100
AcDbBlockBegin
  2
*D19
 70
     1
 10
0.0
 20
0.0
 30
0.0
  3
*D19
  1

  0
LINE
  5
4F79
330
4F78
100
AcDbEntity
  8
SUNPOU
 62
    70
370
    -2
100
AcDbLine
 10
-18.33255014964675
 20
412.0571122366986
 30
0.0
 11
-190.933798897928
 21
412.0571122366986
 31
0.0
  0
LINE
  5
4F7A
330
4F78
100
AcDbEntity
  8
SUNPOU
 62
    70
370
    -2
100
AcDbLine
 10
-16.33255014964674
 20
1462.057112236698
 30
0.0
 11
-190.9337988979278
 21
1462.057112236698
 31
0.0
  0
LINE
  5
4F7B
330
4F78
100
AcDbEntity
  8
SUNPOU
 62
    60
370
    -2
100
AcDbLine
 10
-190.933798897928
 20
418.0571122366987
 30
0.0
 11
-190.9337988979278
 21
1456.057112236698
 31
0.0
  0
INSERT
  5
4F7C
330
4F78
100
AcDbEntity
  8
SUNPOU
 62
    60
370
    -2
100
AcDbBlockReference
  2
_Dot
 10
-190.933798897928
 20
412.0571122366986
 30
0.0
 41
6.0
 42
6.0
 43
6.0
 50
270.0
  0
INSERT
  5
4F7D
330
4F78
100
AcDbEntity
  8
SUNPOU
 62
    60
370
    -2
100
AcDbBlockReference
  2
_Dot
 10
-190.9337988979278
 20
1462.057112236698
 30
0.0
 41
6.0
 42
6.0
 43
6.0
 50
90.0
  0
MTEXT
  5
4F7E
330
4F78
100
AcDbEntity
  8
SUNPOU
 62
    60
100
AcDbMText
 10
-210.933798897928
 20
937.0571122366987
 30
0.0
 40
20.0
 41
0.0
 71
     5
 72
     1
  1
\A1;1050
  7
SUNPOU
 11
0.0000000000000001
 21
1.0
 31
0.0
 73
     1
 44
1.0
  0
POINT
  5
4F7F
330
4F78
100
AcDbEntity
  8
DEFPOINTS
 62
     0
100
AcDbPoint
 10
-12.33255014964675
 20
412.0571122366986
 30
0.0
  0
POINT
  5
4F80
330
4F78
100
AcDbEntity
  8
DEFPOINTS
 62
     0
100
AcDbPoint
 10
-10.33255014964674
 20
1462.057112236698
 30
0.0
  0
POINT
  5
4F81
330
4F78
100
AcDbEntity
  8
DEFPOINTS
 62
     0
100
AcDbPoint
 10
-190.9337988979278
 20
1462.057112236698
 30
0.0
  0
ENDBLK
  5
4F83
330
4F78
100
AcDbEntity
  8
0
100
AcDbBlockEnd
  0
BLOCK
  5
4F90
330
4F85
100
AcDbEntity
  8
0
100
AcDbBlockBegin
  2
*D20
 70
     1
 10
0.0
 20
0.0
 30
0.0
  3
*D20
  1

  0
LINE
  5
4F86
330
4F85
100
AcDbEntity
  8
SUNPOU
 62
    70
370
    -2
100
AcDbLine
 10
540.6672175961652
 20
406.0571122366987
 30
0.0
 11
540.6672175961652
 21
274.8392883619508
 31
0.0
  0
LINE
  5
4F87
330
4F85
100
AcDbEntity
  8
SUNPOU
 62
    70
370
    -2
100
AcDbLine
 10
593.6672175961655
 20
406.0571122366985
 30
0.0
 11
593.6672175961655
 21
274.8392883619508
 31
0.0
  0
LINE
  5
4F88
330
4F85
100
AcDbEntity
  8
SUNPOU
 62
    60
370
    -2
100
AcDbLine
 10
546.6672175961653
 20
274.8392883619508
 30
0.0
 11
587.6672175961655
 21
274.8392883619508
 31
0.0
  0
LINE
  5
4F89
330
4F85
100
AcDbEntity
  8
SUNPOU
 62
    60
370
    -2
100
AcDbLine
 10
593.6672175961655
 20
274.8392883619508
 30
0.0
 11
653.0005509294989
 21
274.8392883619508
 31
0.0
  0
INSERT
  5
4F8A
330
4F85
100
AcDbEntity
  8
SUNPOU
 62
    60
370
    -2
100
AcDbBlockReference
  2
_Dot
 10
540.6672175961652
 20
274.8392883619508
 30
0.0
 41
6.0
 42
6.0
 43
6.0
 50
180.0
  0
INSERT
  5
4F8B
330
4F85
100
AcDbEntity
  8
SUNPOU
 62
    60
370
    -2
100
AcDbBlockReference
  2
_Dot
 10
593.6672175961655
 20
274.8392883619508
 30
0.0
 41
6.0
 42
6.0
 43
6.0
  0
MTEXT
  5
4F8C
330
4F85
100
AcDbEntity
  8
SUNPOU
 62
    60
100
AcDbMText
 10
626.3338842628321
 20
294.8392883619508
 30
0.0
 40
20.0
 41
0.0
 71
     5
 72
     1
  1
\A1;53
  7
SUNPOU
 73
     1
 44
1.0
  0
POINT
  5
4F8D
330
4F85
100
AcDbEntity
  8
DEFPOINTS
 62
     0
100
AcDbPoint
 10
540.6672175961652
 20
412.0571122366986
 30
0.0
  0
POINT
  5
4F8E
330
4F85
100
AcDbEntity
  8
DEFPOINTS
 62
     0
100
AcDbPoint
 10
593.6672175961655
 20
412.0571122366985
 30
0.0
  0
POINT
  5
4F8F
330
4F85
100
AcDbEntity
  8
DEFPOINTS
 62
     0
100
AcDbPoint
 10
593.6672175961655
 20
274.8392883619508
 30
0.0
  0
ENDBLK
  5
4F91
330
4F85
100
AcDbEntity
  8
0
100
AcDbBlockEnd
  0
BLOCK
  5
4F9E
330
4F93
100
AcDbEntity
  8
0
100
AcDbBlockBegin
  2
*D21
 70
     1
 10
0.0
 20
0.0
 30
0.0
  3
*D21
  1

  0
LINE
  5
4F94
330
4F93
100
AcDbEntity
  8
SUNPOU
 62
    70
370
    -2
100
AcDbLine
 10
536.0470210962412
 20
1466.057112236698
 30
0.0
 11
536.0470210962412
 21
1538.371838623916
 31
0.0
  0
LINE
  5
4F95
330
4F93
100
AcDbEntity
  8
SUNPOU
 62
    70
370
    -2
100
AcDbLine
 10
589.0470210962409
 20
1466.057112236698
 30
0.0
 11
589.0470210962409
 21
1538.371838623916
 31
0.0
  0
LINE
  5
4F96
330
4F93
100
AcDbEntity
  8
SUNPOU
 62
    60
370
    -2
100
AcDbLine
 10
542.0470210962412
 20
1538.371838623916
 30
0.0
 11
583.047021096241
 21
1538.371838623916
 31
0.0
  0
LINE
  5
4F97
330
4F93
100
AcDbEntity
  8
SUNPOU
 62
    60
370
    -2
100
AcDbLine
 10
589.0470210962409
 20
1538.371838623916
 30
0.0
 11
648.3803544295743
 21
1538.371838623916
 31
0.0
  0
INSERT
  5
4F98
330
4F93
100
AcDbEntity
  8
SUNPOU
 62
    60
370
    -2
100
AcDbBlockReference
  2
_Dot
 10
536.0470210962412
 20
1538.371838623916
 30
0.0
 41
6.0
 42
6.0
 43
6.0
 50
180.0
  0
INSERT
  5
4F99
330
4F93
100
AcDbEntity
  8
SUNPOU
 62
    60
370
    -2
100
AcDbBlockReference
  2
_Dot
 10
589.0470210962409
 20
1538.371838623916
 30
0.0
 41
6.0
 42
6.0
 43
6.0
  0
MTEXT
  5
4F9A
330
4F93
100
AcDbEntity
  8
SUNPOU
 62
    60
100
AcDbMText
 10
621.7136877629076
 20
1558.371838623916
 30
0.0
 40
20.0
 41
0.0
 71
     5
 72
     1
  1
\A1;53
  7
SUNPOU
 73
     1
 44
1.0
  0
POINT
  5
4F9B
330
4F93
100
AcDbEntity
  8
DEFPOINTS
 62
     0
100
AcDbPoint
 10
536.0470210962412
 20
1460.057112236698
 30
0.0
  0
POINT
  5
4F9C
330
4F93
100
AcDbEntity
  8
DEFPOINTS
 62
     0
100
AcDbPoint
 10
589.0470210962409
 20
1460.057112236698
 30
0.0
  0
POINT
  5
4F9D
330
4F93
100
AcDbEntity
  8
DEFPOINTS
 62
     0
100
AcDbPoint
 10
589.0470210962409
 20
1538.371838623916
 30
0.0
  0
ENDBLK
  5
4F9F
330
4F93
100
AcDbEntity
  8
0
100
AcDbBlockEnd
  0
BLOCK
  5
4FAB
330
4FA1
100
AcDbEntity
  8
0
100
AcDbBlockBegin
  2
*D22
 70
     1
 10
0.0
 20
0.0
 30
0.0
  3
*D22
  1

  0
LINE
  5
4FA2
330
4FA1
100
AcDbEntity
  8
SUNPOU
 62
    70
370
    -2
100
AcDbLine
 10
532.0470210962412
 20
1462.057112236698
 30
0.0
 11
371.1710414886804
 21
1462.057112236698
 31
0.0
  0
LINE
  5
4FA3
330
4FA1
100
AcDbEntity
  8
SUNPOU
 62
    70
370
    -2
100
AcDbLine
 10
534.6672175961653
 20
412.0571122366986
 30
0.0
 11
371.1710414886802
 21
412.0571122366987
 31
0.0
  0
LINE
  5
4FA4
330
4FA1
100
AcDbEntity
  8
SUNPOU
 62
    60
370
    -2
100
AcDbLine
 10
371.1710414886804
 20
1456.057112236698
 30
0.0
 11
371.1710414886802
 21
418.0571122366987
 31
0.0
  0
INSERT
  5
4FA5
330
4FA1
100
AcDbEntity
  8
SUNPOU
 62
    60
370
    -2
100
AcDbBlockReference
  2
_Dot
 10
371.1710414886804
 20
1462.057112236698
 30
0.0
 41
6.0
 42
6.0
 43
6.0
 50
90.0
  0
INSERT
  5
4FA6
330
4FA1
100
AcDbEntity
  8
SUNPOU
 62
    60
370
    -2
100
AcDbBlockReference
  2
_Dot
 10
371.1710414886802
 20
412.0571122366987
 30
0.0
 41
6.0
 42
6.0
 43
6.0
 50
270.0
  0
MTEXT
  5
4FA7
330
4FA1
100
AcDbEntity
  8
SUNPOU
 62
    60
100
AcDbMText
 10
351.1710414886801
 20
937.0571122366987
 30
0.0
 40
20.0
 41
0.0
 71
     5
 72
     1
  1
\A1;1050
  7
SUNPOU
 11
0.0000000000000001
 21
1.0
 31
0.0
 73
     1
 44
1.0
  0
POINT
  5
4FA8
330
4FA1
100
AcDbEntity
  8
DEFPOINTS
 62
     0
100
AcDbPoint
 10
538.0470210962412
 20
1462.057112236698
 30
0.0
  0
POINT
  5
4FA9
330
4FA1
100
AcDbEntity
  8
DEFPOINTS
 62
     0
100
AcDbPoint
 10
540.6672175961652
 20
412.0571122366986
 30
0.0
  0
POINT
  5
4FAA
330
4FA1
100
AcDbEntity
  8
DEFPOINTS
 62
     0
100
AcDbPoint
 10
371.1710414886802
 20
412.0571122366987
 30
0.0
  0
ENDBLK
  5
4FAC
330
4FA1
100
AcDbEntity
  8
0
100
AcDbBlockEnd
  0
BLOCK
  5
4FC1
330
4FB7
100
AcDbEntity
  8
0
 62
     7
 48
100.0
100
AcDbBlockBegin
  2
*D23
 70
     1
 10
0.0
 20
0.0
 30
0.0
  3
*D23
  1

  0
LINE
  5
4FB8
330
4FB7
100
AcDbEntity
  8
HOJO
 62
     0
 48
100.0
100
AcDbLine
 10
511.1230493518041
 20
1235.788238542177
 30
0.0
 11
511.1230493518041
 21
1393.678681066995
 31
0.0
  0
LINE
  5
4FB9
330
4FB7
100
AcDbEntity
  8
HOJO
 62
     0
 48
100.0
100
AcDbLine
 10
626.123049351804
 20
1235.788238542177
 30
0.0
 11
626.123049351804
 21
1393.678681066995
 31
0.0
  0
LINE
  5
4FBA
330
4FB7
100
AcDbEntity
  8
HOJO
 62
     0
 48
100.0
100
AcDbLine
 10
512.1230493518042
 20
1392.678681066995
 30
0.0
 11
625.1230493518042
 21
1392.678681066995
 31
0.0
  0
INSERT
  5
4FBB
330
4FB7
100
AcDbEntity
  8
HOJO
 62
     0
 48
100.0
100
AcDbBlockReference
  2
_Dot
 10
511.1230493518041
 20
1392.678681066995
 30
0.0
 50
180.0
  0
INSERT
  5
4FBC
330
4FB7
100
AcDbEntity
  8
HOJO
 62
     0
 48
100.0
100
AcDbBlockReference
  2
_Dot
 10
626.123049351804
 20
1392.678681066995
 30
0.0
  0
MTEXT
  5
4FBD
330
4FB7
100
AcDbEntity
  8
HOJO
 62
     3
 48
100.0
100
AcDbMText
 10
568.623049351804
 20
1408.678681066995
 30
0.0
 40
30.0
 41
0.0
 71
     5
 72
     1
  1
\A1;115
  7
LIFE
 73
     1
 44
1.0
1001
ACAD
1000
MTEXTBEGIN
1070
    73
1070
     1
1070
    44
1040
1.0
1070
    74
1070
     0
1000
MTEXTEND
  0
POINT
  5
4FBE
330
4FB7
100
AcDbEntity
  8
DEFPOINTS
 62
     0
 48
100.0
100
AcDbPoint
 10
511.1230493518041
 20
1233.788238542177
 30
0.0
  0
POINT
  5
4FBF
330
4FB7
100
AcDbEntity
  8
DEFPOINTS
 62
     0
 48
100.0
100
AcDbPoint
 10
626.123049351804
 20
1233.788238542177
 30
0.0
  0
POINT
  5
4FC0
330
4FB7
100
AcDbEntity
  8
DEFPOINTS
 62
     0
 48
100.0
100
AcDbPoint
 10
626.123049351804
 20
1392.678681066995
 30
0.0
  0
ENDBLK
  5
4FC2
330
4FB7
100
AcDbEntity
  8
0
 62
     7
 48
100.0
100
AcDbBlockEnd
  0
BLOCK
  5
4FCD
330
4FC3
100
AcDbEntity
  8
0
 62
     7
 48
100.0
100
AcDbBlockBegin
  2
*D24
 70
     1
 10
0.0
 20
0.0
 30
0.0
  3
*D24
  1

  0
LINE
  5
4FC4
330
4FC3
100
AcDbEntity
  8
HOJO
 62
     0
 48
100.0
100
AcDbLine
 10
511.066691318384
 20
136.376998534144
 30
0.0
 11
235.1025647814263
 21
136.3769985341442
 31
0.0
  0
LINE
  5
4FC5
330
4FC3
100
AcDbEntity
  8
HOJO
 62
     0
 48
100.0
100
AcDbLine
 10
511.066691318384
 20
1236.376998534143
 30
0.0
 11
235.1025647814267
 21
1236.376998534143
 31
0.0
  0
LINE
  5
4FC6
330
4FC3
100
AcDbEntity
  8
HOJO
 62
     0
 48
100.0
100
AcDbLine
 10
236.1025647814264
 20
137.3769985341442
 30
0.0
 11
236.1025647814265
 21
1235.376998534142
 31
0.0
  0
INSERT
  5
4FC7
330
4FC3
100
AcDbEntity
  8
HOJO
 62
     0
 48
100.0
100
AcDbBlockReference
  2
_Dot
 10
236.1025647814264
 20
136.3769985341442
 30
0.0
 50
270.0
  0
INSERT
  5
4FC8
330
4FC3
100
AcDbEntity
  8
HOJO
 62
     0
 48
100.0
100
AcDbBlockReference
  2
_Dot
 10
236.1025647814265
 20
1236.376998534143
 30
0.0
 50
90.0
  0
MTEXT
  5
4FC9
330
4FC3
100
AcDbEntity
  8
HOJO
 62
     3
 48
100.0
100
AcDbMText
 10
220.1025647814264
 20
686.376998534144
 30
0.0
 40
30.0
 41
0.0
 71
     5
 72
     1
  1
\A1;1100
  7
LIFE
 11
0.0000000000000001
 21
1.0
 31
0.0
 73
     1
 44
1.0
1001
ACAD
1000
MTEXTBEGIN
1070
    73
1070
     1
1070
    44
1040
1.0
1070
    74
1070
     0
1000
MTEXTEND
  0
POINT
  5
4FCA
330
4FC3
100
AcDbEntity
  8
DEFPOINTS
 62
     0
 48
100.0
100
AcDbPoint
 10
513.0666913183841
 20
136.376998534144
 30
0.0
  0
POINT
  5
4FCB
330
4FC3
100
AcDbEntity
  8
DEFPOINTS
 62
     0
 48
100.0
100
AcDbPoint
 10
513.0666913183841
 20
1236.376998534143
 30
0.0
  0
POINT
  5
4FCC
330
4FC3
100
AcDbEntity
  8
DEFPOINTS
 62
     0
 48
100.0
100
AcDbPoint
 10
236.1025647814265
 20
1236.376998534143
 30
0.0
  0
ENDBLK
  5
4FCE
330
4FC3
100
AcDbEntity
  8
0
 62
     7
 48
100.0
100
AcDbBlockEnd
  0
BLOCK
  5
506B
330
5061
100
AcDbEntity
  8
0
100
AcDbBlockBegin
  2
*D26
 70
     1
 10
0.0
 20
0.0
 30
0.0
  3
*D26
  1

  0
LINE
  5
508B
330
5061
100
AcDbEntity
  8
HOJO
 62
     0
370
    -2
100
AcDbLine
 10
255.9363783190601
 20
506.8747166775132
 30
0.0
 11
-20.02774821789762
 21
506.8747166775133
 31
0.0
  0
LINE
  5
508C
330
5061
100
AcDbEntity
  8
HOJO
 62
     0
370
    -2
100
AcDbLine
 10
255.9363783190601
 20
1606.874716677512
 30
0.0
 11
-20.02774821789738
 21
1606.874716677512
 31
0.0
  0
LINE
  5
508D
330
5061
100
AcDbEntity
  8
HOJO
 62
     0
370
    -2
100
AcDbLine
 10
-19.02774821789764
 20
507.8747166775133
 30
0.0
 11
-19.02774821789739
 21
1605.874716677512
 31
0.0
  0
INSERT
  5
508E
330
5061
100
AcDbEntity
  8
HOJO
 62
     0
370
    -2
100
AcDbBlockReference
  2
_Dot
 10
-19.02774821789764
 20
506.8747166775133
 30
0.0
 50
270.0
  0
INSERT
  5
508F
330
5061
100
AcDbEntity
  8
HOJO
 62
     0
370
    -2
100
AcDbBlockReference
  2
_Dot
 10
-19.02774821789739
 20
1606.874716677512
 30
0.0
 50
90.0
  0
MTEXT
  5
5090
330
5061
100
AcDbEntity
  8
HOJO
 62
     3
100
AcDbMText
 10
-35.02774821789769
 20
1056.874716677512
 30
0.0
 40
30.0
 41
0.0
 71
     5
 72
     1
  1
\A1;1100
  7
LIFE
 11
0.0000000000000001
 21
1.0
 31
0.0
 73
     1
 44
1.0
  0
POINT
  5
5091
330
5061
100
AcDbEntity
  8
DEFPOINTS
 62
     0
100
AcDbPoint
 10
257.9363783190601
 20
506.8747166775132
 30
0.0
  0
POINT
  5
5092
330
5061
100
AcDbEntity
  8
DEFPOINTS
 62
     0
100
AcDbPoint
 10
257.9363783190601
 20
1606.874716677512
 30
0.0
  0
POINT
  5
5093
330
5061
100
AcDbEntity
  8
DEFPOINTS
 62
     0
100
AcDbPoint
 10
-19.02774821789739
 20
1606.874716677512
 30
0.0
  0
ENDBLK
  5
506C
330
5061
100
AcDbEntity
  8
0
100
AcDbBlockEnd
  0
BLOCK
  5
5077
330
506D
100
AcDbEntity
  8
0
100
AcDbBlockBegin
  2
*D27
 70
     1
 10
0.0
 20
0.0
 30
0.0
  3
*D27
  1

  0
LINE
  5
5094
330
506D
100
AcDbEntity
  8
HOJO
 62
     0
370
    -2
100
AcDbLine
 10
255.9927363524802
 20
1606.285956685546
 30
0.0
 11
255.9927363524802
 21
1764.176399210364
 31
0.0
  0
LINE
  5
5095
330
506D
100
AcDbEntity
  8
HOJO
 62
     0
370
    -2
100
AcDbLine
 10
370.9927363524802
 20
1606.285956685546
 30
0.0
 11
370.9927363524802
 21
1764.176399210364
 31
0.0
  0
LINE
  5
5096
330
506D
100
AcDbEntity
  8
HOJO
 62
     0
370
    -2
100
AcDbLine
 10
256.9927363524802
 20
1763.176399210365
 30
0.0
 11
369.9927363524802
 21
1763.176399210365
 31
0.0
  0
INSERT
  5
5097
330
506D
100
AcDbEntity
  8
HOJO
 62
     0
370
    -2
100
AcDbBlockReference
  2
_Dot
 10
255.9927363524802
 20
1763.176399210365
 30
0.0
 50
180.0
  0
INSERT
  5
5098
330
506D
100
AcDbEntity
  8
HOJO
 62
     0
370
    -2
100
AcDbBlockReference
  2
_Dot
 10
370.9927363524802
 20
1763.176399210365
 30
0.0
  0
MTEXT
  5
5099
330
506D
100
AcDbEntity
  8
HOJO
 62
     3
100
AcDbMText
 10
313.4927363524802
 20
1779.176399210365
 30
0.0
 40
30.0
 41
0.0
 71
     5
 72
     1
  1
\A1;115
  7
LIFE
 73
     1
 44
1.0
  0
POINT
  5
509A
330
506D
100
AcDbEntity
  8
DEFPOINTS
 62
     0
100
AcDbPoint
 10
255.9927363524802
 20
1604.285956685546
 30
0.0
  0
POINT
  5
509B
330
506D
100
AcDbEntity
  8
DEFPOINTS
 62
     0
100
AcDbPoint
 10
370.9927363524802
 20
1604.285956685546
 30
0.0
  0
POINT
  5
509C
330
506D
100
AcDbEntity
  8
DEFPOINTS
 62
     0
100
AcDbPoint
 10
370.9927363524802
 20
1763.176399210365
 30
0.0
  0
ENDBLK
  5
5078
330
506D
100
AcDbEntity
  8
0
100
AcDbBlockEnd
  0
BLOCK
  5
5468
330
545E
100
AcDbEntity
  8
0
100
AcDbBlockBegin
  2
*D28
 70
     1
 10
0.0
 20
0.0
 30
0.0
  3
*D28
  1

  0
LINE
  5
546A
330
545E
100
AcDbEntity
  8
KIJUN
 62
    70
370
    -2
100
AcDbLine
 10
319.5783803190678
 20
1619.35166367753
 30
0.0
 11
514.510005940714
 21
1619.351663677529
 31
0.0
  0
LINE
  5
546B
330
545E
100
AcDbEntity
  8
KIJUN
 62
    70
370
    -2
100
AcDbLine
 10
319.5783803190678
 20
1452.227664677599
 30
0.0
 11
514.510005940714
 21
1452.227664677599
 31
0.0
  0
LINE
  5
546C
330
545E
100
AcDbEntity
  8
KIJUN
 62
    60
370
    -2
100
AcDbLine
 10
514.510005940714
 20
1613.35166367753
 30
0.0
 11
514.510005940714
 21
1458.227664677599
 31
0.0
  0
LINE
  5
546D
330
545E
100
AcDbEntity
  8
KIJUN
 62
    60
370
    -2
100
AcDbLine
 10
514.510005940714
 20
1452.227664677599
 30
0.0
 11
514.5100059407139
 21
1259.560998010932
 31
0.0
  0
INSERT
  5
546E
330
545E
100
AcDbEntity
  8
KIJUN
 62
    60
370
    -2
100
AcDbBlockReference
  2
_Dot
 10
514.510005940714
 20
1619.351663677529
 30
0.0
 41
6.0
 42
6.0
 43
6.0
 50
90.0
  0
INSERT
  5
546F
330
545E
100
AcDbEntity
  8
KIJUN
 62
    60
370
    -2
100
AcDbBlockReference
  2
_Dot
 10
514.510005940714
 20
1452.227664677599
 30
0.0
 41
6.0
 42
6.0
 43
6.0
 50
270.0
  0
MTEXT
  5
5470
330
545E
100
AcDbEntity
  8
KIJUN
 62
    60
100
AcDbMText
 10
494.5100059407137
 20
1352.894331344266
 30
0.0
 40
20.0
 41
0.0
 71
     5
 72
     1
  1
\A1;167.123999
  7
SUNPOU
 11
0.0000000000000001
 21
1.0
 31
0.0
 73
     1
 44
1.0
  0
POINT
  5
5471
330
545E
100
AcDbEntity
  8
DEFPOINTS
 62
     0
100
AcDbPoint
 10
313.5783803190678
 20
1619.35166367753
 30
0.0
  0
POINT
  5
5472
330
545E
100
AcDbEntity
  8
DEFPOINTS
 62
     0
100
AcDbPoint
 10
313.5783803190678
 20
1452.227664677599
 30
0.0
  0
POINT
  5
5473
330
545E
100
AcDbEntity
  8
DEFPOINTS
 62
     0
100
AcDbPoint
 10
514.510005940714
 20
1452.227664677599
 30
0.0
  0
ENDBLK
  5
5469
330
545E
100
AcDbEntity
  8
0
100
AcDbBlockEnd
  0
BLOCK
  5
547F
330
5475
100
AcDbEntity
  8
0
100
AcDbBlockBegin
  2
*D29
 70
     1
 10
0.0
 20
0.0
 30
0.0
  3
*D29
  1

  0
LINE
  5
5476
330
5475
100
AcDbEntity
  8
KIJUN
 62
    70
370
    -2
100
AcDbLine
 10
319.5783803190678
 20
1607.378144677582
 30
0.0
 11
620.8166143365388
 21
1607.378144677581
 31
0.0
  0
LINE
  5
5477
330
5475
100
AcDbEntity
  8
KIJUN
 62
    70
370
    -2
100
AcDbLine
 10
319.5783803190678
 20
1452.227664677599
 30
0.0
 11
620.8166143365388
 21
1452.227664677599
 31
0.0
  0
LINE
  5
5478
330
5475
100
AcDbEntity
  8
KIJUN
 62
    60
370
    -2
100
AcDbLine
 10
620.8166143365388
 20
1601.378144677582
 30
0.0
 11
620.8166143365388
 21
1458.227664677599
 31
0.0
  0
INSERT
  5
5479
330
5475
100
AcDbEntity
  8
KIJUN
 62
    60
370
    -2
100
AcDbBlockReference
  2
_Dot
 10
620.8166143365388
 20
1607.378144677581
 30
0.0
 41
6.0
 42
6.0
 43
6.0
 50
90.0
  0
INSERT
  5
547A
330
5475
100
AcDbEntity
  8
KIJUN
 62
    60
370
    -2
100
AcDbBlockReference
  2
_Dot
 10
620.8166143365388
 20
1452.227664677599
 30
0.0
 41
6.0
 42
6.0
 43
6.0
 50
270.0
  0
MTEXT
  5
547B
330
5475
100
AcDbEntity
  8
KIJUN
 62
    60
100
AcDbMText
 10
600.8166143365386
 20
1529.80290467759
 30
0.0
 40
20.0
 41
0.0
 71
     5
 72
     1
  1
\A1;155
  7
SUNPOU
 11
0.0000000000000001
 21
1.0
 31
0.0
 73
     1
 44
1.0
  0
POINT
  5
547C
330
5475
100
AcDbEntity
  8
DEFPOINTS
 62
     0
100
AcDbPoint
 10
313.5783803190678
 20
1607.378144677582
 30
0.0
  0
POINT
  5
547D
330
5475
100
AcDbEntity
  8
DEFPOINTS
 62
     0
100
AcDbPoint
 10
313.5783803190678
 20
1452.227664677599
 30
0.0
  0
POINT
  5
547E
330
5475
100
AcDbEntity
  8
DEFPOINTS
 62
     0
100
AcDbPoint
 10
620.8166143365388
 20
1452.227664677599
 30
0.0
  0
ENDBLK
  5
5480
330
5475
100
AcDbEntity
  8
0
100
AcDbBlockEnd
  0
BLOCK
  5
5496
330
548C
100
AcDbEntity
  8
0
100
AcDbBlockBegin
  2
*D30
 70
     1
 10
0.0
 20
0.0
 30
0.0
  3
*D30
  1

  0
LINE
  5
548D
330
548C
100
AcDbEntity
  8
SUNPOU
 62
    70
370
    -2
100
AcDbLine
 10
256.0783803190677
 20
1611.378144677582
 30
0.0
 11
256.0783803190677
 21
1702.38698695933
 31
0.0
  0
LINE
  5
548E
330
548C
100
AcDbEntity
  8
SUNPOU
 62
    70
370
    -2
100
AcDbLine
 10
371.0783803190679
 20
1611.378144677582
 30
0.0
 11
371.0783803190679
 21
1702.38698695933
 31
0.0
  0
LINE
  5
548F
330
548C
100
AcDbEntity
  8
SUNPOU
 62
    60
370
    -2
100
AcDbLine
 10
262.0783803190677
 20
1702.38698695933
 30
0.0
 11
365.0783803190678
 21
1702.38698695933
 31
0.0
  0
INSERT
  5
5490
330
548C
100
AcDbEntity
  8
SUNPOU
 62
    60
370
    -2
100
AcDbBlockReference
  2
_Dot
 10
256.0783803190677
 20
1702.38698695933
 30
0.0
 41
6.0
 42
6.0
 43
6.0
 50
180.0
  0
INSERT
  5
5491
330
548C
100
AcDbEntity
  8
SUNPOU
 62
    60
370
    -2
100
AcDbBlockReference
  2
_Dot
 10
371.0783803190679
 20
1702.38698695933
 30
0.0
 41
6.0
 42
6.0
 43
6.0
  0
MTEXT
  5
5492
330
548C
100
AcDbEntity
  8
SUNPOU
 62
    60
100
AcDbMText
 10
313.5783803190678
 20
1722.38698695933
 30
0.0
 40
20.0
 41
0.0
 71
     5
 72
     1
  1
\A1;115
  7
SUNPOU
 73
     1
 44
1.0
  0
POINT
  5
5493
330
548C
100
AcDbEntity
  8
DEFPOINTS
 62
     0
100
AcDbPoint
 10
256.0783803190677
 20
1605.378144677582
 30
0.0
  0
POINT
  5
5494
330
548C
100
AcDbEntity
  8
DEFPOINTS
 62
     0
100
AcDbPoint
 10
371.0783803190679
 20
1605.378144677582
 30
0.0
  0
POINT
  5
5495
330
548C
100
AcDbEntity
  8
DEFPOINTS
 62
     0
100
AcDbPoint
 10
371.0783803190679
 20
1702.38698695933
 30
0.0
  0
ENDBLK
  5
5497
330
548C
100
AcDbEntity
  8
0
100
AcDbBlockEnd
  0
BLOCK
  5
54A3
330
5499
100
AcDbEntity
  8
0
100
AcDbBlockBegin
  2
*D31
 70
     1
 10
0.0
 20
0.0
 30
0.0
  3
*D31
  1

  0
LINE
  5
549A
330
5499
100
AcDbEntity
  8
SUNPOU
 62
    70
370
    -2
100
AcDbLine
 10
256.0783803190677
 20
503.3781446775823
 30
0.0
 11
256.0783803190677
 21
377.2049038294803
 31
0.0
  0
LINE
  5
549B
330
5499
100
AcDbEntity
  8
SUNPOU
 62
    70
370
    -2
100
AcDbLine
 10
371.0783803190679
 20
503.3781446775825
 30
0.0
 11
371.0783803190679
 21
377.2049038294803
 31
0.0
  0
LINE
  5
549C
330
5499
100
AcDbEntity
  8
SUNPOU
 62
    60
370
    -2
100
AcDbLine
 10
262.0783803190677
 20
377.2049038294803
 30
0.0
 11
365.0783803190678
 21
377.2049038294803
 31
0.0
  0
INSERT
  5
549D
330
5499
100
AcDbEntity
  8
SUNPOU
 62
    60
370
    -2
100
AcDbBlockReference
  2
_Dot
 10
256.0783803190677
 20
377.2049038294803
 30
0.0
 41
6.0
 42
6.0
 43
6.0
 50
180.0
  0
INSERT
  5
549E
330
5499
100
AcDbEntity
  8
SUNPOU
 62
    60
370
    -2
100
AcDbBlockReference
  2
_Dot
 10
371.0783803190679
 20
377.2049038294803
 30
0.0
 41
6.0
 42
6.0
 43
6.0
  0
MTEXT
  5
549F
330
5499
100
AcDbEntity
  8
SUNPOU
 62
    60
100
AcDbMText
 10
313.5783803190678
 20
397.2049038294803
 30
0.0
 40
20.0
 41
0.0
 71
     5
 72
     1
  1
\A1;115
  7
SUNPOU
 73
     1
 44
1.0
  0
POINT
  5
54A0
330
5499
100
AcDbEntity
  8
DEFPOINTS
 62
     0
100
AcDbPoint
 10
256.0783803190677
 20
509.3781446775824
 30
0.0
  0
POINT
  5
54A1
330
5499
100
AcDbEntity
  8
DEFPOINTS
 62
     0
100
AcDbPoint
 10
371.0783803190679
 20
509.3781446775825
 30
0.0
  0
POINT
  5
54A2
330
5499
100
AcDbEntity
  8
DEFPOINTS
 62
     0
100
AcDbPoint
 10
371.0783803190679
 20
377.2049038294803
 30
0.0
  0
ENDBLK
  5
54A4
330
5499
100
AcDbEntity
  8
0
100
AcDbBlockEnd
  0
BLOCK
  5
54B0
330
54A6
100
AcDbEntity
  8
0
100
AcDbBlockBegin
  2
*D32
 70
     1
 10
0.0
 20
0.0
 30
0.0
  3
*D32
  1

  0
LINE
  5
54A7
330
54A6
100
AcDbEntity
  8
SUNPOU
 62
    70
370
    -2
100
AcDbLine
 10
252.0783803190677
 20
507.3781446775823
 30
0.0
 11
56.51944005289698
 21
507.3781446775824
 31
0.0
  0
LINE
  5
54A8
330
54A6
100
AcDbEntity
  8
SUNPOU
 62
    70
370
    -2
100
AcDbLine
 10
252.0783803190677
 20
1607.378144677582
 30
0.0
 11
56.51944005289722
 21
1607.378144677582
 31
0.0
  0
LINE
  5
54A9
330
54A6
100
AcDbEntity
  8
SUNPOU
 62
    60
370
    -2
100
AcDbLine
 10
56.51944005289698
 20
513.3781446775824
 30
0.0
 11
56.51944005289722
 21
1601.378144677582
 31
0.0
  0
INSERT
  5
54AA
330
54A6
100
AcDbEntity
  8
SUNPOU
 62
    60
370
    -2
100
AcDbBlockReference
  2
_Dot
 10
56.51944005289698
 20
507.3781446775824
 30
0.0
 41
6.0
 42
6.0
 43
6.0
 50
270.0
  0
INSERT
  5
54AB
330
54A6
100
AcDbEntity
  8
SUNPOU
 62
    60
370
    -2
100
AcDbBlockReference
  2
_Dot
 10
56.51944005289722
 20
1607.378144677582
 30
0.0
 41
6.0
 42
6.0
 43
6.0
 50
90.0
  0
MTEXT
  5
54AC
330
54A6
100
AcDbEntity
  8
SUNPOU
 62
    60
100
AcDbMText
 10
36.51944005289693
 20
1057.378144677582
 30
0.0
 40
20.0
 41
0.0
 71
     5
 72
     1
  1
\A1;1100
  7
SUNPOU
 11
0.0000000000000001
 21
1.0
 31
0.0
 73
     1
 44
1.0
  0
POINT
  5
54AD
330
54A6
100
AcDbEntity
  8
DEFPOINTS
 62
     0
100
AcDbPoint
 10
258.0783803190677
 20
507.3781446775823
 30
0.0
  0
POINT
  5
54AE
330
54A6
100
AcDbEntity
  8
DEFPOINTS
 62
     0
100
AcDbPoint
 10
258.0783803190677
 20
1607.378144677582
 30
0.0
  0
POINT
  5
54AF
330
54A6
100
AcDbEntity
  8
DEFPOINTS
 62
     0
100
AcDbPoint
 10
56.51944005289722
 20
1607.378144677582
 30
0.0
  0
ENDBLK
  5
54B1
330
54A6
100
AcDbEntity
  8
0
100
AcDbBlockEnd
  0
BLOCK
  5
54BF
330
54B5
100
AcDbEntity
  8
0
 62
     7
 48
100.0
100
AcDbBlockBegin
  2
*D33
 70
     1
 10
0.0
 20
0.0
 30
0.0
  3
*D33
  1

  0
LINE
  5
54B6
330
54B5
100
AcDbEntity
  8
HOJO
 62
     0
 48
100.0
100
AcDbLine
 10
323.6271556731411
 20
1227.954877255813
 30
0.0
 11
323.6271556731411
 21
1382.803546912088
 31
0.0
  0
LINE
  5
54B7
330
54B5
100
AcDbEntity
  8
HOJO
 62
     0
 48
100.0
100
AcDbLine
 10
413.6271556731411
 20
1227.954877255813
 30
0.0
 11
413.6271556731411
 21
1382.803546912088
 31
0.0
  0
LINE
  5
54B8
330
54B5
100
AcDbEntity
  8
HOJO
 62
     0
 48
100.0
100
AcDbLine
 10
324.6271556731411
 20
1381.803546912089
 30
0.0
 11
412.6271556731411
 21
1381.803546912089
 31
0.0
  0
INSERT
  5
54B9
330
54B5
100
AcDbEntity
  8
HOJO
 62
     0
 48
100.0
100
AcDbBlockReference
  2
_Dot
 10
323.6271556731411
 20
1381.803546912089
 30
0.0
 50
180.0
  0
INSERT
  5
54BA
330
54B5
100
AcDbEntity
  8
HOJO
 62
     0
 48
100.0
100
AcDbBlockReference
  2
_Dot
 10
413.6271556731411
 20
1381.803546912089
 30
0.0
  0
MTEXT
  5
54BB
330
54B5
100
AcDbEntity
  8
HOJO
 62
     3
 48
100.0
100
AcDbMText
 10
368.6271556731411
 20
1397.803546912089
 30
0.0
 40
30.0
 41
0.0
 71
     5
 72
     5
  1
\A1;90
  7
LIFE
 73
     1
 44
1.0
1001
ACAD
1000
MTEXTBEGIN
1070
    73
1070
     1
1070
    44
1040
1.0
1070
    74
1070
     0
1000
MTEXTEND
  0
POINT
  5
54BC
330
54B5
100
AcDbEntity
  8
DEFPOINTS
 62
     0
 48
100.0
100
AcDbPoint
 10
323.6271556731411
 20
1225.954877255813
 30
0.0
  0
POINT
  5
54BD
330
54B5
100
AcDbEntity
  8
DEFPOINTS
 62
     0
 48
100.0
100
AcDbPoint
 10
413.6271556731411
 20
1225.954877255813
 30
0.0
  0
POINT
  5
54BE
330
54B5
100
AcDbEntity
  8
DEFPOINTS
 62
     0
 48
100.0
100
AcDbPoint
 10
413.6271556731411
 20
1381.803546912089
 30
0.0
  0
ENDBLK
  5
54C0
330
54B5
100
AcDbEntity
  8
0
 62
     7
 48
100.0
100
AcDbBlockEnd
  0
BLOCK
  5
54CB
330
54C1
100
AcDbEntity
  8
0
 62
     7
 48
100.0
100
AcDbBlockBegin
  2
*D34
 70
     1
 10
0.0
 20
0.0
 30
0.0
  3
*D34
  1

  0
LINE
  5
54C2
330
54C1
100
AcDbEntity
  8
HOJO
 62
     0
 48
100.0
100
AcDbLine
 10
321.6271556731411
 20
1225.954877255813
 30
0.0
 11
151.0127110776494
 21
1225.954877255813
 31
0.0
  0
LINE
  5
54C3
330
54C1
100
AcDbEntity
  8
HOJO
 62
     0
 48
100.0
100
AcDbLine
 10
321.6271556731411
 20
125.9548772558136
 30
0.0
 11
151.0127110776491
 21
125.9548772558136
 31
0.0
  0
LINE
  5
54C4
330
54C1
100
AcDbEntity
  8
HOJO
 62
     0
 48
100.0
100
AcDbLine
 10
152.0127110776494
 20
1224.954877255813
 30
0.0
 11
152.0127110776491
 21
126.9548772558136
 31
0.0
  0
INSERT
  5
54C5
330
54C1
100
AcDbEntity
  8
HOJO
 62
     0
 48
100.0
100
AcDbBlockReference
  2
_Dot
 10
152.0127110776494
 20
1225.954877255813
 30
0.0
 50
90.0
  0
INSERT
  5
54C6
330
54C1
100
AcDbEntity
  8
HOJO
 62
     0
 48
100.0
100
AcDbBlockReference
  2
_Dot
 10
152.0127110776491
 20
125.9548772558136
 30
0.0
 50
270.0
  0
MTEXT
  5
54C7
330
54C1
100
AcDbEntity
  8
HOJO
 62
     3
 48
100.0
100
AcDbMText
 10
136.0127110776492
 20
675.9548772558137
 30
0.0
 40
30.0
 41
0.0
 71
     5
 72
     5
  1
\A1;1100
  7
LIFE
 11
0.0000000000000001
 21
1.0
 31
0.0
 73
     1
 44
1.0
1001
ACAD
1000
MTEXTBEGIN
1070
    73
1070
     1
1070
    44
1040
1.0
1070
    74
1070
     0
1000
MTEXTEND
  0
POINT
  5
54C8
330
54C1
100
AcDbEntity
  8
DEFPOINTS
 62
     0
 48
100.0
100
AcDbPoint
 10
323.6271556731411
 20
1225.954877255813
 30
0.0
  0
POINT
  5
54C9
330
54C1
100
AcDbEntity
  8
DEFPOINTS
 62
     0
 48
100.0
100
AcDbPoint
 10
323.6271556731411
 20
125.9548772558136
 30
0.0
  0
POINT
  5
54CA
330
54C1
100
AcDbEntity
  8
DEFPOINTS
 62
     0
 48
100.0
100
AcDbPoint
 10
152.0127110776491
 20
125.9548772558136
 30
0.0
  0
ENDBLK
  5
54CC
330
54C1
100
AcDbEntity
  8
0
 62
     7
 48
100.0
100
AcDbBlockEnd
  0
BLOCK
  5
5563
330
5559
100
AcDbEntity
  8
0
100
AcDbBlockBegin
  2
*D36
 70
     1
 10
0.0
 20
0.0
 30
0.0
  3
*D36
  1

  0
LINE
  5
5583
330
5559
100
AcDbEntity
  8
HOJO
 62
     0
370
    -2
100
AcDbLine
 10
294.1377272553377
 20
1415.973871069134
 30
0.0
 11
123.5232826598458
 21
1415.973871069134
 31
0.0
  0
LINE
  5
5584
330
5559
100
AcDbEntity
  8
HOJO
 62
     0
370
    -2
100
AcDbLine
 10
294.1377272553377
 20
315.9738710691348
 30
0.0
 11
123.5232826598455
 21
315.9738710691348
 31
0.0
  0
LINE
  5
5585
330
5559
100
AcDbEntity
  8
HOJO
 62
     0
370
    -2
100
AcDbLine
 10
124.5232826598458
 20
1414.973871069134
 30
0.0
 11
124.5232826598455
 21
316.9738710691348
 31
0.0
  0
INSERT
  5
5586
330
5559
100
AcDbEntity
  8
HOJO
 62
     0
370
    -2
100
AcDbBlockReference
  2
_Dot
 10
124.5232826598458
 20
1415.973871069134
 30
0.0
 50
90.0
  0
INSERT
  5
5587
330
5559
100
AcDbEntity
  8
HOJO
 62
     0
370
    -2
100
AcDbBlockReference
  2
_Dot
 10
124.5232826598455
 20
315.9738710691348
 30
0.0
 50
270.0
  0
MTEXT
  5
5588
330
5559
100
AcDbEntity
  8
HOJO
 62
     3
100
AcDbMText
 10
108.5232826598455
 20
865.9738710691346
 30
0.0
 40
30.0
 41
0.0
 71
     5
 72
     1
  1
\A1;1100
  7
LIFE
 11
0.0000000000000001
 21
1.0
 31
0.0
 73
     1
 44
1.0
  0
POINT
  5
5589
330
5559
100
AcDbEntity
  8
DEFPOINTS
 62
     0
100
AcDbPoint
 10
296.1377272553377
 20
1415.973871069134
 30
0.0
  0
POINT
  5
558A
330
5559
100
AcDbEntity
  8
DEFPOINTS
 62
     0
100
AcDbPoint
 10
296.1377272553377
 20
315.9738710691348
 30
0.0
  0
POINT
  5
558B
330
5559
100
AcDbEntity
  8
DEFPOINTS
 62
     0
100
AcDbPoint
 10
124.5232826598455
 20
315.9738710691348
 30
0.0
  0
ENDBLK
  5
5564
330
5559
100
AcDbEntity
  8
0
100
AcDbBlockEnd
  0
BLOCK
  5
556F
330
5565
100
AcDbEntity
  8
0
100
AcDbBlockBegin
  2
*D37
 70
     1
 10
0.0
 20
0.0
 30
0.0
  3
*D37
  1

  0
LINE
  5
558C
330
5565
100
AcDbEntity
  8
HOJO
 62
     0
370
    -2
100
AcDbLine
 10
296.1377272553377
 20
1417.973871069134
 30
0.0
 11
296.1377272553377
 21
1572.82254072541
 31
0.0
  0
LINE
  5
558D
330
5565
100
AcDbEntity
  8
HOJO
 62
     0
370
    -2
100
AcDbLine
 10
386.1377272553377
 20
1417.973871069134
 30
0.0
 11
386.1377272553377
 21
1572.82254072541
 31
0.0
  0
LINE
  5
558E
330
5565
100
AcDbEntity
  8
HOJO
 62
     0
370
    -2
100
AcDbLine
 10
297.1377272553377
 20
1571.82254072541
 30
0.0
 11
385.1377272553377
 21
1571.82254072541
 31
0.0
  0
INSERT
  5
558F
330
5565
100
AcDbEntity
  8
HOJO
 62
     0
370
    -2
100
AcDbBlockReference
  2
_Dot
 10
296.1377272553377
 20
1571.82254072541
 30
0.0
 50
180.0
  0
INSERT
  5
5590
330
5565
100
AcDbEntity
  8
HOJO
 62
     0
370
    -2
100
AcDbBlockReference
  2
_Dot
 10
386.1377272553377
 20
1571.82254072541
 30
0.0
  0
MTEXT
  5
5591
330
5565
100
AcDbEntity
  8
HOJO
 62
     3
100
AcDbMText
 10
341.1377272553377
 20
1587.82254072541
 30
0.0
 40
30.0
 41
0.0
 71
     5
 72
     1
  1
\A1;90
  7
LIFE
 73
     1
 44
1.0
  0
POINT
  5
5592
330
5565
100
AcDbEntity
  8
DEFPOINTS
 62
     0
100
AcDbPoint
 10
296.1377272553377
 20
1415.973871069134
 30
0.0
  0
POINT
  5
5593
330
5565
100
AcDbEntity
  8
DEFPOINTS
 62
     0
100
AcDbPoint
 10
386.1377272553377
 20
1415.973871069134
 30
0.0
  0
POINT
  5
5594
330
5565
100
AcDbEntity
  8
DEFPOINTS
 62
     0
100
AcDbPoint
 10
386.1377272553377
 20
1571.82254072541
 30
0.0
  0
ENDBLK
  5
5570
330
5565
100
AcDbEntity
  8
0
100
AcDbBlockEnd
  0
BLOCK
  5
593E
330
5934
100
AcDbEntity
  8
0
100
AcDbBlockBegin
  2
*D38
 70
     1
 10
0.0
 20
0.0
 30
0.0
  3
*D38
  1

  0
LINE
  5
5935
330
5934
100
AcDbEntity
  8
SUNPOU
 62
    70
370
    -2
100
AcDbLine
 10
296.15859356849
 20
1422.269895732006
 30
0.0
 11
296.15859356849
 21
1480.774038928284
 31
0.0
  0
LINE
  5
5936
330
5934
100
AcDbEntity
  8
SUNPOU
 62
    70
370
    -2
100
AcDbLine
 10
386.1585935684901
 20
1422.269895732006
 30
0.0
 11
386.1585935684901
 21
1480.774038928284
 31
0.0
  0
LINE
  5
5937
330
5934
100
AcDbEntity
  8
SUNPOU
 62
    60
370
    -2
100
AcDbLine
 10
302.15859356849
 20
1480.774038928284
 30
0.0
 11
380.1585935684901
 21
1480.774038928284
 31
0.0
  0
INSERT
  5
5938
330
5934
100
AcDbEntity
  8
SUNPOU
 62
    60
370
    -2
100
AcDbBlockReference
  2
_Dot
 10
296.15859356849
 20
1480.774038928284
 30
0.0
 41
6.0
 42
6.0
 43
6.0
 50
180.0
  0
INSERT
  5
5939
330
5934
100
AcDbEntity
  8
SUNPOU
 62
    60
370
    -2
100
AcDbBlockReference
  2
_Dot
 10
386.1585935684901
 20
1480.774038928284
 30
0.0
 41
6.0
 42
6.0
 43
6.0
  0
MTEXT
  5
593A
330
5934
100
AcDbEntity
  8
SUNPOU
 62
    60
100
AcDbMText
 10
341.1585935684901
 20
1500.774038928284
 30
0.0
 40
20.0
 41
0.0
 71
     5
 72
     1
  1
\A1;90
  7
SUNPOU
 73
     1
 44
1.0
  0
POINT
  5
593B
330
5934
100
AcDbEntity
  8
DEFPOINTS
 62
     0
100
AcDbPoint
 10
296.15859356849
 20
1416.269895732006
 30
0.0
  0
POINT
  5
593C
330
5934
100
AcDbEntity
  8
DEFPOINTS
 62
     0
100
AcDbPoint
 10
386.1585935684901
 20
1416.269895732006
 30
0.0
  0
POINT
  5
593D
330
5934
100
AcDbEntity
  8
DEFPOINTS
 62
     0
100
AcDbPoint
 10
386.1585935684901
 20
1480.774038928284
 30
0.0
  0
ENDBLK
  5
593F
330
5934
100
AcDbEntity
  8
0
100
AcDbBlockEnd
  0
BLOCK
  5
594B
330
5941
100
AcDbEntity
  8
0
100
AcDbBlockBegin
  2
*D39
 70
     1
 10
0.0
 20
0.0
 30
0.0
  3
*D39
  1

  0
LINE
  5
5942
330
5941
100
AcDbEntity
  8
SUNPOU
 62
    70
370
    -2
100
AcDbLine
 10
296.1585935684901
 20
314.2698957320066
 30
0.0
 11
296.1585935684901
 21
213.5583445651973
 31
0.0
  0
LINE
  5
5943
330
5941
100
AcDbEntity
  8
SUNPOU
 62
    70
370
    -2
100
AcDbLine
 10
386.15859356849
 20
314.2698957320066
 30
0.0
 11
386.15859356849
 21
213.5583445651973
 31
0.0
  0
LINE
  5
5944
330
5941
100
AcDbEntity
  8
SUNPOU
 62
    60
370
    -2
100
AcDbLine
 10
302.1585935684901
 20
213.5583445651973
 30
0.0
 11
380.15859356849
 21
213.5583445651973
 31
0.0
  0
INSERT
  5
5945
330
5941
100
AcDbEntity
  8
SUNPOU
 62
    60
370
    -2
100
AcDbBlockReference
  2
_Dot
 10
296.1585935684901
 20
213.5583445651973
 30
0.0
 41
6.0
 42
6.0
 43
6.0
 50
180.0
  0
INSERT
  5
5946
330
5941
100
AcDbEntity
  8
SUNPOU
 62
    60
370
    -2
100
AcDbBlockReference
  2
_Dot
 10
386.15859356849
 20
213.5583445651973
 30
0.0
 41
6.0
 42
6.0
 43
6.0
  0
MTEXT
  5
5947
330
5941
100
AcDbEntity
  8
SUNPOU
 62
    60
100
AcDbMText
 10
341.1585935684901
 20
233.5583445651973
 30
0.0
 40
20.0
 41
0.0
 71
     5
 72
     1
  1
\A1;90
  7
SUNPOU
 73
     1
 44
1.0
  0
POINT
  5
5948
330
5941
100
AcDbEntity
  8
DEFPOINTS
 62
     0
100
AcDbPoint
 10
296.1585935684901
 20
320.2698957320066
 30
0.0
  0
POINT
  5
5949
330
5941
100
AcDbEntity
  8
DEFPOINTS
 62
     0
100
AcDbPoint
 10
386.15859356849
 20
320.2698957320066
 30
0.0
  0
POINT
  5
594A
330
5941
100
AcDbEntity
  8
DEFPOINTS
 62
     0
100
AcDbPoint
 10
386.15859356849
 20
213.5583445651973
 30
0.0
  0
ENDBLK
  5
594C
330
5941
100
AcDbEntity
  8
0
100
AcDbBlockEnd
  0
BLOCK
  5
5958
330
594E
100
AcDbEntity
  8
0
100
AcDbBlockBegin
  2
*D40
 70
     1
 10
0.0
 20
0.0
 30
0.0
  3
*D40
  1

  0
LINE
  5
594F
330
594E
100
AcDbEntity
  8
SUNPOU
 62
    70
370
    -2
100
AcDbLine
 10
292.1585935684901
 20
318.2698957320066
 30
0.0
 11
69.85448741342385
 21
318.2698957320067
 31
0.0
  0
LINE
  5
5950
330
594E
100
AcDbEntity
  8
SUNPOU
 62
    70
370
    -2
100
AcDbLine
 10
292.15859356849
 20
1418.269895732006
 30
0.0
 11
69.85448741342409
 21
1418.269895732006
 31
0.0
  0
LINE
  5
5951
330
594E
100
AcDbEntity
  8
SUNPOU
 62
    60
370
    -2
100
AcDbLine
 10
69.85448741342387
 20
324.2698957320067
 30
0.0
 11
69.85448741342411
 21
1412.269895732007
 31
0.0
  0
INSERT
  5
5952
330
594E
100
AcDbEntity
  8
SUNPOU
 62
    60
370
    -2
100
AcDbBlockReference
  2
_Dot
 10
69.85448741342387
 20
318.2698957320067
 30
0.0
 41
6.0
 42
6.0
 43
6.0
 50
270.0
  0
INSERT
  5
5953
330
594E
100
AcDbEntity
  8
SUNPOU
 62
    60
370
    -2
100
AcDbBlockReference
  2
_Dot
 10
69.85448741342411
 20
1418.269895732006
 30
0.0
 41
6.0
 42
6.0
 43
6.0
 50
90.0
  0
MTEXT
  5
5954
330
594E
100
AcDbEntity
  8
SUNPOU
 62
    60
100
AcDbMText
 10
49.85448741342384
 20
868.2698957320067
 30
0.0
 40
20.0
 41
0.0
 71
     5
 72
     1
  1
\A1;1100
  7
SUNPOU
 11
0.0000000000000001
 21
1.0
 31
0.0
 73
     1
 44
1.0
  0
POINT
  5
5955
330
594E
100
AcDbEntity
  8
DEFPOINTS
 62
     0
100
AcDbPoint
 10
298.1585935684901
 20
318.2698957320066
 30
0.0
  0
POINT
  5
5956
330
594E
100
AcDbEntity
  8
DEFPOINTS
 62
     0
100
AcDbPoint
 10
298.15859356849
 20
1418.269895732006
 30
0.0
  0
POINT
  5
5957
330
594E
100
AcDbEntity
  8
DEFPOINTS
 62
     0
100
AcDbPoint
 10
69.85448741342411
 20
1418.269895732006
 30
0.0
  0
ENDBLK
  5
5959
330
594E
100
AcDbEntity
  8
0
100
AcDbBlockEnd
  0
BLOCK
  5
5967
330
595D
100
AcDbEntity
  8
0
 62
     7
 48
100.0
100
AcDbBlockBegin
  2
*D41
 70
     1
 10
0.0
 20
0.0
 30
0.0
  3
*D41
  1

  0
LINE
  5
595E
330
595D
100
AcDbEntity
  8
HOJO
 62
     0
 48
100.0
100
AcDbLine
 10
318.3093071214098
 20
1193.79439963714
 30
0.0
 11
318.3093071214098
 21
1342.532111378577
 31
0.0
  0
LINE
  5
595F
330
595D
100
AcDbEntity
  8
HOJO
 62
     0
 48
100.0
100
AcDbLine
 10
388.3093071214098
 20
1193.79439963714
 30
0.0
 11
388.3093071214098
 21
1342.532111378577
 31
0.0
  0
LINE
  5
5960
330
595D
100
AcDbEntity
  8
HOJO
 62
     0
 48
100.0
100
AcDbLine
 10
319.3093071214097
 20
1341.532111378576
 30
0.0
 11
387.3093071214098
 21
1341.532111378576
 31
0.0
  0
INSERT
  5
5961
330
595D
100
AcDbEntity
  8
HOJO
 62
     0
 48
100.0
100
AcDbBlockReference
  2
_Dot
 10
318.3093071214098
 20
1341.532111378576
 30
0.0
 50
180.0
  0
INSERT
  5
5962
330
595D
100
AcDbEntity
  8
HOJO
 62
     0
 48
100.0
100
AcDbBlockReference
  2
_Dot
 10
388.3093071214098
 20
1341.532111378576
 30
0.0
  0
MTEXT
  5
5963
330
595D
100
AcDbEntity
  8
HOJO
 62
     3
 48
100.0
100
AcDbMText
 10
353.3093071214098
 20
1357.532111378576
 30
0.0
 40
30.0
 41
0.0
 71
     5
 72
     5
  1
\A1;70
  7
LIFE
 73
     1
 44
1.0
1001
ACAD
1000
MTEXTBEGIN
1070
    73
1070
     1
1070
    44
1040
1.0
1070
    74
1070
     0
1000
MTEXTEND
  0
POINT
  5
5964
330
595D
100
AcDbEntity
  8
DEFPOINTS
 62
     0
 48
100.0
100
AcDbPoint
 10
318.3093071214098
 20
1191.79439963714
 30
0.0
  0
POINT
  5
5965
330
595D
100
AcDbEntity
  8
DEFPOINTS
 62
     0
 48
100.0
100
AcDbPoint
 10
388.3093071214098
 20
1191.79439963714
 30
0.0
  0
POINT
  5
5966
330
595D
100
AcDbEntity
  8
DEFPOINTS
 62
     0
 48
100.0
100
AcDbPoint
 10
388.3093071214098
 20
1341.532111378576
 30
0.0
  0
ENDBLK
  5
5968
330
595D
100
AcDbEntity
  8
0
 62
     7
 48
100.0
100
AcDbBlockEnd
  0
BLOCK
  5
5973
330
5969
100
AcDbEntity
  8
0
 62
     7
 48
100.0
100
AcDbBlockBegin
  2
*D42
 70
     1
 10
0.0
 20
0.0
 30
0.0
  3
*D42
  1

  0
LINE
  5
596A
330
5969
100
AcDbEntity
  8
HOJO
 62
     0
 48
100.0
100
AcDbLine
 10
316.3093071214098
 20
1191.79439963714
 30
0.0
 11
149.0290345904732
 21
1191.79439963714
 31
0.0
  0
LINE
  5
596B
330
5969
100
AcDbEntity
  8
HOJO
 62
     0
 48
100.0
100
AcDbLine
 10
316.3093071214098
 20
141.7943996371413
 30
0.0
 11
149.0290345904729
 21
141.7943996371413
 31
0.0
  0
LINE
  5
596C
330
5969
100
AcDbEntity
  8
HOJO
 62
     0
 48
100.0
100
AcDbLine
 10
150.0290345904732
 20
1190.79439963714
 30
0.0
 11
150.0290345904729
 21
142.7943996371413
 31
0.0
  0
INSERT
  5
596D
330
5969
100
AcDbEntity
  8
HOJO
 62
     0
 48
100.0
100
AcDbBlockReference
  2
_Dot
 10
150.0290345904732
 20
1191.79439963714
 30
0.0
 50
90.0
  0
INSERT
  5
596E
330
5969
100
AcDbEntity
  8
HOJO
 62
     0
 48
100.0
100
AcDbBlockReference
  2
_Dot
 10
150.0290345904729
 20
141.7943996371413
 30
0.0
 50
270.0
  0
MTEXT
  5
596F
330
5969
100
AcDbEntity
  8
HOJO
 62
     3
 48
100.0
100
AcDbMText
 10
134.0290345904729
 20
666.794399637141
 30
0.0
 40
30.0
 41
0.0
 71
     5
 72
     5
  1
\A1;1050
  7
LIFE
 11
0.0000000000000001
 21
1.0
 31
0.0
 73
     1
 44
1.0
1001
ACAD
1000
MTEXTBEGIN
1070
    73
1070
     1
1070
    44
1040
1.0
1070
    74
1070
     0
1000
MTEXTEND
  0
POINT
  5
5970
330
5969
100
AcDbEntity
  8
DEFPOINTS
 62
     0
 48
100.0
100
AcDbPoint
 10
318.3093071214098
 20
1191.79439963714
 30
0.0
  0
POINT
  5
5971
330
5969
100
AcDbEntity
  8
DEFPOINTS
 62
     0
 48
100.0
100
AcDbPoint
 10
318.3093071214098
 20
141.7943996371413
 30
0.0
  0
POINT
  5
5972
330
5969
100
AcDbEntity
  8
DEFPOINTS
 62
     0
 48
100.0
100
AcDbPoint
 10
150.0290345904729
 20
141.7943996371413
 30
0.0
  0
ENDBLK
  5
5974
330
5969
100
AcDbEntity
  8
0
 62
     7
 48
100.0
100
AcDbBlockEnd
  0
BLOCK
  5
5A0D
330
5A03
100
AcDbEntity
  8
0
100
AcDbBlockBegin
  2
*D44
 70
     1
 10
0.0
 20
0.0
 30
0.0
  3
*D44
  1

  0
LINE
  5
5A2D
330
5A03
100
AcDbEntity
  8
HOJO
 62
     0
370
    -2
100
AcDbLine
 10
300.2262856673451
 20
1355.948039073947
 30
0.0
 11
132.9460131364085
 21
1355.948039073947
 31
0.0
  0
LINE
  5
5A2E
330
5A03
100
AcDbEntity
  8
HOJO
 62
     0
370
    -2
100
AcDbLine
 10
300.2262856673451
 20
305.9480390739484
 30
0.0
 11
132.9460131364082
 21
305.9480390739484
 31
0.0
  0
LINE
  5
5A2F
330
5A03
100
AcDbEntity
  8
HOJO
 62
     0
370
    -2
100
AcDbLine
 10
133.9460131364085
 20
1354.948039073947
 30
0.0
 11
133.9460131364082
 21
306.9480390739485
 31
0.0
  0
INSERT
  5
5A30
330
5A03
100
AcDbEntity
  8
HOJO
 62
     0
370
    -2
100
AcDbBlockReference
  2
_Dot
 10
133.9460131364085
 20
1355.948039073947
 30
0.0
 50
90.0
  0
INSERT
  5
5A31
330
5A03
100
AcDbEntity
  8
HOJO
 62
     0
370
    -2
100
AcDbBlockReference
  2
_Dot
 10
133.9460131364082
 20
305.9480390739484
 30
0.0
 50
270.0
  0
MTEXT
  5
5A32
330
5A03
100
AcDbEntity
  8
HOJO
 62
     3
100
AcDbMText
 10
117.9460131364082
 20
830.9480390739478
 30
0.0
 40
30.0
 41
0.0
 71
     5
 72
     1
  1
\A1;1050
  7
LIFE
 11
0.0000000000000001
 21
1.0
 31
0.0
 73
     1
 44
1.0
  0
POINT
  5
5A33
330
5A03
100
AcDbEntity
  8
DEFPOINTS
 62
     0
100
AcDbPoint
 10
302.2262856673451
 20
1355.948039073947
 30
0.0
  0
POINT
  5
5A34
330
5A03
100
AcDbEntity
  8
DEFPOINTS
 62
     0
100
AcDbPoint
 10
302.2262856673451
 20
305.9480390739484
 30
0.0
  0
POINT
  5
5A35
330
5A03
100
AcDbEntity
  8
DEFPOINTS
 62
     0
100
AcDbPoint
 10
133.9460131364082
 20
305.9480390739484
 30
0.0
  0
ENDBLK
  5
5A0E
330
5A03
100
AcDbEntity
  8
0
100
AcDbBlockEnd
  0
BLOCK
  5
5A19
330
5A0F
100
AcDbEntity
  8
0
100
AcDbBlockBegin
  2
*D45
 70
     1
 10
0.0
 20
0.0
 30
0.0
  3
*D45
  1

  0
LINE
  5
5A36
330
5A0F
100
AcDbEntity
  8
HOJO
 62
     0
370
    -2
100
AcDbLine
 10
302.2262856673451
 20
1357.948039073947
 30
0.0
 11
302.2262856673451
 21
1506.685750815384
 31
0.0
  0
LINE
  5
5A37
330
5A0F
100
AcDbEntity
  8
HOJO
 62
     0
370
    -2
100
AcDbLine
 10
372.2262856673451
 20
1357.948039073947
 30
0.0
 11
372.2262856673451
 21
1506.685750815384
 31
0.0
  0
LINE
  5
5A38
330
5A0F
100
AcDbEntity
  8
HOJO
 62
     0
370
    -2
100
AcDbLine
 10
303.2262856673451
 20
1505.685750815384
 30
0.0
 11
371.2262856673451
 21
1505.685750815384
 31
0.0
  0
INSERT
  5
5A39
330
5A0F
100
AcDbEntity
  8
HOJO
 62
     0
370
    -2
100
AcDbBlockReference
  2
_Dot
 10
302.2262856673451
 20
1505.685750815384
 30
0.0
 50
180.0
  0
INSERT
  5
5A3A
330
5A0F
100
AcDbEntity
  8
HOJO
 62
     0
370
    -2
100
AcDbBlockReference
  2
_Dot
 10
372.2262856673451
 20
1505.685750815384
 30
0.0
  0
MTEXT
  5
5A3B
330
5A0F
100
AcDbEntity
  8
HOJO
 62
     3
100
AcDbMText
 10
337.2262856673451
 20
1521.685750815384
 30
0.0
 40
30.0
 41
0.0
 71
     5
 72
     1
  1
\A1;70
  7
LIFE
 73
     1
 44
1.0
  0
POINT
  5
5A3C
330
5A0F
100
AcDbEntity
  8
DEFPOINTS
 62
     0
100
AcDbPoint
 10
302.2262856673451
 20
1355.948039073947
 30
0.0
  0
POINT
  5
5A3D
330
5A0F
100
AcDbEntity
  8
DEFPOINTS
 62
     0
100
AcDbPoint
 10
372.2262856673451
 20
1355.948039073947
 30
0.0
  0
POINT
  5
5A3E
330
5A0F
100
AcDbEntity
  8
DEFPOINTS
 62
     0
100
AcDbPoint
 10
372.2262856673451
 20
1505.685750815384
 30
0.0
  0
ENDBLK
  5
5A1A
330
5A0F
100
AcDbEntity
  8
0
100
AcDbBlockEnd
  0
BLOCK
  5
5E04
330
5DFA
100
AcDbEntity
  8
0
100
AcDbBlockBegin
  2
*D46
 70
     1
 10
0.0
 20
0.0
 30
0.0
  3
*D46
  1

  0
LINE
  5
5DFB
330
5DFA
100
AcDbEntity
  8
SUNPOU
 62
    70
370
    -2
100
AcDbLine
 10
301.928769721622
 20
1362.816647383377
 30
0.0
 11
301.928769721622
 21
1434.606873416574
 31
0.0
  0
LINE
  5
5DFC
330
5DFA
100
AcDbEntity
  8
SUNPOU
 62
    70
370
    -2
100
AcDbLine
 10
371.928769721622
 20
1362.816647383377
 30
0.0
 11
371.928769721622
 21
1434.606873416574
 31
0.0
  0
LINE
  5
5DFD
330
5DFA
100
AcDbEntity
  8
SUNPOU
 62
    60
370
    -2
100
AcDbLine
 10
307.928769721622
 20
1434.606873416574
 30
0.0
 11
365.928769721622
 21
1434.606873416574
 31
0.0
  0
INSERT
  5
5DFE
330
5DFA
100
AcDbEntity
  8
SUNPOU
 62
    60
370
    -2
100
AcDbBlockReference
  2
_Dot
 10
301.928769721622
 20
1434.606873416574
 30
0.0
 41
6.0
 42
6.0
 43
6.0
 50
180.0
  0
INSERT
  5
5DFF
330
5DFA
100
AcDbEntity
  8
SUNPOU
 62
    60
370
    -2
100
AcDbBlockReference
  2
_Dot
 10
371.928769721622
 20
1434.606873416574
 30
0.0
 41
6.0
 42
6.0
 43
6.0
  0
MTEXT
  5
5E00
330
5DFA
100
AcDbEntity
  8
SUNPOU
 62
    60
100
AcDbMText
 10
336.928769721622
 20
1454.606873416574
 30
0.0
 40
20.0
 41
0.0
 71
     5
 72
     1
  1
\A1;70
  7
SUNPOU
 73
     1
 44
1.0
  0
POINT
  5
5E01
330
5DFA
100
AcDbEntity
  8
DEFPOINTS
 62
     0
100
AcDbPoint
 10
301.928769721622
 20
1356.816647383377
 30
0.0
  0
POINT
  5
5E02
330
5DFA
100
AcDbEntity
  8
DEFPOINTS
 62
     0
100
AcDbPoint
 10
371.928769721622
 20
1356.816647383377
 30
0.0
  0
POINT
  5
5E03
330
5DFA
100
AcDbEntity
  8
DEFPOINTS
 62
     0
100
AcDbPoint
 10
371.928769721622
 20
1434.606873416574
 30
0.0
  0
ENDBLK
  5
5E05
330
5DFA
100
AcDbEntity
  8
0
100
AcDbBlockEnd
  0
BLOCK
  5
5E11
330
5E07
100
AcDbEntity
  8
0
100
AcDbBlockBegin
  2
*D47
 70
     1
 10
0.0
 20
0.0
 30
0.0
  3
*D47
  1

  0
LINE
  5
5E08
330
5E07
100
AcDbEntity
  8
SUNPOU
 62
    70
370
    -2
100
AcDbLine
 10
301.9287697216221
 20
304.8166473833774
 30
0.0
 11
301.9287697216221
 21
195.9746108583167
 31
0.0
  0
LINE
  5
5E09
330
5E07
100
AcDbEntity
  8
SUNPOU
 62
    70
370
    -2
100
AcDbLine
 10
371.928769721622
 20
304.8166473833774
 30
0.0
 11
371.928769721622
 21
195.9746108583167
 31
0.0
  0
LINE
  5
5E0A
330
5E07
100
AcDbEntity
  8
SUNPOU
 62
    60
370
    -2
100
AcDbLine
 10
307.928769721622
 20
195.9746108583167
 30
0.0
 11
365.928769721622
 21
195.9746108583167
 31
0.0
  0
INSERT
  5
5E0B
330
5E07
100
AcDbEntity
  8
SUNPOU
 62
    60
370
    -2
100
AcDbBlockReference
  2
_Dot
 10
301.9287697216221
 20
195.9746108583167
 30
0.0
 41
6.0
 42
6.0
 43
6.0
 50
180.0
  0
INSERT
  5
5E0C
330
5E07
100
AcDbEntity
  8
SUNPOU
 62
    60
370
    -2
100
AcDbBlockReference
  2
_Dot
 10
371.928769721622
 20
195.9746108583167
 30
0.0
 41
6.0
 42
6.0
 43
6.0
  0
MTEXT
  5
5E0D
330
5E07
100
AcDbEntity
  8
SUNPOU
 62
    60
100
AcDbMText
 10
336.928769721622
 20
215.9746108583167
 30
0.0
 40
20.0
 41
0.0
 71
     5
 72
     1
  1
\A1;70
  7
SUNPOU
 73
     1
 44
1.0
  0
POINT
  5
5E0E
330
5E07
100
AcDbEntity
  8
DEFPOINTS
 62
     0
100
AcDbPoint
 10
301.9287697216221
 20
310.8166473833774
 30
0.0
  0
POINT
  5
5E0F
330
5E07
100
AcDbEntity
  8
DEFPOINTS
 62
     0
100
AcDbPoint
 10
371.928769721622
 20
310.8166473833774
 30
0.0
  0
POINT
  5
5E10
330
5E07
100
AcDbEntity
  8
DEFPOINTS
 62
     0
100
AcDbPoint
 10
371.928769721622
 20
195.9746108583167
 30
0.0
  0
ENDBLK
  5
5E12
330
5E07
100
AcDbEntity
  8
0
100
AcDbBlockEnd
  0
BLOCK
  5
5E1E
330
5E14
100
AcDbEntity
  8
0
100
AcDbBlockBegin
  2
*D48
 70
     1
 10
0.0
 20
0.0
 30
0.0
  3
*D48
  1

  0
LINE
  5
5E15
330
5E14
100
AcDbEntity
  8
SUNPOU
 62
    70
370
    -2
100
AcDbLine
 10
297.928769721622
 20
308.8166473833774
 30
0.0
 11
84.02347785761937
 21
308.8166473833775
 31
0.0
  0
LINE
  5
5E16
330
5E14
100
AcDbEntity
  8
SUNPOU
 62
    70
370
    -2
100
AcDbLine
 10
297.928769721622
 20
1358.816647383377
 30
0.0
 11
84.02347785761959
 21
1358.816647383377
 31
0.0
  0
LINE
  5
5E17
330
5E14
100
AcDbEntity
  8
SUNPOU
 62
    60
370
    -2
100
AcDbLine
 10
84.02347785761937
 20
314.8166473833775
 30
0.0
 11
84.02347785761961
 21
1352.816647383377
 31
0.0
  0
INSERT
  5
5E18
330
5E14
100
AcDbEntity
  8
SUNPOU
 62
    60
370
    -2
100
AcDbBlockReference
  2
_Dot
 10
84.02347785761937
 20
308.8166473833775
 30
0.0
 41
6.0
 42
6.0
 43
6.0
 50
270.0
  0
INSERT
  5
5E19
330
5E14
100
AcDbEntity
  8
SUNPOU
 62
    60
370
    -2
100
AcDbBlockReference
  2
_Dot
 10
84.02347785761961
 20
1358.816647383377
 30
0.0
 41
6.0
 42
6.0
 43
6.0
 50
90.0
  0
MTEXT
  5
5E1A
330
5E14
100
AcDbEntity
  8
SUNPOU
 62
    60
100
AcDbMText
 10
64.02347785761937
 20
833.8166473833775
 30
0.0
 40
20.0
 41
0.0
 71
     5
 72
     1
  1
\A1;1050
  7
SUNPOU
 11
0.0000000000000001
 21
1.0
 31
0.0
 73
     1
 44
1.0
  0
POINT
  5
5E1B
330
5E14
100
AcDbEntity
  8
DEFPOINTS
 62
     0
100
AcDbPoint
 10
303.928769721622
 20
308.8166473833774
 30
0.0
  0
POINT
  5
5E1C
330
5E14
100
AcDbEntity
  8
DEFPOINTS
 62
     0
100
AcDbPoint
 10
303.928769721622
 20
1358.816647383377
 30
0.0
  0
POINT
  5
5E1D
330
5E14
100
AcDbEntity
  8
DEFPOINTS
 62
     0
100
AcDbPoint
 10
84.02347785761961
 20
1358.816647383377
 30
0.0
  0
ENDBLK
  5
5E1F
330
5E14
100
AcDbEntity
  8
0
100
AcDbBlockEnd
  0
BLOCK
  5
5E2C
330
5E22
100
AcDbEntity
  8
0
 62
     7
 48
100.0
100
AcDbBlockBegin
  2
*D49
 70
     1
 10
0.0
 20
0.0
 30
0.0
  3
*D49
  1

  0
LINE
  5
5E23
330
5E22
100
AcDbEntity
  8
HOJO
 62
     0
 48
100.0
100
AcDbLine
 10
314.0733207970806
 20
1228.662439669155
 30
0.0
 11
314.0733207970806
 21
1403.284916549739
 31
0.0
  0
LINE
  5
5E24
330
5E22
100
AcDbEntity
  8
HOJO
 62
     0
 48
100.0
100
AcDbLine
 10
367.0733207970806
 20
1228.662439669155
 30
0.0
 11
367.0733207970806
 21
1403.284916549739
 31
0.0
  0
LINE
  5
5E25
330
5E22
100
AcDbEntity
  8
HOJO
 62
     0
 48
100.0
100
AcDbLine
 10
315.0733207970806
 20
1402.284916549739
 30
0.0
 11
366.0733207970806
 21
1402.284916549739
 31
0.0
  0
INSERT
  5
5E26
330
5E22
100
AcDbEntity
  8
HOJO
 62
     0
 48
100.0
100
AcDbBlockReference
  2
_Dot
 10
314.0733207970806
 20
1402.284916549739
 30
0.0
 50
180.0
  0
INSERT
  5
5E27
330
5E22
100
AcDbEntity
  8
HOJO
 62
     0
 48
100.0
100
AcDbBlockReference
  2
_Dot
 10
367.0733207970806
 20
1402.284916549739
 30
0.0
  0
MTEXT
  5
5E28
330
5E22
100
AcDbEntity
  8
HOJO
 62
     3
 48
100.0
100
AcDbMText
 10
340.5733207970806
 20
1418.284916549739
 30
0.0
 40
30.0
 41
0.0
 71
     5
 72
     5
  1
\A1;53
  7
LIFE
 73
     1
 44
1.0
1001
ACAD
1000
MTEXTBEGIN
1070
    73
1070
     1
1070
    44
1040
1.0
1070
    74
1070
     0
1000
MTEXTEND
  0
POINT
  5
5E29
330
5E22
100
AcDbEntity
  8
DEFPOINTS
 62
     0
 48
100.0
100
AcDbPoint
 10
314.0733207970806
 20
1226.662439669155
 30
0.0
  0
POINT
  5
5E2A
330
5E22
100
AcDbEntity
  8
DEFPOINTS
 62
     0
 48
100.0
100
AcDbPoint
 10
367.0733207970806
 20
1226.662439669155
 30
0.0
  0
POINT
  5
5E2B
330
5E22
100
AcDbEntity
  8
DEFPOINTS
 62
     0
 48
100.0
100
AcDbPoint
 10
367.0733207970806
 20
1402.284916549739
 30
0.0
  0
ENDBLK
  5
5E2D
330
5E22
100
AcDbEntity
  8
0
 62
     7
 48
100.0
100
AcDbBlockEnd
  0
BLOCK
  5
5E38
330
5E2E
100
AcDbEntity
  8
0
 62
     7
 48
100.0
100
AcDbBlockBegin
  2
*D50
 70
     1
 10
0.0
 20
0.0
 30
0.0
  3
*D50
  1

  0
LINE
  5
5E2F
330
5E2E
100
AcDbEntity
  8
HOJO
 62
     0
 48
100.0
100
AcDbLine
 10
312.0733207970806
 20
1226.662439669155
 30
0.0
 11
201.9258068452961
 21
1226.662439669155
 31
0.0
  0
LINE
  5
5E30
330
5E2E
100
AcDbEntity
  8
HOJO
 62
     0
 48
100.0
100
AcDbLine
 10
312.0733207970806
 20
96.6624396691559
 30
0.0
 11
201.9258068452959
 21
96.66243966915594
 31
0.0
  0
LINE
  5
5E31
330
5E2E
100
AcDbEntity
  8
HOJO
 62
     0
 48
100.0
100
AcDbLine
 10
202.9258068452961
 20
1225.662439669155
 30
0.0
 11
202.9258068452959
 21
97.66243966915595
 31
0.0
  0
INSERT
  5
5E32
330
5E2E
100
AcDbEntity
  8
HOJO
 62
     0
 48
100.0
100
AcDbBlockReference
  2
_Dot
 10
202.9258068452961
 20
1226.662439669155
 30
0.0
 50
90.0
  0
INSERT
  5
5E33
330
5E2E
100
AcDbEntity
  8
HOJO
 62
     0
 48
100.0
100
AcDbBlockReference
  2
_Dot
 10
202.9258068452959
 20
96.66243966915594
 30
0.0
 50
270.0
  0
MTEXT
  5
5E34
330
5E2E
100
AcDbEntity
  8
HOJO
 62
     3
 48
100.0
100
AcDbMText
 10
186.9258068452959
 20
661.6624396691556
 30
0.0
 40
30.0
 41
0.0
 71
     5
 72
     5
  1
\A1;1130
  7
LIFE
 11
0.0000000000000001
 21
1.0
 31
0.0
 73
     1
 44
1.0
1001
ACAD
1000
MTEXTBEGIN
1070
    73
1070
     1
1070
    44
1040
1.0
1070
    74
1070
     0
1000
MTEXTEND
  0
POINT
  5
5E35
330
5E2E
100
AcDbEntity
  8
DEFPOINTS
 62
     0
 48
100.0
100
AcDbPoint
 10
314.0733207970806
 20
1226.662439669155
 30
0.0
  0
POINT
  5
5E36
330
5E2E
100
AcDbEntity
  8
DEFPOINTS
 62
     0
 48
100.0
100
AcDbPoint
 10
314.0733207970806
 20
96.6624396691559
 30
0.0
  0
POINT
  5
5E37
330
5E2E
100
AcDbEntity
  8
DEFPOINTS
 62
     0
 48
100.0
100
AcDbPoint
 10
202.9258068452959
 20
96.66243966915594
 30
0.0
  0
ENDBLK
  5
5E39
330
5E2E
100
AcDbEntity
  8
0
 62
     7
 48
100.0
100
AcDbBlockEnd
  0
BLOCK
  5
5ED8
330
5ECE
100
AcDbEntity
  8
0
100
AcDbBlockBegin
  2
*D52
 70
     1
 10
0.0
 20
0.0
 30
0.0
  3
*D52
  1

  0
LINE
  5
5EF8
330
5ECE
100
AcDbEntity
  8
HOJO
 62
     0
370
    -2
100
AcDbLine
 10
292.5439837440335
 20
1425.423729542236
 30
0.0
 11
182.396469792249
 21
1425.423729542236
 31
0.0
  0
LINE
  5
5EF9
330
5ECE
100
AcDbEntity
  8
HOJO
 62
     0
370
    -2
100
AcDbLine
 10
292.5439837440335
 20
295.4237295422376
 30
0.0
 11
182.3964697922488
 21
295.4237295422376
 31
0.0
  0
LINE
  5
5EFA
330
5ECE
100
AcDbEntity
  8
HOJO
 62
     0
370
    -2
100
AcDbLine
 10
183.396469792249
 20
1424.423729542236
 30
0.0
 11
183.3964697922488
 21
296.4237295422376
 31
0.0
  0
INSERT
  5
5EFB
330
5ECE
100
AcDbEntity
  8
HOJO
 62
     0
370
    -2
100
AcDbBlockReference
  2
_Dot
 10
183.396469792249
 20
1425.423729542236
 30
0.0
 50
90.0
  0
INSERT
  5
5EFC
330
5ECE
100
AcDbEntity
  8
HOJO
 62
     0
370
    -2
100
AcDbBlockReference
  2
_Dot
 10
183.3964697922488
 20
295.4237295422376
 30
0.0
 50
270.0
  0
MTEXT
  5
5EFD
330
5ECE
100
AcDbEntity
  8
HOJO
 62
     3
100
AcDbMText
 10
167.3964697922488
 20
860.4237295422372
 30
0.0
 40
30.0
 41
0.0
 71
     5
 72
     1
  1
\A1;1130
  7
LIFE
 11
0.0000000000000001
 21
1.0
 31
0.0
 73
     1
 44
1.0
  0
POINT
  5
5EFE
330
5ECE
100
AcDbEntity
  8
DEFPOINTS
 62
     0
100
AcDbPoint
 10
294.5439837440335
 20
1425.423729542236
 30
0.0
  0
POINT
  5
5EFF
330
5ECE
100
AcDbEntity
  8
DEFPOINTS
 62
     0
100
AcDbPoint
 10
294.5439837440335
 20
295.4237295422376
 30
0.0
  0
POINT
  5
5F00
330
5ECE
100
AcDbEntity
  8
DEFPOINTS
 62
     0
100
AcDbPoint
 10
183.3964697922488
 20
295.4237295422376
 30
0.0
  0
ENDBLK
  5
5ED9
330
5ECE
100
AcDbEntity
  8
0
100
AcDbBlockEnd
  0
BLOCK
  5
5EE4
330
5EDA
100
AcDbEntity
  8
0
100
AcDbBlockBegin
  2
*D53
 70
     1
 10
0.0
 20
0.0
 30
0.0
  3
*D53
  1

  0
LINE
  5
5F01
330
5EDA
100
AcDbEntity
  8
HOJO
 62
     0
370
    -2
100
AcDbLine
 10
294.5439837440335
 20
1427.423729542236
 30
0.0
 11
294.5439837440335
 21
1602.04620642282
 31
0.0
  0
LINE
  5
5F02
330
5EDA
100
AcDbEntity
  8
HOJO
 62
     0
370
    -2
100
AcDbLine
 10
347.5439837440335
 20
1427.423729542236
 30
0.0
 11
347.5439837440335
 21
1602.04620642282
 31
0.0
  0
LINE
  5
5F03
330
5EDA
100
AcDbEntity
  8
HOJO
 62
     0
370
    -2
100
AcDbLine
 10
295.5439837440335
 20
1601.046206422821
 30
0.0
 11
346.5439837440335
 21
1601.046206422821
 31
0.0
  0
INSERT
  5
5F04
330
5EDA
100
AcDbEntity
  8
HOJO
 62
     0
370
    -2
100
AcDbBlockReference
  2
_Dot
 10
294.5439837440335
 20
1601.046206422821
 30
0.0
 50
180.0
  0
INSERT
  5
5F05
330
5EDA
100
AcDbEntity
  8
HOJO
 62
     0
370
    -2
100
AcDbBlockReference
  2
_Dot
 10
347.5439837440335
 20
1601.046206422821
 30
0.0
  0
MTEXT
  5
5F06
330
5EDA
100
AcDbEntity
  8
HOJO
 62
     3
100
AcDbMText
 10
321.0439837440335
 20
1617.046206422821
 30
0.0
 40
30.0
 41
0.0
 71
     5
 72
     1
  1
\A1;53
  7
LIFE
 73
     1
 44
1.0
  0
POINT
  5
5F07
330
5EDA
100
AcDbEntity
  8
DEFPOINTS
 62
     0
100
AcDbPoint
 10
294.5439837440335
 20
1425.423729542236
 30
0.0
  0
POINT
  5
5F08
330
5EDA
100
AcDbEntity
  8
DEFPOINTS
 62
     0
100
AcDbPoint
 10
347.5439837440335
 20
1425.423729542236
 30
0.0
  0
POINT
  5
5F09
330
5EDA
100
AcDbEntity
  8
DEFPOINTS
 62
     0
100
AcDbPoint
 10
347.5439837440335
 20
1601.046206422821
 30
0.0
  0
ENDBLK
  5
5EE5
330
5EDA
100
AcDbEntity
  8
0
100
AcDbBlockEnd
  0
BLOCK
  5
6316
330
630B
100
AcDbEntity
  8
0
100
AcDbBlockBegin
  2
*D54
 70
     1
 10
0.0
 20
0.0
 30
0.0
  3
*D54
  1

  0
LINE
  5
638E
330
630B
100
AcDbEntity
  8
SUNPOU
 62
    70
370
    -2
100
AcDbLine
 10
290.5652757449847
 20
1170.254645260788
 30
0.0
 11
290.5652757449847
 21
1240.100858529851
 31
0.0
  0
LINE
  5
638F
330
630B
100
AcDbEntity
  8
SUNPOU
 62
    70
370
    -2
100
AcDbLine
 10
343.5652757449848
 20
1170.254645260788
 30
0.0
 11
343.5652757449848
 21
1240.100858529851
 31
0.0
  0
LINE
  5
6390
330
630B
100
AcDbEntity
  8
SUNPOU
 62
    60
370
    -2
100
AcDbLine
 10
296.5652757449847
 20
1240.100858529851
 30
0.0
 11
337.5652757449848
 21
1240.100858529851
 31
0.0
  0
LINE
  5
6391
330
630B
100
AcDbEntity
  8
SUNPOU
 62
    60
370
    -2
100
AcDbLine
 10
343.5652757449848
 20
1240.100858529851
 30
0.0
 11
402.8986090783181
 21
1240.100858529851
 31
0.0
  0
INSERT
  5
6392
330
630B
100
AcDbEntity
  8
SUNPOU
 62
    60
370
    -2
100
AcDbBlockReference
  2
_Dot
 10
290.5652757449847
 20
1240.100858529851
 30
0.0
 41
6.0
 42
6.0
 43
6.0
 50
180.0
  0
INSERT
  5
6393
330
630B
100
AcDbEntity
  8
SUNPOU
 62
    60
370
    -2
100
AcDbBlockReference
  2
_Dot
 10
343.5652757449848
 20
1240.100858529851
 30
0.0
 41
6.0
 42
6.0
 43
6.0
  0
MTEXT
  5
6394
330
630B
100
AcDbEntity
  8
SUNPOU
 62
    60
100
AcDbMText
 10
376.2319424116515
 20
1260.100858529851
 30
0.0
 40
20.0
 41
0.0
 71
     5
 72
     1
  1
\A1;53
  7
SUNPOU
 73
     1
 44
1.0
  0
POINT
  5
6395
330
630B
100
AcDbEntity
  8
DEFPOINTS
 62
     0
100
AcDbPoint
 10
290.5652757449847
 20
1164.254645260788
 30
0.0
  0
POINT
  5
6396
330
630B
100
AcDbEntity
  8
DEFPOINTS
 62
     0
100
AcDbPoint
 10
343.5652757449848
 20
1164.254645260788
 30
0.0
  0
POINT
  5
6397
330
630B
100
AcDbEntity
  8
DEFPOINTS
 62
     0
100
AcDbPoint
 10
343.5652757449848
 20
1240.100858529851
 30
0.0
  0
ENDBLK
  5
6317
330
630B
100
AcDbEntity
  8
0
100
AcDbBlockEnd
  0
BLOCK
  5
6324
330
6319
100
AcDbEntity
  8
0
100
AcDbBlockBegin
  2
*D55
 70
     1
 10
0.0
 20
0.0
 30
0.0
  3
*D55
  1

  0
LINE
  5
6384
330
6319
100
AcDbEntity
  8
SUNPOU
 62
    70
370
    -2
100
AcDbLine
 10
290.5652757449847
 20
262.254645260788
 30
0.0
 11
290.5652757449847
 21
175.7855037463196
 31
0.0
  0
LINE
  5
6385
330
6319
100
AcDbEntity
  8
SUNPOU
 62
    70
370
    -2
100
AcDbLine
 10
343.5652757449847
 20
262.2546452607879
 30
0.0
 11
343.5652757449847
 21
175.7855037463196
 31
0.0
  0
LINE
  5
6386
330
6319
100
AcDbEntity
  8
SUNPOU
 62
    60
370
    -2
100
AcDbLine
 10
296.5652757449847
 20
175.7855037463196
 30
0.0
 11
337.5652757449847
 21
175.7855037463196
 31
0.0
  0
LINE
  5
6387
330
6319
100
AcDbEntity
  8
SUNPOU
 62
    60
370
    -2
100
AcDbLine
 10
343.5652757449847
 20
175.7855037463196
 30
0.0
 11
402.898609078318
 21
175.7855037463196
 31
0.0
  0
INSERT
  5
6388
330
6319
100
AcDbEntity
  8
SUNPOU
 62
    60
370
    -2
100
AcDbBlockReference
  2
_Dot
 10
290.5652757449847
 20
175.7855037463196
 30
0.0
 41
6.0
 42
6.0
 43
6.0
 50
180.0
  0
INSERT
  5
6389
330
6319
100
AcDbEntity
  8
SUNPOU
 62
    60
370
    -2
100
AcDbBlockReference
  2
_Dot
 10
343.5652757449847
 20
175.7855037463196
 30
0.0
 41
6.0
 42
6.0
 43
6.0
  0
MTEXT
  5
638A
330
6319
100
AcDbEntity
  8
SUNPOU
 62
    60
100
AcDbMText
 10
376.2319424116514
 20
195.7855037463195
 30
0.0
 40
20.0
 41
0.0
 71
     5
 72
     1
  1
\A1;53
  7
SUNPOU
 73
     1
 44
1.0
  0
POINT
  5
638B
330
6319
100
AcDbEntity
  8
DEFPOINTS
 62
     0
100
AcDbPoint
 10
290.5652757449847
 20
268.254645260788
 30
0.0
  0
POINT
  5
638C
330
6319
100
AcDbEntity
  8
DEFPOINTS
 62
     0
100
AcDbPoint
 10
343.5652757449847
 20
268.2546452607879
 30
0.0
  0
POINT
  5
638D
330
6319
100
AcDbEntity
  8
DEFPOINTS
 62
     0
100
AcDbPoint
 10
343.5652757449847
 20
175.7855037463196
 30
0.0
  0
ENDBLK
  5
6325
330
6319
100
AcDbEntity
  8
0
100
AcDbBlockEnd
  0
BLOCK
  5
6331
330
6327
100
AcDbEntity
  8
0
100
AcDbBlockBegin
  2
*D56
 70
     1
 10
0.0
 20
0.0
 30
0.0
  3
*D56
  1

  0
LINE
  5
637B
330
6327
100
AcDbEntity
  8
SUNPOU
 62
    70
370
    -2
100
AcDbLine
 10
286.5652757449847
 20
266.254645260788
 30
0.0
 11
48.64160660568436
 21
266.254645260788
 31
0.0
  0
LINE
  5
637C
330
6327
100
AcDbEntity
  8
SUNPOU
 62
    70
370
    -2
100
AcDbLine
 10
286.5652757449847
 20
1166.254645260788
 30
0.0
 11
48.64160660568455
 21
1166.254645260788
 31
0.0
  0
LINE
  5
637D
330
6327
100
AcDbEntity
  8
SUNPOU
 62
    60
370
    -2
100
AcDbLine
 10
48.64160660568437
 20
272.254645260788
 30
0.0
 11
48.64160660568456
 21
1160.254645260788
 31
0.0
  0
INSERT
  5
637E
330
6327
100
AcDbEntity
  8
SUNPOU
 62
    60
370
    -2
100
AcDbBlockReference
  2
_Dot
 10
48.64160660568437
 20
266.254645260788
 30
0.0
 41
6.0
 42
6.0
 43
6.0
 50
270.0
  0
INSERT
  5
637F
330
6327
100
AcDbEntity
  8
SUNPOU
 62
    60
370
    -2
100
AcDbBlockReference
  2
_Dot
 10
48.64160660568456
 20
1166.254645260788
 30
0.0
 41
6.0
 42
6.0
 43
6.0
 50
90.0
  0
MTEXT
  5
6380
330
6327
100
AcDbEntity
  8
SUNPOU
 62
    60
100
AcDbMText
 10
28.64160660568435
 20
716.254645260788
 30
0.0
 40
20.0
 41
0.0
 71
     5
 72
     1
  1
\A1;900
  7
SUNPOU
 11
0.0000000000000001
 21
1.0
 31
0.0
 73
     1
 44
1.0
  0
POINT
  5
6381
330
6327
100
AcDbEntity
  8
DEFPOINTS
 62
     0
100
AcDbPoint
 10
292.5652757449847
 20
266.254645260788
 30
0.0
  0
POINT
  5
6382
330
6327
100
AcDbEntity
  8
DEFPOINTS
 62
     0
100
AcDbPoint
 10
292.5652757449847
 20
1166.254645260788
 30
0.0
  0
POINT
  5
6383
330
6327
100
AcDbEntity
  8
DEFPOINTS
 62
     0
100
AcDbPoint
 10
48.64160660568456
 20
1166.254645260788
 30
0.0
  0
ENDBLK
  5
6332
330
6327
100
AcDbEntity
  8
0
100
AcDbBlockEnd
  0
ENDSEC
  0
SECTION
  2
ENTITIES
  0
LINE
  5
1F
330
2
100
AcDbEntity
  8
WAKU
100
AcDbLine
 10
0.0
 20
70.0
 30
0.0
 11
610.6489978526152
 21
70.0
 31
0.0
  0
LINE
  5
20
330
2
100
AcDbEntity
  8
WAKU
100
AcDbLine
 10
0.0
 20
0.0
 30
0.0
 11
610.6489978526152
 21
0.0
 31
0.0
  0
TEXT
  5
21
330
2
100
AcDbEntity
  8
HOJO
100
AcDbText
 10
48.26983000000012
 20
11.83313000000009
 30
0.0
 40
45.0
  1
D-6
  7
SUNPOU
100
AcDbText
  0
TEXT
  5
4A3
330
2
100
AcDbEntity
  8
HOJO
100
AcDbText
 10
225.60543919488
 20
20.97829970797568
 30
0.0
 40
35.0
  1
900x53x53
  7
SUNPOU
100
AcDbText
  0
LINE
  5
5F0A
102
{ACAD_REACTORS
330
6398
102
}
330
2
100
AcDbEntity
  8
KIJUN
100
AcDbLine
 10
304.0365997449025
 20
448.1525679996726
 30
0.0
 11
302.1594127449193
 21
449.454444999634
 31
0.0
  0
LINE
  5
5F0B
102
{ACAD_REACTORS
330
6398
102
}
330
2
100
AcDbEntity
  8
KIJUN
100
AcDbLine
 10
302.1594127449193
 20
449.454444999634
 30
0.0
 11
300.5117147450055
 21
451.4219289996857
 31
0.0
  0
LINE
  5
5F0C
102
{ACAD_REACTORS
330
6398
102
}
330
2
100
AcDbEntity
  8
KIJUN
100
AcDbLine
 10
300.5117147450055
 20
451.4219289996857
 30
0.0
 11
298.8755737450755
 21
453.5686099996552
 31
0.0
  0
LINE
  5
5F0D
102
{ACAD_REACTORS
330
6398
102
}
330
2
100
AcDbEntity
  8
KIJUN
100
AcDbLine
 10
298.8755737450755
 20
453.5686099996552
 30
0.0
 11
297.4762877449456
 21
455.5917199996059
 31
0.0
  0
LINE
  5
5F0E
102
{ACAD_REACTORS
330
6398
102
}
330
2
100
AcDbEntity
  8
KIJUN
100
AcDbLine
 10
297.4762877449456
 20
455.5917199996059
 30
0.0
 11
296.2835037449617
 21
458.0755859995937
 31
0.0
  0
LINE
  5
5F0F
102
{ACAD_REACTORS
330
6398
102
}
330
2
100
AcDbEntity
  8
KIJUN
100
AcDbLine
 10
296.2835037449617
 20
458.0755859995937
 30
0.0
 11
295.1595537449307
 21
461.1740049996101
 31
0.0
  0
LINE
  5
5F10
102
{ACAD_REACTORS
330
6398
102
}
330
2
100
AcDbEntity
  8
KIJUN
100
AcDbLine
 10
295.1595537449307
 20
461.1740049996101
 30
0.0
 11
293.1985467449903
 21
469.240536999629
 31
0.0
  0
LINE
  5
5F11
102
{ACAD_REACTORS
330
6398
102
}
330
2
100
AcDbEntity
  8
KIJUN
100
AcDbLine
 10
293.1985467449903
 20
469.240536999629
 30
0.0
 11
292.0116047449037
 21
478.5745289996362
 31
0.0
  0
LINE
  5
5F12
102
{ACAD_REACTORS
330
6398
102
}
330
2
100
AcDbEntity
  8
KIJUN
100
AcDbLine
 10
292.0116047449037
 20
478.5745289996362
 30
0.0
 11
292.0116047449037
 21
489.8681309996776
 31
0.0
  0
LINE
  5
5F13
102
{ACAD_REACTORS
330
6398
102
}
330
2
100
AcDbEntity
  8
KIJUN
100
AcDbLine
 10
292.0116047449037
 20
489.8681309996776
 30
0.0
 11
293.0950417450649
 21
501.276032999604
 31
0.0
  0
LINE
  5
5F14
102
{ACAD_REACTORS
330
6398
102
}
330
2
100
AcDbEntity
  8
KIJUN
100
AcDbLine
 10
293.0950417450649
 20
501.276032999604
 30
0.0
 11
293.7755077448737
 21
505.7873269996219
 31
0.0
  0
LINE
  5
5F15
102
{ACAD_REACTORS
330
6398
102
}
330
2
100
AcDbEntity
  8
KIJUN
100
AcDbLine
 10
293.7755077448737
 20
505.7873269996219
 30
0.0
 11
294.8575477450276
 21
510.1704779996894
 31
0.0
  0
LINE
  5
5F16
102
{ACAD_REACTORS
330
6398
102
}
330
2
100
AcDbEntity
  8
KIJUN
100
AcDbLine
 10
294.8575477450276
 20
510.1704779996894
 30
0.0
 11
296.2950607449365
 21
514.528101999657
 31
0.0
  0
LINE
  5
5F17
102
{ACAD_REACTORS
330
6398
102
}
330
2
100
AcDbEntity
  8
KIJUN
100
AcDbLine
 10
296.2950607449365
 20
514.528101999657
 30
0.0
 11
301.2495847450836
 21
526.512583999693
 31
0.0
  0
LINE
  5
5F18
102
{ACAD_REACTORS
330
6398
102
}
330
2
100
AcDbEntity
  8
KIJUN
100
AcDbLine
 10
301.2495847450836
 20
526.512583999693
 30
0.0
 11
301.9891057450136
 21
530.7038379997123
 31
0.0
  0
LINE
  5
5F19
102
{ACAD_REACTORS
330
6398
102
}
330
2
100
AcDbEntity
  8
KIJUN
100
AcDbLine
 10
301.9891057450136
 20
530.7038379997123
 30
0.0
 11
302.4880887450767
 21
535.2279589996782
 31
0.0
  0
LINE
  5
5F1A
102
{ACAD_REACTORS
330
6398
102
}
330
2
100
AcDbEntity
  8
KIJUN
100
AcDbLine
 10
302.4880887450767
 20
535.2279589996782
 30
0.0
 11
302.6430287450843
 21
540.1106009996241
 31
0.0
  0
LINE
  5
5F1B
102
{ACAD_REACTORS
330
6398
102
}
330
2
100
AcDbEntity
  8
KIJUN
100
AcDbLine
 10
302.6430287450843
 20
540.1106009996241
 30
0.0
 11
301.9720877450367
 21
547.0246079996599
 31
0.0
  0
LINE
  5
5F1C
102
{ACAD_REACTORS
330
6398
102
}
330
2
100
AcDbEntity
  8
KIJUN
100
AcDbLine
 10
301.9720877450367
 20
547.0246079996599
 30
0.0
 11
300.3205797449836
 21
553.1320379996855
 31
0.0
  0
LINE
  5
5F1D
102
{ACAD_REACTORS
330
6398
102
}
330
2
100
AcDbEntity
  8
KIJUN
100
AcDbLine
 10
300.3205797449836
 20
553.1320379996855
 30
0.0
 11
297.9980037450786
 21
557.9720079996209
 31
0.0
  0
LINE
  5
5F1E
102
{ACAD_REACTORS
330
6398
102
}
330
2
100
AcDbEntity
  8
KIJUN
100
AcDbLine
 10
297.9980037450786
 20
557.9720079996209
 30
0.0
 11
295.9334917449727
 21
560.5070549996185
 31
0.0
  0
LINE
  5
5F1F
102
{ACAD_REACTORS
330
6398
102
}
330
2
100
AcDbEntity
  8
KIJUN
100
AcDbLine
 10
295.9334917449727
 20
560.5070549996185
 30
0.0
 11
336.6020667449106
 21
560.5070549996185
 31
0.0
  0
LINE
  5
5F20
102
{ACAD_REACTORS
330
6398
102
}
330
2
100
AcDbEntity
  8
KIJUN
100
AcDbLine
 10
336.6020667449106
 20
560.5070549996185
 30
0.0
 11
333.7115467449248
 21
557.9720079996209
 31
0.0
  0
LINE
  5
5F21
102
{ACAD_REACTORS
330
6398
102
}
330
2
100
AcDbEntity
  8
KIJUN
100
AcDbLine
 10
333.7115467449248
 20
557.9720079996209
 30
0.0
 11
331.4410407450836
 21
554.7450649996339
 31
0.0
  0
LINE
  5
5F22
102
{ACAD_REACTORS
330
6398
102
}
330
2
100
AcDbEntity
  8
KIJUN
100
AcDbLine
 10
331.4410407450836
 20
554.7450649996339
 30
0.0
 11
329.5830307448973
 21
548.1770059996072
 31
0.0
  0
LINE
  5
5F23
102
{ACAD_REACTORS
330
6398
102
}
330
2
100
AcDbEntity
  8
KIJUN
100
AcDbLine
 10
329.5830307448973
 20
548.1770059996072
 30
0.0
 11
329.1185917449897
 21
538.1516259996812
 31
0.0
  0
LINE
  5
5F24
102
{ACAD_REACTORS
330
6398
102
}
330
2
100
AcDbEntity
  8
KIJUN
100
AcDbLine
 10
329.1185917449897
 20
538.1516259996812
 30
0.0
 11
329.5180067450623
 21
533.0939779996282
 31
0.0
  0
LINE
  5
5F25
102
{ACAD_REACTORS
330
6398
102
}
330
2
100
AcDbEntity
  8
KIJUN
100
AcDbLine
 10
329.5180067450623
 20
533.0939779996282
 30
0.0
 11
330.4565367449167
 21
528.881387999662
 31
0.0
  0
LINE
  5
5F26
102
{ACAD_REACTORS
330
6398
102
}
330
2
100
AcDbEntity
  8
KIJUN
100
AcDbLine
 10
330.4565367449167
 20
528.881387999662
 30
0.0
 11
331.5440377450786
 21
525.3600589997026
 31
0.0
  0
LINE
  5
5F27
102
{ACAD_REACTORS
330
6398
102
}
330
2
100
AcDbEntity
  8
KIJUN
100
AcDbLine
 10
331.5440377450786
 20
525.3600589997026
 30
0.0
 11
335.6730617450434
 21
516.3720149996975
 31
0.0
  0
LINE
  5
5F28
102
{ACAD_REACTORS
330
6398
102
}
330
2
100
AcDbEntity
  8
KIJUN
100
AcDbLine
 10
335.6730617450434
 20
516.3720149996975
 30
0.0
 11
337.3014557448905
 21
512.9619379996317
 31
0.0
  0
LINE
  5
5F29
102
{ACAD_REACTORS
330
6398
102
}
330
2
100
AcDbEntity
  8
KIJUN
100
AcDbLine
 10
337.3014557448905
 20
512.9619379996317
 30
0.0
 11
338.6204777448783
 21
509.4493719996337
 31
0.0
  0
LINE
  5
5F2A
102
{ACAD_REACTORS
330
6398
102
}
330
2
100
AcDbEntity
  8
KIJUN
100
AcDbLine
 10
338.6204777448783
 20
509.4493719996337
 30
0.0
 11
339.6985807450896
 21
505.8856249996337
 31
0.0
  0
LINE
  5
5F2B
102
{ACAD_REACTORS
330
6398
102
}
330
2
100
AcDbEntity
  8
KIJUN
100
AcDbLine
 10
339.6985807450896
 20
505.8856249996337
 30
0.0
 11
340.6233947449277
 21
500.3926209997029
 31
0.0
  0
LINE
  5
5F2C
102
{ACAD_REACTORS
330
6398
102
}
330
2
100
AcDbEntity
  8
KIJUN
100
AcDbLine
 10
340.6233947449277
 20
500.3926209997029
 30
0.0
 11
341.4223517448754
 21
494.6693659996693
 31
0.0
  0
LINE
  5
5F2D
102
{ACAD_REACTORS
330
6398
102
}
330
2
100
AcDbEntity
  8
KIJUN
100
AcDbLine
 10
341.4223517448754
 20
494.6693659996693
 30
0.0
 11
341.7625847450167
 21
488.9461109996432
 31
0.0
  0
LINE
  5
5F2E
102
{ACAD_REACTORS
330
6398
102
}
330
2
100
AcDbEntity
  8
KIJUN
100
AcDbLine
 10
341.7625847450167
 20
488.9461109996432
 30
0.0
 11
341.7625847450167
 21
477.8835219995985
 31
0.0
  0
LINE
  5
5F2F
102
{ACAD_REACTORS
330
6398
102
}
330
2
100
AcDbEntity
  8
KIJUN
100
AcDbLine
 10
341.7625847450167
 20
477.8835219995985
 30
0.0
 11
340.4725187448989
 21
468.0885199997012
 31
0.0
  0
LINE
  5
5F30
102
{ACAD_REACTORS
330
6398
102
}
330
2
100
AcDbEntity
  8
KIJUN
100
AcDbLine
 10
340.4725187448989
 20
468.0885199997012
 30
0.0
 11
338.3565717449446
 21
460.1370499997013
 31
0.0
  0
LINE
  5
5F31
102
{ACAD_REACTORS
330
6398
102
}
330
2
100
AcDbEntity
  8
KIJUN
100
AcDbLine
 10
338.3565717449446
 20
460.1370499997013
 30
0.0
 11
334.6405517450243
 21
452.8776029996246
 31
0.0
  0
LINE
  5
5F32
102
{ACAD_REACTORS
330
6398
102
}
330
2
100
AcDbEntity
  8
KIJUN
100
AcDbLine
 10
334.6405517450243
 20
452.8776029996246
 30
0.0
 11
333.0808647448784
 21
450.8670659996663
 31
0.0
  0
LINE
  5
5F33
102
{ACAD_REACTORS
330
6398
102
}
330
2
100
AcDbEntity
  8
KIJUN
100
AcDbLine
 10
333.0808647448784
 20
450.8670659996663
 30
0.0
 11
331.3146757450508
 21
449.3945009996699
 31
0.0
  0
LINE
  5
5F34
102
{ACAD_REACTORS
330
6398
102
}
330
2
100
AcDbEntity
  8
KIJUN
100
AcDbLine
 10
331.3146757450508
 20
449.3945009996699
 30
0.0
 11
329.3765287449846
 21
448.3830729996212
 31
0.0
  0
LINE
  5
5F35
102
{ACAD_REACTORS
330
6398
102
}
330
2
100
AcDbEntity
  8
KIJUN
100
AcDbLine
 10
329.3765287449846
 20
448.3830729996212
 30
0.0
 11
320.9145187450694
 21
448.3490369996529
 31
0.0
  0
LINE
  5
5F36
102
{ACAD_REACTORS
330
6398
102
}
330
2
100
AcDbEntity
  8
KIJUN
100
AcDbLine
 10
320.9145187450694
 20
448.3490369996529
 30
0.0
 11
312.4639387450938
 21
448.263692999639
 31
0.0
  0
LINE
  5
5F37
102
{ACAD_REACTORS
330
6398
102
}
330
2
100
AcDbEntity
  8
KIJUN
100
AcDbLine
 10
312.4639387450938
 20
448.263692999639
 30
0.0
 11
304.0365997449025
 21
448.1525679996726
 31
0.0
  0
LINE
  5
5F38
102
{ACAD_REACTORS
330
6398
102
}
330
2
100
AcDbEntity
  8
KIJUN
100
AcDbLine
 10
292.5652757449847
 20
416.0850679996096
 30
0.0
 11
341.5652757449847
 21
416.0850679996096
 31
0.0
  0
LINE
  5
5F48
102
{ACAD_REACTORS
330
6398
102
}
330
2
100
AcDbEntity
  8
KIJUN
100
AcDbLine
 10
306.7924997450527
 20
438.2690469996036
 30
0.0
 11
325.7845877450376
 21
438.2690469996036
 31
0.0
  0
LINE
  5
5F49
102
{ACAD_REACTORS
330
6398
102
}
330
2
100
AcDbEntity
  8
KIJUN
100
AcDbLine
 10
295.6760627449166
 20
426.8800679996078
 30
0.0
 11
339.8020857450087
 21
426.8800679996078
 31
0.0
  0
LINE
  5
5F4A
102
{ACAD_REACTORS
330
6398
102
}
330
2
100
AcDbEntity
  8
KIJUN
100
AcDbLine
 10
339.8020857450087
 20
426.8800679996078
 30
0.0
 11
340.9979177448754
 21
426.1374989996787
 31
0.0
  0
LINE
  5
5F4B
102
{ACAD_REACTORS
330
6398
102
}
330
2
100
AcDbEntity
  8
KIJUN
100
AcDbLine
 10
340.9979177448754
 20
426.1374989996787
 30
0.0
 11
341.8508497450957
 21
424.1904619996152
 31
0.0
  0
LINE
  5
5F4C
102
{ACAD_REACTORS
330
6398
102
}
330
2
100
AcDbEntity
  8
KIJUN
100
AcDbLine
 10
341.8508497450957
 20
424.1904619996152
 30
0.0
 11
342.1760967450154
 21
421.4605969996214
 31
0.0
  0
LINE
  5
5F4D
102
{ACAD_REACTORS
330
6398
102
}
330
2
100
AcDbEntity
  8
KIJUN
100
AcDbLine
 10
342.1760967450154
 20
421.4605969996214
 30
0.0
 11
342.1760967450154
 21
421.3426139996466
 31
0.0
  0
LINE
  5
5F4E
102
{ACAD_REACTORS
330
6398
102
}
330
2
100
AcDbEntity
  8
KIJUN
100
AcDbLine
 10
342.1760967450154
 20
421.3426139996466
 30
0.0
 11
341.5497208935737
 21
416.0850679996096
 31
0.0
  0
LINE
  5
5F54
102
{ACAD_REACTORS
330
6398
102
}
330
2
100
AcDbEntity
  8
KIJUN
100
AcDbLine
 10
293.9284275968022
 20
416.0850679996096
 30
0.0
 11
293.3020517449244
 21
421.3426139996466
 31
0.0
  0
LINE
  5
5F55
102
{ACAD_REACTORS
330
6398
102
}
330
2
100
AcDbEntity
  8
KIJUN
100
AcDbLine
 10
293.3020517449244
 20
421.3426139996466
 30
0.0
 11
293.3020517449244
 21
421.4605969996214
 31
0.0
  0
LINE
  5
5F56
102
{ACAD_REACTORS
330
6398
102
}
330
2
100
AcDbEntity
  8
KIJUN
100
AcDbLine
 10
293.3020517449244
 20
421.4605969996214
 30
0.0
 11
293.6272987450706
 21
424.1904619996152
 31
0.0
  0
LINE
  5
5F57
102
{ACAD_REACTORS
330
6398
102
}
330
2
100
AcDbEntity
  8
KIJUN
100
AcDbLine
 10
293.6272987450706
 20
424.1904619996152
 30
0.0
 11
294.4801037450078
 21
426.1374989996787
 31
0.0
  0
LINE
  5
5F58
102
{ACAD_REACTORS
330
6398
102
}
330
2
100
AcDbEntity
  8
KIJUN
100
AcDbLine
 10
294.4801037450078
 20
426.1374989996787
 30
0.0
 11
295.6760627449166
 21
426.8800679996078
 31
0.0
  0
LINE
  5
5F59
102
{ACAD_REACTORS
330
6398
102
}
330
2
100
AcDbEntity
  8
KIJUN
100
AcDbLine
 10
295.5880517449245
 20
430.1820679997131
 30
0.0
 11
339.7655097448714
 21
430.1820679997131
 31
0.0
  0
LINE
  5
5F5A
102
{ACAD_REACTORS
330
6398
102
}
330
2
100
AcDbEntity
  8
KIJUN
100
AcDbLine
 10
339.7655097448714
 20
430.1820679997131
 30
0.0
 11
339.7655097448714
 21
426.529547999688
 31
0.0
  0
LINE
  5
5F5B
102
{ACAD_REACTORS
330
6398
102
}
330
2
100
AcDbEntity
  8
KIJUN
100
AcDbLine
 10
339.7655097448714
 20
426.529547999688
 30
0.0
 11
295.5880517449245
 21
426.529547999688
 31
0.0
  0
LINE
  5
5F5C
102
{ACAD_REACTORS
330
6398
102
}
330
2
100
AcDbEntity
  8
KIJUN
100
AcDbLine
 10
295.5880517449245
 20
426.529547999688
 30
0.0
 11
295.5880517449245
 21
430.1820679997131
 31
0.0
  0
LINE
  5
5F5D
102
{ACAD_REACTORS
330
6398
102
}
330
2
100
AcDbEntity
  8
KIJUN
100
AcDbLine
 10
303.5400297449728
 20
444.8160239996671
 30
0.0
 11
308.9894727449414
 21
444.8509489997109
 31
0.0
  0
LINE
  5
5F5E
102
{ACAD_REACTORS
330
6398
102
}
330
2
100
AcDbEntity
  8
KIJUN
100
AcDbLine
 10
308.9894727449414
 20
444.8509489997109
 30
0.0
 11
312.7301307448856
 21
444.8335499997067
 31
0.0
  0
LINE
  5
5F5F
102
{ACAD_REACTORS
330
6398
102
}
330
2
100
AcDbEntity
  8
KIJUN
100
AcDbLine
 10
312.7301307448856
 20
444.8335499997067
 30
0.0
 11
318.1455377448865
 21
444.8160239996671
 31
0.0
  0
LINE
  5
5F60
102
{ACAD_REACTORS
330
6398
102
}
330
2
100
AcDbEntity
  8
KIJUN
100
AcDbLine
 10
318.1455377448865
 20
444.8160239996671
 30
0.0
 11
322.7901817450024
 21
444.8335499997067
 31
0.0
  0
LINE
  5
5F61
102
{ACAD_REACTORS
330
6398
102
}
330
2
100
AcDbEntity
  8
KIJUN
100
AcDbLine
 10
322.7901817450024
 20
444.8335499997067
 30
0.0
 11
324.9922347449964
 21
444.8509489997109
 31
0.0
  0
LINE
  5
5F62
102
{ACAD_REACTORS
330
6398
102
}
330
2
100
AcDbEntity
  8
KIJUN
100
AcDbLine
 10
324.9922347449964
 20
444.8509489997109
 30
0.0
 11
329.6025887450586
 21
444.8160239996671
 31
0.0
  0
LINE
  5
5F63
102
{ACAD_REACTORS
330
6398
102
}
330
2
100
AcDbEntity
  8
KIJUN
100
AcDbLine
 10
329.6025887450586
 20
444.8160239996671
 30
0.0
 11
326.3206547449435
 21
441.8068859996151
 31
0.0
  0
LINE
  5
5F64
102
{ACAD_REACTORS
330
6398
102
}
330
2
100
AcDbEntity
  8
KIJUN
100
AcDbLine
 10
326.3206547449435
 20
441.8068859996151
 30
0.0
 11
325.5733867449143
 21
436.5169549996958
 31
0.0
  0
LINE
  5
5F65
102
{ACAD_REACTORS
330
6398
102
}
330
2
100
AcDbEntity
  8
KIJUN
100
AcDbLine
 10
325.5733867449143
 20
436.5169549996958
 30
0.0
 11
327.6930167449595
 21
432.2021299996581
 31
0.0
  0
LINE
  5
5F66
102
{ACAD_REACTORS
330
6398
102
}
330
2
100
AcDbEntity
  8
KIJUN
100
AcDbLine
 10
327.6930167449595
 20
432.2021299996581
 30
0.0
 11
330.2487647450384
 21
431.2096249996707
 31
0.0
  0
LINE
  5
5F67
102
{ACAD_REACTORS
330
6398
102
}
330
2
100
AcDbEntity
  8
KIJUN
100
AcDbLine
 10
330.2487647450384
 20
431.2096249996707
 30
0.0
 11
334.9261747449254
 21
430.2171199996831
 31
0.0
  0
LINE
  5
5F68
102
{ACAD_REACTORS
330
6398
102
}
330
2
100
AcDbEntity
  8
KIJUN
100
AcDbLine
 10
334.9261747449254
 20
430.2171199996831
 30
0.0
 11
340.3375177449397
 21
429.8516139996447
 31
0.0
  0
LINE
  5
5F69
102
{ACAD_REACTORS
330
6398
102
}
330
2
100
AcDbEntity
  8
KIJUN
100
AcDbLine
 10
340.3375177449397
 20
429.8516139996447
 30
0.0
 11
332.7853357450867
 21
429.8572019996957
 31
0.0
  0
LINE
  5
5F6A
102
{ACAD_REACTORS
330
6398
102
}
330
2
100
AcDbEntity
  8
KIJUN
100
AcDbLine
 10
332.7853357450867
 20
429.8572019996957
 30
0.0
 11
325.0953587450267
 21
429.9500389997067
 31
0.0
  0
LINE
  5
5F6B
102
{ACAD_REACTORS
330
6398
102
}
330
2
100
AcDbEntity
  8
KIJUN
100
AcDbLine
 10
325.0953587450267
 20
429.9500389997067
 30
0.0
 11
317.5775937450444
 21
430.0080779996007
 31
0.0
  0
LINE
  5
5F6C
102
{ACAD_REACTORS
330
6398
102
}
330
2
100
AcDbEntity
  8
KIJUN
100
AcDbLine
 10
317.5775937450444
 20
430.0080779996007
 30
0.0
 11
310.1994017449678
 21
430.0080779996007
 31
0.0
  0
LINE
  5
5F6D
102
{ACAD_REACTORS
330
6398
102
}
330
2
100
AcDbEntity
  8
KIJUN
100
AcDbLine
 10
310.1994017449678
 20
430.0080779996007
 30
0.0
 11
302.8327667450926
 21
430.0080779996007
 31
0.0
  0
LINE
  5
5F6E
102
{ACAD_REACTORS
330
6398
102
}
330
2
100
AcDbEntity
  8
KIJUN
100
AcDbLine
 10
302.8327667450926
 20
430.0080779996007
 30
0.0
 11
295.4889917448877
 21
430.0080779996007
 31
0.0
  0
LINE
  5
5F6F
102
{ACAD_REACTORS
330
6398
102
}
330
2
100
AcDbEntity
  8
KIJUN
100
AcDbLine
 10
295.4889917448877
 20
430.0080779996007
 30
0.0
 11
299.8336617450904
 21
430.1299979996424
 31
0.0
  0
LINE
  5
5F70
102
{ACAD_REACTORS
330
6398
102
}
330
2
100
AcDbEntity
  8
KIJUN
100
AcDbLine
 10
299.8336617450904
 20
430.1299979996424
 30
0.0
 11
304.0291067449056
 21
431.0353809997053
 31
0.0
  0
LINE
  5
5F71
102
{ACAD_REACTORS
330
6398
102
}
330
2
100
AcDbEntity
  8
KIJUN
100
AcDbLine
 10
304.0291067449056
 20
431.0353809997053
 30
0.0
 11
307.2041067450904
 21
433.7690559995993
 31
0.0
  0
LINE
  5
5F72
102
{ACAD_REACTORS
330
6398
102
}
330
2
100
AcDbEntity
  8
KIJUN
100
AcDbLine
 10
307.2041067450904
 20
433.7690559995993
 30
0.0
 11
307.8253907449607
 21
437.6429369997079
 31
0.0
  0
LINE
  5
5F73
102
{ACAD_REACTORS
330
6398
102
}
330
2
100
AcDbEntity
  8
KIJUN
100
AcDbLine
 10
307.8253907449607
 20
437.6429369997079
 30
0.0
 11
306.5658047450038
 21
442.195759999699
 31
0.0
  0
LINE
  5
5F74
102
{ACAD_REACTORS
330
6398
102
}
330
2
100
AcDbEntity
  8
KIJUN
100
AcDbLine
 10
306.5658047450038
 20
442.195759999699
 30
0.0
 11
303.5400297449728
 21
444.8160239996671
 31
0.0
  0
LINE
  5
5F75
102
{ACAD_REACTORS
330
6398
102
}
330
2
100
AcDbEntity
  8
KIJUN
100
AcDbLine
 10
303.3350517448912
 20
448.2160679996836
 30
0.0
 11
329.6540237449066
 21
448.2160679996836
 31
0.0
  0
LINE
  5
5F76
102
{ACAD_REACTORS
330
6398
102
}
330
2
100
AcDbEntity
  8
KIJUN
100
AcDbLine
 10
329.6540237449066
 20
448.2160679996836
 30
0.0
 11
329.6540237449066
 21
445.0350989996825
 31
0.0
  0
LINE
  5
5F77
102
{ACAD_REACTORS
330
6398
102
}
330
2
100
AcDbEntity
  8
KIJUN
100
AcDbLine
 10
329.6540237449066
 20
445.0350989996825
 30
0.0
 11
303.3350517448912
 21
445.0350989996825
 31
0.0
  0
LINE
  5
5F78
102
{ACAD_REACTORS
330
6398
102
}
330
2
100
AcDbEntity
  8
KIJUN
100
AcDbLine
 10
303.3350517448912
 20
445.0350989996825
 30
0.0
 11
303.3350517448912
 21
448.2160679996836
 31
0.0
  0
LINE
  5
5F7A
102
{ACAD_REACTORS
330
6398
102
}
330
2
100
AcDbEntity
  8
KIJUN
100
AcDbLine
 10
340.2252016433704
 20
1016.857551999682
 30
0.0
 11
341.8518657449817
 21
1016.076247999694
 31
0.0
  0
LINE
  5
5F7B
102
{ACAD_REACTORS
330
6398
102
}
330
2
100
AcDbEntity
  8
KIJUN
100
AcDbLine
 10
341.8518657449817
 20
1016.076247999694
 30
0.0
 11
343.4847047449425
 21
1013.192839999692
 31
0.0
  0
LINE
  5
5F7C
102
{ACAD_REACTORS
330
6398
102
}
330
2
100
AcDbEntity
  8
KIJUN
100
AcDbLine
 10
343.4847047449425
 20
1013.192839999692
 30
0.0
 11
344.1075127448766
 21
1009.150048999699
 31
0.0
  0
LINE
  5
5F7D
102
{ACAD_REACTORS
330
6398
102
}
330
2
100
AcDbEntity
  8
KIJUN
100
AcDbLine
 10
344.1075127448766
 20
1009.150048999699
 30
0.0
 11
344.1075127448766
 21
1009.048575999653
 31
0.0
  0
LINE
  5
5F7E
102
{ACAD_REACTORS
330
6398
102
}
330
2
100
AcDbEntity
  8
KIJUN
100
AcDbLine
 10
344.1075127448766
 20
1009.048575999653
 30
0.0
 11
343.4847047449425
 21
1005.005530999676
 31
0.0
  0
LINE
  5
5F7F
102
{ACAD_REACTORS
330
6398
102
}
330
2
100
AcDbEntity
  8
KIJUN
100
AcDbLine
 10
343.4847047449425
 20
1005.005530999676
 30
0.0
 11
341.8518657449817
 21
1002.122249999609
 31
0.0
  0
LINE
  5
5F80
102
{ACAD_REACTORS
330
6398
102
}
330
2
100
AcDbEntity
  8
KIJUN
100
AcDbLine
 10
341.8518657449817
 20
1002.122249999609
 30
0.0
 11
339.5620557450734
 21
1001.022556999713
 31
0.0
  0
LINE
  5
5F81
102
{ACAD_REACTORS
330
6398
102
}
330
2
100
AcDbEntity
  8
KIJUN
100
AcDbLine
 10
339.5620557450734
 20
1001.022556999713
 30
0.0
 11
294.1645087448905
 21
1001.022556999713
 31
0.0
  0
LINE
  5
5F82
102
{ACAD_REACTORS
330
6398
102
}
330
2
100
AcDbEntity
  8
KIJUN
100
AcDbLine
 10
294.1645087448905
 20
1001.022556999713
 30
0.0
 11
291.8749527450768
 21
1002.122249999609
 31
0.0
  0
LINE
  5
5F83
102
{ACAD_REACTORS
330
6398
102
}
330
2
100
AcDbEntity
  8
KIJUN
100
AcDbLine
 10
291.8749527450768
 20
1002.122249999609
 30
0.0
 11
290.2419867450648
 21
1005.005530999676
 31
0.0
  0
LINE
  5
5F84
102
{ACAD_REACTORS
330
6398
102
}
330
2
100
AcDbEntity
  8
KIJUN
100
AcDbLine
 10
290.2419867450648
 20
1005.005530999676
 30
0.0
 11
289.6190517450945
 21
1009.048575999653
 31
0.0
  0
LINE
  5
5F85
102
{ACAD_REACTORS
330
6398
102
}
330
2
100
AcDbEntity
  8
KIJUN
100
AcDbLine
 10
289.6190517450945
 20
1009.048575999653
 30
0.0
 11
289.6190517450945
 21
1009.150048999699
 31
0.0
  0
LINE
  5
5F86
102
{ACAD_REACTORS
330
6398
102
}
330
2
100
AcDbEntity
  8
KIJUN
100
AcDbLine
 10
289.6190517450945
 20
1009.150048999699
 30
0.0
 11
290.2419867450648
 21
1013.192839999692
 31
0.0
  0
LINE
  5
5F87
102
{ACAD_REACTORS
330
6398
102
}
330
2
100
AcDbEntity
  8
KIJUN
100
AcDbLine
 10
290.2419867450648
 20
1013.192839999692
 30
0.0
 11
291.8749527450768
 21
1016.076247999694
 31
0.0
  0
LINE
  5
5F88
102
{ACAD_REACTORS
330
6398
102
}
330
2
100
AcDbEntity
  8
KIJUN
100
AcDbLine
 10
291.8749527450768
 20
1016.076247999694
 30
0.0
 11
293.5014364068981
 21
1016.857551999682
 31
0.0
  0
LINE
  5
5F89
102
{ACAD_REACTORS
330
6398
102
}
330
2
100
AcDbEntity
  8
KIJUN
100
AcDbLine
 10
285.0351137449679
 20
683.4200679996669
 30
0.0
 11
346.3596037449529
 21
683.4200679996669
 31
0.0
  0
LINE
  5
5F8A
102
{ACAD_REACTORS
330
6398
102
}
330
2
100
AcDbEntity
  8
KIJUN
100
AcDbLine
 10
346.3596037449529
 20
683.4200679996669
 30
0.0
 11
347.8251837448906
 21
683.1329209995987
 31
0.0
  0
LINE
  5
5F8B
102
{ACAD_REACTORS
330
6398
102
}
330
2
100
AcDbEntity
  8
KIJUN
100
AcDbLine
 10
347.8251837448906
 20
683.1329209995987
 30
0.0
 11
348.8703937450468
 21
682.3798109996808
 31
0.0
  0
LINE
  5
5F8C
102
{ACAD_REACTORS
330
6398
102
}
330
2
100
AcDbEntity
  8
KIJUN
100
AcDbLine
 10
348.8703937450468
 20
682.3798109996808
 30
0.0
 11
349.2690467450947
 21
681.3235519997054
 31
0.0
  0
LINE
  5
5F8D
102
{ACAD_REACTORS
330
6398
102
}
330
2
100
AcDbEntity
  8
KIJUN
100
AcDbLine
 10
349.2690467450947
 20
681.3235519997054
 30
0.0
 11
349.2690467450947
 21
681.156038999705
 31
0.0
  0
LINE
  5
5F8E
102
{ACAD_REACTORS
330
6398
102
}
330
2
100
AcDbEntity
  8
KIJUN
100
AcDbLine
 10
349.2690467450947
 20
681.156038999705
 30
0.0
 11
348.8703937450468
 21
680.1000339997067
 31
0.0
  0
LINE
  5
5F8F
102
{ACAD_REACTORS
330
6398
102
}
330
2
100
AcDbEntity
  8
KIJUN
100
AcDbLine
 10
348.8703937450468
 20
680.1000339997067
 30
0.0
 11
347.8251837448906
 21
679.3469239996726
 31
0.0
  0
LINE
  5
5F90
102
{ACAD_REACTORS
330
6398
102
}
330
2
100
AcDbEntity
  8
KIJUN
100
AcDbLine
 10
347.8251837448906
 20
679.3469239996726
 30
0.0
 11
346.3596037449529
 21
679.0595229996346
 31
0.0
  0
LINE
  5
5F91
102
{ACAD_REACTORS
330
6398
102
}
330
2
100
AcDbEntity
  8
KIJUN
100
AcDbLine
 10
346.3596037449529
 20
679.0595229996346
 30
0.0
 11
285.0351137449679
 21
679.0595229996346
 31
0.0
  0
LINE
  5
5F92
102
{ACAD_REACTORS
330
6398
102
}
330
2
100
AcDbEntity
  8
KIJUN
100
AcDbLine
 10
285.0351137449679
 20
679.0595229996346
 30
0.0
 11
283.5697877448897
 21
679.3469239996726
 31
0.0
  0
LINE
  5
5F93
102
{ACAD_REACTORS
330
6398
102
}
330
2
100
AcDbEntity
  8
KIJUN
100
AcDbLine
 10
283.5697877448897
 20
679.3469239996726
 30
0.0
 11
282.5247047450016
 21
680.1000339997067
 31
0.0
  0
LINE
  5
5F94
102
{ACAD_REACTORS
330
6398
102
}
330
2
100
AcDbEntity
  8
KIJUN
100
AcDbLine
 10
282.5247047450016
 20
680.1000339997067
 30
0.0
 11
282.1260517449545
 21
681.156038999705
 31
0.0
  0
LINE
  5
5F95
102
{ACAD_REACTORS
330
6398
102
}
330
2
100
AcDbEntity
  8
KIJUN
100
AcDbLine
 10
282.1260517449545
 20
681.156038999705
 30
0.0
 11
282.1260517449545
 21
681.3235519997054
 31
0.0
  0
LINE
  5
5F96
102
{ACAD_REACTORS
330
6398
102
}
330
2
100
AcDbEntity
  8
KIJUN
100
AcDbLine
 10
282.1260517449545
 20
681.3235519997054
 30
0.0
 11
282.5247047450016
 21
682.3798109996808
 31
0.0
  0
LINE
  5
5F97
102
{ACAD_REACTORS
330
6398
102
}
330
2
100
AcDbEntity
  8
KIJUN
100
AcDbLine
 10
282.5247047450016
 20
682.3798109996808
 30
0.0
 11
283.5697877448897
 21
683.1329209995987
 31
0.0
  0
LINE
  5
5F98
102
{ACAD_REACTORS
330
6398
102
}
330
2
100
AcDbEntity
  8
KIJUN
100
AcDbLine
 10
283.5697877448897
 20
683.1329209995987
 30
0.0
 11
285.0351137449679
 21
683.4200679996669
 31
0.0
  0
LINE
  5
5F99
102
{ACAD_REACTORS
330
6398
102
}
330
2
100
AcDbEntity
  8
KIJUN
100
AcDbLine
 10
344.1510737450657
 20
682.439119999663
 30
0.0
 11
345.3820847450615
 21
681.3046289996512
 31
0.0
  0
LINE
  5
5F9A
102
{ACAD_REACTORS
330
6398
102
}
330
2
100
AcDbEntity
  8
KIJUN
100
AcDbLine
 10
345.3820847450615
 20
681.3046289996512
 30
0.0
 11
346.8185817450926
 21
681.4665539996081
 31
0.0
  0
LINE
  5
5F9B
102
{ACAD_REACTORS
330
6398
102
}
330
2
100
AcDbEntity
  8
KIJUN
100
AcDbLine
 10
346.8185817450926
 20
681.4665539996081
 30
0.0
 11
349.1440787450615
 21
682.2770679996632
 31
0.0
  0
LINE
  5
5F9C
102
{ACAD_REACTORS
330
6398
102
}
330
2
100
AcDbEntity
  8
KIJUN
100
AcDbLine
 10
349.1440787450615
 20
682.2770679996632
 30
0.0
 11
349.1440787450615
 21
661.5265379997097
 31
0.0
  0
LINE
  5
5F9D
102
{ACAD_REACTORS
330
6398
102
}
330
2
100
AcDbEntity
  8
KIJUN
100
AcDbLine
 10
349.1440787450615
 20
661.5265379997097
 30
0.0
 11
348.2545707449375
 21
644.9910109997095
 31
0.0
  0
LINE
  5
5F9E
102
{ACAD_REACTORS
330
6398
102
}
330
2
100
AcDbEntity
  8
KIJUN
100
AcDbLine
 10
348.2545707449375
 20
644.9910109997095
 30
0.0
 11
346.0661067449316
 21
630.8061269996565
 31
0.0
  0
LINE
  5
5F9F
102
{ACAD_REACTORS
330
6398
102
}
330
2
100
AcDbEntity
  8
KIJUN
100
AcDbLine
 10
346.0661067449316
 20
630.8061269996565
 30
0.0
 11
342.0990077450178
 21
618.7290619997022
 31
0.0
  0
LINE
  5
5FA0
102
{ACAD_REACTORS
330
6398
102
}
330
2
100
AcDbEntity
  8
KIJUN
100
AcDbLine
 10
342.0990077450178
 20
618.7290619997022
 30
0.0
 11
337.2430357449766
 21
609.8125189996449
 31
0.0
  0
LINE
  5
5FA1
102
{ACAD_REACTORS
330
6398
102
}
330
2
100
AcDbEntity
  8
KIJUN
100
AcDbLine
 10
337.2430357449766
 20
609.8125189996449
 30
0.0
 11
331.2925777449627
 21
603.4090519996627
 31
0.0
  0
LINE
  5
5FA2
102
{ACAD_REACTORS
330
6398
102
}
330
2
100
AcDbEntity
  8
KIJUN
100
AcDbLine
 10
331.2925777449627
 20
603.4090519996627
 30
0.0
 11
325.8891087450674
 21
598.140583999617
 31
0.0
  0
LINE
  5
5FA3
102
{ACAD_REACTORS
330
6398
102
}
330
2
100
AcDbEntity
  8
KIJUN
100
AcDbLine
 10
325.8891087450674
 20
598.140583999617
 30
0.0
 11
324.5210647448825
 21
598.140583999617
 31
0.0
  0
LINE
  5
5FA4
102
{ACAD_REACTORS
330
6398
102
}
330
2
100
AcDbEntity
  8
KIJUN
100
AcDbLine
 10
324.5210647448825
 20
598.140583999617
 30
0.0
 11
331.9080197449275
 21
606.8945669996196
 31
0.0
  0
LINE
  5
5FA5
102
{ACAD_REACTORS
330
6398
102
}
330
2
100
AcDbEntity
  8
KIJUN
100
AcDbLine
 10
331.9080197449275
 20
606.8945669996196
 30
0.0
 11
337.4480137450655
 21
617.5130369997009
 31
0.0
  0
LINE
  5
5FA6
102
{ACAD_REACTORS
330
6398
102
}
330
2
100
AcDbEntity
  8
KIJUN
100
AcDbLine
 10
337.4480137450655
 20
617.5130369997009
 30
0.0
 11
341.2100077450654
 21
631.8600999996654
 31
0.0
  0
LINE
  5
5FA7
102
{ACAD_REACTORS
330
6398
102
}
330
2
100
AcDbEntity
  8
KIJUN
100
AcDbLine
 10
341.2100077450654
 20
631.8600999996654
 30
0.0
 11
343.2615657449414
 21
647.2606279997147
 31
0.0
  0
LINE
  5
5FA8
102
{ACAD_REACTORS
330
6398
102
}
330
2
100
AcDbEntity
  8
KIJUN
100
AcDbLine
 10
343.2615657449414
 20
647.2606279997147
 30
0.0
 11
344.1510737450657
 21
662.5805109995949
 31
0.0
  0
LINE
  5
5FA9
102
{ACAD_REACTORS
330
6398
102
}
330
2
100
AcDbEntity
  8
KIJUN
100
AcDbLine
 10
344.1510737450657
 20
662.5805109995949
 30
0.0
 11
344.1510737450657
 21
682.439119999663
 31
0.0
  0
LINE
  5
5FAA
102
{ACAD_REACTORS
330
6398
102
}
330
2
100
AcDbEntity
  8
KIJUN
100
AcDbLine
 10
308.1610517449425
 20
783.6795829997154
 30
0.0
 11
308.5148737450563
 21
772.2494559996571
 31
0.0
  0
LINE
  5
5FAB
102
{ACAD_REACTORS
330
6398
102
}
330
2
100
AcDbEntity
  8
KIJUN
100
AcDbLine
 10
308.5148737450563
 20
772.2494559996571
 30
0.0
 11
308.9374027448775
 21
761.1623559996317
 31
0.0
  0
LINE
  5
5FAC
102
{ACAD_REACTORS
330
6398
102
}
330
2
100
AcDbEntity
  8
KIJUN
100
AcDbLine
 10
308.9374027448775
 20
761.1623559996317
 30
0.0
 11
309.5710057449896
 21
750.2467059996732
 31
0.0
  0
LINE
  5
5FAD
102
{ACAD_REACTORS
330
6398
102
}
330
2
100
AcDbEntity
  8
KIJUN
100
AcDbLine
 10
309.5710057449896
 20
750.2467059996732
 30
0.0
 11
310.5575417449276
 21
739.3310559997067
 31
0.0
  0
LINE
  5
5FAE
102
{ACAD_REACTORS
330
6398
102
}
330
2
100
AcDbEntity
  8
KIJUN
100
AcDbLine
 10
320.8610517449837
 20
783.6795829997154
 30
0.0
 11
320.5072297448705
 21
772.2494559996571
 31
0.0
  0
LINE
  5
5FAF
102
{ACAD_REACTORS
330
6398
102
}
330
2
100
AcDbEntity
  8
KIJUN
100
AcDbLine
 10
320.5072297448705
 20
772.2494559996571
 30
0.0
 11
320.0847007450565
 21
761.1623559996317
 31
0.0
  0
LINE
  5
5FB0
102
{ACAD_REACTORS
330
6398
102
}
330
2
100
AcDbEntity
  8
KIJUN
100
AcDbLine
 10
320.0847007450565
 20
761.1623559996317
 30
0.0
 11
319.4510977449376
 21
750.2467059996732
 31
0.0
  0
LINE
  5
5FB1
102
{ACAD_REACTORS
330
6398
102
}
330
2
100
AcDbEntity
  8
KIJUN
100
AcDbLine
 10
319.4510977449376
 20
750.2467059996732
 30
0.0
 11
318.4645617450064
 21
739.3310559997067
 31
0.0
  0
LINE
  5
5FB2
102
{ACAD_REACTORS
330
6398
102
}
330
2
100
AcDbEntity
  8
KIJUN
100
AcDbLine
 10
329.3830057448717
 20
803.5215549996882
 30
0.0
 11
329.1508497450545
 21
791.8541919997094
 31
0.0
  0
LINE
  5
5FB3
102
{ACAD_REACTORS
330
6398
102
}
330
2
100
AcDbEntity
  8
KIJUN
100
AcDbLine
 10
329.1508497450545
 20
791.8541919997094
 30
0.0
 11
328.5858267450444
 21
780.8648819996392
 31
0.0
  0
LINE
  5
5FB4
102
{ACAD_REACTORS
330
6398
102
}
330
2
100
AcDbEntity
  8
KIJUN
100
AcDbLine
 10
328.5858267450444
 20
780.8648819996392
 30
0.0
 11
327.7383557450657
 21
770.3633789996624
 31
0.0
  0
LINE
  5
5FB5
102
{ACAD_REACTORS
330
6398
102
}
330
2
100
AcDbEntity
  8
KIJUN
100
AcDbLine
 10
327.7383557450657
 20
770.3633789996624
 30
0.0
 11
326.6583477449076
 21
760.1589289996357
 31
0.0
  0
LINE
  5
5FB6
102
{ACAD_REACTORS
330
6398
102
}
330
2
100
AcDbEntity
  8
KIJUN
100
AcDbLine
 10
326.6583477449076
 20
760.1589289996357
 30
0.0
 11
325.3963487450446
 21
750.0611589997009
 31
0.0
  0
LINE
  5
5FB7
102
{ACAD_REACTORS
330
6398
102
}
330
2
100
AcDbEntity
  8
KIJUN
100
AcDbLine
 10
325.3963487450446
 20
750.0611589997009
 30
0.0
 11
324.0025237449067
 21
739.8795689996647
 31
0.0
  0
LINE
  5
5FB8
102
{ACAD_REACTORS
330
6398
102
}
330
2
100
AcDbEntity
  8
KIJUN
100
AcDbLine
 10
299.5120977450337
 20
803.5215549996882
 30
0.0
 11
299.7442537450838
 21
791.8541919997094
 31
0.0
  0
LINE
  5
5FB9
102
{ACAD_REACTORS
330
6398
102
}
330
2
100
AcDbEntity
  8
KIJUN
100
AcDbLine
 10
299.7442537450838
 20
791.8541919997094
 30
0.0
 11
300.3092767450784
 21
780.8648819996392
 31
0.0
  0
LINE
  5
5FBA
102
{ACAD_REACTORS
330
6398
102
}
330
2
100
AcDbEntity
  8
KIJUN
100
AcDbLine
 10
300.3092767450784
 20
780.8648819996392
 30
0.0
 11
301.1567477450725
 21
770.3633789996624
 31
0.0
  0
LINE
  5
5FBB
102
{ACAD_REACTORS
330
6398
102
}
330
2
100
AcDbEntity
  8
KIJUN
100
AcDbLine
 10
301.1567477450725
 20
770.3633789996624
 30
0.0
 11
302.2367557449965
 21
760.1589289996357
 31
0.0
  0
LINE
  5
5FBC
102
{ACAD_REACTORS
330
6398
102
}
330
2
100
AcDbEntity
  8
KIJUN
100
AcDbLine
 10
302.2367557449965
 20
760.1589289996357
 30
0.0
 11
303.4987547450869
 21
750.0611589997009
 31
0.0
  0
LINE
  5
5FBD
102
{ACAD_REACTORS
330
6398
102
}
330
2
100
AcDbEntity
  8
KIJUN
100
AcDbLine
 10
303.4987547450869
 20
750.0611589997009
 30
0.0
 11
304.8925797449906
 21
739.8795689996647
 31
0.0
  0
LINE
  5
5FBE
102
{ACAD_REACTORS
330
6398
102
}
330
2
100
AcDbEntity
  8
KIJUN
100
AcDbLine
 10
288.2974897449376
 20
965.1670279996119
 30
0.0
 11
291.2884667449607
 21
961.4518969996508
 31
0.0
  0
LINE
  5
5FBF
102
{ACAD_REACTORS
330
6398
102
}
330
2
100
AcDbEntity
  8
KIJUN
100
AcDbLine
 10
291.2884667449607
 20
961.4518969996508
 30
0.0
 11
294.3552627450176
 21
955.6843189996298
 31
0.0
  0
LINE
  5
5FC0
102
{ACAD_REACTORS
330
6398
102
}
330
2
100
AcDbEntity
  8
KIJUN
100
AcDbLine
 10
294.3552627450176
 20
955.6843189996298
 30
0.0
 11
296.5635387450515
 21
949.8965479997
 31
0.0
  0
LINE
  5
5FC1
102
{ACAD_REACTORS
330
6398
102
}
330
2
100
AcDbEntity
  8
KIJUN
100
AcDbLine
 10
296.5635387450515
 20
949.8965479997
 30
0.0
 11
298.0435967450235
 21
944.0445149996239
 31
0.0
  0
LINE
  5
5FC2
102
{ACAD_REACTORS
330
6398
102
}
330
2
100
AcDbEntity
  8
KIJUN
100
AcDbLine
 10
298.0435967450235
 20
944.0445149996239
 30
0.0
 11
299.0453727450426
 21
938.1923549996084
 31
0.0
  0
LINE
  5
5FC3
102
{ACAD_REACTORS
330
6398
102
}
330
2
100
AcDbEntity
  8
KIJUN
100
AcDbLine
 10
299.0453727450426
 20
938.1923549996084
 30
0.0
 11
299.5470227450773
 21
931.7915549995973
 31
0.0
  0
LINE
  5
5FC4
102
{ACAD_REACTORS
330
6398
102
}
330
2
100
AcDbEntity
  8
KIJUN
100
AcDbLine
 10
299.5470227450773
 20
931.7915549995973
 30
0.0
 11
299.8388687450124
 21
921.7871299996064
 31
0.0
  0
LINE
  5
5FC5
102
{ACAD_REACTORS
330
6398
102
}
330
2
100
AcDbEntity
  8
KIJUN
100
AcDbLine
 10
299.8388687450124
 20
921.7871299996064
 30
0.0
 11
299.6632277449157
 21
912.0471189996044
 31
0.0
  0
LINE
  5
5FC6
102
{ACAD_REACTORS
330
6398
102
}
330
2
100
AcDbEntity
  8
KIJUN
100
AcDbLine
 10
299.6632277449157
 20
912.0471189996044
 30
0.0
 11
299.2050117450326
 21
901.9821149996655
 31
0.0
  0
LINE
  5
5FC7
102
{ACAD_REACTORS
330
6398
102
}
330
2
100
AcDbEntity
  8
KIJUN
100
AcDbLine
 10
299.2050117450326
 20
901.9821149996655
 30
0.0
 11
298.4938117449696
 21
892.6078639996724
 31
0.0
  0
LINE
  5
5FC8
102
{ACAD_REACTORS
330
6398
102
}
330
2
100
AcDbEntity
  8
KIJUN
100
AcDbLine
 10
298.4938117449696
 20
892.6078639996724
 30
0.0
 11
297.8698607448955
 21
883.1504279996975
 31
0.0
  0
LINE
  5
5FC9
102
{ACAD_REACTORS
330
6398
102
}
330
2
100
AcDbEntity
  8
KIJUN
100
AcDbLine
 10
297.8698607448955
 20
883.1504279996975
 30
0.0
 11
297.2708017449176
 21
873.6273329996633
 31
0.0
  0
LINE
  5
5FCA
102
{ACAD_REACTORS
330
6398
102
}
330
2
100
AcDbEntity
  8
KIJUN
100
AcDbLine
 10
297.2708017449176
 20
873.6273329996633
 30
0.0
 11
296.6340237448807
 21
864.0563589996032
 31
0.0
  0
LINE
  5
5FCB
102
{ACAD_REACTORS
330
6398
102
}
330
2
100
AcDbEntity
  8
KIJUN
100
AcDbLine
 10
296.6340237448807
 20
864.0563589996032
 30
0.0
 11
295.8971697449224
 21
854.4549049996223
 31
0.0
  0
LINE
  5
5FCC
102
{ACAD_REACTORS
330
6398
102
}
330
2
100
AcDbEntity
  8
KIJUN
100
AcDbLine
 10
295.8971697449224
 20
854.4549049996223
 30
0.0
 11
294.9978827449585
 21
844.8406239996783
 31
0.0
  0
LINE
  5
5FCD
102
{ACAD_REACTORS
330
6398
102
}
330
2
100
AcDbEntity
  8
KIJUN
100
AcDbLine
 10
294.9978827449585
 20
844.8406239996783
 30
0.0
 11
293.8735517450318
 21
835.2310419996083
 31
0.0
  0
LINE
  5
5FCE
102
{ACAD_REACTORS
330
6398
102
}
330
2
100
AcDbEntity
  8
KIJUN
100
AcDbLine
 10
293.8735517450318
 20
835.2310419996083
 30
0.0
 11
292.9945847450203
 21
824.0682499995982
 31
0.0
  0
LINE
  5
5FCF
102
{ACAD_REACTORS
330
6398
102
}
330
2
100
AcDbEntity
  8
KIJUN
100
AcDbLine
 10
292.9945847450203
 20
824.0682499995982
 30
0.0
 11
292.2349977449835
 21
812.6569189996683
 31
0.0
  0
LINE
  5
5FD0
102
{ACAD_REACTORS
330
6398
102
}
330
2
100
AcDbEntity
  8
KIJUN
100
AcDbLine
 10
292.2349977449835
 20
812.6569189996683
 30
0.0
 11
291.7689077449817
 21
800.9884129996375
 31
0.0
  0
LINE
  5
5FD1
102
{ACAD_REACTORS
330
6398
102
}
330
2
100
AcDbEntity
  8
KIJUN
100
AcDbLine
 10
291.7689077449817
 20
800.9884129996375
 30
0.0
 11
291.7705587450759
 21
789.0540959996083
 31
0.0
  0
LINE
  5
5FD2
102
{ACAD_REACTORS
330
6398
102
}
330
2
100
AcDbEntity
  8
KIJUN
100
AcDbLine
 10
291.7705587450759
 20
789.0540959996083
 30
0.0
 11
291.8391387449587
 21
776.4219139996584
 31
0.0
  0
LINE
  5
5FD3
102
{ACAD_REACTORS
330
6398
102
}
330
2
100
AcDbEntity
  8
KIJUN
100
AcDbLine
 10
291.8391387449587
 20
776.4219139996584
 30
0.0
 11
292.6796247448864
 21
764.0131249996651
 31
0.0
  0
LINE
  5
5FD4
102
{ACAD_REACTORS
330
6398
102
}
330
2
100
AcDbEntity
  8
KIJUN
100
AcDbLine
 10
292.6796247448864
 20
764.0131249996651
 30
0.0
 11
294.5095677450435
 21
751.9295829997087
 31
0.0
  0
LINE
  5
5FD5
102
{ACAD_REACTORS
330
6398
102
}
330
2
100
AcDbEntity
  8
KIJUN
100
AcDbLine
 10
294.5095677450435
 20
751.9295829997087
 30
0.0
 11
295.9767987450818
 21
742.9278229996802
 31
0.0
  0
LINE
  5
5FD6
102
{ACAD_REACTORS
330
6398
102
}
330
2
100
AcDbEntity
  8
KIJUN
100
AcDbLine
 10
295.9767987450818
 20
742.9278229996802
 30
0.0
 11
298.2920087450384
 21
735.4500629996205
 31
0.0
  0
LINE
  5
5FD7
102
{ACAD_REACTORS
330
6398
102
}
330
2
100
AcDbEntity
  8
KIJUN
100
AcDbLine
 10
298.2920087450384
 20
735.4500629996205
 30
0.0
 11
302.1396007449138
 21
728.8865759996282
 31
0.0
  0
LINE
  5
5FD8
102
{ACAD_REACTORS
330
6398
102
}
330
2
100
AcDbEntity
  8
KIJUN
100
AcDbLine
 10
302.1396007449138
 20
728.8865759996282
 30
0.0
 11
314.6610387450327
 21
728.9780159996324
 31
0.0
  0
LINE
  5
5FD9
102
{ACAD_REACTORS
330
6398
102
}
330
2
100
AcDbEntity
  8
KIJUN
100
AcDbLine
 10
314.6610387450327
 20
728.9780159996324
 30
0.0
 11
314.7095527450646
 21
964.8925809996891
 31
0.0
  0
LINE
  5
5FDA
102
{ACAD_REACTORS
330
6398
102
}
330
2
100
AcDbEntity
  8
KIJUN
100
AcDbLine
 10
314.7095527450646
 20
964.8925809996891
 30
0.0
 11
306.0470097449415
 21
965.3294609996171
 31
0.0
  0
LINE
  5
5FDB
102
{ACAD_REACTORS
330
6398
102
}
330
2
100
AcDbEntity
  8
KIJUN
100
AcDbLine
 10
306.0470097449415
 20
965.3294609996171
 30
0.0
 11
296.9604137449555
 21
965.827427999671
 31
0.0
  0
LINE
  5
5FDC
102
{ACAD_REACTORS
330
6398
102
}
330
2
100
AcDbEntity
  8
KIJUN
100
AcDbLine
 10
296.9604137449555
 20
965.827427999671
 30
0.0
 11
288.2974897449376
 21
965.1670279996119
 31
0.0
  0
LINE
  5
5FDD
102
{ACAD_REACTORS
330
6398
102
}
330
2
100
AcDbEntity
  8
KIJUN
100
AcDbLine
 10
342.0256017448905
 20
965.7206209996738
 30
0.0
 11
338.7681787449828
 21
961.8396279996968
 31
0.0
  0
LINE
  5
5FDE
102
{ACAD_REACTORS
330
6398
102
}
330
2
100
AcDbEntity
  8
KIJUN
100
AcDbLine
 10
338.7681787449828
 20
961.8396279996968
 30
0.0
 11
335.2067177449484
 21
955.7640749995931
 31
0.0
  0
LINE
  5
5FDF
102
{ACAD_REACTORS
330
6398
102
}
330
2
100
AcDbEntity
  8
KIJUN
100
AcDbLine
 10
335.2067177449484
 20
955.7640749995931
 30
0.0
 11
332.7319957450518
 21
949.8100609996409
 31
0.0
  0
LINE
  5
5FE0
102
{ACAD_REACTORS
330
6398
102
}
330
2
100
AcDbEntity
  8
KIJUN
100
AcDbLine
 10
332.7319957450518
 20
949.8100609996409
 30
0.0
 11
331.3099767450676
 21
943.6633879996088
 31
0.0
  0
LINE
  5
5FE1
102
{ACAD_REACTORS
330
6398
102
}
330
2
100
AcDbEntity
  8
KIJUN
100
AcDbLine
 10
331.3099767450676
 20
943.6633879996088
 30
0.0
 11
330.3879567450335
 21
937.4557549996184
 31
0.0
  0
LINE
  5
5FE2
102
{ACAD_REACTORS
330
6398
102
}
330
2
100
AcDbEntity
  8
KIJUN
100
AcDbLine
 10
330.3879567450335
 20
937.4557549996184
 30
0.0
 11
329.8465557449444
 21
931.4311289996712
 31
0.0
  0
LINE
  5
5FE3
102
{ACAD_REACTORS
330
6398
102
}
330
2
100
AcDbEntity
  8
KIJUN
100
AcDbLine
 10
329.8465557449444
 20
931.4311289996712
 30
0.0
 11
329.5329927450493
 21
921.4537549997135
 31
0.0
  0
LINE
  5
5FE4
102
{ACAD_REACTORS
330
6398
102
}
330
2
100
AcDbEntity
  8
KIJUN
100
AcDbLine
 10
329.5329927450493
 20
921.4537549997135
 30
0.0
 11
329.4586977450876
 21
911.110747999673
 31
0.0
  0
LINE
  5
5FE5
102
{ACAD_REACTORS
330
6398
102
}
330
2
100
AcDbEntity
  8
KIJUN
100
AcDbLine
 10
329.4586977450876
 20
911.110747999673
 30
0.0
 11
329.8955777448995
 21
900.7070349996523
 31
0.0
  0
LINE
  5
5FE6
102
{ACAD_REACTORS
330
6398
102
}
330
2
100
AcDbEntity
  8
KIJUN
100
AcDbLine
 10
329.8955777448995
 20
900.7070349996523
 30
0.0
 11
330.6093177448915
 21
891.3682169996334
 31
0.0
  0
LINE
  5
5FE7
102
{ACAD_REACTORS
330
6398
102
}
330
2
100
AcDbEntity
  8
KIJUN
100
AcDbLine
 10
330.6093177448915
 20
891.3682169996334
 30
0.0
 11
331.2401267449886
 21
882.0022209996691
 31
0.0
  0
LINE
  5
5FE8
102
{ACAD_REACTORS
330
6398
102
}
330
2
100
AcDbEntity
  8
KIJUN
100
AcDbLine
 10
331.2401267449886
 20
882.0022209996691
 30
0.0
 11
331.8487107449537
 21
872.6042209997125
 31
0.0
  0
LINE
  5
5FE9
102
{ACAD_REACTORS
330
6398
102
}
330
2
100
AcDbEntity
  8
KIJUN
100
AcDbLine
 10
331.8487107449537
 20
872.6042209997125
 30
0.0
 11
332.4957757450088
 21
863.1693909996553
 31
0.0
  0
LINE
  5
5FEA
102
{ACAD_REACTORS
330
6398
102
}
330
2
100
AcDbEntity
  8
KIJUN
100
AcDbLine
 10
332.4957757450088
 20
863.1693909996553
 30
0.0
 11
333.2421547449543
 21
853.6930319996264
 31
0.0
  0
LINE
  5
5FEB
102
{ACAD_REACTORS
330
6398
102
}
330
2
100
AcDbEntity
  8
KIJUN
100
AcDbLine
 10
333.2421547449543
 20
853.6930319996264
 30
0.0
 11
334.1485537450266
 21
844.1701909996863
 31
0.0
  0
LINE
  5
5FEC
102
{ACAD_REACTORS
330
6398
102
}
330
2
100
AcDbEntity
  8
KIJUN
100
AcDbLine
 10
334.1485537450266
 20
844.1701909996863
 30
0.0
 11
335.2755517449245
 21
834.5960419997012
 31
0.0
  0
LINE
  5
5FED
102
{ACAD_REACTORS
330
6398
102
}
330
2
100
AcDbEntity
  8
KIJUN
100
AcDbLine
 10
335.2755517449245
 20
834.5960419997012
 30
0.0
 11
336.3074267449615
 21
823.2903749996134
 31
0.0
  0
LINE
  5
5FEE
102
{ACAD_REACTORS
330
6398
102
}
330
2
100
AcDbEntity
  8
KIJUN
100
AcDbLine
 10
336.3074267449615
 20
823.2903749996134
 30
0.0
 11
337.4033097449482
 21
811.5645919996046
 31
0.0
  0
LINE
  5
5FEF
102
{ACAD_REACTORS
330
6398
102
}
330
2
100
AcDbEntity
  8
KIJUN
100
AcDbLine
 10
337.4033097449482
 20
811.5645919996046
 30
0.0
 11
338.2058227449583
 21
799.5817609996752
 31
0.0
  0
LINE
  5
5FF0
102
{ACAD_REACTORS
330
6398
102
}
330
2
100
AcDbEntity
  8
KIJUN
100
AcDbLine
 10
338.2058227449583
 20
799.5817609996752
 30
0.0
 11
338.3570797448833
 21
787.5045689996786
 31
0.0
  0
LINE
  5
5FF1
102
{ACAD_REACTORS
330
6398
102
}
330
2
100
AcDbEntity
  8
KIJUN
100
AcDbLine
 10
338.3570797448833
 20
787.5045689996786
 30
0.0
 11
338.0907607450553
 21
774.8419069996764
 31
0.0
  0
LINE
  5
5FF2
102
{ACAD_REACTORS
330
6398
102
}
330
2
100
AcDbEntity
  8
KIJUN
100
AcDbLine
 10
338.0907607450553
 20
774.8419069996764
 30
0.0
 11
336.8461607450726
 21
762.3415509996434
 31
0.0
  0
LINE
  5
5FF3
102
{ACAD_REACTORS
330
6398
102
}
330
2
100
AcDbEntity
  8
KIJUN
100
AcDbLine
 10
336.8461607450726
 20
762.3415509996434
 30
0.0
 11
334.6885577448756
 21
750.1056089996149
 31
0.0
  0
LINE
  5
5FF4
102
{ACAD_REACTORS
330
6398
102
}
330
2
100
AcDbEntity
  8
KIJUN
100
AcDbLine
 10
334.6885577448756
 20
750.1056089996149
 30
0.0
 11
332.8208957448787
 21
741.7845689997069
 31
0.0
  0
LINE
  5
5FF5
102
{ACAD_REACTORS
330
6398
102
}
330
2
100
AcDbEntity
  8
KIJUN
100
AcDbLine
 10
332.8208957448787
 20
741.7845689997069
 30
0.0
 11
330.3771617450756
 21
735.4752089997076
 31
0.0
  0
LINE
  5
5FF6
102
{ACAD_REACTORS
330
6398
102
}
330
2
100
AcDbEntity
  8
KIJUN
100
AcDbLine
 10
330.3771617450756
 20
735.4752089997076
 30
0.0
 11
326.5205527449206
 21
729.5316089996945
 31
0.0
  0
LINE
  5
5FF7
102
{ACAD_REACTORS
330
6398
102
}
330
2
100
AcDbEntity
  8
KIJUN
100
AcDbLine
 10
326.5205527449206
 20
729.5316089996945
 30
0.0
 11
314.1945677448957
 21
728.800088999686
 31
0.0
  0
LINE
  5
5FF8
102
{ACAD_REACTORS
330
6398
102
}
330
2
100
AcDbEntity
  8
KIJUN
100
AcDbLine
 10
314.1945677448957
 20
728.800088999686
 30
0.0
 11
313.9991147450264
 21
965.355114999636
 31
0.0
  0
LINE
  5
5FF9
102
{ACAD_REACTORS
330
6398
102
}
330
2
100
AcDbEntity
  8
KIJUN
100
AcDbLine
 10
313.9991147450264
 20
965.355114999636
 30
0.0
 11
342.0256017448905
 21
965.7206209996738
 31
0.0
  0
LINE
  5
5FFA
102
{ACAD_REACTORS
330
6398
102
}
330
2
100
AcDbEntity
  8
KIJUN
100
AcDbLine
 10
304.5435837448885
 20
789.8721029996681
 30
0.0
 11
304.8116807450924
 21
792.3510159996026
 31
0.0
  0
LINE
  5
5FFB
102
{ACAD_REACTORS
330
6398
102
}
330
2
100
AcDbEntity
  8
KIJUN
100
AcDbLine
 10
304.8116807450924
 20
792.3510159996026
 30
0.0
 11
305.3514307450955
 21
795.1346019996504
 31
0.0
  0
LINE
  5
5FFC
102
{ACAD_REACTORS
330
6398
102
}
330
2
100
AcDbEntity
  8
KIJUN
100
AcDbLine
 10
305.3514307450955
 20
795.1346019996504
 30
0.0
 11
305.6195277450665
 21
797.5525549996253
 31
0.0
  0
LINE
  5
5FFD
102
{ACAD_REACTORS
330
6398
102
}
330
2
100
AcDbEntity
  8
KIJUN
100
AcDbLine
 10
305.6195277450665
 20
797.5525549996253
 30
0.0
 11
305.3280627450358
 21
807.8010739996694
 31
0.0
  0
LINE
  5
5FFE
102
{ACAD_REACTORS
330
6398
102
}
330
2
100
AcDbEntity
  8
KIJUN
100
AcDbLine
 10
305.3280627450358
 20
807.8010739996694
 30
0.0
 11
305.5868887448736
 21
817.9097659996132
 31
0.0
  0
LINE
  5
5FFF
102
{ACAD_REACTORS
330
6398
102
}
330
2
100
AcDbEntity
  8
KIJUN
100
AcDbLine
 10
305.5868887448736
 20
817.9097659996132
 30
0.0
 11
306.1881067448835
 21
827.9220649996226
 31
0.0
  0
LINE
  5
6000
102
{ACAD_REACTORS
330
6398
102
}
330
2
100
AcDbEntity
  8
KIJUN
100
AcDbLine
 10
306.1881067448835
 20
827.9220649996226
 30
0.0
 11
306.9238177449215
 21
837.8810239996985
 31
0.0
  0
LINE
  5
6001
102
{ACAD_REACTORS
330
6398
102
}
330
2
100
AcDbEntity
  8
KIJUN
100
AcDbLine
 10
306.9238177449215
 20
837.8810239996985
 30
0.0
 11
307.5861227450504
 21
847.8296959996452
 31
0.0
  0
LINE
  5
6002
102
{ACAD_REACTORS
330
6398
102
}
330
2
100
AcDbEntity
  8
KIJUN
100
AcDbLine
 10
307.5861227450504
 20
847.8296959996452
 30
0.0
 11
307.9669957450819
 21
857.8115149996104
 31
0.0
  0
LINE
  5
6003
102
{ACAD_REACTORS
330
6398
102
}
330
2
100
AcDbEntity
  8
KIJUN
100
AcDbLine
 10
307.9669957450819
 20
857.8115149996104
 30
0.0
 11
308.5539897449034
 21
864.1211289997022
 31
0.0
  0
LINE
  5
6004
102
{ACAD_REACTORS
330
6398
102
}
330
2
100
AcDbEntity
  8
KIJUN
100
AcDbLine
 10
308.5539897449034
 20
864.1211289997022
 30
0.0
 11
308.7985917450046
 21
888.2610349996557
 31
0.0
  0
LINE
  5
6005
102
{ACAD_REACTORS
330
6398
102
}
330
2
100
AcDbEntity
  8
KIJUN
100
AcDbLine
 10
308.7985917450046
 20
888.2610349996557
 30
0.0
 11
308.5539897449034
 21
926.4830819996518
 31
0.0
  0
LINE
  5
6006
102
{ACAD_REACTORS
330
6398
102
}
330
2
100
AcDbEntity
  8
KIJUN
100
AcDbLine
 10
308.5539897449034
 20
926.4830819996518
 30
0.0
 11
308.3585367450345
 21
940.1990819996731
 31
0.0
  0
LINE
  5
6007
102
{ACAD_REACTORS
330
6398
102
}
330
2
100
AcDbEntity
  8
KIJUN
100
AcDbLine
 10
308.3585367450345
 20
940.1990819996731
 30
0.0
 11
308.0160177450516
 21
963.1500139996511
 31
0.0
  0
LINE
  5
6008
102
{ACAD_REACTORS
330
6398
102
}
330
2
100
AcDbEntity
  8
KIJUN
100
AcDbLine
 10
308.0160177450516
 20
963.1500139996511
 30
0.0
 11
309.4346077450236
 21
965.0705079996269
 31
0.0
  0
LINE
  5
6009
102
{ACAD_REACTORS
330
6398
102
}
330
2
100
AcDbEntity
  8
KIJUN
100
AcDbLine
 10
309.4346077450236
 20
965.0705079996269
 30
0.0
 11
310.9020927449078
 21
965.893594999668
 31
0.0
  0
LINE
  5
600A
102
{ACAD_REACTORS
330
6398
102
}
330
2
100
AcDbEntity
  8
KIJUN
100
AcDbLine
 10
310.9020927449078
 20
965.893594999668
 30
0.0
 11
312.4671137450113
 21
965.0705079996269
 31
0.0
  0
LINE
  5
600B
102
{ACAD_REACTORS
330
6398
102
}
330
2
100
AcDbEntity
  8
KIJUN
100
AcDbLine
 10
312.4671137450113
 20
965.0705079996269
 30
0.0
 11
313.3476047450876
 21
963.607594999668
 31
0.0
  0
LINE
  5
600C
102
{ACAD_REACTORS
330
6398
102
}
330
2
100
AcDbEntity
  8
KIJUN
100
AcDbLine
 10
313.3476047450876
 20
963.607594999668
 30
0.0
 11
314.1300517450054
 21
962.693067999616
 31
0.0
  0
LINE
  5
600D
102
{ACAD_REACTORS
330
6398
102
}
330
2
100
AcDbEntity
  8
KIJUN
100
AcDbLine
 10
314.1300517450054
 20
962.693067999616
 30
0.0
 11
314.2280957449315
 21
934.9866209996417
 31
0.0
  0
LINE
  5
600E
102
{ACAD_REACTORS
330
6398
102
}
330
2
100
AcDbEntity
  8
KIJUN
100
AcDbLine
 10
314.2280957449315
 20
934.9866209996417
 30
0.0
 11
314.3745267450635
 21
924.3795809996315
 31
0.0
  0
LINE
  5
600F
102
{ACAD_REACTORS
330
6398
102
}
330
2
100
AcDbEntity
  8
KIJUN
100
AcDbLine
 10
314.3745267450635
 20
924.3795809996315
 30
0.0
 11
314.3745267450635
 21
884.1461079996024
 31
0.0
  0
LINE
  5
6010
102
{ACAD_REACTORS
330
6398
102
}
330
2
100
AcDbEntity
  8
KIJUN
100
AcDbLine
 10
314.3745267450635
 20
884.1461079996024
 30
0.0
 11
314.3745267450635
 21
858.4515949996072
 31
0.0
  0
LINE
  5
6011
102
{ACAD_REACTORS
330
6398
102
}
330
2
100
AcDbEntity
  8
KIJUN
100
AcDbLine
 10
314.3745267450635
 20
858.4515949996072
 30
0.0
 11
314.4725707449897
 21
793.6210159996353
 31
0.0
  0
LINE
  5
6012
102
{ACAD_REACTORS
330
6398
102
}
330
2
100
AcDbEntity
  8
KIJUN
100
AcDbLine
 10
314.4725707449897
 20
793.6210159996353
 30
0.0
 11
314.3745267450635
 21
740.2200559996586
 31
0.0
  0
LINE
  5
6013
102
{ACAD_REACTORS
330
6398
102
}
330
2
100
AcDbEntity
  8
KIJUN
100
AcDbLine
 10
314.3745267450635
 20
740.2200559996586
 30
0.0
 11
313.0085147448753
 21
739.3498519996088
 31
0.0
  0
LINE
  5
6014
102
{ACAD_REACTORS
330
6398
102
}
330
2
100
AcDbEntity
  8
KIJUN
100
AcDbLine
 10
313.0085147448753
 20
739.3498519996088
 30
0.0
 11
311.7297517448887
 21
739.2313609996952
 31
0.0
  0
LINE
  5
6015
102
{ACAD_REACTORS
330
6398
102
}
330
2
100
AcDbEntity
  8
KIJUN
100
AcDbLine
 10
311.7297517448887
 20
739.2313609996952
 30
0.0
 11
310.3639937450125
 21
739.7631099996309
 31
0.0
  0
LINE
  5
6016
102
{ACAD_REACTORS
330
6398
102
}
330
2
100
AcDbEntity
  8
KIJUN
100
AcDbLine
 10
310.3639937450125
 20
739.7631099996309
 30
0.0
 11
308.8965087448946
 21
761.4340089996496
 31
0.0
  0
LINE
  5
6017
102
{ACAD_REACTORS
330
6398
102
}
330
2
100
AcDbEntity
  8
KIJUN
100
AcDbLine
 10
308.8965087448946
 20
761.4340089996496
 30
0.0
 11
308.2115977449566
 21
775.0585689996754
 31
0.0
  0
LINE
  5
6018
102
{ACAD_REACTORS
330
6398
102
}
330
2
100
AcDbEntity
  8
KIJUN
100
AcDbLine
 10
308.2115977449566
 20
775.0585689996754
 30
0.0
 11
305.3750527450015
 21
783.0141029996611
 31
0.0
  0
LINE
  5
6019
102
{ACAD_REACTORS
330
6398
102
}
330
2
100
AcDbEntity
  8
KIJUN
100
AcDbLine
 10
305.3750527450015
 20
783.0141029996611
 30
0.0
 11
304.5435837448885
 21
789.8721029996681
 31
0.0
  0
LINE
  5
601A
102
{ACAD_REACTORS
330
6398
102
}
330
2
100
AcDbEntity
  8
KIJUN
100
AcDbLine
 10
307.6425107449677
 20
798.8685289996303
 30
0.0
 11
308.9635647449526
 21
858.3045289996096
 31
0.0
  0
LINE
  5
601B
102
{ACAD_REACTORS
330
6398
102
}
330
2
100
AcDbEntity
  8
KIJUN
100
AcDbLine
 10
308.9635647449526
 20
858.3045289996096
 30
0.0
 11
310.0395087448914
 21
880.9815219996032
 31
0.0
  0
LINE
  5
601C
102
{ACAD_REACTORS
330
6398
102
}
330
2
100
AcDbEntity
  8
KIJUN
100
AcDbLine
 10
310.0395087448914
 20
880.9815219996032
 30
0.0
 11
310.2350887450288
 21
914.0825479996804
 31
0.0
  0
LINE
  5
601D
102
{ACAD_REACTORS
330
6398
102
}
330
2
100
AcDbEntity
  8
KIJUN
100
AcDbLine
 10
310.2350887450288
 20
914.0825479996804
 30
0.0
 11
310.0395087448914
 21
931.4560209996653
 31
0.0
  0
LINE
  5
601E
102
{ACAD_REACTORS
330
6398
102
}
330
2
100
AcDbEntity
  8
KIJUN
100
AcDbLine
 10
310.0395087448914
 20
931.4560209996653
 30
0.0
 11
309.4034927448724
 21
945.2635879996169
 31
0.0
  0
LINE
  5
601F
102
{ACAD_REACTORS
330
6398
102
}
330
2
100
AcDbEntity
  8
KIJUN
100
AcDbLine
 10
309.4034927448724
 20
945.2635879996169
 30
0.0
 11
308.0340517449135
 21
962.8200679996462
 31
0.0
  0
LINE
  5
6020
102
{ACAD_REACTORS
330
6398
102
}
330
2
100
AcDbEntity
  8
KIJUN
100
AcDbLine
 10
308.0340517449135
 20
962.8200679996462
 30
0.0
 11
306.8600637450495
 21
964.8316209995989
 31
0.0
  0
LINE
  5
6021
102
{ACAD_REACTORS
330
6398
102
}
330
2
100
AcDbEntity
  8
KIJUN
100
AcDbLine
 10
306.8600637450495
 20
964.8316209995989
 30
0.0
 11
305.2460207449826
 21
965.8375879996469
 31
0.0
  0
LINE
  5
6022
102
{ACAD_REACTORS
330
6398
102
}
330
2
100
AcDbEntity
  8
KIJUN
100
AcDbLine
 10
305.2460207449826
 20
965.8375879996469
 30
0.0
 11
303.3875027450767
 21
965.2890749996888
 31
0.0
  0
LINE
  5
6023
102
{ACAD_REACTORS
330
6398
102
}
330
2
100
AcDbEntity
  8
KIJUN
100
AcDbLine
 10
303.3875027450767
 20
965.2890749996888
 30
0.0
 11
301.8709957450037
 21
963.551587999647
 31
0.0
  0
LINE
  5
6024
102
{ACAD_REACTORS
330
6398
102
}
330
2
100
AcDbEntity
  8
KIJUN
100
AcDbLine
 10
301.8709957450037
 20
963.551587999647
 30
0.0
 11
301.5774987449758
 21
962.4540539996681
 31
0.0
  0
LINE
  5
6025
102
{ACAD_REACTORS
330
6398
102
}
330
2
100
AcDbEntity
  8
KIJUN
100
AcDbLine
 10
301.5774987449758
 20
962.4540539996681
 30
0.0
 11
302.7025917449195
 21
948.281107999619
 31
0.0
  0
LINE
  5
6026
102
{ACAD_REACTORS
330
6398
102
}
330
2
100
AcDbEntity
  8
KIJUN
100
AcDbLine
 10
302.7025917449195
 20
948.281107999619
 30
0.0
 11
303.6321047449519
 21
932.9190609996674
 31
0.0
  0
LINE
  5
6027
102
{ACAD_REACTORS
330
6398
102
}
330
2
100
AcDbEntity
  8
KIJUN
100
AcDbLine
 10
303.6321047449519
 20
932.9190609996674
 30
0.0
 11
303.7785357450975
 21
925.3295409996512
 31
0.0
  0
LINE
  5
6028
102
{ACAD_REACTORS
330
6398
102
}
330
2
100
AcDbEntity
  8
KIJUN
100
AcDbLine
 10
303.7785357450975
 20
925.3295409996512
 30
0.0
 11
303.7785357450975
 21
904.2985949997111
 31
0.0
  0
LINE
  5
6029
102
{ACAD_REACTORS
330
6398
102
}
330
2
100
AcDbEntity
  8
KIJUN
100
AcDbLine
 10
303.7785357450975
 20
904.2985949997111
 30
0.0
 11
303.5340607450325
 21
888.2965949996812
 31
0.0
  0
LINE
  5
602A
102
{ACAD_REACTORS
330
6398
102
}
330
2
100
AcDbEntity
  8
KIJUN
100
AcDbLine
 10
303.5340607450325
 20
888.2965949996812
 30
0.0
 11
302.9960887449474
 21
875.2205479996137
 31
0.0
  0
LINE
  5
602B
102
{ACAD_REACTORS
330
6398
102
}
330
2
100
AcDbEntity
  8
KIJUN
100
AcDbLine
 10
302.9960887449474
 20
875.2205479996137
 30
0.0
 11
302.3115587449124
 21
861.9621289996157
 31
0.0
  0
LINE
  5
602C
102
{ACAD_REACTORS
330
6398
102
}
330
2
100
AcDbEntity
  8
KIJUN
100
AcDbLine
 10
302.3115587449124
 20
861.9621289996157
 30
0.0
 11
299.9145607449818
 21
823.1001289996655
 31
0.0
  0
LINE
  5
602D
102
{ACAD_REACTORS
330
6398
102
}
330
2
100
AcDbEntity
  8
KIJUN
100
AcDbLine
 10
299.9145607449818
 20
823.1001289996655
 30
0.0
 11
299.8170247450093
 21
813.3160489996537
 31
0.0
  0
LINE
  5
602E
102
{ACAD_REACTORS
330
6398
102
}
330
2
100
AcDbEntity
  8
KIJUN
100
AcDbLine
 10
299.8170247450093
 20
813.3160489996537
 30
0.0
 11
299.4745057450186
 21
804.2636159996787
 31
0.0
  0
LINE
  5
602F
102
{ACAD_REACTORS
330
6398
102
}
330
2
100
AcDbEntity
  8
KIJUN
100
AcDbLine
 10
299.4745057450186
 20
804.2636159996787
 30
0.0
 11
299.4745057450186
 21
792.4676019996864
 31
0.0
  0
LINE
  5
6030
102
{ACAD_REACTORS
330
6398
102
}
330
2
100
AcDbEntity
  8
KIJUN
100
AcDbLine
 10
299.4745057450186
 20
792.4676019996864
 30
0.0
 11
299.8170247450093
 21
778.9346089997075
 31
0.0
  0
LINE
  5
6031
102
{ACAD_REACTORS
330
6398
102
}
330
2
100
AcDbEntity
  8
KIJUN
100
AcDbLine
 10
299.8170247450093
 20
778.9346089997075
 30
0.0
 11
301.0885487450786
 21
763.1156159996121
 31
0.0
  0
LINE
  5
6032
102
{ACAD_REACTORS
330
6398
102
}
330
2
100
AcDbEntity
  8
KIJUN
100
AcDbLine
 10
301.0885487450786
 20
763.1156159996121
 30
0.0
 11
302.7516137448824
 21
750.4970229996345
 31
0.0
  0
LINE
  5
6033
102
{ACAD_REACTORS
330
6398
102
}
330
2
100
AcDbEntity
  8
KIJUN
100
AcDbLine
 10
302.7516137448824
 20
750.4970229996345
 30
0.0
 11
304.1210547450818
 21
741.9015359996869
 31
0.0
  0
LINE
  5
6034
102
{ACAD_REACTORS
330
6398
102
}
330
2
100
AcDbEntity
  8
KIJUN
100
AcDbLine
 10
304.1210547450818
 20
741.9015359996869
 30
0.0
 11
304.3165077449507
 21
739.7985429996136
 31
0.0
  0
LINE
  5
6035
102
{ACAD_REACTORS
330
6398
102
}
330
2
100
AcDbEntity
  8
KIJUN
100
AcDbLine
 10
304.3165077449507
 20
739.7985429996136
 30
0.0
 11
306.6681667450016
 21
738.9518339996598
 31
0.0
  0
LINE
  5
6036
102
{ACAD_REACTORS
330
6398
102
}
330
2
100
AcDbEntity
  8
KIJUN
100
AcDbLine
 10
306.6681667450016
 20
738.9518339996598
 30
0.0
 11
308.5520847449506
 21
739.1820849996387
 31
0.0
  0
LINE
  5
6037
102
{ACAD_REACTORS
330
6398
102
}
330
2
100
AcDbEntity
  8
KIJUN
100
AcDbLine
 10
308.5520847449506
 20
739.1820849996387
 30
0.0
 11
310.2841107449999
 21
739.9810419996011
 31
0.0
  0
LINE
  5
6038
102
{ACAD_REACTORS
330
6398
102
}
330
2
100
AcDbEntity
  8
KIJUN
100
AcDbLine
 10
310.2841107449999
 20
739.9810419996011
 30
0.0
 11
309.6969897449075
 21
750.9540959997056
 31
0.0
  0
LINE
  5
6039
102
{ACAD_REACTORS
330
6398
102
}
330
2
100
AcDbEntity
  8
KIJUN
100
AcDbLine
 10
309.6969897449075
 20
750.9540959997056
 30
0.0
 11
308.9145427449898
 21
762.5671029996542
 31
0.0
  0
LINE
  5
603A
102
{ACAD_REACTORS
330
6398
102
}
330
2
100
AcDbEntity
  8
KIJUN
100
AcDbLine
 10
308.9145427449898
 20
762.5671029996542
 30
0.0
 11
308.3765707449046
 21
776.8316159996333
 31
0.0
  0
LINE
  5
603B
102
{ACAD_REACTORS
330
6398
102
}
330
2
100
AcDbEntity
  8
KIJUN
100
AcDbLine
 10
308.3765707449046
 20
776.8316159996333
 30
0.0
 11
307.6425107449677
 21
788.3530559996523
 31
0.0
  0
LINE
  5
603C
102
{ACAD_REACTORS
330
6398
102
}
330
2
100
AcDbEntity
  8
KIJUN
100
AcDbLine
 10
307.6425107449677
 20
788.3530559996523
 30
0.0
 11
307.6425107449677
 21
798.8685289996303
 31
0.0
  0
LINE
  5
603D
102
{ACAD_REACTORS
330
6398
102
}
330
2
100
AcDbEntity
  8
KIJUN
100
AcDbLine
 10
321.1429917450286
 20
790.4405549996754
 30
0.0
 11
321.1429917450286
 21
796.9330489996664
 31
0.0
  0
LINE
  5
603E
102
{ACAD_REACTORS
330
6398
102
}
330
2
100
AcDbEntity
  8
KIJUN
100
AcDbLine
 10
321.1429917450286
 20
796.9330489996664
 30
0.0
 11
320.2141137449785
 21
857.5575149996746
 31
0.0
  0
LINE
  5
603F
102
{ACAD_REACTORS
330
6398
102
}
330
2
100
AcDbEntity
  8
KIJUN
100
AcDbLine
 10
320.2141137449785
 20
857.5575149996746
 30
0.0
 11
320.2141137449785
 21
863.8671289996585
 31
0.0
  0
LINE
  5
6040
102
{ACAD_REACTORS
330
6398
102
}
330
2
100
AcDbEntity
  8
KIJUN
100
AcDbLine
 10
320.2141137449785
 20
863.8671289996585
 30
0.0
 11
319.9695117448777
 21
888.0070349996117
 31
0.0
  0
LINE
  5
6041
102
{ACAD_REACTORS
330
6398
102
}
330
2
100
AcDbEntity
  8
KIJUN
100
AcDbLine
 10
319.9695117448777
 20
888.0070349996117
 30
0.0
 11
320.2141137449785
 21
926.2290819997083
 31
0.0
  0
LINE
  5
6042
102
{ACAD_REACTORS
330
6398
102
}
330
2
100
AcDbEntity
  8
KIJUN
100
AcDbLine
 10
320.2141137449785
 20
926.2290819997083
 30
0.0
 11
320.4095667450737
 21
939.9450819996209
 31
0.0
  0
LINE
  5
6043
102
{ACAD_REACTORS
330
6398
102
}
330
2
100
AcDbEntity
  8
KIJUN
100
AcDbLine
 10
320.4095667450737
 20
939.9450819996209
 30
0.0
 11
320.7520857450635
 21
962.896013999599
 31
0.0
  0
LINE
  5
6044
102
{ACAD_REACTORS
330
6398
102
}
330
2
100
AcDbEntity
  8
KIJUN
100
AcDbLine
 10
320.7520857450635
 20
962.896013999599
 30
0.0
 11
319.3334957450915
 21
964.816507999685
 31
0.0
  0
LINE
  5
6045
102
{ACAD_REACTORS
330
6398
102
}
330
2
100
AcDbEntity
  8
KIJUN
100
AcDbLine
 10
319.3334957450915
 20
964.816507999685
 30
0.0
 11
317.9150327449296
 21
965.6395949996239
 31
0.0
  0
LINE
  5
6046
102
{ACAD_REACTORS
330
6398
102
}
330
2
100
AcDbEntity
  8
KIJUN
100
AcDbLine
 10
317.9150327449296
 20
965.6395949996239
 30
0.0
 11
316.1545587449636
 21
965.3650209996431
 31
0.0
  0
LINE
  5
6047
102
{ACAD_REACTORS
330
6398
102
}
330
2
100
AcDbEntity
  8
KIJUN
100
AcDbLine
 10
316.1545587449636
 20
965.3650209996431
 30
0.0
 11
315.0295927450556
 21
964.816507999685
 31
0.0
  0
LINE
  5
6048
102
{ACAD_REACTORS
330
6398
102
}
330
2
100
AcDbEntity
  8
KIJUN
100
AcDbLine
 10
315.0295927450556
 20
964.816507999685
 30
0.0
 11
314.1000797450165
 21
962.9875809996461
 31
0.0
  0
LINE
  5
6049
102
{ACAD_REACTORS
330
6398
102
}
330
2
100
AcDbEntity
  8
KIJUN
100
AcDbLine
 10
314.1000797450165
 20
962.9875809996461
 30
0.0
 11
314.2465107449225
 21
934.9156279996332
 31
0.0
  0
LINE
  5
604A
102
{ACAD_REACTORS
330
6398
102
}
330
2
100
AcDbEntity
  8
KIJUN
100
AcDbLine
 10
314.2465107449225
 20
934.9156279996332
 30
0.0
 11
314.3935767450366
 21
924.1255809996896
 31
0.0
  0
LINE
  5
604B
102
{ACAD_REACTORS
330
6398
102
}
330
2
100
AcDbEntity
  8
KIJUN
100
AcDbLine
 10
314.3935767450366
 20
924.1255809996896
 30
0.0
 11
314.3935767450366
 21
883.8921079996744
 31
0.0
  0
LINE
  5
604C
102
{ACAD_REACTORS
330
6398
102
}
330
2
100
AcDbEntity
  8
KIJUN
100
AcDbLine
 10
314.3935767450366
 20
883.8921079996744
 30
0.0
 11
314.3935767450366
 21
858.1975949996724
 31
0.0
  0
LINE
  5
604D
102
{ACAD_REACTORS
330
6398
102
}
330
2
100
AcDbEntity
  8
KIJUN
100
AcDbLine
 10
314.3935767450366
 20
858.1975949996724
 30
0.0
 11
314.2955327448926
 21
793.3670159996922
 31
0.0
  0
LINE
  5
604E
102
{ACAD_REACTORS
330
6398
102
}
330
2
100
AcDbEntity
  8
KIJUN
100
AcDbLine
 10
314.2955327448926
 20
793.3670159996922
 30
0.0
 11
314.3935767450366
 21
739.966055999614
 31
0.0
  0
LINE
  5
604F
102
{ACAD_REACTORS
330
6398
102
}
330
2
100
AcDbEntity
  8
KIJUN
100
AcDbLine
 10
314.3935767450366
 20
739.966055999614
 30
0.0
 11
315.4986037448966
 21
739.2143429997036
 31
0.0
  0
LINE
  5
6050
102
{ACAD_REACTORS
330
6398
102
}
330
2
100
AcDbEntity
  8
KIJUN
100
AcDbLine
 10
315.4986037448966
 20
739.2143429997036
 30
0.0
 11
316.8752837449996
 21
739.3158159996334
 31
0.0
  0
LINE
  5
6051
102
{ACAD_REACTORS
330
6398
102
}
330
2
100
AcDbEntity
  8
KIJUN
100
AcDbLine
 10
316.8752837449996
 20
739.3158159996334
 30
0.0
 11
318.4041097450954
 21
739.966055999614
 31
0.0
  0
LINE
  5
6052
102
{ACAD_REACTORS
330
6398
102
}
330
2
100
AcDbEntity
  8
KIJUN
100
AcDbLine
 10
318.4041097450954
 20
739.966055999614
 30
0.0
 11
319.8715947449877
 21
761.1800089995981
 31
0.0
  0
LINE
  5
6053
102
{ACAD_REACTORS
330
6398
102
}
330
2
100
AcDbEntity
  8
KIJUN
100
AcDbLine
 10
319.8715947449877
 20
761.1800089995981
 30
0.0
 11
320.7030637450939
 21
774.7131289996191
 31
0.0
  0
LINE
  5
6054
102
{ACAD_REACTORS
330
6398
102
}
330
2
100
AcDbEntity
  8
KIJUN
100
AcDbLine
 10
320.7030637450939
 20
774.7131289996191
 30
0.0
 11
320.7520857450635
 21
785.2286019995972
 31
0.0
  0
LINE
  5
6055
102
{ACAD_REACTORS
330
6398
102
}
330
2
100
AcDbEntity
  8
KIJUN
100
AcDbLine
 10
320.7520857450635
 20
785.2286019995972
 30
0.0
 11
321.1429917450286
 21
790.4405549996754
 31
0.0
  0
LINE
  5
6056
102
{ACAD_REACTORS
330
6398
102
}
330
2
100
AcDbEntity
  8
KIJUN
100
AcDbLine
 10
321.1545487450111
 20
798.8685289996303
 30
0.0
 11
319.8340027449726
 21
858.3045289996096
 31
0.0
  0
LINE
  5
6057
102
{ACAD_REACTORS
330
6398
102
}
330
2
100
AcDbEntity
  8
KIJUN
100
AcDbLine
 10
319.8340027449726
 20
858.3045289996096
 30
0.0
 11
319.3935667450987
 21
881.3470279996272
 31
0.0
  0
LINE
  5
6058
102
{ACAD_REACTORS
330
6398
102
}
330
2
100
AcDbEntity
  8
KIJUN
100
AcDbLine
 10
319.3935667450987
 20
881.3470279996272
 30
0.0
 11
319.1981137450047
 21
915.7285949996094
 31
0.0
  0
LINE
  5
6059
102
{ACAD_REACTORS
330
6398
102
}
330
2
100
AcDbEntity
  8
KIJUN
100
AcDbLine
 10
319.1981137450047
 20
915.7285949996094
 30
0.0
 11
319.1981137450047
 21
927.8901149996404
 31
0.0
  0
LINE
  5
605A
102
{ACAD_REACTORS
330
6398
102
}
330
2
100
AcDbEntity
  8
KIJUN
100
AcDbLine
 10
319.1981137450047
 20
927.8901149996404
 30
0.0
 11
319.6380417449318
 21
942.7945809996902
 31
0.0
  0
LINE
  5
605B
102
{ACAD_REACTORS
330
6398
102
}
330
2
100
AcDbEntity
  8
KIJUN
100
AcDbLine
 10
319.6380417449318
 20
942.7945809996902
 30
0.0
 11
320.8610517449837
 21
962.8200679996462
 31
0.0
  0
LINE
  5
605C
102
{ACAD_REACTORS
330
6398
102
}
330
2
100
AcDbEntity
  8
KIJUN
100
AcDbLine
 10
320.8610517449837
 20
962.8200679996462
 30
0.0
 11
322.1325757450745
 21
965.106067999646
 31
0.0
  0
LINE
  5
605D
102
{ACAD_REACTORS
330
6398
102
}
330
2
100
AcDbEntity
  8
KIJUN
100
AcDbLine
 10
322.1325757450745
 20
965.106067999646
 30
0.0
 11
323.7955137450612
 21
965.8375879996469
 31
0.0
  0
LINE
  5
605E
102
{ACAD_REACTORS
330
6398
102
}
330
2
100
AcDbEntity
  8
KIJUN
100
AcDbLine
 10
323.7955137450612
 20
965.8375879996469
 30
0.0
 11
325.5076007450615
 21
965.2890749996888
 31
0.0
  0
LINE
  5
605F
102
{ACAD_REACTORS
330
6398
102
}
330
2
100
AcDbEntity
  8
KIJUN
100
AcDbLine
 10
325.5076007450615
 20
965.2890749996888
 30
0.0
 11
327.0241077449086
 21
963.551587999647
 31
0.0
  0
LINE
  5
6060
102
{ACAD_REACTORS
330
6398
102
}
330
2
100
AcDbEntity
  8
KIJUN
100
AcDbLine
 10
327.0241077449086
 20
963.551587999647
 30
0.0
 11
327.3176047449287
 21
962.4540539996681
 31
0.0
  0
LINE
  5
6061
102
{ACAD_REACTORS
330
6398
102
}
330
2
100
AcDbEntity
  8
KIJUN
100
AcDbLine
 10
327.3176047449287
 20
962.4540539996681
 30
0.0
 11
326.1925117449846
 21
948.281107999619
 31
0.0
  0
LINE
  5
6062
102
{ACAD_REACTORS
330
6398
102
}
330
2
100
AcDbEntity
  8
KIJUN
100
AcDbLine
 10
326.1925117449846
 20
948.281107999619
 30
0.0
 11
325.4585787450914
 21
932.2791079997132
 31
0.0
  0
LINE
  5
6063
102
{ACAD_REACTORS
330
6398
102
}
330
2
100
AcDbEntity
  8
KIJUN
100
AcDbLine
 10
325.4585787450914
 20
932.2791079997132
 30
0.0
 11
325.1165677450399
 21
925.3295409996512
 31
0.0
  0
LINE
  5
6064
102
{ACAD_REACTORS
330
6398
102
}
330
2
100
AcDbEntity
  8
KIJUN
100
AcDbLine
 10
325.1165677450399
 20
925.3295409996512
 30
0.0
 11
325.1165677450399
 21
904.2985949997111
 31
0.0
  0
LINE
  5
6065
102
{ACAD_REACTORS
330
6398
102
}
330
2
100
AcDbEntity
  8
KIJUN
100
AcDbLine
 10
325.1165677450399
 20
904.2985949997111
 30
0.0
 11
325.3610427448784
 21
888.2965949996812
 31
0.0
  0
LINE
  5
6066
102
{ACAD_REACTORS
330
6398
102
}
330
2
100
AcDbEntity
  8
KIJUN
100
AcDbLine
 10
325.3610427448784
 20
888.2965949996812
 30
0.0
 11
325.8990147449644
 21
875.2205479996137
 31
0.0
  0
LINE
  5
6067
102
{ACAD_REACTORS
330
6398
102
}
330
2
100
AcDbEntity
  8
KIJUN
100
AcDbLine
 10
325.8990147449644
 20
875.2205479996137
 30
0.0
 11
326.5835447449844
 21
861.9621289996157
 31
0.0
  0
LINE
  5
6068
102
{ACAD_REACTORS
330
6398
102
}
330
2
100
AcDbEntity
  8
KIJUN
100
AcDbLine
 10
326.5835447449844
 20
861.9621289996157
 30
0.0
 11
328.4910847450869
 21
823.1915689996624
 31
0.0
  0
LINE
  5
6069
102
{ACAD_REACTORS
330
6398
102
}
330
2
100
AcDbEntity
  8
KIJUN
100
AcDbLine
 10
328.4910847450869
 20
823.1915689996624
 30
0.0
 11
329.0780787449025
 21
813.3160489996537
 31
0.0
  0
LINE
  5
606A
102
{ACAD_REACTORS
330
6398
102
}
330
2
100
AcDbEntity
  8
KIJUN
100
AcDbLine
 10
329.0780787449025
 20
813.3160489996537
 30
0.0
 11
329.4205977448937
 21
804.2636159996787
 31
0.0
  0
LINE
  5
606B
102
{ACAD_REACTORS
330
6398
102
}
330
2
100
AcDbEntity
  8
KIJUN
100
AcDbLine
 10
329.4205977448937
 20
804.2636159996787
 30
0.0
 11
329.4205977448937
 21
792.4676019996864
 31
0.0
  0
LINE
  5
606C
102
{ACAD_REACTORS
330
6398
102
}
330
2
100
AcDbEntity
  8
KIJUN
100
AcDbLine
 10
329.4205977448937
 20
792.4676019996864
 30
0.0
 11
329.0780787449025
 21
778.9346089997075
 31
0.0
  0
LINE
  5
606D
102
{ACAD_REACTORS
330
6398
102
}
330
2
100
AcDbEntity
  8
KIJUN
100
AcDbLine
 10
329.0780787449025
 20
778.9346089997075
 30
0.0
 11
327.8065547450596
 21
763.1156159996121
 31
0.0
  0
LINE
  5
606E
102
{ACAD_REACTORS
330
6398
102
}
330
2
100
AcDbEntity
  8
KIJUN
100
AcDbLine
 10
327.8065547450596
 20
763.1156159996121
 30
0.0
 11
326.1434897450294
 21
750.4970229996345
 31
0.0
  0
LINE
  5
606F
102
{ACAD_REACTORS
330
6398
102
}
330
2
100
AcDbEntity
  8
KIJUN
100
AcDbLine
 10
326.1434897450294
 20
750.4970229996345
 30
0.0
 11
324.7740487450555
 21
741.9015359996869
 31
0.0
  0
LINE
  5
6070
102
{ACAD_REACTORS
330
6398
102
}
330
2
100
AcDbEntity
  8
KIJUN
100
AcDbLine
 10
324.7740487450555
 20
741.9015359996869
 30
0.0
 11
324.5785957449616
 21
739.7985429996136
 31
0.0
  0
LINE
  5
6071
102
{ACAD_REACTORS
330
6398
102
}
330
2
100
AcDbEntity
  8
KIJUN
100
AcDbLine
 10
324.5785957449616
 20
739.7985429996136
 30
0.0
 11
322.4877947449626
 21
739.0126669996992
 31
0.0
  0
LINE
  5
6072
102
{ACAD_REACTORS
330
6398
102
}
330
2
100
AcDbEntity
  8
KIJUN
100
AcDbLine
 10
322.4877947449626
 20
739.0126669996992
 30
0.0
 11
320.5058327450883
 21
739.0600379996707
 31
0.0
  0
LINE
  5
6073
102
{ACAD_REACTORS
330
6398
102
}
330
2
100
AcDbEntity
  8
KIJUN
100
AcDbLine
 10
320.5058327450883
 20
739.0600379996707
 30
0.0
 11
318.6109927449056
 21
739.9810419996011
 31
0.0
  0
LINE
  5
6074
102
{ACAD_REACTORS
330
6398
102
}
330
2
100
AcDbEntity
  8
KIJUN
100
AcDbLine
 10
318.6109927449056
 20
739.9810419996011
 30
0.0
 11
319.1981137450047
 21
750.9540959997056
 31
0.0
  0
LINE
  5
6075
102
{ACAD_REACTORS
330
6398
102
}
330
2
100
AcDbEntity
  8
KIJUN
100
AcDbLine
 10
319.1981137450047
 20
750.9540959997056
 30
0.0
 11
319.9805607449147
 21
762.5671029996542
 31
0.0
  0
LINE
  5
6076
102
{ACAD_REACTORS
330
6398
102
}
330
2
100
AcDbEntity
  8
KIJUN
100
AcDbLine
 10
319.9805607449147
 20
762.5671029996542
 30
0.0
 11
320.5185327450008
 21
776.8316159996333
 31
0.0
  0
LINE
  5
6077
102
{ACAD_REACTORS
330
6398
102
}
330
2
100
AcDbEntity
  8
KIJUN
100
AcDbLine
 10
320.5185327450008
 20
776.8316159996333
 30
0.0
 11
320.6165767449197
 21
789.7245289996154
 31
0.0
  0
LINE
  5
6078
102
{ACAD_REACTORS
330
6398
102
}
330
2
100
AcDbEntity
  8
KIJUN
100
AcDbLine
 10
320.6165767449197
 20
789.7245289996154
 30
0.0
 11
321.1545487450111
 21
798.8685289996303
 31
0.0
  0
LINE
  5
6079
102
{ACAD_REACTORS
330
6398
102
}
330
2
100
AcDbEntity
  8
KIJUN
100
AcDbLine
 10
324.7690957449945
 20
935.5805999996391
 30
0.0
 11
324.3285327450853
 21
910.0690939996802
 31
0.0
  0
LINE
  5
607A
102
{ACAD_REACTORS
330
6398
102
}
330
2
100
AcDbEntity
  8
KIJUN
100
AcDbLine
 10
324.3285327450853
 20
910.0690939996802
 30
0.0
 11
325.2090237449288
 21
869.6526139996144
 31
0.0
  0
LINE
  5
607B
102
{ACAD_REACTORS
330
6398
102
}
330
2
100
AcDbEntity
  8
KIJUN
100
AcDbLine
 10
325.2090237449288
 20
869.6526139996144
 30
0.0
 11
325.8450397449328
 21
861.1485669996703
 31
0.0
  0
LINE
  5
607C
102
{ACAD_REACTORS
330
6398
102
}
330
2
100
AcDbEntity
  8
KIJUN
100
AcDbLine
 10
325.8450397449328
 20
861.1485669996703
 30
0.0
 11
326.9211107449214
 21
842.1290469996474
 31
0.0
  0
LINE
  5
607D
102
{ACAD_REACTORS
330
6398
102
}
330
2
100
AcDbEntity
  8
KIJUN
100
AcDbLine
 10
326.9211107449214
 20
842.1290469996474
 30
0.0
 11
328.6330707448714
 21
811.4055879996033
 31
0.0
  0
LINE
  5
607E
102
{ACAD_REACTORS
330
6398
102
}
330
2
100
AcDbEntity
  8
KIJUN
100
AcDbLine
 10
328.6330707448714
 20
811.4055879996033
 30
0.0
 11
329.0729987450317
 21
795.6775269996812
 31
0.0
  0
LINE
  5
607F
102
{ACAD_REACTORS
330
6398
102
}
330
2
100
AcDbEntity
  8
KIJUN
100
AcDbLine
 10
329.0729987450317
 20
795.6775269996812
 30
0.0
 11
329.1220207450014
 21
781.6875879996753
 31
0.0
  0
LINE
  5
6080
102
{ACAD_REACTORS
330
6398
102
}
330
2
100
AcDbEntity
  8
KIJUN
100
AcDbLine
 10
329.1220207450014
 20
781.6875879996753
 30
0.0
 11
327.9970547450925
 21
765.685587999653
 31
0.0
  0
LINE
  5
6081
102
{ACAD_REACTORS
330
6398
102
}
330
2
100
AcDbEntity
  8
KIJUN
100
AcDbLine
 10
327.9970547450925
 20
765.685587999653
 30
0.0
 11
325.9915977448895
 21
748.8606279996186
 31
0.0
  0
LINE
  5
6082
102
{ACAD_REACTORS
330
6398
102
}
330
2
100
AcDbEntity
  8
KIJUN
100
AcDbLine
 10
325.9915977448895
 20
748.8606279996186
 30
0.0
 11
324.6710517450687
 21
739.8080679996005
 31
0.0
  0
LINE
  5
6083
102
{ACAD_REACTORS
330
6398
102
}
330
2
100
AcDbEntity
  8
KIJUN
100
AcDbLine
 10
324.6710517450687
 20
739.8080679996005
 30
0.0
 11
325.7072447449527
 21
738.9344349996557
 31
0.0
  0
LINE
  5
6084
102
{ACAD_REACTORS
330
6398
102
}
330
2
100
AcDbEntity
  8
KIJUN
100
AcDbLine
 10
325.7072447449527
 20
738.9344349996557
 30
0.0
 11
326.6347257449947
 21
738.8530279997016
 31
0.0
  0
LINE
  5
6085
102
{ACAD_REACTORS
330
6398
102
}
330
2
100
AcDbEntity
  8
KIJUN
100
AcDbLine
 10
326.6347257449947
 20
738.8530279997016
 30
0.0
 11
327.7035577450715
 21
739.8080679996005
 31
0.0
  0
LINE
  5
6086
102
{ACAD_REACTORS
330
6398
102
}
330
2
100
AcDbEntity
  8
KIJUN
100
AcDbLine
 10
327.7035577450715
 20
739.8080679996005
 30
0.0
 11
330.0515337450256
 21
746.1175549996571
 31
0.0
  0
LINE
  5
6087
102
{ACAD_REACTORS
330
6398
102
}
330
2
100
AcDbEntity
  8
KIJUN
100
AcDbLine
 10
330.0515337450256
 20
746.1175549996571
 30
0.0
 11
331.2740357449138
 21
751.9695879996309
 31
0.0
  0
LINE
  5
6088
102
{ACAD_REACTORS
330
6398
102
}
330
2
100
AcDbEntity
  8
KIJUN
100
AcDbLine
 10
331.2740357449138
 20
751.9695879996309
 30
0.0
 11
332.9859957448707
 21
762.576627999641
 31
0.0
  0
LINE
  5
6089
102
{ACAD_REACTORS
330
6398
102
}
330
2
100
AcDbEntity
  8
KIJUN
100
AcDbLine
 10
332.9859957448707
 20
762.576627999641
 30
0.0
 11
333.9640227449326
 21
771.3546139996856
 31
0.0
  0
LINE
  5
608A
102
{ACAD_REACTORS
330
6398
102
}
330
2
100
AcDbEntity
  8
KIJUN
100
AcDbLine
 10
333.9640227449326
 20
771.3546139996856
 30
0.0
 11
334.5510167449747
 21
780.0415409996294
 31
0.0
  0
LINE
  5
608B
102
{ACAD_REACTORS
330
6398
102
}
330
2
100
AcDbEntity
  8
KIJUN
100
AcDbLine
 10
334.5510167449747
 20
780.0415409996294
 30
0.0
 11
334.8935357449577
 21
787.5396209996413
 31
0.0
  0
LINE
  5
608C
102
{ACAD_REACTORS
330
6398
102
}
330
2
100
AcDbEntity
  8
KIJUN
100
AcDbLine
 10
334.8935357449577
 20
787.5396209996413
 30
0.0
 11
334.8935357449577
 21
800.0670279997011
 31
0.0
  0
LINE
  5
608D
102
{ACAD_REACTORS
330
6398
102
}
330
2
100
AcDbEntity
  8
KIJUN
100
AcDbLine
 10
334.8935357449577
 20
800.0670279997011
 30
0.0
 11
334.4045857450673
 21
811.4055879996033
 31
0.0
  0
LINE
  5
608E
102
{ACAD_REACTORS
330
6398
102
}
330
2
100
AcDbEntity
  8
KIJUN
100
AcDbLine
 10
334.4045857450673
 20
811.4055879996033
 30
0.0
 11
333.3285147450865
 21
830.9736209997081
 31
0.0
  0
LINE
  5
608F
102
{ACAD_REACTORS
330
6398
102
}
330
2
100
AcDbEntity
  8
KIJUN
100
AcDbLine
 10
333.3285147450865
 20
830.9736209997081
 30
0.0
 11
331.5185107449788
 21
852.6445199996103
 31
0.0
  0
LINE
  5
6090
102
{ACAD_REACTORS
330
6398
102
}
330
2
100
AcDbEntity
  8
KIJUN
100
AcDbLine
 10
331.5185107449788
 20
852.6445199996103
 30
0.0
 11
329.9534897448747
 21
869.5610469996914
 31
0.0
  0
LINE
  5
6091
102
{ACAD_REACTORS
330
6398
102
}
330
2
100
AcDbEntity
  8
KIJUN
100
AcDbLine
 10
329.9534897448747
 20
869.5610469996914
 30
0.0
 11
328.4860047449824
 21
895.4385669996131
 31
0.0
  0
LINE
  5
6092
102
{ACAD_REACTORS
330
6398
102
}
330
2
100
AcDbEntity
  8
KIJUN
100
AcDbLine
 10
328.4860047449824
 20
895.4385669996131
 30
0.0
 11
328.1436127450415
 21
920.4931269996546
 31
0.0
  0
LINE
  5
6093
102
{ACAD_REACTORS
330
6398
102
}
330
2
100
AcDbEntity
  8
KIJUN
100
AcDbLine
 10
328.1436127450415
 20
920.4931269996546
 30
0.0
 11
328.2433077450605
 21
925.5087379996785
 31
0.0
  0
LINE
  5
6094
102
{ACAD_REACTORS
330
6398
102
}
330
2
100
AcDbEntity
  8
KIJUN
100
AcDbLine
 10
328.2433077450605
 20
925.5087379996785
 30
0.0
 11
328.3539247450885
 21
930.6869089996412
 31
0.0
  0
LINE
  5
6095
102
{ACAD_REACTORS
330
6398
102
}
330
2
100
AcDbEntity
  8
KIJUN
100
AcDbLine
 10
328.3539247450885
 20
930.6869089996412
 30
0.0
 11
328.4860047449824
 21
935.7636069996825
 31
0.0
  0
LINE
  5
6096
102
{ACAD_REACTORS
330
6398
102
}
330
2
100
AcDbEntity
  8
KIJUN
100
AcDbLine
 10
328.4860047449824
 20
935.7636069996825
 30
0.0
 11
328.8176017449645
 21
940.0341089996091
 31
0.0
  0
LINE
  5
6097
102
{ACAD_REACTORS
330
6398
102
}
330
2
100
AcDbEntity
  8
KIJUN
100
AcDbLine
 10
328.8176017449645
 20
940.0341089996091
 30
0.0
 11
329.2143497450656
 21
944.2030109996791
 31
0.0
  0
LINE
  5
6098
102
{ACAD_REACTORS
330
6398
102
}
330
2
100
AcDbEntity
  8
KIJUN
100
AcDbLine
 10
329.2143497450656
 20
944.2030109996791
 30
0.0
 11
329.8065507450287
 21
948.4735129996129
 31
0.0
  0
LINE
  5
6099
102
{ACAD_REACTORS
330
6398
102
}
330
2
100
AcDbEntity
  8
KIJUN
100
AcDbLine
 10
329.8065507450287
 20
948.4735129996129
 30
0.0
 11
331.8610297449686
 21
957.3435739996439
 31
0.0
  0
LINE
  5
609A
102
{ACAD_REACTORS
330
6398
102
}
330
2
100
AcDbEntity
  8
KIJUN
100
AcDbLine
 10
331.8610297449686
 20
957.3435739996439
 30
0.0
 11
333.7195477450936
 21
962.464086999609
 31
0.0
  0
LINE
  5
609B
102
{ACAD_REACTORS
330
6398
102
}
330
2
100
AcDbEntity
  8
KIJUN
100
AcDbLine
 10
333.7195477450936
 20
962.464086999609
 30
0.0
 11
332.6436037449225
 21
965.1155929996329
 31
0.0
  0
LINE
  5
609C
102
{ACAD_REACTORS
330
6398
102
}
330
2
100
AcDbEntity
  8
KIJUN
100
AcDbLine
 10
332.6436037449225
 20
965.1155929996329
 30
0.0
 11
330.7360637450606
 21
966.030119999684
 31
0.0
  0
LINE
  5
609D
102
{ACAD_REACTORS
330
6398
102
}
330
2
100
AcDbEntity
  8
KIJUN
100
AcDbLine
 10
330.7360637450606
 20
966.030119999684
 30
0.0
 11
328.8285237449654
 21
965.2985999996902
 31
0.0
  0
LINE
  5
609E
102
{ACAD_REACTORS
330
6398
102
}
330
2
100
AcDbEntity
  8
KIJUN
100
AcDbLine
 10
328.8285237449654
 20
965.2985999996902
 30
0.0
 11
327.5569997448897
 21
962.372519999678
 31
0.0
  0
LINE
  5
609F
102
{ACAD_REACTORS
330
6398
102
}
330
2
100
AcDbEntity
  8
KIJUN
100
AcDbLine
 10
327.5569997448897
 20
962.372519999678
 30
0.0
 11
325.4046037450666
 21
948.4735129996129
 31
0.0
  0
LINE
  5
60A0
102
{ACAD_REACTORS
330
6398
102
}
330
2
100
AcDbEntity
  8
KIJUN
100
AcDbLine
 10
325.4046037450666
 20
948.4735129996129
 30
0.0
 11
324.7690957449945
 21
935.5805999996391
 31
0.0
  0
LINE
  5
60A1
102
{ACAD_REACTORS
330
6398
102
}
330
2
100
AcDbEntity
  8
KIJUN
100
AcDbLine
 10
295.4610517448945
 20
962.5660679997029
 30
0.0
 11
298.7039967449804
 21
953.9190189996379
 31
0.0
  0
LINE
  5
60A2
102
{ACAD_REACTORS
330
6398
102
}
330
2
100
AcDbEntity
  8
KIJUN
100
AcDbLine
 10
298.7039967449804
 20
953.9190189996379
 30
0.0
 11
301.0520997449916
 21
936.4875069996362
 31
0.0
  0
LINE
  5
60A3
102
{ACAD_REACTORS
330
6398
102
}
330
2
100
AcDbEntity
  8
KIJUN
100
AcDbLine
 10
301.0520997449916
 20
936.4875069996362
 30
0.0
 11
301.6115347449503
 21
915.6245819996271
 31
0.0
  0
LINE
  5
60A4
102
{ACAD_REACTORS
330
6398
102
}
330
2
100
AcDbEntity
  8
KIJUN
100
AcDbLine
 10
301.6115347449503
 20
915.6245819996271
 30
0.0
 11
300.4370387449075
 21
880.2120289996764
 31
0.0
  0
LINE
  5
60A5
102
{ACAD_REACTORS
330
6398
102
}
330
2
100
AcDbEntity
  8
KIJUN
100
AcDbLine
 10
300.4370387449075
 20
880.2120289996764
 30
0.0
 11
296.9145667449106
 21
836.1530619996354
 31
0.0
  0
LINE
  5
60A6
102
{ACAD_REACTORS
330
6398
102
}
330
2
100
AcDbEntity
  8
KIJUN
100
AcDbLine
 10
296.9145667449106
 20
836.1530619996354
 30
0.0
 11
295.1815247449835
 21
799.9170409996313
 31
0.0
  0
LINE
  5
60A7
102
{ACAD_REACTORS
330
6398
102
}
330
2
100
AcDbEntity
  8
KIJUN
100
AcDbLine
 10
295.1815247449835
 20
799.9170409996313
 30
0.0
 11
295.7405787450466
 21
773.2895859997093
 31
0.0
  0
LINE
  5
60A8
102
{ACAD_REACTORS
330
6398
102
}
330
2
100
AcDbEntity
  8
KIJUN
100
AcDbLine
 10
295.7405787450466
 20
773.2895859997093
 30
0.0
 11
298.7039967449804
 21
747.8970789996115
 31
0.0
  0
LINE
  5
60A9
102
{ACAD_REACTORS
330
6398
102
}
330
2
100
AcDbEntity
  8
KIJUN
100
AcDbLine
 10
298.7039967449804
 20
747.8970789996115
 30
0.0
 11
300.7165657450595
 21
739.2500299996556
 31
0.0
  0
LINE
  5
60AA
102
{ACAD_REACTORS
330
6398
102
}
330
2
100
AcDbEntity
  8
KIJUN
100
AcDbLine
 10
300.7165657450595
 20
739.2500299996556
 30
0.0
 11
302.5059957448966
 21
737.8775409996981
 31
0.0
  0
LINE
  5
60AB
102
{ACAD_REACTORS
330
6398
102
}
330
2
100
AcDbEntity
  8
KIJUN
100
AcDbLine
 10
302.5059957448966
 20
737.8775409996981
 30
0.0
 11
304.5185647449748
 21
740.0736249996429
 31
0.0
  0
LINE
  5
60AC
102
{ACAD_REACTORS
330
6398
102
}
330
2
100
AcDbEntity
  8
KIJUN
100
AcDbLine
 10
304.5185647449748
 20
740.0736249996429
 30
0.0
 11
301.3314997450925
 21
762.4460719996883
 31
0.0
  0
LINE
  5
60AD
102
{ACAD_REACTORS
330
6398
102
}
330
2
100
AcDbEntity
  8
KIJUN
100
AcDbLine
 10
301.3314997450925
 20
762.4460719996883
 30
0.0
 11
299.8781117448879
 21
789.0740349996653
 31
0.0
  0
LINE
  5
60AE
102
{ACAD_REACTORS
330
6398
102
}
330
2
100
AcDbEntity
  8
KIJUN
100
AcDbLine
 10
299.8781117448879
 20
789.0740349996653
 30
0.0
 11
299.8781117448879
 21
816.5250849996976
 31
0.0
  0
LINE
  5
60AF
102
{ACAD_REACTORS
330
6398
102
}
330
2
100
AcDbEntity
  8
KIJUN
100
AcDbLine
 10
299.8781117448879
 20
816.5250849996976
 30
0.0
 11
301.6115347449503
 21
848.3685569996836
 31
0.0
  0
LINE
  5
60B0
102
{ACAD_REACTORS
330
6398
102
}
330
2
100
AcDbEntity
  8
KIJUN
100
AcDbLine
 10
301.6115347449503
 20
848.3685569996836
 30
0.0
 11
303.4005837448994
 21
876.5060419996894
 31
0.0
  0
LINE
  5
60B1
102
{ACAD_REACTORS
330
6398
102
}
330
2
100
AcDbEntity
  8
KIJUN
100
AcDbLine
 10
303.4005837448994
 20
876.5060419996894
 30
0.0
 11
303.9595107449045
 21
906.9770249996164
 31
0.0
  0
LINE
  5
60B2
102
{ACAD_REACTORS
330
6398
102
}
330
2
100
AcDbEntity
  8
KIJUN
100
AcDbLine
 10
303.9595107449045
 20
906.9770249996164
 30
0.0
 11
303.9595107449045
 21
930.7225959995944
 31
0.0
  0
LINE
  5
60B3
102
{ACAD_REACTORS
330
6398
102
}
330
2
100
AcDbEntity
  8
KIJUN
100
AcDbLine
 10
303.9595107449045
 20
930.7225959995944
 30
0.0
 11
302.2265957450203
 21
951.7225539996809
 31
0.0
  0
LINE
  5
60B4
102
{ACAD_REACTORS
330
6398
102
}
330
2
100
AcDbEntity
  8
KIJUN
100
AcDbLine
 10
302.2265957450203
 20
951.7225539996809
 30
0.0
 11
301.3314997450925
 21
962.5660679997029
 31
0.0
  0
LINE
  5
60B5
102
{ACAD_REACTORS
330
6398
102
}
330
2
100
AcDbEntity
  8
KIJUN
100
AcDbLine
 10
301.3314997450925
 20
962.5660679997029
 30
0.0
 11
298.9835237448996
 21
963.9385569996679
 31
0.0
  0
LINE
  5
60B6
102
{ACAD_REACTORS
330
6398
102
}
330
2
100
AcDbEntity
  8
KIJUN
100
AcDbLine
 10
298.9835237448996
 20
963.9385569996679
 30
0.0
 11
296.9145667449106
 21
963.9385569996679
 31
0.0
  0
LINE
  5
60B7
102
{ACAD_REACTORS
330
6398
102
}
330
2
100
AcDbEntity
  8
KIJUN
100
AcDbLine
 10
296.9145667449106
 20
963.9385569996679
 30
0.0
 11
295.4610517448945
 21
962.5660679997029
 31
0.0
  0
LINE
  5
60B8
102
{ACAD_REACTORS
330
6398
102
}
330
2
100
AcDbEntity
  8
KIJUN
100
AcDbLine
 10
291.1430517449398
 20
679.3560679996536
 30
0.0
 11
290.4511557449577
 21
679.146009999686
 31
0.0
  0
LINE
  5
60B9
102
{ACAD_REACTORS
330
6398
102
}
330
2
100
AcDbEntity
  8
KIJUN
100
AcDbLine
 10
290.4511557449577
 20
679.146009999686
 30
0.0
 11
289.9083577450783
 21
678.7020179996566
 31
0.0
  0
LINE
  5
60BA
102
{ACAD_REACTORS
330
6398
102
}
330
2
100
AcDbEntity
  8
KIJUN
100
AcDbLine
 10
289.9083577450783
 20
678.7020179996566
 30
0.0
 11
289.4915437449003
 21
678.0600329996981
 31
0.0
  0
LINE
  5
60BB
102
{ACAD_REACTORS
330
6398
102
}
330
2
100
AcDbEntity
  8
KIJUN
100
AcDbLine
 10
289.4915437449003
 20
678.0600329996981
 30
0.0
 11
289.2832637450687
 21
677.3069229996711
 31
0.0
  0
LINE
  5
60BC
102
{ACAD_REACTORS
330
6398
102
}
330
2
100
AcDbEntity
  8
KIJUN
100
AcDbLine
 10
289.2832637450687
 20
677.3069229996711
 30
0.0
 11
289.0635537450784
 21
676.5177449996648
 31
0.0
  0
LINE
  5
60BD
102
{ACAD_REACTORS
330
6398
102
}
330
2
100
AcDbEntity
  8
KIJUN
100
AcDbLine
 10
289.0635537450784
 20
676.5177449996648
 30
0.0
 11
288.8206027450705
 21
675.7105329996869
 31
0.0
  0
LINE
  5
60BE
102
{ACAD_REACTORS
330
6398
102
}
330
2
100
AcDbEntity
  8
KIJUN
100
AcDbLine
 10
288.8206027450705
 20
675.7105329996869
 30
0.0
 11
288.5358687450125
 21
672.1224019996319
 31
0.0
  0
LINE
  5
60BF
102
{ACAD_REACTORS
330
6398
102
}
330
2
100
AcDbEntity
  8
KIJUN
100
AcDbLine
 10
288.5358687450125
 20
672.1224019996319
 30
0.0
 11
288.2971087450337
 21
668.389998999601
 31
0.0
  0
LINE
  5
60C0
102
{ACAD_REACTORS
330
6398
102
}
330
2
100
AcDbEntity
  8
KIJUN
100
AcDbLine
 10
288.2971087450337
 20
668.389998999601
 30
0.0
 11
288.2530397449068
 21
664.8555889996007
 31
0.0
  0
LINE
  5
60C1
102
{ACAD_REACTORS
330
6398
102
}
330
2
100
AcDbEntity
  8
KIJUN
100
AcDbLine
 10
288.2530397449068
 20
664.8555889996007
 30
0.0
 11
288.2530397449068
 21
654.6485989996385
 31
0.0
  0
LINE
  5
60C2
102
{ACAD_REACTORS
330
6398
102
}
330
2
100
AcDbEntity
  8
KIJUN
100
AcDbLine
 10
288.2530397449068
 20
654.6485989996385
 30
0.0
 11
288.9755427450786
 21
641.4440279996147
 31
0.0
  0
LINE
  5
60C3
102
{ACAD_REACTORS
330
6398
102
}
330
2
100
AcDbEntity
  8
KIJUN
100
AcDbLine
 10
288.9755427450786
 20
641.4440279996147
 30
0.0
 11
290.3175517449986
 21
629.2115149996992
 31
0.0
  0
LINE
  5
60C4
102
{ACAD_REACTORS
330
6398
102
}
330
2
100
AcDbEntity
  8
KIJUN
100
AcDbLine
 10
290.3175517449986
 20
629.2115149996992
 30
0.0
 11
291.8655547448934
 21
620.1390159996392
 31
0.0
  0
LINE
  5
60C5
102
{ACAD_REACTORS
330
6398
102
}
330
2
100
AcDbEntity
  8
KIJUN
100
AcDbLine
 10
291.8655547448934
 20
620.1390159996392
 30
0.0
 11
292.8498047449816
 21
615.7135739996906
 31
0.0
  0
LINE
  5
60C6
102
{ACAD_REACTORS
330
6398
102
}
330
2
100
AcDbEntity
  8
KIJUN
100
AcDbLine
 10
292.8498047449816
 20
615.7135739996906
 30
0.0
 11
294.2010847450355
 21
611.576040999617
 31
0.0
  0
LINE
  5
60C7
102
{ACAD_REACTORS
330
6398
102
}
330
2
100
AcDbEntity
  8
KIJUN
100
AcDbLine
 10
294.2010847450355
 20
611.576040999617
 30
0.0
 11
295.8390037450935
 21
607.5825259996585
 31
0.0
  0
LINE
  5
60C8
102
{ACAD_REACTORS
330
6398
102
}
330
2
100
AcDbEntity
  8
KIJUN
100
AcDbLine
 10
295.8390037450935
 20
607.5825259996585
 30
0.0
 11
297.3509387450235
 21
604.5942159996142
 31
0.0
  0
LINE
  5
60C9
102
{ACAD_REACTORS
330
6398
102
}
330
2
100
AcDbEntity
  8
KIJUN
100
AcDbLine
 10
297.3509387450235
 20
604.5942159996142
 30
0.0
 11
299.0922357449735
 21
601.8219329996957
 31
0.0
  0
LINE
  5
60CA
102
{ACAD_REACTORS
330
6398
102
}
330
2
100
AcDbEntity
  8
KIJUN
100
AcDbLine
 10
299.0922357449735
 20
601.8219329996957
 30
0.0
 11
301.0515917450447
 21
599.3195249996517
 31
0.0
  0
LINE
  5
60CB
102
{ACAD_REACTORS
330
6398
102
}
330
2
100
AcDbEntity
  8
KIJUN
100
AcDbLine
 10
301.0515917450447
 20
599.3195249996517
 30
0.0
 11
302.6148347450125
 21
597.3544539996095
 31
0.0
  0
LINE
  5
60CC
102
{ACAD_REACTORS
330
6398
102
}
330
2
100
AcDbEntity
  8
KIJUN
100
AcDbLine
 10
302.6148347450125
 20
597.3544539996095
 30
0.0
 11
304.2356087450448
 21
595.4251969996787
 31
0.0
  0
LINE
  5
60CD
102
{ACAD_REACTORS
330
6398
102
}
330
2
100
AcDbEntity
  8
KIJUN
100
AcDbLine
 10
304.2356087450448
 20
595.4251969996787
 30
0.0
 11
306.1086047449996
 21
593.8920529996197
 31
0.0
  0
LINE
  5
60CE
102
{ACAD_REACTORS
330
6398
102
}
330
2
100
AcDbEntity
  8
KIJUN
100
AcDbLine
 10
306.1086047449996
 20
593.8920529996197
 30
0.0
 11
307.7601127450457
 21
590.5706219996377
 31
0.0
  0
LINE
  5
60CF
102
{ACAD_REACTORS
330
6398
102
}
330
2
100
AcDbEntity
  8
KIJUN
100
AcDbLine
 10
307.7601127450457
 20
590.5706219996377
 30
0.0
 11
307.7640497449897
 21
589.5985639996456
 31
0.0
  0
LINE
  5
60D0
102
{ACAD_REACTORS
330
6398
102
}
330
2
100
AcDbEntity
  8
KIJUN
100
AcDbLine
 10
307.7640497449897
 20
589.5985639996456
 30
0.0
 11
307.9972217449235
 21
588.6265059996461
 31
0.0
  0
LINE
  5
60D1
102
{ACAD_REACTORS
330
6398
102
}
330
2
100
AcDbEntity
  8
KIJUN
100
AcDbLine
 10
307.9972217449235
 20
588.6265059996461
 30
0.0
 11
307.8634907449295
 21
587.6545749996897
 31
0.0
  0
LINE
  5
60D2
102
{ACAD_REACTORS
330
6398
102
}
330
2
100
AcDbEntity
  8
KIJUN
100
AcDbLine
 10
307.8634907449295
 20
587.6545749996897
 30
0.0
 11
307.6685457449984
 21
586.8745409996648
 31
0.0
  0
LINE
  5
60D3
102
{ACAD_REACTORS
330
6398
102
}
330
2
100
AcDbEntity
  8
KIJUN
100
AcDbLine
 10
307.6685457449984
 20
586.8745409996648
 30
0.0
 11
308.1272697450535
 21
586.4363909996414
 31
0.0
  0
LINE
  5
60D4
102
{ACAD_REACTORS
330
6398
102
}
330
2
100
AcDbEntity
  8
KIJUN
100
AcDbLine
 10
308.1272697450535
 20
586.4363909996414
 30
0.0
 11
307.8634907449295
 21
586.0340549996204
 31
0.0
  0
LINE
  5
60D5
102
{ACAD_REACTORS
330
6398
102
}
330
2
100
AcDbEntity
  8
KIJUN
100
AcDbLine
 10
307.8634907449295
 20
586.0340549996204
 30
0.0
 11
306.8830507449806
 21
583.9280139996649
 31
0.0
  0
LINE
  5
60D6
102
{ACAD_REACTORS
330
6398
102
}
330
2
100
AcDbEntity
  8
KIJUN
100
AcDbLine
 10
306.8830507449806
 20
583.9280139996649
 30
0.0
 11
322.6225417450755
 21
585.3050749996714
 31
0.0
  0
LINE
  5
60D7
102
{ACAD_REACTORS
330
6398
102
}
330
2
100
AcDbEntity
  8
KIJUN
100
AcDbLine
 10
322.6225417450755
 20
585.3050749996714
 30
0.0
 11
323.1385427448826
 21
586.2770059996277
 31
0.0
  0
LINE
  5
60D8
102
{ACAD_REACTORS
330
6398
102
}
330
2
100
AcDbEntity
  8
KIJUN
100
AcDbLine
 10
323.1385427448826
 20
586.2770059996277
 30
0.0
 11
323.2936097449405
 21
587.9785519996316
 31
0.0
  0
LINE
  5
60D9
102
{ACAD_REACTORS
330
6398
102
}
330
2
100
AcDbEntity
  8
KIJUN
100
AcDbLine
 10
323.2936097449405
 20
587.9785519996316
 30
0.0
 11
323.0049387449316
 21
588.89650799968
 31
0.0
  0
LINE
  5
60DA
102
{ACAD_REACTORS
330
6398
102
}
330
2
100
AcDbEntity
  8
KIJUN
100
AcDbLine
 10
323.0049387449316
 20
588.89650799968
 30
0.0
 11
322.9800467450468
 21
589.8145909996551
 31
0.0
  0
LINE
  5
60DB
102
{ACAD_REACTORS
330
6398
102
}
330
2
100
AcDbEntity
  8
KIJUN
100
AcDbLine
 10
322.9800467450468
 20
589.8145909996551
 30
0.0
 11
322.9320407449695
 21
590.8945989997031
 31
0.0
  0
LINE
  5
60DC
102
{ACAD_REACTORS
330
6398
102
}
330
2
100
AcDbEntity
  8
KIJUN
100
AcDbLine
 10
322.9320407449695
 20
590.8945989997031
 30
0.0
 11
323.2151237449347
 21
592.5839529996323
 31
0.0
  0
LINE
  5
60DD
102
{ACAD_REACTORS
330
6398
102
}
330
2
100
AcDbEntity
  8
KIJUN
100
AcDbLine
 10
323.2151237449347
 20
592.5839529996323
 30
0.0
 11
324.1631787450087
 21
593.6070649997003
 31
0.0
  0
LINE
  5
60DE
102
{ACAD_REACTORS
330
6398
102
}
330
2
100
AcDbEntity
  8
KIJUN
100
AcDbLine
 10
324.1631787450087
 20
593.6070649997003
 30
0.0
 11
324.9965527450676
 21
594.7020589996196
 31
0.0
  0
LINE
  5
60DF
102
{ACAD_REACTORS
330
6398
102
}
330
2
100
AcDbEntity
  8
KIJUN
100
AcDbLine
 10
324.9965527450676
 20
594.7020589996196
 30
0.0
 11
328.3510037450164
 21
598.3475939997028
 31
0.0
  0
LINE
  5
60E0
102
{ACAD_REACTORS
330
6398
102
}
330
2
100
AcDbEntity
  8
KIJUN
100
AcDbLine
 10
328.3510037450164
 20
598.3475939997028
 30
0.0
 11
330.6176997449574
 21
600.7628799996913
 31
0.0
  0
LINE
  5
60E1
102
{ACAD_REACTORS
330
6398
102
}
330
2
100
AcDbEntity
  8
KIJUN
100
AcDbLine
 10
330.6176997449574
 20
600.7628799996913
 30
0.0
 11
332.6895777450108
 21
603.1422249996561
 31
0.0
  0
LINE
  5
60E2
102
{ACAD_REACTORS
330
6398
102
}
330
2
100
AcDbEntity
  8
KIJUN
100
AcDbLine
 10
332.6895777450108
 20
603.1422249996561
 30
0.0
 11
334.4405267449896
 21
605.7195629996369
 31
0.0
  0
LINE
  5
60E3
102
{ACAD_REACTORS
330
6398
102
}
330
2
100
AcDbEntity
  8
KIJUN
100
AcDbLine
 10
334.4405267449896
 20
605.7195629996369
 30
0.0
 11
338.8785417449239
 21
615.3596249996502
 31
0.0
  0
LINE
  5
60E4
102
{ACAD_REACTORS
330
6398
102
}
330
2
100
AcDbEntity
  8
KIJUN
100
AcDbLine
 10
338.8785417449239
 20
615.3596249996502
 30
0.0
 11
341.6136137449484
 21
625.5666149996052
 31
0.0
  0
LINE
  5
60E5
102
{ACAD_REACTORS
330
6398
102
}
330
2
100
AcDbEntity
  8
KIJUN
100
AcDbLine
 10
341.6136137449484
 20
625.5666149996052
 30
0.0
 11
343.3679917449326
 21
636.9886139996834
 31
0.0
  0
LINE
  5
60E6
102
{ACAD_REACTORS
330
6398
102
}
330
2
100
AcDbEntity
  8
KIJUN
100
AcDbLine
 10
343.3679917449326
 20
636.9886139996834
 30
0.0
 11
344.3999937450194
 21
648.1675349996026
 31
0.0
  0
LINE
  5
60E7
102
{ACAD_REACTORS
330
6398
102
}
330
2
100
AcDbEntity
  8
KIJUN
100
AcDbLine
 10
344.3999937450194
 20
648.1675349996026
 30
0.0
 11
344.7100007450844
 21
659.6710679996781
 31
0.0
  0
LINE
  5
60E8
102
{ACAD_REACTORS
330
6398
102
}
330
2
100
AcDbEntity
  8
KIJUN
100
AcDbLine
 10
344.7100007450844
 20
659.6710679996781
 30
0.0
 11
344.6585657449966
 21
670.6070379997059
 31
0.0
  0
LINE
  5
60E9
102
{ACAD_REACTORS
330
6398
102
}
330
2
100
AcDbEntity
  8
KIJUN
100
AcDbLine
 10
344.6585657449966
 20
670.6070379997059
 30
0.0
 11
344.6661857450367
 21
672.509370999653
 31
0.0
  0
LINE
  5
60EA
102
{ACAD_REACTORS
330
6398
102
}
330
2
100
AcDbEntity
  8
KIJUN
100
AcDbLine
 10
344.6661857450367
 20
672.509370999653
 30
0.0
 11
344.6508187449207
 21
674.3755089997013
 31
0.0
  0
LINE
  5
60EB
102
{ACAD_REACTORS
330
6398
102
}
330
2
100
AcDbEntity
  8
KIJUN
100
AcDbLine
 10
344.6508187449207
 20
674.3755089997013
 30
0.0
 11
344.5550607450695
 21
676.2775879996866
 31
0.0
  0
LINE
  5
60EC
102
{ACAD_REACTORS
330
6398
102
}
330
2
100
AcDbEntity
  8
KIJUN
100
AcDbLine
 10
344.5550607450695
 20
676.2775879996866
 30
0.0
 11
344.1231337450795
 21
677.6698889996425
 31
0.0
  0
LINE
  5
60ED
102
{ACAD_REACTORS
330
6398
102
}
330
2
100
AcDbEntity
  8
KIJUN
100
AcDbLine
 10
344.1231337450795
 20
677.6698889996425
 30
0.0
 11
343.3356067450576
 21
678.7200519996352
 31
0.0
  0
LINE
  5
60EE
102
{ACAD_REACTORS
330
6398
102
}
330
2
100
AcDbEntity
  8
KIJUN
100
AcDbLine
 10
343.3356067450576
 20
678.7200519996352
 30
0.0
 11
342.1810497450774
 21
679.3560679996536
 31
0.0
  0
LINE
  5
60EF
102
{ACAD_REACTORS
330
6398
102
}
330
2
100
AcDbEntity
  8
KIJUN
100
AcDbLine
 10
342.1810497450774
 20
679.3560679996536
 30
0.0
 11
291.1430517449398
 21
679.3560679996536
 31
0.0
  0
LINE
  5
60F0
102
{ACAD_REACTORS
330
6398
102
}
330
2
100
AcDbEntity
  8
KIJUN
100
AcDbLine
 10
323.2055987449407
 20
682.9820449996938
 30
0.0
 11
321.6325767449075
 21
681.2801179996702
 31
0.0
  0
LINE
  5
60F1
102
{ACAD_REACTORS
330
6398
102
}
330
2
100
AcDbEntity
  8
KIJUN
100
AcDbLine
 10
321.6325767449075
 20
681.2801179996702
 30
0.0
 11
319.5805107450924
 21
680.6315289996732
 31
0.0
  0
LINE
  5
60F2
102
{ACAD_REACTORS
330
6398
102
}
330
2
100
AcDbEntity
  8
KIJUN
100
AcDbLine
 10
319.5805107450924
 20
680.6315289996732
 30
0.0
 11
316.9815827449547
 21
681.4420429996268
 31
0.0
  0
LINE
  5
60F3
102
{ACAD_REACTORS
330
6398
102
}
330
2
100
AcDbEntity
  8
KIJUN
100
AcDbLine
 10
316.9815827449547
 20
681.4420429996268
 30
0.0
 11
315.2715277449528
 21
682.6580679996282
 31
0.0
  0
LINE
  5
60F4
102
{ACAD_REACTORS
330
6398
102
}
330
2
100
AcDbEntity
  8
KIJUN
100
AcDbLine
 10
315.2715277449528
 20
682.6580679996282
 30
0.0
 11
314.9980967450155
 21
600.3045369996566
 31
0.0
  0
LINE
  5
60F5
102
{ACAD_REACTORS
330
6398
102
}
330
2
100
AcDbEntity
  8
KIJUN
100
AcDbLine
 10
314.9980967450155
 20
600.3045369996566
 30
0.0
 11
315.0665497450954
 21
598.1970989996937
 31
0.0
  0
LINE
  5
60F6
102
{ACAD_REACTORS
330
6398
102
}
330
2
100
AcDbEntity
  8
KIJUN
100
AcDbLine
 10
315.0665497450954
 20
598.1970989996937
 30
0.0
 11
317.9390357449724
 21
598.1970989996937
 31
0.0
  0
LINE
  5
60F7
102
{ACAD_REACTORS
330
6398
102
}
330
2
100
AcDbEntity
  8
KIJUN
100
AcDbLine
 10
317.9390357449724
 20
598.1970989996937
 30
0.0
 11
319.5120577450134
 21
609.2748009996453
 31
0.0
  0
LINE
  5
60F8
102
{ACAD_REACTORS
330
6398
102
}
330
2
100
AcDbEntity
  8
KIJUN
100
AcDbLine
 10
319.5120577450134
 20
609.2748009996453
 30
0.0
 11
320.9028347450425
 21
620.730962999633
 31
0.0
  0
LINE
  5
60F9
102
{ACAD_REACTORS
330
6398
102
}
330
2
100
AcDbEntity
  8
KIJUN
100
AcDbLine
 10
320.9028347450425
 20
620.730962999633
 30
0.0
 11
321.8375547449966
 21
632.2410999996304
 31
0.0
  0
LINE
  5
60FA
102
{ACAD_REACTORS
330
6398
102
}
330
2
100
AcDbEntity
  8
KIJUN
100
AcDbLine
 10
321.8375547449966
 20
632.2410999996304
 30
0.0
 11
323.0004937450485
 21
658.9895859996418
 31
0.0
  0
LINE
  5
60FB
102
{ACAD_REACTORS
330
6398
102
}
330
2
100
AcDbEntity
  8
KIJUN
100
AcDbLine
 10
323.0004937450485
 20
658.9895859996418
 30
0.0
 11
323.2055987449407
 21
682.9820449996938
 31
0.0
  0
LINE
  5
60FC
102
{ACAD_REACTORS
330
6398
102
}
330
2
100
AcDbEntity
  8
KIJUN
100
AcDbLine
 10
285.6330297450245
 20
682.5661199996925
 30
0.0
 11
284.4020187450205
 21
681.431628999681
 31
0.0
  0
LINE
  5
60FD
102
{ACAD_REACTORS
330
6398
102
}
330
2
100
AcDbEntity
  8
KIJUN
100
AcDbLine
 10
284.4020187450205
 20
681.431628999681
 30
0.0
 11
282.9655217449967
 21
681.5935539996302
 31
0.0
  0
LINE
  5
60FE
102
{ACAD_REACTORS
330
6398
102
}
330
2
100
AcDbEntity
  8
KIJUN
100
AcDbLine
 10
282.9655217449967
 20
681.5935539996302
 30
0.0
 11
281.8715437449636
 21
682.5661199996925
 31
0.0
  0
LINE
  5
60FF
102
{ACAD_REACTORS
330
6398
102
}
330
2
100
AcDbEntity
  8
KIJUN
100
AcDbLine
 10
281.8715437449636
 20
682.5661199996925
 30
0.0
 11
281.8715437449636
 21
661.9780229996198
 31
0.0
  0
LINE
  5
6100
102
{ACAD_REACTORS
330
6398
102
}
330
2
100
AcDbEntity
  8
KIJUN
100
AcDbLine
 10
281.8715437449636
 20
661.9780229996198
 30
0.0
 11
282.5555657450518
 21
645.7665999996119
 31
0.0
  0
LINE
  5
6101
102
{ACAD_REACTORS
330
6398
102
}
330
2
100
AcDbEntity
  8
KIJUN
100
AcDbLine
 10
282.5555657450518
 20
645.7665999996119
 30
0.0
 11
284.7440297450725
 21
631.6626149996976
 31
0.0
  0
LINE
  5
6102
102
{ACAD_REACTORS
330
6398
102
}
330
2
100
AcDbEntity
  8
KIJUN
100
AcDbLine
 10
284.7440297450725
 20
631.6626149996976
 30
0.0
 11
288.0955597449483
 21
619.7476019996124
 31
0.0
  0
LINE
  5
6103
102
{ACAD_REACTORS
330
6398
102
}
330
2
100
AcDbEntity
  8
KIJUN
100
AcDbLine
 10
288.0955597449483
 20
619.7476019996124
 30
0.0
 11
292.7465537449084
 21
610.1831049996566
 31
0.0
  0
LINE
  5
6104
102
{ACAD_REACTORS
330
6398
102
}
330
2
100
AcDbEntity
  8
KIJUN
100
AcDbLine
 10
292.7465537449084
 20
610.1831049996566
 30
0.0
 11
298.6285587450829
 21
603.4550259996271
 31
0.0
  0
LINE
  5
6105
102
{ACAD_REACTORS
330
6398
102
}
330
2
100
AcDbEntity
  8
KIJUN
100
AcDbLine
 10
298.6285587450829
 20
603.4550259996271
 30
0.0
 11
303.8949947450146
 21
598.2675839996396
 31
0.0
  0
LINE
  5
6106
102
{ACAD_REACTORS
330
6398
102
}
330
2
100
AcDbEntity
  8
KIJUN
100
AcDbLine
 10
303.8949947450146
 20
598.2675839996396
 30
0.0
 11
305.2630387449667
 21
598.2675839996396
 31
0.0
  0
LINE
  5
6107
102
{ACAD_REACTORS
330
6398
102
}
330
2
100
AcDbEntity
  8
KIJUN
100
AcDbLine
 10
305.2630387449667
 20
598.2675839996396
 30
0.0
 11
298.4235807450009
 21
607.1025929996997
 31
0.0
  0
LINE
  5
6108
102
{ACAD_REACTORS
330
6398
102
}
330
2
100
AcDbEntity
  8
KIJUN
100
AcDbLine
 10
298.4235807450009
 20
607.1025929996997
 30
0.0
 11
292.3360897450243
 21
617.640036999614
 31
0.0
  0
LINE
  5
6109
102
{ACAD_REACTORS
330
6398
102
}
330
2
100
AcDbEntity
  8
KIJUN
100
AcDbLine
 10
292.3360897450243
 20
617.640036999614
 30
0.0
 11
288.5740957450166
 21
631.9870999996951
 31
0.0
  0
LINE
  5
610A
102
{ACAD_REACTORS
330
6398
102
}
330
2
100
AcDbEntity
  8
KIJUN
100
AcDbLine
 10
288.5740957450166
 20
631.9870999996951
 30
0.0
 11
286.5225377449155
 21
647.3876279996205
 31
0.0
  0
LINE
  5
610B
102
{ACAD_REACTORS
330
6398
102
}
330
2
100
AcDbEntity
  8
KIJUN
100
AcDbLine
 10
286.5225377449155
 20
647.3876279996205
 30
0.0
 11
285.6330297450245
 21
662.7075109996243
 31
0.0
  0
LINE
  5
610C
102
{ACAD_REACTORS
330
6398
102
}
330
2
100
AcDbEntity
  8
KIJUN
100
AcDbLine
 10
285.6330297450245
 20
662.7075109996243
 30
0.0
 11
285.6330297450245
 21
682.5661199996925
 31
0.0
  0
LINE
  5
610D
102
{ACAD_REACTORS
330
6398
102
}
330
2
100
AcDbEntity
  8
KIJUN
100
AcDbLine
 10
307.0865047450115
 20
682.7280449996419
 30
0.0
 11
308.6595267450593
 21
681.0261179996182
 31
0.0
  0
LINE
  5
610E
102
{ACAD_REACTORS
330
6398
102
}
330
2
100
AcDbEntity
  8
KIJUN
100
AcDbLine
 10
308.6595267450593
 20
681.0261179996182
 30
0.0
 11
310.7115927448744
 21
680.3775289996287
 31
0.0
  0
LINE
  5
610F
102
{ACAD_REACTORS
330
6398
102
}
330
2
100
AcDbEntity
  8
KIJUN
100
AcDbLine
 10
310.7115927448744
 20
680.3775289996287
 30
0.0
 11
313.3105207450048
 21
681.1880429996837
 31
0.0
  0
LINE
  5
6110
102
{ACAD_REACTORS
330
6398
102
}
330
2
100
AcDbEntity
  8
KIJUN
100
AcDbLine
 10
313.3105207450048
 20
681.1880429996837
 30
0.0
 11
315.0205757450085
 21
682.4040679996999
 31
0.0
  0
LINE
  5
6111
102
{ACAD_REACTORS
330
6398
102
}
330
2
100
AcDbEntity
  8
KIJUN
100
AcDbLine
 10
315.0205757450085
 20
682.4040679996999
 30
0.0
 11
315.2940067449294
 21
600.0505369996049
 31
0.0
  0
LINE
  5
6112
102
{ACAD_REACTORS
330
6398
102
}
330
2
100
AcDbEntity
  8
KIJUN
100
AcDbLine
 10
315.2940067449294
 20
600.0505369996049
 30
0.0
 11
315.0890287450806
 21
598.2675839996396
 31
0.0
  0
LINE
  5
6113
102
{ACAD_REACTORS
330
6398
102
}
330
2
100
AcDbEntity
  8
KIJUN
100
AcDbLine
 10
315.0890287450806
 20
598.2675839996396
 30
0.0
 11
312.0110567449355
 21
598.1055319996471
 31
0.0
  0
LINE
  5
6114
102
{ACAD_REACTORS
330
6398
102
}
330
2
100
AcDbEntity
  8
KIJUN
100
AcDbLine
 10
312.0110567449355
 20
598.1055319996471
 30
0.0
 11
310.5266807448774
 21
609.1411969997011
 31
0.0
  0
LINE
  5
6115
102
{ACAD_REACTORS
330
6398
102
}
330
2
100
AcDbEntity
  8
KIJUN
100
AcDbLine
 10
310.5266807448774
 20
609.1411969997011
 30
0.0
 11
309.3006227449427
 21
620.5191269996453
 31
0.0
  0
LINE
  5
6116
102
{ACAD_REACTORS
330
6398
102
}
330
2
100
AcDbEntity
  8
KIJUN
100
AcDbLine
 10
309.3006227449427
 20
620.5191269996453
 30
0.0
 11
308.4545487449636
 21
631.9870999996951
 31
0.0
  0
LINE
  5
6117
102
{ACAD_REACTORS
330
6398
102
}
330
2
100
AcDbEntity
  8
KIJUN
100
AcDbLine
 10
308.4545487449636
 20
631.9870999996951
 30
0.0
 11
307.2916097449115
 21
658.7355859997063
 31
0.0
  0
LINE
  5
6118
102
{ACAD_REACTORS
330
6398
102
}
330
2
100
AcDbEntity
  8
KIJUN
100
AcDbLine
 10
307.2916097449115
 20
658.7355859997063
 30
0.0
 11
307.0865047450115
 21
682.7280449996419
 31
0.0
  0
LINE
  5
6119
102
{ACAD_REACTORS
330
6398
102
}
330
2
100
AcDbEntity
  8
KIJUN
100
AcDbLine
 10
307.1060627449314
 20
682.5555789997037
 30
0.0
 11
305.4645877450516
 21
681.2585279996441
 31
0.0
  0
LINE
  5
611A
102
{ACAD_REACTORS
330
6398
102
}
330
2
100
AcDbEntity
  8
KIJUN
100
AcDbLine
 10
305.4645877450516
 20
681.2585279996441
 30
0.0
 11
302.9341127449865
 21
680.7721179996901
 31
0.0
  0
LINE
  5
611B
102
{ACAD_REACTORS
330
6398
102
}
330
2
100
AcDbEntity
  8
KIJUN
100
AcDbLine
 10
302.9341127449865
 20
680.7721179996901
 30
0.0
 11
300.2666047449665
 21
681.3395539996952
 31
0.0
  0
LINE
  5
611C
102
{ACAD_REACTORS
330
6398
102
}
330
2
100
AcDbEntity
  8
KIJUN
100
AcDbLine
 10
300.2666047449665
 20
681.3395539996952
 30
0.0
 11
298.6930747449796
 21
682.6366049996453
 31
0.0
  0
LINE
  5
611D
102
{ACAD_REACTORS
330
6398
102
}
330
2
100
AcDbEntity
  8
KIJUN
100
AcDbLine
 10
298.6930747449796
 20
682.6366049996453
 30
0.0
 11
299.5825827448707
 21
652.4026039996627
 31
0.0
  0
LINE
  5
611E
102
{ACAD_REACTORS
330
6398
102
}
330
2
100
AcDbEntity
  8
KIJUN
100
AcDbLine
 10
299.5825827448707
 20
652.4026039996627
 30
0.0
 11
300.4715827450477
 21
637.8120819996279
 31
0.0
  0
LINE
  5
611F
102
{ACAD_REACTORS
330
6398
102
}
330
2
100
AcDbEntity
  8
KIJUN
100
AcDbLine
 10
300.4715827450477
 20
637.8120819996279
 30
0.0
 11
302.2500907448907
 21
625.5725839996618
 31
0.0
  0
LINE
  5
6120
102
{ACAD_REACTORS
330
6398
102
}
330
2
100
AcDbEntity
  8
KIJUN
100
AcDbLine
 10
302.2500907448907
 20
625.5725839996618
 30
0.0
 11
304.0280907450196
 21
617.6291149996127
 31
0.0
  0
LINE
  5
6121
102
{ACAD_REACTORS
330
6398
102
}
330
2
100
AcDbEntity
  8
KIJUN
100
AcDbLine
 10
304.0280907450196
 20
617.6291149996127
 30
0.0
 11
306.9690297449765
 21
607.2541039997108
 31
0.0
  0
LINE
  5
6122
102
{ACAD_REACTORS
330
6398
102
}
330
2
100
AcDbEntity
  8
KIJUN
100
AcDbLine
 10
306.9690297449765
 20
607.2541039997108
 30
0.0
 11
310.0470017448888
 21
598.2565349996024
 31
0.0
  0
LINE
  5
6123
102
{ACAD_REACTORS
330
6398
102
}
330
2
100
AcDbEntity
  8
KIJUN
100
AcDbLine
 10
310.0470017448888
 20
598.2565349996024
 30
0.0
 11
312.3040457450179
 21
598.2565349996024
 31
0.0
  0
LINE
  5
6124
102
{ACAD_REACTORS
330
6398
102
}
330
2
100
AcDbEntity
  8
KIJUN
100
AcDbLine
 10
312.3040457450179
 20
598.2565349996024
 30
0.0
 11
309.1580017449364
 21
622.4115539997022
 31
0.0
  0
LINE
  5
6125
102
{ACAD_REACTORS
330
6398
102
}
330
2
100
AcDbEntity
  8
KIJUN
100
AcDbLine
 10
309.1580017449364
 20
622.4115539997022
 30
0.0
 11
308.0635157449637
 21
643.4050349996708
 31
0.0
  0
LINE
  5
6126
102
{ACAD_REACTORS
330
6398
102
}
330
2
100
AcDbEntity
  8
KIJUN
100
AcDbLine
 10
308.0635157449637
 20
643.4050349996708
 30
0.0
 11
307.6530517450728
 21
656.9415839996967
 31
0.0
  0
LINE
  5
6127
102
{ACAD_REACTORS
330
6398
102
}
330
2
100
AcDbEntity
  8
KIJUN
100
AcDbLine
 10
307.6530517450728
 20
656.9415839996967
 30
0.0
 11
307.1745157450113
 21
672.8285219997001
 31
0.0
  0
LINE
  5
6128
102
{ACAD_REACTORS
330
6398
102
}
330
2
100
AcDbEntity
  8
KIJUN
100
AcDbLine
 10
307.1745157450113
 20
672.8285219997001
 30
0.0
 11
307.1060627449314
 21
682.5555789997037
 31
0.0
  0
LINE
  5
6129
102
{ACAD_REACTORS
330
6398
102
}
330
2
100
AcDbEntity
  8
KIJUN
100
AcDbLine
 10
298.5870297448846
 20
682.739093999679
 30
0.0
 11
296.1250077448912
 21
681.3610169996849
 31
0.0
  0
LINE
  5
612A
102
{ACAD_REACTORS
330
6398
102
}
330
2
100
AcDbEntity
  8
KIJUN
100
AcDbLine
 10
296.1250077448912
 20
681.3610169996849
 30
0.0
 11
293.5940247448879
 21
681.3610169996849
 31
0.0
  0
LINE
  5
612B
102
{ACAD_REACTORS
330
6398
102
}
330
2
100
AcDbEntity
  8
KIJUN
100
AcDbLine
 10
293.5940247448879
 20
681.3610169996849
 30
0.0
 11
291.4740137449466
 21
682.6580679996282
 31
0.0
  0
LINE
  5
612C
102
{ACAD_REACTORS
330
6398
102
}
330
2
100
AcDbEntity
  8
KIJUN
100
AcDbLine
 10
291.4740137449466
 20
682.6580679996282
 30
0.0
 11
292.1580357450356
 21
661.745612999594
 31
0.0
  0
LINE
  5
612D
102
{ACAD_REACTORS
330
6398
102
}
330
2
100
AcDbEntity
  8
KIJUN
100
AcDbLine
 10
292.1580357450356
 20
661.745612999594
 30
0.0
 11
293.6626047450035
 21
641.5625189996447
 31
0.0
  0
LINE
  5
612E
102
{ACAD_REACTORS
330
6398
102
}
330
2
100
AcDbEntity
  8
KIJUN
100
AcDbLine
 10
293.6626047450035
 20
641.5625189996447
 30
0.0
 11
296.1250077448912
 21
624.5405819996981
 31
0.0
  0
LINE
  5
612F
102
{ACAD_REACTORS
330
6398
102
}
330
2
100
AcDbEntity
  8
KIJUN
100
AcDbLine
 10
296.1250077448912
 20
624.5405819996981
 30
0.0
 11
299.6815157450964
 21
611.8145469996111
 31
0.0
  0
LINE
  5
6130
102
{ACAD_REACTORS
330
6398
102
}
330
2
100
AcDbEntity
  8
KIJUN
100
AcDbLine
 10
299.6815157450964
 20
611.8145469996111
 30
0.0
 11
305.0851117450274
 21
600.8720999997044
 31
0.0
  0
LINE
  5
6131
102
{ACAD_REACTORS
330
6398
102
}
330
2
100
AcDbEntity
  8
KIJUN
100
AcDbLine
 10
305.0851117450274
 20
600.8720999997044
 30
0.0
 11
306.7950397449803
 21
598.1970989996937
 31
0.0
  0
LINE
  5
6132
102
{ACAD_REACTORS
330
6398
102
}
330
2
100
AcDbEntity
  8
KIJUN
100
AcDbLine
 10
306.7950397449803
 20
598.1970989996937
 30
0.0
 11
310.2830947448806
 21
598.1970989996937
 31
0.0
  0
LINE
  5
6133
102
{ACAD_REACTORS
330
6398
102
}
330
2
100
AcDbEntity
  8
KIJUN
100
AcDbLine
 10
310.2830947448806
 20
598.1970989996937
 30
0.0
 11
305.4950677449724
 21
612.0580059996812
 31
0.0
  0
LINE
  5
6134
102
{ACAD_REACTORS
330
6398
102
}
330
2
100
AcDbEntity
  8
KIJUN
100
AcDbLine
 10
305.4950677449724
 20
612.0580059996812
 30
0.0
 11
302.1440457450357
 21
626.8910979997185
 31
0.0
  0
LINE
  5
6135
102
{ACAD_REACTORS
330
6398
102
}
330
2
100
AcDbEntity
  8
KIJUN
100
AcDbLine
 10
302.1440457450357
 20
626.8910979997185
 30
0.0
 11
300.1605597448706
 21
641.8055969996952
 31
0.0
  0
LINE
  5
6136
102
{ACAD_REACTORS
330
6398
102
}
330
2
100
AcDbEntity
  8
KIJUN
100
AcDbLine
 10
300.1605597448706
 20
641.8055969996952
 30
0.0
 11
299.4765377450157
 21
655.8285559996752
 31
0.0
  0
LINE
  5
6137
102
{ACAD_REACTORS
330
6398
102
}
330
2
100
AcDbEntity
  8
KIJUN
100
AcDbLine
 10
299.4765377450157
 20
655.8285559996752
 30
0.0
 11
299.0660737448834
 21
670.4995959996036
 31
0.0
  0
LINE
  5
6138
102
{ACAD_REACTORS
330
6398
102
}
330
2
100
AcDbEntity
  8
KIJUN
100
AcDbLine
 10
299.0660737448834
 20
670.4995959996036
 30
0.0
 11
298.5870297448846
 21
682.739093999679
 31
0.0
  0
LINE
  5
6139
102
{ACAD_REACTORS
330
6398
102
}
330
2
100
AcDbEntity
  8
KIJUN
100
AcDbLine
 10
291.7976097449927
 20
682.3121199996334
 30
0.0
 11
289.8139967450179
 21
681.1776289996291
 31
0.0
  0
LINE
  5
613A
102
{ACAD_REACTORS
330
6398
102
}
330
2
100
AcDbEntity
  8
KIJUN
100
AcDbLine
 10
289.8139967450179
 20
681.1776289996291
 30
0.0
 11
287.7620577450207
 21
681.1776289996291
 31
0.0
  0
LINE
  5
613B
102
{ACAD_REACTORS
330
6398
102
}
330
2
100
AcDbEntity
  8
KIJUN
100
AcDbLine
 10
287.7620577450207
 20
681.1776289996291
 30
0.0
 11
285.9156047450437
 21
682.2310939996989
 31
0.0
  0
LINE
  5
613C
102
{ACAD_REACTORS
330
6398
102
}
330
2
100
AcDbEntity
  8
KIJUN
100
AcDbLine
 10
285.9156047450437
 20
682.2310939996989
 30
0.0
 11
285.9156047450437
 21
662.5345369996307
 31
0.0
  0
LINE
  5
613D
102
{ACAD_REACTORS
330
6398
102
}
330
2
100
AcDbEntity
  8
KIJUN
100
AcDbLine
 10
285.9156047450437
 20
662.5345369996307
 30
0.0
 11
286.8046047449956
 21
648.836062999648
 31
0.0
  0
LINE
  5
613E
102
{ACAD_REACTORS
330
6398
102
}
330
2
100
AcDbEntity
  8
KIJUN
100
AcDbLine
 10
286.8046047449956
 20
648.836062999648
 30
0.0
 11
288.1725217449043
 21
635.9481029996191
 31
0.0
  0
LINE
  5
613F
102
{ACAD_REACTORS
330
6398
102
}
330
2
100
AcDbEntity
  8
KIJUN
100
AcDbLine
 10
288.1725217449043
 20
635.9481029996191
 30
0.0
 11
290.6350517450687
 21
624.2755329996018
 31
0.0
  0
LINE
  5
6140
102
{ACAD_REACTORS
330
6398
102
}
330
2
100
AcDbEntity
  8
KIJUN
100
AcDbLine
 10
290.6350517450687
 20
624.2755329996018
 30
0.0
 11
293.7125157450336
 21
615.035520999651
 31
0.0
  0
LINE
  5
6141
102
{ACAD_REACTORS
330
6398
102
}
330
2
100
AcDbEntity
  8
KIJUN
100
AcDbLine
 10
293.7125157450336
 20
615.035520999651
 30
0.0
 11
297.9535537450487
 21
606.5246159997062
 31
0.0
  0
LINE
  5
6142
102
{ACAD_REACTORS
330
6398
102
}
330
2
100
AcDbEntity
  8
KIJUN
100
AcDbLine
 10
297.9535537450487
 20
606.5246159997062
 30
0.0
 11
305.0665697449867
 21
598.0135839997116
 31
0.0
  0
LINE
  5
6143
102
{ACAD_REACTORS
330
6398
102
}
330
2
100
AcDbEntity
  8
KIJUN
100
AcDbLine
 10
305.0665697449867
 20
598.0135839997116
 30
0.0
 11
306.9130227449554
 21
598.0135839997116
 31
0.0
  0
LINE
  5
6144
102
{ACAD_REACTORS
330
6398
102
}
330
2
100
AcDbEntity
  8
KIJUN
100
AcDbLine
 10
306.9130227449554
 20
598.0135839997116
 30
0.0
 11
300.2105977449446
 21
610.2530819996704
 31
0.0
  0
LINE
  5
6145
102
{ACAD_REACTORS
330
6398
102
}
330
2
100
AcDbEntity
  8
KIJUN
100
AcDbLine
 10
300.2105977449446
 20
610.2530819996704
 30
0.0
 11
296.6535817450267
 21
624.2755329996018
 31
0.0
  0
LINE
  5
6146
102
{ACAD_REACTORS
330
6398
102
}
330
2
100
AcDbEntity
  8
KIJUN
100
AcDbLine
 10
296.6535817450267
 20
624.2755329996018
 30
0.0
 11
294.1915597450406
 21
638.1365669996324
 31
0.0
  0
LINE
  5
6147
102
{ACAD_REACTORS
330
6398
102
}
330
2
100
AcDbEntity
  8
KIJUN
100
AcDbLine
 10
294.1915597450406
 20
638.1365669996324
 30
0.0
 11
293.0284937449528
 21
652.1590179996731
 31
0.0
  0
LINE
  5
6148
102
{ACAD_REACTORS
330
6398
102
}
330
2
100
AcDbEntity
  8
KIJUN
100
AcDbLine
 10
293.0284937449528
 20
652.1590179996731
 30
0.0
 11
292.1394937450004
 21
665.2090299997094
 31
0.0
  0
LINE
  5
6149
102
{ACAD_REACTORS
330
6398
102
}
330
2
100
AcDbEntity
  8
KIJUN
100
AcDbLine
 10
292.1394937450004
 20
665.2090299997094
 30
0.0
 11
291.7976097449927
 21
682.3121199996334
 31
0.0
  0
LINE
  5
614A
102
{ACAD_REACTORS
330
6398
102
}
330
2
100
AcDbEntity
  8
KIJUN
100
AcDbLine
 10
331.7050737450685
 20
682.9930939996216
 30
0.0
 11
334.1670957450687
 21
681.6150169996201
 31
0.0
  0
LINE
  5
614B
102
{ACAD_REACTORS
330
6398
102
}
330
2
100
AcDbEntity
  8
KIJUN
100
AcDbLine
 10
334.1670957450687
 20
681.6150169996201
 30
0.0
 11
336.6980787450656
 21
681.6150169996201
 31
0.0
  0
LINE
  5
614C
102
{ACAD_REACTORS
330
6398
102
}
330
2
100
AcDbEntity
  8
KIJUN
100
AcDbLine
 10
336.6980787450656
 20
681.6150169996201
 30
0.0
 11
338.8180897450133
 21
682.9120679996797
 31
0.0
  0
LINE
  5
614D
102
{ACAD_REACTORS
330
6398
102
}
330
2
100
AcDbEntity
  8
KIJUN
100
AcDbLine
 10
338.8180897450133
 20
682.9120679996797
 30
0.0
 11
338.1340677449248
 21
661.9996129996528
 31
0.0
  0
LINE
  5
614E
102
{ACAD_REACTORS
330
6398
102
}
330
2
100
AcDbEntity
  8
KIJUN
100
AcDbLine
 10
338.1340677449248
 20
661.9996129996528
 30
0.0
 11
336.6294987449496
 21
641.8165189996965
 31
0.0
  0
LINE
  5
614F
102
{ACAD_REACTORS
330
6398
102
}
330
2
100
AcDbEntity
  8
KIJUN
100
AcDbLine
 10
336.6294987449496
 20
641.8165189996965
 30
0.0
 11
334.1670957450687
 21
624.7945819996333
 31
0.0
  0
LINE
  5
6150
102
{ACAD_REACTORS
330
6398
102
}
330
2
100
AcDbEntity
  8
KIJUN
100
AcDbLine
 10
334.1670957450687
 20
624.7945819996333
 30
0.0
 11
330.6105877450963
 21
612.0685469996701
 31
0.0
  0
LINE
  5
6151
102
{ACAD_REACTORS
330
6398
102
}
330
2
100
AcDbEntity
  8
KIJUN
100
AcDbLine
 10
330.6105877450963
 20
612.0685469996701
 30
0.0
 11
325.2069917449316
 21
601.126099999647
 31
0.0
  0
LINE
  5
6152
102
{ACAD_REACTORS
330
6398
102
}
330
2
100
AcDbEntity
  8
KIJUN
100
AcDbLine
 10
325.2069917449316
 20
601.126099999647
 30
0.0
 11
323.6340967449346
 21
598.2080209996952
 31
0.0
  0
LINE
  5
6153
102
{ACAD_REACTORS
330
6398
102
}
330
2
100
AcDbEntity
  8
KIJUN
100
AcDbLine
 10
323.6340967449346
 20
598.2080209996952
 30
0.0
 11
319.8721027449264
 21
598.2080209996952
 31
0.0
  0
LINE
  5
6154
102
{ACAD_REACTORS
330
6398
102
}
330
2
100
AcDbEntity
  8
KIJUN
100
AcDbLine
 10
319.8721027449264
 20
598.2080209996952
 30
0.0
 11
324.7970357449876
 21
612.3120059996166
 31
0.0
  0
LINE
  5
6155
102
{ACAD_REACTORS
330
6398
102
}
330
2
100
AcDbEntity
  8
KIJUN
100
AcDbLine
 10
324.7970357449876
 20
612.3120059996166
 30
0.0
 11
328.1480577449315
 21
627.1450979996465
 31
0.0
  0
LINE
  5
6156
102
{ACAD_REACTORS
330
6398
102
}
330
2
100
AcDbEntity
  8
KIJUN
100
AcDbLine
 10
328.1480577449315
 20
627.1450979996465
 30
0.0
 11
330.1315437450885
 21
642.0595969996379
 31
0.0
  0
LINE
  5
6157
102
{ACAD_REACTORS
330
6398
102
}
330
2
100
AcDbEntity
  8
KIJUN
100
AcDbLine
 10
330.1315437450885
 20
642.0595969996379
 30
0.0
 11
330.8155657449519
 21
656.0825559996178
 31
0.0
  0
LINE
  5
6158
102
{ACAD_REACTORS
330
6398
102
}
330
2
100
AcDbEntity
  8
KIJUN
100
AcDbLine
 10
330.8155657449519
 20
656.0825559996178
 30
0.0
 11
331.2260297450611
 21
670.753595999648
 31
0.0
  0
LINE
  5
6159
102
{ACAD_REACTORS
330
6398
102
}
330
2
100
AcDbEntity
  8
KIJUN
100
AcDbLine
 10
331.2260297450611
 20
670.753595999648
 30
0.0
 11
331.7050737450685
 21
682.9930939996216
 31
0.0
  0
LINE
  5
615A
102
{ACAD_REACTORS
330
6398
102
}
330
2
100
AcDbEntity
  8
KIJUN
100
AcDbLine
 10
338.6214937449894
 20
683.0741199996723
 30
0.0
 11
340.6051067449648
 21
681.9396289996676
 31
0.0
  0
LINE
  5
615B
102
{ACAD_REACTORS
330
6398
102
}
330
2
100
AcDbEntity
  8
KIJUN
100
AcDbLine
 10
340.6051067449648
 20
681.9396289996676
 30
0.0
 11
342.6570457449693
 21
681.9396289996676
 31
0.0
  0
LINE
  5
615C
102
{ACAD_REACTORS
330
6398
102
}
330
2
100
AcDbEntity
  8
KIJUN
100
AcDbLine
 10
342.6570457449693
 20
681.9396289996676
 30
0.0
 11
344.5034987449385
 21
682.9930939996216
 31
0.0
  0
LINE
  5
615D
102
{ACAD_REACTORS
330
6398
102
}
330
2
100
AcDbEntity
  8
KIJUN
100
AcDbLine
 10
344.5034987449385
 20
682.9930939996216
 30
0.0
 11
344.5034987449385
 21
663.2965369996695
 31
0.0
  0
LINE
  5
615E
102
{ACAD_REACTORS
330
6398
102
}
330
2
100
AcDbEntity
  8
KIJUN
100
AcDbLine
 10
344.5034987449385
 20
663.2965369996695
 30
0.0
 11
343.6144987449865
 21
649.5980629996868
 31
0.0
  0
LINE
  5
615F
102
{ACAD_REACTORS
330
6398
102
}
330
2
100
AcDbEntity
  8
KIJUN
100
AcDbLine
 10
343.6144987449865
 20
649.5980629996868
 30
0.0
 11
342.2465817450856
 21
636.7101029996506
 31
0.0
  0
LINE
  5
6160
102
{ACAD_REACTORS
330
6398
102
}
330
2
100
AcDbEntity
  8
KIJUN
100
AcDbLine
 10
342.2465817450856
 20
636.7101029996506
 30
0.0
 11
339.7840517449135
 21
625.0375329996407
 31
0.0
  0
LINE
  5
6161
102
{ACAD_REACTORS
330
6398
102
}
330
2
100
AcDbEntity
  8
KIJUN
100
AcDbLine
 10
339.7840517449135
 20
625.0375329996407
 30
0.0
 11
336.7065877449486
 21
615.7975209996971
 31
0.0
  0
LINE
  5
6162
102
{ACAD_REACTORS
330
6398
102
}
330
2
100
AcDbEntity
  8
KIJUN
100
AcDbLine
 10
336.7065877449486
 20
615.7975209996971
 30
0.0
 11
332.4655497449334
 21
607.2866159996286
 31
0.0
  0
LINE
  5
6163
102
{ACAD_REACTORS
330
6398
102
}
330
2
100
AcDbEntity
  8
KIJUN
100
AcDbLine
 10
332.4655497449334
 20
607.2866159996286
 30
0.0
 11
324.5316057449945
 21
598.2890469996366
 31
0.0
  0
LINE
  5
6164
102
{ACAD_REACTORS
330
6398
102
}
330
2
100
AcDbEntity
  8
KIJUN
100
AcDbLine
 10
324.5316057449945
 20
598.2890469996366
 30
0.0
 11
323.2320147448835
 21
598.2890469996366
 31
0.0
  0
LINE
  5
6165
102
{ACAD_REACTORS
330
6398
102
}
330
2
100
AcDbEntity
  8
KIJUN
100
AcDbLine
 10
323.2320147448835
 20
598.2890469996366
 30
0.0
 11
330.2085057450376
 21
611.0150819996075
 31
0.0
  0
LINE
  5
6166
102
{ACAD_REACTORS
330
6398
102
}
330
2
100
AcDbEntity
  8
KIJUN
100
AcDbLine
 10
330.2085057450376
 20
611.0150819996075
 30
0.0
 11
333.7655217449569
 21
625.0375329996407
 31
0.0
  0
LINE
  5
6167
102
{ACAD_REACTORS
330
6398
102
}
330
2
100
AcDbEntity
  8
KIJUN
100
AcDbLine
 10
333.7655217449569
 20
625.0375329996407
 30
0.0
 11
336.2275437449416
 21
638.8985669996712
 31
0.0
  0
LINE
  5
6168
102
{ACAD_REACTORS
330
6398
102
}
330
2
100
AcDbEntity
  8
KIJUN
100
AcDbLine
 10
336.2275437449416
 20
638.8985669996712
 30
0.0
 11
337.3906097450444
 21
652.9210179995957
 31
0.0
  0
LINE
  5
6169
102
{ACAD_REACTORS
330
6398
102
}
330
2
100
AcDbEntity
  8
KIJUN
100
AcDbLine
 10
337.3906097450444
 20
652.9210179995957
 30
0.0
 11
338.2796097449818
 21
665.9710299996244
 31
0.0
  0
LINE
  5
616A
102
{ACAD_REACTORS
330
6398
102
}
330
2
100
AcDbEntity
  8
KIJUN
100
AcDbLine
 10
338.2796097449818
 20
665.9710299996244
 30
0.0
 11
338.6214937449894
 21
683.0741199996723
 31
0.0
  0
LINE
  5
616B
102
{ACAD_REACTORS
330
6398
102
}
330
2
100
AcDbEntity
  8
KIJUN
100
AcDbLine
 10
323.1860407450201
 20
682.8095789996317
 30
0.0
 11
324.8275157449084
 21
681.5125279996959
 31
0.0
  0
LINE
  5
616C
102
{ACAD_REACTORS
330
6398
102
}
330
2
100
AcDbEntity
  8
KIJUN
100
AcDbLine
 10
324.8275157449084
 20
681.5125279996959
 30
0.0
 11
327.3579907449734
 21
681.0261179996182
 31
0.0
  0
LINE
  5
616D
102
{ACAD_REACTORS
330
6398
102
}
330
2
100
AcDbEntity
  8
KIJUN
100
AcDbLine
 10
327.3579907449734
 20
681.0261179996182
 30
0.0
 11
330.0254987449943
 21
681.5935539996302
 31
0.0
  0
LINE
  5
616E
102
{ACAD_REACTORS
330
6398
102
}
330
2
100
AcDbEntity
  8
KIJUN
100
AcDbLine
 10
330.0254987449943
 20
681.5935539996302
 30
0.0
 11
331.5990287449735
 21
682.8906049996897
 31
0.0
  0
LINE
  5
616F
102
{ACAD_REACTORS
330
6398
102
}
330
2
100
AcDbEntity
  8
KIJUN
100
AcDbLine
 10
331.5990287449735
 20
682.8906049996897
 30
0.0
 11
330.7095207450829
 21
652.6566039996053
 31
0.0
  0
LINE
  5
6170
102
{ACAD_REACTORS
330
6398
102
}
330
2
100
AcDbEntity
  8
KIJUN
100
AcDbLine
 10
330.7095207450829
 20
652.6566039996053
 30
0.0
 11
329.8205207449059
 21
638.0660819996795
 31
0.0
  0
LINE
  5
6171
102
{ACAD_REACTORS
330
6398
102
}
330
2
100
AcDbEntity
  8
KIJUN
100
AcDbLine
 10
329.8205207449059
 20
638.0660819996795
 30
0.0
 11
328.0420127450615
 21
625.826583999597
 31
0.0
  0
LINE
  5
6172
102
{ACAD_REACTORS
330
6398
102
}
330
2
100
AcDbEntity
  8
KIJUN
100
AcDbLine
 10
328.0420127450615
 20
625.826583999597
 30
0.0
 11
326.2640127449326
 21
617.8831149996571
 31
0.0
  0
LINE
  5
6173
102
{ACAD_REACTORS
330
6398
102
}
330
2
100
AcDbEntity
  8
KIJUN
100
AcDbLine
 10
326.2640127449326
 20
617.8831149996571
 30
0.0
 11
323.3230737449766
 21
607.5081039996461
 31
0.0
  0
LINE
  5
6174
102
{ACAD_REACTORS
330
6398
102
}
330
2
100
AcDbEntity
  8
KIJUN
100
AcDbLine
 10
323.3230737449766
 20
607.5081039996461
 30
0.0
 11
319.6295327450557
 21
598.1865579997052
 31
0.0
  0
LINE
  5
6175
102
{ACAD_REACTORS
330
6398
102
}
330
2
100
AcDbEntity
  8
KIJUN
100
AcDbLine
 10
319.6295327450557
 20
598.1865579997052
 30
0.0
 11
317.9880577449275
 21
598.1865579997052
 31
0.0
  0
LINE
  5
6176
102
{ACAD_REACTORS
330
6398
102
}
330
2
100
AcDbEntity
  8
KIJUN
100
AcDbLine
 10
317.9880577449275
 20
598.1865579997052
 30
0.0
 11
321.1341017450163
 21
622.6655539996447
 31
0.0
  0
LINE
  5
6177
102
{ACAD_REACTORS
330
6398
102
}
330
2
100
AcDbEntity
  8
KIJUN
100
AcDbLine
 10
321.1341017450163
 20
622.6655539996447
 30
0.0
 11
322.2285877450035
 21
643.6590349996135
 31
0.0
  0
LINE
  5
6178
102
{ACAD_REACTORS
330
6398
102
}
330
2
100
AcDbEntity
  8
KIJUN
100
AcDbLine
 10
322.2285877450035
 20
643.6590349996135
 30
0.0
 11
322.6390517448876
 21
657.1955839996393
 31
0.0
  0
LINE
  5
6179
102
{ACAD_REACTORS
330
6398
102
}
330
2
100
AcDbEntity
  8
KIJUN
100
AcDbLine
 10
322.6390517448876
 20
657.1955839996393
 30
0.0
 11
323.1175877449554
 21
673.0825219996353
 31
0.0
  0
LINE
  5
617A
102
{ACAD_REACTORS
330
6398
102
}
330
2
100
AcDbEntity
  8
KIJUN
100
AcDbLine
 10
323.1175877449554
 20
673.0825219996353
 30
0.0
 11
323.1860407450201
 21
682.8095789996317
 31
0.0
  0
LINE
  5
617B
102
{ACAD_REACTORS
330
6398
102
}
330
2
100
AcDbEntity
  8
KIJUN
100
AcDbLine
 10
302.3190517449025
 20
598.3300679996632
 30
0.0
 11
327.4206017449169
 21
598.4921199996555
 31
0.0
  0
LINE
  5
617C
102
{ACAD_REACTORS
330
6398
102
}
330
2
100
AcDbEntity
  8
KIJUN
100
AcDbLine
 10
304.7911067450604
 20
598.189097999641
 30
0.0
 11
325.8480877450406
 21
598.6120079997002
 31
0.0
  0
LINE
  5
617D
102
{ACAD_REACTORS
330
6398
102
}
330
2
100
AcDbEntity
  8
KIJUN
100
AcDbLine
 10
325.8480877450406
 20
598.6120079997002
 30
0.0
 11
325.0851987450505
 21
597.5525739996832
 31
0.0
  0
LINE
  5
617E
102
{ACAD_REACTORS
330
6398
102
}
330
2
100
AcDbEntity
  8
KIJUN
100
AcDbLine
 10
325.0851987450505
 20
597.5525739996832
 30
0.0
 11
324.2536027449016
 21
596.1487159996271
 31
0.0
  0
LINE
  5
617F
102
{ACAD_REACTORS
330
6398
102
}
330
2
100
AcDbEntity
  8
KIJUN
100
AcDbLine
 10
324.2536027449016
 20
596.1487159996271
 30
0.0
 11
323.8350107450305
 21
594.5255289996952
 31
0.0
  0
LINE
  5
6180
102
{ACAD_REACTORS
330
6398
102
}
330
2
100
AcDbEntity
  8
KIJUN
100
AcDbLine
 10
323.8350107450305
 20
594.5255289996952
 30
0.0
 11
323.5196697449996
 21
591.9371419996625
 31
0.0
  0
LINE
  5
6181
102
{ACAD_REACTORS
330
6398
102
}
330
2
100
AcDbEntity
  8
KIJUN
100
AcDbLine
 10
323.5196697449996
 20
591.9371419996625
 30
0.0
 11
323.5140817449637
 21
589.6931789996764
 31
0.0
  0
LINE
  5
6182
102
{ACAD_REACTORS
330
6398
102
}
330
2
100
AcDbEntity
  8
KIJUN
100
AcDbLine
 10
323.5140817449637
 20
589.6931789996764
 30
0.0
 11
323.9900777450884
 21
588.0440839996395
 31
0.0
  0
LINE
  5
6183
102
{ACAD_REACTORS
330
6398
102
}
330
2
100
AcDbEntity
  8
KIJUN
100
AcDbLine
 10
323.9900777450884
 20
588.0440839996395
 30
0.0
 11
324.4984587450944
 21
586.5879019996449
 31
0.0
  0
LINE
  5
6184
102
{ACAD_REACTORS
330
6398
102
}
330
2
100
AcDbEntity
  8
KIJUN
100
AcDbLine
 10
324.4984587450944
 20
586.5879019996449
 30
0.0
 11
325.1329507450486
 21
585.3196799996461
 31
0.0
  0
LINE
  5
6185
102
{ACAD_REACTORS
330
6398
102
}
330
2
100
AcDbEntity
  8
KIJUN
100
AcDbLine
 10
325.1329507450486
 20
585.3196799996461
 30
0.0
 11
325.9510847450287
 21
584.2395449996717
 31
0.0
  0
LINE
  5
6186
102
{ACAD_REACTORS
330
6398
102
}
330
2
100
AcDbEntity
  8
KIJUN
100
AcDbLine
 10
325.9510847450287
 20
584.2395449996717
 30
0.0
 11
327.6025927450746
 21
582.1256299997062
 31
0.0
  0
LINE
  5
6187
102
{ACAD_REACTORS
330
6398
102
}
330
2
100
AcDbEntity
  8
KIJUN
100
AcDbLine
 10
327.6025927450746
 20
582.1256299997062
 30
0.0
 11
329.3576057450536
 21
580.5755949997131
 31
0.0
  0
LINE
  5
6188
102
{ACAD_REACTORS
330
6398
102
}
330
2
100
AcDbEntity
  8
KIJUN
100
AcDbLine
 10
329.3576057450536
 20
580.5755949997131
 30
0.0
 11
331.8346137450335
 21
579.1665299996188
 31
0.0
  0
LINE
  5
6189
102
{ACAD_REACTORS
330
6398
102
}
330
2
100
AcDbEntity
  8
KIJUN
100
AcDbLine
 10
331.8346137450335
 20
579.1665299996188
 30
0.0
 11
334.6730637449427
 21
578.3210909996292
 31
0.0
  0
LINE
  5
618A
102
{ACAD_REACTORS
330
6398
102
}
330
2
100
AcDbEntity
  8
KIJUN
100
AcDbLine
 10
334.6730637449427
 20
578.3210909996292
 30
0.0
 11
296.4305697450827
 21
578.603030999666
 31
0.0
  0
LINE
  5
618B
102
{ACAD_REACTORS
330
6398
102
}
330
2
100
AcDbEntity
  8
KIJUN
100
AcDbLine
 10
296.4305697450827
 20
578.603030999666
 30
0.0
 11
300.2495867449747
 21
579.5895669996045
 31
0.0
  0
LINE
  5
618C
102
{ACAD_REACTORS
330
6398
102
}
330
2
100
AcDbEntity
  8
KIJUN
100
AcDbLine
 10
300.2495867449747
 20
579.5895669996045
 30
0.0
 11
301.6430307449836
 21
580.2940359996886
 31
0.0
  0
LINE
  5
618D
102
{ACAD_REACTORS
330
6398
102
}
330
2
100
AcDbEntity
  8
KIJUN
100
AcDbLine
 10
301.6430307449836
 20
580.2940359996886
 30
0.0
 11
302.9850397448958
 21
581.4210339996957
 31
0.0
  0
LINE
  5
618E
102
{ACAD_REACTORS
330
6398
102
}
330
2
100
AcDbEntity
  8
KIJUN
100
AcDbLine
 10
302.9850397448958
 20
581.4210339996957
 30
0.0
 11
304.2751057450136
 21
583.1120389996089
 31
0.0
  0
LINE
  5
618F
102
{ACAD_REACTORS
330
6398
102
}
330
2
100
AcDbEntity
  8
KIJUN
100
AcDbLine
 10
304.2751057450136
 20
583.1120389996089
 30
0.0
 11
305.3590507449025
 21
584.8030439996168
 31
0.0
  0
LINE
  5
6190
102
{ACAD_REACTORS
330
6398
102
}
330
2
100
AcDbEntity
  8
KIJUN
100
AcDbLine
 10
305.3590507449025
 20
584.8030439996168
 30
0.0
 11
306.1845507450612
 21
586.6345109996058
 31
0.0
  0
LINE
  5
6191
102
{ACAD_REACTORS
330
6398
102
}
330
2
100
AcDbEntity
  8
KIJUN
100
AcDbLine
 10
306.1845507450612
 20
586.6345109996058
 30
0.0
 11
306.7524947449037
 21
589.5941189996396
 31
0.0
  0
LINE
  5
6192
102
{ACAD_REACTORS
330
6398
102
}
330
2
100
AcDbEntity
  8
KIJUN
100
AcDbLine
 10
306.7524947449037
 20
589.5941189996396
 30
0.0
 11
306.7333177448809
 21
590.8570069996882
 31
0.0
  0
LINE
  5
6193
102
{ACAD_REACTORS
330
6398
102
}
330
2
100
AcDbEntity
  8
KIJUN
100
AcDbLine
 10
306.7333177448809
 20
590.8570069996882
 30
0.0
 11
306.6338767449406
 21
591.9946729996175
 31
0.0
  0
LINE
  5
6194
102
{ACAD_REACTORS
330
6398
102
}
330
2
100
AcDbEntity
  8
KIJUN
100
AcDbLine
 10
306.6338767449406
 20
591.9946729996175
 30
0.0
 11
306.5459927449905
 21
593.2575609996586
 31
0.0
  0
LINE
  5
6195
102
{ACAD_REACTORS
330
6398
102
}
330
2
100
AcDbEntity
  8
KIJUN
100
AcDbLine
 10
306.5459927449905
 20
593.2575609996586
 30
0.0
 11
306.1483557450614
 21
595.1623069996152
 31
0.0
  0
LINE
  5
6196
102
{ACAD_REACTORS
330
6398
102
}
330
2
100
AcDbEntity
  8
KIJUN
100
AcDbLine
 10
306.1483557450614
 20
595.1623069996152
 30
0.0
 11
305.4640797448796
 21
596.8479779996799
 31
0.0
  0
LINE
  5
6197
102
{ACAD_REACTORS
330
6398
102
}
330
2
100
AcDbEntity
  8
KIJUN
100
AcDbLine
 10
305.4640797448796
 20
596.8479779996799
 30
0.0
 11
304.7911067450604
 21
598.189097999641
 31
0.0
  0
LINE
  5
6198
102
{ACAD_REACTORS
330
6398
102
}
330
2
100
AcDbEntity
  8
KIJUN
100
AcDbLine
 10
295.8630067449107
 20
574.2295319996359
 30
0.0
 11
302.6397267448905
 21
574.2295319996359
 31
0.0
  0
LINE
  5
6199
102
{ACAD_REACTORS
330
6398
102
}
330
2
100
AcDbEntity
  8
KIJUN
100
AcDbLine
 10
302.6397267448905
 20
574.2295319996359
 30
0.0
 11
309.4182247450216
 21
574.2295319996359
 31
0.0
  0
LINE
  5
619A
102
{ACAD_REACTORS
330
6398
102
}
330
2
100
AcDbEntity
  8
KIJUN
100
AcDbLine
 10
309.4182247450216
 20
574.2295319996359
 30
0.0
 11
316.1945637448725
 21
574.2295319996359
 31
0.0
  0
LINE
  5
619B
102
{ACAD_REACTORS
330
6398
102
}
330
2
100
AcDbEntity
  8
KIJUN
100
AcDbLine
 10
316.1945637448725
 20
574.2295319996359
 30
0.0
 11
322.9710297449983
 21
574.2295319996359
 31
0.0
  0
LINE
  5
619C
102
{ACAD_REACTORS
330
6398
102
}
330
2
100
AcDbEntity
  8
KIJUN
100
AcDbLine
 10
322.9710297449983
 20
574.2295319996359
 30
0.0
 11
329.7506707450506
 21
574.2295319996359
 31
0.0
  0
LINE
  5
619D
102
{ACAD_REACTORS
330
6398
102
}
330
2
100
AcDbEntity
  8
KIJUN
100
AcDbLine
 10
329.7506707450506
 20
574.2295319996359
 30
0.0
 11
336.5305657449553
 21
574.2295319996359
 31
0.0
  0
LINE
  5
619E
102
{ACAD_REACTORS
330
6398
102
}
330
2
100
AcDbEntity
  8
KIJUN
100
AcDbLine
 10
336.5305657449553
 20
574.2295319996359
 30
0.0
 11
337.1537547450111
 21
574.0397939996277
 31
0.0
  0
LINE
  5
619F
102
{ACAD_REACTORS
330
6398
102
}
330
2
100
AcDbEntity
  8
KIJUN
100
AcDbLine
 10
337.1537547450111
 20
574.0397939996277
 30
0.0
 11
337.8707967449727
 21
573.4963609996507
 31
0.0
  0
LINE
  5
61A0
102
{ACAD_REACTORS
330
6398
102
}
330
2
100
AcDbEntity
  8
KIJUN
100
AcDbLine
 10
337.8707967449727
 20
573.4963609996507
 30
0.0
 11
338.6000307448903
 21
572.6386029996522
 31
0.0
  0
LINE
  5
61A1
102
{ACAD_REACTORS
330
6398
102
}
330
2
100
AcDbEntity
  8
KIJUN
100
AcDbLine
 10
338.6000307448903
 20
572.6386029996522
 30
0.0
 11
339.1988357450086
 21
571.5516099996696
 31
0.0
  0
LINE
  5
61A2
102
{ACAD_REACTORS
330
6398
102
}
330
2
100
AcDbEntity
  8
KIJUN
100
AcDbLine
 10
339.1988357450086
 20
571.5516099996696
 30
0.0
 11
339.6179357450446
 21
570.2539239996281
 31
0.0
  0
LINE
  5
61A3
102
{ACAD_REACTORS
330
6398
102
}
330
2
100
AcDbEntity
  8
KIJUN
100
AcDbLine
 10
339.6179357450446
 20
570.2539239996281
 30
0.0
 11
339.8240567450611
 21
568.8145059996481
 31
0.0
  0
LINE
  5
61A4
102
{ACAD_REACTORS
330
6398
102
}
330
2
100
AcDbEntity
  8
KIJUN
100
AcDbLine
 10
339.8240567450611
 20
568.8145059996481
 30
0.0
 11
339.8255807448786
 21
568.7673889996391
 31
0.0
  0
LINE
  5
61A5
102
{ACAD_REACTORS
330
6398
102
}
330
2
100
AcDbEntity
  8
KIJUN
100
AcDbLine
 10
339.8255807448786
 20
568.7673889996391
 30
0.0
 11
339.8254537450698
 21
568.7202719996297
 31
0.0
  0
LINE
  5
61A6
102
{ACAD_REACTORS
330
6398
102
}
330
2
100
AcDbEntity
  8
KIJUN
100
AcDbLine
 10
339.8254537450698
 20
568.7202719996297
 30
0.0
 11
339.8240567450611
 21
568.6740439996815
 31
0.0
  0
LINE
  5
61A7
102
{ACAD_REACTORS
330
6398
102
}
330
2
100
AcDbEntity
  8
KIJUN
100
AcDbLine
 10
339.8240567450611
 20
568.6740439996815
 30
0.0
 11
339.6173007450625
 21
567.2339909996101
 31
0.0
  0
LINE
  5
61A8
102
{ACAD_REACTORS
330
6398
102
}
330
2
100
AcDbEntity
  8
KIJUN
100
AcDbLine
 10
339.6173007450625
 20
567.2339909996101
 30
0.0
 11
339.1976927450796
 21
565.9363049996776
 31
0.0
  0
LINE
  5
61A9
102
{ACAD_REACTORS
330
6398
102
}
330
2
100
AcDbEntity
  8
KIJUN
100
AcDbLine
 10
339.1976927450796
 20
565.9363049996776
 30
0.0
 11
338.5990147450056
 21
564.8495659996647
 31
0.0
  0
LINE
  5
61AA
102
{ACAD_REACTORS
330
6398
102
}
330
2
100
AcDbEntity
  8
KIJUN
100
AcDbLine
 10
338.5990147450056
 20
564.8495659996647
 30
0.0
 11
337.8701617449828
 21
563.9923159996127
 31
0.0
  0
LINE
  5
61AB
102
{ACAD_REACTORS
330
6398
102
}
330
2
100
AcDbEntity
  8
KIJUN
100
AcDbLine
 10
337.8701617449828
 20
563.9923159996127
 30
0.0
 11
337.1535007449333
 21
563.4498989996377
 31
0.0
  0
LINE
  5
61AC
102
{ACAD_REACTORS
330
6398
102
}
330
2
100
AcDbEntity
  8
KIJUN
100
AcDbLine
 10
337.1535007449333
 20
563.4498989996377
 30
0.0
 11
336.5305657449553
 21
563.2605419996346
 31
0.0
  0
LINE
  5
61AD
102
{ACAD_REACTORS
330
6398
102
}
330
2
100
AcDbEntity
  8
KIJUN
100
AcDbLine
 10
336.5305657449553
 20
563.2605419996346
 30
0.0
 11
329.7506707450506
 21
563.2605419996346
 31
0.0
  0
LINE
  5
61AE
102
{ACAD_REACTORS
330
6398
102
}
330
2
100
AcDbEntity
  8
KIJUN
100
AcDbLine
 10
329.7506707450506
 20
563.2605419996346
 30
0.0
 11
322.9710297449983
 21
563.2605419996346
 31
0.0
  0
LINE
  5
61AF
102
{ACAD_REACTORS
330
6398
102
}
330
2
100
AcDbEntity
  8
KIJUN
100
AcDbLine
 10
322.9710297449983
 20
563.2605419996346
 30
0.0
 11
316.1945637448725
 21
563.2605419996346
 31
0.0
  0
LINE
  5
61B0
102
{ACAD_REACTORS
330
6398
102
}
330
2
100
AcDbEntity
  8
KIJUN
100
AcDbLine
 10
316.1945637448725
 20
563.2605419996346
 30
0.0
 11
309.4182247450216
 21
563.2605419996346
 31
0.0
  0
LINE
  5
61B1
102
{ACAD_REACTORS
330
6398
102
}
330
2
100
AcDbEntity
  8
KIJUN
100
AcDbLine
 10
309.4182247450216
 20
563.2605419996346
 30
0.0
 11
302.6397267448905
 21
563.2605419996346
 31
0.0
  0
LINE
  5
61B2
102
{ACAD_REACTORS
330
6398
102
}
330
2
100
AcDbEntity
  8
KIJUN
100
AcDbLine
 10
302.6397267448905
 20
563.2605419996346
 30
0.0
 11
295.8630067449107
 21
563.2605419996346
 31
0.0
  0
LINE
  5
61B3
102
{ACAD_REACTORS
330
6398
102
}
330
2
100
AcDbEntity
  8
KIJUN
100
AcDbLine
 10
295.8630067449107
 20
563.2605419996346
 30
0.0
 11
295.2833787450426
 21
563.4530739996722
 31
0.0
  0
LINE
  5
61B4
102
{ACAD_REACTORS
330
6398
102
}
330
2
100
AcDbEntity
  8
KIJUN
100
AcDbLine
 10
295.2833787450426
 20
563.4530739996722
 30
0.0
 11
294.6835577450383
 21
563.9986659996816
 31
0.0
  0
LINE
  5
61B5
102
{ACAD_REACTORS
330
6398
102
}
330
2
100
AcDbEntity
  8
KIJUN
100
AcDbLine
 10
294.6835577450383
 20
563.9986659996816
 30
0.0
 11
294.1105337448666
 21
564.8495659996647
 31
0.0
  0
LINE
  5
61B6
102
{ACAD_REACTORS
330
6398
102
}
330
2
100
AcDbEntity
  8
KIJUN
100
AcDbLine
 10
294.1105337448666
 20
564.8495659996647
 30
0.0
 11
293.6391097449068
 21
565.9425279997106
 31
0.0
  0
LINE
  5
61B7
102
{ACAD_REACTORS
330
6398
102
}
330
2
100
AcDbEntity
  8
KIJUN
100
AcDbLine
 10
293.6391097449068
 20
565.9425279997106
 30
0.0
 11
293.3146247450113
 21
567.2370389996017
 31
0.0
  0
LINE
  5
61B8
102
{ACAD_REACTORS
330
6398
102
}
330
2
100
AcDbEntity
  8
KIJUN
100
AcDbLine
 10
293.3146247450113
 20
567.2370389996017
 30
0.0
 11
293.1634947449115
 21
568.6740439996815
 31
0.0
  0
LINE
  5
61B9
102
{ACAD_REACTORS
330
6398
102
}
330
2
100
AcDbEntity
  8
KIJUN
100
AcDbLine
 10
293.1634947449115
 20
568.6740439996815
 30
0.0
 11
293.1628597449216
 21
568.7202719996297
 31
0.0
  0
LINE
  5
61BA
102
{ACAD_REACTORS
330
6398
102
}
330
2
100
AcDbEntity
  8
KIJUN
100
AcDbLine
 10
293.1628597449216
 20
568.7202719996297
 30
0.0
 11
293.1628597449216
 21
568.7673889996391
 31
0.0
  0
LINE
  5
61BB
102
{ACAD_REACTORS
330
6398
102
}
330
2
100
AcDbEntity
  8
KIJUN
100
AcDbLine
 10
293.1628597449216
 20
568.7673889996391
 30
0.0
 11
293.1634947449115
 21
568.8145059996481
 31
0.0
  0
LINE
  5
61BC
102
{ACAD_REACTORS
330
6398
102
}
330
2
100
AcDbEntity
  8
KIJUN
100
AcDbLine
 10
293.1634947449115
 20
568.8145059996481
 30
0.0
 11
293.3144977449765
 21
570.2506219996597
 31
0.0
  0
LINE
  5
61BD
102
{ACAD_REACTORS
330
6398
102
}
330
2
100
AcDbEntity
  8
KIJUN
100
AcDbLine
 10
293.3144977449765
 20
570.2506219996597
 30
0.0
 11
293.6387287450106
 21
571.5451329996743
 31
0.0
  0
LINE
  5
61BE
102
{ACAD_REACTORS
330
6398
102
}
330
2
100
AcDbEntity
  8
KIJUN
100
AcDbLine
 10
293.6387287450106
 20
571.5451329996743
 30
0.0
 11
294.1100257449279
 21
572.6386029996522
 31
0.0
  0
LINE
  5
61BF
102
{ACAD_REACTORS
330
6398
102
}
330
2
100
AcDbEntity
  8
KIJUN
100
AcDbLine
 10
294.1100257449279
 20
572.6386029996522
 30
0.0
 11
294.6831767449097
 21
573.4897569996122
 31
0.0
  0
LINE
  5
61C0
102
{ACAD_REACTORS
330
6398
102
}
330
2
100
AcDbEntity
  8
KIJUN
100
AcDbLine
 10
294.6831767449097
 20
573.4897569996122
 30
0.0
 11
295.2832517450065
 21
574.0363649996163
 31
0.0
  0
LINE
  5
61C1
102
{ACAD_REACTORS
330
6398
102
}
330
2
100
AcDbEntity
  8
KIJUN
100
AcDbLine
 10
295.2832517450065
 20
574.0363649996163
 30
0.0
 11
295.8630067449107
 21
574.2295319996359
 31
0.0
  0
LINE
  5
61C2
102
{ACAD_REACTORS
330
6398
102
}
330
2
100
AcDbEntity
  8
KIJUN
100
AcDbLine
 10
295.9690517449985
 20
578.3910679996357
 30
0.0
 11
335.9130917449865
 21
578.3910679996357
 31
0.0
  0
LINE
  5
61C3
102
{ACAD_REACTORS
330
6398
102
}
330
2
100
AcDbEntity
  8
KIJUN
100
AcDbLine
 10
335.9130917449865
 20
578.3910679996357
 30
0.0
 11
335.9130917449865
 21
574.3861229996277
 31
0.0
  0
LINE
  5
61C4
102
{ACAD_REACTORS
330
6398
102
}
330
2
100
AcDbEntity
  8
KIJUN
100
AcDbLine
 10
335.9130917449865
 20
574.3861229996277
 30
0.0
 11
295.9690517449985
 21
574.3861229996277
 31
0.0
  0
LINE
  5
61C5
102
{ACAD_REACTORS
330
6398
102
}
330
2
100
AcDbEntity
  8
KIJUN
100
AcDbLine
 10
295.9690517449985
 20
574.3861229996277
 30
0.0
 11
295.9690517449985
 21
578.3910679996357
 31
0.0
  0
LINE
  5
61C6
102
{ACAD_REACTORS
330
6398
102
}
330
2
100
AcDbEntity
  8
KIJUN
100
AcDbLine
 10
295.2070517450688
 20
563.405067999704
 30
0.0
 11
336.2879957450777
 21
563.405067999704
 31
0.0
  0
LINE
  5
61C7
102
{ACAD_REACTORS
330
6398
102
}
330
2
100
AcDbEntity
  8
KIJUN
100
AcDbLine
 10
336.2879957450777
 20
563.405067999704
 30
0.0
 11
336.2879957450777
 21
560.2240989996956
 31
0.0
  0
LINE
  5
61C8
102
{ACAD_REACTORS
330
6398
102
}
330
2
100
AcDbEntity
  8
KIJUN
100
AcDbLine
 10
336.2879957450777
 20
560.2240989996956
 30
0.0
 11
295.2070517450688
 21
560.2240989996956
 31
0.0
  0
LINE
  5
61C9
102
{ACAD_REACTORS
330
6398
102
}
330
2
100
AcDbEntity
  8
KIJUN
100
AcDbLine
 10
295.2070517450688
 20
560.2240989996956
 30
0.0
 11
295.2070517450688
 21
563.405067999704
 31
0.0
  0
LINE
  5
61CE
102
{ACAD_REACTORS
330
6398
102
}
330
2
100
AcDbEntity
  8
KIJUN
100
AcDbLine
 10
284.0310517448724
 20
689.0080679996486
 30
0.0
 11
347.4675517450946
 21
689.0080679996486
 31
0.0
  0
LINE
  5
61CF
102
{ACAD_REACTORS
330
6398
102
}
330
2
100
AcDbEntity
  8
KIJUN
100
AcDbLine
 10
347.4675517450946
 20
689.0080679996486
 30
0.0
 11
347.4675517450946
 21
683.3601239997029
 31
0.0
  0
LINE
  5
61D0
102
{ACAD_REACTORS
330
6398
102
}
330
2
100
AcDbEntity
  8
KIJUN
100
AcDbLine
 10
347.4675517450946
 20
683.3601239997029
 30
0.0
 11
284.0310517448724
 21
683.3601239997029
 31
0.0
  0
LINE
  5
61D1
102
{ACAD_REACTORS
330
6398
102
}
330
2
100
AcDbEntity
  8
KIJUN
100
AcDbLine
 10
284.0310517448724
 20
683.3601239997029
 30
0.0
 11
284.0310517448724
 21
689.0080679996486
 31
0.0
  0
LINE
  5
61D2
102
{ACAD_REACTORS
330
6398
102
}
330
2
100
AcDbEntity
  8
KIJUN
100
AcDbLine
 10
300.9050337451026
 20
711.2005559996418
 30
0.0
 11
305.9970987448964
 21
711.3222219997063
 31
0.0
  0
LINE
  5
61D3
102
{ACAD_REACTORS
330
6398
102
}
330
2
100
AcDbEntity
  8
KIJUN
100
AcDbLine
 10
305.9970987448964
 20
711.3222219997063
 30
0.0
 11
312.0181687450294
 21
711.2005559996418
 31
0.0
  0
LINE
  5
61D4
102
{ACAD_REACTORS
330
6398
102
}
330
2
100
AcDbEntity
  8
KIJUN
100
AcDbLine
 10
312.0181687450294
 20
711.2005559996418
 30
0.0
 11
317.3166087449412
 21
711.2005559996418
 31
0.0
  0
LINE
  5
61D5
102
{ACAD_REACTORS
330
6398
102
}
330
2
100
AcDbEntity
  8
KIJUN
100
AcDbLine
 10
317.3166087449412
 20
711.2005559996418
 30
0.0
 11
321.7264297450296
 21
711.4167099997017
 31
0.0
  0
LINE
  5
61D6
102
{ACAD_REACTORS
330
6398
102
}
330
2
100
AcDbEntity
  8
KIJUN
100
AcDbLine
 10
321.7264297450296
 20
711.4167099997017
 30
0.0
 11
326.3770427450785
 21
711.5923509996813
 31
0.0
  0
LINE
  5
61D7
102
{ACAD_REACTORS
330
6398
102
}
330
2
100
AcDbEntity
  8
KIJUN
100
AcDbLine
 10
326.3770427450785
 20
711.5923509996813
 30
0.0
 11
330.7866097450805
 21
711.5655539996175
 31
0.0
  0
LINE
  5
61D8
102
{ACAD_REACTORS
330
6398
102
}
330
2
100
AcDbEntity
  8
KIJUN
100
AcDbLine
 10
330.7866097450805
 20
711.5655539996175
 30
0.0
 11
327.3173507450765
 21
707.721898999693
 31
0.0
  0
LINE
  5
61D9
102
{ACAD_REACTORS
330
6398
102
}
330
2
100
AcDbEntity
  8
KIJUN
100
AcDbLine
 10
327.3173507450765
 20
707.721898999693
 30
0.0
 11
326.0156007449177
 21
701.244009999684
 31
0.0
  0
LINE
  5
61DA
102
{ACAD_REACTORS
330
6398
102
}
330
2
100
AcDbEntity
  8
KIJUN
100
AcDbLine
 10
326.0156007449177
 20
701.244009999684
 30
0.0
 11
326.9160307450492
 21
696.4280429996746
 31
0.0
  0
LINE
  5
61DB
102
{ACAD_REACTORS
330
6398
102
}
330
2
100
AcDbEntity
  8
KIJUN
100
AcDbLine
 10
326.9160307450492
 20
696.4280429996746
 30
0.0
 11
332.4591997448724
 21
692.4695799996867
 31
0.0
  0
LINE
  5
61DC
102
{ACAD_REACTORS
330
6398
102
}
330
2
100
AcDbEntity
  8
KIJUN
100
AcDbLine
 10
332.4591997448724
 20
692.4695799996867
 30
0.0
 11
339.9520727449694
 21
690.0513729996333
 31
0.0
  0
LINE
  5
61DD
102
{ACAD_REACTORS
330
6398
102
}
330
2
100
AcDbEntity
  8
KIJUN
100
AcDbLine
 10
339.9520727449694
 20
690.0513729996333
 30
0.0
 11
346.5274977449507
 21
689.1325279996257
 31
0.0
  0
LINE
  5
61DE
102
{ACAD_REACTORS
330
6398
102
}
330
2
100
AcDbEntity
  8
KIJUN
100
AcDbLine
 10
346.5274977449507
 20
689.1325279996257
 30
0.0
 11
338.1439737450477
 21
689.1191929996153
 31
0.0
  0
LINE
  5
61DF
102
{ACAD_REACTORS
330
6398
102
}
330
2
100
AcDbEntity
  8
KIJUN
100
AcDbLine
 10
338.1439737450477
 20
689.1191929996153
 30
0.0
 11
326.1131367449184
 21
688.9031659995985
 31
0.0
  0
LINE
  5
61E0
102
{ACAD_REACTORS
330
6398
102
}
330
2
100
AcDbEntity
  8
KIJUN
100
AcDbLine
 10
326.1131367449184
 20
688.9031659995985
 30
0.0
 11
317.7296127449944
 21
688.7680379997057
 31
0.0
  0
LINE
  5
61E1
102
{ACAD_REACTORS
330
6398
102
}
330
2
100
AcDbEntity
  8
KIJUN
100
AcDbLine
 10
317.7296127449944
 20
688.7680379997057
 30
0.0
 11
308.3098957449678
 21
688.9031659995985
 31
0.0
  0
LINE
  5
61E2
102
{ACAD_REACTORS
330
6398
102
}
330
2
100
AcDbEntity
  8
KIJUN
100
AcDbLine
 10
308.3098957449678
 20
688.9031659995985
 30
0.0
 11
294.4289227450126
 21
689.1191929996153
 31
0.0
  0
LINE
  5
61E3
102
{ACAD_REACTORS
330
6398
102
}
330
2
100
AcDbEntity
  8
KIJUN
100
AcDbLine
 10
294.4289227450126
 20
689.1191929996153
 30
0.0
 11
285.1125837450954
 21
689.1325279996257
 31
0.0
  0
LINE
  5
61E4
102
{ACAD_REACTORS
330
6398
102
}
330
2
100
AcDbEntity
  8
KIJUN
100
AcDbLine
 10
285.1125837450954
 20
689.1325279996257
 30
0.0
 11
290.5161797450264
 21
689.4838099996945
 31
0.0
  0
LINE
  5
61E5
102
{ACAD_REACTORS
330
6398
102
}
330
2
100
AcDbEntity
  8
KIJUN
100
AcDbLine
 10
290.5161797450264
 20
689.4838099996945
 30
0.0
 11
298.8213447449734
 21
691.0915029996855
 31
0.0
  0
LINE
  5
61E6
102
{ACAD_REACTORS
330
6398
102
}
330
2
100
AcDbEntity
  8
KIJUN
100
AcDbLine
 10
298.8213447449734
 20
691.0915029996855
 30
0.0
 11
305.2916137449415
 21
697.5220209997153
 31
0.0
  0
LINE
  5
61E7
102
{ACAD_REACTORS
330
6398
102
}
330
2
100
AcDbEntity
  8
KIJUN
100
AcDbLine
 10
305.2916137449415
 20
697.5220209997153
 30
0.0
 11
305.7485597450854
 21
701.4331129995937
 31
0.0
  0
LINE
  5
61E8
102
{ACAD_REACTORS
330
6398
102
}
330
2
100
AcDbEntity
  8
KIJUN
100
AcDbLine
 10
305.7485597450854
 20
701.4331129995937
 30
0.0
 11
304.9897347450819
 21
707.7758739997101
 31
0.0
  0
LINE
  5
61E9
102
{ACAD_REACTORS
330
6398
102
}
330
2
100
AcDbEntity
  8
KIJUN
100
AcDbLine
 10
304.9897347450819
 20
707.7758739997101
 30
0.0
 11
300.9050337451026
 21
711.2005559996418
 31
0.0
  0
LINE
  5
61EA
102
{ACAD_REACTORS
330
6398
102
}
330
2
100
AcDbEntity
  8
KIJUN
100
AcDbLine
 10
302.3140987450806
 20
729.2670679996537
 30
0.0
 11
328.1735847450163
 21
729.2670679996537
 31
0.0
  0
LINE
  5
61EB
102
{ACAD_REACTORS
330
6398
102
}
330
2
100
AcDbEntity
  8
KIJUN
100
AcDbLine
 10
328.1735847450163
 20
729.2670679996537
 30
0.0
 11
329.1946647451027
 21
728.6084459996077
 31
0.0
  0
LINE
  5
61EC
102
{ACAD_REACTORS
330
6398
102
}
330
2
100
AcDbEntity
  8
KIJUN
100
AcDbLine
 10
329.1946647451027
 20
728.6084459996077
 30
0.0
 11
329.9227557450994
 21
726.88175399964
 31
0.0
  0
LINE
  5
61ED
102
{ACAD_REACTORS
330
6398
102
}
330
2
100
AcDbEntity
  8
KIJUN
100
AcDbLine
 10
329.9227557450994
 20
726.88175399964
 30
0.0
 11
330.2005047448674
 21
724.4606259996239
 31
0.0
  0
LINE
  5
61EE
102
{ACAD_REACTORS
330
6398
102
}
330
2
100
AcDbEntity
  8
KIJUN
100
AcDbLine
 10
330.2005047448674
 20
724.4606259996239
 30
0.0
 11
330.2005047448674
 21
722.8030219996021
 31
0.0
  0
LINE
  5
61EF
102
{ACAD_REACTORS
330
6398
102
}
330
2
100
AcDbEntity
  8
KIJUN
100
AcDbLine
 10
330.2005047448674
 20
722.8030219996021
 30
0.0
 11
329.9227557450994
 21
720.3815129996971
 31
0.0
  0
LINE
  5
61F0
102
{ACAD_REACTORS
330
6398
102
}
330
2
100
AcDbEntity
  8
KIJUN
100
AcDbLine
 10
329.9227557450994
 20
720.3815129996971
 30
0.0
 11
329.1946647451027
 21
718.6546939996794
 31
0.0
  0
LINE
  5
61F1
102
{ACAD_REACTORS
330
6398
102
}
330
2
100
AcDbEntity
  8
KIJUN
100
AcDbLine
 10
329.1946647451027
 20
718.6546939996794
 30
0.0
 11
328.1735847450163
 21
717.9960719996329
 31
0.0
  0
LINE
  5
61F2
102
{ACAD_REACTORS
330
6398
102
}
330
2
100
AcDbEntity
  8
KIJUN
100
AcDbLine
 10
328.1735847450163
 20
717.9960719996329
 30
0.0
 11
302.3140987450806
 21
717.9960719996329
 31
0.0
  0
LINE
  5
61F3
102
{ACAD_REACTORS
330
6398
102
}
330
2
100
AcDbEntity
  8
KIJUN
100
AcDbLine
 10
302.3140987450806
 20
717.9960719996329
 30
0.0
 11
301.2930187450024
 21
718.6546939996794
 31
0.0
  0
LINE
  5
61F4
102
{ACAD_REACTORS
330
6398
102
}
330
2
100
AcDbEntity
  8
KIJUN
100
AcDbLine
 10
301.2930187450024
 20
718.6546939996794
 30
0.0
 11
300.5648007449544
 21
720.3815129996971
 31
0.0
  0
LINE
  5
61F5
102
{ACAD_REACTORS
330
6398
102
}
330
2
100
AcDbEntity
  8
KIJUN
100
AcDbLine
 10
300.5648007449544
 20
720.3815129996971
 30
0.0
 11
300.2870517449537
 21
722.8030219996021
 31
0.0
  0
LINE
  5
61F6
102
{ACAD_REACTORS
330
6398
102
}
330
2
100
AcDbEntity
  8
KIJUN
100
AcDbLine
 10
300.2870517449537
 20
722.8030219996021
 30
0.0
 11
300.2870517449537
 21
724.4606259996239
 31
0.0
  0
LINE
  5
61F7
102
{ACAD_REACTORS
330
6398
102
}
330
2
100
AcDbEntity
  8
KIJUN
100
AcDbLine
 10
300.2870517449537
 20
724.4606259996239
 30
0.0
 11
300.5648007449544
 21
726.88175399964
 31
0.0
  0
LINE
  5
61F8
102
{ACAD_REACTORS
330
6398
102
}
330
2
100
AcDbEntity
  8
KIJUN
100
AcDbLine
 10
300.5648007449544
 20
726.88175399964
 30
0.0
 11
301.2930187450024
 21
728.6084459996077
 31
0.0
  0
LINE
  5
61F9
102
{ACAD_REACTORS
330
6398
102
}
330
2
100
AcDbEntity
  8
KIJUN
100
AcDbLine
 10
301.2930187450024
 20
728.6084459996077
 30
0.0
 11
302.3140987450806
 21
729.2670679996537
 31
0.0
  0
LINE
  5
61FA
102
{ACAD_REACTORS
330
6398
102
}
330
2
100
AcDbEntity
  8
KIJUN
100
AcDbLine
 10
302.5075197449464
 20
729.3940679996835
 30
0.0
 11
328.9225037449059
 21
729.3940679996835
 31
0.0
  0
LINE
  5
61FB
102
{ACAD_REACTORS
330
6398
102
}
330
2
100
AcDbEntity
  8
KIJUN
100
AcDbLine
 10
328.9225037449059
 20
729.3940679996835
 30
0.0
 11
331.3842717450447
 21
728.6506099996792
 31
0.0
  0
LINE
  5
61FC
102
{ACAD_REACTORS
330
6398
102
}
330
2
100
AcDbEntity
  8
KIJUN
100
AcDbLine
 10
331.3842717450447
 20
728.6506099996792
 30
0.0
 11
333.1399197449996
 21
726.7012869996493
 31
0.0
  0
LINE
  5
61FD
102
{ACAD_REACTORS
330
6398
102
}
330
2
100
AcDbEntity
  8
KIJUN
100
AcDbLine
 10
333.1399197449996
 20
726.7012869996493
 30
0.0
 11
333.8095907450829
 21
723.9681199996868
 31
0.0
  0
LINE
  5
61FE
102
{ACAD_REACTORS
330
6398
102
}
330
2
100
AcDbEntity
  8
KIJUN
100
AcDbLine
 10
333.8095907450829
 20
723.9681199996868
 30
0.0
 11
333.1399197449996
 21
721.2348259996891
 31
0.0
  0
LINE
  5
61FF
102
{ACAD_REACTORS
330
6398
102
}
330
2
100
AcDbEntity
  8
KIJUN
100
AcDbLine
 10
333.1399197449996
 20
721.2348259996891
 30
0.0
 11
331.3842717450447
 21
719.2856299997023
 31
0.0
  0
LINE
  5
6200
102
{ACAD_REACTORS
330
6398
102
}
330
2
100
AcDbEntity
  8
KIJUN
100
AcDbLine
 10
331.3842717450447
 20
719.2856299997023
 30
0.0
 11
328.9225037449059
 21
718.542044999662
 31
0.0
  0
LINE
  5
6201
102
{ACAD_REACTORS
330
6398
102
}
330
2
100
AcDbEntity
  8
KIJUN
100
AcDbLine
 10
328.9225037449059
 20
718.542044999662
 30
0.0
 11
302.5075197449464
 21
718.542044999662
 31
0.0
  0
LINE
  5
6202
102
{ACAD_REACTORS
330
6398
102
}
330
2
100
AcDbEntity
  8
KIJUN
100
AcDbLine
 10
302.5075197449464
 20
718.542044999662
 30
0.0
 11
300.0454977449608
 21
719.2856299997023
 31
0.0
  0
LINE
  5
6203
102
{ACAD_REACTORS
330
6398
102
}
330
2
100
AcDbEntity
  8
KIJUN
100
AcDbLine
 10
300.0454977449608
 20
719.2856299997023
 30
0.0
 11
298.2897227449566
 21
721.2348259996891
 31
0.0
  0
LINE
  5
6204
102
{ACAD_REACTORS
330
6398
102
}
330
2
100
AcDbEntity
  8
KIJUN
100
AcDbLine
 10
298.2897227449566
 20
721.2348259996891
 30
0.0
 11
297.6200517448655
 21
723.9681199996868
 31
0.0
  0
LINE
  5
6205
102
{ACAD_REACTORS
330
6398
102
}
330
2
100
AcDbEntity
  8
KIJUN
100
AcDbLine
 10
297.6200517448655
 20
723.9681199996868
 30
0.0
 11
298.2897227449566
 21
726.7012869996493
 31
0.0
  0
LINE
  5
6206
102
{ACAD_REACTORS
330
6398
102
}
330
2
100
AcDbEntity
  8
KIJUN
100
AcDbLine
 10
298.2897227449566
 20
726.7012869996493
 30
0.0
 11
300.0454977449608
 21
728.6506099996792
 31
0.0
  0
LINE
  5
6207
102
{ACAD_REACTORS
330
6398
102
}
330
2
100
AcDbEntity
  8
KIJUN
100
AcDbLine
 10
300.0454977449608
 20
728.6506099996792
 30
0.0
 11
302.5075197449464
 21
729.3940679996835
 31
0.0
  0
LINE
  5
6208
102
{ACAD_REACTORS
330
6398
102
}
330
2
100
AcDbEntity
  8
KIJUN
100
AcDbLine
 10
300.6876097449553
 20
718.2830919996654
 30
0.0
 11
305.5459947448894
 21
718.2830919996654
 31
0.0
  0
LINE
  5
6209
102
{ACAD_REACTORS
330
6398
102
}
330
2
100
AcDbEntity
  8
KIJUN
100
AcDbLine
 10
305.5459947448894
 20
718.2830919996654
 30
0.0
 11
310.4483217449146
 21
718.2830919996654
 31
0.0
  0
LINE
  5
620A
102
{ACAD_REACTORS
330
6398
102
}
330
2
100
AcDbEntity
  8
KIJUN
100
AcDbLine
 10
310.4483217449146
 20
718.2830919996654
 30
0.0
 11
315.3920507450957
 21
718.2830919996654
 31
0.0
  0
LINE
  5
620B
102
{ACAD_REACTORS
330
6398
102
}
330
2
100
AcDbEntity
  8
KIJUN
100
AcDbLine
 10
315.3920507450957
 20
718.2830919996654
 30
0.0
 11
320.1719497450235
 21
718.2830919996654
 31
0.0
  0
LINE
  5
620C
102
{ACAD_REACTORS
330
6398
102
}
330
2
100
AcDbEntity
  8
KIJUN
100
AcDbLine
 10
320.1719497450235
 20
718.2830919996654
 30
0.0
 11
325.0133167449735
 21
718.2830919996654
 31
0.0
  0
LINE
  5
620D
102
{ACAD_REACTORS
330
6398
102
}
330
2
100
AcDbEntity
  8
KIJUN
100
AcDbLine
 10
325.0133167449735
 20
718.2830919996654
 30
0.0
 11
329.9216127449385
 21
718.2830919996654
 31
0.0
  0
LINE
  5
620E
102
{ACAD_REACTORS
330
6398
102
}
330
2
100
AcDbEntity
  8
KIJUN
100
AcDbLine
 10
329.9216127449385
 20
718.2830919996654
 30
0.0
 11
331.1475437450635
 21
717.1177399996038
 31
0.0
  0
LINE
  5
620F
102
{ACAD_REACTORS
330
6398
102
}
330
2
100
AcDbEntity
  8
KIJUN
100
AcDbLine
 10
331.1475437450635
 20
717.1177399996038
 30
0.0
 11
332.2829237450264
 21
715.982994999622
 31
0.0
  0
LINE
  5
6210
102
{ACAD_REACTORS
330
6398
102
}
330
2
100
AcDbEntity
  8
KIJUN
100
AcDbLine
 10
332.2829237450264
 20
715.982994999622
 30
0.0
 11
332.9985687449725
 21
714.6300639997011
 31
0.0
  0
LINE
  5
6211
102
{ACAD_REACTORS
330
6398
102
}
330
2
100
AcDbEntity
  8
KIJUN
100
AcDbLine
 10
332.9985687449725
 20
714.6300639997011
 30
0.0
 11
332.9280837448955
 21
713.4517579996487
 31
0.0
  0
LINE
  5
6212
102
{ACAD_REACTORS
330
6398
102
}
330
2
100
AcDbEntity
  8
KIJUN
100
AcDbLine
 10
332.9280837448955
 20
713.4517579996487
 30
0.0
 11
332.4002717450194
 21
712.2735789996316
 31
0.0
  0
LINE
  5
6213
102
{ACAD_REACTORS
330
6398
102
}
330
2
100
AcDbEntity
  8
KIJUN
100
AcDbLine
 10
332.4002717450194
 20
712.2735789996316
 30
0.0
 11
331.8445197449168
 21
711.0965429996597
 31
0.0
  0
LINE
  5
6214
102
{ACAD_REACTORS
330
6398
102
}
330
2
100
AcDbEntity
  8
KIJUN
100
AcDbLine
 10
331.8445197449168
 20
711.0965429996597
 30
0.0
 11
326.3483407450676
 21
711.0965429996597
 31
0.0
  0
LINE
  5
6215
102
{ACAD_REACTORS
330
6398
102
}
330
2
100
AcDbEntity
  8
KIJUN
100
AcDbLine
 10
326.3483407450676
 20
711.0965429996597
 30
0.0
 11
320.8988977450994
 21
711.0965429996597
 31
0.0
  0
LINE
  5
6216
102
{ACAD_REACTORS
330
6398
102
}
330
2
100
AcDbEntity
  8
KIJUN
100
AcDbLine
 10
320.8988977450994
 20
711.0965429996597
 30
0.0
 11
315.4890787449025
 21
711.0965429996597
 31
0.0
  0
LINE
  5
6217
102
{ACAD_REACTORS
330
6398
102
}
330
2
100
AcDbEntity
  8
KIJUN
100
AcDbLine
 10
315.4890787449025
 20
711.0965429996597
 30
0.0
 11
310.0840857449647
 21
711.0965429996597
 31
0.0
  0
LINE
  5
6218
102
{ACAD_REACTORS
330
6398
102
}
330
2
100
AcDbEntity
  8
KIJUN
100
AcDbLine
 10
310.0840857449647
 20
711.0965429996597
 30
0.0
 11
304.7050007450148
 21
711.0965429996597
 31
0.0
  0
LINE
  5
6219
102
{ACAD_REACTORS
330
6398
102
}
330
2
100
AcDbEntity
  8
KIJUN
100
AcDbLine
 10
304.7050007450148
 20
711.0965429996597
 30
0.0
 11
299.3410287448696
 21
711.0965429996597
 31
0.0
  0
LINE
  5
621A
102
{ACAD_REACTORS
330
6398
102
}
330
2
100
AcDbEntity
  8
KIJUN
100
AcDbLine
 10
299.3410287448696
 20
711.0965429996597
 30
0.0
 11
298.9722207450018
 21
712.2753569996516
 31
0.0
  0
LINE
  5
621B
102
{ACAD_REACTORS
330
6398
102
}
330
2
100
AcDbEntity
  8
KIJUN
100
AcDbLine
 10
298.9722207450018
 20
712.2753569996516
 30
0.0
 11
298.8393787450686
 21
713.4553139996958
 31
0.0
  0
LINE
  5
621C
102
{ACAD_REACTORS
330
6398
102
}
330
2
100
AcDbEntity
  8
KIJUN
100
AcDbLine
 10
298.8393787450686
 20
713.4553139996958
 30
0.0
 11
298.9565997450258
 21
714.6300639997011
 31
0.0
  0
LINE
  5
621D
102
{ACAD_REACTORS
330
6398
102
}
330
2
100
AcDbEntity
  8
KIJUN
100
AcDbLine
 10
298.9565997450258
 20
714.6300639997011
 30
0.0
 11
299.3273127450797
 21
715.825260999702
 31
0.0
  0
LINE
  5
621E
102
{ACAD_REACTORS
330
6398
102
}
330
2
100
AcDbEntity
  8
KIJUN
100
AcDbLine
 10
299.3273127450797
 20
715.825260999702
 30
0.0
 11
299.9154497450563
 21
717.0388729997015
 31
0.0
  0
LINE
  5
621F
102
{ACAD_REACTORS
330
6398
102
}
330
2
100
AcDbEntity
  8
KIJUN
100
AcDbLine
 10
299.9154497450563
 20
717.0388729997015
 30
0.0
 11
300.6876097449553
 21
718.2830919996654
 31
0.0
  0
LINE
  5
6220
102
{ACAD_REACTORS
330
6398
102
}
330
2
100
AcDbEntity
  8
KIJUN
100
AcDbLine
 10
303.7185917449005
 20
893.0415689996893
 30
0.0
 11
299.5120977450337
 21
803.5215549996882
 31
0.0
  0
LINE
  5
6221
102
{ACAD_REACTORS
330
6398
102
}
330
2
100
AcDbEntity
  8
KIJUN
100
AcDbLine
 10
308.1610517449425
 20
961.8040679996649
 30
0.0
 11
309.0415427450125
 21
903.3740349996174
 31
0.0
  0
LINE
  5
6222
102
{ACAD_REACTORS
330
6398
102
}
330
2
100
AcDbEntity
  8
KIJUN
100
AcDbLine
 10
309.0415427450125
 20
903.3740349996174
 30
0.0
 11
308.6500017450657
 21
847.9615219996862
 31
0.0
  0
LINE
  5
6223
102
{ACAD_REACTORS
330
6398
102
}
330
2
100
AcDbEntity
  8
KIJUN
100
AcDbLine
 10
308.6500017450657
 20
847.9615219996862
 30
0.0
 11
308.1610517449425
 21
783.6795829997154
 31
0.0
  0
LINE
  5
6224
102
{ACAD_REACTORS
330
6398
102
}
330
2
100
AcDbEntity
  8
KIJUN
100
AcDbLine
 10
325.1765117450111
 20
893.0415689996893
 30
0.0
 11
329.3830057448717
 21
803.5215549996882
 31
0.0
  0
LINE
  5
6225
102
{ACAD_REACTORS
330
6398
102
}
330
2
100
AcDbEntity
  8
KIJUN
100
AcDbLine
 10
320.8610517449837
 20
961.8040679996649
 30
0.0
 11
319.9805607449147
 21
903.3740349996174
 31
0.0
  0
LINE
  5
6226
102
{ACAD_REACTORS
330
6398
102
}
330
2
100
AcDbEntity
  8
KIJUN
100
AcDbLine
 10
319.9805607449147
 20
903.3740349996174
 30
0.0
 11
320.3721017450939
 21
847.9615219996862
 31
0.0
  0
LINE
  5
6227
102
{ACAD_REACTORS
330
6398
102
}
330
2
100
AcDbEntity
  8
KIJUN
100
AcDbLine
 10
320.3721017450939
 20
847.9615219996862
 30
0.0
 11
320.8610517449837
 21
783.6795829997154
 31
0.0
  0
LINE
  5
6228
102
{ACAD_REACTORS
330
6398
102
}
330
2
100
AcDbEntity
  8
KIJUN
100
AcDbLine
 10
314.2570517450285
 20
962.4390679996881
 30
0.0
 11
314.9345967450044
 21
963.6276609996441
 31
0.0
  0
LINE
  5
6229
102
{ACAD_REACTORS
330
6398
102
}
330
2
100
AcDbEntity
  8
KIJUN
100
AcDbLine
 10
314.9345967450044
 20
963.6276609996441
 30
0.0
 11
315.7316487450216
 21
964.6945879996508
 31
0.0
  0
LINE
  5
622A
102
{ACAD_REACTORS
330
6398
102
}
330
2
100
AcDbEntity
  8
KIJUN
100
AcDbLine
 10
315.7316487450216
 20
964.6945879996508
 30
0.0
 11
316.7025637449755
 21
965.4565879996901
 31
0.0
  0
LINE
  5
622B
102
{ACAD_REACTORS
330
6398
102
}
330
2
100
AcDbEntity
  8
KIJUN
100
AcDbLine
 10
316.7025637449755
 20
965.4565879996901
 30
0.0
 11
317.3801087449528
 21
965.822220999647
 31
0.0
  0
LINE
  5
622C
102
{ACAD_REACTORS
330
6398
102
}
330
2
100
AcDbEntity
  8
KIJUN
100
AcDbLine
 10
317.3801087449528
 20
965.822220999647
 30
0.0
 11
318.0792437450854
 21
965.822220999647
 31
0.0
  0
LINE
  5
622D
102
{ACAD_REACTORS
330
6398
102
}
330
2
100
AcDbEntity
  8
KIJUN
100
AcDbLine
 10
318.0792437450854
 20
965.822220999647
 30
0.0
 11
318.8545787449025
 21
965.4565879996901
 31
0.0
  0
LINE
  5
622E
102
{ACAD_REACTORS
330
6398
102
}
330
2
100
AcDbEntity
  8
KIJUN
100
AcDbLine
 10
318.8545787449025
 20
965.4565879996901
 30
0.0
 11
319.5340287450658
 21
964.5725409996829
 31
0.0
  0
LINE
  5
622F
102
{ACAD_REACTORS
330
6398
102
}
330
2
100
AcDbEntity
  8
KIJUN
100
AcDbLine
 10
319.5340287450658
 20
964.5725409996829
 30
0.0
 11
320.1805857449426
 21
963.6276609996441
 31
0.0
  0
LINE
  5
6230
102
{ACAD_REACTORS
330
6398
102
}
330
2
100
AcDbEntity
  8
KIJUN
100
AcDbLine
 10
320.1805857449426
 20
963.6276609996441
 30
0.0
 11
320.7619917449465
 21
962.4390679996881
 31
0.0
  0
LINE
  5
6231
102
{ACAD_REACTORS
330
6398
102
}
330
2
100
AcDbEntity
  8
KIJUN
100
AcDbLine
 10
320.7619917449465
 20
962.4390679996881
 30
0.0
 11
321.2857397450698
 21
963.4314459996328
 31
0.0
  0
LINE
  5
6232
102
{ACAD_REACTORS
330
6398
102
}
330
2
100
AcDbEntity
  8
KIJUN
100
AcDbLine
 10
321.2857397450698
 20
963.4314459996328
 30
0.0
 11
321.9832237448708
 21
964.3424169996231
 31
0.0
  0
LINE
  5
6233
102
{ACAD_REACTORS
330
6398
102
}
330
2
100
AcDbEntity
  8
KIJUN
100
AcDbLine
 10
321.9832237448708
 20
964.3424169996231
 30
0.0
 11
322.8654927450829
 21
965.0910819996662
 31
0.0
  0
LINE
  5
6234
102
{ACAD_REACTORS
330
6398
102
}
330
2
100
AcDbEntity
  8
KIJUN
100
AcDbLine
 10
322.8654927450829
 20
965.0910819996662
 30
0.0
 11
323.5357987449224
 21
965.009674999704
 31
0.0
  0
LINE
  5
6235
102
{ACAD_REACTORS
330
6398
102
}
330
2
100
AcDbEntity
  8
KIJUN
100
AcDbLine
 10
323.5357987449224
 20
965.009674999704
 30
0.0
 11
324.1191097448818
 21
965.0504419996449
 31
0.0
  0
LINE
  5
6236
102
{ACAD_REACTORS
330
6398
102
}
330
2
100
AcDbEntity
  8
KIJUN
100
AcDbLine
 10
324.1191097448818
 20
965.0504419996449
 30
0.0
 11
324.8220547449077
 21
965.0910819996662
 31
0.0
  0
LINE
  5
6237
102
{ACAD_REACTORS
330
6398
102
}
330
2
100
AcDbEntity
  8
KIJUN
100
AcDbLine
 10
324.8220547449077
 20
965.0910819996662
 30
0.0
 11
325.7204527450367
 21
964.525296999623
 31
0.0
  0
LINE
  5
6238
102
{ACAD_REACTORS
330
6398
102
}
330
2
100
AcDbEntity
  8
KIJUN
100
AcDbLine
 10
325.7204527450367
 20
964.525296999623
 30
0.0
 11
326.4669587450325
 21
963.7361189996308
 31
0.0
  0
LINE
  5
6239
102
{ACAD_REACTORS
330
6398
102
}
330
2
100
AcDbEntity
  8
KIJUN
100
AcDbLine
 10
326.4669587450325
 20
963.7361189996308
 30
0.0
 11
327.0721137449859
 21
962.4390679996881
 31
0.0
  0
LINE
  5
623A
102
{ACAD_REACTORS
330
6398
102
}
330
2
100
AcDbEntity
  8
KIJUN
100
AcDbLine
 10
327.0721137449859
 20
962.4390679996881
 30
0.0
 11
328.8816097449216
 21
964.816507999685
 31
0.0
  0
LINE
  5
623B
102
{ACAD_REACTORS
330
6398
102
}
330
2
100
AcDbEntity
  8
KIJUN
100
AcDbLine
 10
328.8816097449216
 20
964.816507999685
 30
0.0
 11
329.8616687449748
 21
965.053616999679
 31
0.0
  0
LINE
  5
623C
102
{ACAD_REACTORS
330
6398
102
}
330
2
100
AcDbEntity
  8
KIJUN
100
AcDbLine
 10
329.8616687449748
 20
965.053616999679
 30
0.0
 11
330.6894547449974
 21
965.0670789996159
 31
0.0
  0
LINE
  5
623D
102
{ACAD_REACTORS
330
6398
102
}
330
2
100
AcDbEntity
  8
KIJUN
100
AcDbLine
 10
330.6894547449974
 20
965.0670789996159
 30
0.0
 11
331.5715967449345
 21
964.6336279996839
 31
0.0
  0
LINE
  5
623E
102
{ACAD_REACTORS
330
6398
102
}
330
2
100
AcDbEntity
  8
KIJUN
100
AcDbLine
 10
331.5715967449345
 20
964.6336279996839
 30
0.0
 11
333.1855127449585
 21
962.4390679996881
 31
0.0
  0
LINE
  5
623F
102
{ACAD_REACTORS
330
6398
102
}
330
2
100
AcDbEntity
  8
KIJUN
100
AcDbLine
 10
333.1855127449585
 20
962.4390679996881
 30
0.0
 11
334.8485777449886
 21
964.7250679996879
 31
0.0
  0
LINE
  5
6240
102
{ACAD_REACTORS
330
6398
102
}
330
2
100
AcDbEntity
  8
KIJUN
100
AcDbLine
 10
334.8485777449886
 20
964.7250679996879
 30
0.0
 11
337.6855037450795
 21
965.82260199966
 31
0.0
  0
LINE
  5
6241
102
{ACAD_REACTORS
330
6398
102
}
330
2
100
AcDbEntity
  8
KIJUN
100
AcDbLine
 10
337.6855037450795
 20
965.82260199966
 30
0.0
 11
313.6210357450163
 21
965.273580999646
 31
0.0
  0
LINE
  5
6242
102
{ACAD_REACTORS
330
6398
102
}
330
2
100
AcDbEntity
  8
KIJUN
100
AcDbLine
 10
313.6210357450163
 20
965.273580999646
 30
0.0
 11
314.2570517450285
 21
962.4390679996881
 31
0.0
  0
LINE
  5
6243
102
{ACAD_REACTORS
330
6398
102
}
330
2
100
AcDbEntity
  8
KIJUN
100
AcDbLine
 10
314.6380517448769
 20
962.9470679996749
 30
0.0
 11
315.3155967450866
 21
964.040791999623
 31
0.0
  0
LINE
  5
6244
102
{ACAD_REACTORS
330
6398
102
}
330
2
100
AcDbEntity
  8
KIJUN
100
AcDbLine
 10
315.3155967450866
 20
964.040791999623
 30
0.0
 11
316.1126487450883
 21
964.931569999595
 31
0.0
  0
LINE
  5
6245
102
{ACAD_REACTORS
330
6398
102
}
330
2
100
AcDbEntity
  8
KIJUN
100
AcDbLine
 10
316.1126487450883
 20
964.931569999595
 30
0.0
 11
317.0835637450563
 21
965.599081999645
 31
0.0
  0
LINE
  5
6246
102
{ACAD_REACTORS
330
6398
102
}
330
2
100
AcDbEntity
  8
KIJUN
100
AcDbLine
 10
317.0835637450563
 20
965.599081999645
 30
0.0
 11
317.7231357448827
 21
965.9647149996031
 31
0.0
  0
LINE
  5
6247
102
{ACAD_REACTORS
330
6398
102
}
330
2
100
AcDbEntity
  8
KIJUN
100
AcDbLine
 10
317.7231357448827
 20
965.9647149996031
 30
0.0
 11
318.3517857449396
 21
965.9647149996031
 31
0.0
  0
LINE
  5
6248
102
{ACAD_REACTORS
330
6398
102
}
330
2
100
AcDbEntity
  8
KIJUN
100
AcDbLine
 10
318.3517857449396
 20
965.9647149996031
 30
0.0
 11
319.0890207450338
 21
965.599081999645
 31
0.0
  0
LINE
  5
6249
102
{ACAD_REACTORS
330
6398
102
}
330
2
100
AcDbEntity
  8
KIJUN
100
AcDbLine
 10
319.0890207450338
 20
965.599081999645
 30
0.0
 11
319.8061897450224
 21
964.809903999647
 31
0.0
  0
LINE
  5
624A
102
{ACAD_REACTORS
330
6398
102
}
330
2
100
AcDbEntity
  8
KIJUN
100
AcDbLine
 10
319.8061897450224
 20
964.809903999647
 30
0.0
 11
320.5234857450613
 21
964.040918999658
 31
0.0
  0
LINE
  5
624B
102
{ACAD_REACTORS
330
6398
102
}
330
2
100
AcDbEntity
  8
KIJUN
100
AcDbLine
 10
320.5234857450613
 20
964.040918999658
 30
0.0
 11
321.1429917450286
 21
962.9470679996749
 31
0.0
  0
LINE
  5
624C
102
{ACAD_REACTORS
330
6398
102
}
330
2
100
AcDbEntity
  8
KIJUN
100
AcDbLine
 10
321.1429917450286
 20
962.9470679996749
 30
0.0
 11
321.6667397449264
 21
963.9394459996198
 31
0.0
  0
LINE
  5
624D
102
{ACAD_REACTORS
330
6398
102
}
330
2
100
AcDbEntity
  8
KIJUN
100
AcDbLine
 10
321.6667397449264
 20
963.9394459996198
 30
0.0
 11
322.3642237449516
 21
964.850416999617
 31
0.0
  0
LINE
  5
624E
102
{ACAD_REACTORS
330
6398
102
}
330
2
100
AcDbEntity
  8
KIJUN
100
AcDbLine
 10
322.3642237449516
 20
964.850416999617
 30
0.0
 11
323.2464927449236
 21
965.599081999645
 31
0.0
  0
LINE
  5
624F
102
{ACAD_REACTORS
330
6398
102
}
330
2
100
AcDbEntity
  8
KIJUN
100
AcDbLine
 10
323.2464927449236
 20
965.599081999645
 30
0.0
 11
323.9167987449968
 21
965.5176749996909
 31
0.0
  0
LINE
  5
6250
102
{ACAD_REACTORS
330
6398
102
}
330
2
100
AcDbEntity
  8
KIJUN
100
AcDbLine
 10
323.9167987449968
 20
965.5176749996909
 30
0.0
 11
324.5001097449551
 21
965.5584419996321
 31
0.0
  0
LINE
  5
6251
102
{ACAD_REACTORS
330
6398
102
}
330
2
100
AcDbEntity
  8
KIJUN
100
AcDbLine
 10
324.5001097449551
 20
965.5584419996321
 30
0.0
 11
325.2030547449885
 21
965.599081999645
 31
0.0
  0
LINE
  5
6252
102
{ACAD_REACTORS
330
6398
102
}
330
2
100
AcDbEntity
  8
KIJUN
100
AcDbLine
 10
325.2030547449885
 20
965.599081999645
 30
0.0
 11
326.1014527448778
 21
965.0332969996179
 31
0.0
  0
LINE
  5
6253
102
{ACAD_REACTORS
330
6398
102
}
330
2
100
AcDbEntity
  8
KIJUN
100
AcDbLine
 10
326.1014527448778
 20
965.0332969996179
 30
0.0
 11
326.8479587448737
 21
964.2441189996109
 31
0.0
  0
LINE
  5
6254
102
{ACAD_REACTORS
330
6398
102
}
330
2
100
AcDbEntity
  8
KIJUN
100
AcDbLine
 10
326.8479587448737
 20
964.2441189996109
 30
0.0
 11
327.4531137450676
 21
962.9470679996749
 31
0.0
  0
LINE
  5
6255
102
{ACAD_REACTORS
330
6398
102
}
330
2
100
AcDbEntity
  8
KIJUN
100
AcDbLine
 10
327.4531137450676
 20
962.9470679996749
 30
0.0
 11
329.2626097450038
 21
965.324507999672
 31
0.0
  0
LINE
  5
6256
102
{ACAD_REACTORS
330
6398
102
}
330
2
100
AcDbEntity
  8
KIJUN
100
AcDbLine
 10
329.2626097450038
 20
965.324507999672
 30
0.0
 11
330.2426687450483
 21
965.561616999666
 31
0.0
  0
LINE
  5
6257
102
{ACAD_REACTORS
330
6398
102
}
330
2
100
AcDbEntity
  8
KIJUN
100
AcDbLine
 10
330.2426687450483
 20
965.561616999666
 30
0.0
 11
331.0704547450796
 21
965.5750789996108
 31
0.0
  0
LINE
  5
6258
102
{ACAD_REACTORS
330
6398
102
}
330
2
100
AcDbEntity
  8
KIJUN
100
AcDbLine
 10
331.0704547450796
 20
965.5750789996108
 30
0.0
 11
331.9525967450085
 21
965.141627999672
 31
0.0
  0
LINE
  5
6259
102
{ACAD_REACTORS
330
6398
102
}
330
2
100
AcDbEntity
  8
KIJUN
100
AcDbLine
 10
331.9525967450085
 20
965.141627999672
 30
0.0
 11
333.5665127450397
 21
962.9470679996749
 31
0.0
  0
LINE
  5
625A
102
{ACAD_REACTORS
330
6398
102
}
330
2
100
AcDbEntity
  8
KIJUN
100
AcDbLine
 10
333.5665127450397
 20
962.9470679996749
 30
0.0
 11
335.7190357448912
 21
965.8730209996299
 31
0.0
  0
LINE
  5
625B
102
{ACAD_REACTORS
330
6398
102
}
330
2
100
AcDbEntity
  8
KIJUN
100
AcDbLine
 10
335.7190357448912
 20
965.8730209996299
 30
0.0
 11
314.0020357450976
 21
965.7815809996399
 31
0.0
  0
LINE
  5
625C
102
{ACAD_REACTORS
330
6398
102
}
330
2
100
AcDbEntity
  8
KIJUN
100
AcDbLine
 10
314.0020357450976
 20
965.7815809996399
 30
0.0
 11
314.6380517448769
 21
962.9470679996749
 31
0.0
  0
LINE
  5
625E
102
{ACAD_REACTORS
330
6398
102
}
330
2
100
AcDbEntity
  8
KIJUN
100
AcDbLine
 10
296.0960517450203
 20
1001.174067999609
 30
0.0
 11
339.0625647450783
 21
1001.174067999609
 31
0.0
  0
LINE
  5
625F
102
{ACAD_REACTORS
330
6398
102
}
330
2
100
AcDbEntity
  8
KIJUN
100
AcDbLine
 10
339.0625647450783
 20
1001.174067999609
 30
0.0
 11
339.0625647450783
 21
996.1090539995948
 31
0.0
  0
LINE
  5
6260
102
{ACAD_REACTORS
330
6398
102
}
330
2
100
AcDbEntity
  8
KIJUN
100
AcDbLine
 10
339.0625647450783
 20
996.1090539995948
 30
0.0
 11
296.0960517450203
 21
996.1090539995948
 31
0.0
  0
LINE
  5
6261
102
{ACAD_REACTORS
330
6398
102
}
330
2
100
AcDbEntity
  8
KIJUN
100
AcDbLine
 10
296.0960517450203
 20
996.1090539995948
 30
0.0
 11
296.0960517450203
 21
1001.174067999609
 31
0.0
  0
LINE
  5
6262
102
{ACAD_REACTORS
330
6398
102
}
330
2
100
AcDbEntity
  8
KIJUN
100
AcDbLine
 10
292.8550117448967
 20
978.684526999657
 30
0.0
 11
300.2453957449529
 21
978.684526999657
 31
0.0
  0
LINE
  5
6263
102
{ACAD_REACTORS
330
6398
102
}
330
2
100
AcDbEntity
  8
KIJUN
100
AcDbLine
 10
300.2453957449529
 20
978.684526999657
 30
0.0
 11
307.6356527449593
 21
978.684526999657
 31
0.0
  0
LINE
  5
6264
102
{ACAD_REACTORS
330
6398
102
}
330
2
100
AcDbEntity
  8
KIJUN
100
AcDbLine
 10
307.6356527449593
 20
978.684526999657
 30
0.0
 11
315.0260367450087
 21
978.684526999657
 31
0.0
  0
LINE
  5
6265
102
{ACAD_REACTORS
330
6398
102
}
330
2
100
AcDbEntity
  8
KIJUN
100
AcDbLine
 10
315.0260367450087
 20
978.684526999657
 30
0.0
 11
322.3853057449214
 21
978.684526999657
 31
0.0
  0
LINE
  5
6266
102
{ACAD_REACTORS
330
6398
102
}
330
2
100
AcDbEntity
  8
KIJUN
100
AcDbLine
 10
322.3853057449214
 20
978.684526999657
 30
0.0
 11
329.7457177449896
 21
978.684526999657
 31
0.0
  0
LINE
  5
6267
102
{ACAD_REACTORS
330
6398
102
}
330
2
100
AcDbEntity
  8
KIJUN
100
AcDbLine
 10
329.7457177449896
 20
978.684526999657
 30
0.0
 11
337.1080347450106
 21
978.684526999657
 31
0.0
  0
LINE
  5
6268
102
{ACAD_REACTORS
330
6398
102
}
330
2
100
AcDbEntity
  8
KIJUN
100
AcDbLine
 10
337.1080347450106
 20
978.684526999657
 30
0.0
 11
338.8716837449083
 21
976.5321309996011
 31
0.0
  0
LINE
  5
6269
102
{ACAD_REACTORS
330
6398
102
}
330
2
100
AcDbEntity
  8
KIJUN
100
AcDbLine
 10
338.8716837449083
 20
976.5321309996011
 30
0.0
 11
340.3328187449647
 21
974.4013249996951
 31
0.0
  0
LINE
  5
626A
102
{ACAD_REACTORS
330
6398
102
}
330
2
100
AcDbEntity
  8
KIJUN
100
AcDbLine
 10
340.3328187449647
 20
974.4013249996951
 30
0.0
 11
341.4135887449146
 21
972.1745069996341
 31
0.0
  0
LINE
  5
626B
102
{ACAD_REACTORS
330
6398
102
}
330
2
100
AcDbEntity
  8
KIJUN
100
AcDbLine
 10
341.4135887449146
 20
972.1745069996341
 30
0.0
 11
341.9477507450997
 21
970.0539879996229
 31
0.0
  0
LINE
  5
626C
102
{ACAD_REACTORS
330
6398
102
}
330
2
100
AcDbEntity
  8
KIJUN
100
AcDbLine
 10
341.9477507450997
 20
970.0539879996229
 30
0.0
 11
342.0822437448864
 21
967.8486329996681
 31
0.0
  0
LINE
  5
626D
102
{ACAD_REACTORS
330
6398
102
}
330
2
100
AcDbEntity
  8
KIJUN
100
AcDbLine
 10
342.0822437448864
 20
967.8486329996681
 30
0.0
 11
341.9035547449225
 21
965.670074999654
 31
0.0
  0
LINE
  5
626E
102
{ACAD_REACTORS
330
6398
102
}
330
2
100
AcDbEntity
  8
KIJUN
100
AcDbLine
 10
341.9035547449225
 20
965.670074999654
 30
0.0
 11
333.0392087450955
 21
965.670074999654
 31
0.0
  0
LINE
  5
626F
102
{ACAD_REACTORS
330
6398
102
}
330
2
100
AcDbEntity
  8
KIJUN
100
AcDbLine
 10
333.0392087450955
 20
965.670074999654
 30
0.0
 11
324.1892137450467
 21
965.670074999654
 31
0.0
  0
LINE
  5
6270
102
{ACAD_REACTORS
330
6398
102
}
330
2
100
AcDbEntity
  8
KIJUN
100
AcDbLine
 10
324.1892137450467
 20
965.670074999654
 30
0.0
 11
315.3535697450047
 21
965.670074999654
 31
0.0
  0
LINE
  5
6271
102
{ACAD_REACTORS
330
6398
102
}
330
2
100
AcDbEntity
  8
KIJUN
100
AcDbLine
 10
315.3535697450047
 20
965.670074999654
 30
0.0
 11
306.5270697450532
 21
965.670074999654
 31
0.0
  0
LINE
  5
6272
102
{ACAD_REACTORS
330
6398
102
}
330
2
100
AcDbEntity
  8
KIJUN
100
AcDbLine
 10
306.5270697450532
 20
965.670074999654
 30
0.0
 11
297.6995537449898
 21
965.670074999654
 31
0.0
  0
LINE
  5
6273
102
{ACAD_REACTORS
330
6398
102
}
330
2
100
AcDbEntity
  8
KIJUN
100
AcDbLine
 10
297.6995537449898
 20
965.670074999654
 30
0.0
 11
288.8769907449955
 21
965.670074999654
 31
0.0
  0
LINE
  5
6274
102
{ACAD_REACTORS
330
6398
102
}
330
2
100
AcDbEntity
  8
KIJUN
100
AcDbLine
 10
288.8769907449955
 20
965.670074999654
 30
0.0
 11
288.2116377449774
 21
967.850791999708
 31
0.0
  0
LINE
  5
6275
102
{ACAD_REACTORS
330
6398
102
}
330
2
100
AcDbEntity
  8
KIJUN
100
AcDbLine
 10
288.2116377449774
 20
967.850791999708
 30
0.0
 11
287.9747827449596
 21
970.058178999659
 31
0.0
  0
LINE
  5
6276
102
{ACAD_REACTORS
330
6398
102
}
330
2
100
AcDbEntity
  8
KIJUN
100
AcDbLine
 10
287.9747827449596
 20
970.058178999659
 30
0.0
 11
288.2770427449345
 21
972.1745069996341
 31
0.0
  0
LINE
  5
6277
102
{ACAD_REACTORS
330
6398
102
}
330
2
100
AcDbEntity
  8
KIJUN
100
AcDbLine
 10
288.2770427449345
 20
972.1745069996341
 30
0.0
 11
289.2852957450654
 21
974.4178349996298
 31
0.0
  0
LINE
  5
6278
102
{ACAD_REACTORS
330
6398
102
}
330
2
100
AcDbEntity
  8
KIJUN
100
AcDbLine
 10
289.2852957450654
 20
974.4178349996298
 30
0.0
 11
290.8411727450857
 21
976.540385999624
 31
0.0
  0
LINE
  5
6279
102
{ACAD_REACTORS
330
6398
102
}
330
2
100
AcDbEntity
  8
KIJUN
100
AcDbLine
 10
290.8411727450857
 20
976.540385999624
 30
0.0
 11
292.8550117448967
 21
978.684526999657
 31
0.0
  0
LINE
  5
627A
102
{ACAD_REACTORS
330
6398
102
}
330
2
100
AcDbEntity
  8
KIJUN
100
AcDbLine
 10
295.7150517449467
 20
996.094067999614
 30
0.0
 11
302.5053607449135
 21
995.993483999636
 31
0.0
  0
LINE
  5
627B
102
{ACAD_REACTORS
330
6398
102
}
330
2
100
AcDbEntity
  8
KIJUN
100
AcDbLine
 10
302.5053607449135
 20
995.993483999636
 30
0.0
 11
309.2617607449483
 21
995.9563999996701
 31
0.0
  0
LINE
  5
627C
102
{ACAD_REACTORS
330
6398
102
}
330
2
100
AcDbEntity
  8
KIJUN
100
AcDbLine
 10
309.2617607449483
 20
995.9563999996701
 30
0.0
 11
316.0180337449474
 21
995.9510659997039
 31
0.0
  0
LINE
  5
627D
102
{ACAD_REACTORS
330
6398
102
}
330
2
100
AcDbEntity
  8
KIJUN
100
AcDbLine
 10
316.0180337449474
 20
995.9510659997039
 30
0.0
 11
322.8141847450374
 21
995.9193159996951
 31
0.0
  0
LINE
  5
627E
102
{ACAD_REACTORS
330
6398
102
}
330
2
100
AcDbEntity
  8
KIJUN
100
AcDbLine
 10
322.8141847450374
 20
995.9193159996951
 30
0.0
 11
329.6442447450667
 21
995.8875659997008
 31
0.0
  0
LINE
  5
627F
102
{ACAD_REACTORS
330
6398
102
}
330
2
100
AcDbEntity
  8
KIJUN
100
AcDbLine
 10
329.6442447450667
 20
995.8875659997008
 30
0.0
 11
336.4740507449955
 21
995.9510659997039
 31
0.0
  0
LINE
  5
6280
102
{ACAD_REACTORS
330
6398
102
}
330
2
100
AcDbEntity
  8
KIJUN
100
AcDbLine
 10
336.4740507449955
 20
995.9510659997039
 30
0.0
 11
332.7236137449858
 21
995.2145929996488
 31
0.0
  0
LINE
  5
6281
102
{ACAD_REACTORS
330
6398
102
}
330
2
100
AcDbEntity
  8
KIJUN
100
AcDbLine
 10
332.7236137449858
 20
995.2145929996488
 30
0.0
 11
328.0120407450876
 21
992.6342069996621
 31
0.0
  0
LINE
  5
6282
102
{ACAD_REACTORS
330
6398
102
}
330
2
100
AcDbEntity
  8
KIJUN
100
AcDbLine
 10
328.0120407450876
 20
992.6342069996621
 30
0.0
 11
326.8055407450729
 21
988.0830349996628
 31
0.0
  0
LINE
  5
6283
102
{ACAD_REACTORS
330
6398
102
}
330
2
100
AcDbEntity
  8
KIJUN
100
AcDbLine
 10
326.8055407450729
 20
988.0830349996628
 30
0.0
 11
329.9738097450526
 21
984.347710999684
 31
0.0
  0
LINE
  5
6284
102
{ACAD_REACTORS
330
6398
102
}
330
2
100
AcDbEntity
  8
KIJUN
100
AcDbLine
 10
329.9738097450526
 20
984.347710999684
 30
0.0
 11
333.6620167450296
 21
983.568819999696
 31
0.0
  0
LINE
  5
6285
102
{ACAD_REACTORS
330
6398
102
}
330
2
100
AcDbEntity
  8
KIJUN
100
AcDbLine
 10
333.6620167450296
 20
983.568819999696
 30
0.0
 11
336.3210157449416
 21
981.6455319997048
 31
0.0
  0
LINE
  5
6286
102
{ACAD_REACTORS
330
6398
102
}
330
2
100
AcDbEntity
  8
KIJUN
100
AcDbLine
 10
336.3210157449416
 20
981.6455319997048
 30
0.0
 11
329.5308337450178
 21
981.8416199996661
 31
0.0
  0
LINE
  5
6287
102
{ACAD_REACTORS
330
6398
102
}
330
2
100
AcDbEntity
  8
KIJUN
100
AcDbLine
 10
329.5308337450178
 20
981.8416199996661
 30
0.0
 11
322.7745607450188
 21
982.3555889996001
 31
0.0
  0
LINE
  5
6288
102
{ACAD_REACTORS
330
6398
102
}
330
2
100
AcDbEntity
  8
KIJUN
100
AcDbLine
 10
322.7745607450188
 20
982.3555889996001
 30
0.0
 11
316.0180337449474
 21
982.6470539996241
 31
0.0
  0
LINE
  5
6289
102
{ACAD_REACTORS
330
6398
102
}
330
2
100
AcDbEntity
  8
KIJUN
100
AcDbLine
 10
316.0180337449474
 20
982.6470539996241
 30
0.0
 11
309.6971167449437
 21
982.763639999715
 31
0.0
  0
LINE
  5
628A
102
{ACAD_REACTORS
330
6398
102
}
330
2
100
AcDbEntity
  8
KIJUN
100
AcDbLine
 10
309.6971167449437
 20
982.763639999715
 30
0.0
 11
303.7493257449004
 21
983.007225999697
 31
0.0
  0
LINE
  5
628B
102
{ACAD_REACTORS
330
6398
102
}
330
2
100
AcDbEntity
  8
KIJUN
100
AcDbLine
 10
303.7493257449004
 20
983.007225999697
 30
0.0
 11
297.3939917450397
 21
983.2190619996849
 31
0.0
  0
LINE
  5
628C
102
{ACAD_REACTORS
330
6398
102
}
330
2
100
AcDbEntity
  8
KIJUN
100
AcDbLine
 10
297.3939917450397
 20
983.2190619996849
 30
0.0
 11
300.7619047449175
 21
984.1887069996751
 31
0.0
  0
LINE
  5
628D
102
{ACAD_REACTORS
330
6398
102
}
330
2
100
AcDbEntity
  8
KIJUN
100
AcDbLine
 10
300.7619047449175
 20
984.1887069996751
 30
0.0
 11
303.8133337450917
 21
985.8257369996731
 31
0.0
  0
LINE
  5
628E
102
{ACAD_REACTORS
330
6398
102
}
330
2
100
AcDbEntity
  8
KIJUN
100
AcDbLine
 10
303.8133337450917
 20
985.8257369996731
 30
0.0
 11
305.2815807450156
 21
988.7980449996192
 31
0.0
  0
LINE
  5
628F
102
{ACAD_REACTORS
330
6398
102
}
330
2
100
AcDbEntity
  8
KIJUN
100
AcDbLine
 10
305.2815807450156
 20
988.7980449996192
 30
0.0
 11
303.5701287449974
 21
994.3137819996278
 31
0.0
  0
LINE
  5
6290
102
{ACAD_REACTORS
330
6398
102
}
330
2
100
AcDbEntity
  8
KIJUN
100
AcDbLine
 10
303.5701287449974
 20
994.3137819996278
 30
0.0
 11
299.3938607449736
 21
996.3006969996799
 31
0.0
  0
LINE
  5
6291
102
{ACAD_REACTORS
330
6398
102
}
330
2
100
AcDbEntity
  8
KIJUN
100
AcDbLine
 10
299.3938607449736
 20
996.3006969996799
 30
0.0
 11
295.7150517449467
 21
996.094067999614
 31
0.0
  0
LINE
  5
6292
102
{ACAD_REACTORS
330
6398
102
}
330
2
100
AcDbEntity
  8
KIJUN
100
AcDbLine
 10
293.8100517450207
 20
984.029067999692
 30
0.0
 11
336.4845917448756
 21
984.029067999692
 31
0.0
  0
LINE
  5
6293
102
{ACAD_REACTORS
330
6398
102
}
330
2
100
AcDbEntity
  8
KIJUN
100
AcDbLine
 10
336.4845917448756
 20
984.029067999692
 30
0.0
 11
336.4845917448756
 21
978.8375619995949
 31
0.0
  0
LINE
  5
6294
102
{ACAD_REACTORS
330
6398
102
}
330
2
100
AcDbEntity
  8
KIJUN
100
AcDbLine
 10
336.4845917448756
 20
978.8375619995949
 30
0.0
 11
293.8100517450207
 21
978.8375619995949
 31
0.0
  0
LINE
  5
6295
102
{ACAD_REACTORS
330
6398
102
}
330
2
100
AcDbEntity
  8
KIJUN
100
AcDbLine
 10
293.8100517450207
 20
978.8375619995949
 30
0.0
 11
293.8100517450207
 21
984.029067999692
 31
0.0
  0
LINE
  5
6296
102
{ACAD_REACTORS
330
6398
102
}
330
2
100
AcDbEntity
  8
KIJUN
100
AcDbLine
 10
287.3330517450876
 20
965.9950679995979
 30
0.0
 11
337.9074997449265
 21
965.538121999679
 31
0.0
  0
LINE
  5
6297
102
{ACAD_REACTORS
330
6398
102
}
330
2
100
AcDbEntity
  8
KIJUN
100
AcDbLine
 10
314.1300517450054
 20
962.4390679996881
 30
0.0
 11
313.4525067450217
 21
963.7154179996668
 31
0.0
  0
LINE
  5
6298
102
{ACAD_REACTORS
330
6398
102
}
330
2
100
AcDbEntity
  8
KIJUN
100
AcDbLine
 10
313.4525067450217
 20
963.7154179996668
 30
0.0
 11
312.6554547450127
 21
964.7547859996938
 31
0.0
  0
LINE
  5
6299
102
{ACAD_REACTORS
330
6398
102
}
330
2
100
AcDbEntity
  8
KIJUN
100
AcDbLine
 10
312.6554547450127
 20
964.7547859996938
 30
0.0
 11
311.6845397450588
 21
965.5335499996379
 31
0.0
  0
LINE
  5
629A
102
{ACAD_REACTORS
330
6398
102
}
330
2
100
AcDbEntity
  8
KIJUN
100
AcDbLine
 10
311.6845397450588
 20
965.5335499996379
 30
0.0
 11
311.0449677449996
 21
965.9602699996039
 31
0.0
  0
LINE
  5
629B
102
{ACAD_REACTORS
330
6398
102
}
330
2
100
AcDbEntity
  8
KIJUN
100
AcDbLine
 10
311.0449677449996
 20
965.9602699996039
 30
0.0
 11
310.4163177449363
 21
965.9602699996039
 31
0.0
  0
LINE
  5
629C
102
{ACAD_REACTORS
330
6398
102
}
330
2
100
AcDbEntity
  8
KIJUN
100
AcDbLine
 10
310.4163177449363
 20
965.9602699996039
 30
0.0
 11
309.6790827450804
 21
965.5335499996379
 31
0.0
  0
LINE
  5
629D
102
{ACAD_REACTORS
330
6398
102
}
330
2
100
AcDbEntity
  8
KIJUN
100
AcDbLine
 10
309.6790827450804
 20
965.5335499996379
 30
0.0
 11
308.9619137450845
 21
964.6126729996339
 31
0.0
  0
LINE
  5
629E
102
{ACAD_REACTORS
330
6398
102
}
330
2
100
AcDbEntity
  8
KIJUN
100
AcDbLine
 10
308.9619137450845
 20
964.6126729996339
 30
0.0
 11
308.2446177450465
 21
963.7155449997099
 31
0.0
  0
LINE
  5
629F
102
{ACAD_REACTORS
330
6398
102
}
330
2
100
AcDbEntity
  8
KIJUN
100
AcDbLine
 10
308.2446177450465
 20
963.7155449997099
 30
0.0
 11
307.6251117450797
 21
962.4390679996881
 31
0.0
  0
LINE
  5
62A0
102
{ACAD_REACTORS
330
6398
102
}
330
2
100
AcDbEntity
  8
KIJUN
100
AcDbLine
 10
307.6251117450797
 20
962.4390679996881
 30
0.0
 11
307.1013637449568
 21
963.597180999606
 31
0.0
  0
LINE
  5
62A1
102
{ACAD_REACTORS
330
6398
102
}
330
2
100
AcDbEntity
  8
KIJUN
100
AcDbLine
 10
307.1013637449568
 20
963.597180999606
 30
0.0
 11
306.4038797449307
 21
964.660170999663
 31
0.0
  0
LINE
  5
62A2
102
{ACAD_REACTORS
330
6398
102
}
330
2
100
AcDbEntity
  8
KIJUN
100
AcDbLine
 10
306.4038797449307
 20
964.660170999663
 30
0.0
 11
305.5216107449518
 21
965.5335499996379
 31
0.0
  0
LINE
  5
62A3
102
{ACAD_REACTORS
330
6398
102
}
330
2
100
AcDbEntity
  8
KIJUN
100
AcDbLine
 10
305.5216107449518
 20
965.5335499996379
 30
0.0
 11
304.8513047448786
 21
965.4386809996299
 31
0.0
  0
LINE
  5
62A4
102
{ACAD_REACTORS
330
6398
102
}
330
2
100
AcDbEntity
  8
KIJUN
100
AcDbLine
 10
304.8513047448786
 20
965.4386809996299
 30
0.0
 11
304.2679937449193
 21
965.4861789996521
 31
0.0
  0
LINE
  5
62A5
102
{ACAD_REACTORS
330
6398
102
}
330
2
100
AcDbEntity
  8
KIJUN
100
AcDbLine
 10
304.2679937449193
 20
965.4861789996521
 30
0.0
 11
303.5650487448933
 21
965.5335499996379
 31
0.0
  0
LINE
  5
62A6
102
{ACAD_REACTORS
330
6398
102
}
330
2
100
AcDbEntity
  8
KIJUN
100
AcDbLine
 10
303.5650487448933
 20
965.5335499996379
 30
0.0
 11
302.6666507449904
 21
964.8734039996499
 31
0.0
  0
LINE
  5
62A7
102
{ACAD_REACTORS
330
6398
102
}
330
2
100
AcDbEntity
  8
KIJUN
100
AcDbLine
 10
302.6666507449904
 20
964.8734039996499
 30
0.0
 11
301.9201447450095
 21
963.9525269996532
 31
0.0
  0
LINE
  5
62A8
102
{ACAD_REACTORS
330
6398
102
}
330
2
100
AcDbEntity
  8
KIJUN
100
AcDbLine
 10
301.9201447450095
 20
963.9525269996532
 30
0.0
 11
301.3149897450407
 21
962.4390679996881
 31
0.0
  0
LINE
  5
62A9
102
{ACAD_REACTORS
330
6398
102
}
330
2
100
AcDbEntity
  8
KIJUN
100
AcDbLine
 10
301.3149897450407
 20
962.4390679996881
 30
0.0
 11
299.4565987449664
 21
965.5335499996379
 31
0.0
  0
LINE
  5
62AA
102
{ACAD_REACTORS
330
6398
102
}
330
2
100
AcDbEntity
  8
KIJUN
100
AcDbLine
 10
299.4565987449664
 20
965.5335499996379
 30
0.0
 11
298.4892397450516
 21
965.7270979996699
 31
0.0
  0
LINE
  5
62AB
102
{ACAD_REACTORS
330
6398
102
}
330
2
100
AcDbEntity
  8
KIJUN
100
AcDbLine
 10
298.4892397450516
 20
965.7270979996699
 30
0.0
 11
297.6849487448985
 21
965.5887949996269
 31
0.0
  0
LINE
  5
62AC
102
{ACAD_REACTORS
330
6398
102
}
330
2
100
AcDbEntity
  8
KIJUN
100
AcDbLine
 10
297.6849487448985
 20
965.5887949996269
 30
0.0
 11
296.8155067448665
 21
965.000022999675
 31
0.0
  0
LINE
  5
62AD
102
{ACAD_REACTORS
330
6398
102
}
330
2
100
AcDbEntity
  8
KIJUN
100
AcDbLine
 10
296.8155067448665
 20
965.000022999675
 30
0.0
 11
295.2015907450759
 21
962.4390679996881
 31
0.0
  0
LINE
  5
62AE
102
{ACAD_REACTORS
330
6398
102
}
330
2
100
AcDbEntity
  8
KIJUN
100
AcDbLine
 10
295.2015907450759
 20
962.4390679996881
 30
0.0
 11
293.5385257450457
 21
965.1065759997091
 31
0.0
  0
LINE
  5
62AF
102
{ACAD_REACTORS
330
6398
102
}
330
2
100
AcDbEntity
  8
KIJUN
100
AcDbLine
 10
293.5385257450457
 20
965.1065759997091
 30
0.0
 11
290.3100587450085
 21
965.9605239996828
 31
0.0
  0
LINE
  5
62B0
102
{ACAD_REACTORS
330
6398
102
}
330
2
100
AcDbEntity
  8
KIJUN
100
AcDbLine
 10
290.3100587450085
 20
965.9605239996828
 30
0.0
 11
314.7660677450108
 21
965.7470369996019
 31
0.0
  0
LINE
  5
62B1
102
{ACAD_REACTORS
330
6398
102
}
330
2
100
AcDbEntity
  8
KIJUN
100
AcDbLine
 10
314.7660677450108
 20
965.7470369996019
 30
0.0
 11
314.1300517450054
 21
962.4390679996881
 31
0.0
  0
LINE
  5
62B2
102
{ACAD_REACTORS
330
6398
102
}
330
2
100
AcDbEntity
  8
KIJUN
100
AcDbLine
 10
301.4685327450483
 20
962.444020999626
 30
0.0
 11
302.4531637450336
 21
952.5150339996409
 31
0.0
  0
LINE
  5
62B3
102
{ACAD_REACTORS
330
6398
102
}
330
2
100
AcDbEntity
  8
KIJUN
100
AcDbLine
 10
302.4531637450336
 20
952.5150339996409
 30
0.0
 11
303.1638557449095
 21
942.6228769996539
 31
0.0
  0
LINE
  5
62B4
102
{ACAD_REACTORS
330
6398
102
}
330
2
100
AcDbEntity
  8
KIJUN
100
AcDbLine
 10
303.1638557449095
 20
942.6228769996539
 30
0.0
 11
303.6324857450804
 21
932.7481189996701
 31
0.0
  0
LINE
  5
62B5
102
{ACAD_REACTORS
330
6398
102
}
330
2
100
AcDbEntity
  8
KIJUN
100
AcDbLine
 10
303.6324857450804
 20
932.7481189996701
 30
0.0
 11
303.8905497449004
 21
922.8719639996723
 31
0.0
  0
LINE
  5
62B6
102
{ACAD_REACTORS
330
6398
102
}
330
2
100
AcDbEntity
  8
KIJUN
100
AcDbLine
 10
303.8905497449004
 20
922.8719639996723
 30
0.0
 11
303.9697977449304
 21
912.9748539996233
 31
0.0
  0
LINE
  5
62B7
102
{ACAD_REACTORS
330
6398
102
}
330
2
100
AcDbEntity
  8
KIJUN
100
AcDbLine
 10
303.9697977449304
 20
912.9748539996233
 30
0.0
 11
303.9019797450664
 21
903.0377389996592
 31
0.0
  0
LINE
  5
62B8
102
{ACAD_REACTORS
330
6398
102
}
330
2
100
AcDbEntity
  8
KIJUN
100
AcDbLine
 10
303.9019797450664
 20
903.0377389996592
 30
0.0
 11
303.7185917449005
 21
893.0415689996893
 31
0.0
  0
LINE
  5
62B9
102
{ACAD_REACTORS
330
6398
102
}
330
2
100
AcDbEntity
  8
KIJUN
100
AcDbLine
 10
327.4265707450895
 20
962.444020999626
 30
0.0
 11
326.4419397448714
 21
952.5150339996409
 31
0.0
  0
LINE
  5
62BA
102
{ACAD_REACTORS
330
6398
102
}
330
2
100
AcDbEntity
  8
KIJUN
100
AcDbLine
 10
326.4419397448714
 20
952.5150339996409
 30
0.0
 11
325.7312477449945
 21
942.6228769996539
 31
0.0
  0
LINE
  5
62BB
102
{ACAD_REACTORS
330
6398
102
}
330
2
100
AcDbEntity
  8
KIJUN
100
AcDbLine
 10
325.7312477449945
 20
942.6228769996539
 30
0.0
 11
325.2626177450506
 21
932.7481189996701
 31
0.0
  0
LINE
  5
62BC
102
{ACAD_REACTORS
330
6398
102
}
330
2
100
AcDbEntity
  8
KIJUN
100
AcDbLine
 10
325.2626177450506
 20
932.7481189996701
 30
0.0
 11
325.0045537450123
 21
922.8719639996723
 31
0.0
  0
LINE
  5
62BD
102
{ACAD_REACTORS
330
6398
102
}
330
2
100
AcDbEntity
  8
KIJUN
100
AcDbLine
 10
325.0045537450123
 20
922.8719639996723
 30
0.0
 11
324.9253057449818
 21
912.9748539996233
 31
0.0
  0
LINE
  5
62BE
102
{ACAD_REACTORS
330
6398
102
}
330
2
100
AcDbEntity
  8
KIJUN
100
AcDbLine
 10
324.9253057449818
 20
912.9748539996233
 30
0.0
 11
324.9931237450714
 21
903.0377389996592
 31
0.0
  0
LINE
  5
62BF
102
{ACAD_REACTORS
330
6398
102
}
330
2
100
AcDbEntity
  8
KIJUN
100
AcDbLine
 10
324.9931237450714
 20
903.0377389996592
 30
0.0
 11
325.1765117450111
 21
893.0415689996893
 31
0.0
  0
LINE
  5
62C8
102
{ACAD_REACTORS
330
6398
102
}
330
2
100
AcDbEntity
  8
KIJUN
100
AcDbLine
 10
341.5652757449847
 20
1016.857551999682
 30
0.0
 11
292.5652757449847
 21
1016.857551999682
 31
0.0
  0
LINE
  5
62E4
102
{ACAD_REACTORS
330
6398
102
}
330
2
100
AcDbEntity
  8
KIJUN
100
AcDbLine
 10
343.5652757449847
 20
1021.306336365168
 30
0.0
 11
335.651598744836
 21
1019.204892999661
 31
0.0
  0
LINE
  5
62E5
102
{ACAD_REACTORS
330
6398
102
}
330
2
100
AcDbEntity
  8
KIJUN
100
AcDbLine
 10
335.651598744836
 20
1019.204892999661
 30
0.0
 11
326.3610407448641
 21
1017.49610799963
 31
0.0
  0
LINE
  5
62E6
102
{ACAD_REACTORS
330
6398
102
}
330
2
100
AcDbEntity
  8
KIJUN
100
AcDbLine
 10
326.3610407448641
 20
1017.49610799963
 30
0.0
 11
317.0652757449847
 21
1016.857551999682
 31
0.0
  0
LINE
  5
62E7
102
{ACAD_REACTORS
330
6398
102
}
330
2
100
AcDbEntity
  8
KIJUN
100
AcDbLine
 10
317.0652757449847
 20
1016.857551999682
 30
0.0
 11
307.7911007450297
 21
1017.496742999612
 31
0.0
  0
LINE
  5
62E8
102
{ACAD_REACTORS
330
6398
102
}
330
2
100
AcDbEntity
  8
KIJUN
100
AcDbLine
 10
307.7911007450297
 20
1017.496742999612
 30
0.0
 11
298.5466437449636
 21
1019.205527999643
 31
0.0
  0
LINE
  5
62E9
102
{ACAD_REACTORS
330
6398
102
}
330
2
100
AcDbEntity
  8
KIJUN
100
AcDbLine
 10
298.5466437449636
 20
1019.205527999643
 30
0.0
 11
290.5652757449847
 21
1021.342070355617
 31
0.0
  0
LINE
  5
62F9
102
{ACAD_REACTORS
330
6398
102
}
330
2
100
AcDbEntity
  8
KIJUN
100
AcDbLine
 10
292.5652757449847
 20
266.254645260788
 30
0.0
 11
341.5652757449847
 21
266.2546452607879
 31
0.0
  0
LINE
  5
62FA
102
{ACAD_REACTORS
330
6398
102
}
330
2
100
AcDbEntity
  8
KIJUN
100
AcDbLine
 10
292.5652757449847
 20
1166.254645260788
 30
0.0
 11
341.5652757449847
 21
1166.254645260788
 31
0.0
  0
LINE
  5
62FC
102
{ACAD_REACTORS
330
6398
102
}
330
2
100
AcDbEntity
  8
KIJUN
  6
CENTER
100
AcDbLine
 10
317.0652757449847
 20
237.6742637167662
 30
0.0
 11
317.0652757449847
 21
1210.657447233447
 31
0.0
  0
LINE
  5
62FD
102
{ACAD_REACTORS
330
6398
102
}
330
2
100
AcDbEntity
  8
KIJUN
100
AcDbLine
 10
290.5652757449847
 20
268.254645260788
 30
0.0
 11
290.5652757449847
 21
414.0850679996097
 31
0.0
  0
LINE
  5
62FE
102
{ACAD_REACTORS
330
6398
102
}
330
2
100
AcDbEntity
  8
KIJUN
100
AcDbLine
 10
343.5652757449847
 20
268.2546452607879
 30
0.0
 11
343.5652757449847
 21
414.0850679996097
 31
0.0
  0
LINE
  5
62FF
102
{ACAD_REACTORS
330
6398
102
}
330
2
100
AcDbEntity
  8
KIJUN
100
AcDbLine
 10
343.5652757449847
 20
1018.857551999682
 30
0.0
 11
343.5652757449847
 21
1164.254645260788
 31
0.0
  0
LINE
  5
6300
102
{ACAD_REACTORS
330
6398
102
}
330
2
100
AcDbEntity
  8
KIJUN
100
AcDbLine
 10
290.5652757449847
 20
1018.857551999682
 30
0.0
 11
290.5652757449847
 21
1164.254645260788
 31
0.0
  0
ARC
  5
6301
102
{ACAD_REACTORS
330
6398
102
}
330
2
100
AcDbEntity
  8
KIJUN
100
AcDbCircle
 10
292.5652757449847
 20
414.0850679996097
 30
0.0
 40
2.0
100
AcDbArc
 50
90.0
 51
180.0
  0
ARC
  5
6302
102
{ACAD_REACTORS
330
6398
102
}
330
2
100
AcDbEntity
  8
KIJUN
100
AcDbCircle
 10
341.5652757449847
 20
414.0850679996097
 30
0.0
 40
2.0
100
AcDbArc
 50
0.0
 51
90.0
  0
ARC
  5
6303
102
{ACAD_REACTORS
330
6398
102
}
330
2
100
AcDbEntity
  8
KIJUN
100
AcDbCircle
 10
292.5652757449847
 20
268.254645260788
 30
0.0
 40
2.0
100
AcDbArc
 50
180.0
 51
270.0
  0
ARC
  5
6304
102
{ACAD_REACTORS
330
6398
102
}
330
2
100
AcDbEntity
  8
KIJUN
100
AcDbCircle
 10
341.5652757449847
 20
268.2546452607879
 30
0.0
 40
2.0
100
AcDbArc
 50
269.9999999999999
 51
0.0
  0
ARC
  5
6305
102
{ACAD_REACTORS
330
6398
102
}
330
2
100
AcDbEntity
  8
KIJUN
100
AcDbCircle
 10
292.5652757449847
 20
1018.857551999682
 30
0.0
 40
2.0
100
AcDbArc
 50
180.0
 51
270.0
  0
ARC
  5
6306
102
{ACAD_REACTORS
330
6398
102
}
330
2
100
AcDbEntity
  8
KIJUN
100
AcDbCircle
 10
341.5652757449847
 20
1018.857551999682
 30
0.0
 40
2.0
100
AcDbArc
 50
270.0
 51
0.0
  0
ARC
  5
6307
102
{ACAD_REACTORS
330
6398
102
}
330
2
100
AcDbEntity
  8
KIJUN
100
AcDbCircle
 10
292.5652757449847
 20
1164.254645260788
 30
0.0
 40
2.0
100
AcDbArc
 50
90.0
 51
180.0
  0
ARC
  5
6308
102
{ACAD_REACTORS
330
6398
102
}
330
2
100
AcDbEntity
  8
KIJUN
100
AcDbCircle
 10
341.5652757449847
 20
1164.254645260788
 30
0.0
 40
2.0
100
AcDbArc
 50
0.0
 51
90.0
  0
DIMENSION
  5
630A
330
2
100
AcDbEntity
  8
SUNPOU
100
AcDbDimension
  2
*D54
 10
343.5652757449848
 20
1240.100858529851
 30
0.0
 11
376.2319424116515
 21
1260.100858529851
 31
0.0
 70
    32
 71
     5
 42
53.00000000000006
  3
STANDARD$0
100
AcDbAlignedDimension
 13
290.5652757449847
 23
1164.254645260788
 33
0.0
 14
343.5652757449848
 24
1164.254645260788
 34
0.0
100
AcDbRotatedDimension
1001
ACAD
1000
DSTYLE
1002
{
1070
    41
1040
3.0
1070
    42
1040
3.0
1070
    44
1040
0.0
1070
    77
1070
     1
1070
   140
1040
10.0
1070
   146
1040
0.064286
1070
   147
1040
5.0
1070
   176
1070
    60
1070
   177
1070
    70
1070
   178
1070
    60
1070
   271
1070
     0
1070
   272
1070
     0
1070
   340
1005
1C
1070
   342
1005
109
1002
}
  0
DIMENSION
  5
6318
330
2
100
AcDbEntity
  8
SUNPOU
100
AcDbDimension
  2
*D55
 10
343.5652757449847
 20
175.7855037463196
 30
0.0
 11
376.2319424116514
 21
195.7855037463195
 31
0.0
 70
    32
 71
     5
 42
53.0
  3
STANDARD$0
100
AcDbAlignedDimension
 13
290.5652757449847
 23
268.254645260788
 33
0.0
 14
343.5652757449847
 24
268.2546452607879
 34
0.0
100
AcDbRotatedDimension
1001
ACAD
1000
DSTYLE
1002
{
1070
    41
1040
3.0
1070
    42
1040
3.0
1070
    44
1040
0.0
1070
    77
1070
     1
1070
   140
1040
10.0
1070
   146
1040
0.064286
1070
   147
1040
5.0
1070
   176
1070
    60
1070
   177
1070
    70
1070
   178
1070
    60
1070
   271
1070
     0
1070
   272
1070
     0
1070
   340
1005
1C
1070
   342
1005
109
1002
}
  0
DIMENSION
  5
6326
330
2
100
AcDbEntity
  8
SUNPOU
100
AcDbDimension
  2
*D56
 10
48.64160660568456
 20
1166.254645260788
 30
0.0
 11
28.64160660568435
 21
716.254645260788
 31
0.0
 70
    32
 71
     5
 42
900.0
  3
STANDARD$0
100
AcDbAlignedDimension
 13
292.5652757449847
 23
266.254645260788
 33
0.0
 14
292.5652757449847
 24
1166.254645260788
 34
0.0
 50
90.0
100
AcDbRotatedDimension
1001
ACAD
1000
DSTYLE
1002
{
1070
    41
1040
3.0
1070
    42
1040
3.0
1070
    44
1040
0.0
1070
    77
1070
     1
1070
   140
1040
10.0
1070
   146
1040
0.064286
1070
   147
1040
5.0
1070
   176
1070
    60
1070
   177
1070
    70
1070
   178
1070
    60
1070
   271
1070
     0
1070
   272
1070
     0
1070
   340
1005
1C
1070
   342
1005
109
1002
}
  0
ENDSEC
  0
SECTION
  2
OBJECTS
  0
DICTIONARY
  5
1A
330
0
100
AcDbDictionary
281
     1
  3
ACAD_GROUP
350
18
  3
ACAD_LAYOUT
350
58
  3
ACAD_MLINESTYLE
350
19
  3
ACAD_PLOTSETTINGS
350
59
  3
ACAD_PLOTSTYLENAME
350
56
  0
DICTIONARY
  5
18
102
{ACAD_REACTORS
330
1A
102
}
330
1A
100
AcDbDictionary
281
     1
  3
*A1
350
3A0
  3
*A10
350
3A1
  3
*A11
350
ACC
  3
*A12
350
2120
  3
*A13
350
2765
  3
*A14
350
2766
  3
*A15
350
54B2
  3
*A16
350
595A
  3
*A17
350
5DF8
  3
*A2
350
2FC6
  3
*A20
350
6398
  3
*A3
350
2FC7
  3
*A4
350
38D5
  3
*A5
350
46AB
  3
*A6
350
4FAD
  3
*A7
350
4FAE
  3
*A8
350
38D6
  3
*A9
350
46A2
  0
DICTIONARY
  5
58
102
{ACAD_REACTORS
330
1A
102
}
330
1A
100
AcDbDictionary
281
     1
  3
Model
350
5A
  3
ﾚｲｱｳﾄ1
350
5B
  0
DICTIONARY
  5
19
102
{ACAD_REACTORS
330
1A
102
}
330
1A
100
AcDbDictionary
281
     1
  3
STANDARD
350
1D
  0
DICTIONARY
  5
59
102
{ACAD_REACTORS
330
1A
102
}
330
1A
100
AcDbDictionary
281
     1
  0
ACDBDICTIONARYWDFLT
  5
56
102
{ACAD_REACTORS
330
1A
102
}
330
1A
100
AcDbDictionary
281
     1
  3
Normal
350
57
100
AcDbDictionaryWithDefault
340
57
  0
GROUP
  5
3A0
102
{ACAD_REACTORS
330
18
102
}
330
18
100
AcDbGroup
300

 70
     1
 71
     1
  0
GROUP
  5
3A1
102
{ACAD_REACTORS
330
18
102
}
330
18
100
AcDbGroup
300

 70
     1
 71
     1
  0
GROUP
  5
ACC
102
{ACAD_REACTORS
330
18
102
}
330
18
100
AcDbGroup
300

 70
     1
 71
     1
  0
GROUP
  5
2120
102
{ACAD_REACTORS
330
18
102
}
330
18
100
AcDbGroup
300

 70
     1
 71
     1
  0
GROUP
  5
2765
102
{ACAD_REACTORS
330
18
102
}
330
18
100
AcDbGroup
300

 70
     1
 71
     1
  0
GROUP
  5
2766
102
{ACAD_REACTORS
330
18
102
}
330
18
100
AcDbGroup
300

 70
     1
 71
     1
  0
GROUP
  5
54B2
102
{ACAD_REACTORS
330
18
102
}
330
18
100
AcDbGroup
300

 70
     1
 71
     1
  0
GROUP
  5
595A
102
{ACAD_REACTORS
330
18
102
}
330
18
100
AcDbGroup
300

 70
     1
 71
     1
  0
GROUP
  5
5DF8
102
{ACAD_REACTORS
330
18
102
}
330
18
100
AcDbGroup
300

 70
     1
 71
     1
  0
GROUP
  5
2FC6
102
{ACAD_REACTORS
330
18
102
}
330
18
100
AcDbGroup
300

 70
     1
 71
     1
  0
GROUP
  5
6398
102
{ACAD_REACTORS
330
18
102
}
330
18
100
AcDbGroup
300

 70
     1
 71
     1
340
608B
340
5FF1
340
6054
340
6077
340
607F
340
606C
340
5FB3
340
6227
340
60AD
340
6030
340
6019
340
5FB9
340
603B
340
60A7
340
5FD2
340
6223
340
604E
340
6012
340
5FF8
340
5FD9
340
62FC
340
62FD
340
62FE
340
62F9
340
6303
340
6304
340
5F23
340
5F1A
340
5F4E
340
5F54
340
5F38
340
6301
340
6302
340
5F60
340
5F6B
340
5F77
340
5F75
340
5F5B
340
5F59
340
5F49
340
5F48
340
5F36
340
5F11
340
5F70
340
5F6E
340
5F0B
340
5F5C
340
5F58
340
5F57
340
5F56
340
5F55
340
5F6F
340
5F0D
340
5F0C
340
5F10
340
5F0F
340
5F0E
340
5F78
340
5F5E
340
5F6D
340
5F73
340
5F72
340
5F71
340
5F74
340
5F5D
340
5F6C
340
5F5F
340
5F37
340
5F0A
340
5F18
340
5F15
340
5F13
340
5F12
340
5F14
340
5F17
340
5F16
340
5F19
340
5F2E
340
5F31
340
5F69
340
5F68
340
5F76
340
5F65
340
5F63
340
5F62
340
5F6A
340
5F64
340
5F61
340
5F66
340
5F67
340
5F35
340
5F34
340
5F33
340
5F32
340
5F4D
340
5F4C
340
5F4B
340
5F5A
340
5F4A
340
5F2F
340
5F30
340
5F27
340
5F25
340
5F24
340
5F26
340
5F2A
340
5F2D
340
5F2C
340
5F2B
340
5F28
340
5F29
340
60FD
340
5F98
340
5F92
340
61D0
340
61CE
340
6101
340
6100
340
61D1
340
60FE
340
5F97
340
5F96
340
5F95
340
5F94
340
5F93
340
60FF
340
5F9C
340
5FA8
340
615E
340
614E
340
6169
340
60E8
340
60FB
340
6179
340
6158
340
616F
340
611D
340
6118
340
6137
340
6127
340
6148
340
610B
340
613D
340
60C1
340
612C
340
6111
340
60F4
340
6175
340
619B
340
6176
340
60F7
340
61AF
340
61C8
340
61C6
340
61C4
340
61C2
340
618A
340
617C
340
617B
340
60D6
340
5F1F
340
6105
340
60CA
340
6131
340
6124
340
6144
340
6133
340
6142
340
6107
340
6122
340
6114
340
618C
340
60CB
340
6198
340
5F1C
340
61B2
340
61BC
340
5F1D
340
61C9
340
61BB
340
61BA
340
61B9
340
61B8
340
61B7
340
61B6
340
61B5
340
61B4
340
61B3
340
5F1E
340
61C5
340
61C1
340
61C0
340
618B
340
61BE
340
61BD
340
61BF
340
61B0
340
61B1
340
5F1B
340
6132
340
619A
340
60D4
340
60D5
340
6195
340
6194
340
6193
340
6192
340
6191
340
60D3
340
60D2
340
60D1
340
60D0
340
60CF
340
60CE
340
618F
340
618E
340
618D
340
6197
340
6106
340
60CC
340
6190
340
6199
340
6196
340
6143
340
60CD
340
6112
340
60F6
340
60F5
340
6123
340
6113
340
6130
340
6135
340
611F
340
6102
340
6109
340
613F
340
6146
340
612E
340
60C3
340
6140
340
60C5
340
6108
340
6104
340
60C4
340
6103
340
60C9
340
60C7
340
60C6
340
6145
340
6141
340
612F
340
60C8
340
612D
340
613E
340
60C2
340
610A
340
6136
340
611E
340
6147
340
6116
340
6125
340
6115
340
6134
340
6120
340
6121
340
6126
340
6117
340
6152
340
60E0
340
5FA2
340
6174
340
6154
340
6165
340
6163
340
5FA4
340
619D
340
5F20
340
61AD
340
61AE
340
5F22
340
5F21
340
619C
340
6186
340
60DF
340
6184
340
60D8
340
6185
340
6183
340
6182
340
6181
340
6180
340
617F
340
617E
340
617D
340
6164
340
60DE
340
60DD
340
60DC
340
60DB
340
60DA
340
60D9
340
5FA3
340
60D7
340
6153
340
6189
340
6187
340
6188
340
61A3
340
61C7
340
61AC
340
61AB
340
61AA
340
61A9
340
61A8
340
61A7
340
61A6
340
61A5
340
61A4
340
61C3
340
619F
340
619E
340
61A2
340
61A1
340
61A0
340
5FA5
340
6162
340
60E3
340
5FA1
340
6167
340
614F
340
60F9
340
6177
340
6171
340
6156
340
6155
340
6172
340
6151
340
6173
340
60F8
340
60E2
340
6166
340
6150
340
60E1
340
6178
340
60FA
340
6170
340
6157
340
5FA6
340
6160
340
60E5
340
5F9E
340
5F9F
340
6161
340
60E4
340
5FA0
340
60E6
340
615F
340
6168
340
5FA7
340
60E7
340
5F9D
340
6216
340
620B
340
61D5
340
60F2
340
61E0
340
6201
340
61FA
340
61F2
340
61EA
340
60EF
340
5FF7
340
5F91
340
5F89
340
6052
340
6204
340
61F6
340
61E9
340
6219
340
6208
340
6202
340
61F3
340
61D2
340
611B
340
61E2
340
61E6
340
612B
340
61E3
340
61E5
340
60BA
340
60BD
340
60BC
340
60BB
340
6139
340
60B9
340
60B8
340
60BF
340
613B
340
60FC
340
60BE
340
61E4
340
613A
340
6149
340
613C
340
610C
340
60C0
340
6138
340
611C
340
612A
340
6129
340
621F
340
621E
340
621D
340
621C
340
621B
340
621A
340
6203
340
61F5
340
61F4
340
610E
340
61E1
340
6128
340
610D
340
611A
340
6119
340
60F3
340
610F
340
6110
340
61D3
340
6218
340
6209
340
61E8
340
61E7
340
6217
340
620A
340
61D4
340
5FBB
340
6207
340
61F9
340
60AA
340
5FD7
340
60AC
340
6032
340
60A8
340
5FD4
340
60A9
340
6206
340
61F8
340
6205
340
61F7
340
5FD5
340
5FD6
340
5FD3
340
6031
340
5FBA
340
5FBC
340
6039
340
6016
340
5FAC
340
6037
340
5FAD
340
6038
340
5FD8
340
6036
340
60AB
340
6034
340
6033
340
5FBD
340
6035
340
6051
340
6050
340
6015
340
6013
340
6014
340
604F
340
603A
340
6017
340
5FAB
340
5FAA
340
6018
340
61FE
340
61EE
340
61DC
340
614B
340
61DF
340
61DB
340
616C
340
617A
340
616B
340
60F1
340
60F0
340
614A
340
616D
340
616E
340
6159
340
61D9
340
620D
340
61D7
340
6214
340
61DA
340
6215
340
620C
340
61D6
340
6213
340
6212
340
6211
340
6210
340
61D8
340
620E
340
6200
340
61F1
340
61F0
340
61EF
340
620F
340
61FF
340
60ED
340
615C
340
61DE
340
61DD
340
615B
340
60EE
340
616A
340
614C
340
615A
340
614D
340
5F8E
340
5F8D
340
5F8C
340
60EC
340
60EB
340
60EA
340
60E9
340
61CF
340
5F9A
340
5F99
340
5F90
340
5F8A
340
615D
340
5FA9
340
5F9B
340
5F8F
340
5F8B
340
5FF3
340
6088
340
6075
340
5FB0
340
6081
340
606E
340
5FB6
340
6085
340
5FF6
340
6083
340
6084
340
6082
340
6070
340
606F
340
5FB7
340
6073
340
5FB1
340
6072
340
6074
340
6071
340
5FF4
340
61FD
340
61FB
340
61EC
340
61EB
340
6087
340
6086
340
61ED
340
61FC
340
5FF5
340
5FB5
340
6076
340
6053
340
5FAF
340
5FAE
340
6089
340
608A
340
6080
340
606D
340
5FB4
340
5FF2
340
62FF
340
6300
340
6058
340
6041
340
6064
340
62BE
340
6092
340
5FE5
340
6225
340
60A4
340
604B
340
601C
340
600F
340
6005
340
60B2
340
6028
340
62B7
340
5FC6
340
6221
340
607A
340
6001
340
602C
340
5FCC
340
60AF
340
604D
340
601A
340
6011
340
6220
340
60A5
340
60AE
340
60A6
340
5FCF
340
602D
340
5FD1
340
5FD0
340
602F
340
5FB8
340
602E
340
5FCE
340
5FCD
340
5FFE
340
603C
340
5FFD
340
5FFC
340
5FFB
340
5FFA
340
6000
340
5FFF
340
5FC9
340
5FCB
340
5FCA
340
5FC7
340
5FC8
340
60B0
340
6222
340
604C
340
601B
340
6010
340
602A
340
6004
340
6003
340
602B
340
6002
340
6029
340
62B8
340
60B1
340
608F
340
5FEB
340
6068
340
607C
340
6056
340
603E
340
6224
340
5FED
340
607D
340
6069
340
608E
340
6078
340
603D
340
6055
340
608D
340
608C
340
607E
340
606B
340
5FB2
340
606A
340
5FEC
340
5FEE
340
5FEF
340
5FF0
340
6226
340
6091
340
5FE8
340
6057
340
6040
340
6066
340
607B
340
6067
340
603F
340
5FEA
340
5FE9
340
6090
340
6065
340
62BF
340
5FE6
340
5FE7
340
62E6
340
62C8
340
6288
340
6265
340
627D
340
6248
340
622D
340
6045
340
6270
340
6296
340
6294
340
6292
340
6260
340
625E
340
625B
340
6241
340
5FF9
340
5F81
340
6275
340
60B4
340
62A8
340
6272
340
5FDB
340
60A3
340
62B0
340
5FC3
340
60A2
340
5FC4
340
5FC5
340
62AF
340
5FBF
340
5FDC
340
6273
340
6274
340
5FBE
340
62AB
340
62AA
340
62A9
340
60B5
340
5FC0
340
62AE
340
62AD
340
60B7
340
60A1
340
5FC1
340
62AC
340
60B6
340
5FC2
340
6006
340
6049
340
600D
340
62B4
340
60B3
340
6026
340
601E
340
62B5
340
62B6
340
6027
340
601D
340
604A
340
600E
340
629C
340
6009
340
6271
340
5FDA
340
601F
340
62A1
340
62A0
340
629F
340
629E
340
629D
340
6020
340
6008
340
62B2
340
6025
340
62B3
340
62A7
340
62A6
340
62A5
340
62A4
340
62A3
340
6024
340
6023
340
6022
340
62A2
340
6021
340
6007
340
6247
340
6246
340
6245
340
6244
340
6243
340
622C
340
622B
340
622A
340
6229
340
6047
340
6046
340
629B
340
629A
340
6299
340
6298
340
6297
340
6242
340
600C
340
600B
340
600A
340
62B1
340
625C
340
6228
340
6048
340
62E8
340
628D
340
628B
340
6290
340
6263
340
627A
340
6261
340
6279
340
6278
340
6277
340
6276
340
628C
340
6295
340
6291
340
6262
340
5F88
340
62E9
340
5F82
340
5F87
340
5F86
340
5F85
340
5F84
340
6305
340
5F83
340
6289
340
627C
340
6264
340
628F
340
628E
340
628A
340
627B
340
62E7
340
626C
340
625A
340
6240
340
5FDE
340
626E
340
6096
340
6042
340
605A
340
62BB
340
60A0
340
6062
340
5FE1
340
62BC
340
62BD
340
6063
340
6059
340
6079
340
6093
340
5FE3
340
5FE4
340
6095
340
6094
340
5FE2
340
62B9
340
609F
340
6061
340
6254
340
6239
340
605F
340
626F
340
62BA
340
6253
340
6252
340
6251
340
6250
340
624F
340
6238
340
6237
340
6236
340
6235
340
605E
340
605B
340
624D
340
624C
340
624B
340
624A
340
6249
340
6233
340
6232
340
6231
340
6230
340
622F
340
622E
340
605C
340
6044
340
624E
340
6234
340
605D
340
6043
340
5FDF
340
6259
340
623F
340
623E
340
609B
340
609A
340
6098
340
6257
340
6256
340
6255
340
623C
340
623B
340
623A
340
609E
340
609D
340
6060
340
6099
340
5FE0
340
6258
340
623D
340
609C
340
6097
340
626D
340
5FDD
340
62E5
340
6285
340
6280
340
6286
340
627F
340
6267
340
6283
340
6282
340
6287
340
6266
340
627E
340
6284
340
6281
340
625F
340
626A
340
6293
340
6268
340
6269
340
626B
340
5F7E
340
5F7C
340
5F7B
340
5F7A
340
6306
340
62E4
340
5F80
340
5F7F
340
5F7D
340
62FA
340
6307
340
6308
  0
GROUP
  5
2FC7
102
{ACAD_REACTORS
330
18
102
}
330
18
100
AcDbGroup
300

 70
     1
 71
     1
  0
GROUP
  5
38D5
102
{ACAD_REACTORS
330
18
102
}
330
18
100
AcDbGroup
300

 70
     1
 71
     1
  0
GROUP
  5
46AB
102
{ACAD_REACTORS
330
18
102
}
330
18
100
AcDbGroup
300

 70
     1
 71
     1
  0
GROUP
  5
4FAD
102
{ACAD_REACTORS
330
18
102
}
330
18
100
AcDbGroup
300

 70
     1
 71
     1
  0
GROUP
  5
4FAE
102
{ACAD_REACTORS
330
18
102
}
330
18
100
AcDbGroup
300

 70
     1
 71
     1
  0
GROUP
  5
38D6
102
{ACAD_REACTORS
330
18
102
}
330
18
100
AcDbGroup
300

 70
     1
 71
     1
  0
GROUP
  5
46A2
102
{ACAD_REACTORS
330
18
102
}
330
18
100
AcDbGroup
300

 70
     1
 71
     1
  0
LAYOUT
  5
5A
102
{ACAD_REACTORS
330
58
102
}
330
58
100
AcDbPlotSettings
  1

  2
なし
  4

  6

 40
0.0
 41
0.0
 42
0.0
 43
0.0
 44
0.0
 45
0.0
 46
0.0
 47
0.0
 48
0.0
 49
0.0
140
0.0
141
0.0
142
1.0
143
1.0
 70
  1712
 72
     0
 73
     0
 74
     0
  7
monochrome.ctb
 75
     0
147
1.0
148
0.0
149
0.0
100
AcDbLayout
  1
Model
 70
     1
 71
     0
 10
0.0
 20
0.0
 11
12.0
 21
9.0
 12
0.0
 22
0.0
 32
0.0
 14
0.0
 24
0.0
 34
0.0
 15
0.0
 25
0.0
 35
0.0
146
0.0
 13
0.0
 23
0.0
 33
0.0
 16
1.0
 26
0.0
 36
0.0
 17
0.0
 27
1.0
 37
0.0
 76
     0
330
2
  0
LAYOUT
  5
5B
102
{ACAD_REACTORS
330
58
102
}
330
58
100
AcDbPlotSettings
  1

  2
なし
  4

  6

 40
0.0
 41
0.0
 42
0.0
 43
0.0
 44
0.0
 45
0.0
 46
0.0
 47
0.0
 48
0.0
 49
0.0
140
0.0
141
0.0
142
1.0
143
1.0
 70
   688
 72
     0
 73
     0
 74
     5
  7
monochrome.ctb
 75
    16
147
1.0
148
0.0
149
0.0
100
AcDbLayout
  1
ﾚｲｱｳﾄ1
 70
     1
 71
     1
 10
0.0
 20
0.0
 11
12.0
 21
9.0
 12
0.0
 22
0.0
 32
0.0
 14
1.000000000000000E+20
 24
1.000000000000000E+20
 34
1.000000000000000E+20
 15
-1.000000000000000E+20
 25
-1.000000000000000E+20
 35
-1.000000000000000E+20
146
0.0
 13
0.0
 23
0.0
 33
0.0
 16
1.0
 26
0.0
 36
0.0
 17
0.0
 27
1.0
 37
0.0
 76
     0
330
7
  0
MLINESTYLE
  5
1D
102
{ACAD_REACTORS
330
19
102
}
330
19
100
AcDbMlineStyle
  2
STANDARD
 70
     0
  3

 62
   256
 51
90.0
 52
90.0
 71
     2
 49
0.5
 62
   256
  6
BYLAYER
 49
-0.5
 62
   256
  6
BYLAYER
  0
ACDBPLACEHOLDER
  5
57
102
{ACAD_REACTORS
330
56
102
}
330
56
  0
ENDSEC
  0
EOF
