  0
SECTION
  2
HEADER
  9
$ACADVER
  1
AC1015
  9
$ACADMAINTVER
 70
    20
  9
$DWGCODEPAGE
  3
ANSI_932
  9
$INSBASE
 10
922.019522
 20
-675.4306699999999
 30
0.0
  9
$EXTMIN
 10
-0.0352525523001077
 20
-31.33277267360427
 30
-0.0000000349181948
  9
$EXTMAX
 10
816.0113823138772
 20
1510.779869906165
 30
0.0000000814935746
  9
$LIMMIN
 10
0.0
 20
0.0
  9
$LIMMAX
 10
420.0
 20
297.0
  9
$ORTHOMODE
 70
     1
  9
$REGENMODE
 70
     1
  9
$FILLMODE
 70
     1
  9
$QTEXTMODE
 70
     0
  9
$MIRRTEXT
 70
     1
  9
$LTSCALE
 40
50.0
  9
$ATTMODE
 70
     1
  9
$TEXTSIZE
 40
30.0
  9
$TRACEWID
 40
0.05
  9
$TEXTSTYLE
  7
SUNPOU
  9
$CLAYER
  8
0
  9
$CELTYPE
  6
BYLAYER
  9
$CECOLOR
 62
   256
  9
$CELTSCALE
 40
1.0
  9
$DISPSILH
 70
     0
  9
$DIMSCALE
 40
1.0
  9
$DIMASZ
 40
3.0
  9
$DIMEXO
 40
3.0
  9
$DIMDLI
 40
0.38
  9
$DIMRND
 40
0.0
  9
$DIMDLE
 40
0.0
  9
$DIMEXE
 40
0.0
  9
$DIMTP
 40
0.0
  9
$DIMTM
 40
0.0
  9
$DIMTXT
 40
10.0
  9
$DIMCEN
 40
0.0
  9
$DIMTSZ
 40
0.0
  9
$DIMTOL
 70
     0
  9
$DIMLIM
 70
     0
  9
$DIMTIH
 70
     0
  9
$DIMTOH
 70
     0
  9
$DIMSE1
 70
     0
  9
$DIMSE2
 70
     0
  9
$DIMTAD
 70
     1
  9
$DIMZIN
 70
     0
  9
$DIMBLK
  1
Dot
  9
$DIMASO
 70
     1
  9
$DIMSHO
 70
     1
  9
$DIMPOST
  1

  9
$DIMAPOST
  1

  9
$DIMALT
 70
     0
  9
$DIMALTD
 70
     2
  9
$DIMALTF
 40
25.4
  9
$DIMLFAC
 40
1.0
  9
$DIMTOFL
 70
     0
  9
$DIMTVP
 40
0.0
  9
$DIMTIX
 70
     0
  9
$DIMSOXD
 70
     0
  9
$DIMSAH
 70
     0
  9
$DIMBLK1
  1

  9
$DIMBLK2
  1

  9
$DIMSTYLE
  2
STANDARD
  9
$DIMCLRD
 70
    60
  9
$DIMCLRE
 70
    70
  9
$DIMCLRT
 70
    60
  9
$DIMTFAC
 40
0.064286
  9
$DIMGAP
 40
5.0
  9
$DIMJUST
 70
     0
  9
$DIMSD1
 70
     0
  9
$DIMSD2
 70
     0
  9
$DIMTOLJ
 70
     1
  9
$DIMTZIN
 70
     0
  9
$DIMALTZ
 70
     0
  9
$DIMALTTZ
 70
     0
  9
$DIMUPT
 70
     0
  9
$DIMDEC
 70
     0
  9
$DIMTDEC
 70
     0
  9
$DIMALTU
 70
     2
  9
$DIMALTTD
 70
     2
  9
$DIMTXSTY
  7
SUNPOU
  9
$DIMAUNIT
 70
     0
  9
$DIMADEC
 70
     0
  9
$DIMALTRND
 40
0.0
  9
$DIMAZIN
 70
     0
  9
$DIMDSEP
 70
    46
  9
$DIMATFIT
 70
     3
  9
$DIMFRAC
 70
     0
  9
$DIMLDRBLK
  1

  9
$DIMLUNIT
 70
     2
  9
$DIMLWD
 70
    -2
  9
$DIMLWE
 70
    -2
  9
$DIMTMOVE
 70
     0
  9
$LUNITS
 70
     2
  9
$LUPREC
 70
     5
  9
$SKETCHINC
 40
0.1
  9
$FILLETRAD
 40
0.0
  9
$AUNITS
 70
     0
  9
$AUPREC
 70
     0
  9
$MENU
  1
acad
  9
$ELEVATION
 40
0.0
  9
$PELEVATION
 40
0.0
  9
$THICKNESS
 40
0.0
  9
$LIMCHECK
 70
     0
  9
$CHAMFERA
 40
0.0
  9
$CHAMFERB
 40
0.0
  9
$CHAMFERC
 40
0.0
  9
$CHAMFERD
 40
0.0
  9
$SKPOLY
 70
     0
  9
$TDCREATE
 40
2450623.654673033
  9
$TDUCREATE
 40
2450623.279673032
  9
$TDUPDATE
 40
2454580.631422639
  9
$TDUUPDATE
 40
2454580.256422639
  9
$TDINDWG
 40
0.2158620486
  9
$TDUSRTIMER
 40
0.2158618750
  9
$USRTIMER
 70
     1
  9
$ANGBASE
 50
0.0
  9
$ANGDIR
 70
     0
  9
$PDMODE
 70
     0
  9
$PDSIZE
 40
0.0
  9
$PLINEWID
 40
0.0
  9
$SPLFRAME
 70
     0
  9
$SPLINETYPE
 70
     6
  9
$SPLINESEGS
 70
     8
  9
$HANDSEED
  5
5A36
  9
$SURFTAB1
 70
     6
  9
$SURFTAB2
 70
     6
  9
$SURFTYPE
 70
     6
  9
$SURFU
 70
     6
  9
$SURFV
 70
     6
  9
$UCSBASE
  2

  9
$UCSNAME
  2

  9
$UCSORG
 10
0.0
 20
0.0
 30
0.0
  9
$UCSXDIR
 10
1.0
 20
0.0
 30
0.0
  9
$UCSYDIR
 10
0.0
 20
1.0
 30
0.0
  9
$UCSORTHOREF
  2

  9
$UCSORTHOVIEW
 70
     0
  9
$UCSORGTOP
 10
0.0
 20
0.0
 30
0.0
  9
$UCSORGBOTTOM
 10
0.0
 20
0.0
 30
0.0
  9
$UCSORGLEFT
 10
0.0
 20
0.0
 30
0.0
  9
$UCSORGRIGHT
 10
0.0
 20
0.0
 30
0.0
  9
$UCSORGFRONT
 10
0.0
 20
0.0
 30
0.0
  9
$UCSORGBACK
 10
0.0
 20
0.0
 30
0.0
  9
$PUCSBASE
  2

  9
$PUCSNAME
  2

  9
$PUCSORG
 10
0.0
 20
0.0
 30
0.0
  9
$PUCSXDIR
 10
1.0
 20
0.0
 30
0.0
  9
$PUCSYDIR
 10
0.0
 20
1.0
 30
0.0
  9
$PUCSORTHOREF
  2

  9
$PUCSORTHOVIEW
 70
     0
  9
$PUCSORGTOP
 10
0.0
 20
0.0
 30
0.0
  9
$PUCSORGBOTTOM
 10
0.0
 20
0.0
 30
0.0
  9
$PUCSORGLEFT
 10
0.0
 20
0.0
 30
0.0
  9
$PUCSORGRIGHT
 10
0.0
 20
0.0
 30
0.0
  9
$PUCSORGFRONT
 10
0.0
 20
0.0
 30
0.0
  9
$PUCSORGBACK
 10
0.0
 20
0.0
 30
0.0
  9
$USERI1
 70
     0
  9
$USERI2
 70
     0
  9
$USERI3
 70
     0
  9
$USERI4
 70
     0
  9
$USERI5
 70
     0
  9
$USERR1
 40
0.0
  9
$USERR2
 40
0.0
  9
$USERR3
 40
0.0
  9
$USERR4
 40
0.0
  9
$USERR5
 40
0.0
  9
$WORLDVIEW
 70
     1
  9
$SHADEDGE
 70
     3
  9
$SHADEDIF
 70
    70
  9
$TILEMODE
 70
     1
  9
$MAXACTVP
 70
    16
  9
$PINSBASE
 10
0.0
 20
0.0
 30
0.0
  9
$PLIMCHECK
 70
     0
  9
$PEXTMIN
 10
1.000000000000000E+20
 20
1.000000000000000E+20
 30
1.000000000000000E+20
  9
$PEXTMAX
 10
-1.000000000000000E+20
 20
-1.000000000000000E+20
 30
-1.000000000000000E+20
  9
$PLIMMIN
 10
0.0
 20
0.0
  9
$PLIMMAX
 10
12.0
 20
9.0
  9
$UNITMODE
 70
     0
  9
$VISRETAIN
 70
     0
  9
$PLINEGEN
 70
     0
  9
$PSLTSCALE
 70
     1
  9
$TREEDEPTH
 70
  3020
  9
$CMLSTYLE
  2
STANDARD
  9
$CMLJUST
 70
     0
  9
$CMLSCALE
 40
1.0
  9
$PROXYGRAPHICS
 70
     1
  9
$MEASUREMENT
 70
     0
  9
$CELWEIGHT
370
    -1
  9
$ENDCAPS
280
     0
  9
$JOINSTYLE
280
     0
  9
$LWDISPLAY
290
     0
  9
$INSUNITS
 70
     0
  9
$HYPERLINKBASE
  1

  9
$STYLESHEET
  1

  9
$XEDIT
290
     1
  9
$CEPSNTYPE
380
     0
  9
$PSTYLEMODE
290
     1
  9
$FINGERPRINTGUID
  2
{FB88A696-E29C-4009-92AF-A3599A8169D5}
  9
$VERSIONGUID
  2
{7BA686C5-7A8E-4B25-8E31-EBD168020B1F}
  9
$EXTNAMES
290
     1
  9
$PSVPSCALE
 40
0.0
  9
$OLESTARTUP
290
     0
  0
ENDSEC
  0
SECTION
  2
CLASSES
  0
CLASS
  1
DICTIONARYVAR
  2
AcDbDictionaryVar
  3
ObjectDBX Classes
 90
        0
280
     0
281
     0
  0
CLASS
  1
ACDBDICTIONARYWDFLT
  2
AcDbDictionaryWithDefault
  3
ObjectDBX Classes
 90
        0
280
     0
281
     0
  0
CLASS
  1
ACDBPLACEHOLDER
  2
AcDbPlaceHolder
  3
ObjectDBX Classes
 90
        0
280
     0
281
     0
  0
CLASS
  1
LAYOUT
  2
AcDbLayout
  3
ObjectDBX Classes
 90
        0
280
     0
281
     0
  0
CLASS
  1
TABLESTYLE
  2
AcDbTableStyle
  3
ObjectDBX Classes
 90
     2047
280
     0
281
     0
  0
ENDSEC
  0
SECTION
  2
TABLES
  0
TABLE
  2
VPORT
  5
12
330
0
100
AcDbSymbolTable
 70
     5
  0
VPORT
  5
5A30
330
12
100
AcDbSymbolTableRecord
100
AcDbViewportTableRecord
  2
*Active
 70
     0
 10
0.0
 20
0.0
 11
1.0
 21
1.0
 12
407.9880648807884
 22
739.7235486162805
 13
0.0
 23
0.0
 14
1.0
 24
1.0
 15
0.0
 25
0.0
 16
0.0
 26
0.0
 36
1.0
 17
0.0
 27
0.0
 37
0.0
 40
1553.884494813203
 41
1.528662420382165
 42
50.0
 43
0.0
 44
0.0
 50
0.0
 51
0.0
 71
     0
 72
 20000
 73
     1
 74
     1
 75
     0
 76
     0
 77
     0
 78
     0
281
     0
 65
     1
110
0.0
120
0.0
130
0.0
111
1.0
121
0.0
131
0.0
112
0.0
122
1.0
132
0.0
 79
     0
146
0.0
  0
ENDTAB
  0
TABLE
  2
LTYPE
  5
D
330
0
100
AcDbSymbolTable
 70
     3
  0
LTYPE
  5
E
330
D
100
AcDbSymbolTableRecord
100
AcDbLinetypeTableRecord
  2
BYBLOCK
 70
     0
  3

 72
    65
 73
     0
 40
0.0
  0
LTYPE
  5
F
330
D
100
AcDbSymbolTableRecord
100
AcDbLinetypeTableRecord
  2
BYLAYER
 70
     0
  3

 72
    65
 73
     0
 40
0.0
  0
LTYPE
  5
5
330
D
100
AcDbSymbolTableRecord
100
AcDbLinetypeTableRecord
  2
CONTINUOUS
 70
     0
  3
Solid line
 72
    65
 73
     0
 40
0.0
  0
LTYPE
  5
1AC
330
D
100
AcDbSymbolTableRecord
100
AcDbLinetypeTableRecord
  2
CENTER
 70
     0
  3
Center ____ _ ____ _ ____ _ ____ _ ____ _ ____
 72
    65
 73
     4
 40
2.0
 49
1.25
 74
     0
 49
-0.25
 74
     0
 49
0.25
 74
     0
 49
-0.25
 74
     0
  0
ENDTAB
  0
TABLE
  2
LAYER
  5
A
330
0
100
AcDbSymbolTable
 70
     6
  0
LAYER
  5
4
330
A
100
AcDbSymbolTableRecord
100
AcDbLayerTableRecord
  2
0
 70
     0
 62
     7
  6
CONTINUOUS
370
    -3
390
57
  0
LAYER
  5
25
330
A
100
AcDbSymbolTableRecord
100
AcDbLayerTableRecord
  2
KIJUN
 70
     0
 62
     7
  6
CONTINUOUS
370
    -3
390
57
  0
LAYER
  5
22
330
A
100
AcDbSymbolTableRecord
100
AcDbLayerTableRecord
  2
HOJO
 70
     0
 62
     3
  6
CONTINUOUS
370
    -3
390
57
  0
LAYER
  5
1B
330
A
100
AcDbSymbolTableRecord
100
AcDbLayerTableRecord
  2
WAKU
 70
     0
 62
     1
  6
CONTINUOUS
370
    -3
390
57
  0
LAYER
  5
31
330
A
100
AcDbSymbolTableRecord
100
AcDbLayerTableRecord
  2
DEFPOINTS
 70
     0
 62
     7
  6
CONTINUOUS
290
     0
370
    -3
390
57
  0
LAYER
  5
28
330
A
100
AcDbSymbolTableRecord
100
AcDbLayerTableRecord
  2
SUNPOU
 70
     0
 62
    70
  6
CONTINUOUS
370
    -3
390
57
  0
ENDTAB
  0
TABLE
  2
STYLE
  5
B
330
0
100
AcDbSymbolTable
 70
     3
  0
STYLE
  5
C
330
B
100
AcDbSymbolTableRecord
100
AcDbTextStyleTableRecord
  2
STANDARD
 70
     0
 40
0.0
 41
1.0
 50
0.0
 71
     0
 42
0.2
  3
txt
  4

  0
STYLE
  5
1C
330
B
100
AcDbSymbolTableRecord
100
AcDbTextStyleTableRecord
  2
SUNPOU
 70
     0
 40
0.0
 41
1.0
 50
0.0
 71
     0
 42
30.0
  3
txt
  4
bigfont
  0
STYLE
  5
1AD
330
B
100
AcDbSymbolTableRecord
100
AcDbTextStyleTableRecord
  2
LIFE
 70
     0
 40
0.0
 41
0.7
 50
0.0
 71
     0
 42
10.0
  3
romans
  4
extfont
  0
ENDTAB
  0
TABLE
  2
VIEW
  5
10
330
0
100
AcDbSymbolTable
 70
     0
  0
ENDTAB
  0
TABLE
  2
UCS
  5
11
330
0
100
AcDbSymbolTable
 70
     0
  0
ENDTAB
  0
TABLE
  2
APPID
  5
14
330
0
100
AcDbSymbolTable
 70
     2
  0
APPID
  5
15
330
14
100
AcDbSymbolTableRecord
100
AcDbRegAppTableRecord
  2
ACAD
 70
     0
  0
APPID
  5
59F8
330
14
100
AcDbSymbolTableRecord
100
AcDbRegAppTableRecord
  2
ACAD_EXEMPT_FROM_CAD_STANDARDS
 70
     0
  0
ENDTAB
  0
TABLE
  2
DIMSTYLE
  5
16
330
0
100
AcDbSymbolTable
 70
     3
100
AcDbDimStyleTable
 71
     1
340
1E
  0
DIMSTYLE
105
1E
330
16
100
AcDbSymbolTableRecord
100
AcDbDimStyleTableRecord
  2
STANDARD
 70
     0
340
C
  0
DIMSTYLE
105
1AE
102
{ACAD_REACTORS
330
5933
330
5940
330
594D
330
596D
330
599F
330
59B7
102
}
330
16
100
AcDbSymbolTableRecord
100
AcDbDimStyleTableRecord
  2
STANDARD$0
 70
     0
 40
2.0
 41
1.0
 42
2.0
 43
0.0
 44
1.0
 73
     0
 74
     0
 77
     3
 78
     9
140
4.5
141
0.0
147
1.0
172
     1
173
     1
178
     3
271
     2
340
1AD
341
109
343
109
344
109
  0
ENDTAB
  0
TABLE
  2
BLOCK_RECORD
  5
1
330
0
100
AcDbSymbolTable
 70
    29
  0
BLOCK_RECORD
  5
2
330
1
100
AcDbSymbolTableRecord
100
AcDbBlockTableRecord
  2
*MODEL_SPACE
340
5A
  0
BLOCK_RECORD
  5
7
330
1
100
AcDbSymbolTableRecord
100
AcDbBlockTableRecord
  2
*PAPER_SPACE
340
5B
  0
BLOCK_RECORD
  5
109
330
1
100
AcDbSymbolTableRecord
100
AcDbBlockTableRecord
  2
_Dot
340
0
102
{BLKREFS
331
4F61
331
4F62
331
4F6F
331
4F70
331
4F7C
331
4F7D
331
4F8A
331
4F8B
331
4F98
331
4F99
331
4FA5
331
4FA6
331
4FC7
331
4FC8
331
4FBB
331
4FBC
331
508E
331
508F
331
5097
331
5098
331
546E
331
546F
331
5479
331
547A
331
5490
331
5491
331
549D
331
549E
331
54AA
331
54AB
331
54C5
331
54C6
331
54B9
331
54BA
331
5586
331
5587
331
558F
331
5590
331
5938
331
5939
331
5945
331
5946
331
5952
331
5953
331
5A0D
331
5A0E
331
5A16
331
5A17
331
5A1F
331
5A20
102
}
  0
BLOCK_RECORD
  5
5934
330
1
100
AcDbSymbolTableRecord
100
AcDbBlockTableRecord
  2
*D21
340
0
  0
BLOCK_RECORD
  5
5941
330
1
100
AcDbSymbolTableRecord
100
AcDbBlockTableRecord
  2
*D22
340
0
  0
BLOCK_RECORD
  5
594E
330
1
100
AcDbSymbolTableRecord
100
AcDbBlockTableRecord
  2
*D23
340
0
  0
BLOCK_RECORD
  5
596E
330
1
100
AcDbSymbolTableRecord
100
AcDbBlockTableRecord
  2
*D25
340
0
  0
BLOCK_RECORD
  5
59A0
330
1
100
AcDbSymbolTableRecord
100
AcDbBlockTableRecord
  2
*D26
340
0
  0
BLOCK_RECORD
  5
59B8
330
1
100
AcDbSymbolTableRecord
100
AcDbBlockTableRecord
  2
*D27
340
0
  0
ENDTAB
  0
ENDSEC
  0
SECTION
  2
BLOCKS
  0
BLOCK
  5
3
330
2
100
AcDbEntity
  8
0
100
AcDbBlockBegin
  2
*MODEL_SPACE
 70
     0
 10
0.0
 20
0.0
 30
0.0
  3
*MODEL_SPACE
  1

  0
ENDBLK
  5
6
330
2
100
AcDbEntity
  8
0
100
AcDbBlockEnd
  0
BLOCK
  5
8
330
7
100
AcDbEntity
 67
     1
  8
0
100
AcDbBlockBegin
  2
*PAPER_SPACE
 70
     0
 10
0.0
 20
0.0
 30
0.0
  3
*PAPER_SPACE
  1

  0
ENDBLK
  5
9
330
7
100
AcDbEntity
 67
     1
  8
0
100
AcDbBlockEnd
  0
BLOCK
  5
10C
330
109
100
AcDbEntity
  8
0
100
AcDbBlockBegin
  2
_Dot
 70
     0
 10
0.0
 20
0.0
 30
0.0
  3
_Dot
  1

  0
LWPOLYLINE
  5
10A
330
109
100
AcDbEntity
  8
0
  6
ByBlock
 62
     0
100
AcDbPolyline
 90
        2
 70
     1
 43
0.5
 10
-0.25
 20
0.0
 42
1.0
 10
0.25
 20
0.0
 42
1.0
  0
LINE
  5
10B
330
109
100
AcDbEntity
  8
0
  6
ByBlock
 62
     0
370
    -2
100
AcDbLine
 10
-0.5
 20
0.0
 30
0.0
 11
-1.0
 21
0.0
 31
0.0
  0
ENDBLK
  5
10D
330
109
100
AcDbEntity
  8
0
100
AcDbBlockEnd
  0
BLOCK
  5
593E
330
5934
100
AcDbEntity
  8
0
100
AcDbBlockBegin
  2
*D21
 70
     1
 10
0.0
 20
0.0
 30
0.0
  3
*D21
  1

  0
LINE
  5
5935
330
5934
100
AcDbEntity
  8
SUNPOU
 62
    70
370
    -2
100
AcDbLine
 10
296.1585935684901
 20
1422.269895732006
 30
0.0
 11
296.1585935684901
 21
1480.774038928284
 31
0.0
  0
LINE
  5
5936
330
5934
100
AcDbEntity
  8
SUNPOU
 62
    70
370
    -2
100
AcDbLine
 10
386.1585935684901
 20
1422.269895732006
 30
0.0
 11
386.1585935684901
 21
1480.774038928284
 31
0.0
  0
LINE
  5
5937
330
5934
100
AcDbEntity
  8
SUNPOU
 62
    60
370
    -2
100
AcDbLine
 10
302.1585935684901
 20
1480.774038928284
 30
0.0
 11
380.1585935684901
 21
1480.774038928284
 31
0.0
  0
INSERT
  5
5938
330
5934
100
AcDbEntity
  8
SUNPOU
 62
    60
370
    -2
100
AcDbBlockReference
  2
_Dot
 10
296.1585935684901
 20
1480.774038928284
 30
0.0
 41
6.0
 42
6.0
 43
6.0
 50
180.0
  0
INSERT
  5
5939
330
5934
100
AcDbEntity
  8
SUNPOU
 62
    60
370
    -2
100
AcDbBlockReference
  2
_Dot
 10
386.1585935684901
 20
1480.774038928284
 30
0.0
 41
6.0
 42
6.0
 43
6.0
  0
MTEXT
  5
593A
330
5934
100
AcDbEntity
  8
SUNPOU
 62
    60
100
AcDbMText
 10
341.1585935684901
 20
1500.774038928284
 30
0.0
 40
20.0
 41
0.0
 71
     5
 72
     1
  1
\A1;90
  7
SUNPOU
 73
     1
 44
1.0
1001
ACAD
1000
MTEXTBEGIN
1070
    73
1070
     1
1070
    44
1040
1.0
1070
    74
1070
     0
1000
MTEXTEND
  0
POINT
  5
593B
330
5934
100
AcDbEntity
  8
DEFPOINTS
 62
     0
100
AcDbPoint
 10
296.1585935684901
 20
1416.269895732007
 30
0.0
  0
POINT
  5
593C
330
5934
100
AcDbEntity
  8
DEFPOINTS
 62
     0
100
AcDbPoint
 10
386.1585935684901
 20
1416.269895732007
 30
0.0
  0
POINT
  5
593D
330
5934
100
AcDbEntity
  8
DEFPOINTS
 62
     0
100
AcDbPoint
 10
386.1585935684901
 20
1480.774038928284
 30
0.0
  0
ENDBLK
  5
593F
330
5934
100
AcDbEntity
  8
0
100
AcDbBlockEnd
  0
BLOCK
  5
594B
330
5941
100
AcDbEntity
  8
0
100
AcDbBlockBegin
  2
*D22
 70
     1
 10
0.0
 20
0.0
 30
0.0
  3
*D22
  1

  0
LINE
  5
5942
330
5941
100
AcDbEntity
  8
SUNPOU
 62
    70
370
    -2
100
AcDbLine
 10
296.1585935684901
 20
314.2698957320066
 30
0.0
 11
296.1585935684901
 21
213.5583445651973
 31
0.0
  0
LINE
  5
5943
330
5941
100
AcDbEntity
  8
SUNPOU
 62
    70
370
    -2
100
AcDbLine
 10
386.15859356849
 20
314.2698957320066
 30
0.0
 11
386.15859356849
 21
213.5583445651973
 31
0.0
  0
LINE
  5
5944
330
5941
100
AcDbEntity
  8
SUNPOU
 62
    60
370
    -2
100
AcDbLine
 10
302.1585935684901
 20
213.5583445651973
 30
0.0
 11
380.1585935684901
 21
213.5583445651973
 31
0.0
  0
INSERT
  5
5945
330
5941
100
AcDbEntity
  8
SUNPOU
 62
    60
370
    -2
100
AcDbBlockReference
  2
_Dot
 10
296.1585935684901
 20
213.5583445651973
 30
0.0
 41
6.0
 42
6.0
 43
6.0
 50
180.0
  0
INSERT
  5
5946
330
5941
100
AcDbEntity
  8
SUNPOU
 62
    60
370
    -2
100
AcDbBlockReference
  2
_Dot
 10
386.15859356849
 20
213.5583445651973
 30
0.0
 41
6.0
 42
6.0
 43
6.0
  0
MTEXT
  5
5947
330
5941
100
AcDbEntity
  8
SUNPOU
 62
    60
100
AcDbMText
 10
341.1585935684901
 20
233.5583445651973
 30
0.0
 40
20.0
 41
0.0
 71
     5
 72
     1
  1
\A1;90
  7
SUNPOU
 73
     1
 44
1.0
1001
ACAD
1000
MTEXTBEGIN
1070
    73
1070
     1
1070
    44
1040
1.0
1070
    74
1070
     0
1000
MTEXTEND
  0
POINT
  5
5948
330
5941
100
AcDbEntity
  8
DEFPOINTS
 62
     0
100
AcDbPoint
 10
296.1585935684901
 20
320.2698957320067
 30
0.0
  0
POINT
  5
5949
330
5941
100
AcDbEntity
  8
DEFPOINTS
 62
     0
100
AcDbPoint
 10
386.15859356849
 20
320.2698957320066
 30
0.0
  0
POINT
  5
594A
330
5941
100
AcDbEntity
  8
DEFPOINTS
 62
     0
100
AcDbPoint
 10
386.15859356849
 20
213.5583445651973
 30
0.0
  0
ENDBLK
  5
594C
330
5941
100
AcDbEntity
  8
0
100
AcDbBlockEnd
  0
BLOCK
  5
5958
330
594E
100
AcDbEntity
  8
0
100
AcDbBlockBegin
  2
*D23
 70
     1
 10
0.0
 20
0.0
 30
0.0
  3
*D23
  1

  0
LINE
  5
594F
330
594E
100
AcDbEntity
  8
SUNPOU
 62
    70
370
    -2
100
AcDbLine
 10
292.1585935684901
 20
318.2698957320067
 30
0.0
 11
69.85448741342385
 21
318.2698957320067
 31
0.0
  0
LINE
  5
5950
330
594E
100
AcDbEntity
  8
SUNPOU
 62
    70
370
    -2
100
AcDbLine
 10
292.15859356849
 20
1418.269895732007
 30
0.0
 11
69.85448741342409
 21
1418.269895732007
 31
0.0
  0
LINE
  5
5951
330
594E
100
AcDbEntity
  8
SUNPOU
 62
    60
370
    -2
100
AcDbLine
 10
69.85448741342387
 20
324.2698957320067
 30
0.0
 11
69.85448741342411
 21
1412.269895732007
 31
0.0
  0
INSERT
  5
5952
330
594E
100
AcDbEntity
  8
SUNPOU
 62
    60
370
    -2
100
AcDbBlockReference
  2
_Dot
 10
69.85448741342387
 20
318.2698957320067
 30
0.0
 41
6.0
 42
6.0
 43
6.0
 50
270.0
  0
INSERT
  5
5953
330
594E
100
AcDbEntity
  8
SUNPOU
 62
    60
370
    -2
100
AcDbBlockReference
  2
_Dot
 10
69.85448741342411
 20
1418.269895732007
 30
0.0
 41
6.0
 42
6.0
 43
6.0
 50
90.0
  0
MTEXT
  5
5954
330
594E
100
AcDbEntity
  8
SUNPOU
 62
    60
100
AcDbMText
 10
49.85448741342384
 20
868.2698957320067
 30
0.0
 40
20.0
 41
0.0
 71
     5
 72
     1
  1
\A1;1100
  7
SUNPOU
 11
0.0000000000000001
 21
1.0
 31
0.0
 73
     1
 44
1.0
1001
ACAD
1000
MTEXTBEGIN
1070
    73
1070
     1
1070
    44
1040
1.0
1070
    74
1070
     0
1000
MTEXTEND
  0
POINT
  5
5955
330
594E
100
AcDbEntity
  8
DEFPOINTS
 62
     0
100
AcDbPoint
 10
298.1585935684901
 20
318.2698957320067
 30
0.0
  0
POINT
  5
5956
330
594E
100
AcDbEntity
  8
DEFPOINTS
 62
     0
100
AcDbPoint
 10
298.1585935684901
 20
1418.269895732007
 30
0.0
  0
POINT
  5
5957
330
594E
100
AcDbEntity
  8
DEFPOINTS
 62
     0
100
AcDbPoint
 10
69.85448741342411
 20
1418.269895732007
 30
0.0
  0
ENDBLK
  5
5959
330
594E
100
AcDbEntity
  8
0
100
AcDbBlockEnd
  0
BLOCK
  5
5978
330
596E
100
AcDbEntity
  8
0
100
AcDbBlockBegin
  2
*D25
 70
     1
 10
0.0
 20
0.0
 30
0.0
  3
*D25
  1

  0
LINE
  5
5A13
330
596E
100
AcDbEntity
  8
SUNPOU
 62
    70
370
    -2
100
AcDbLine
 10
292.1585935684903
 20
1283.269895732007
 30
0.0
 11
177.3834453508835
 21
1283.269895732007
 31
0.0
  0
LINE
  5
5A14
330
596E
100
AcDbEntity
  8
SUNPOU
 62
    70
370
    -2
100
AcDbLine
 10
292.15859356849
 20
1418.269895732007
 30
0.0
 11
177.3834453508835
 21
1418.269895732007
 31
0.0
  0
LINE
  5
5A15
330
596E
100
AcDbEntity
  8
SUNPOU
 62
    60
370
    -2
100
AcDbLine
 10
177.3834453508835
 20
1289.269895732007
 30
0.0
 11
177.3834453508835
 21
1412.269895732007
 31
0.0
  0
INSERT
  5
5A16
330
596E
100
AcDbEntity
  8
SUNPOU
 62
    60
370
    -2
100
AcDbBlockReference
  2
_Dot
 10
177.3834453508835
 20
1283.269895732007
 30
0.0
 41
6.0
 42
6.0
 43
6.0
 50
270.0
  0
INSERT
  5
5A17
330
596E
100
AcDbEntity
  8
SUNPOU
 62
    60
370
    -2
100
AcDbBlockReference
  2
_Dot
 10
177.3834453508835
 20
1418.269895732007
 30
0.0
 41
6.0
 42
6.0
 43
6.0
 50
90.0
  0
MTEXT
  5
5A18
330
596E
100
AcDbEntity
  8
SUNPOU
 62
    60
100
AcDbMText
 10
157.3834453508833
 20
1350.769895732007
 30
0.0
 40
20.0
 41
0.0
 71
     5
 72
     1
  1
\A1;135
  7
SUNPOU
 11
0.0000000000000001
 21
1.0
 31
0.0
 73
     1
 44
1.0
1001
ACAD
1000
MTEXTBEGIN
1070
    73
1070
     1
1070
    44
1040
1.0
1070
    74
1070
     0
1000
MTEXTEND
  0
POINT
  5
5A19
330
596E
100
AcDbEntity
  8
DEFPOINTS
 62
     0
100
AcDbPoint
 10
298.1585935684903
 20
1283.269895732007
 30
0.0
  0
POINT
  5
5A1A
330
596E
100
AcDbEntity
  8
DEFPOINTS
 62
     0
100
AcDbPoint
 10
298.1585935684901
 20
1418.269895732007
 30
0.0
  0
POINT
  5
5A1B
330
596E
100
AcDbEntity
  8
DEFPOINTS
 62
     0
100
AcDbPoint
 10
177.3834453508835
 20
1418.269895732007
 30
0.0
  0
ENDBLK
  5
5979
330
596E
100
AcDbEntity
  8
0
100
AcDbBlockEnd
  0
BLOCK
  5
59AB
330
59A0
100
AcDbEntity
  8
0
100
AcDbBlockBegin
  2
*D26
 70
     1
 10
0.0
 20
0.0
 30
0.0
  3
*D26
  1

  0
LINE
  5
5A0A
330
59A0
100
AcDbEntity
  8
SUNPOU
 62
    70
370
    -2
100
AcDbLine
 10
292.1585935684902
 20
683.2698957320066
 30
0.0
 11
177.3834453508834
 21
683.2698957320067
 31
0.0
  0
LINE
  5
5A0B
330
59A0
100
AcDbEntity
  8
SUNPOU
 62
    70
370
    -2
100
AcDbLine
 10
292.1585935684903
 20
1283.269895732007
 30
0.0
 11
177.3834453508836
 21
1283.269895732007
 31
0.0
  0
LINE
  5
5A0C
330
59A0
100
AcDbEntity
  8
SUNPOU
 62
    60
370
    -2
100
AcDbLine
 10
177.3834453508834
 20
689.2698957320066
 30
0.0
 11
177.3834453508836
 21
1277.269895732006
 31
0.0
  0
INSERT
  5
5A0D
330
59A0
100
AcDbEntity
  8
SUNPOU
 62
    60
370
    -2
100
AcDbBlockReference
  2
_Dot
 10
177.3834453508834
 20
683.2698957320067
 30
0.0
 41
6.0
 42
6.0
 43
6.0
 50
270.0
  0
INSERT
  5
5A0E
330
59A0
100
AcDbEntity
  8
SUNPOU
 62
    60
370
    -2
100
AcDbBlockReference
  2
_Dot
 10
177.3834453508836
 20
1283.269895732007
 30
0.0
 41
6.0
 42
6.0
 43
6.0
 50
90.0
  0
MTEXT
  5
5A0F
330
59A0
100
AcDbEntity
  8
SUNPOU
 62
    60
100
AcDbMText
 10
157.3834453508833
 20
983.2698957320067
 30
0.0
 40
20.0
 41
0.0
 71
     5
 72
     1
  1
\A1;600
  7
SUNPOU
 11
0.0000000000000001
 21
1.0
 31
0.0
 73
     1
 44
1.0
1001
ACAD
1000
MTEXTBEGIN
1070
    73
1070
     1
1070
    44
1040
1.0
1070
    74
1070
     0
1000
MTEXTEND
  0
POINT
  5
5A10
330
59A0
100
AcDbEntity
  8
DEFPOINTS
 62
     0
100
AcDbPoint
 10
298.1585935684902
 20
683.2698957320066
 30
0.0
  0
POINT
  5
5A11
330
59A0
100
AcDbEntity
  8
DEFPOINTS
 62
     0
100
AcDbPoint
 10
298.1585935684903
 20
1283.269895732007
 30
0.0
  0
POINT
  5
5A12
330
59A0
100
AcDbEntity
  8
DEFPOINTS
 62
     0
100
AcDbPoint
 10
177.3834453508836
 20
1283.269895732007
 30
0.0
  0
ENDBLK
  5
59AC
330
59A0
100
AcDbEntity
  8
0
100
AcDbBlockEnd
  0
BLOCK
  5
59C3
330
59B8
100
AcDbEntity
  8
0
100
AcDbBlockBegin
  2
*D27
 70
     1
 10
0.0
 20
0.0
 30
0.0
  3
*D27
  1

  0
LINE
  5
5A1C
330
59B8
100
AcDbEntity
  8
SUNPOU
 62
    70
370
    -2
100
AcDbLine
 10
292.1585935684901
 20
318.2698957320067
 30
0.0
 11
177.3834453508834
 21
318.2698957320067
 31
0.0
  0
LINE
  5
5A1D
330
59B8
100
AcDbEntity
  8
SUNPOU
 62
    70
370
    -2
100
AcDbLine
 10
292.1585935684902
 20
683.2698957320066
 30
0.0
 11
177.3834453508835
 21
683.2698957320067
 31
0.0
  0
LINE
  5
5A1E
330
59B8
100
AcDbEntity
  8
SUNPOU
 62
    60
370
    -2
100
AcDbLine
 10
177.3834453508835
 20
324.2698957320067
 30
0.0
 11
177.3834453508835
 21
677.2698957320066
 31
0.0
  0
INSERT
  5
5A1F
330
59B8
100
AcDbEntity
  8
SUNPOU
 62
    60
370
    -2
100
AcDbBlockReference
  2
_Dot
 10
177.3834453508834
 20
318.2698957320067
 30
0.0
 41
6.0
 42
6.0
 43
6.0
 50
270.0
  0
INSERT
  5
5A20
330
59B8
100
AcDbEntity
  8
SUNPOU
 62
    60
370
    -2
100
AcDbBlockReference
  2
_Dot
 10
177.3834453508835
 20
683.2698957320067
 30
0.0
 41
6.0
 42
6.0
 43
6.0
 50
90.0
  0
MTEXT
  5
5A21
330
59B8
100
AcDbEntity
  8
SUNPOU
 62
    60
100
AcDbMText
 10
157.3834453508834
 20
500.7698957320067
 30
0.0
 40
20.0
 41
0.0
 71
     5
 72
     1
  1
\A1;365
  7
SUNPOU
 11
0.0000000000000001
 21
1.0
 31
0.0
 73
     1
 44
1.0
1001
ACAD
1000
MTEXTBEGIN
1070
    73
1070
     1
1070
    44
1040
1.0
1070
    74
1070
     0
1000
MTEXTEND
  0
POINT
  5
5A22
330
59B8
100
AcDbEntity
  8
DEFPOINTS
 62
     0
100
AcDbPoint
 10
298.1585935684901
 20
318.2698957320067
 30
0.0
  0
POINT
  5
5A23
330
59B8
100
AcDbEntity
  8
DEFPOINTS
 62
     0
100
AcDbPoint
 10
298.1585935684902
 20
683.2698957320066
 30
0.0
  0
POINT
  5
5A24
330
59B8
100
AcDbEntity
  8
DEFPOINTS
 62
     0
100
AcDbPoint
 10
177.3834453508835
 20
683.2698957320067
 30
0.0
  0
ENDBLK
  5
59C4
330
59B8
100
AcDbEntity
  8
0
100
AcDbBlockEnd
  0
ENDSEC
  0
SECTION
  2
ENTITIES
  0
LINE
  5
1F
330
2
100
AcDbEntity
  8
WAKU
100
AcDbLine
 10
0.0
 20
70.0
 30
0.0
 11
610.6489978526152
 21
70.0
 31
0.0
  0
LINE
  5
20
330
2
100
AcDbEntity
  8
WAKU
100
AcDbLine
 10
0.0
 20
0.0
 30
0.0
 11
610.6489978526152
 21
0.0
 31
0.0
  0
TEXT
  5
21
330
2
100
AcDbEntity
  8
HOJO
100
AcDbText
 10
48.26983000000012
 20
11.83313000000009
 30
0.0
 40
45.0
  1
D-2
  7
SUNPOU
100
AcDbText
  0
TEXT
  5
4A3
330
2
100
AcDbEntity
  8
HOJO
100
AcDbText
 10
225.60543919488
 20
20.97829970797568
 30
0.0
 40
35.0
  1
1100x90x90
  7
SUNPOU
100
AcDbText
  0
LINE
  5
5595
330
2
100
AcDbEntity
  8
KIJUN
100
AcDbLine
 10
320.9248265685977
 20
723.5748697319762
 30
0.0
 11
317.9775375685727
 21
724.7618117320638
 31
0.0
  0
LINE
  5
5596
330
2
100
AcDbEntity
  8
KIJUN
100
AcDbLine
 10
317.9775375685727
 20
724.7618117320638
 30
0.0
 11
315.3904205685117
 21
726.5558137319571
 31
0.0
  0
LINE
  5
5597
330
2
100
AcDbEntity
  8
KIJUN
100
AcDbLine
 10
315.3904205685117
 20
726.5558137319571
 30
0.0
 11
312.8213375685457
 21
728.5133917320093
 31
0.0
  0
LINE
  5
5598
330
2
100
AcDbEntity
  8
KIJUN
100
AcDbLine
 10
312.8213375685457
 20
728.5133917320093
 30
0.0
 11
310.6241105685568
 21
730.3579397320249
 31
0.0
  0
LINE
  5
5599
330
2
100
AcDbEntity
  8
KIJUN
100
AcDbLine
 10
310.6241105685568
 20
730.3579397320249
 30
0.0
 11
308.7512415684187
 21
732.6227307320191
 31
0.0
  0
LINE
  5
559A
330
2
100
AcDbEntity
  8
KIJUN
100
AcDbLine
 10
308.7512415684187
 20
732.6227307320191
 30
0.0
 11
306.9863225685636
 21
735.4478457320333
 31
0.0
  0
LINE
  5
559B
330
2
100
AcDbEntity
  8
KIJUN
100
AcDbLine
 10
306.9863225685636
 20
735.4478457320333
 30
0.0
 11
303.9068265685949
 21
742.8024157319712
 31
0.0
  0
LINE
  5
559C
330
2
100
AcDbEntity
  8
KIJUN
100
AcDbLine
 10
303.9068265685949
 20
742.8024157319712
 30
0.0
 11
302.0433555684077
 21
751.3134477319729
 31
0.0
  0
LINE
  5
559D
330
2
100
AcDbEntity
  8
KIJUN
100
AcDbLine
 10
302.0433555684077
 20
751.3134477319729
 30
0.0
 11
302.0433555684077
 21
761.6098457320443
 31
0.0
  0
LINE
  5
559E
330
2
100
AcDbEntity
  8
KIJUN
100
AcDbLine
 10
302.0433555684077
 20
761.6098457320443
 30
0.0
 11
303.7449015685286
 21
772.0119077319727
 31
0.0
  0
LINE
  5
559F
330
2
100
AcDbEntity
  8
KIJUN
100
AcDbLine
 10
303.7449015685286
 20
772.0119077319727
 30
0.0
 11
304.8134795685196
 21
776.1249297319557
 31
0.0
  0
LINE
  5
55A0
330
2
100
AcDbEntity
  8
KIJUN
100
AcDbLine
 10
304.8134795685196
 20
776.1249297319557
 30
0.0
 11
306.5123585684358
 21
780.121492732022
 31
0.0
  0
LINE
  5
55A1
330
2
100
AcDbEntity
  8
KIJUN
100
AcDbLine
 10
306.5123585684358
 20
780.121492732022
 30
0.0
 11
308.7694025685646
 21
784.0949417319903
 31
0.0
  0
LINE
  5
55A2
330
2
100
AcDbEntity
  8
KIJUN
100
AcDbLine
 10
308.7694025685646
 20
784.0949417319903
 30
0.0
 11
316.5487875683985
 21
795.0218947319703
 31
0.0
  0
LINE
  5
55A3
330
2
100
AcDbEntity
  8
KIJUN
100
AcDbLine
 10
316.5487875683985
 20
795.0218947319703
 30
0.0
 11
317.7103295684447
 21
798.8433247319956
 31
0.0
  0
LINE
  5
55A4
330
2
100
AcDbEntity
  8
KIJUN
100
AcDbLine
 10
317.7103295684447
 20
798.8433247319956
 30
0.0
 11
318.4936655684308
 21
802.9681577320484
 31
0.0
  0
LINE
  5
55A5
330
2
100
AcDbEntity
  8
KIJUN
100
AcDbLine
 10
318.4936655684308
 20
802.9681577320484
 30
0.0
 11
318.7368705685167
 21
807.419888731991
 31
0.0
  0
LINE
  5
55A6
330
2
100
AcDbEntity
  8
KIJUN
100
AcDbLine
 10
318.7368705685167
 20
807.419888731991
 30
0.0
 11
317.6834055685627
 21
813.7239147320473
 31
0.0
  0
LINE
  5
55A7
330
2
100
AcDbEntity
  8
KIJUN
100
AcDbLine
 10
317.6834055685627
 20
813.7239147320473
 30
0.0
 11
315.0903195685617
 21
819.2928647320481
 31
0.0
  0
LINE
  5
55A8
330
2
100
AcDbEntity
  8
KIJUN
100
AcDbLine
 10
315.0903195685617
 20
819.2928647320481
 30
0.0
 11
311.4433875684639
 21
823.7058607320474
 31
0.0
  0
LINE
  5
55A9
330
2
100
AcDbEntity
  8
KIJUN
100
AcDbLine
 10
311.4433875684639
 20
823.7058607320474
 30
0.0
 11
308.2018395686258
 21
826.0173877320308
 31
0.0
  0
LINE
  5
55AA
330
2
100
AcDbEntity
  8
KIJUN
100
AcDbLine
 10
308.2018395686258
 20
826.0173877320308
 30
0.0
 11
372.0598525685428
 21
826.0173877320308
 31
0.0
  0
LINE
  5
55AB
330
2
100
AcDbEntity
  8
KIJUN
100
AcDbLine
 10
372.0598525685428
 20
826.0173877320308
 30
0.0
 11
367.5218885685038
 21
823.7058607320474
 31
0.0
  0
LINE
  5
55AC
330
2
100
AcDbEntity
  8
KIJUN
100
AcDbLine
 10
367.5218885685038
 20
823.7058607320474
 30
0.0
 11
363.9558555685447
 21
820.763905731987
 31
0.0
  0
LINE
  5
55AD
330
2
100
AcDbEntity
  8
KIJUN
100
AcDbLine
 10
363.9558555685447
 20
820.763905731987
 30
0.0
 11
361.0387925685949
 21
814.7748397320651
 31
0.0
  0
LINE
  5
55AE
330
2
100
AcDbEntity
  8
KIJUN
100
AcDbLine
 10
361.0387925685949
 20
814.7748397320651
 30
0.0
 11
360.3093045685838
 21
805.6338877320486
 31
0.0
  0
LINE
  5
55AF
330
2
100
AcDbEntity
  8
KIJUN
100
AcDbLine
 10
360.3093045685838
 20
805.6338877320486
 30
0.0
 11
360.9366845684429
 21
801.0223907320657
 31
0.0
  0
LINE
  5
55B0
330
2
100
AcDbEntity
  8
KIJUN
100
AcDbLine
 10
360.9366845684429
 20
801.0223907320657
 30
0.0
 11
362.4102655685506
 21
797.1815297320392
 31
0.0
  0
LINE
  5
55B1
330
2
100
AcDbEntity
  8
KIJUN
100
AcDbLine
 10
362.4102655685506
 20
797.1815297320392
 30
0.0
 11
364.1179075684207
 21
793.9713507319651
 31
0.0
  0
LINE
  5
55B2
330
2
100
AcDbEntity
  8
KIJUN
100
AcDbLine
 10
364.1179075684207
 20
793.9713507319651
 30
0.0
 11
370.6008765685268
 21
785.775913731963
 31
0.0
  0
LINE
  5
55B3
330
2
100
AcDbEntity
  8
KIJUN
100
AcDbLine
 10
370.6008765685268
 20
785.775913731963
 30
0.0
 11
373.1581485684226
 21
782.6666997319883
 31
0.0
  0
LINE
  5
55B4
330
2
100
AcDbEntity
  8
KIJUN
100
AcDbLine
 10
373.1581485684226
 20
782.6666997319883
 30
0.0
 11
375.2291375684088
 21
779.4640137320208
 31
0.0
  0
LINE
  5
55B5
330
2
100
AcDbEntity
  8
KIJUN
100
AcDbLine
 10
375.2291375684088
 20
779.4640137320208
 30
0.0
 11
376.9217935685247
 21
776.2143377319629
 31
0.0
  0
LINE
  5
55B6
330
2
100
AcDbEntity
  8
KIJUN
100
AcDbLine
 10
376.9217935685247
 20
776.2143377319629
 30
0.0
 11
378.3746735685578
 21
771.206219732045
 31
0.0
  0
LINE
  5
55B7
330
2
100
AcDbEntity
  8
KIJUN
100
AcDbLine
 10
378.3746735685578
 20
771.206219732045
 30
0.0
 11
379.6291795684167
 21
765.9879167320071
 31
0.0
  0
LINE
  5
55B8
330
2
100
AcDbEntity
  8
KIJUN
100
AcDbLine
 10
379.6291795684167
 20
765.9879167320071
 30
0.0
 11
380.1633415686027
 21
760.7693597319999
 31
0.0
  0
LINE
  5
55B9
330
2
100
AcDbEntity
  8
KIJUN
100
AcDbLine
 10
380.1633415686027
 20
760.7693597319999
 30
0.0
 11
380.1633415686027
 21
750.6828927319551
 31
0.0
  0
LINE
  5
55BA
330
2
100
AcDbEntity
  8
KIJUN
100
AcDbLine
 10
380.1633415686027
 20
750.6828927319551
 30
0.0
 11
378.1373105685867
 21
741.7518717319657
 31
0.0
  0
LINE
  5
55BB
330
2
100
AcDbEntity
  8
KIJUN
100
AcDbLine
 10
378.1373105685867
 20
741.7518717319657
 30
0.0
 11
374.8148635686244
 21
734.5024577320477
 31
0.0
  0
LINE
  5
55BC
330
2
100
AcDbEntity
  8
KIJUN
100
AcDbLine
 10
374.8148635686244
 20
734.5024577320477
 30
0.0
 11
368.9803565685807
 21
727.8828367320059
 31
0.0
  0
LINE
  5
55BD
330
2
100
AcDbEntity
  8
KIJUN
100
AcDbLine
 10
368.9803565685807
 20
727.8828367320059
 30
0.0
 11
366.5311615685437
 21
726.0499727320096
 31
0.0
  0
LINE
  5
55BE
330
2
100
AcDbEntity
  8
KIJUN
100
AcDbLine
 10
366.5311615685437
 20
726.0499727320096
 30
0.0
 11
363.7578625685067
 21
724.7075827319609
 31
0.0
  0
LINE
  5
55BF
330
2
100
AcDbEntity
  8
KIJUN
100
AcDbLine
 10
363.7578625685067
 20
724.7075827319609
 30
0.0
 11
360.7143075684667
 21
723.7854357319996
 31
0.0
  0
LINE
  5
55C0
330
2
100
AcDbEntity
  8
KIJUN
100
AcDbLine
 10
360.7143075684667
 20
723.7854357319996
 30
0.0
 11
347.4273135686035
 21
723.754193732046
 31
0.0
  0
LINE
  5
55C1
330
2
100
AcDbEntity
  8
KIJUN
100
AcDbLine
 10
347.4273135686035
 20
723.754193732046
 30
0.0
 11
334.1582265685659
 21
723.6760887320526
 31
0.0
  0
LINE
  5
55C2
330
2
100
AcDbEntity
  8
KIJUN
100
AcDbLine
 10
334.1582265685659
 20
723.6760887320526
 30
0.0
 11
320.9248265685977
 21
723.5748697319762
 31
0.0
  0
LINE
  5
55C3
330
2
100
AcDbEntity
  8
KIJUN
100
AcDbLine
 10
307.5957955685897
 20
694.3188957320566
 30
0.0
 11
376.8833125684408
 21
694.3188957320566
 31
0.0
  0
LINE
  5
55C4
330
2
100
AcDbEntity
  8
KIJUN
100
AcDbLine
 10
376.8833125684408
 20
694.3188957320566
 30
0.0
 11
378.7610075685898
 21
693.5863597320608
 31
0.0
  0
LINE
  5
55C5
330
2
100
AcDbEntity
  8
KIJUN
100
AcDbLine
 10
378.7610075685898
 20
693.5863597320608
 30
0.0
 11
380.1000955684445
 21
691.6656117320057
 31
0.0
  0
LINE
  5
55C6
330
2
100
AcDbEntity
  8
KIJUN
100
AcDbLine
 10
380.1000955684445
 20
691.6656117320057
 30
0.0
 11
380.6108895685698
 21
688.9724497319662
 31
0.0
  0
LINE
  5
55C7
330
2
100
AcDbEntity
  8
KIJUN
100
AcDbLine
 10
380.6108895685698
 20
688.9724497319662
 30
0.0
 11
380.6108895685698
 21
688.8563717320543
 31
0.0
  0
LINE
  5
55C8
330
2
100
AcDbEntity
  8
KIJUN
100
AcDbLine
 10
380.6108895685698
 20
688.8563717320543
 30
0.0
 11
380.1000955684445
 21
686.1632097320002
 31
0.0
  0
LINE
  5
55C9
330
2
100
AcDbEntity
  8
KIJUN
100
AcDbLine
 10
380.1000955684445
 20
686.1632097320002
 30
0.0
 11
378.7610075685898
 21
684.2424617320614
 31
0.0
  0
LINE
  5
55CA
330
2
100
AcDbEntity
  8
KIJUN
100
AcDbLine
 10
378.7610075685898
 20
684.2424617320614
 30
0.0
 11
376.8833125684408
 21
683.5099257320584
 31
0.0
  0
LINE
  5
55CB
330
2
100
AcDbEntity
  8
KIJUN
100
AcDbLine
 10
376.8833125684408
 20
683.5099257320584
 30
0.0
 11
307.5957955685897
 21
683.5099257320584
 31
0.0
  0
LINE
  5
55CC
330
2
100
AcDbEntity
  8
KIJUN
100
AcDbLine
 10
307.5957955685897
 20
683.5099257320584
 30
0.0
 11
305.7181005684407
 21
684.2424617320614
 31
0.0
  0
LINE
  5
55CD
330
2
100
AcDbEntity
  8
KIJUN
100
AcDbLine
 10
305.7181005684407
 20
684.2424617320614
 30
0.0
 11
304.3790125685858
 21
686.1632097320002
 31
0.0
  0
LINE
  5
55CE
330
2
100
AcDbEntity
  8
KIJUN
100
AcDbLine
 10
304.3790125685858
 20
686.1632097320002
 30
0.0
 11
303.8683455685037
 21
688.8563717320543
 31
0.0
  0
LINE
  5
55CF
330
2
100
AcDbEntity
  8
KIJUN
100
AcDbLine
 10
303.8683455685037
 20
688.8563717320543
 30
0.0
 11
303.8683455685037
 21
688.9724497319662
 31
0.0
  0
LINE
  5
55D0
330
2
100
AcDbEntity
  8
KIJUN
100
AcDbLine
 10
303.8683455685037
 20
688.9724497319662
 30
0.0
 11
304.3790125685858
 21
691.6656117320057
 31
0.0
  0
LINE
  5
55D1
330
2
100
AcDbEntity
  8
KIJUN
100
AcDbLine
 10
304.3790125685858
 20
691.6656117320057
 30
0.0
 11
305.7181005684407
 21
693.5863597320608
 31
0.0
  0
LINE
  5
55D2
330
2
100
AcDbEntity
  8
KIJUN
100
AcDbLine
 10
305.7181005684407
 20
693.5863597320608
 30
0.0
 11
307.5957955685897
 21
694.3188957320566
 31
0.0
  0
LINE
  5
55D3
330
2
100
AcDbEntity
  8
KIJUN
100
AcDbLine
 10
307.5513455685587
 20
697.4938957320087
 30
0.0
 11
376.9193805684056
 21
697.4938957320087
 31
0.0
  0
LINE
  5
55D4
330
2
100
AcDbEntity
  8
KIJUN
100
AcDbLine
 10
376.9193805684056
 20
697.4938957320087
 30
0.0
 11
376.9193805684056
 21
693.890905732009
 31
0.0
  0
LINE
  5
55D5
330
2
100
AcDbEntity
  8
KIJUN
100
AcDbLine
 10
376.9193805684056
 20
693.890905732009
 30
0.0
 11
307.5513455685587
 21
693.890905732009
 31
0.0
  0
LINE
  5
55D6
330
2
100
AcDbEntity
  8
KIJUN
100
AcDbLine
 10
307.5513455685587
 20
693.890905732009
 30
0.0
 11
307.5513455685587
 21
697.4938957320087
 31
0.0
  0
LINE
  5
55D7
330
2
100
AcDbEntity
  8
KIJUN
100
AcDbLine
 10
320.0553845685659
 20
720.6298667320338
 30
0.0
 11
328.6123905685398
 21
720.6843497319973
 31
0.0
  0
LINE
  5
55D8
330
2
100
AcDbEntity
  8
KIJUN
100
AcDbLine
 10
328.6123905685398
 20
720.6843497319973
 30
0.0
 11
334.4861405684588
 21
720.657171732037
 31
0.0
  0
LINE
  5
55D9
330
2
100
AcDbEntity
  8
KIJUN
100
AcDbLine
 10
334.4861405684588
 20
720.657171732037
 30
0.0
 11
342.9887905685049
 21
720.6298667320338
 31
0.0
  0
LINE
  5
55DA
330
2
100
AcDbEntity
  8
KIJUN
100
AcDbLine
 10
342.9887905685049
 20
720.6298667320338
 30
0.0
 11
350.2822735685636
 21
720.657171732037
 31
0.0
  0
LINE
  5
55DB
330
2
100
AcDbEntity
  8
KIJUN
100
AcDbLine
 10
350.2822735685636
 20
720.657171732037
 30
0.0
 11
353.7399755685858
 21
720.6843497319973
 31
0.0
  0
LINE
  5
55DC
330
2
100
AcDbEntity
  8
KIJUN
100
AcDbLine
 10
353.7399755685858
 20
720.6843497319973
 30
0.0
 11
360.9793565685698
 21
720.6298667320338
 31
0.0
  0
LINE
  5
55DD
330
2
100
AcDbEntity
  8
KIJUN
100
AcDbLine
 10
360.9793565685698
 20
720.6298667320338
 30
0.0
 11
355.8260775685936
 21
715.9339147319956
 31
0.0
  0
LINE
  5
55DE
330
2
100
AcDbEntity
  8
KIJUN
100
AcDbLine
 10
355.8260775685936
 20
715.9339147319956
 30
0.0
 11
354.6524705683999
 21
707.678533732029
 31
0.0
  0
LINE
  5
55DF
330
2
100
AcDbEntity
  8
KIJUN
100
AcDbLine
 10
354.6524705683999
 20
707.678533732029
 30
0.0
 11
357.9808865685496
 21
700.9448667320652
 31
0.0
  0
LINE
  5
55E0
330
2
100
AcDbEntity
  8
KIJUN
100
AcDbLine
 10
357.9808865685496
 20
700.9448667320652
 30
0.0
 11
361.9938325684937
 21
699.3959747319935
 31
0.0
  0
LINE
  5
55E1
330
2
100
AcDbEntity
  8
KIJUN
100
AcDbLine
 10
361.9938325684937
 20
699.3959747319935
 30
0.0
 11
369.3383695685057
 21
697.8470827320311
 31
0.0
  0
LINE
  5
55E2
330
2
100
AcDbEntity
  8
KIJUN
100
AcDbLine
 10
369.3383695685057
 20
697.8470827320311
 30
0.0
 11
377.8353045684578
 21
697.2763447320581
 31
0.0
  0
LINE
  5
55E3
330
2
100
AcDbEntity
  8
KIJUN
100
AcDbLine
 10
377.8353045684578
 20
697.2763447320581
 30
0.0
 11
365.9766795684128
 21
697.2856157319585
 31
0.0
  0
LINE
  5
55E4
330
2
100
AcDbEntity
  8
KIJUN
100
AcDbLine
 10
365.9766795684128
 20
697.2856157319585
 30
0.0
 11
353.9020275684607
 21
697.4303957319976
 31
0.0
  0
LINE
  5
55E5
330
2
100
AcDbEntity
  8
KIJUN
100
AcDbLine
 10
353.9020275684607
 20
697.4303957319976
 30
0.0
 11
342.0973775684339
 21
697.5209467320495
 31
0.0
  0
LINE
  5
55E6
330
2
100
AcDbEntity
  8
KIJUN
100
AcDbLine
 10
342.0973775684339
 20
697.5209467320495
 30
0.0
 11
330.5121835685507
 21
697.5209467320495
 31
0.0
  0
LINE
  5
55E7
330
2
100
AcDbEntity
  8
KIJUN
100
AcDbLine
 10
330.5121835685507
 20
697.5209467320495
 30
0.0
 11
318.9447695684367
 21
697.5209467320495
 31
0.0
  0
LINE
  5
55E8
330
2
100
AcDbEntity
  8
KIJUN
100
AcDbLine
 10
318.9447695684367
 20
697.5209467320495
 30
0.0
 11
307.4132965684926
 21
697.5209467320495
 31
0.0
  0
LINE
  5
55E9
330
2
100
AcDbEntity
  8
KIJUN
100
AcDbLine
 10
307.4132965684926
 20
697.5209467320495
 30
0.0
 11
314.2356095684387
 21
697.71131973204
 31
0.0
  0
LINE
  5
55EA
330
2
100
AcDbEntity
  8
KIJUN
100
AcDbLine
 10
314.2356095684387
 20
697.71131973204
 30
0.0
 11
320.8236075685286
 21
699.1241947320344
 31
0.0
  0
LINE
  5
55EB
330
2
100
AcDbEntity
  8
KIJUN
100
AcDbLine
 10
320.8236075685286
 20
699.1241947320344
 30
0.0
 11
325.8088655684417
 21
703.3898707319569
 31
0.0
  0
LINE
  5
55EC
330
2
100
AcDbEntity
  8
KIJUN
100
AcDbLine
 10
325.8088655684417
 20
703.3898707319569
 30
0.0
 11
326.7844795686047
 21
709.4355787319987
 31
0.0
  0
LINE
  5
55ED
330
2
100
AcDbEntity
  8
KIJUN
100
AcDbLine
 10
326.7844795686047
 20
709.4355787319987
 30
0.0
 11
324.8067085685268
 21
716.5408477319765
 31
0.0
  0
LINE
  5
55EE
330
2
100
AcDbEntity
  8
KIJUN
100
AcDbLine
 10
324.8067085685268
 20
716.5408477319765
 30
0.0
 11
320.0553845685659
 21
720.6298667320338
 31
0.0
  0
LINE
  5
55EF
330
2
100
AcDbEntity
  8
KIJUN
100
AcDbLine
 10
319.3623455684297
 20
723.6558957320343
 30
0.0
 11
360.6897965684926
 21
723.6558957320343
 31
0.0
  0
LINE
  5
55F0
330
2
100
AcDbEntity
  8
KIJUN
100
AcDbLine
 10
360.6897965684926
 20
723.6558957320343
 30
0.0
 11
360.6897965684926
 21
720.517852731999
 31
0.0
  0
LINE
  5
55F1
330
2
100
AcDbEntity
  8
KIJUN
100
AcDbLine
 10
360.6897965684926
 20
720.517852731999
 30
0.0
 11
319.3623455684297
 21
720.517852731999
 31
0.0
  0
LINE
  5
55F2
330
2
100
AcDbEntity
  8
KIJUN
100
AcDbLine
 10
319.3623455684297
 20
720.517852731999
 30
0.0
 11
319.3623455684297
 21
723.6558957320343
 31
0.0
  0
LINE
  5
55F3
330
2
100
AcDbEntity
  8
KIJUN
100
AcDbLine
 10
298.1585935684902
 20
683.2698957320066
 30
0.0
 11
384.1585935684901
 21
683.2698957320067
 31
0.0
  0
LINE
  5
560B
330
2
100
AcDbEntity
  8
KIJUN
100
AcDbLine
 10
384.1585935684901
 20
1283.269895732006
 30
0.0
 11
298.1585935684903
 21
1283.269895732007
 31
0.0
  0
LINE
  5
5623
330
2
100
AcDbEntity
  8
KIJUN
100
AcDbLine
 10
339.5553455686109
 20
1225.051895731954
 30
0.0
 11
340.5373095686237
 21
1226.058370732057
 31
0.0
  0
LINE
  5
5624
330
2
100
AcDbEntity
  8
KIJUN
100
AcDbLine
 10
340.5373095686237
 20
1226.058370732057
 30
0.0
 11
341.6926285684038
 21
1226.961721732015
 31
0.0
  0
LINE
  5
5625
330
2
100
AcDbEntity
  8
KIJUN
100
AcDbLine
 10
341.6926285684038
 20
1226.961721732015
 30
0.0
 11
343.0997885684358
 21
1227.606881732008
 31
0.0
  0
LINE
  5
5626
330
2
100
AcDbEntity
  8
KIJUN
100
AcDbLine
 10
343.0997885684358
 20
1227.606881732008
 30
0.0
 11
344.0818795684764
 21
1227.916888731957
 31
0.0
  0
LINE
  5
5627
330
2
100
AcDbEntity
  8
KIJUN
100
AcDbLine
 10
344.0818795684764
 20
1227.916888731957
 30
0.0
 11
345.0955935686007
 21
1227.916888731957
 31
0.0
  0
LINE
  5
5628
330
2
100
AcDbEntity
  8
KIJUN
100
AcDbLine
 10
345.0955935686007
 20
1227.916888731957
 30
0.0
 11
346.2192895685449
 21
1227.606881732008
 31
0.0
  0
LINE
  5
5629
330
2
100
AcDbEntity
  8
KIJUN
100
AcDbLine
 10
346.2192895685449
 20
1227.606881732008
 30
0.0
 11
347.2039205685228
 21
1226.858597731985
 31
0.0
  0
LINE
  5
562A
330
2
100
AcDbEntity
  8
KIJUN
100
AcDbLine
 10
347.2039205685228
 20
1226.858597731985
 30
0.0
 11
348.1414345684907
 21
1226.058497731977
 31
0.0
  0
LINE
  5
562B
330
2
100
AcDbEntity
  8
KIJUN
100
AcDbLine
 10
348.1414345684907
 20
1226.058497731977
 30
0.0
 11
348.9843335685449
 21
1225.051895731954
 31
0.0
  0
LINE
  5
562C
330
2
100
AcDbEntity
  8
KIJUN
100
AcDbLine
 10
348.9843335685449
 20
1225.051895731954
 30
0.0
 11
349.7431585685498
 21
1225.892000731993
 31
0.0
  0
LINE
  5
562D
330
2
100
AcDbEntity
  8
KIJUN
100
AcDbLine
 10
349.7431585685498
 20
1225.892000731993
 30
0.0
 11
350.7540785684267
 21
1226.663525732019
 31
0.0
  0
LINE
  5
562E
330
2
100
AcDbEntity
  8
KIJUN
100
AcDbLine
 10
350.7540785684267
 20
1226.663525732019
 30
0.0
 11
352.0328415684137
 21
1227.29738273199
 31
0.0
  0
LINE
  5
562F
330
2
100
AcDbEntity
  8
KIJUN
100
AcDbLine
 10
352.0328415684137
 20
1227.29738273199
 30
0.0
 11
353.0041375685049
 21
1227.228548732014
 31
0.0
  0
LINE
  5
5630
330
2
100
AcDbEntity
  8
KIJUN
100
AcDbLine
 10
353.0041375685049
 20
1227.228548732014
 30
0.0
 11
353.8497035685378
 21
1227.262965732002
 31
0.0
  0
LINE
  5
5631
330
2
100
AcDbEntity
  8
KIJUN
100
AcDbLine
 10
353.8497035685378
 20
1227.262965732002
 30
0.0
 11
354.8683705684908
 21
1227.29738273199
 31
0.0
  0
LINE
  5
5632
330
2
100
AcDbEntity
  8
KIJUN
100
AcDbLine
 10
354.8683705684908
 20
1227.29738273199
 30
0.0
 11
356.1707555686238
 21
1226.81859273196
 31
0.0
  0
LINE
  5
5633
330
2
100
AcDbEntity
  8
KIJUN
100
AcDbLine
 10
356.1707555686238
 20
1226.81859273196
 30
0.0
 11
357.2526685685025
 21
1226.150445732044
 31
0.0
  0
LINE
  5
5634
330
2
100
AcDbEntity
  8
KIJUN
100
AcDbLine
 10
357.2526685685025
 20
1226.150445732044
 30
0.0
 11
358.1298575686176
 21
1225.051895731954
 31
0.0
  0
LINE
  5
5635
330
2
100
AcDbEntity
  8
KIJUN
100
AcDbLine
 10
358.1298575686176
 20
1225.051895731954
 30
0.0
 11
360.7527885685577
 21
1227.064845732045
 31
0.0
  0
LINE
  5
5636
330
2
100
AcDbEntity
  8
KIJUN
100
AcDbLine
 10
360.7527885685577
 20
1227.064845732045
 30
0.0
 11
362.1732835684828
 21
1227.265886732074
 31
0.0
  0
LINE
  5
5637
330
2
100
AcDbEntity
  8
KIJUN
100
AcDbLine
 10
362.1732835684828
 20
1227.265886732074
 30
0.0
 11
363.3730525685258
 21
1227.27744373205
 31
0.0
  0
LINE
  5
5638
330
2
100
AcDbEntity
  8
KIJUN
100
AcDbLine
 10
363.3730525685258
 20
1227.27744373205
 30
0.0
 11
364.6518155685208
 21
1226.910413731978
 31
0.0
  0
LINE
  5
5639
330
2
100
AcDbEntity
  8
KIJUN
100
AcDbLine
 10
364.6518155685208
 20
1226.910413731978
 30
0.0
 11
366.9912825686059
 21
1225.051895731954
 31
0.0
  0
LINE
  5
563A
330
2
100
AcDbEntity
  8
KIJUN
100
AcDbLine
 10
366.9912825686059
 20
1225.051895731954
 30
0.0
 11
369.4018695685166
 21
1226.98788373198
 31
0.0
  0
LINE
  5
563B
330
2
100
AcDbEntity
  8
KIJUN
100
AcDbLine
 10
369.4018695685166
 20
1226.98788373198
 30
0.0
 11
373.5138755684908
 21
1227.916888731957
 31
0.0
  0
LINE
  5
563C
330
2
100
AcDbEntity
  8
KIJUN
100
AcDbLine
 10
373.5138755684908
 20
1227.916888731957
 30
0.0
 11
338.6338335685157
 21
1227.452449732041
 31
0.0
  0
LINE
  5
563D
330
2
100
AcDbEntity
  8
KIJUN
100
AcDbLine
 10
338.6338335685157
 20
1227.452449732041
 30
0.0
 11
339.5553455686109
 21
1225.051895731954
 31
0.0
  0
LINE
  5
563E
330
2
100
AcDbEntity
  8
KIJUN
100
AcDbLine
 10
340.0633455684888
 20
1225.559895732057
 30
0.0
 11
341.0453095684878
 21
1226.486233732055
 31
0.0
  0
LINE
  5
563F
330
2
100
AcDbEntity
  8
KIJUN
100
AcDbLine
 10
341.0453095684878
 20
1226.486233732055
 30
0.0
 11
342.2006285685068
 21
1227.24048673201
 31
0.0
  0
LINE
  5
5640
330
2
100
AcDbEntity
  8
KIJUN
100
AcDbLine
 10
342.2006285685068
 20
1227.24048673201
 30
0.0
 11
343.6077885685318
 21
1227.805382731978
 31
0.0
  0
LINE
  5
5641
330
2
100
AcDbEntity
  8
KIJUN
100
AcDbLine
 10
343.6077885685318
 20
1227.805382731978
 30
0.0
 11
344.5347615684018
 21
1228.115008732038
 31
0.0
  0
LINE
  5
5642
330
2
100
AcDbEntity
  8
KIJUN
100
AcDbLine
 10
344.5347615684018
 20
1228.115008732038
 30
0.0
 11
345.4459865684778
 21
1228.115008732038
 31
0.0
  0
LINE
  5
5643
330
2
100
AcDbEntity
  8
KIJUN
100
AcDbLine
 10
345.4459865684778
 20
1228.115008732038
 30
0.0
 11
346.5148185685558
 21
1227.805382731978
 31
0.0
  0
LINE
  5
5644
330
2
100
AcDbEntity
  8
KIJUN
100
AcDbLine
 10
346.5148185685558
 20
1227.805382731978
 30
0.0
 11
347.5545675684926
 21
1227.137108732018
 31
0.0
  0
LINE
  5
5645
330
2
100
AcDbEntity
  8
KIJUN
100
AcDbLine
 10
347.5545675684926
 20
1227.137108732018
 30
0.0
 11
348.5943165684237
 21
1226.486233732055
 31
0.0
  0
LINE
  5
5646
330
2
100
AcDbEntity
  8
KIJUN
100
AcDbLine
 10
348.5943165684237
 20
1226.486233732055
 30
0.0
 11
349.4923335684228
 21
1225.559895732057
 31
0.0
  0
LINE
  5
5647
330
2
100
AcDbEntity
  8
KIJUN
100
AcDbLine
 10
349.4923335684228
 20
1225.559895732057
 30
0.0
 11
350.2511585684277
 21
1226.400000731973
 31
0.0
  0
LINE
  5
5648
330
2
100
AcDbEntity
  8
KIJUN
100
AcDbLine
 10
350.2511585684277
 20
1226.400000731973
 30
0.0
 11
351.2620785685229
 21
1227.171525732006
 31
0.0
  0
LINE
  5
5649
330
2
100
AcDbEntity
  8
KIJUN
100
AcDbLine
 10
351.2620785685229
 20
1227.171525732006
 30
0.0
 11
352.5408415685106
 21
1227.805382731978
 31
0.0
  0
LINE
  5
564A
330
2
100
AcDbEntity
  8
KIJUN
100
AcDbLine
 10
352.5408415685106
 20
1227.805382731978
 30
0.0
 11
353.5121375686156
 21
1227.736548732008
 31
0.0
  0
LINE
  5
564B
330
2
100
AcDbEntity
  8
KIJUN
100
AcDbLine
 10
353.5121375686156
 20
1227.736548732008
 30
0.0
 11
354.3577035684076
 21
1227.770965731997
 31
0.0
  0
LINE
  5
564C
330
2
100
AcDbEntity
  8
KIJUN
100
AcDbLine
 10
354.3577035684076
 20
1227.770965731997
 30
0.0
 11
355.3763705685865
 21
1227.805382731978
 31
0.0
  0
LINE
  5
564D
330
2
100
AcDbEntity
  8
KIJUN
100
AcDbLine
 10
355.3763705685865
 20
1227.805382731978
 30
0.0
 11
356.6787555685017
 21
1227.326592732056
 31
0.0
  0
LINE
  5
564E
330
2
100
AcDbEntity
  8
KIJUN
100
AcDbLine
 10
356.6787555685017
 20
1227.326592732056
 30
0.0
 11
357.7606685686058
 21
1226.658445732023
 31
0.0
  0
LINE
  5
564F
330
2
100
AcDbEntity
  8
KIJUN
100
AcDbLine
 10
357.7606685686058
 20
1226.658445732023
 30
0.0
 11
358.6378575684876
 21
1225.559895732057
 31
0.0
  0
LINE
  5
5650
330
2
100
AcDbEntity
  8
KIJUN
100
AcDbLine
 10
358.6378575684876
 20
1225.559895732057
 30
0.0
 11
361.2607885684277
 21
1227.572845732025
 31
0.0
  0
LINE
  5
5651
330
2
100
AcDbEntity
  8
KIJUN
100
AcDbLine
 10
361.2607885684277
 20
1227.572845732025
 30
0.0
 11
362.6812835685867
 21
1227.773886732054
 31
0.0
  0
LINE
  5
5652
330
2
100
AcDbEntity
  8
KIJUN
100
AcDbLine
 10
362.6812835685867
 20
1227.773886732054
 30
0.0
 11
363.8810525684037
 21
1227.785443732046
 31
0.0
  0
LINE
  5
5653
330
2
100
AcDbEntity
  8
KIJUN
100
AcDbLine
 10
363.8810525684037
 20
1227.785443732046
 30
0.0
 11
365.1598155686238
 21
1227.418413731956
 31
0.0
  0
LINE
  5
5654
330
2
100
AcDbEntity
  8
KIJUN
100
AcDbLine
 10
365.1598155686238
 20
1227.418413731956
 30
0.0
 11
367.4992825684768
 21
1225.559895732057
 31
0.0
  0
LINE
  5
5655
330
2
100
AcDbEntity
  8
KIJUN
100
AcDbLine
 10
367.4992825684768
 20
1225.559895732057
 30
0.0
 11
370.6187835685867
 21
1228.037919732039
 31
0.0
  0
LINE
  5
5656
330
2
100
AcDbEntity
  8
KIJUN
100
AcDbLine
 10
370.6187835685867
 20
1228.037919732039
 30
0.0
 11
339.1418335686188
 21
1227.960449732035
 31
0.0
  0
LINE
  5
5657
330
2
100
AcDbEntity
  8
KIJUN
100
AcDbLine
 10
339.1418335686188
 20
1227.960449732035
 30
0.0
 11
340.0633455684888
 21
1225.559895732057
 31
0.0
  0
LINE
  5
5658
330
2
100
AcDbEntity
  8
KIJUN
100
AcDbLine
 10
307.6783455685887
 20
1264.167895732065
 30
0.0
 11
318.4923955684654
 21
1264.033529731979
 31
0.0
  0
LINE
  5
5659
330
2
100
AcDbEntity
  8
KIJUN
100
AcDbLine
 10
318.4923955684654
 20
1264.033529731979
 30
0.0
 11
329.2523435684937
 21
1263.983999731961
 31
0.0
  0
LINE
  5
565A
330
2
100
AcDbEntity
  8
KIJUN
100
AcDbLine
 10
329.2523435684937
 20
1263.983999731961
 30
0.0
 11
340.0122915685216
 21
1263.976887731976
 31
0.0
  0
LINE
  5
565B
330
2
100
AcDbEntity
  8
KIJUN
100
AcDbLine
 10
340.0122915685216
 20
1263.976887731976
 30
0.0
 11
350.8353585684539
 21
1263.934469732059
 31
0.0
  0
LINE
  5
565C
330
2
100
AcDbEntity
  8
KIJUN
100
AcDbLine
 10
350.8353585684539
 20
1263.934469732059
 30
0.0
 11
361.7124005686215
 21
1263.892051732019
 31
0.0
  0
LINE
  5
565D
330
2
100
AcDbEntity
  8
KIJUN
100
AcDbLine
 10
361.7124005686215
 20
1263.892051732019
 30
0.0
 11
372.5893155685208
 21
1263.976887731976
 31
0.0
  0
LINE
  5
565E
330
2
100
AcDbEntity
  8
KIJUN
100
AcDbLine
 10
372.5893155685208
 20
1263.976887731976
 30
0.0
 11
368.1565075685076
 21
1263.474729732002
 31
0.0
  0
LINE
  5
565F
330
2
100
AcDbEntity
  8
KIJUN
100
AcDbLine
 10
368.1565075685076
 20
1263.474729732002
 30
0.0
 11
363.3273325685307
 21
1260.595893732049
 31
0.0
  0
LINE
  5
5660
330
2
100
AcDbEntity
  8
KIJUN
100
AcDbLine
 10
363.3273325685307
 20
1260.595893732049
 30
0.0
 11
362.2978705686128
 21
1253.855368731961
 31
0.0
  0
LINE
  5
5661
330
2
100
AcDbEntity
  8
KIJUN
100
AcDbLine
 10
362.2978705686128
 20
1253.855368731961
 30
0.0
 11
366.0194785685756
 21
1248.515272732048
 31
0.0
  0
LINE
  5
5662
330
2
100
AcDbEntity
  8
KIJUN
100
AcDbLine
 10
366.0194785685756
 20
1248.515272732048
 30
0.0
 11
370.4074555684288
 21
1247.546262732033
 31
0.0
  0
LINE
  5
5663
330
2
100
AcDbEntity
  8
KIJUN
100
AcDbLine
 10
370.4074555684288
 20
1247.546262732033
 30
0.0
 11
372.3463645685127
 21
1244.87989773205
 31
0.0
  0
LINE
  5
5664
330
2
100
AcDbEntity
  8
KIJUN
100
AcDbLine
 10
372.3463645685127
 20
1244.87989773205
 30
0.0
 11
361.5323145684097
 21
1245.141517732026
 31
0.0
  0
LINE
  5
5665
330
2
100
AcDbEntity
  8
KIJUN
100
AcDbLine
 10
361.5323145684097
 20
1245.141517732026
 30
0.0
 11
350.7723665686079
 21
1245.827444731952
 31
0.0
  0
LINE
  5
5666
330
2
100
AcDbEntity
  8
KIJUN
100
AcDbLine
 10
350.7723665686079
 20
1245.827444731952
 30
0.0
 11
340.0122915685216
 21
1246.21644573197
 31
0.0
  0
LINE
  5
5667
330
2
100
AcDbEntity
  8
KIJUN
100
AcDbLine
 10
340.0122915685216
 20
1246.21644573197
 30
0.0
 11
329.9457635685408
 21
1246.372020731967
 31
0.0
  0
LINE
  5
5668
330
2
100
AcDbEntity
  8
KIJUN
100
AcDbLine
 10
329.9457635685408
 20
1246.372020731967
 30
0.0
 11
320.4733415684548
 21
1246.697394732047
 31
0.0
  0
LINE
  5
5669
330
2
100
AcDbEntity
  8
KIJUN
100
AcDbLine
 10
320.4733415684548
 20
1246.697394732047
 30
0.0
 11
310.3523305684958
 21
1246.980350731962
 31
0.0
  0
LINE
  5
566A
330
2
100
AcDbEntity
  8
KIJUN
100
AcDbLine
 10
310.3523305684958
 20
1246.980350731962
 30
0.0
 11
314.4553195684287
 21
1248.734601732019
 31
0.0
  0
LINE
  5
566B
330
2
100
AcDbEntity
  8
KIJUN
100
AcDbLine
 10
314.4553195684287
 20
1248.734601732019
 30
0.0
 11
316.9736025685209
 21
1251.337466731991
 31
0.0
  0
LINE
  5
566C
330
2
100
AcDbEntity
  8
KIJUN
100
AcDbLine
 10
316.9736025685209
 20
1251.337466731991
 30
0.0
 11
318.0513245686027
 21
1254.237384732031
 31
0.0
  0
LINE
  5
566D
330
2
100
AcDbEntity
  8
KIJUN
100
AcDbLine
 10
318.0513245686027
 20
1254.237384732031
 30
0.0
 11
316.6587695684366
 21
1260.122183732007
 31
0.0
  0
LINE
  5
566E
330
2
100
AcDbEntity
  8
KIJUN
100
AcDbLine
 10
316.6587695684366
 20
1260.122183732007
 30
0.0
 11
312.3127025684528
 21
1263.630431732043
 31
0.0
  0
LINE
  5
566F
330
2
100
AcDbEntity
  8
KIJUN
100
AcDbLine
 10
312.3127025684528
 20
1263.630431732043
 30
0.0
 11
307.6783455685887
 21
1264.167895732065
 31
0.0
  0
LINE
  5
5670
330
2
100
AcDbEntity
  8
KIJUN
100
AcDbLine
 10
307.4243455685367
 20
1268.612895732057
 30
0.0
 11
372.1733905684028
 21
1268.612895732057
 31
0.0
  0
LINE
  5
5671
330
2
100
AcDbEntity
  8
KIJUN
100
AcDbLine
 10
372.1733905684028
 20
1268.612895732057
 30
0.0
 11
372.1733905684028
 21
1263.615953731994
 31
0.0
  0
LINE
  5
5672
330
2
100
AcDbEntity
  8
KIJUN
100
AcDbLine
 10
372.1733905684028
 20
1263.615953731994
 30
0.0
 11
307.4243455685367
 21
1263.615953731994
 31
0.0
  0
LINE
  5
5673
330
2
100
AcDbEntity
  8
KIJUN
100
AcDbLine
 10
307.4243455685367
 20
1263.615953731994
 30
0.0
 11
307.4243455685367
 21
1268.612895732057
 31
0.0
  0
LINE
  5
5674
330
2
100
AcDbEntity
  8
KIJUN
100
AcDbLine
 10
308.8213455685928
 20
1247.149895732068
 30
0.0
 11
372.7013295685479
 21
1247.149895732068
 31
0.0
  0
LINE
  5
5675
330
2
100
AcDbEntity
  8
KIJUN
100
AcDbLine
 10
372.7013295685479
 20
1247.149895732068
 30
0.0
 11
372.7013295685479
 21
1242.028366731993
 31
0.0
  0
LINE
  5
5676
330
2
100
AcDbEntity
  8
KIJUN
100
AcDbLine
 10
372.7013295685479
 20
1242.028366731993
 30
0.0
 11
308.8213455685928
 21
1242.028366731993
 31
0.0
  0
LINE
  5
5677
330
2
100
AcDbEntity
  8
KIJUN
100
AcDbLine
 10
308.8213455685928
 20
1242.028366731993
 30
0.0
 11
308.8213455685928
 21
1247.149895732068
 31
0.0
  0
LINE
  5
5678
330
2
100
AcDbEntity
  8
KIJUN
100
AcDbLine
 10
300.4393455684998
 20
1228.099895732
 30
0.0
 11
373.7443805684466
 21
1227.712926731979
 31
0.0
  0
LINE
  5
567A
330
2
100
AcDbEntity
  8
KIJUN
100
AcDbLine
 10
373.3197866120358
 20
1283.269895732007
 30
0.0
 11
375.5287305684188
 21
1282.55457473201
 31
0.0
  0
LINE
  5
567B
330
2
100
AcDbEntity
  8
KIJUN
100
AcDbLine
 10
375.5287305684188
 20
1282.55457473201
 30
0.0
 11
377.8285735684927
 21
1279.816835732006
 31
0.0
  0
LINE
  5
567C
330
2
100
AcDbEntity
  8
KIJUN
100
AcDbLine
 10
377.8285735684927
 20
1279.816835732006
 30
0.0
 11
378.7058895684038
 21
1275.97787973205
 31
0.0
  0
LINE
  5
567D
330
2
100
AcDbEntity
  8
KIJUN
100
AcDbLine
 10
378.7058895684038
 20
1275.97787973205
 30
0.0
 11
378.7058895684038
 21
1275.881359732065
 31
0.0
  0
LINE
  5
567E
330
2
100
AcDbEntity
  8
KIJUN
100
AcDbLine
 10
378.7058895684038
 20
1275.881359732065
 30
0.0
 11
377.8285735684927
 21
1272.04265773197
 31
0.0
  0
LINE
  5
567F
330
2
100
AcDbEntity
  8
KIJUN
100
AcDbLine
 10
377.8285735684927
 20
1272.04265773197
 30
0.0
 11
375.5287305684188
 21
1269.304791732032
 31
0.0
  0
LINE
  5
5680
330
2
100
AcDbEntity
  8
KIJUN
100
AcDbLine
 10
375.5287305684188
 20
1269.304791732032
 30
0.0
 11
372.3038195684288
 21
1268.260343732018
 31
0.0
  0
LINE
  5
5681
330
2
100
AcDbEntity
  8
KIJUN
100
AcDbLine
 10
372.3038195684288
 20
1268.260343732018
 30
0.0
 11
308.3652885685168
 21
1268.260343732018
 31
0.0
  0
LINE
  5
5682
330
2
100
AcDbEntity
  8
KIJUN
100
AcDbLine
 10
308.3652885685168
 20
1268.260343732018
 30
0.0
 11
305.1405045685697
 21
1269.304791732032
 31
0.0
  0
LINE
  5
5683
330
2
100
AcDbEntity
  8
KIJUN
100
AcDbLine
 10
305.1405045685697
 20
1269.304791732032
 30
0.0
 11
302.8405345684599
 21
1272.04265773197
 31
0.0
  0
LINE
  5
5684
330
2
100
AcDbEntity
  8
KIJUN
100
AcDbLine
 10
302.8405345684599
 20
1272.04265773197
 30
0.0
 11
301.9633455685847
 21
1275.881359732065
 31
0.0
  0
LINE
  5
5685
330
2
100
AcDbEntity
  8
KIJUN
100
AcDbLine
 10
301.9633455685847
 20
1275.881359732065
 30
0.0
 11
301.9633455685847
 21
1275.97787973205
 31
0.0
  0
LINE
  5
5686
330
2
100
AcDbEntity
  8
KIJUN
100
AcDbLine
 10
301.9633455685847
 20
1275.97787973205
 30
0.0
 11
302.8405345684599
 21
1279.816835732006
 31
0.0
  0
LINE
  5
5687
330
2
100
AcDbEntity
  8
KIJUN
100
AcDbLine
 10
302.8405345684599
 20
1279.816835732006
 30
0.0
 11
305.1405045685697
 21
1282.55457473201
 31
0.0
  0
LINE
  5
5688
330
2
100
AcDbEntity
  8
KIJUN
100
AcDbLine
 10
305.1405045685697
 20
1282.55457473201
 30
0.0
 11
307.3493615346531
 21
1283.269895732007
 31
0.0
  0
LINE
  5
5689
330
2
100
AcDbEntity
  8
KIJUN
100
AcDbLine
 10
307.2393065684969
 20
1242.377870732033
 30
0.0
 11
318.2287435686029
 21
1242.377870732033
 31
0.0
  0
LINE
  5
568A
330
2
100
AcDbEntity
  8
KIJUN
100
AcDbLine
 10
318.2287435686029
 20
1242.377870732033
 30
0.0
 11
329.2177995685868
 21
1242.377870732033
 31
0.0
  0
LINE
  5
568B
330
2
100
AcDbEntity
  8
KIJUN
100
AcDbLine
 10
329.2177995685868
 20
1242.377870732033
 30
0.0
 11
340.2068555685556
 21
1242.377870732033
 31
0.0
  0
LINE
  5
568C
330
2
100
AcDbEntity
  8
KIJUN
100
AcDbLine
 10
340.2068555685556
 20
1242.377870732033
 30
0.0
 11
351.1500645684876
 21
1242.377870732033
 31
0.0
  0
LINE
  5
568D
330
2
100
AcDbEntity
  8
KIJUN
100
AcDbLine
 10
351.1500645684876
 20
1242.377870732033
 30
0.0
 11
362.0947975684767
 21
1242.377870732033
 31
0.0
  0
LINE
  5
568E
330
2
100
AcDbEntity
  8
KIJUN
100
AcDbLine
 10
362.0947975684767
 20
1242.377870732033
 30
0.0
 11
373.0423245684808
 21
1242.377870732033
 31
0.0
  0
LINE
  5
568F
330
2
100
AcDbEntity
  8
KIJUN
100
AcDbLine
 10
373.0423245684808
 20
1242.377870732033
 30
0.0
 11
375.6648745685398
 21
1239.994207732004
 31
0.0
  0
LINE
  5
5690
330
2
100
AcDbEntity
  8
KIJUN
100
AcDbLine
 10
375.6648745685398
 20
1239.994207732004
 30
0.0
 11
377.8375905685408
 21
1237.634420731959
 31
0.0
  0
LINE
  5
5691
330
2
100
AcDbEntity
  8
KIJUN
100
AcDbLine
 10
377.8375905685408
 20
1237.634420731959
 30
0.0
 11
379.4449025684096
 21
1235.168334731988
 31
0.0
  0
LINE
  5
5692
330
2
100
AcDbEntity
  8
KIJUN
100
AcDbLine
 10
379.4449025684096
 20
1235.168334731988
 30
0.0
 11
380.2389065685357
 21
1232.819977732007
 31
0.0
  0
LINE
  5
5693
330
2
100
AcDbEntity
  8
KIJUN
100
AcDbLine
 10
380.2389065685357
 20
1232.819977732007
 30
0.0
 11
380.4389315685708
 21
1230.377894732071
 31
0.0
  0
LINE
  5
5694
330
2
100
AcDbEntity
  8
KIJUN
100
AcDbLine
 10
380.4389315685708
 20
1230.377894732071
 30
0.0
 11
380.1733745685288
 21
1227.965402731973
 31
0.0
  0
LINE
  5
5695
330
2
100
AcDbEntity
  8
KIJUN
100
AcDbLine
 10
380.1733745685288
 20
1227.965402731973
 30
0.0
 11
366.9924255685338
 21
1227.965402731973
 31
0.0
  0
LINE
  5
5696
330
2
100
AcDbEntity
  8
KIJUN
100
AcDbLine
 10
366.9924255685338
 20
1227.965402731973
 30
0.0
 11
353.8326855685458
 21
1227.965402731973
 31
0.0
  0
LINE
  5
5697
330
2
100
AcDbEntity
  8
KIJUN
100
AcDbLine
 10
353.8326855685458
 20
1227.965402731973
 30
0.0
 11
340.6939005684995
 21
1227.965402731973
 31
0.0
  0
LINE
  5
5698
330
2
100
AcDbEntity
  8
KIJUN
100
AcDbLine
 10
340.6939005684995
 20
1227.965402731973
 30
0.0
 11
327.5692125686047
 21
1227.965402731973
 31
0.0
  0
LINE
  5
5699
330
2
100
AcDbEntity
  8
KIJUN
100
AcDbLine
 10
327.5692125686047
 20
1227.965402731973
 30
0.0
 11
314.4431275684638
 21
1227.965402731973
 31
0.0
  0
LINE
  5
569A
330
2
100
AcDbEntity
  8
KIJUN
100
AcDbLine
 10
314.4431275684638
 20
1227.965402731973
 30
0.0
 11
301.3239005685628
 21
1227.965402731973
 31
0.0
  0
LINE
  5
569B
330
2
100
AcDbEntity
  8
KIJUN
100
AcDbLine
 10
301.3239005685628
 20
1227.965402731973
 30
0.0
 11
300.3346975684197
 21
1230.380307731964
 31
0.0
  0
LINE
  5
569C
330
2
100
AcDbEntity
  8
KIJUN
100
AcDbLine
 10
300.3346975684197
 20
1230.380307731964
 30
0.0
 11
299.9826535684418
 21
1232.824803732026
 31
0.0
  0
LINE
  5
569D
330
2
100
AcDbEntity
  8
KIJUN
100
AcDbLine
 10
299.9826535684418
 20
1232.824803732026
 30
0.0
 11
300.4318525685099
 21
1235.168334731988
 31
0.0
  0
LINE
  5
569E
330
2
100
AcDbEntity
  8
KIJUN
100
AcDbLine
 10
300.4318525685099
 20
1235.168334731988
 30
0.0
 11
301.9310875685197
 21
1237.652581731988
 31
0.0
  0
LINE
  5
569F
330
2
100
AcDbEntity
  8
KIJUN
100
AcDbLine
 10
301.9310875685197
 20
1237.652581731988
 30
0.0
 11
304.2447735684266
 21
1240.003351731978
 31
0.0
  0
LINE
  5
56A0
330
2
100
AcDbEntity
  8
KIJUN
100
AcDbLine
 10
304.2447735684266
 20
1240.003351731978
 30
0.0
 11
307.2393065684969
 21
1242.377870732033
 31
0.0
  0
LINE
  5
56A2
330
2
100
AcDbEntity
  8
KIJUN
100
AcDbLine
 10
352.9019025685428
 20
985.1058427320353
 30
0.0
 11
350.2468405685807
 21
982.6649027320204
 31
0.0
  0
LINE
  5
56A3
330
2
100
AcDbEntity
  8
KIJUN
100
AcDbLine
 10
350.2468405685807
 20
982.6649027320204
 30
0.0
 11
346.7843125685409
 21
981.7353897319813
 31
0.0
  0
LINE
  5
56A4
330
2
100
AcDbEntity
  8
KIJUN
100
AcDbLine
 10
346.7843125685409
 20
981.7353897319813
 30
0.0
 11
342.3978595685197
 21
982.8974397319656
 31
0.0
  0
LINE
  5
56A5
330
2
100
AcDbEntity
  8
KIJUN
100
AcDbLine
 10
342.3978595685197
 20
982.8974397319656
 30
0.0
 11
339.5122925685949
 21
984.6408957320713
 31
0.0
  0
LINE
  5
56A6
330
2
100
AcDbEntity
  8
KIJUN
100
AcDbLine
 10
339.5122925685949
 20
984.6408957320713
 30
0.0
 11
339.0503935686227
 21
866.5533747320189
 31
0.0
  0
LINE
  5
56A7
330
2
100
AcDbEntity
  8
KIJUN
100
AcDbLine
 10
339.0503935686227
 20
866.5533747320189
 30
0.0
 11
339.1658365684287
 21
863.5314097320119
 31
0.0
  0
LINE
  5
56A8
330
2
100
AcDbEntity
  8
KIJUN
100
AcDbLine
 10
339.1658365684287
 20
863.5314097320119
 30
0.0
 11
344.0138075685339
 21
863.5314097320119
 31
0.0
  0
LINE
  5
56A9
330
2
100
AcDbEntity
  8
KIJUN
100
AcDbLine
 10
344.0138075685339
 20
863.5314097320119
 30
0.0
 11
346.0158355684996
 21
875.3759377320207
 31
0.0
  0
LINE
  5
56AA
330
2
100
AcDbEntity
  8
KIJUN
100
AcDbLine
 10
346.0158355684996
 20
875.3759377320207
 30
0.0
 11
347.9095325685358
 21
887.5907977319625
 31
0.0
  0
LINE
  5
56AB
330
2
100
AcDbEntity
  8
KIJUN
100
AcDbLine
 10
347.9095325685358
 20
887.5907977319625
 30
0.0
 11
349.5003345685848
 21
899.9800287320363
 31
0.0
  0
LINE
  5
56AC
330
2
100
AcDbEntity
  8
KIJUN
100
AcDbLine
 10
349.5003345685848
 20
899.9800287320363
 30
0.0
 11
350.5932965685077
 21
912.3474157319693
 31
0.0
  0
LINE
  5
56AD
330
2
100
AcDbEntity
  8
KIJUN
100
AcDbLine
 10
350.5932965685077
 20
912.3474157319693
 30
0.0
 11
352.5558275685117
 21
950.7024317320503
 31
0.0
  0
LINE
  5
56AE
330
2
100
AcDbEntity
  8
KIJUN
100
AcDbLine
 10
352.5558275685117
 20
950.7024317320503
 30
0.0
 11
352.9019025685428
 21
985.1058427320353
 31
0.0
  0
LINE
  5
56AF
330
2
100
AcDbEntity
  8
KIJUN
100
AcDbLine
 10
353.0753845685989
 20
984.8409207319821
 30
0.0
 11
355.8453815684348
 21
982.9813867319721
 31
0.0
  0
LINE
  5
56B0
330
2
100
AcDbEntity
  8
KIJUN
100
AcDbLine
 10
355.8453815684348
 20
982.9813867319721
 30
0.0
 11
360.1163915684238
 21
982.2839027320551
 31
0.0
  0
LINE
  5
56B1
330
2
100
AcDbEntity
  8
KIJUN
100
AcDbLine
 10
360.1163915684238
 20
982.2839027320551
 30
0.0
 11
364.6179065685879
 21
983.0973377320665
 31
0.0
  0
LINE
  5
56B2
330
2
100
AcDbEntity
  8
KIJUN
100
AcDbLine
 10
364.6179065685879
 20
983.0973377320665
 30
0.0
 11
367.2728415685138
 21
984.957379732023
 31
0.0
  0
LINE
  5
56B3
330
2
100
AcDbEntity
  8
KIJUN
100
AcDbLine
 10
367.2728415685138
 20
984.957379732023
 30
0.0
 11
365.7723365685318
 21
941.6044057320073
 31
0.0
  0
LINE
  5
56B4
330
2
100
AcDbEntity
  8
KIJUN
100
AcDbLine
 10
365.7723365685318
 20
941.6044057320073
 30
0.0
 11
364.2718315685578
 21
920.6834417319809
 31
0.0
  0
LINE
  5
56B5
330
2
100
AcDbEntity
  8
KIJUN
100
AcDbLine
 10
364.2718315685578
 20
920.6834417319809
 30
0.0
 11
361.2708215685935
 21
903.1329307320088
 31
0.0
  0
LINE
  5
56B6
330
2
100
AcDbEntity
  8
KIJUN
100
AcDbLine
 10
361.2708215685935
 20
903.1329307320088
 30
0.0
 11
358.2693035684656
 21
891.7429357320251
 31
0.0
  0
LINE
  5
56B7
330
2
100
AcDbEntity
  8
KIJUN
100
AcDbLine
 10
358.2693035684656
 20
891.7429357320251
 30
0.0
 11
353.3058895685547
 21
876.8653937319582
 31
0.0
  0
LINE
  5
56B8
330
2
100
AcDbEntity
  8
KIJUN
100
AcDbLine
 10
353.3058895685547
 20
876.8653937319582
 30
0.0
 11
347.0728565685077
 21
863.4994057320332
 31
0.0
  0
LINE
  5
56B9
330
2
100
AcDbEntity
  8
KIJUN
100
AcDbLine
 10
347.0728565685077
 20
863.4994057320332
 30
0.0
 11
344.3028595684387
 21
863.4994057320332
 31
0.0
  0
LINE
  5
56BA
330
2
100
AcDbEntity
  8
KIJUN
100
AcDbLine
 10
344.3028595684387
 20
863.4994057320332
 30
0.0
 11
349.6123485686279
 21
898.599919732031
 31
0.0
  0
LINE
  5
56BB
330
2
100
AcDbEntity
  8
KIJUN
100
AcDbLine
 10
349.6123485686279
 20
898.599919732031
 30
0.0
 11
351.4593095685357
 21
928.7028567319907
 31
0.0
  0
LINE
  5
56BC
330
2
100
AcDbEntity
  8
KIJUN
100
AcDbLine
 10
351.4593095685357
 20
928.7028567319907
 30
0.0
 11
352.1518405684997
 21
948.112901731973
 31
0.0
  0
LINE
  5
56BD
330
2
100
AcDbEntity
  8
KIJUN
100
AcDbLine
 10
352.1518405684997
 20
948.112901731973
 30
0.0
 11
352.9598145685096
 21
970.8939077320648
 31
0.0
  0
LINE
  5
56BE
330
2
100
AcDbEntity
  8
KIJUN
100
AcDbLine
 10
352.9598145685096
 20
970.8939077320648
 30
0.0
 11
353.0753845685989
 21
984.8409207319821
 31
0.0
  0
LINE
  5
56BF
330
2
100
AcDbEntity
  8
KIJUN
100
AcDbLine
 10
367.2758895686286
 20
985.0108467319847
 30
0.0
 11
371.4313295685297
 21
983.0353617319893
 31
0.0
  0
LINE
  5
56C0
330
2
100
AcDbEntity
  8
KIJUN
100
AcDbLine
 10
371.4313295685297
 20
983.0353617319893
 30
0.0
 11
375.7023395685117
 21
983.0353617319893
 31
0.0
  0
LINE
  5
56C1
330
2
100
AcDbEntity
  8
KIJUN
100
AcDbLine
 10
375.7023395685117
 20
983.0353617319893
 30
0.0
 11
379.2808185685297
 21
984.8948957320066
 31
0.0
  0
LINE
  5
56C2
330
2
100
AcDbEntity
  8
KIJUN
100
AcDbLine
 10
379.2808185685297
 20
984.8948957320066
 30
0.0
 11
378.1263885685858
 21
954.9084177319715
 31
0.0
  0
LINE
  5
56C3
330
2
100
AcDbEntity
  8
KIJUN
100
AcDbLine
 10
378.1263885685858
 20
954.9084177319715
 30
0.0
 11
375.5868965684727
 21
925.9674037320769
 31
0.0
  0
LINE
  5
56C4
330
2
100
AcDbEntity
  8
KIJUN
100
AcDbLine
 10
375.5868965684727
 20
925.9674037320769
 30
0.0
 11
371.4313295685297
 21
901.5594007320286
 31
0.0
  0
LINE
  5
56C5
330
2
100
AcDbEntity
  8
KIJUN
100
AcDbLine
 10
371.4313295685297
 20
901.5594007320286
 30
0.0
 11
365.4293095686026
 21
883.3119137319703
 31
0.0
  0
LINE
  5
56C6
330
2
100
AcDbEntity
  8
KIJUN
100
AcDbLine
 10
365.4293095686026
 20
883.3119137319703
 30
0.0
 11
356.3103285685148
 21
867.6214447320642
 31
0.0
  0
LINE
  5
56C7
330
2
100
AcDbEntity
  8
KIJUN
100
AcDbLine
 10
356.3103285685148
 20
867.6214447320642
 30
0.0
 11
353.6553935685968
 21
863.4369217320168
 31
0.0
  0
LINE
  5
56C8
330
2
100
AcDbEntity
  8
KIJUN
100
AcDbLine
 10
353.6553935685968
 20
863.4369217320168
 30
0.0
 11
347.3067905684598
 21
863.4369217320168
 31
0.0
  0
LINE
  5
56C9
330
2
100
AcDbEntity
  8
KIJUN
100
AcDbLine
 10
347.3067905684598
 20
863.4369217320168
 30
0.0
 11
355.6177975685437
 21
883.66040173201
 31
0.0
  0
LINE
  5
56CA
330
2
100
AcDbEntity
  8
KIJUN
100
AcDbLine
 10
355.6177975685437
 20
883.66040173201
 30
0.0
 11
361.2738695684766
 21
904.9303617320225
 31
0.0
  0
LINE
  5
56CB
330
2
100
AcDbEntity
  8
KIJUN
100
AcDbLine
 10
361.2738695684766
 20
904.9303617320225
 30
0.0
 11
364.6213355685987
 21
926.3158917320001
 31
0.0
  0
LINE
  5
56CC
330
2
100
AcDbEntity
  8
KIJUN
100
AcDbLine
 10
364.6213355685987
 20
926.3158917320001
 30
0.0
 11
365.7753845684147
 21
946.4234207320082
 31
0.0
  0
LINE
  5
56CD
330
2
100
AcDbEntity
  8
KIJUN
100
AcDbLine
 10
365.7753845684147
 20
946.4234207320082
 30
0.0
 11
366.4677885685688
 21
967.4608437320685
 31
0.0
  0
LINE
  5
56CE
330
2
100
AcDbEntity
  8
KIJUN
100
AcDbLine
 10
366.4677885685688
 20
967.4608437320685
 30
0.0
 11
367.2758895686286
 21
985.0108467319847
 31
0.0
  0
LINE
  5
56CF
330
2
100
AcDbEntity
  8
KIJUN
100
AcDbLine
 10
317.9898565685888
 20
1018.211948731998
 30
0.0
 11
325.3181375684087
 21
1018.120127731982
 31
0.0
  0
LINE
  5
56D0
330
2
100
AcDbEntity
  8
KIJUN
100
AcDbLine
 10
325.3181375684087
 20
1018.120127731982
 30
0.0
 11
332.6732155685177
 21
1018.141336731995
 31
0.0
  0
LINE
  5
56D1
330
2
100
AcDbEntity
  8
KIJUN
100
AcDbLine
 10
332.6732155685177
 20
1018.141336731995
 30
0.0
 11
340.0458195685658
 21
1018.211948731998
 31
0.0
  0
LINE
  5
56D2
330
2
100
AcDbEntity
  8
KIJUN
100
AcDbLine
 10
340.0458195685658
 20
1018.211948731998
 30
0.0
 11
347.4359495685358
 21
1018.276718731966
 31
0.0
  0
LINE
  5
56D3
330
2
100
AcDbEntity
  8
KIJUN
100
AcDbLine
 10
347.4359495685358
 20
1018.276718731966
 30
0.0
 11
354.8300165684496
 21
1018.361173732036
 31
0.0
  0
LINE
  5
56D4
330
2
100
AcDbEntity
  8
KIJUN
100
AcDbLine
 10
354.8300165684496
 20
1018.361173732036
 30
0.0
 11
362.2258615684928
 21
1018.520939732062
 31
0.0
  0
LINE
  5
56D5
330
2
100
AcDbEntity
  8
KIJUN
100
AcDbLine
 10
362.2258615684928
 20
1018.520939732062
 30
0.0
 11
363.2791995684038
 21
1017.143751732019
 31
0.0
  0
LINE
  5
56D6
330
2
100
AcDbEntity
  8
KIJUN
100
AcDbLine
 10
363.2791995684038
 20
1017.143751732019
 30
0.0
 11
364.1078745684948
 21
1015.872227732052
 31
0.0
  0
LINE
  5
56D7
330
2
100
AcDbEntity
  8
KIJUN
100
AcDbLine
 10
364.1078745684948
 20
1015.872227732052
 30
0.0
 11
364.6558795685067
 21
1014.65239273202
 31
0.0
  0
LINE
  5
56D8
330
2
100
AcDbEntity
  8
KIJUN
100
AcDbLine
 10
364.6558795685067
 20
1014.65239273202
 30
0.0
 11
364.9190235684224
 21
1013.346705732049
 31
0.0
  0
LINE
  5
56D9
330
2
100
AcDbEntity
  8
KIJUN
100
AcDbLine
 10
364.9190235684224
 20
1013.346705732049
 30
0.0
 11
364.8994655685038
 21
1012.062481732053
 31
0.0
  0
LINE
  5
56DA
330
2
100
AcDbEntity
  8
KIJUN
100
AcDbLine
 10
364.8994655685038
 20
1012.062481732053
 30
0.0
 11
364.6553715685678
 21
1010.785877731989
 31
0.0
  0
LINE
  5
56DB
330
2
100
AcDbEntity
  8
KIJUN
100
AcDbLine
 10
364.6553715685678
 20
1010.785877731989
 30
0.0
 11
356.4991775684557
 21
1010.878460732023
 31
0.0
  0
LINE
  5
56DC
330
2
100
AcDbEntity
  8
KIJUN
100
AcDbLine
 10
356.4991775684557
 20
1010.878460732023
 30
0.0
 11
348.3546675686099
 21
1010.87833373198
 31
0.0
  0
LINE
  5
56DD
330
2
100
AcDbEntity
  8
KIJUN
100
AcDbLine
 10
348.3546675686099
 20
1010.87833373198
 30
0.0
 11
340.2499085685866
 21
1010.785877731989
 31
0.0
  0
LINE
  5
56DE
330
2
100
AcDbEntity
  8
KIJUN
100
AcDbLine
 10
340.2499085685866
 20
1010.785877731989
 30
0.0
 11
332.0510425685807
 21
1010.684658732022
 31
0.0
  0
LINE
  5
56DF
330
2
100
AcDbEntity
  8
KIJUN
100
AcDbLine
 10
332.0510425685807
 20
1010.684658732022
 30
0.0
 11
323.9234235684358
 21
1010.643002732013
 31
0.0
  0
LINE
  5
56E0
330
2
100
AcDbEntity
  8
KIJUN
100
AcDbLine
 10
323.9234235684358
 20
1010.643002732013
 30
0.0
 11
315.8638765684746
 21
1010.631445732022
 31
0.0
  0
LINE
  5
56E1
330
2
100
AcDbEntity
  8
KIJUN
100
AcDbLine
 10
315.8638765684746
 20
1010.631445732022
 30
0.0
 11
315.6112735684308
 21
1011.878204732046
 31
0.0
  0
LINE
  5
56E2
330
2
100
AcDbEntity
  8
KIJUN
100
AcDbLine
 10
315.6112735684308
 20
1011.878204732046
 30
0.0
 11
315.5623785685107
 21
1013.125471732001
 31
0.0
  0
LINE
  5
56E3
330
2
100
AcDbEntity
  8
KIJUN
100
AcDbLine
 10
315.5623785685107
 20
1013.125471732001
 30
0.0
 11
315.7627845684338
 21
1014.342893732017
 31
0.0
  0
LINE
  5
56E4
330
2
100
AcDbEntity
  8
KIJUN
100
AcDbLine
 10
315.7627845684338
 20
1014.342893732017
 30
0.0
 11
316.2720545685016
 21
1015.623561732075
 31
0.0
  0
LINE
  5
56E5
330
2
100
AcDbEntity
  8
KIJUN
100
AcDbLine
 10
316.2720545685016
 20
1015.623561732075
 30
0.0
 11
317.0289745685598
 21
1016.898641731965
 31
0.0
  0
LINE
  5
56E6
330
2
100
AcDbEntity
  8
KIJUN
100
AcDbLine
 10
317.0289745685598
 20
1016.898641731965
 30
0.0
 11
317.9898565685888
 21
1018.211948731998
 31
0.0
  0
LINE
  5
56EB
330
2
100
AcDbEntity
  8
KIJUN
100
AcDbLine
 10
318.8473605685008
 20
1010.32740773202
 30
0.0
 11
325.9693935685007
 21
1010.69545373198
 31
0.0
  0
LINE
  5
56EC
330
2
100
AcDbEntity
  8
KIJUN
100
AcDbLine
 10
325.9693935685007
 20
1010.69545373198
 30
0.0
 11
333.7400155685987
 21
1010.830962731994
 31
0.0
  0
LINE
  5
56ED
330
2
100
AcDbEntity
  8
KIJUN
100
AcDbLine
 10
333.7400155685987
 20
1010.830962731994
 30
0.0
 11
340.9703795685357
 21
1010.850393731995
 31
0.0
  0
LINE
  5
56EE
330
2
100
AcDbEntity
  8
KIJUN
100
AcDbLine
 10
340.9703795685357
 20
1010.850393731995
 30
0.0
 11
347.6424515684428
 21
1010.843916732
 31
0.0
  0
LINE
  5
56EF
330
2
100
AcDbEntity
  8
KIJUN
100
AcDbLine
 10
347.6424515684428
 20
1010.843916732
 30
0.0
 11
354.4767025685006
 21
1010.798704732046
 31
0.0
  0
LINE
  5
56F0
330
2
100
AcDbEntity
  8
KIJUN
100
AcDbLine
 10
354.4767025685006
 20
1010.798704732046
 30
0.0
 11
361.1489015684508
 21
1010.675895732068
 31
0.0
  0
LINE
  5
56F1
330
2
100
AcDbEntity
  8
KIJUN
100
AcDbLine
 10
361.1489015684508
 20
1010.675895732068
 30
0.0
 11
355.7912795685993
 21
1007.705619731995
 31
0.0
  0
LINE
  5
56F2
330
2
100
AcDbEntity
  8
KIJUN
100
AcDbLine
 10
355.7912795685993
 20
1007.705619731995
 30
0.0
 11
353.8373845685217
 21
1002.488205732025
 31
0.0
  0
LINE
  5
56F3
330
2
100
AcDbEntity
  8
KIJUN
100
AcDbLine
 10
353.8373845685217
 20
1002.488205732025
 30
0.0
 11
355.0708085684178
 21
997.4258587320042
 31
0.0
  0
LINE
  5
56F4
330
2
100
AcDbEntity
  8
KIJUN
100
AcDbLine
 10
355.0708085684178
 20
997.4258587320042
 30
0.0
 11
361.0166945685067
 21
993.5063847320529
 31
0.0
  0
LINE
  5
56F5
330
2
100
AcDbEntity
  8
KIJUN
100
AcDbLine
 10
361.0166945685067
 20
993.5063847320529
 30
0.0
 11
370.5461395684848
 21
990.9427627319642
 31
0.0
  0
LINE
  5
56F6
330
2
100
AcDbEntity
  8
KIJUN
100
AcDbLine
 10
370.5461395684848
 20
990.9427627319642
 30
0.0
 11
379.9493465684657
 21
989.9289217320298
 31
0.0
  0
LINE
  5
56F7
330
2
100
AcDbEntity
  8
KIJUN
100
AcDbLine
 10
379.9493465684657
 20
989.9289217320298
 30
0.0
 11
368.4450515684746
 21
990.0063917320407
 31
0.0
  0
LINE
  5
56F8
330
2
100
AcDbEntity
  8
KIJUN
100
AcDbLine
 10
368.4450515684746
 20
990.0063917320407
 30
0.0
 11
352.6367265684037
 21
989.9676567319806
 31
0.0
  0
LINE
  5
56F9
330
2
100
AcDbEntity
  8
KIJUN
100
AcDbLine
 10
352.6367265684037
 20
989.9676567319806
 30
0.0
 11
341.1323045686086
 21
989.9289217320298
 31
0.0
  0
LINE
  5
56FA
330
2
100
AcDbEntity
  8
KIJUN
100
AcDbLine
 10
341.1323045686086
 20
989.9289217320298
 30
0.0
 11
329.2828235684147
 21
990.058080731975
 31
0.0
  0
LINE
  5
56FB
330
2
100
AcDbEntity
  8
KIJUN
100
AcDbLine
 10
329.2828235684147
 20
990.058080731975
 30
0.0
 11
312.9493535684538
 21
990.2647097320407
 31
0.0
  0
LINE
  5
56FC
330
2
100
AcDbEntity
  8
KIJUN
100
AcDbLine
 10
312.9493535684538
 20
990.2647097320407
 30
0.0
 11
301.2617975685658
 21
990.2779177320157
 31
0.0
  0
LINE
  5
56FD
330
2
100
AcDbEntity
  8
KIJUN
100
AcDbLine
 10
301.2617975685658
 20
990.2779177320157
 30
0.0
 11
307.6039235685758
 21
990.6134517320571
 31
0.0
  0
LINE
  5
56FE
330
2
100
AcDbEntity
  8
KIJUN
100
AcDbLine
 10
307.6039235685758
 20
990.6134517320571
 30
0.0
 11
316.6651195685138
 21
992.1501517320544
 31
0.0
  0
LINE
  5
56FF
330
2
100
AcDbEntity
  8
KIJUN
100
AcDbLine
 10
316.6651195685138
 20
992.1501517320544
 30
0.0
 11
324.6818675685366
 21
998.2973327320255
 31
0.0
  0
LINE
  5
5700
330
2
100
AcDbEntity
  8
KIJUN
100
AcDbLine
 10
324.6818675685366
 20
998.2973327320255
 30
0.0
 11
325.6722135686157
 21
1001.765067731973
 31
0.0
  0
LINE
  5
5701
330
2
100
AcDbEntity
  8
KIJUN
100
AcDbLine
 10
325.6722135686157
 20
1001.765067731973
 30
0.0
 11
324.9879375684407
 21
1007.324746731956
 31
0.0
  0
LINE
  5
5702
330
2
100
AcDbEntity
  8
KIJUN
100
AcDbLine
 10
324.9879375684407
 20
1007.324746731956
 30
0.0
 11
318.8473605685008
 21
1010.32740773202
 31
0.0
  0
LINE
  5
5703
330
2
100
AcDbEntity
  8
KIJUN
100
AcDbLine
 10
320.8504045685857
 20
863.355895731966
 30
0.0
 11
358.3913505684339
 21
863.4948337319915
 31
0.0
  0
LINE
  5
5704
330
2
100
AcDbEntity
  8
KIJUN
100
AcDbLine
 10
358.3913505684339
 20
863.4948337319915
 30
0.0
 11
357.2049165685178
 21
862.5940227319629
 31
0.0
  0
LINE
  5
5705
330
2
100
AcDbEntity
  8
KIJUN
100
AcDbLine
 10
357.2049165685178
 20
862.5940227319629
 30
0.0
 11
356.1804075684207
 21
861.4768037320285
 31
0.0
  0
LINE
  5
5706
330
2
100
AcDbEntity
  8
KIJUN
100
AcDbLine
 10
356.1804075684207
 20
861.4768037320285
 30
0.0
 11
355.6873935685447
 21
860.019859732009
 31
0.0
  0
LINE
  5
5707
330
2
100
AcDbEntity
  8
KIJUN
100
AcDbLine
 10
355.6873935685447
 20
860.019859732009
 30
0.0
 11
355.1057335684469
 21
857.249862732057
 31
0.0
  0
LINE
  5
5708
330
2
100
AcDbEntity
  8
KIJUN
100
AcDbLine
 10
355.1057335684469
 20
857.249862732057
 30
0.0
 11
355.1942525686186
 21
854.6344247319908
 31
0.0
  0
LINE
  5
5709
330
2
100
AcDbEntity
  8
KIJUN
100
AcDbLine
 10
355.1942525686186
 20
854.6344247319908
 30
0.0
 11
356.2073315685278
 21
852.7914007320328
 31
0.0
  0
LINE
  5
570A
330
2
100
AcDbEntity
  8
KIJUN
100
AcDbLine
 10
356.2073315685278
 20
852.7914007320328
 30
0.0
 11
357.5014615684068
 21
850.9946047320013
 31
0.0
  0
LINE
  5
570B
330
2
100
AcDbEntity
  8
KIJUN
100
AcDbLine
 10
357.5014615684068
 20
850.9946047320013
 30
0.0
 11
359.2807315685148
 21
849.074110732025
 31
0.0
  0
LINE
  5
570C
330
2
100
AcDbEntity
  8
KIJUN
100
AcDbLine
 10
359.2807315685148
 20
849.074110732025
 30
0.0
 11
361.1988125684748
 21
847.6479007320124
 31
0.0
  0
LINE
  5
570D
330
2
100
AcDbEntity
  8
KIJUN
100
AcDbLine
 10
361.1988125684748
 20
847.6479007320124
 30
0.0
 11
364.0067825684687
 21
845.8409447320123
 31
0.0
  0
LINE
  5
570E
330
2
100
AcDbEntity
  8
KIJUN
100
AcDbLine
 10
364.0067825684687
 20
845.8409447320123
 30
0.0
 11
366.7103585684539
 21
844.8678707320182
 31
0.0
  0
LINE
  5
570F
330
2
100
AcDbEntity
  8
KIJUN
100
AcDbLine
 10
366.7103585684539
 20
844.8678707320182
 30
0.0
 11
368.4783255684179
 21
844.1729267320447
 31
0.0
  0
LINE
  5
5710
330
2
100
AcDbEntity
  8
KIJUN
100
AcDbLine
 10
368.4783255684179
 20
844.1729267320447
 30
0.0
 11
370.0378855685279
 21
843.616920731973
 31
0.0
  0
LINE
  5
5711
330
2
100
AcDbEntity
  8
KIJUN
100
AcDbLine
 10
370.0378855685279
 20
843.616920731973
 30
0.0
 11
308.0598535686086
 21
843.894923732067
 31
0.0
  0
LINE
  5
5712
330
2
100
AcDbEntity
  8
KIJUN
100
AcDbLine
 10
308.0598535686086
 20
843.894923732067
 30
0.0
 11
311.5954065684219
 21
844.450929732015
 31
0.0
  0
LINE
  5
5713
330
2
100
AcDbEntity
  8
KIJUN
100
AcDbLine
 10
311.5954065684219
 20
844.450929732015
 30
0.0
 11
313.8833115686007
 21
845.562941732042
 31
0.0
  0
LINE
  5
5714
330
2
100
AcDbEntity
  8
KIJUN
100
AcDbLine
 10
313.8833115686007
 20
845.562941732042
 30
0.0
 11
316.5868875685859
 21
846.6749537320616
 31
0.0
  0
LINE
  5
5715
330
2
100
AcDbEntity
  8
KIJUN
100
AcDbLine
 10
316.5868875685859
 20
846.6749537320616
 30
0.0
 11
319.1868315686098
 21
848.3428447319933
 31
0.0
  0
LINE
  5
5716
330
2
100
AcDbEntity
  8
KIJUN
100
AcDbLine
 10
319.1868315686098
 20
848.3428447319933
 30
0.0
 11
321.3703425685688
 21
850.0108627319679
 31
0.0
  0
LINE
  5
5717
330
2
100
AcDbEntity
  8
KIJUN
100
AcDbLine
 10
321.3703425685688
 20
850.0108627319679
 30
0.0
 11
323.0342965684406
 21
851.8184537320744
 31
0.0
  0
LINE
  5
5718
330
2
100
AcDbEntity
  8
KIJUN
100
AcDbLine
 10
323.0342965684406
 20
851.8184537320744
 30
0.0
 11
324.1783125685557
 21
854.7374217319779
 31
0.0
  0
LINE
  5
5719
330
2
100
AcDbEntity
  8
KIJUN
100
AcDbLine
 10
324.1783125685557
 20
854.7374217319779
 30
0.0
 11
324.1398315684649
 21
855.9832917320349
 31
0.0
  0
LINE
  5
571A
330
2
100
AcDbEntity
  8
KIJUN
100
AcDbLine
 10
324.1398315684649
 20
855.9832917320349
 30
0.0
 11
323.9395525685778
 21
857.1055907319646
 31
0.0
  0
LINE
  5
571B
330
2
100
AcDbEntity
  8
KIJUN
100
AcDbLine
 10
323.9395525685778
 20
857.1055907319646
 30
0.0
 11
323.7623875684379
 21
858.3513337319782
 31
0.0
  0
LINE
  5
571C
330
2
100
AcDbEntity
  8
KIJUN
100
AcDbLine
 10
323.7623875684379
 20
858.3513337319782
 30
0.0
 11
323.1229425684226
 21
860.2668747320025
 31
0.0
  0
LINE
  5
571D
330
2
100
AcDbEntity
  8
KIJUN
100
AcDbLine
 10
323.1229425684226
 20
860.2668747320025
 30
0.0
 11
322.0444585685417
 21
861.9967417320189
 31
0.0
  0
LINE
  5
571E
330
2
100
AcDbEntity
  8
KIJUN
100
AcDbLine
 10
322.0444585685417
 20
861.9967417320189
 30
0.0
 11
320.8504045685857
 21
863.355895731966
 31
0.0
  0
LINE
  5
571F
330
2
100
AcDbEntity
  8
KIJUN
100
AcDbLine
 10
317.7113455685558
 20
863.4828957319809
 30
0.0
 11
360.0733385684019
 21
863.71543273205
 31
0.0
  0
LINE
  5
5720
330
2
100
AcDbEntity
  8
KIJUN
100
AcDbLine
 10
300.5663455685297
 20
984.7678957319844
 30
0.0
 11
299.4798605684787
 21
984.4698267320314
 31
0.0
  0
LINE
  5
5721
330
2
100
AcDbEntity
  8
KIJUN
100
AcDbLine
 10
299.4798605684787
 20
984.4698267320314
 30
0.0
 11
298.6274365684379
 21
983.8397797320689
 31
0.0
  0
LINE
  5
5722
330
2
100
AcDbEntity
  8
KIJUN
100
AcDbLine
 10
298.6274365684379
 20
983.8397797320689
 30
0.0
 11
297.9733865685647
 21
982.9284277320589
 31
0.0
  0
LINE
  5
5723
330
2
100
AcDbEntity
  8
KIJUN
100
AcDbLine
 10
297.9733865685647
 20
982.9284277320589
 30
0.0
 11
297.6459805686118
 21
981.8598497319586
 31
0.0
  0
LINE
  5
5724
330
2
100
AcDbEntity
  8
KIJUN
100
AcDbLine
 10
297.6459805686118
 20
981.8598497319586
 30
0.0
 11
297.3009215684586
 21
980.7400907319648
 31
0.0
  0
LINE
  5
5725
330
2
100
AcDbEntity
  8
KIJUN
100
AcDbLine
 10
297.3009215684586
 20
980.7400907319648
 30
0.0
 11
296.9197945685606
 21
979.5949317320449
 31
0.0
  0
LINE
  5
5726
330
2
100
AcDbEntity
  8
KIJUN
100
AcDbLine
 10
296.9197945685606
 20
979.5949317320449
 30
0.0
 11
296.4725005684469
 21
974.502612732042
 31
0.0
  0
LINE
  5
5727
330
2
100
AcDbEntity
  8
KIJUN
100
AcDbLine
 10
296.4725005684469
 20
974.502612732042
 30
0.0
 11
296.0973425685097
 21
969.206077731968
 31
0.0
  0
LINE
  5
5728
330
2
100
AcDbEntity
  8
KIJUN
100
AcDbLine
 10
296.0973425685097
 20
969.206077731968
 30
0.0
 11
296.0283815684907
 21
964.1903397320097
 31
0.0
  0
LINE
  5
5729
330
2
100
AcDbEntity
  8
KIJUN
100
AcDbLine
 10
296.0283815684907
 20
964.1903397320097
 30
0.0
 11
296.0283815684907
 21
949.7058627320697
 31
0.0
  0
LINE
  5
572A
330
2
100
AcDbEntity
  8
KIJUN
100
AcDbLine
 10
296.0283815684907
 20
949.7058627320697
 30
0.0
 11
297.1628725686106
 21
930.9673937320081
 31
0.0
  0
LINE
  5
572B
330
2
100
AcDbEntity
  8
KIJUN
100
AcDbLine
 10
297.1628725686106
 20
930.9673937320081
 30
0.0
 11
299.2698025685257
 21
913.6089067320103
 31
0.0
  0
LINE
  5
572C
330
2
100
AcDbEntity
  8
KIJUN
100
AcDbLine
 10
299.2698025685257
 20
913.6089067320103
 30
0.0
 11
301.7008365684247
 21
900.7339007319719
 31
0.0
  0
LINE
  5
572D
330
2
100
AcDbEntity
  8
KIJUN
100
AcDbLine
 10
301.7008365684247
 20
900.7339007319719
 30
0.0
 11
303.2465535684617
 21
894.4536237319958
 31
0.0
  0
LINE
  5
572E
330
2
100
AcDbEntity
  8
KIJUN
100
AcDbLine
 10
303.2465535684617
 20
894.4536237319958
 30
0.0
 11
305.3684695685898
 21
888.5822867319625
 31
0.0
  0
LINE
  5
572F
330
2
100
AcDbEntity
  8
KIJUN
100
AcDbLine
 10
305.3684695685898
 20
888.5822867319625
 30
0.0
 11
307.9408545685238
 21
882.9154197319626
 31
0.0
  0
LINE
  5
5730
330
2
100
AcDbEntity
  8
KIJUN
100
AcDbLine
 10
307.9408545685238
 20
882.9154197319626
 30
0.0
 11
310.3148655685157
 21
878.6746357320412
 31
0.0
  0
LINE
  5
5731
330
2
100
AcDbEntity
  8
KIJUN
100
AcDbLine
 10
310.3148655685157
 20
878.6746357320412
 30
0.0
 11
313.0490485684727
 21
874.7404297320649
 31
0.0
  0
LINE
  5
5732
330
2
100
AcDbEntity
  8
KIJUN
100
AcDbLine
 10
313.0490485684727
 20
874.7404297320649
 30
0.0
 11
316.1253695685167
 21
871.1893827319839
 31
0.0
  0
LINE
  5
5733
330
2
100
AcDbEntity
  8
KIJUN
100
AcDbLine
 10
316.1253695685167
 20
871.1893827319839
 30
0.0
 11
318.5806605685367
 21
868.4007167320565
 31
0.0
  0
LINE
  5
5734
330
2
100
AcDbEntity
  8
KIJUN
100
AcDbLine
 10
318.5806605685367
 20
868.4007167320565
 30
0.0
 11
321.1259945685538
 21
865.6631047319793
 31
0.0
  0
LINE
  5
5735
330
2
100
AcDbEntity
  8
KIJUN
100
AcDbLine
 10
321.1259945685538
 20
865.6631047319793
 30
0.0
 11
324.0673145683987
 21
863.4873407319869
 31
0.0
  0
LINE
  5
5736
330
2
100
AcDbEntity
  8
KIJUN
100
AcDbLine
 10
324.0673145683987
 20
863.4873407319869
 30
0.0
 11
326.6604005684147
 21
858.7738627320179
 31
0.0
  0
LINE
  5
5737
330
2
100
AcDbEntity
  8
KIJUN
100
AcDbLine
 10
326.6604005684147
 20
858.7738627320179
 30
0.0
 11
326.6664965686298
 21
857.3943887320169
 31
0.0
  0
LINE
  5
5738
330
2
100
AcDbEntity
  8
KIJUN
100
AcDbLine
 10
326.6664965686298
 20
857.3943887320169
 30
0.0
 11
327.0325105684838
 21
856.0149147320013
 31
0.0
  0
LINE
  5
5739
330
2
100
AcDbEntity
  8
KIJUN
100
AcDbLine
 10
327.0325105684838
 20
856.0149147320013
 30
0.0
 11
326.8223255684798
 21
854.6354407319855
 31
0.0
  0
LINE
  5
573A
330
2
100
AcDbEntity
  8
KIJUN
100
AcDbLine
 10
326.8223255684798
 20
854.6354407319855
 30
0.0
 11
326.5163825684004
 21
853.5285087320703
 31
0.0
  0
LINE
  5
573B
330
2
100
AcDbEntity
  8
KIJUN
100
AcDbLine
 10
326.5163825684004
 20
853.5285087320703
 30
0.0
 11
327.2367265685407
 21
852.9069707319909
 31
0.0
  0
LINE
  5
573C
330
2
100
AcDbEntity
  8
KIJUN
100
AcDbLine
 10
327.2367265685407
 20
852.9069707319909
 30
0.0
 11
326.8223255684798
 21
852.3363597320608
 31
0.0
  0
LINE
  5
573D
330
2
100
AcDbEntity
  8
KIJUN
100
AcDbLine
 10
326.8223255684798
 20
852.3363597320608
 30
0.0
 11
325.2828315684758
 21
849.3474147320268
 31
0.0
  0
LINE
  5
573E
330
2
100
AcDbEntity
  8
KIJUN
100
AcDbLine
 10
325.2828315684758
 20
849.3474147320268
 30
0.0
 11
349.9993175684076
 21
851.3019447319788
 31
0.0
  0
LINE
  5
573F
330
2
100
AcDbEntity
  8
KIJUN
100
AcDbLine
 10
349.9993175684076
 20
851.3019447319788
 30
0.0
 11
350.8098315685798
 21
852.6814187319873
 31
0.0
  0
LINE
  5
5740
330
2
100
AcDbEntity
  8
KIJUN
100
AcDbLine
 10
350.8098315685798
 20
852.6814187319873
 30
0.0
 11
351.0527825685948
 21
855.0954347320116
 31
0.0
  0
LINE
  5
5741
330
2
100
AcDbEntity
  8
KIJUN
100
AcDbLine
 10
351.0527825685948
 20
855.0954347320116
 30
0.0
 11
350.5996465685904
 21
856.3982007320412
 31
0.0
  0
LINE
  5
5742
330
2
100
AcDbEntity
  8
KIJUN
100
AcDbLine
 10
350.5996465685904
 20
856.3982007320412
 30
0.0
 11
350.5605305685038
 21
857.7010937319979
 31
0.0
  0
LINE
  5
5743
330
2
100
AcDbEntity
  8
KIJUN
100
AcDbLine
 10
350.5605305685038
 20
857.7010937319979
 30
0.0
 11
350.4853465684655
 21
859.2338567320444
 31
0.0
  0
LINE
  5
5744
330
2
100
AcDbEntity
  8
KIJUN
100
AcDbLine
 10
350.4853465684655
 20
859.2338567320444
 30
0.0
 11
350.9297195685227
 21
861.6309817320109
 31
0.0
  0
LINE
  5
5745
330
2
100
AcDbEntity
  8
KIJUN
100
AcDbLine
 10
350.9297195685227
 20
861.6309817320109
 30
0.0
 11
352.4184135684278
 21
863.0828457320498
 31
0.0
  0
LINE
  5
5746
330
2
100
AcDbEntity
  8
KIJUN
100
AcDbLine
 10
352.4184135684278
 20
863.0828457320498
 30
0.0
 11
353.7268945685446
 21
864.636944732036
 31
0.0
  0
LINE
  5
5747
330
2
100
AcDbEntity
  8
KIJUN
100
AcDbLine
 10
353.7268945685446
 20
864.636944732036
 30
0.0
 11
358.9943465685877
 21
869.8099087319683
 31
0.0
  0
LINE
  5
5748
330
2
100
AcDbEntity
  8
KIJUN
100
AcDbLine
 10
358.9943465685877
 20
869.8099087319683
 30
0.0
 11
362.5541565685217
 21
873.2375117319648
 31
0.0
  0
LINE
  5
5749
330
2
100
AcDbEntity
  8
KIJUN
100
AcDbLine
 10
362.5541565685217
 20
873.2375117319648
 30
0.0
 11
365.8076425684788
 21
876.6138067320248
 31
0.0
  0
LINE
  5
574A
330
2
100
AcDbEntity
  8
KIJUN
100
AcDbLine
 10
365.8076425684788
 20
876.6138067320248
 30
0.0
 11
368.5568115684223
 21
880.2714067320305
 31
0.0
  0
LINE
  5
574B
330
2
100
AcDbEntity
  8
KIJUN
100
AcDbLine
 10
368.5568115684223
 20
880.2714067320305
 30
0.0
 11
375.5263175685266
 21
893.9513387319717
 31
0.0
  0
LINE
  5
574C
330
2
100
AcDbEntity
  8
KIJUN
100
AcDbLine
 10
375.5263175685266
 20
893.9513387319717
 30
0.0
 11
379.8213305685507
 21
908.4359427319691
 31
0.0
  0
LINE
  5
574D
330
2
100
AcDbEntity
  8
KIJUN
100
AcDbLine
 10
379.8213305685507
 20
908.4359427319691
 30
0.0
 11
382.5763415683999
 21
924.6449527319605
 31
0.0
  0
LINE
  5
574E
330
2
100
AcDbEntity
  8
KIJUN
100
AcDbLine
 10
382.5763415683999
 20
924.6449527319605
 30
0.0
 11
384.1973695685247
 21
940.5089037320326
 31
0.0
  0
LINE
  5
574F
330
2
100
AcDbEntity
  8
KIJUN
100
AcDbLine
 10
384.1973695685247
 20
940.5089037320326
 30
0.0
 11
384.6833985685829
 21
956.8328487320071
 31
0.0
  0
LINE
  5
5750
330
2
100
AcDbEntity
  8
KIJUN
100
AcDbLine
 10
384.6833985685829
 20
956.8328487320071
 30
0.0
 11
384.6023725684148
 21
972.3523757320258
 31
0.0
  0
LINE
  5
5751
330
2
100
AcDbEntity
  8
KIJUN
100
AcDbLine
 10
384.6023725684148
 20
972.3523757320258
 30
0.0
 11
384.6143105685197
 21
975.0517607319746
 31
0.0
  0
LINE
  5
5752
330
2
100
AcDbEntity
  8
KIJUN
100
AcDbLine
 10
384.6143105685197
 20
975.0517607319746
 30
0.0
 11
384.5903075684858
 21
977.6999647320522
 31
0.0
  0
LINE
  5
5753
330
2
100
AcDbEntity
  8
KIJUN
100
AcDbLine
 10
384.5903075684858
 20
977.6999647320522
 30
0.0
 11
384.4403205685388
 21
980.3993497320011
 31
0.0
  0
LINE
  5
5754
330
2
100
AcDbEntity
  8
KIJUN
100
AcDbLine
 10
384.4403205685388
 20
980.3993497320011
 30
0.0
 11
383.7620135685298
 21
982.3750887319661
 31
0.0
  0
LINE
  5
5755
330
2
100
AcDbEntity
  8
KIJUN
100
AcDbLine
 10
383.7620135685298
 20
982.3750887319661
 30
0.0
 11
382.5254145684899
 21
983.8651797320094
 31
0.0
  0
LINE
  5
5756
330
2
100
AcDbEntity
  8
KIJUN
100
AcDbLine
 10
382.5254145684899
 20
983.8651797320094
 30
0.0
 11
380.7128705684386
 21
984.7678957319844
 31
0.0
  0
LINE
  5
5757
330
2
100
AcDbEntity
  8
KIJUN
100
AcDbLine
 10
380.7128705684386
 20
984.7678957319844
 30
0.0
 11
300.5663455685297
 21
984.7678957319844
 31
0.0
  0
LINE
  5
5758
330
2
100
AcDbEntity
  8
KIJUN
100
AcDbLine
 10
317.7503345685849
 20
1029.217895732025
 30
0.0
 11
361.9987855685486
 21
1029.217895732025
 31
0.0
  0
LINE
  5
5759
330
2
100
AcDbEntity
  8
KIJUN
100
AcDbLine
 10
361.9987855685486
 20
1029.217895732025
 30
0.0
 11
363.7457975685848
 21
1028.603215731961
 31
0.0
  0
LINE
  5
575A
330
2
100
AcDbEntity
  8
KIJUN
100
AcDbLine
 10
363.7457975685848
 20
1028.603215731961
 30
0.0
 11
364.9916675685247
 21
1026.991458731969
 31
0.0
  0
LINE
  5
575B
330
2
100
AcDbEntity
  8
KIJUN
100
AcDbLine
 10
364.9916675685247
 20
1026.991458731969
 30
0.0
 11
365.4669015686319
 21
1024.731366731965
 31
0.0
  0
LINE
  5
575C
330
2
100
AcDbEntity
  8
KIJUN
100
AcDbLine
 10
365.4669015686319
 20
1024.731366731965
 30
0.0
 11
365.4669015686319
 21
1023.184887732012
 31
0.0
  0
LINE
  5
575D
330
2
100
AcDbEntity
  8
KIJUN
100
AcDbLine
 10
365.4669015686319
 20
1023.184887732012
 30
0.0
 11
364.9916675685247
 21
1020.924795732001
 31
0.0
  0
LINE
  5
575E
330
2
100
AcDbEntity
  8
KIJUN
100
AcDbLine
 10
364.9916675685247
 20
1020.924795732001
 30
0.0
 11
363.7457975685848
 21
1019.313165732052
 31
0.0
  0
LINE
  5
575F
330
2
100
AcDbEntity
  8
KIJUN
100
AcDbLine
 10
363.7457975685848
 20
1019.313165732052
 30
0.0
 11
361.9987855685486
 21
1018.698358732061
 31
0.0
  0
LINE
  5
5760
330
2
100
AcDbEntity
  8
KIJUN
100
AcDbLine
 10
361.9987855685486
 20
1018.698358732061
 30
0.0
 11
317.7503345685849
 21
1018.698358732061
 31
0.0
  0
LINE
  5
5761
330
2
100
AcDbEntity
  8
KIJUN
100
AcDbLine
 10
317.7503345685849
 20
1018.698358732061
 30
0.0
 11
316.0034495685987
 21
1019.313165732052
 31
0.0
  0
LINE
  5
5762
330
2
100
AcDbEntity
  8
KIJUN
100
AcDbLine
 10
316.0034495685987
 20
1019.313165732052
 30
0.0
 11
314.7575795684186
 21
1020.924795732001
 31
0.0
  0
LINE
  5
5763
330
2
100
AcDbEntity
  8
KIJUN
100
AcDbLine
 10
314.7575795684186
 20
1020.924795732001
 30
0.0
 11
314.2823455685519
 21
1023.184887732012
 31
0.0
  0
LINE
  5
5764
330
2
100
AcDbEntity
  8
KIJUN
100
AcDbLine
 10
314.2823455685519
 20
1023.184887732012
 30
0.0
 11
314.2823455685519
 21
1024.731366731965
 31
0.0
  0
LINE
  5
5765
330
2
100
AcDbEntity
  8
KIJUN
100
AcDbLine
 10
314.2823455685519
 20
1024.731366731965
 30
0.0
 11
314.7575795684186
 21
1026.991458731969
 31
0.0
  0
LINE
  5
5766
330
2
100
AcDbEntity
  8
KIJUN
100
AcDbLine
 10
314.7575795684186
 20
1026.991458731969
 30
0.0
 11
316.0034495685987
 21
1028.603215731961
 31
0.0
  0
LINE
  5
5767
330
2
100
AcDbEntity
  8
KIJUN
100
AcDbLine
 10
316.0034495685987
 20
1028.603215731961
 30
0.0
 11
317.7503345685849
 21
1029.217895732025
 31
0.0
  0
LINE
  5
5768
330
2
100
AcDbEntity
  8
KIJUN
100
AcDbLine
 10
306.9163455684339
 20
828.938895732001
 30
0.0
 11
371.4223125684817
 21
828.938895732001
 31
0.0
  0
LINE
  5
5769
330
2
100
AcDbEntity
  8
KIJUN
100
AcDbLine
 10
371.4223125684817
 20
828.938895732001
 30
0.0
 11
371.4223125684817
 21
825.8008527319585
 31
0.0
  0
LINE
  5
576A
330
2
100
AcDbEntity
  8
KIJUN
100
AcDbLine
 10
371.4223125684817
 20
825.8008527319585
 30
0.0
 11
306.9163455684339
 21
825.8008527319585
 31
0.0
  0
LINE
  5
576B
330
2
100
AcDbEntity
  8
KIJUN
100
AcDbLine
 10
306.9163455684339
 20
825.8008527319585
 30
0.0
 11
306.9163455684339
 21
828.938895732001
 31
0.0
  0
LINE
  5
576C
330
2
100
AcDbEntity
  8
KIJUN
100
AcDbLine
 10
308.0593455684294
 20
843.6708957319902
 30
0.0
 11
370.7808355684629
 21
843.6708957319902
 31
0.0
  0
LINE
  5
576D
330
2
100
AcDbEntity
  8
KIJUN
100
AcDbLine
 10
370.7808355684629
 20
843.6708957319902
 30
0.0
 11
370.7808355684629
 21
839.7199257320066
 31
0.0
  0
LINE
  5
576E
330
2
100
AcDbEntity
  8
KIJUN
100
AcDbLine
 10
370.7808355684629
 20
839.7199257320066
 30
0.0
 11
308.0593455684294
 21
839.7199257320066
 31
0.0
  0
LINE
  5
576F
330
2
100
AcDbEntity
  8
KIJUN
100
AcDbLine
 10
308.0593455684294
 20
839.7199257320066
 30
0.0
 11
308.0593455684294
 21
843.6708957319902
 31
0.0
  0
LINE
  5
5770
330
2
100
AcDbEntity
  8
KIJUN
100
AcDbLine
 10
307.9178675685928
 20
839.7338957320064
 30
0.0
 11
371.8563985685049
 21
839.7338957320064
 31
0.0
  0
LINE
  5
5771
330
2
100
AcDbEntity
  8
KIJUN
100
AcDbLine
 10
371.8563985685049
 20
839.7338957320064
 30
0.0
 11
373.4483435684825
 21
838.9947557319649
 31
0.0
  0
LINE
  5
5772
330
2
100
AcDbEntity
  8
KIJUN
100
AcDbLine
 10
373.4483435684825
 20
838.9947557319649
 30
0.0
 11
374.5838505684968
 21
837.0569897320351
 31
0.0
  0
LINE
  5
5773
330
2
100
AcDbEntity
  8
KIJUN
100
AcDbLine
 10
374.5838505684968
 20
837.0569897320351
 30
0.0
 11
375.0167935685977
 21
834.3399517319889
 31
0.0
  0
LINE
  5
5774
330
2
100
AcDbEntity
  8
KIJUN
100
AcDbLine
 10
375.0167935685977
 20
834.3399517319889
 30
0.0
 11
375.0167935685977
 21
834.201394731976
 31
0.0
  0
LINE
  5
5775
330
2
100
AcDbEntity
  8
KIJUN
100
AcDbLine
 10
375.0167935685977
 20
834.201394731976
 30
0.0
 11
374.5838505684968
 21
831.4842297320106
 31
0.0
  0
LINE
  5
5776
330
2
100
AcDbEntity
  8
KIJUN
100
AcDbLine
 10
374.5838505684968
 20
831.4842297320106
 30
0.0
 11
373.4483435684825
 21
829.5464637319639
 31
0.0
  0
LINE
  5
5777
330
2
100
AcDbEntity
  8
KIJUN
100
AcDbLine
 10
373.4483435684825
 20
829.5464637319639
 30
0.0
 11
371.8563985685049
 21
828.8074507319654
 31
0.0
  0
LINE
  5
5778
330
2
100
AcDbEntity
  8
KIJUN
100
AcDbLine
 10
371.8563985685049
 20
828.8074507319654
 30
0.0
 11
307.9178675685928
 21
828.8074507319654
 31
0.0
  0
LINE
  5
5779
330
2
100
AcDbEntity
  8
KIJUN
100
AcDbLine
 10
307.9178675685928
 20
828.8074507319654
 30
0.0
 11
306.3257955685707
 21
829.5464637319639
 31
0.0
  0
LINE
  5
577A
330
2
100
AcDbEntity
  8
KIJUN
100
AcDbLine
 10
306.3257955685707
 20
829.5464637319639
 30
0.0
 11
305.1904155686007
 21
831.4842297320106
 31
0.0
  0
LINE
  5
577B
330
2
100
AcDbEntity
  8
KIJUN
100
AcDbLine
 10
305.1904155686007
 20
831.4842297320106
 30
0.0
 11
304.7573455684558
 21
834.201394731976
 31
0.0
  0
LINE
  5
577C
330
2
100
AcDbEntity
  8
KIJUN
100
AcDbLine
 10
304.7573455684558
 20
834.201394731976
 30
0.0
 11
304.7573455684558
 21
834.3399517319889
 31
0.0
  0
LINE
  5
577D
330
2
100
AcDbEntity
  8
KIJUN
100
AcDbLine
 10
304.7573455684558
 20
834.3399517319889
 30
0.0
 11
305.1904155686007
 21
837.0569897320351
 31
0.0
  0
LINE
  5
577E
330
2
100
AcDbEntity
  8
KIJUN
100
AcDbLine
 10
305.1904155686007
 20
837.0569897320351
 30
0.0
 11
306.3257955685707
 21
838.9947557319649
 31
0.0
  0
LINE
  5
577F
330
2
100
AcDbEntity
  8
KIJUN
100
AcDbLine
 10
306.3257955685707
 20
838.9947557319649
 30
0.0
 11
307.9178675685928
 21
839.7338957320064
 31
0.0
  0
LINE
  5
5780
330
2
100
AcDbEntity
  8
KIJUN
100
AcDbLine
 10
349.5057955685789
 20
1086.599416732072
 30
0.0
 11
347.5913975684826
 21
1136.929389732064
 31
0.0
  0
LINE
  5
5781
330
2
100
AcDbEntity
  8
KIJUN
100
AcDbLine
 10
347.5913975684826
 20
1136.929389732064
 30
0.0
 11
346.9533495684746
 21
1156.441923731977
 31
0.0
  0
LINE
  5
5782
330
2
100
AcDbEntity
  8
KIJUN
100
AcDbLine
 10
346.9533495684746
 20
1156.441923731977
 30
0.0
 11
346.6698855686128
 21
1185.555911731997
 31
0.0
  0
LINE
  5
5783
330
2
100
AcDbEntity
  8
KIJUN
100
AcDbLine
 10
346.6698855686128
 20
1185.555911731997
 30
0.0
 11
346.6698855686128
 21
1195.854341732065
 31
0.0
  0
LINE
  5
5784
330
2
100
AcDbEntity
  8
KIJUN
100
AcDbLine
 10
346.6698855686128
 20
1195.854341732065
 30
0.0
 11
347.3078065685777
 21
1208.475347732051
 31
0.0
  0
LINE
  5
5785
330
2
100
AcDbEntity
  8
KIJUN
100
AcDbLine
 10
347.3078065685777
 20
1208.475347732051
 30
0.0
 11
349.0803455684818
 21
1225.432895732035
 31
0.0
  0
LINE
  5
5786
330
2
100
AcDbEntity
  8
KIJUN
100
AcDbLine
 10
349.0803455684818
 20
1225.432895732035
 30
0.0
 11
350.9238775686188
 21
1227.368883732062
 31
0.0
  0
LINE
  5
5787
330
2
100
AcDbEntity
  8
KIJUN
100
AcDbLine
 10
350.9238775686188
 20
1227.368883732062
 30
0.0
 11
353.3338295685326
 21
1227.987881731965
 31
0.0
  0
LINE
  5
5788
330
2
100
AcDbEntity
  8
KIJUN
100
AcDbLine
 10
353.3338295685326
 20
1227.987881731965
 30
0.0
 11
355.8152825684097
 21
1227.523442732049
 31
0.0
  0
LINE
  5
5789
330
2
100
AcDbEntity
  8
KIJUN
100
AcDbLine
 10
355.8152825684097
 20
1227.523442732049
 30
0.0
 11
358.0128905685208
 21
1226.052401732001
 31
0.0
  0
LINE
  5
578A
330
2
100
AcDbEntity
  8
KIJUN
100
AcDbLine
 10
358.0128905685208
 20
1226.052401732001
 30
0.0
 11
358.4383405683998
 21
1225.123396732025
 31
0.0
  0
LINE
  5
578B
330
2
100
AcDbEntity
  8
KIJUN
100
AcDbLine
 10
358.4383405683998
 20
1225.123396732025
 30
0.0
 11
356.8077875685208
 21
1213.121388732058
 31
0.0
  0
LINE
  5
578C
330
2
100
AcDbEntity
  8
KIJUN
100
AcDbLine
 10
356.8077875685208
 20
1213.121388732058
 30
0.0
 11
355.7442895684017
 21
1199.57086973204
 31
0.0
  0
LINE
  5
578D
330
2
100
AcDbEntity
  8
KIJUN
100
AcDbLine
 10
355.7442895684017
 20
1199.57086973204
 30
0.0
 11
355.2483545684538
 21
1193.686451731959
 31
0.0
  0
LINE
  5
578E
330
2
100
AcDbEntity
  8
KIJUN
100
AcDbLine
 10
355.2483545684538
 20
1193.686451731959
 30
0.0
 11
355.2483545684538
 21
1175.877368732017
 31
0.0
  0
LINE
  5
578F
330
2
100
AcDbEntity
  8
KIJUN
100
AcDbLine
 10
355.2483545684538
 20
1175.877368732017
 30
0.0
 11
355.6028115685568
 21
1162.326849731992
 31
0.0
  0
LINE
  5
5790
330
2
100
AcDbEntity
  8
KIJUN
100
AcDbLine
 10
355.6028115685568
 20
1162.326849731992
 30
0.0
 11
356.3823375684097
 21
1151.254354732071
 31
0.0
  0
LINE
  5
5791
330
2
100
AcDbEntity
  8
KIJUN
100
AcDbLine
 10
356.3823375684097
 20
1151.254354732071
 30
0.0
 11
357.3748425685138
 21
1140.026919732012
 31
0.0
  0
LINE
  5
5792
330
2
100
AcDbEntity
  8
KIJUN
100
AcDbLine
 10
357.3748425685138
 20
1140.026919732012
 30
0.0
 11
360.1398865685197
 21
1107.196403732031
 31
0.0
  0
LINE
  5
5793
330
2
100
AcDbEntity
  8
KIJUN
100
AcDbLine
 10
360.1398865685197
 20
1107.196403732031
 30
0.0
 11
360.9907865685105
 21
1098.833453732029
 31
0.0
  0
LINE
  5
5794
330
2
100
AcDbEntity
  8
KIJUN
100
AcDbLine
 10
360.9907865685105
 20
1098.833453732029
 30
0.0
 11
361.4868485685016
 21
1091.167860732032
 31
0.0
  0
LINE
  5
5795
330
2
100
AcDbEntity
  8
KIJUN
100
AcDbLine
 10
361.4868485685016
 20
1091.167860732032
 30
0.0
 11
361.4868485685016
 21
1081.179437732022
 31
0.0
  0
LINE
  5
5796
330
2
100
AcDbEntity
  8
KIJUN
100
AcDbLine
 10
361.4868485685016
 20
1081.179437732022
 30
0.0
 11
360.9907865685105
 21
1069.719846732031
 31
0.0
  0
LINE
  5
5797
330
2
100
AcDbEntity
  8
KIJUN
100
AcDbLine
 10
360.9907865685105
 20
1069.719846732031
 30
0.0
 11
359.1473815684167
 21
1056.32439473207
 31
0.0
  0
LINE
  5
5798
330
2
100
AcDbEntity
  8
KIJUN
100
AcDbLine
 10
359.1473815684167
 20
1056.32439473207
 30
0.0
 11
356.7367945685124
 21
1045.638868732047
 31
0.0
  0
LINE
  5
5799
330
2
100
AcDbEntity
  8
KIJUN
100
AcDbLine
 10
356.7367945685124
 20
1045.638868732047
 30
0.0
 11
354.7517845685228
 21
1038.36037173199
 31
0.0
  0
LINE
  5
579A
330
2
100
AcDbEntity
  8
KIJUN
100
AcDbLine
 10
354.7517845685228
 20
1038.36037173199
 30
0.0
 11
354.4683205684287
 21
1036.579450732021
 31
0.0
  0
LINE
  5
579B
330
2
100
AcDbEntity
  8
KIJUN
100
AcDbLine
 10
354.4683205684287
 20
1036.579450732021
 30
0.0
 11
351.4382275685576
 21
1035.91409773201
 31
0.0
  0
LINE
  5
579C
330
2
100
AcDbEntity
  8
KIJUN
100
AcDbLine
 10
351.4382275685576
 20
1035.91409773201
 30
0.0
 11
348.5657415684557
 21
1035.954356732004
 31
0.0
  0
LINE
  5
579D
330
2
100
AcDbEntity
  8
KIJUN
100
AcDbLine
 10
348.5657415684557
 20
1035.954356732004
 30
0.0
 11
345.8193665685188
 21
1036.734390732036
 31
0.0
  0
LINE
  5
579E
330
2
100
AcDbEntity
  8
KIJUN
100
AcDbLine
 10
345.8193665685188
 20
1036.734390732036
 30
0.0
 11
346.6698855686128
 21
1046.025837732068
 31
0.0
  0
LINE
  5
579F
330
2
100
AcDbEntity
  8
KIJUN
100
AcDbLine
 10
346.6698855686128
 20
1046.025837732068
 30
0.0
 11
347.8043765685086
 21
1055.85944773199
 31
0.0
  0
LINE
  5
57A0
330
2
100
AcDbEntity
  8
KIJUN
100
AcDbLine
 10
347.8043765685086
 20
1055.85944773199
 30
0.0
 11
348.5839025685867
 21
1067.938925732069
 31
0.0
  0
LINE
  5
57A1
330
2
100
AcDbEntity
  8
KIJUN
100
AcDbLine
 10
348.5839025685867
 20
1067.938925732069
 30
0.0
 11
348.7258885686038
 21
1078.856353732055
 31
0.0
  0
LINE
  5
57A2
330
2
100
AcDbEntity
  8
KIJUN
100
AcDbLine
 10
348.7258885686038
 20
1078.856353732055
 30
0.0
 11
349.5057955685789
 21
1086.599416732072
 31
0.0
  0
LINE
  5
57A3
330
2
100
AcDbEntity
  8
KIJUN
100
AcDbLine
 10
379.7792935684136
 20
1227.898346732031
 30
0.0
 11
375.0584495686137
 21
1224.611840731984
 31
0.0
  0
LINE
  5
57A4
330
2
100
AcDbEntity
  8
KIJUN
100
AcDbLine
 10
375.0584495686137
 20
1224.611840731984
 30
0.0
 11
369.8964075684508
 21
1219.466943731964
 31
0.0
  0
LINE
  5
57A5
330
2
100
AcDbEntity
  8
KIJUN
100
AcDbLine
 10
369.8964075684508
 20
1219.466943731964
 30
0.0
 11
366.3098005684456
 21
1214.42542473206
 31
0.0
  0
LINE
  5
57A6
330
2
100
AcDbEntity
  8
KIJUN
100
AcDbLine
 10
366.3098005684456
 20
1214.42542473206
 30
0.0
 11
364.2484635684978
 21
1209.22032973199
 31
0.0
  0
LINE
  5
57A7
330
2
100
AcDbEntity
  8
KIJUN
100
AcDbLine
 10
364.2484635684978
 20
1209.22032973199
 30
0.0
 11
362.9119155685788
 21
1203.96367273202
 31
0.0
  0
LINE
  5
57A8
330
2
100
AcDbEntity
  8
KIJUN
100
AcDbLine
 10
362.9119155685788
 20
1203.96367273202
 30
0.0
 11
362.1268015684557
 21
1198.861955732074
 31
0.0
  0
LINE
  5
57A9
330
2
100
AcDbEntity
  8
KIJUN
100
AcDbLine
 10
362.1268015684557
 20
1198.861955732074
 30
0.0
 11
361.6726495685596
 21
1190.413407731973
 31
0.0
  0
LINE
  5
57AA
330
2
100
AcDbEntity
  8
KIJUN
100
AcDbLine
 10
361.6726495685596
 20
1190.413407731973
 30
0.0
 11
361.5649535686035
 21
1181.655106732014
 31
0.0
  0
LINE
  5
57AB
330
2
100
AcDbEntity
  8
KIJUN
100
AcDbLine
 10
361.5649535686035
 20
1181.655106732014
 30
0.0
 11
362.1977945684649
 21
1172.844862732014
 31
0.0
  0
LINE
  5
57AC
330
2
100
AcDbEntity
  8
KIJUN
100
AcDbLine
 10
362.1977945684649
 20
1172.844862732014
 30
0.0
 11
363.6077485685178
 21
1161.767414732032
 31
0.0
  0
LINE
  5
57AD
330
2
100
AcDbEntity
  8
KIJUN
100
AcDbLine
 10
363.6077485685178
 20
1161.767414732032
 30
0.0
 11
364.8509515684728
 21
1150.641579732069
 31
0.0
  0
LINE
  5
57AE
330
2
100
AcDbEntity
  8
KIJUN
100
AcDbLine
 10
364.8509515684728
 20
1150.641579732069
 30
0.0
 11
366.1689575685908
 21
1139.456435732009
 31
0.0
  0
LINE
  5
57AF
330
2
100
AcDbEntity
  8
KIJUN
100
AcDbLine
 10
366.1689575685908
 20
1139.456435732009
 30
0.0
 11
367.8035745684629
 21
1128.200552732032
 31
0.0
  0
LINE
  5
57B0
330
2
100
AcDbEntity
  8
KIJUN
100
AcDbLine
 10
367.8035745684629
 20
1128.200552732032
 30
0.0
 11
369.9963565685476
 21
1116.862881731966
 31
0.0
  0
LINE
  5
57B1
330
2
100
AcDbEntity
  8
KIJUN
100
AcDbLine
 10
369.9963565685476
 20
1116.862881731966
 30
0.0
 11
372.0364845684829
 21
1104.012132732056
 31
0.0
  0
LINE
  5
57B2
330
2
100
AcDbEntity
  8
KIJUN
100
AcDbLine
 10
372.0364845684829
 20
1104.012132732056
 30
0.0
 11
373.9348805684877
 21
1090.610965732
 31
0.0
  0
LINE
  5
57B3
330
2
100
AcDbEntity
  8
KIJUN
100
AcDbLine
 10
373.9348805684877
 20
1090.610965732
 30
0.0
 11
374.4623115684747
 21
1076.985897732037
 31
0.0
  0
LINE
  5
57B4
330
2
100
AcDbEntity
  8
KIJUN
100
AcDbLine
 10
374.4623115684747
 20
1076.985897732037
 30
0.0
 11
374.0763585685646
 21
1066.263033731967
 31
0.0
  0
LINE
  5
57B5
330
2
100
AcDbEntity
  8
KIJUN
100
AcDbLine
 10
374.0763585685646
 20
1066.263033731967
 30
0.0
 11
372.2725775684829
 21
1055.67809173204
 31
0.0
  0
LINE
  5
57B6
330
2
100
AcDbEntity
  8
KIJUN
100
AcDbLine
 10
372.2725775684829
 20
1055.67809173204
 30
0.0
 11
369.1453295685217
 21
1045.316923731978
 31
0.0
  0
LINE
  5
57B7
330
2
100
AcDbEntity
  8
KIJUN
100
AcDbLine
 10
369.1453295685217
 20
1045.316923731978
 30
0.0
 11
366.4383245685327
 21
1038.270582731962
 31
0.0
  0
LINE
  5
57B8
330
2
100
AcDbEntity
  8
KIJUN
100
AcDbLine
 10
366.4383245685327
 20
1038.270582731962
 30
0.0
 11
362.8962945686088
 21
1032.927819731955
 31
0.0
  0
LINE
  5
57B9
330
2
100
AcDbEntity
  8
KIJUN
100
AcDbLine
 10
362.8962945686088
 20
1032.927819731955
 30
0.0
 11
357.3058815684938
 21
1027.89493673197
 31
0.0
  0
LINE
  5
57BA
330
2
100
AcDbEntity
  8
KIJUN
100
AcDbLine
 10
357.3058815684938
 20
1027.89493673197
 30
0.0
 11
339.4407915684147
 21
1027.275430732003
 31
0.0
  0
LINE
  5
57BB
330
2
100
AcDbEntity
  8
KIJUN
100
AcDbLine
 10
339.4407915684147
 20
1027.275430732003
 30
0.0
 11
339.1568195686137
 21
1227.588847732021
 31
0.0
  0
LINE
  5
57BC
330
2
100
AcDbEntity
  8
KIJUN
100
AcDbLine
 10
339.1568195686137
 20
1227.588847732021
 30
0.0
 11
379.7792935684136
 21
1227.898346732031
 31
0.0
  0
LINE
  5
57BD
330
2
100
AcDbEntity
  8
KIJUN
100
AcDbLine
 10
287.8663455684817
 20
990.2288957320532
 30
0.0
 11
394.3273975685318
 21
990.2288957320532
 31
0.0
  0
LINE
  5
57BE
330
2
100
AcDbEntity
  8
KIJUN
100
AcDbLine
 10
394.3273975685318
 20
990.2288957320532
 30
0.0
 11
394.3273975685318
 21
984.6568977320533
 31
0.0
  0
LINE
  5
57BF
330
2
100
AcDbEntity
  8
KIJUN
100
AcDbLine
 10
394.3273975685318
 20
984.6568977320533
 30
0.0
 11
287.8663455684817
 21
984.6568977320533
 31
0.0
  0
LINE
  5
57C0
330
2
100
AcDbEntity
  8
KIJUN
100
AcDbLine
 10
287.8663455684817
 20
984.6568977320533
 30
0.0
 11
287.8663455684817
 21
990.2288957320532
 31
0.0
  0
LINE
  5
57C1
330
2
100
AcDbEntity
  8
KIJUN
100
AcDbLine
 10
286.2349035685268
 20
985.6568957320455
 30
0.0
 11
394.7693575684549
 21
985.6568957320455
 31
0.0
  0
LINE
  5
57C2
330
2
100
AcDbEntity
  8
KIJUN
100
AcDbLine
 10
394.7693575684549
 20
985.6568957320455
 30
0.0
 11
396.3146935685957
 21
985.1951237319992
 31
0.0
  0
LINE
  5
57C3
330
2
100
AcDbEntity
  8
KIJUN
100
AcDbLine
 10
396.3146935685957
 20
985.1951237319992
 30
0.0
 11
397.4169265684266
 21
983.9841787319786
 31
0.0
  0
LINE
  5
57C4
330
2
100
AcDbEntity
  8
KIJUN
100
AcDbLine
 10
397.4169265684266
 20
983.9841787319786
 30
0.0
 11
397.8372965684267
 21
982.2864427319913
 31
0.0
  0
LINE
  5
57C5
330
2
100
AcDbEntity
  8
KIJUN
100
AcDbLine
 10
397.8372965684267
 20
982.2864427319913
 30
0.0
 11
397.8372965684267
 21
982.169856732024
 31
0.0
  0
LINE
  5
57C6
330
2
100
AcDbEntity
  8
KIJUN
100
AcDbLine
 10
397.8372965684267
 20
982.169856732024
 30
0.0
 11
397.4169265684266
 21
980.4721207320366
 31
0.0
  0
LINE
  5
57C7
330
2
100
AcDbEntity
  8
KIJUN
100
AcDbLine
 10
397.4169265684266
 20
980.4721207320366
 30
0.0
 11
396.3146935685957
 21
979.2611757320232
 31
0.0
  0
LINE
  5
57C8
330
2
100
AcDbEntity
  8
KIJUN
100
AcDbLine
 10
396.3146935685957
 20
979.2611757320232
 30
0.0
 11
394.7693575684549
 21
978.79940373197
 31
0.0
  0
LINE
  5
57C9
330
2
100
AcDbEntity
  8
KIJUN
100
AcDbLine
 10
394.7693575684549
 20
978.79940373197
 30
0.0
 11
286.2349035685268
 21
978.79940373197
 31
0.0
  0
LINE
  5
57CA
330
2
100
AcDbEntity
  8
KIJUN
100
AcDbLine
 10
286.2349035685268
 20
978.79940373197
 30
0.0
 11
284.6895675686188
 21
979.2611757320232
 31
0.0
  0
LINE
  5
57CB
330
2
100
AcDbEntity
  8
KIJUN
100
AcDbLine
 10
284.6895675686188
 20
979.2611757320232
 30
0.0
 11
283.587588568416
 21
980.4721207320366
 31
0.0
  0
LINE
  5
57CC
330
2
100
AcDbEntity
  8
KIJUN
100
AcDbLine
 10
283.587588568416
 20
980.4721207320366
 30
0.0
 11
283.1673455684516
 21
982.169856732024
 31
0.0
  0
LINE
  5
57CD
330
2
100
AcDbEntity
  8
KIJUN
100
AcDbLine
 10
283.1673455684516
 20
982.169856732024
 30
0.0
 11
283.1673455684516
 21
982.2864427319913
 31
0.0
  0
LINE
  5
57CE
330
2
100
AcDbEntity
  8
KIJUN
100
AcDbLine
 10
283.1673455684516
 20
982.2864427319913
 30
0.0
 11
283.587588568416
 21
983.9841787319786
 31
0.0
  0
LINE
  5
57CF
330
2
100
AcDbEntity
  8
KIJUN
100
AcDbLine
 10
283.587588568416
 20
983.9841787319786
 30
0.0
 11
284.6895675686188
 21
985.1951237319992
 31
0.0
  0
LINE
  5
57D0
330
2
100
AcDbEntity
  8
KIJUN
100
AcDbLine
 10
284.6895675686188
 20
985.1951237319992
 30
0.0
 11
286.2349035685268
 21
985.6568957320455
 31
0.0
  0
LINE
  5
57D1
330
2
100
AcDbEntity
  8
KIJUN
100
AcDbLine
 10
348.9533455684517
 20
1073.708916731983
 30
0.0
 11
348.2575125685267
 21
1060.875312731984
 31
0.0
  0
LINE
  5
57D2
330
2
100
AcDbEntity
  8
KIJUN
100
AcDbLine
 10
348.2575125685267
 20
1060.875312731984
 30
0.0
 11
347.2622135686188
 21
1048.472111732041
 31
0.0
  0
LINE
  5
57D3
330
2
100
AcDbEntity
  8
KIJUN
100
AcDbLine
 10
347.2622135686188
 20
1048.472111732041
 30
0.0
 11
345.4793875684718
 21
1036.154889731977
 31
0.0
  0
LINE
  5
57D4
330
2
100
AcDbEntity
  8
KIJUN
100
AcDbLine
 10
330.6653455684227
 20
1073.708916731983
 30
0.0
 11
331.3611785685797
 21
1060.875312731984
 31
0.0
  0
LINE
  5
57D5
330
2
100
AcDbEntity
  8
KIJUN
100
AcDbLine
 10
331.3611785685797
 20
1060.875312731984
 30
0.0
 11
332.3564775684809
 21
1048.472111732041
 31
0.0
  0
LINE
  5
57D6
330
2
100
AcDbEntity
  8
KIJUN
100
AcDbLine
 10
332.3564775684809
 20
1048.472111732041
 30
0.0
 11
334.1393035683958
 21
1036.154889731977
 31
0.0
  0
LINE
  5
57D7
330
2
100
AcDbEntity
  8
KIJUN
100
AcDbLine
 10
312.1233455685668
 20
1225.178895731983
 30
0.0
 11
316.8233615684818
 21
1217.85645673206
 31
0.0
  0
LINE
  5
57D8
330
2
100
AcDbEntity
  8
KIJUN
100
AcDbLine
 10
316.8233615684818
 20
1217.85645673206
 30
0.0
 11
320.2273425685647
 21
1203.095373732033
 31
0.0
  0
LINE
  5
57D9
330
2
100
AcDbEntity
  8
KIJUN
100
AcDbLine
 10
320.2273425685647
 20
1203.095373732033
 30
0.0
 11
321.0373485685787
 21
1185.428911731968
 31
0.0
  0
LINE
  5
57DA
330
2
100
AcDbEntity
  8
KIJUN
100
AcDbLine
 10
321.0373485685787
 20
1185.428911731968
 30
0.0
 11
319.3358025684586
 21
1155.442433732049
 31
0.0
  0
LINE
  5
57DB
330
2
100
AcDbEntity
  8
KIJUN
100
AcDbLine
 10
319.3358025684586
 20
1155.442433732049
 30
0.0
 11
314.2304025685167
 21
1118.133389732048
 31
0.0
  0
LINE
  5
57DC
330
2
100
AcDbEntity
  8
KIJUN
100
AcDbLine
 10
314.2304025685167
 20
1118.133389732048
 30
0.0
 11
311.7183425684507
 21
1087.44891973204
 31
0.0
  0
LINE
  5
57DD
330
2
100
AcDbEntity
  8
KIJUN
100
AcDbLine
 10
311.7183425684507
 20
1087.44891973204
 30
0.0
 11
312.5283485684577
 21
1064.900958731955
 31
0.0
  0
LINE
  5
57DE
330
2
100
AcDbEntity
  8
KIJUN
100
AcDbLine
 10
312.5283485684577
 20
1064.900958731955
 30
0.0
 11
316.8233615684818
 21
1043.398842732011
 31
0.0
  0
LINE
  5
57DF
330
2
100
AcDbEntity
  8
KIJUN
100
AcDbLine
 10
316.8233615684818
 20
1043.398842732011
 30
0.0
 11
319.7408055685678
 21
1036.076403731972
 31
0.0
  0
LINE
  5
57E0
330
2
100
AcDbEntity
  8
KIJUN
100
AcDbLine
 10
319.7408055685678
 20
1036.076403731972
 30
0.0
 11
322.3338915685757
 21
1034.914353731987
 31
0.0
  0
LINE
  5
57E1
330
2
100
AcDbEntity
  8
KIJUN
100
AcDbLine
 10
322.3338915685757
 20
1034.914353731987
 30
0.0
 11
325.2513355684367
 21
1036.773887732005
 31
0.0
  0
LINE
  5
57E2
330
2
100
AcDbEntity
  8
KIJUN
100
AcDbLine
 10
325.2513355684367
 20
1036.773887732005
 30
0.0
 11
320.6323455684558
 21
1055.71885873198
 31
0.0
  0
LINE
  5
57E3
330
2
100
AcDbEntity
  8
KIJUN
100
AcDbLine
 10
320.6323455684558
 20
1055.71885873198
 30
0.0
 11
318.5252885685057
 21
1078.266946731998
 31
0.0
  0
LINE
  5
57E4
330
2
100
AcDbEntity
  8
KIJUN
100
AcDbLine
 10
318.5252885685057
 20
1078.266946731998
 30
0.0
 11
318.5252885685057
 21
1101.512391731998
 31
0.0
  0
LINE
  5
57E5
330
2
100
AcDbEntity
  8
KIJUN
100
AcDbLine
 10
318.5252885685057
 20
1101.512391731998
 30
0.0
 11
321.0373485685787
 21
1128.477412731965
 31
0.0
  0
LINE
  5
57E6
330
2
100
AcDbEntity
  8
KIJUN
100
AcDbLine
 10
321.0373485685787
 20
1128.477412731965
 30
0.0
 11
323.6308155684838
 21
1152.303882731958
 31
0.0
  0
LINE
  5
57E7
330
2
100
AcDbEntity
  8
KIJUN
100
AcDbLine
 10
323.6308155684838
 20
1152.303882731958
 30
0.0
 11
324.4408215684828
 21
1178.106853732056
 31
0.0
  0
LINE
  5
57E8
330
2
100
AcDbEntity
  8
KIJUN
100
AcDbLine
 10
324.4408215684828
 20
1178.106853732056
 30
0.0
 11
324.4408215684828
 21
1198.213874732016
 31
0.0
  0
LINE
  5
57E9
330
2
100
AcDbEntity
  8
KIJUN
100
AcDbLine
 10
324.4408215684828
 20
1198.213874732016
 30
0.0
 11
321.9288885684599
 21
1215.996922732043
 31
0.0
  0
LINE
  5
57EA
330
2
100
AcDbEntity
  8
KIJUN
100
AcDbLine
 10
321.9288885684599
 20
1215.996922732043
 30
0.0
 11
320.6323455684558
 21
1225.178895731983
 31
0.0
  0
LINE
  5
57EB
330
2
100
AcDbEntity
  8
KIJUN
100
AcDbLine
 10
320.6323455684558
 20
1225.178895731983
 30
0.0
 11
317.2288725685447
 21
1226.341453732016
 31
0.0
  0
LINE
  5
57EC
330
2
100
AcDbEntity
  8
KIJUN
100
AcDbLine
 10
317.2288725685447
 20
1226.341453732016
 30
0.0
 11
314.2304025685167
 21
1226.341453732016
 31
0.0
  0
LINE
  5
57ED
330
2
100
AcDbEntity
  8
KIJUN
100
AcDbLine
 10
314.2304025685167
 20
1226.341453732016
 30
0.0
 11
312.1233455685668
 21
1225.178895731983
 31
0.0
  0
LINE
  5
57EE
330
2
100
AcDbEntity
  8
KIJUN
100
AcDbLine
 10
318.0623735684147
 20
1090.511397732025
 30
0.0
 11
318.5261775685809
 21
1078.729353732019
 31
0.0
  0
LINE
  5
57EF
330
2
100
AcDbEntity
  8
KIJUN
100
AcDbLine
 10
318.5261775685809
 20
1078.729353732019
 30
0.0
 11
319.6638435686196
 21
1067.727978732033
 31
0.0
  0
LINE
  5
57F0
330
2
100
AcDbEntity
  8
KIJUN
100
AcDbLine
 10
319.6638435686196
 20
1067.727978732033
 30
0.0
 11
321.3495145684518
 21
1057.228380732009
 31
0.0
  0
LINE
  5
57F1
330
2
100
AcDbEntity
  8
KIJUN
100
AcDbLine
 10
321.3495145684518
 20
1057.228380732009
 30
0.0
 11
323.4570795685737
 21
1046.951794732053
 31
0.0
  0
LINE
  5
57F2
330
2
100
AcDbEntity
  8
KIJUN
100
AcDbLine
 10
323.4570795685737
 20
1046.951794732053
 30
0.0
 11
325.8608085684696
 21
1036.619455732052
 31
0.0
  0
LINE
  5
57F3
330
2
100
AcDbEntity
  8
KIJUN
100
AcDbLine
 10
301.6673085686207
 20
1227.526871732061
 30
0.0
 11
306.0025805684136
 21
1224.380827731972
 31
0.0
  0
LINE
  5
57F4
330
2
100
AcDbEntity
  8
KIJUN
100
AcDbLine
 10
306.0025805684136
 20
1224.380827731972
 30
0.0
 11
310.4479615685287
 21
1219.496915732055
 31
0.0
  0
LINE
  5
57F5
330
2
100
AcDbEntity
  8
KIJUN
100
AcDbLine
 10
310.4479615685287
 20
1219.496915732055
 30
0.0
 11
313.6488695684757
 21
1214.595858732008
 31
0.0
  0
LINE
  5
57F6
330
2
100
AcDbEntity
  8
KIJUN
100
AcDbLine
 10
313.6488695684757
 20
1214.595858732008
 30
0.0
 11
315.7938995685777
 21
1209.640318731991
 31
0.0
  0
LINE
  5
57F7
330
2
100
AcDbEntity
  8
KIJUN
100
AcDbLine
 10
315.7938995685777
 20
1209.640318731991
 30
0.0
 11
317.2460175685718
 21
1204.68465173204
 31
0.0
  0
LINE
  5
57F8
330
2
100
AcDbEntity
  8
KIJUN
100
AcDbLine
 10
317.2460175685718
 20
1204.68465173204
 30
0.0
 11
317.9733465685436
 21
1199.264418732014
 31
0.0
  0
LINE
  5
57F9
330
2
100
AcDbEntity
  8
KIJUN
100
AcDbLine
 10
317.9733465685436
 20
1199.264418732014
 30
0.0
 11
318.3960025684078
 21
1190.793010732038
 31
0.0
  0
LINE
  5
57FA
330
2
100
AcDbEntity
  8
KIJUN
100
AcDbLine
 10
318.3960025684078
 20
1190.793010732038
 30
0.0
 11
318.1412405685567
 21
1182.545249732004
 31
0.0
  0
LINE
  5
57FB
330
2
100
AcDbEntity
  8
KIJUN
100
AcDbLine
 10
318.1412405685567
 20
1182.545249732004
 30
0.0
 11
317.4769035684158
 21
1174.021898731986
 31
0.0
  0
LINE
  5
57FC
330
2
100
AcDbEntity
  8
KIJUN
100
AcDbLine
 10
317.4769035684158
 20
1174.021898731986
 30
0.0
 11
316.0743155685578
 21
1162.888062731977
 31
0.0
  0
LINE
  5
57FD
330
2
100
AcDbEntity
  8
KIJUN
100
AcDbLine
 10
316.0743155685578
 20
1162.888062731977
 30
0.0
 11
314.8487655685618
 21
1151.627861732039
 31
0.0
  0
LINE
  5
57FE
330
2
100
AcDbEntity
  8
KIJUN
100
AcDbLine
 10
314.8487655685618
 20
1151.627861732039
 30
0.0
 11
313.5517145686188
 21
1140.282189732036
 31
0.0
  0
LINE
  5
57FF
330
2
100
AcDbEntity
  8
KIJUN
100
AcDbLine
 10
313.5517145686188
 20
1140.282189732036
 30
0.0
 11
311.9347505684867
 21
1128.891940731959
 31
0.0
  0
LINE
  5
5800
330
2
100
AcDbEntity
  8
KIJUN
100
AcDbLine
 10
311.9347505684867
 20
1128.891940731959
 30
0.0
 11
309.7493345685737
 21
1117.497881731975
 31
0.0
  0
LINE
  5
5801
330
2
100
AcDbEntity
  8
KIJUN
100
AcDbLine
 10
309.7493345685737
 20
1117.497881731975
 30
0.0
 11
308.0767445685497
 21
1104.847919732009
 31
0.0
  0
LINE
  5
5802
330
2
100
AcDbEntity
  8
KIJUN
100
AcDbLine
 10
308.0767445685497
 20
1104.847919732009
 30
0.0
 11
306.8611005684448
 21
1091.819370731969
 31
0.0
  0
LINE
  5
5803
330
2
100
AcDbEntity
  8
KIJUN
100
AcDbLine
 10
306.8611005684448
 20
1091.819370731969
 30
0.0
 11
306.7008265684718
 21
1078.395343732034
 31
0.0
  0
LINE
  5
5804
330
2
100
AcDbEntity
  8
KIJUN
100
AcDbLine
 10
306.7008265684718
 20
1078.395343732034
 30
0.0
 11
306.8009025686277
 21
1067.698387732071
 31
0.0
  0
LINE
  5
5805
330
2
100
AcDbEntity
  8
KIJUN
100
AcDbLine
 10
306.8009025686277
 20
1067.698387732071
 30
0.0
 11
308.0193405685216
 21
1057.190788731987
 31
0.0
  0
LINE
  5
5806
330
2
100
AcDbEntity
  8
KIJUN
100
AcDbLine
 10
308.0193405685216
 20
1057.190788731987
 30
0.0
 11
310.6713545686087
 21
1046.958398731975
 31
0.0
  0
LINE
  5
5807
330
2
100
AcDbEntity
  8
KIJUN
100
AcDbLine
 10
310.6713545686087
 20
1046.958398731975
 30
0.0
 11
312.7980965685288
 21
1039.335731732059
 31
0.0
  0
LINE
  5
5808
330
2
100
AcDbEntity
  8
KIJUN
100
AcDbLine
 10
312.7980965685288
 20
1039.335731732059
 30
0.0
 11
316.1538175684419
 21
1033.003638731982
 31
0.0
  0
LINE
  5
5809
330
2
100
AcDbEntity
  8
KIJUN
100
AcDbLine
 10
316.1538175684419
 20
1033.003638731982
 30
0.0
 11
321.7308955684217
 21
1027.445864732068
 31
0.0
  0
LINE
  5
580A
330
2
100
AcDbEntity
  8
KIJUN
100
AcDbLine
 10
321.7308955684217
 20
1027.445864732068
 30
0.0
 11
339.8798305685069
 21
1027.523334731955
 31
0.0
  0
LINE
  5
580B
330
2
100
AcDbEntity
  8
KIJUN
100
AcDbLine
 10
339.8798305685069
 20
1027.523334731955
 30
0.0
 11
339.9503155685757
 21
1227.294334731993
 31
0.0
  0
LINE
  5
580C
330
2
100
AcDbEntity
  8
KIJUN
100
AcDbLine
 10
339.9503155685757
 20
1227.294334731993
 30
0.0
 11
327.3943335685338
 21
1227.664285732036
 31
0.0
  0
LINE
  5
580D
330
2
100
AcDbEntity
  8
KIJUN
100
AcDbLine
 10
327.3943335685338
 20
1227.664285732036
 30
0.0
 11
314.2236715685517
 21
1228.085925732007
 31
0.0
  0
LINE
  5
580E
330
2
100
AcDbEntity
  8
KIJUN
100
AcDbLine
 10
314.2236715685517
 20
1228.085925732007
 30
0.0
 11
301.6673085686207
 21
1227.526871732061
 31
0.0
  0
LINE
  5
580F
330
2
100
AcDbEntity
  8
KIJUN
100
AcDbLine
 10
329.8442905686039
 20
1086.599416732072
 30
0.0
 11
331.7583075685778
 21
1136.929389732064
 31
0.0
  0
LINE
  5
5810
330
2
100
AcDbEntity
  8
KIJUN
100
AcDbLine
 10
331.7583075685778
 20
1136.929389732064
 30
0.0
 11
333.3178675684556
 21
1156.132424731968
 31
0.0
  0
LINE
  5
5811
330
2
100
AcDbEntity
  8
KIJUN
100
AcDbLine
 10
333.3178675684556
 20
1156.132424731968
 30
0.0
 11
333.6018395684888
 21
1184.162340732061
 31
0.0
  0
LINE
  5
5812
330
2
100
AcDbEntity
  8
KIJUN
100
AcDbLine
 10
333.6018395684888
 20
1184.162340732061
 30
0.0
 11
333.3178675684556
 21
1198.87440173201
 31
0.0
  0
LINE
  5
5813
330
2
100
AcDbEntity
  8
KIJUN
100
AcDbLine
 10
333.3178675684556
 20
1198.87440173201
 30
0.0
 11
332.3963555685858
 21
1210.566402732019
 31
0.0
  0
LINE
  5
5814
330
2
100
AcDbEntity
  8
KIJUN
100
AcDbLine
 10
332.3963555685858
 20
1210.566402732019
 30
0.0
 11
330.4113455685957
 21
1225.432895732035
 31
0.0
  0
LINE
  5
5815
330
2
100
AcDbEntity
  8
KIJUN
100
AcDbLine
 10
330.4113455685957
 20
1225.432895732035
 30
0.0
 11
328.7097995684758
 21
1227.136346731993
 31
0.0
  0
LINE
  5
5816
330
2
100
AcDbEntity
  8
KIJUN
100
AcDbLine
 10
328.7097995684758
 20
1227.136346731993
 30
0.0
 11
326.3703325686238
 21
1227.987881731965
 31
0.0
  0
LINE
  5
5817
330
2
100
AcDbEntity
  8
KIJUN
100
AcDbLine
 10
326.3703325686238
 20
1227.987881731965
 30
0.0
 11
323.6764085684429
 21
1227.523442732049
 31
0.0
  0
LINE
  5
5818
330
2
100
AcDbEntity
  8
KIJUN
100
AcDbLine
 10
323.6764085684429
 20
1227.523442732049
 30
0.0
 11
321.4788005685569
 21
1226.052401732001
 31
0.0
  0
LINE
  5
5819
330
2
100
AcDbEntity
  8
KIJUN
100
AcDbLine
 10
321.4788005685569
 20
1226.052401732001
 30
0.0
 11
321.0533505684517
 21
1225.123396732025
 31
0.0
  0
LINE
  5
581A
330
2
100
AcDbEntity
  8
KIJUN
100
AcDbLine
 10
321.0533505684517
 20
1225.123396732025
 30
0.0
 11
322.6839035685569
 21
1213.121388732058
 31
0.0
  0
LINE
  5
581B
330
2
100
AcDbEntity
  8
KIJUN
100
AcDbLine
 10
322.6839035685569
 20
1213.121388732058
 30
0.0
 11
324.0308655685376
 21
1200.112905732003
 31
0.0
  0
LINE
  5
581C
330
2
100
AcDbEntity
  8
KIJUN
100
AcDbLine
 10
324.0308655685376
 20
1200.112905732003
 30
0.0
 11
324.2433365686248
 21
1193.686451731959
 31
0.0
  0
LINE
  5
581D
330
2
100
AcDbEntity
  8
KIJUN
100
AcDbLine
 10
324.2433365686248
 20
1193.686451731959
 30
0.0
 11
324.2433365686248
 21
1175.877368732017
 31
0.0
  0
LINE
  5
581E
330
2
100
AcDbEntity
  8
KIJUN
100
AcDbLine
 10
324.2433365686248
 20
1175.877368732017
 30
0.0
 11
323.8888795685207
 21
1162.326849731992
 31
0.0
  0
LINE
  5
581F
330
2
100
AcDbEntity
  8
KIJUN
100
AcDbLine
 10
323.8888795685207
 20
1162.326849731992
 30
0.0
 11
323.1093535684427
 21
1151.254354732071
 31
0.0
  0
LINE
  5
5820
330
2
100
AcDbEntity
  8
KIJUN
100
AcDbLine
 10
323.1093535684427
 20
1151.254354732071
 30
0.0
 11
322.1168485685646
 21
1140.026919732012
 31
0.0
  0
LINE
  5
5821
330
2
100
AcDbEntity
  8
KIJUN
100
AcDbLine
 10
322.1168485685646
 20
1140.026919732012
 30
0.0
 11
318.6428905685908
 21
1107.11893373202
 31
0.0
  0
LINE
  5
5822
330
2
100
AcDbEntity
  8
KIJUN
100
AcDbLine
 10
318.6428905685908
 20
1107.11893373202
 30
0.0
 11
318.5009045685748
 21
1098.833453732029
 31
0.0
  0
LINE
  5
5823
330
2
100
AcDbEntity
  8
KIJUN
100
AcDbLine
 10
318.5009045685748
 20
1098.833453732029
 30
0.0
 11
318.0048425685757
 21
1091.167860732032
 31
0.0
  0
LINE
  5
5824
330
2
100
AcDbEntity
  8
KIJUN
100
AcDbLine
 10
318.0048425685757
 20
1091.167860732032
 30
0.0
 11
318.0048425685757
 21
1081.179437732022
 31
0.0
  0
LINE
  5
5825
330
2
100
AcDbEntity
  8
KIJUN
100
AcDbLine
 10
318.0048425685757
 20
1081.179437732022
 30
0.0
 11
318.5009045685748
 21
1069.719846732031
 31
0.0
  0
LINE
  5
5826
330
2
100
AcDbEntity
  8
KIJUN
100
AcDbLine
 10
318.5009045685748
 20
1069.719846732031
 30
0.0
 11
320.3443095684359
 21
1056.32439473207
 31
0.0
  0
LINE
  5
5827
330
2
100
AcDbEntity
  8
KIJUN
100
AcDbLine
 10
320.3443095684359
 20
1056.32439473207
 30
0.0
 11
322.7548965685647
 21
1045.638868732047
 31
0.0
  0
LINE
  5
5828
330
2
100
AcDbEntity
  8
KIJUN
100
AcDbLine
 10
322.7548965685647
 20
1045.638868732047
 30
0.0
 11
324.7399065685548
 21
1038.36037173199
 31
0.0
  0
LINE
  5
5829
330
2
100
AcDbEntity
  8
KIJUN
100
AcDbLine
 10
324.7399065685548
 20
1038.36037173199
 30
0.0
 11
325.0233705684089
 21
1036.579450732021
 31
0.0
  0
LINE
  5
582A
330
2
100
AcDbEntity
  8
KIJUN
100
AcDbLine
 10
325.0233705684089
 20
1036.579450732021
 30
0.0
 11
328.4314155684927
 21
1035.862408732075
 31
0.0
  0
LINE
  5
582B
330
2
100
AcDbEntity
  8
KIJUN
100
AcDbLine
 10
328.4314155684927
 20
1035.862408732075
 30
0.0
 11
331.1622965684817
 21
1036.057480732041
 31
0.0
  0
LINE
  5
582C
330
2
100
AcDbEntity
  8
KIJUN
100
AcDbLine
 10
331.1622965684817
 20
1036.057480732041
 30
0.0
 11
333.6723245685587
 21
1036.734390732036
 31
0.0
  0
LINE
  5
582D
330
2
100
AcDbEntity
  8
KIJUN
100
AcDbLine
 10
333.6723245685587
 20
1036.734390732036
 30
0.0
 11
332.8218055684638
 21
1046.025837732068
 31
0.0
  0
LINE
  5
582E
330
2
100
AcDbEntity
  8
KIJUN
100
AcDbLine
 10
332.8218055684638
 20
1046.025837732068
 30
0.0
 11
331.6873145685686
 21
1055.85944773199
 31
0.0
  0
LINE
  5
582F
330
2
100
AcDbEntity
  8
KIJUN
100
AcDbLine
 10
331.6873145685686
 20
1055.85944773199
 30
0.0
 11
330.9077885684908
 21
1067.938925732069
 31
0.0
  0
LINE
  5
5830
330
2
100
AcDbEntity
  8
KIJUN
100
AcDbLine
 10
330.9077885684908
 20
1067.938925732069
 30
0.0
 11
329.8442905686039
 21
1077.694938732053
 31
0.0
  0
LINE
  5
5831
330
2
100
AcDbEntity
  8
KIJUN
100
AcDbLine
 10
329.8442905686039
 20
1077.694938732053
 30
0.0
 11
329.8442905686039
 21
1086.599416732072
 31
0.0
  0
LINE
  5
5832
330
2
100
AcDbEntity
  8
KIJUN
100
AcDbLine
 10
325.4058945685475
 20
1078.961890731978
 30
0.0
 11
325.7947685685227
 21
1081.061073732035
 31
0.0
  0
LINE
  5
5833
330
2
100
AcDbEntity
  8
KIJUN
100
AcDbLine
 10
325.7947685685227
 20
1081.061073732035
 30
0.0
 11
326.5773425684759
 21
1083.418320732013
 31
0.0
  0
LINE
  5
5834
330
2
100
AcDbEntity
  8
KIJUN
100
AcDbLine
 10
326.5773425684759
 20
1083.418320732013
 30
0.0
 11
326.9658355685547
 21
1085.465941732055
 31
0.0
  0
LINE
  5
5835
330
2
100
AcDbEntity
  8
KIJUN
100
AcDbLine
 10
326.9658355685547
 20
1085.465941732055
 30
0.0
 11
326.5641345686248
 21
1095.864574731979
 31
0.0
  0
LINE
  5
5836
330
2
100
AcDbEntity
  8
KIJUN
100
AcDbLine
 10
326.5641345686248
 20
1095.864574731979
 30
0.0
 11
327.2242805684887
 21
1106.103441731986
 31
0.0
  0
LINE
  5
5837
330
2
100
AcDbEntity
  8
KIJUN
100
AcDbLine
 10
327.2242805684887
 20
1106.103441731986
 30
0.0
 11
328.4255735685884
 21
1116.245661731966
 31
0.0
  0
LINE
  5
5838
330
2
100
AcDbEntity
  8
KIJUN
100
AcDbLine
 10
328.4255735685884
 20
1116.245661731966
 30
0.0
 11
329.6473135684517
 21
1126.354353732033
 31
0.0
  0
LINE
  5
5839
330
2
100
AcDbEntity
  8
KIJUN
100
AcDbLine
 10
329.6473135684517
 20
1126.354353732033
 30
0.0
 11
330.3688005685197
 21
1136.492890732031
 31
0.0
  0
LINE
  5
583A
330
2
100
AcDbEntity
  8
KIJUN
100
AcDbLine
 10
330.3688005685197
 20
1136.492890732031
 30
0.0
 11
331.2193195686069
 21
1141.83539973207
 31
0.0
  0
LINE
  5
583B
330
2
100
AcDbEntity
  8
KIJUN
100
AcDbLine
 10
331.2193195686069
 20
1141.83539973207
 30
0.0
 11
331.5739035685197
 21
1162.277446732009
 31
0.0
  0
LINE
  5
583C
330
2
100
AcDbEntity
  8
KIJUN
100
AcDbLine
 10
331.5739035685197
 20
1162.277446732009
 30
0.0
 11
331.2193195686069
 21
1194.643396732051
 31
0.0
  0
LINE
  5
583D
330
2
100
AcDbEntity
  8
KIJUN
100
AcDbLine
 10
331.2193195686069
 20
1194.643396732051
 30
0.0
 11
330.9358555685188
 21
1206.257927732043
 31
0.0
  0
LINE
  5
583E
330
2
100
AcDbEntity
  8
KIJUN
100
AcDbLine
 10
330.9358555685188
 20
1206.257927732043
 30
0.0
 11
330.4392855685888
 21
1225.692864732027
 31
0.0
  0
LINE
  5
583F
330
2
100
AcDbEntity
  8
KIJUN
100
AcDbLine
 10
330.4392855685888
 20
1225.692864732027
 30
0.0
 11
332.4952885685796
 21
1227.318845731974
 31
0.0
  0
LINE
  5
5840
330
2
100
AcDbEntity
  8
KIJUN
100
AcDbLine
 10
332.4952885685796
 20
1227.318845731974
 30
0.0
 11
334.6222845685857
 21
1228.015948732001
 31
0.0
  0
LINE
  5
5841
330
2
100
AcDbEntity
  8
KIJUN
100
AcDbLine
 10
334.6222845685857
 20
1228.015948732001
 30
0.0
 11
336.8908855684727
 21
1227.318845731974
 31
0.0
  0
LINE
  5
5842
330
2
100
AcDbEntity
  8
KIJUN
100
AcDbLine
 10
336.8908855684727
 20
1227.318845731974
 30
0.0
 11
338.1668545684386
 21
1226.080341731979
 31
0.0
  0
LINE
  5
5843
330
2
100
AcDbEntity
  8
KIJUN
100
AcDbLine
 10
338.1668545684386
 20
1226.080341731979
 30
0.0
 11
339.3013455685587
 21
1225.305895732005
 31
0.0
  0
LINE
  5
5844
330
2
100
AcDbEntity
  8
KIJUN
100
AcDbLine
 10
339.3013455685587
 20
1225.305895732005
 30
0.0
 11
339.4433315685759
 21
1201.844423731988
 31
0.0
  0
LINE
  5
5845
330
2
100
AcDbEntity
  8
KIJUN
100
AcDbLine
 10
339.4433315685759
 20
1201.844423731988
 30
0.0
 11
339.6558025684297
 21
1192.86234873204
 31
0.0
  0
LINE
  5
5846
330
2
100
AcDbEntity
  8
KIJUN
100
AcDbLine
 10
339.6558025684297
 20
1192.86234873204
 30
0.0
 11
339.6558025684297
 21
1158.792947732054
 31
0.0
  0
LINE
  5
5847
330
2
100
AcDbEntity
  8
KIJUN
100
AcDbLine
 10
339.6558025684297
 20
1158.792947732054
 30
0.0
 11
339.6558025684297
 21
1137.034926731979
 31
0.0
  0
LINE
  5
5848
330
2
100
AcDbEntity
  8
KIJUN
100
AcDbLine
 10
339.6558025684297
 20
1137.034926731979
 30
0.0
 11
339.7977885684468
 21
1082.136382731984
 31
0.0
  0
LINE
  5
5849
330
2
100
AcDbEntity
  8
KIJUN
100
AcDbLine
 10
339.7977885684468
 20
1082.136382731984
 30
0.0
 11
339.6558025684297
 21
1036.916889732016
 31
0.0
  0
LINE
  5
584A
330
2
100
AcDbEntity
  8
KIJUN
100
AcDbLine
 10
339.6558025684297
 20
1036.916889732016
 30
0.0
 11
337.6759995686019
 21
1036.179908732022
 31
0.0
  0
LINE
  5
584B
330
2
100
AcDbEntity
  8
KIJUN
100
AcDbLine
 10
337.6759995686019
 20
1036.179908732022
 30
0.0
 11
335.8221805684387
 21
1036.079578732013
 31
0.0
  0
LINE
  5
584C
330
2
100
AcDbEntity
  8
KIJUN
100
AcDbLine
 10
335.8221805684387
 20
1036.079578732013
 30
0.0
 11
333.8423775685968
 21
1036.529920732002
 31
0.0
  0
LINE
  5
584D
330
2
100
AcDbEntity
  8
KIJUN
100
AcDbLine
 10
333.8423775685968
 20
1036.529920732002
 30
0.0
 11
331.7158895685366
 21
1054.880912731988
 31
0.0
  0
LINE
  5
584E
330
2
100
AcDbEntity
  8
KIJUN
100
AcDbLine
 10
331.7158895685366
 20
1054.880912731988
 30
0.0
 11
330.7233845684328
 21
1066.417846732055
 31
0.0
  0
LINE
  5
584F
330
2
100
AcDbEntity
  8
KIJUN
100
AcDbLine
 10
330.7233845684328
 20
1066.417846732055
 30
0.0
 11
326.6113785684447
 21
1073.154434731969
 31
0.0
  0
LINE
  5
5850
330
2
100
AcDbEntity
  8
KIJUN
100
AcDbLine
 10
326.6113785684447
 20
1073.154434731969
 30
0.0
 11
325.4058945685475
 21
1078.961890731978
 31
0.0
  0
LINE
  5
5851
330
2
100
AcDbEntity
  8
KIJUN
100
AcDbLine
 10
289.7368015684927
 20
984.492432732059
 30
0.0
 11
287.658827568457
 21
982.8654357319869
 31
0.0
  0
LINE
  5
5852
330
2
100
AcDbEntity
  8
KIJUN
100
AcDbLine
 10
287.658827568457
 20
982.8654357319869
 30
0.0
 11
285.2349055684327
 21
983.0973377320665
 31
0.0
  0
LINE
  5
5853
330
2
100
AcDbEntity
  8
KIJUN
100
AcDbLine
 10
285.2349055684327
 20
983.0973377320665
 30
0.0
 11
283.3878175684668
 21
984.492432732059
 31
0.0
  0
LINE
  5
5854
330
2
100
AcDbEntity
  8
KIJUN
100
AcDbLine
 10
283.3878175684668
 20
984.492432732059
 30
0.0
 11
283.3878175684668
 21
954.9703937320414
 31
0.0
  0
LINE
  5
5855
330
2
100
AcDbEntity
  8
KIJUN
100
AcDbLine
 10
283.3878175684668
 20
954.9703937320414
 30
0.0
 11
284.5423745684548
 21
931.724948732041
 31
0.0
  0
LINE
  5
5856
330
2
100
AcDbEntity
  8
KIJUN
100
AcDbLine
 10
284.5423745684548
 20
931.724948732041
 30
0.0
 11
288.2357885685717
 21
911.5013417320119
 31
0.0
  0
LINE
  5
5857
330
2
100
AcDbEntity
  8
KIJUN
100
AcDbLine
 10
288.2357885685717
 20
911.5013417320119
 30
0.0
 11
293.8918605684979
 21
894.4159047320393
 31
0.0
  0
LINE
  5
5858
330
2
100
AcDbEntity
  8
KIJUN
100
AcDbLine
 10
293.8918605684979
 20
894.4159047320393
 30
0.0
 11
301.7413495685048
 21
880.7009207320193
 31
0.0
  0
LINE
  5
5859
330
2
100
AcDbEntity
  8
KIJUN
100
AcDbLine
 10
301.7413495685048
 20
880.7009207320193
 30
0.0
 11
311.6677965684367
 21
871.0538737319623
 31
0.0
  0
LINE
  5
585A
330
2
100
AcDbEntity
  8
KIJUN
100
AcDbLine
 10
311.6677965684367
 20
871.0538737319623
 30
0.0
 11
320.5558915684467
 21
863.6153567320111
 31
0.0
  0
LINE
  5
585B
330
2
100
AcDbEntity
  8
KIJUN
100
AcDbLine
 10
320.5558915684467
 20
863.6153567320111
 30
0.0
 11
322.8643705684388
 21
863.6153567320111
 31
0.0
  0
LINE
  5
585C
330
2
100
AcDbEntity
  8
KIJUN
100
AcDbLine
 10
322.8643705684388
 20
863.6153567320111
 30
0.0
 11
311.3218485684348
 21
876.2843687319659
 31
0.0
  0
LINE
  5
585D
330
2
100
AcDbEntity
  8
KIJUN
100
AcDbLine
 10
311.3218485684348
 20
876.2843687319659
 30
0.0
 11
301.0488185685409
 21
891.3939397320323
 31
0.0
  0
LINE
  5
585E
330
2
100
AcDbEntity
  8
KIJUN
100
AcDbLine
 10
301.0488185685409
 20
891.3939397320323
 30
0.0
 11
294.6998345685077
 21
911.9664157320116
 31
0.0
  0
LINE
  5
585F
330
2
100
AcDbEntity
  8
KIJUN
100
AcDbLine
 10
294.6998345685077
 20
911.9664157320116
 30
0.0
 11
291.2373065684676
 21
934.0494297320224
 31
0.0
  0
LINE
  5
5860
330
2
100
AcDbEntity
  8
KIJUN
100
AcDbLine
 10
291.2373065684676
 20
934.0494297320224
 30
0.0
 11
289.7368015684927
 21
956.0163657320046
 31
0.0
  0
LINE
  5
5861
330
2
100
AcDbEntity
  8
KIJUN
100
AcDbLine
 10
289.7368015684927
 20
956.0163657320046
 30
0.0
 11
289.7368015684927
 21
984.492432732059
 31
0.0
  0
LINE
  5
5862
330
2
100
AcDbEntity
  8
KIJUN
100
AcDbLine
 10
326.0817885684237
 20
984.7248427319541
 30
0.0
 11
328.7368505686257
 21
982.2839027320551
 31
0.0
  0
LINE
  5
5863
330
2
100
AcDbEntity
  8
KIJUN
100
AcDbLine
 10
328.7368505686257
 20
982.2839027320551
 30
0.0
 11
332.1993785684327
 21
981.3543897320236
 31
0.0
  0
LINE
  5
5864
330
2
100
AcDbEntity
  8
KIJUN
100
AcDbLine
 10
332.1993785684327
 20
981.3543897320236
 30
0.0
 11
336.5858315684619
 21
982.5164397320081
 31
0.0
  0
LINE
  5
5865
330
2
100
AcDbEntity
  8
KIJUN
100
AcDbLine
 10
336.5858315684619
 20
982.5164397320081
 30
0.0
 11
339.4713985686117
 21
984.2598957319902
 31
0.0
  0
LINE
  5
5866
330
2
100
AcDbEntity
  8
KIJUN
100
AcDbLine
 10
339.4713985686117
 20
984.2598957319902
 30
0.0
 11
339.9332975685848
 21
866.1723747320616
 31
0.0
  0
LINE
  5
5867
330
2
100
AcDbEntity
  8
KIJUN
100
AcDbLine
 10
339.9332975685848
 20
866.1723747320616
 30
0.0
 11
339.5868415684248
 21
863.6153567320111
 31
0.0
  0
LINE
  5
5868
330
2
100
AcDbEntity
  8
KIJUN
100
AcDbLine
 10
339.5868415684248
 20
863.6153567320111
 30
0.0
 11
334.3927955685077
 21
863.3829467319996
 31
0.0
  0
LINE
  5
5869
330
2
100
AcDbEntity
  8
KIJUN
100
AcDbLine
 10
334.3927955685077
 20
863.3829467319996
 30
0.0
 11
332.4809375685737
 21
875.1910257320236
 31
0.0
  0
LINE
  5
586A
330
2
100
AcDbEntity
  8
KIJUN
100
AcDbLine
 10
332.4809375685737
 20
875.1910257320236
 30
0.0
 11
330.7856145684799
 21
887.3261297319954
 31
0.0
  0
LINE
  5
586B
330
2
100
AcDbEntity
  8
KIJUN
100
AcDbLine
 10
330.7856145684799
 20
887.3261297319954
 30
0.0
 11
329.3931865685814
 21
899.6353507320058
 31
0.0
  0
LINE
  5
586C
330
2
100
AcDbEntity
  8
KIJUN
100
AcDbLine
 10
329.3931865685814
 20
899.6353507320058
 30
0.0
 11
328.3903945684668
 21
911.9664157320116
 31
0.0
  0
LINE
  5
586D
330
2
100
AcDbEntity
  8
KIJUN
100
AcDbLine
 10
328.3903945684668
 20
911.9664157320116
 30
0.0
 11
326.4278635684687
 21
950.3214317319693
 31
0.0
  0
LINE
  5
586E
330
2
100
AcDbEntity
  8
KIJUN
100
AcDbLine
 10
326.4278635684687
 20
950.3214317319693
 30
0.0
 11
326.0817885684237
 21
984.7248427319541
 31
0.0
  0
LINE
  5
586F
330
2
100
AcDbEntity
  8
KIJUN
100
AcDbLine
 10
325.9083065686078
 20
984.4599207320245
 30
0.0
 11
323.1383095685397
 21
982.6003867320073
 31
0.0
  0
LINE
  5
5870
330
2
100
AcDbEntity
  8
KIJUN
100
AcDbLine
 10
323.1383095685397
 20
982.6003867320073
 30
0.0
 11
318.8672995685498
 21
981.9029027319812
 31
0.0
  0
LINE
  5
5871
330
2
100
AcDbEntity
  8
KIJUN
100
AcDbLine
 10
318.8672995685498
 20
981.9029027319812
 30
0.0
 11
314.3657845686117
 21
982.7163377319925
 31
0.0
  0
LINE
  5
5872
330
2
100
AcDbEntity
  8
KIJUN
100
AcDbLine
 10
314.3657845686117
 20
982.7163377319925
 30
0.0
 11
311.7108495684598
 21
984.5763797320582
 31
0.0
  0
LINE
  5
5873
330
2
100
AcDbEntity
  8
KIJUN
100
AcDbLine
 10
311.7108495684598
 20
984.5763797320582
 30
0.0
 11
313.2113545684347
 21
941.2234057320421
 31
0.0
  0
LINE
  5
5874
330
2
100
AcDbEntity
  8
KIJUN
100
AcDbLine
 10
313.2113545684347
 20
941.2234057320421
 30
0.0
 11
314.7118595684168
 21
920.3024417320161
 31
0.0
  0
LINE
  5
5875
330
2
100
AcDbEntity
  8
KIJUN
100
AcDbLine
 10
314.7118595684168
 20
920.3024417320161
 30
0.0
 11
317.7128695686129
 21
902.751930732044
 31
0.0
  0
LINE
  5
5876
330
2
100
AcDbEntity
  8
KIJUN
100
AcDbLine
 10
317.7128695686129
 20
902.751930732044
 30
0.0
 11
320.7143875685158
 21
891.3619357320536
 31
0.0
  0
LINE
  5
5877
330
2
100
AcDbEntity
  8
KIJUN
100
AcDbLine
 10
320.7143875685158
 20
891.3619357320536
 30
0.0
 11
325.6778015684266
 21
876.4843937319934
 31
0.0
  0
LINE
  5
5878
330
2
100
AcDbEntity
  8
KIJUN
100
AcDbLine
 10
325.6778015684266
 20
876.4843937319934
 30
0.0
 11
330.8718475685687
 21
863.5833527320396
 31
0.0
  0
LINE
  5
5879
330
2
100
AcDbEntity
  8
KIJUN
100
AcDbLine
 10
330.8718475685687
 20
863.5833527320396
 30
0.0
 11
334.6808315685346
 21
863.5833527320396
 31
0.0
  0
LINE
  5
587A
330
2
100
AcDbEntity
  8
KIJUN
100
AcDbLine
 10
334.6808315685346
 20
863.5833527320396
 30
0.0
 11
329.3713425685797
 21
898.2189197319645
 31
0.0
  0
LINE
  5
587B
330
2
100
AcDbEntity
  8
KIJUN
100
AcDbLine
 10
329.3713425685797
 20
898.2189197319645
 30
0.0
 11
327.5243815684387
 21
928.3218567320259
 31
0.0
  0
LINE
  5
587C
330
2
100
AcDbEntity
  8
KIJUN
100
AcDbLine
 10
327.5243815684387
 20
928.3218567320259
 30
0.0
 11
326.8318505684668
 21
947.7319017320082
 31
0.0
  0
LINE
  5
587D
330
2
100
AcDbEntity
  8
KIJUN
100
AcDbLine
 10
326.8318505684668
 20
947.7319017320082
 30
0.0
 11
326.023876568457
 21
970.5129077319911
 31
0.0
  0
LINE
  5
587E
330
2
100
AcDbEntity
  8
KIJUN
100
AcDbLine
 10
326.023876568457
 20
970.5129077319911
 30
0.0
 11
325.9083065686078
 21
984.4599207320245
 31
0.0
  0
LINE
  5
587F
330
2
100
AcDbEntity
  8
KIJUN
100
AcDbLine
 10
311.5808015685628
 20
984.7568467320494
 30
0.0
 11
307.4253615684148
 21
982.7813617320613
 31
0.0
  0
LINE
  5
5880
330
2
100
AcDbEntity
  8
KIJUN
100
AcDbLine
 10
307.4253615684148
 20
982.7813617320613
 30
0.0
 11
303.1543515684328
 21
982.7813617320613
 31
0.0
  0
LINE
  5
5881
330
2
100
AcDbEntity
  8
KIJUN
100
AcDbLine
 10
303.1543515684328
 20
982.7813617320613
 30
0.0
 11
299.5758725684146
 21
984.6408957320713
 31
0.0
  0
LINE
  5
5882
330
2
100
AcDbEntity
  8
KIJUN
100
AcDbLine
 10
299.5758725684146
 20
984.6408957320713
 30
0.0
 11
300.7303025685847
 21
954.6544177320358
 31
0.0
  0
LINE
  5
5883
330
2
100
AcDbEntity
  8
KIJUN
100
AcDbLine
 10
300.7303025685847
 20
954.6544177320358
 30
0.0
 11
303.2697945684798
 21
925.7134037320179
 31
0.0
  0
LINE
  5
5884
330
2
100
AcDbEntity
  8
KIJUN
100
AcDbLine
 10
303.2697945684798
 20
925.7134037320179
 30
0.0
 11
307.4253615684148
 21
901.3054007319775
 31
0.0
  0
LINE
  5
5885
330
2
100
AcDbEntity
  8
KIJUN
100
AcDbLine
 10
307.4253615684148
 20
901.3054007319775
 30
0.0
 11
313.4273815685679
 21
883.057913732035
 31
0.0
  0
LINE
  5
5886
330
2
100
AcDbEntity
  8
KIJUN
100
AcDbLine
 10
313.4273815685679
 20
883.057913732035
 30
0.0
 11
322.5463625684366
 21
867.3674447320193
 31
0.0
  0
LINE
  5
5887
330
2
100
AcDbEntity
  8
KIJUN
100
AcDbLine
 10
322.5463625684366
 20
867.3674447320193
 30
0.0
 11
325.4318025685437
 21
863.5314097320119
 31
0.0
  0
LINE
  5
5888
330
2
100
AcDbEntity
  8
KIJUN
100
AcDbLine
 10
325.4318025685437
 20
863.5314097320119
 30
0.0
 11
331.3188875685897
 21
863.5314097320119
 31
0.0
  0
LINE
  5
5889
330
2
100
AcDbEntity
  8
KIJUN
100
AcDbLine
 10
331.3188875685897
 20
863.5314097320119
 30
0.0
 11
323.2388935684008
 21
883.4064017319583
 31
0.0
  0
LINE
  5
588A
330
2
100
AcDbEntity
  8
KIJUN
100
AcDbLine
 10
323.2388935684008
 20
883.4064017319583
 30
0.0
 11
317.5828215684758
 21
904.6763617319706
 31
0.0
  0
LINE
  5
588B
330
2
100
AcDbEntity
  8
KIJUN
100
AcDbLine
 10
317.5828215684758
 20
904.6763617319706
 30
0.0
 11
314.2353555685777
 21
926.0618917320575
 31
0.0
  0
LINE
  5
588C
330
2
100
AcDbEntity
  8
KIJUN
100
AcDbLine
 10
314.2353555685777
 20
926.0618917320575
 30
0.0
 11
313.0813065685377
 21
946.1694207319565
 31
0.0
  0
LINE
  5
588D
330
2
100
AcDbEntity
  8
KIJUN
100
AcDbLine
 10
313.0813065685377
 20
946.1694207319565
 30
0.0
 11
312.3889025686088
 21
967.2068437320163
 31
0.0
  0
LINE
  5
588E
330
2
100
AcDbEntity
  8
KIJUN
100
AcDbLine
 10
312.3889025686088
 20
967.2068437320163
 30
0.0
 11
311.5808015685628
 21
984.7568467320494
 31
0.0
  0
LINE
  5
588F
330
2
100
AcDbEntity
  8
KIJUN
100
AcDbLine
 10
300.1388635684287
 20
984.1114327319779
 30
0.0
 11
296.7919055684697
 21
982.4844357320296
 31
0.0
  0
LINE
  5
5890
330
2
100
AcDbEntity
  8
KIJUN
100
AcDbLine
 10
296.7919055684697
 20
982.4844357320296
 30
0.0
 11
293.3288695684908
 21
982.4844357320296
 31
0.0
  0
LINE
  5
5891
330
2
100
AcDbEntity
  8
KIJUN
100
AcDbLine
 10
293.3288695684908
 20
982.4844357320296
 30
0.0
 11
290.2122895684527
 21
983.9948467320105
 31
0.0
  0
LINE
  5
5892
330
2
100
AcDbEntity
  8
KIJUN
100
AcDbLine
 10
290.2122895684527
 20
983.9948467320105
 30
0.0
 11
290.2122895684527
 21
955.7519517320073
 31
0.0
  0
LINE
  5
5893
330
2
100
AcDbEntity
  8
KIJUN
100
AcDbLine
 10
290.2122895684527
 20
955.7519517320073
 30
0.0
 11
291.7127945684277
 21
936.109369731956
 31
0.0
  0
LINE
  5
5894
330
2
100
AcDbEntity
  8
KIJUN
100
AcDbLine
 10
291.7127945684277
 20
936.109369731956
 30
0.0
 11
294.0214005684627
 21
917.628837732013
 31
0.0
  0
LINE
  5
5895
330
2
100
AcDbEntity
  8
KIJUN
100
AcDbLine
 10
294.0214005684627
 20
917.628837732013
 30
0.0
 11
298.1768405685887
 21
900.8923967320411
 31
0.0
  0
LINE
  5
5896
330
2
100
AcDbEntity
  8
KIJUN
100
AcDbLine
 10
298.1768405685887
 20
900.8923967320411
 30
0.0
 11
303.3708865685058
 21
887.6423597319776
 31
0.0
  0
LINE
  5
5897
330
2
100
AcDbEntity
  8
KIJUN
100
AcDbLine
 10
303.3708865685058
 20
887.6423597319776
 30
0.0
 11
310.5278445685418
 21
875.4384217320444
 31
0.0
  0
LINE
  5
5898
330
2
100
AcDbEntity
  8
KIJUN
100
AcDbLine
 10
310.5278445685418
 20
875.4384217320444
 30
0.0
 11
322.5323925685528
 21
863.2343567320535
 31
0.0
  0
LINE
  5
5899
330
2
100
AcDbEntity
  8
KIJUN
100
AcDbLine
 10
322.5323925685528
 20
863.2343567320535
 30
0.0
 11
325.6488455685558
 21
863.2343567320535
 31
0.0
  0
LINE
  5
589A
330
2
100
AcDbEntity
  8
KIJUN
100
AcDbLine
 10
325.6488455685558
 20
863.2343567320535
 30
0.0
 11
314.3368285685077
 21
880.7848677320258
 31
0.0
  0
LINE
  5
589B
330
2
100
AcDbEntity
  8
KIJUN
100
AcDbLine
 10
314.3368285685077
 20
880.7848677320258
 30
0.0
 11
308.3343005684156
 21
900.8923967320411
 31
0.0
  0
LINE
  5
589C
330
2
100
AcDbEntity
  8
KIJUN
100
AcDbLine
 10
308.3343005684156
 20
900.8923967320411
 30
0.0
 11
304.1788605685159
 21
920.7673887319947
 31
0.0
  0
LINE
  5
589D
330
2
100
AcDbEntity
  8
KIJUN
100
AcDbLine
 10
304.1788605685159
 20
920.7673887319947
 30
0.0
 11
302.2168375684649
 21
940.8749177319956
 31
0.0
  0
LINE
  5
589E
330
2
100
AcDbEntity
  8
KIJUN
100
AcDbLine
 10
302.2168375684649
 20
940.8749177319956
 30
0.0
 11
300.7163325684829
 21
959.5873517320255
 31
0.0
  0
LINE
  5
589F
330
2
100
AcDbEntity
  8
KIJUN
100
AcDbLine
 10
300.7163325684829
 20
959.5873517320255
 30
0.0
 11
300.1388635684287
 21
984.1114327319779
 31
0.0
  0
LINE
  5
58A0
330
2
100
AcDbEntity
  8
KIJUN
100
AcDbLine
 10
324.1593895686177
 20
1166.31591973206
 30
0.0
 11
318.0623735684147
 21
1090.511397732025
 31
0.0
  0
LINE
  5
58A1
330
2
100
AcDbEntity
  8
KIJUN
100
AcDbLine
 10
330.6653455684227
 20
1224.543895731967
 30
0.0
 11
331.9413145686208
 21
1175.065838732069
 31
0.0
  0
LINE
  5
58A2
330
2
100
AcDbEntity
  8
KIJUN
100
AcDbLine
 10
331.9413145686208
 20
1175.065838732069
 30
0.0
 11
331.3743865684387
 21
1128.142386731979
 31
0.0
  0
LINE
  5
58A3
330
2
100
AcDbEntity
  8
KIJUN
100
AcDbLine
 10
331.3743865684387
 20
1128.142386731979
 30
0.0
 11
330.6653455684227
 21
1073.708916731983
 31
0.0
  0
LINE
  5
58A4
330
2
100
AcDbEntity
  8
KIJUN
100
AcDbLine
 10
348.9533455684517
 20
1224.543895731967
 30
0.0
 11
347.6773765684787
 21
1175.065838732069
 31
0.0
  0
LINE
  5
58A5
330
2
100
AcDbEntity
  8
KIJUN
100
AcDbLine
 10
347.6773765684787
 20
1175.065838732069
 30
0.0
 11
348.2443045684359
 21
1128.142386731979
 31
0.0
  0
LINE
  5
58A6
330
2
100
AcDbEntity
  8
KIJUN
100
AcDbLine
 10
348.2443045684359
 20
1128.142386731979
 30
0.0
 11
348.9533455684517
 21
1073.708916731983
 31
0.0
  0
LINE
  5
58A7
330
2
100
AcDbEntity
  8
KIJUN
100
AcDbLine
 10
339.3013455685587
 20
1225.051895731954
 30
0.0
 11
338.3193815685607
 21
1226.132792731961
 31
0.0
  0
LINE
  5
58A8
330
2
100
AcDbEntity
  8
KIJUN
100
AcDbLine
 10
338.3193815685607
 20
1226.132792731961
 30
0.0
 11
337.1640625685407
 21
1227.013156731988
 31
0.0
  0
LINE
  5
58A9
330
2
100
AcDbEntity
  8
KIJUN
100
AcDbLine
 10
337.1640625685407
 20
1227.013156731988
 30
0.0
 11
335.7569025685166
 21
1227.672413732015
 31
0.0
  0
LINE
  5
58AA
330
2
100
AcDbEntity
  8
KIJUN
100
AcDbLine
 10
335.7569025685166
 20
1227.672413732015
 30
0.0
 11
334.8299295684206
 21
1228.033728732003
 31
0.0
  0
LINE
  5
58AB
330
2
100
AcDbEntity
  8
KIJUN
100
AcDbLine
 10
334.8299295684206
 20
1228.033728732003
 30
0.0
 11
333.9187045685697
 21
1228.033728732003
 31
0.0
  0
LINE
  5
58AC
330
2
100
AcDbEntity
  8
KIJUN
100
AcDbLine
 10
333.9187045685697
 20
1228.033728732003
 30
0.0
 11
332.8498725684927
 21
1227.672413732015
 31
0.0
  0
LINE
  5
58AD
330
2
100
AcDbEntity
  8
KIJUN
100
AcDbLine
 10
332.8498725684927
 20
1227.672413732015
 30
0.0
 11
331.8101235685618
 21
1226.892633731953
 31
0.0
  0
LINE
  5
58AE
330
2
100
AcDbEntity
  8
KIJUN
100
AcDbLine
 10
331.8101235685618
 20
1226.892633731953
 30
0.0
 11
330.7703745683987
 21
1226.132919731997
 31
0.0
  0
LINE
  5
58AF
330
2
100
AcDbEntity
  8
KIJUN
100
AcDbLine
 10
330.7703745683987
 20
1226.132919731997
 30
0.0
 11
329.8723575683999
 21
1225.051895731954
 31
0.0
  0
LINE
  5
58B0
330
2
100
AcDbEntity
  8
KIJUN
100
AcDbLine
 10
329.8723575683999
 20
1225.051895731954
 30
0.0
 11
329.1135325686208
 21
1226.032462732062
 31
0.0
  0
LINE
  5
58B1
330
2
100
AcDbEntity
  8
KIJUN
100
AcDbLine
 10
329.1135325686208
 20
1226.032462732062
 30
0.0
 11
328.1026125685258
 21
1226.932765732036
 31
0.0
  0
LINE
  5
58B2
330
2
100
AcDbEntity
  8
KIJUN
100
AcDbLine
 10
328.1026125685258
 20
1226.932765732036
 30
0.0
 11
326.8238495685378
 21
1227.672413732015
 31
0.0
  0
LINE
  5
58B3
330
2
100
AcDbEntity
  8
KIJUN
100
AcDbLine
 10
326.8238495685378
 20
1227.672413732015
 30
0.0
 11
325.8525535684467
 21
1227.591895732006
 31
0.0
  0
LINE
  5
58B4
330
2
100
AcDbEntity
  8
KIJUN
100
AcDbLine
 10
325.8525535684467
 20
1227.591895732006
 30
0.0
 11
325.0069875684147
 21
1227.632154732007
 31
0.0
  0
LINE
  5
58B5
330
2
100
AcDbEntity
  8
KIJUN
100
AcDbLine
 10
325.0069875684147
 20
1227.632154732007
 30
0.0
 11
323.9883205684617
 21
1227.672413732015
 31
0.0
  0
LINE
  5
58B6
330
2
100
AcDbEntity
  8
KIJUN
100
AcDbLine
 10
323.9883205684617
 20
1227.672413732015
 30
0.0
 11
322.6859355685609
 21
1227.113613732031
 31
0.0
  0
LINE
  5
58B7
330
2
100
AcDbEntity
  8
KIJUN
100
AcDbLine
 10
322.6859355685609
 20
1227.113613732031
 30
0.0
 11
321.6040225684429
 21
1226.333706732056
 31
0.0
  0
LINE
  5
58B8
330
2
100
AcDbEntity
  8
KIJUN
100
AcDbLine
 10
321.6040225684429
 20
1226.333706732056
 30
0.0
 11
320.7268335685668
 21
1225.051895731954
 31
0.0
  0
LINE
  5
58B9
330
2
100
AcDbEntity
  8
KIJUN
100
AcDbLine
 10
320.7268335685668
 20
1225.051895731954
 30
0.0
 11
318.0327825685686
 21
1227.672413732015
 31
0.0
  0
LINE
  5
58BA
330
2
100
AcDbEntity
  8
KIJUN
100
AcDbLine
 10
318.0327825685686
 20
1227.672413732015
 30
0.0
 11
316.6308295684587
 21
1227.836370731954
 31
0.0
  0
LINE
  5
58BB
330
2
100
AcDbEntity
  8
KIJUN
100
AcDbLine
 10
316.6308295684587
 20
1227.836370731954
 30
0.0
 11
315.4652235684208
 21
1227.719149732012
 31
0.0
  0
LINE
  5
58BC
330
2
100
AcDbEntity
  8
KIJUN
100
AcDbLine
 10
315.4652235684208
 20
1227.719149732012
 30
0.0
 11
314.2048755684237
 21
1227.220420732035
 31
0.0
  0
LINE
  5
58BD
330
2
100
AcDbEntity
  8
KIJUN
100
AcDbLine
 10
314.2048755684237
 20
1227.220420732035
 30
0.0
 11
311.8654085685717
 21
1225.051895731954
 31
0.0
  0
LINE
  5
58BE
330
2
100
AcDbEntity
  8
KIJUN
100
AcDbLine
 10
311.8654085685717
 20
1225.051895731954
 30
0.0
 11
309.4548215684347
 21
1227.310844732044
 31
0.0
  0
LINE
  5
58BF
330
2
100
AcDbEntity
  8
KIJUN
100
AcDbLine
 10
309.4548215684347
 20
1227.310844732044
 30
0.0
 11
304.7758875684968
 21
1228.033855732053
 31
0.0
  0
LINE
  5
58C0
330
2
100
AcDbEntity
  8
KIJUN
100
AcDbLine
 10
304.7758875684968
 20
1228.033855732053
 30
0.0
 11
340.2228575684288
 21
1227.852880732006
 31
0.0
  0
LINE
  5
58C1
330
2
100
AcDbEntity
  8
KIJUN
100
AcDbLine
 10
340.2228575684288
 20
1227.852880732006
 30
0.0
 11
339.3013455685587
 21
1225.051895731954
 31
0.0
  0
LINE
  5
58C2
330
2
100
AcDbEntity
  8
KIJUN
100
AcDbLine
 10
320.8979025684908
 20
1225.085931732046
 30
0.0
 11
322.5228675685667
 21
1215.280134732059
 31
0.0
  0
LINE
  5
58C3
330
2
100
AcDbEntity
  8
KIJUN
100
AcDbLine
 10
322.5228675685667
 20
1215.280134732059
 30
0.0
 11
323.6182425686148
 21
1205.513072732031
 31
0.0
  0
LINE
  5
58C4
330
2
100
AcDbEntity
  8
KIJUN
100
AcDbLine
 10
323.6182425686148
 20
1205.513072732031
 30
0.0
 11
324.2565445684757
 21
1195.758964732002
 31
0.0
  0
LINE
  5
58C5
330
2
100
AcDbEntity
  8
KIJUN
100
AcDbLine
 10
324.2565445684757
 20
1195.758964732002
 30
0.0
 11
324.5110525684668
 21
1185.992029732016
 31
0.0
  0
LINE
  5
58C6
330
2
100
AcDbEntity
  8
KIJUN
100
AcDbLine
 10
324.5110525684668
 20
1185.992029732016
 30
0.0
 11
324.4542835684277
 21
1176.186232732038
 31
0.0
  0
LINE
  5
58C7
330
2
100
AcDbEntity
  8
KIJUN
100
AcDbLine
 10
324.4542835684277
 20
1176.186232732038
 30
0.0
 11
324.1593895686177
 21
1166.31591973206
 31
0.0
  0
LINE
  5
58C8
330
2
100
AcDbEntity
  8
KIJUN
100
AcDbLine
 10
354.5563315684276
 20
1202.36283773203
 30
0.0
 11
353.9179025685167
 21
1180.759883732036
 31
0.0
  0
LINE
  5
58C9
330
2
100
AcDbEntity
  8
KIJUN
100
AcDbLine
 10
353.9179025685167
 20
1180.759883732036
 30
0.0
 11
355.1943795684359
 21
1146.535415731986
 31
0.0
  0
LINE
  5
58CA
330
2
100
AcDbEntity
  8
KIJUN
100
AcDbLine
 10
355.1943795684359
 20
1146.535415731986
 30
0.0
 11
356.1158915685317
 21
1139.334388732047
 31
0.0
  0
LINE
  5
58CB
330
2
100
AcDbEntity
  8
KIJUN
100
AcDbLine
 10
356.1158915685317
 20
1139.334388732047
 30
0.0
 11
357.6753245685846
 21
1123.228883731975
 31
0.0
  0
LINE
  5
58CC
330
2
100
AcDbEntity
  8
KIJUN
100
AcDbLine
 10
357.6753245685846
 20
1123.228883731975
 30
0.0
 11
360.1569045685117
 21
1097.212425732021
 31
0.0
  0
LINE
  5
58CD
330
2
100
AcDbEntity
  8
KIJUN
100
AcDbLine
 10
360.1569045685117
 20
1097.212425732021
 30
0.0
 11
360.7948255684688
 21
1083.893935732009
 31
0.0
  0
LINE
  5
58CE
330
2
100
AcDbEntity
  8
KIJUN
100
AcDbLine
 10
360.7948255684688
 20
1083.893935732009
 30
0.0
 11
360.8658185684777
 21
1072.047375732011
 31
0.0
  0
LINE
  5
58CF
330
2
100
AcDbEntity
  8
KIJUN
100
AcDbLine
 10
360.8658185684777
 20
1072.047375732011
 30
0.0
 11
359.2353925684018
 21
1058.496856731977
 31
0.0
  0
LINE
  5
58D0
330
2
100
AcDbEntity
  8
KIJUN
100
AcDbLine
 10
359.2353925684018
 20
1058.496856731977
 30
0.0
 11
356.3283625686177
 21
1044.249361731989
 31
0.0
  0
LINE
  5
58D1
330
2
100
AcDbEntity
  8
KIJUN
100
AcDbLine
 10
356.3283625686177
 20
1044.249361731989
 30
0.0
 11
354.4143455684107
 21
1036.583895732027
 31
0.0
  0
LINE
  5
58D2
330
2
100
AcDbEntity
  8
KIJUN
100
AcDbLine
 10
354.4143455684107
 20
1036.583895732027
 30
0.0
 11
355.9162475684007
 21
1035.84399373196
 31
0.0
  0
LINE
  5
58D3
330
2
100
AcDbEntity
  8
KIJUN
100
AcDbLine
 10
355.9162475684007
 20
1035.84399373196
 30
0.0
 11
357.2605425684026
 21
1035.775159731991
 31
0.0
  0
LINE
  5
58D4
330
2
100
AcDbEntity
  8
KIJUN
100
AcDbLine
 10
357.2605425684026
 20
1035.775159731991
 30
0.0
 11
358.8098155684866
 21
1036.583895732027
 31
0.0
  0
LINE
  5
58D5
330
2
100
AcDbEntity
  8
KIJUN
100
AcDbLine
 10
358.8098155684866
 20
1036.583895732027
 30
0.0
 11
362.2129075684948
 21
1041.926404732065
 31
0.0
  0
LINE
  5
58D6
330
2
100
AcDbEntity
  8
KIJUN
100
AcDbLine
 10
362.2129075684948
 20
1041.926404732065
 30
0.0
 11
363.9853195685879
 21
1046.882452732021
 31
0.0
  0
LINE
  5
58D7
330
2
100
AcDbEntity
  8
KIJUN
100
AcDbLine
 10
363.9853195685879
 20
1046.882452732021
 30
0.0
 11
366.4663915685608
 21
1055.864400732044
 31
0.0
  0
LINE
  5
58D8
330
2
100
AcDbEntity
  8
KIJUN
100
AcDbLine
 10
366.4663915685608
 20
1055.864400732044
 30
0.0
 11
367.8843465685507
 21
1063.297456731987
 31
0.0
  0
LINE
  5
58D9
330
2
100
AcDbEntity
  8
KIJUN
100
AcDbLine
 10
367.8843465685507
 20
1063.297456731987
 30
0.0
 11
368.7348655684046
 21
1070.653423732062
 31
0.0
  0
LINE
  5
58DA
330
2
100
AcDbEntity
  8
KIJUN
100
AcDbLine
 10
368.7348655684046
 20
1070.653423732062
 30
0.0
 11
369.2313085685178
 21
1077.002915732028
 31
0.0
  0
LINE
  5
58DB
330
2
100
AcDbEntity
  8
KIJUN
100
AcDbLine
 10
369.2313085685178
 20
1077.002915732028
 30
0.0
 11
369.2313085685178
 21
1087.610844731996
 31
0.0
  0
LINE
  5
58DC
330
2
100
AcDbEntity
  8
KIJUN
100
AcDbLine
 10
369.2313085685178
 20
1087.610844731996
 30
0.0
 11
368.5223945685519
 21
1097.212425732021
 31
0.0
  0
LINE
  5
58DD
330
2
100
AcDbEntity
  8
KIJUN
100
AcDbLine
 10
368.5223945685519
 20
1097.212425732021
 30
0.0
 11
366.9628345684487
 21
1113.782369732009
 31
0.0
  0
LINE
  5
58DE
330
2
100
AcDbEntity
  8
KIJUN
100
AcDbLine
 10
366.9628345684487
 20
1113.782369732009
 30
0.0
 11
364.3393955685547
 21
1132.133361731994
 31
0.0
  0
LINE
  5
58DF
330
2
100
AcDbEntity
  8
KIJUN
100
AcDbLine
 10
364.3393955685547
 20
1132.133361731994
 30
0.0
 11
362.0707945684429
 21
1146.457945731982
 31
0.0
  0
LINE
  5
58E0
330
2
100
AcDbEntity
  8
KIJUN
100
AcDbLine
 10
362.0707945684429
 20
1146.457945731982
 30
0.0
 11
359.9443065686078
 21
1168.370906732048
 31
0.0
  0
LINE
  5
58E1
330
2
100
AcDbEntity
  8
KIJUN
100
AcDbLine
 10
359.9443065686078
 20
1168.370906732048
 30
0.0
 11
359.4478635684946
 21
1189.586891732044
 31
0.0
  0
LINE
  5
58E2
330
2
100
AcDbEntity
  8
KIJUN
100
AcDbLine
 10
359.4478635684946
 20
1189.586891732044
 30
0.0
 11
359.5923895684407
 21
1193.834279731996
 31
0.0
  0
LINE
  5
58E3
330
2
100
AcDbEntity
  8
KIJUN
100
AcDbLine
 10
359.5923895684407
 20
1193.834279731996
 30
0.0
 11
359.7525365686027
 21
1198.219208731967
 31
0.0
  0
LINE
  5
58E4
330
2
100
AcDbEntity
  8
KIJUN
100
AcDbLine
 10
359.7525365686027
 20
1198.219208731967
 30
0.0
 11
359.9443065686078
 21
1202.517904731972
 31
0.0
  0
LINE
  5
58E5
330
2
100
AcDbEntity
  8
KIJUN
100
AcDbLine
 10
359.9443065686078
 20
1202.517904731972
 30
0.0
 11
360.4246205685798
 21
1206.134356732025
 31
0.0
  0
LINE
  5
58E6
330
2
100
AcDbEntity
  8
KIJUN
100
AcDbLine
 10
360.4246205685798
 20
1206.134356732025
 30
0.0
 11
360.9996765685158
 21
1209.664702732039
 31
0.0
  0
LINE
  5
58E7
330
2
100
AcDbEntity
  8
KIJUN
100
AcDbLine
 10
360.9996765685158
 20
1209.664702732039
 30
0.0
 11
361.8583235685818
 21
1213.280900732006
 31
0.0
  0
LINE
  5
58E8
330
2
100
AcDbEntity
  8
KIJUN
100
AcDbLine
 10
361.8583235685818
 20
1213.280900732006
 30
0.0
 11
364.8358385684497
 21
1220.791426731953
 31
0.0
  0
LINE
  5
58E9
330
2
100
AcDbEntity
  8
KIJUN
100
AcDbLine
 10
364.8358385684497
 20
1220.791426731953
 30
0.0
 11
367.5298895684478
 21
1225.127841732024
 31
0.0
  0
LINE
  5
58EA
330
2
100
AcDbEntity
  8
KIJUN
100
AcDbLine
 10
367.5298895684478
 20
1225.127841732024
 30
0.0
 11
365.9703295685698
 21
1227.37345573198
 31
0.0
  0
LINE
  5
58EB
330
2
100
AcDbEntity
  8
KIJUN
100
AcDbLine
 10
365.9703295685698
 20
1227.37345573198
 30
0.0
 11
363.2052855685627
 21
1228.147393732022
 31
0.0
  0
LINE
  5
58EC
330
2
100
AcDbEntity
  8
KIJUN
100
AcDbLine
 10
363.2052855685627
 20
1228.147393732022
 30
0.0
 11
360.4403685685987
 21
1227.527887732055
 31
0.0
  0
LINE
  5
58ED
330
2
100
AcDbEntity
  8
KIJUN
100
AcDbLine
 10
360.4403685685987
 20
1227.527887732055
 30
0.0
 11
358.5973445684077
 21
1225.05037173202
 31
0.0
  0
LINE
  5
58EE
330
2
100
AcDbEntity
  8
KIJUN
100
AcDbLine
 10
358.5973445684077
 20
1225.05037173202
 30
0.0
 11
355.4778435685237
 21
1213.280900732006
 31
0.0
  0
LINE
  5
58EF
330
2
100
AcDbEntity
  8
KIJUN
100
AcDbLine
 10
355.4778435685237
 20
1213.280900732006
 30
0.0
 11
354.5563315684276
 21
1202.36283773203
 31
0.0
  0
LINE
  5
58F0
330
2
100
AcDbEntity
  8
KIJUN
100
AcDbLine
 10
361.4293175684228
 20
1090.511397732025
 30
0.0
 11
360.9655135684969
 21
1078.729353732019
 31
0.0
  0
LINE
  5
58F1
330
2
100
AcDbEntity
  8
KIJUN
100
AcDbLine
 10
360.9655135684969
 20
1078.729353732019
 30
0.0
 11
359.8278475684577
 21
1067.727978732033
 31
0.0
  0
LINE
  5
58F2
330
2
100
AcDbEntity
  8
KIJUN
100
AcDbLine
 10
359.8278475684577
 20
1067.727978732033
 30
0.0
 11
358.1421765686258
 21
1057.228380732009
 31
0.0
  0
LINE
  5
58F3
330
2
100
AcDbEntity
  8
KIJUN
100
AcDbLine
 10
358.1421765686258
 20
1057.228380732009
 30
0.0
 11
356.0346115684966
 21
1046.951794732053
 31
0.0
  0
LINE
  5
58F4
330
2
100
AcDbEntity
  8
KIJUN
100
AcDbLine
 10
356.0346115684966
 20
1046.951794732053
 30
0.0
 11
353.6308825686147
 21
1036.619455732052
 31
0.0
  0
LINE
  5
58F5
330
2
100
AcDbEntity
  8
KIJUN
100
AcDbLine
 10
379.0988275686048
 20
985.1274327320684
 30
0.0
 11
382.4457855685628
 21
983.5004357320032
 31
0.0
  0
LINE
  5
58F6
330
2
100
AcDbEntity
  8
KIJUN
100
AcDbLine
 10
382.4457855685628
 20
983.5004357320032
 30
0.0
 11
385.9088215685347
 21
983.5004357320032
 31
0.0
  0
LINE
  5
58F7
330
2
100
AcDbEntity
  8
KIJUN
100
AcDbLine
 10
385.9088215685347
 20
983.5004357320032
 30
0.0
 11
389.0254015685796
 21
985.0108467319847
 31
0.0
  0
LINE
  5
58F8
330
2
100
AcDbEntity
  8
KIJUN
100
AcDbLine
 10
389.0254015685796
 20
985.0108467319847
 30
0.0
 11
389.0254015685796
 21
956.7679517319815
 31
0.0
  0
LINE
  5
58F9
330
2
100
AcDbEntity
  8
KIJUN
100
AcDbLine
 10
389.0254015685796
 20
956.7679517319815
 30
0.0
 11
387.5248965685988
 21
937.125369732054
 31
0.0
  0
LINE
  5
58FA
330
2
100
AcDbEntity
  8
KIJUN
100
AcDbLine
 10
387.5248965685988
 20
937.125369732054
 30
0.0
 11
385.2162905685707
 21
918.6448377319871
 31
0.0
  0
LINE
  5
58FB
330
2
100
AcDbEntity
  8
KIJUN
100
AcDbLine
 10
385.2162905685707
 20
918.6448377319871
 30
0.0
 11
381.0608505684227
 21
901.9083967320153
 31
0.0
  0
LINE
  5
58FC
330
2
100
AcDbEntity
  8
KIJUN
100
AcDbLine
 10
381.0608505684227
 20
901.9083967320153
 30
0.0
 11
375.8668045685209
 21
888.6583597320681
 31
0.0
  0
LINE
  5
58FD
330
2
100
AcDbEntity
  8
KIJUN
100
AcDbLine
 10
375.8668045685209
 20
888.6583597320681
 30
0.0
 11
368.7098465684847
 21
876.4544217320112
 31
0.0
  0
LINE
  5
58FE
330
2
100
AcDbEntity
  8
KIJUN
100
AcDbLine
 10
368.7098465684847
 20
876.4544217320112
 30
0.0
 11
355.3203635685798
 21
863.5533807320575
 31
0.0
  0
LINE
  5
58FF
330
2
100
AcDbEntity
  8
KIJUN
100
AcDbLine
 10
355.3203635685798
 20
863.5533807320575
 30
0.0
 11
353.1273275686268
 21
863.5533807320575
 31
0.0
  0
LINE
  5
5900
330
2
100
AcDbEntity
  8
KIJUN
100
AcDbLine
 10
353.1273275686268
 20
863.5533807320575
 30
0.0
 11
364.9008625685177
 21
881.8008677319999
 31
0.0
  0
LINE
  5
5901
330
2
100
AcDbEntity
  8
KIJUN
100
AcDbLine
 10
364.9008625685177
 20
881.8008677319999
 30
0.0
 11
370.9033905686097
 21
901.9083967320153
 31
0.0
  0
LINE
  5
5902
330
2
100
AcDbEntity
  8
KIJUN
100
AcDbLine
 10
370.9033905686097
 20
901.9083967320153
 30
0.0
 11
375.0588305685099
 21
921.7833887319615
 31
0.0
  0
LINE
  5
5903
330
2
100
AcDbEntity
  8
KIJUN
100
AcDbLine
 10
375.0588305685099
 20
921.7833887319615
 30
0.0
 11
377.0208535685618
 21
941.890917731977
 31
0.0
  0
LINE
  5
5904
330
2
100
AcDbEntity
  8
KIJUN
100
AcDbLine
 10
377.0208535685618
 20
941.890917731977
 30
0.0
 11
378.5213585685506
 21
960.6033517320069
 31
0.0
  0
LINE
  5
5905
330
2
100
AcDbEntity
  8
KIJUN
100
AcDbLine
 10
378.5213585685506
 20
960.6033517320069
 30
0.0
 11
379.0988275686048
 21
985.1274327320684
 31
0.0
  0
LINE
  5
5906
330
2
100
AcDbEntity
  8
KIJUN
100
AcDbLine
 10
388.6118895685807
 20
984.3654327320296
 30
0.0
 11
390.6898635686246
 21
982.7384357319647
 31
0.0
  0
LINE
  5
5907
330
2
100
AcDbEntity
  8
KIJUN
100
AcDbLine
 10
390.6898635686246
 20
982.7384357319647
 30
0.0
 11
393.1137855684227
 21
982.9703377320372
 31
0.0
  0
LINE
  5
5908
330
2
100
AcDbEntity
  8
KIJUN
100
AcDbLine
 10
393.1137855684227
 20
982.9703377320372
 30
0.0
 11
397.0383395684779
 21
984.1328957319605
 31
0.0
  0
LINE
  5
5909
330
2
100
AcDbEntity
  8
KIJUN
100
AcDbLine
 10
397.0383395684779
 20
984.1328957319605
 30
0.0
 11
397.0383395684779
 21
954.3784467320479
 31
0.0
  0
LINE
  5
590A
330
2
100
AcDbEntity
  8
KIJUN
100
AcDbLine
 10
397.0383395684779
 20
954.3784467320479
 30
0.0
 11
395.5378345684888
 21
930.6684357319868
 31
0.0
  0
LINE
  5
590B
330
2
100
AcDbEntity
  8
KIJUN
100
AcDbLine
 10
395.5378345684888
 20
930.6684357319868
 30
0.0
 11
391.8437855686219
 21
910.3283697320263
 31
0.0
  0
LINE
  5
590C
330
2
100
AcDbEntity
  8
KIJUN
100
AcDbLine
 10
391.8437855686219
 20
910.3283697320263
 30
0.0
 11
385.1493615685477
 21
893.0103957319992
 31
0.0
  0
LINE
  5
590D
330
2
100
AcDbEntity
  8
KIJUN
100
AcDbLine
 10
385.1493615685477
 20
893.0103957319992
 30
0.0
 11
376.9537975685028
 21
880.2254327320666
 31
0.0
  0
LINE
  5
590E
330
2
100
AcDbEntity
  8
KIJUN
100
AcDbLine
 10
376.9537975685028
 20
880.2254327320666
 30
0.0
 11
366.9113995685926
 21
871.0433327319737
 31
0.0
  0
LINE
  5
590F
330
2
100
AcDbEntity
  8
KIJUN
100
AcDbLine
 10
366.9113995685926
 20
871.0433327319737
 30
0.0
 11
357.7927995686348
 21
863.4883567319889
 31
0.0
  0
LINE
  5
5910
330
2
100
AcDbEntity
  8
KIJUN
100
AcDbLine
 10
357.7927995686348
 20
863.4883567319889
 30
0.0
 11
355.4843205684097
 21
863.4883567319889
 31
0.0
  0
LINE
  5
5911
330
2
100
AcDbEntity
  8
KIJUN
100
AcDbLine
 10
355.4843205684097
 20
863.4883567319889
 30
0.0
 11
367.9503865684977
 21
876.0409097320193
 31
0.0
  0
LINE
  5
5912
330
2
100
AcDbEntity
  8
KIJUN
100
AcDbLine
 10
367.9503865684977
 20
876.0409097320193
 30
0.0
 11
377.2998725685478
 21
891.2669397320101
 31
0.0
  0
LINE
  5
5913
330
2
100
AcDbEntity
  8
KIJUN
100
AcDbLine
 10
377.2998725685478
 20
891.2669397320101
 30
0.0
 11
383.6488565685666
 21
911.8394157319894
 31
0.0
  0
LINE
  5
5914
330
2
100
AcDbEntity
  8
KIJUN
100
AcDbLine
 10
383.6488565685666
 20
911.8394157319894
 30
0.0
 11
387.1113845686068
 21
933.9224297320001
 31
0.0
  0
LINE
  5
5915
330
2
100
AcDbEntity
  8
KIJUN
100
AcDbLine
 10
387.1113845686068
 20
933.9224297320001
 30
0.0
 11
388.6118895685807
 21
955.8893657319826
 31
0.0
  0
LINE
  5
5916
330
2
100
AcDbEntity
  8
KIJUN
100
AcDbLine
 10
388.6118895685807
 20
955.8893657319826
 30
0.0
 11
388.6118895685807
 21
984.3654327320296
 31
0.0
  0
LINE
  5
5917
330
2
100
AcDbEntity
  8
KIJUN
100
AcDbLine
 10
355.3323015684599
 20
1166.31591973206
 30
0.0
 11
361.4293175684228
 21
1090.511397732025
 31
0.0
  0
LINE
  5
5918
330
2
100
AcDbEntity
  8
KIJUN
100
AcDbLine
 10
358.5937885685867
 20
1225.085931732046
 30
0.0
 11
356.9688235685117
 21
1215.280134732059
 31
0.0
  0
LINE
  5
5919
330
2
100
AcDbEntity
  8
KIJUN
100
AcDbLine
 10
356.9688235685117
 20
1215.280134732059
 30
0.0
 11
355.8734485684627
 21
1205.513072732031
 31
0.0
  0
LINE
  5
591A
330
2
100
AcDbEntity
  8
KIJUN
100
AcDbLine
 10
355.8734485684627
 20
1205.513072732031
 30
0.0
 11
355.2351465686018
 21
1195.758964732002
 31
0.0
  0
LINE
  5
591B
330
2
100
AcDbEntity
  8
KIJUN
100
AcDbLine
 10
355.2351465686018
 20
1195.758964732002
 30
0.0
 11
354.9806385686109
 21
1185.992029732016
 31
0.0
  0
LINE
  5
591C
330
2
100
AcDbEntity
  8
KIJUN
100
AcDbLine
 10
354.9806385686109
 20
1185.992029732016
 30
0.0
 11
355.0374075684245
 21
1176.186232732038
 31
0.0
  0
LINE
  5
591D
330
2
100
AcDbEntity
  8
KIJUN
100
AcDbLine
 10
355.0374075684245
 20
1176.186232732038
 30
0.0
 11
355.3323015684599
 21
1166.31591973206
 31
0.0
  0
LINE
  5
591E
330
2
100
AcDbEntity
  8
KIJUN
  6
CENTER
100
AcDbLine
 10
341.1585935684901
 20
276.1383690614566
 30
0.0
 11
341.1585935684901
 21
1446.914179534306
 31
0.0
  0
LINE
  5
591F
330
2
100
AcDbEntity
  8
KIJUN
100
AcDbLine
 10
298.1585935684901
 20
318.2698957320067
 30
0.0
 11
384.1585935684901
 21
318.2698957320066
 31
0.0
  0
LINE
  5
5920
330
2
100
AcDbEntity
  8
KIJUN
100
AcDbLine
 10
298.1585935684901
 20
1418.269895732007
 30
0.0
 11
384.1585935684901
 21
1418.269895732007
 31
0.0
  0
LINE
  5
5921
330
2
100
AcDbEntity
  8
KIJUN
100
AcDbLine
 10
296.1585935684901
 20
320.2698957320067
 30
0.0
 11
296.1585935684901
 21
681.2698957320066
 31
0.0
  0
LINE
  5
5924
330
2
100
AcDbEntity
  8
KIJUN
100
AcDbLine
 10
386.15859356849
 20
320.2698957320066
 30
0.0
 11
386.15859356849
 21
681.2698957320066
 31
0.0
  0
ARC
  5
5925
330
2
100
AcDbEntity
  8
KIJUN
100
AcDbCircle
 10
298.1585935684901
 20
320.2698957320067
 30
0.0
 40
2.0
100
AcDbArc
 50
180.0
 51
270.0
  0
ARC
  5
5926
330
2
100
AcDbEntity
  8
KIJUN
100
AcDbCircle
 10
384.1585935684901
 20
320.2698957320066
 30
0.0
 40
2.0
100
AcDbArc
 50
270.0
 51
0.0
  0
LINE
  5
5927
330
2
100
AcDbEntity
  8
KIJUN
100
AcDbLine
 10
386.15859356849
 20
1285.269895732006
 30
0.0
 11
386.1585935684901
 21
1416.269895732007
 31
0.0
  0
LINE
  5
5928
330
2
100
AcDbEntity
  8
KIJUN
100
AcDbLine
 10
296.1585935684902
 20
1285.269895732007
 30
0.0
 11
296.1585935684901
 21
1416.269895732007
 31
0.0
  0
ARC
  5
5929
330
2
100
AcDbEntity
  8
KIJUN
100
AcDbCircle
 10
298.1585935684902
 20
681.2698957320066
 30
0.0
 40
2.0
100
AcDbArc
 50
90.0
 51
180.0
  0
ARC
  5
592A
330
2
100
AcDbEntity
  8
KIJUN
100
AcDbCircle
 10
384.1585935684901
 20
681.2698957320066
 30
0.0
 40
2.0
100
AcDbArc
 50
0.0
 51
90.0
  0
ARC
  5
592B
330
2
100
AcDbEntity
  8
KIJUN
100
AcDbCircle
 10
363.1585935684901
 20
1395.269895732006
 30
0.0
 40
23.0
100
AcDbArc
 50
0.0
 51
90.0
  0
ARC
  5
592C
330
2
100
AcDbEntity
  8
KIJUN
100
AcDbCircle
 10
319.1585935684901
 20
1395.269895732006
 30
0.0
 40
23.0
100
AcDbArc
 50
90.0
 51
180.0
  0
ARC
  5
592D
330
2
100
AcDbEntity
  8
KIJUN
100
AcDbCircle
 10
319.1585935684902
 20
1306.269895732007
 30
0.0
 40
23.0
100
AcDbArc
 50
180.0
 51
270.0
  0
ARC
  5
592E
330
2
100
AcDbEntity
  8
KIJUN
100
AcDbCircle
 10
363.1585935684901
 20
1306.269895732007
 30
0.0
 40
23.0
100
AcDbArc
 50
270.0
 51
0.0
  0
ARC
  5
592F
330
2
100
AcDbEntity
  8
KIJUN
100
AcDbCircle
 10
384.1585935684901
 20
1416.269895732007
 30
0.0
 40
2.0
100
AcDbArc
 50
0.0
 51
90.0
  0
ARC
  5
5930
330
2
100
AcDbEntity
  8
KIJUN
100
AcDbCircle
 10
298.1585935684901
 20
1416.269895732007
 30
0.0
 40
2.0
100
AcDbArc
 50
90.0
 51
180.0
  0
ARC
  5
5931
330
2
100
AcDbEntity
  8
KIJUN
100
AcDbCircle
 10
298.1585935684903
 20
1285.269895732007
 30
0.0
 40
2.0
100
AcDbArc
 50
180.0
 51
270.0
  0
ARC
  5
5932
330
2
100
AcDbEntity
  8
KIJUN
100
AcDbCircle
 10
384.1585935684901
 20
1285.269895732006
 30
0.0
 40
2.0
100
AcDbArc
 50
270.0
 51
0.0
  0
DIMENSION
  5
5933
330
2
100
AcDbEntity
  8
SUNPOU
100
AcDbDimension
  2
*D21
 10
386.1585935684901
 20
1480.774038928284
 30
0.0
 11
341.1585935684901
 21
1500.774038928284
 31
0.0
 70
    32
 71
     5
 42
90.00000000000005
  3
STANDARD$0
100
AcDbAlignedDimension
 13
296.1585935684901
 23
1416.269895732007
 33
0.0
 14
386.1585935684901
 24
1416.269895732007
 34
0.0
100
AcDbRotatedDimension
1001
ACAD
1000
DSTYLE
1002
{
1070
    41
1040
3.0
1070
    42
1040
3.0
1070
    44
1040
0.0
1070
    77
1070
     1
1070
   140
1040
10.0
1070
   146
1040
0.064286
1070
   147
1040
5.0
1070
   176
1070
    60
1070
   177
1070
    70
1070
   178
1070
    60
1070
   271
1070
     0
1070
   272
1070
     0
1070
   340
1005
1C
1070
   342
1005
109
1002
}
  0
DIMENSION
  5
5940
330
2
100
AcDbEntity
  8
SUNPOU
100
AcDbDimension
  2
*D22
 10
386.15859356849
 20
213.5583445651973
 30
0.0
 11
341.1585935684901
 21
233.5583445651973
 31
0.0
 70
    32
 71
     5
 42
89.99999999999994
  3
STANDARD$0
100
AcDbAlignedDimension
 13
296.1585935684901
 23
320.2698957320067
 33
0.0
 14
386.15859356849
 24
320.2698957320066
 34
0.0
100
AcDbRotatedDimension
1001
ACAD
1000
DSTYLE
1002
{
1070
    41
1040
3.0
1070
    42
1040
3.0
1070
    44
1040
0.0
1070
    77
1070
     1
1070
   140
1040
10.0
1070
   146
1040
0.064286
1070
   147
1040
5.0
1070
   176
1070
    60
1070
   177
1070
    70
1070
   178
1070
    60
1070
   271
1070
     0
1070
   272
1070
     0
1070
   340
1005
1C
1070
   342
1005
109
1002
}
  0
DIMENSION
  5
594D
330
2
100
AcDbEntity
  8
SUNPOU
100
AcDbDimension
  2
*D23
 10
69.85448741342411
 20
1418.269895732007
 30
0.0
 11
49.85448741342384
 21
868.2698957320067
 31
0.0
 70
    32
 71
     5
 42
1100.0
  3
STANDARD$0
100
AcDbAlignedDimension
 13
298.1585935684901
 23
318.2698957320067
 33
0.0
 14
298.1585935684901
 24
1418.269895732007
 34
0.0
 50
90.0
100
AcDbRotatedDimension
1001
ACAD
1000
DSTYLE
1002
{
1070
    41
1040
3.0
1070
    42
1040
3.0
1070
    44
1040
0.0
1070
    77
1070
     1
1070
   140
1040
10.0
1070
   146
1040
0.064286
1070
   147
1040
5.0
1070
   176
1070
    60
1070
   177
1070
    70
1070
   178
1070
    60
1070
   271
1070
     0
1070
   272
1070
     0
1070
   340
1005
1C
1070
   342
1005
109
1002
}
  0
TEXT
  5
596C
330
2
100
AcDbEntity
  8
HOJO
100
AcDbText
 10
5.31350171470234
 20
-31.29996782511114
 30
0.0
 40
20.0
  1
※ 形状・寸法は製品特性や、生産ロットにより誤差があるものがあります。
  7
SUNPOU
100
AcDbText
  0
DIMENSION
  5
596D
330
2
100
AcDbEntity
  8
SUNPOU
100
AcDbDimension
  2
*D25
 10
177.3834453508835
 20
1418.269895732007
 30
0.0
 11
157.3834453508833
 21
1350.769895732007
 31
0.0
 70
    32
 71
     5
 42
135.0
  3
STANDARD$0
100
AcDbAlignedDimension
 13
298.1585935684903
 23
1283.269895732007
 33
0.0
 14
298.1585935684901
 24
1418.269895732007
 34
0.0
 50
90.0
100
AcDbRotatedDimension
1001
ACAD
1000
DSTYLE
1002
{
1070
    41
1040
3.0
1070
    42
1040
3.0
1070
    44
1040
0.0
1070
    77
1070
     1
1070
   140
1040
10.0
1070
   146
1040
0.064286
1070
   147
1040
5.0
1070
   176
1070
    60
1070
   177
1070
    70
1070
   178
1070
    60
1070
   271
1070
     6
1070
   272
1070
     0
1070
   340
1005
1C
1070
   342
1005
109
1002
}
  0
DIMENSION
  5
599F
330
2
100
AcDbEntity
  8
SUNPOU
100
AcDbDimension
  2
*D26
 10
177.3834453508836
 20
1283.269895732007
 30
0.0
 11
157.3834453508833
 21
983.2698957320067
 31
0.0
 70
    32
 71
     5
 42
600.0
  3
STANDARD$0
100
AcDbAlignedDimension
 13
298.1585935684902
 23
683.2698957320066
 33
0.0
 14
298.1585935684903
 24
1283.269895732007
 34
0.0
 50
90.0
100
AcDbRotatedDimension
1001
ACAD
1000
DSTYLE
1002
{
1070
    41
1040
3.0
1070
    42
1040
3.0
1070
    44
1040
0.0
1070
    77
1070
     1
1070
   140
1040
10.0
1070
   146
1040
0.064286
1070
   147
1040
5.0
1070
   176
1070
    60
1070
   177
1070
    70
1070
   178
1070
    60
1070
   271
1070
     6
1070
   272
1070
     0
1070
   340
1005
1C
1070
   342
1005
109
1002
}
  0
DIMENSION
  5
59B7
330
2
100
AcDbEntity
  8
SUNPOU
100
AcDbDimension
  2
*D27
 10
177.3834453508835
 20
683.2698957320067
 30
0.0
 11
157.3834453508834
 21
500.7698957320067
 31
0.0
 70
    32
 71
     5
 42
365.0
  3
STANDARD$0
100
AcDbAlignedDimension
 13
298.1585935684901
 23
318.2698957320067
 33
0.0
 14
298.1585935684902
 24
683.2698957320066
 34
0.0
 50
90.0
100
AcDbRotatedDimension
1001
ACAD
1000
DSTYLE
1002
{
1070
    41
1040
3.0
1070
    42
1040
3.0
1070
    44
1040
0.0
1070
    77
1070
     1
1070
   140
1040
10.0
1070
   146
1040
0.064286
1070
   147
1040
5.0
1070
   176
1070
    60
1070
   177
1070
    70
1070
   178
1070
    60
1070
   271
1070
     6
1070
   272
1070
     0
1070
   340
1005
1C
1070
   342
1005
109
1002
}
  0
ENDSEC
  0
SECTION
  2
OBJECTS
  0
DICTIONARY
  5
1A
330
0
100
AcDbDictionary
281
     1
  3
ACAD_COLOR
350
595F
  3
ACAD_GROUP
350
18
  3
ACAD_LAYOUT
350
58
  3
ACAD_MATERIAL
350
595E
  3
ACAD_MLINESTYLE
350
19
  3
ACAD_PLOTSETTINGS
350
59
  3
ACAD_PLOTSTYLENAME
350
56
  3
ACAD_TABLESTYLE
350
5960
  3
ACDBHEADERROUNDTRIPXREC
350
5A31
  3
AcDbVariableDictionary
350
59F4
  0
DICTIONARY
  5
595F
102
{ACAD_REACTORS
330
1A
102
}
330
1A
100
AcDbDictionary
281
     1
  0
DICTIONARY
  5
18
102
{ACAD_REACTORS
330
1A
102
}
330
1A
100
AcDbDictionary
281
     1
  3
*A1
350
3A0
  3
*A10
350
2FC7
  3
*A11
350
38D5
  3
*A12
350
46AB
  3
*A13
350
4FAD
  3
*A14
350
4FAE
  3
*A15
350
38D6
  3
*A16
350
46A2
  3
*A2
350
3A1
  3
*A3
350
ACC
  3
*A4
350
2120
  3
*A5
350
2765
  3
*A6
350
2766
  3
*A7
350
54B2
  3
*A9
350
2FC6
  0
DICTIONARY
  5
58
102
{ACAD_REACTORS
330
1A
102
}
330
1A
100
AcDbDictionary
281
     1
  3
Model
350
5A
  3
ﾚｲｱｳﾄ1
350
5B
  0
DICTIONARY
  5
595E
102
{ACAD_REACTORS
330
1A
102
}
330
1A
100
AcDbDictionary
281
     1
  0
DICTIONARY
  5
19
102
{ACAD_REACTORS
330
1A
102
}
330
1A
100
AcDbDictionary
281
     1
  3
STANDARD
350
1D
  0
DICTIONARY
  5
59
102
{ACAD_REACTORS
330
1A
102
}
330
1A
100
AcDbDictionary
281
     1
  0
ACDBDICTIONARYWDFLT
  5
56
102
{ACAD_REACTORS
330
1A
102
}
330
1A
100
AcDbDictionary
281
     1
  3
Normal
350
57
100
AcDbDictionaryWithDefault
340
57
  0
DICTIONARY
  5
5960
102
{ACAD_REACTORS
330
1A
102
}
330
1A
100
AcDbDictionary
281
     1
  3
Standard
350
5961
  0
DICTIONARY
  5
5A31
102
{ACAD_REACTORS
330
1A
102
}
330
1A
100
AcDbDictionary
281
     1
  0
DICTIONARY
  5
59F4
102
{ACAD_REACTORS
330
1A
102
}
330
1A
100
AcDbDictionary
281
     1
  3
CTABLESTYLE
350
59F5
  3
DIMASSOC
350
5A2E
  3
PROJECTNAME
350
5A2F
  0
GROUP
  5
3A0
102
{ACAD_REACTORS
330
18
102
}
330
18
100
AcDbGroup
300

 70
     1
 71
     1
  0
GROUP
  5
2FC7
102
{ACAD_REACTORS
330
18
102
}
330
18
100
AcDbGroup
300

 70
     1
 71
     1
  0
GROUP
  5
38D5
102
{ACAD_REACTORS
330
18
102
}
330
18
100
AcDbGroup
300

 70
     1
 71
     1
  0
GROUP
  5
46AB
102
{ACAD_REACTORS
330
18
102
}
330
18
100
AcDbGroup
300

 70
     1
 71
     1
  0
GROUP
  5
4FAD
102
{ACAD_REACTORS
330
18
102
}
330
18
100
AcDbGroup
300

 70
     1
 71
     1
  0
GROUP
  5
4FAE
102
{ACAD_REACTORS
330
18
102
}
330
18
100
AcDbGroup
300

 70
     1
 71
     1
  0
GROUP
  5
38D6
102
{ACAD_REACTORS
330
18
102
}
330
18
100
AcDbGroup
300

 70
     1
 71
     1
  0
GROUP
  5
46A2
102
{ACAD_REACTORS
330
18
102
}
330
18
100
AcDbGroup
300

 70
     1
 71
     1
  0
GROUP
  5
3A1
102
{ACAD_REACTORS
330
18
102
}
330
18
100
AcDbGroup
300

 70
     1
 71
     1
  0
GROUP
  5
ACC
102
{ACAD_REACTORS
330
18
102
}
330
18
100
AcDbGroup
300

 70
     1
 71
     1
  0
GROUP
  5
2120
102
{ACAD_REACTORS
330
18
102
}
330
18
100
AcDbGroup
300

 70
     1
 71
     1
  0
GROUP
  5
2765
102
{ACAD_REACTORS
330
18
102
}
330
18
100
AcDbGroup
300

 70
     1
 71
     1
  0
GROUP
  5
2766
102
{ACAD_REACTORS
330
18
102
}
330
18
100
AcDbGroup
300

 70
     1
 71
     1
  0
GROUP
  5
54B2
102
{ACAD_REACTORS
330
18
102
}
330
18
100
AcDbGroup
300

 70
     1
 71
     1
  0
GROUP
  5
2FC6
102
{ACAD_REACTORS
330
18
102
}
330
18
100
AcDbGroup
300

 70
     1
 71
     1
  0
LAYOUT
  5
5A
102
{ACAD_XDICTIONARY
360
5A32
102
}
102
{ACAD_REACTORS
330
58
102
}
330
58
100
AcDbPlotSettings
  1

  2
なし
  4

  6

 40
0.0
 41
0.0
 42
0.0
 43
0.0
 44
0.0
 45
0.0
 46
0.0
 47
0.0
 48
0.0
 49
0.0
140
0.0
141
0.0
142
1.0
143
1.0
 70
  1712
 72
     0
 73
     0
 74
     0
  7
monochrome.ctb
 75
     0
147
1.0
148
0.0
149
0.0
100
AcDbLayout
  1
Model
 70
     1
 71
     0
 10
0.0
 20
0.0
 11
12.0
 21
9.0
 12
0.0
 22
0.0
 32
0.0
 14
0.0
 24
0.0
 34
0.0
 15
0.0
 25
0.0
 35
0.0
146
0.0
 13
0.0
 23
0.0
 33
0.0
 16
1.0
 26
0.0
 36
0.0
 17
0.0
 27
1.0
 37
0.0
 76
     0
330
2
  0
LAYOUT
  5
5B
102
{ACAD_XDICTIONARY
360
5A34
102
}
102
{ACAD_REACTORS
330
58
102
}
330
58
100
AcDbPlotSettings
  1

  2
なし
  4

  6

 40
0.0
 41
0.0
 42
0.0
 43
0.0
 44
0.0
 45
0.0
 46
0.0
 47
0.0
 48
0.0
 49
0.0
140
0.0
141
0.0
142
1.0
143
1.0
 70
   688
 72
     0
 73
     0
 74
     5
  7
monochrome.ctb
 75
    16
147
1.0
148
0.0
149
0.0
100
AcDbLayout
  1
ﾚｲｱｳﾄ1
 70
     1
 71
     1
 10
0.0
 20
0.0
 11
12.0
 21
9.0
 12
0.0
 22
0.0
 32
0.0
 14
1.000000000000000E+20
 24
1.000000000000000E+20
 34
1.000000000000000E+20
 15
-1.000000000000000E+20
 25
-1.000000000000000E+20
 35
-1.000000000000000E+20
146
0.0
 13
0.0
 23
0.0
 33
0.0
 16
1.0
 26
0.0
 36
0.0
 17
0.0
 27
1.0
 37
0.0
 76
     0
330
7
  0
MLINESTYLE
  5
1D
102
{ACAD_REACTORS
330
19
102
}
330
19
100
AcDbMlineStyle
  2
STANDARD
 70
     0
  3

 62
   256
 51
90.0
 52
90.0
 71
     2
 49
0.5
 62
   256
  6
BYLAYER
 49
-0.5
 62
   256
  6
BYLAYER
  0
ACDBPLACEHOLDER
  5
57
102
{ACAD_REACTORS
330
56
102
}
330
56
  0
TABLESTYLE
  5
5961
102
{ACAD_REACTORS
330
5960
102
}
330
5960
100
AcDbTableStyle
  3
Standard
 70
     0
 71
     0
 40
0.06
 41
0.06
280
     0
281
     0
  7
STANDARD
140
0.18
170
     2
 62
     0
 63
     7
283
     0
274
    -2
284
     1
 64
     0
275
    -2
285
     1
 65
     0
276
    -2
286
     1
 66
     0
277
    -2
287
     1
 67
     0
278
    -2
288
     1
 68
     0
279
    -2
289
     1
 69
     0
  7
STANDARD
140
0.25
170
     5
 62
     0
 63
     7
283
     0
274
    -2
284
     1
 64
     0
275
    -2
285
     1
 65
     0
276
    -2
286
     1
 66
     0
277
    -2
287
     1
 67
     0
278
    -2
288
     1
 68
     0
279
    -2
289
     1
 69
     0
  7
STANDARD
140
0.18
170
     5
 62
     0
 63
     7
283
     0
274
    -2
284
     1
 64
     0
275
    -2
285
     1
 65
     0
276
    -2
286
     1
 66
     0
277
    -2
287
     1
 67
     0
278
    -2
288
     1
 68
     0
279
    -2
289
     1
 69
     0
  0
DICTIONARYVAR
  5
59F5
102
{ACAD_REACTORS
330
59F4
102
}
330
59F4
100
DictionaryVariables
280
     0
  1
STANDARD
  0
DICTIONARYVAR
  5
5A2E
102
{ACAD_REACTORS
330
59F4
102
}
330
59F4
100
DictionaryVariables
280
     0
  1
1
  0
DICTIONARYVAR
  5
5A2F
102
{ACAD_REACTORS
330
59F4
102
}
330
59F4
100
DictionaryVariables
280
     0
  1

  0
DICTIONARY
  5
5A32
330
5A
100
AcDbDictionary
280
     1
281
     1
  3
ACAD_XREC_ROUNDTRIP
360
5A33
  0
DICTIONARY
  5
5A34
330
5B
100
AcDbDictionary
280
     1
281
     1
  3
ACAD_XREC_ROUNDTRIP
360
5A35
  0
XRECORD
  5
5A33
102
{ACAD_REACTORS
330
5A32
102
}
330
5A32
100
AcDbXrecord
280
     1
102
SHADEPLOT
 70
     0
102
SHADEPLOTRESLEVEL
 70
     2
102
SHADEPLOTCUSTOMDPI
 70
   300
  0
XRECORD
  5
5A35
102
{ACAD_REACTORS
330
5A34
102
}
330
5A34
100
AcDbXrecord
280
     1
102
SHADEPLOT
 70
     0
102
SHADEPLOTRESLEVEL
 70
     2
102
SHADEPLOTCUSTOMDPI
 70
   300
  0
ENDSEC
  0
EOF
