  0
SECTION
  2
HEADER
  9
$ACADVER
  1
AC1015
  9
$ACADMAINTVER
 70
    20
  9
$DWGCODEPAGE
  3
ANSI_932
  9
$INSBASE
 10
922.019522
 20
-675.4306699999999
 30
0.0
  9
$EXTMIN
 10
-0.0352525523001077
 20
-34.86324757733064
 30
-0.0000000349181948
  9
$EXTMAX
 10
816.1045755572478
 20
1509.755046621504
 30
0.0000000814935746
  9
$LIMMIN
 10
0.0
 20
0.0
  9
$LIMMAX
 10
420.0
 20
297.0
  9
$ORTHOMODE
 70
     1
  9
$REGENMODE
 70
     1
  9
$FILLMODE
 70
     1
  9
$QTEXTMODE
 70
     0
  9
$MIRRTEXT
 70
     1
  9
$LTSCALE
 40
50.0
  9
$ATTMODE
 70
     1
  9
$TEXTSIZE
 40
30.0
  9
$TRACEWID
 40
0.05
  9
$TEXTSTYLE
  7
SUNPOU
  9
$CLAYER
  8
0
  9
$CELTYPE
  6
BYLAYER
  9
$CECOLOR
 62
   256
  9
$CELTSCALE
 40
1.0
  9
$DISPSILH
 70
     0
  9
$DIMSCALE
 40
1.0
  9
$DIMASZ
 40
3.0
  9
$DIMEXO
 40
3.0
  9
$DIMDLI
 40
0.38
  9
$DIMRND
 40
0.0
  9
$DIMDLE
 40
0.0
  9
$DIMEXE
 40
0.0
  9
$DIMTP
 40
0.0
  9
$DIMTM
 40
0.0
  9
$DIMTXT
 40
10.0
  9
$DIMCEN
 40
0.0
  9
$DIMTSZ
 40
0.0
  9
$DIMTOL
 70
     0
  9
$DIMLIM
 70
     0
  9
$DIMTIH
 70
     0
  9
$DIMTOH
 70
     0
  9
$DIMSE1
 70
     0
  9
$DIMSE2
 70
     0
  9
$DIMTAD
 70
     1
  9
$DIMZIN
 70
     0
  9
$DIMBLK
  1
Dot
  9
$DIMASO
 70
     1
  9
$DIMSHO
 70
     1
  9
$DIMPOST
  1

  9
$DIMAPOST
  1

  9
$DIMALT
 70
     0
  9
$DIMALTD
 70
     2
  9
$DIMALTF
 40
25.4
  9
$DIMLFAC
 40
1.0
  9
$DIMTOFL
 70
     0
  9
$DIMTVP
 40
0.0
  9
$DIMTIX
 70
     0
  9
$DIMSOXD
 70
     0
  9
$DIMSAH
 70
     0
  9
$DIMBLK1
  1

  9
$DIMBLK2
  1

  9
$DIMSTYLE
  2
STANDARD
  9
$DIMCLRD
 70
    60
  9
$DIMCLRE
 70
    70
  9
$DIMCLRT
 70
    60
  9
$DIMTFAC
 40
0.064286
  9
$DIMGAP
 40
5.0
  9
$DIMJUST
 70
     0
  9
$DIMSD1
 70
     0
  9
$DIMSD2
 70
     0
  9
$DIMTOLJ
 70
     1
  9
$DIMTZIN
 70
     0
  9
$DIMALTZ
 70
     0
  9
$DIMALTTZ
 70
     0
  9
$DIMUPT
 70
     0
  9
$DIMDEC
 70
     0
  9
$DIMTDEC
 70
     0
  9
$DIMALTU
 70
     2
  9
$DIMALTTD
 70
     2
  9
$DIMTXSTY
  7
SUNPOU
  9
$DIMAUNIT
 70
     0
  9
$DIMADEC
 70
     0
  9
$DIMALTRND
 40
0.0
  9
$DIMAZIN
 70
     0
  9
$DIMDSEP
 70
    46
  9
$DIMATFIT
 70
     3
  9
$DIMFRAC
 70
     0
  9
$DIMLDRBLK
  1

  9
$DIMLUNIT
 70
     2
  9
$DIMLWD
 70
    -2
  9
$DIMLWE
 70
    -2
  9
$DIMTMOVE
 70
     0
  9
$LUNITS
 70
     2
  9
$LUPREC
 70
     5
  9
$SKETCHINC
 40
0.1
  9
$FILLETRAD
 40
0.0
  9
$AUNITS
 70
     0
  9
$AUPREC
 70
     0
  9
$MENU
  1
acad
  9
$ELEVATION
 40
0.0
  9
$PELEVATION
 40
0.0
  9
$THICKNESS
 40
0.0
  9
$LIMCHECK
 70
     0
  9
$CHAMFERA
 40
0.0
  9
$CHAMFERB
 40
0.0
  9
$CHAMFERC
 40
0.0
  9
$CHAMFERD
 40
0.0
  9
$SKPOLY
 70
     0
  9
$TDCREATE
 40
2450623.654673033
  9
$TDUCREATE
 40
2450623.279673032
  9
$TDUPDATE
 40
2454580.621964988
  9
$TDUUPDATE
 40
2454580.246964988
  9
$TDINDWG
 40
0.2035964583
  9
$TDUSRTIMER
 40
0.2035962847
  9
$USRTIMER
 70
     1
  9
$ANGBASE
 50
0.0
  9
$ANGDIR
 70
     0
  9
$PDMODE
 70
     0
  9
$PDSIZE
 40
0.0
  9
$PLINEWID
 40
0.0
  9
$SPLFRAME
 70
     0
  9
$SPLINETYPE
 70
     6
  9
$SPLINESEGS
 70
     8
  9
$HANDSEED
  5
55AA
  9
$SURFTAB1
 70
     6
  9
$SURFTAB2
 70
     6
  9
$SURFTYPE
 70
     6
  9
$SURFU
 70
     6
  9
$SURFV
 70
     6
  9
$UCSBASE
  2

  9
$UCSNAME
  2

  9
$UCSORG
 10
0.0
 20
0.0
 30
0.0
  9
$UCSXDIR
 10
1.0
 20
0.0
 30
0.0
  9
$UCSYDIR
 10
0.0
 20
1.0
 30
0.0
  9
$UCSORTHOREF
  2

  9
$UCSORTHOVIEW
 70
     0
  9
$UCSORGTOP
 10
0.0
 20
0.0
 30
0.0
  9
$UCSORGBOTTOM
 10
0.0
 20
0.0
 30
0.0
  9
$UCSORGLEFT
 10
0.0
 20
0.0
 30
0.0
  9
$UCSORGRIGHT
 10
0.0
 20
0.0
 30
0.0
  9
$UCSORGFRONT
 10
0.0
 20
0.0
 30
0.0
  9
$UCSORGBACK
 10
0.0
 20
0.0
 30
0.0
  9
$PUCSBASE
  2

  9
$PUCSNAME
  2

  9
$PUCSORG
 10
0.0
 20
0.0
 30
0.0
  9
$PUCSXDIR
 10
1.0
 20
0.0
 30
0.0
  9
$PUCSYDIR
 10
0.0
 20
1.0
 30
0.0
  9
$PUCSORTHOREF
  2

  9
$PUCSORTHOVIEW
 70
     0
  9
$PUCSORGTOP
 10
0.0
 20
0.0
 30
0.0
  9
$PUCSORGBOTTOM
 10
0.0
 20
0.0
 30
0.0
  9
$PUCSORGLEFT
 10
0.0
 20
0.0
 30
0.0
  9
$PUCSORGRIGHT
 10
0.0
 20
0.0
 30
0.0
  9
$PUCSORGFRONT
 10
0.0
 20
0.0
 30
0.0
  9
$PUCSORGBACK
 10
0.0
 20
0.0
 30
0.0
  9
$USERI1
 70
     0
  9
$USERI2
 70
     0
  9
$USERI3
 70
     0
  9
$USERI4
 70
     0
  9
$USERI5
 70
     0
  9
$USERR1
 40
0.0
  9
$USERR2
 40
0.0
  9
$USERR3
 40
0.0
  9
$USERR4
 40
0.0
  9
$USERR5
 40
0.0
  9
$WORLDVIEW
 70
     1
  9
$SHADEDGE
 70
     3
  9
$SHADEDIF
 70
    70
  9
$TILEMODE
 70
     1
  9
$MAXACTVP
 70
    16
  9
$PINSBASE
 10
0.0
 20
0.0
 30
0.0
  9
$PLIMCHECK
 70
     0
  9
$PEXTMIN
 10
1.000000000000000E+20
 20
1.000000000000000E+20
 30
1.000000000000000E+20
  9
$PEXTMAX
 10
-1.000000000000000E+20
 20
-1.000000000000000E+20
 30
-1.000000000000000E+20
  9
$PLIMMIN
 10
0.0
 20
0.0
  9
$PLIMMAX
 10
12.0
 20
9.0
  9
$UNITMODE
 70
     0
  9
$VISRETAIN
 70
     0
  9
$PLINEGEN
 70
     0
  9
$PSLTSCALE
 70
     1
  9
$TREEDEPTH
 70
  3020
  9
$CMLSTYLE
  2
STANDARD
  9
$CMLJUST
 70
     0
  9
$CMLSCALE
 40
1.0
  9
$PROXYGRAPHICS
 70
     1
  9
$MEASUREMENT
 70
     0
  9
$CELWEIGHT
370
    -1
  9
$ENDCAPS
280
     0
  9
$JOINSTYLE
280
     0
  9
$LWDISPLAY
290
     0
  9
$INSUNITS
 70
     0
  9
$HYPERLINKBASE
  1

  9
$STYLESHEET
  1

  9
$XEDIT
290
     1
  9
$CEPSNTYPE
380
     0
  9
$PSTYLEMODE
290
     1
  9
$FINGERPRINTGUID
  2
{FB88A696-E29C-4009-92AF-A3599A8169D5}
  9
$VERSIONGUID
  2
{219B8E9C-6928-4D29-9E90-F79CE18A7487}
  9
$EXTNAMES
290
     1
  9
$PSVPSCALE
 40
0.0
  9
$OLESTARTUP
290
     0
  0
ENDSEC
  0
SECTION
  2
CLASSES
  0
CLASS
  1
DICTIONARYVAR
  2
AcDbDictionaryVar
  3
ObjectDBX Classes
 90
        0
280
     0
281
     0
  0
CLASS
  1
ACDBDICTIONARYWDFLT
  2
AcDbDictionaryWithDefault
  3
ObjectDBX Classes
 90
        0
280
     0
281
     0
  0
CLASS
  1
ACDBPLACEHOLDER
  2
AcDbPlaceHolder
  3
ObjectDBX Classes
 90
        0
280
     0
281
     0
  0
CLASS
  1
LAYOUT
  2
AcDbLayout
  3
ObjectDBX Classes
 90
        0
280
     0
281
     0
  0
CLASS
  1
TABLESTYLE
  2
AcDbTableStyle
  3
ObjectDBX Classes
 90
     2047
280
     0
281
     0
  0
CLASS
  1
SORTENTSTABLE
  2
AcDbSortentsTable
  3
ObjectDBX Classes
 90
        0
280
     0
281
     0
  0
ENDSEC
  0
SECTION
  2
TABLES
  0
TABLE
  2
VPORT
  5
12
330
0
100
AcDbSymbolTable
 70
     4
  0
VPORT
  5
55A4
330
12
100
AcDbSymbolTableRecord
100
AcDbViewportTableRecord
  2
*Active
 70
     0
 10
0.0
 20
0.0
 11
1.0
 21
1.0
 12
408.0346615024738
 22
737.4458995220869
 13
0.0
 23
0.0
 14
1.0
 24
1.0
 15
0.0
 25
0.0
 16
0.0
 26
0.0
 36
1.0
 17
0.0
 27
0.0
 37
0.0
 40
1556.409273543864
 41
1.528662420382165
 42
50.0
 43
0.0
 44
0.0
 50
0.0
 51
0.0
 71
     0
 72
 20000
 73
     1
 74
     1
 75
     0
 76
     0
 77
     0
 78
     0
281
     0
 65
     1
110
0.0
120
0.0
130
0.0
111
1.0
121
0.0
131
0.0
112
0.0
122
1.0
132
0.0
 79
     0
146
0.0
  0
ENDTAB
  0
TABLE
  2
LTYPE
  5
D
330
0
100
AcDbSymbolTable
 70
     3
  0
LTYPE
  5
E
330
D
100
AcDbSymbolTableRecord
100
AcDbLinetypeTableRecord
  2
BYBLOCK
 70
     0
  3

 72
    65
 73
     0
 40
0.0
  0
LTYPE
  5
F
330
D
100
AcDbSymbolTableRecord
100
AcDbLinetypeTableRecord
  2
BYLAYER
 70
     0
  3

 72
    65
 73
     0
 40
0.0
  0
LTYPE
  5
5
330
D
100
AcDbSymbolTableRecord
100
AcDbLinetypeTableRecord
  2
CONTINUOUS
 70
     0
  3
Solid line
 72
    65
 73
     0
 40
0.0
  0
LTYPE
  5
1AC
330
D
100
AcDbSymbolTableRecord
100
AcDbLinetypeTableRecord
  2
CENTER
 70
     0
  3
Center ____ _ ____ _ ____ _ ____ _ ____ _ ____
 72
    65
 73
     4
 40
2.0
 49
1.25
 74
     0
 49
-0.25
 74
     0
 49
0.25
 74
     0
 49
-0.25
 74
     0
  0
ENDTAB
  0
TABLE
  2
LAYER
  5
A
330
0
100
AcDbSymbolTable
 70
     6
  0
LAYER
  5
4
330
A
100
AcDbSymbolTableRecord
100
AcDbLayerTableRecord
  2
0
 70
     0
 62
     7
  6
CONTINUOUS
370
    -3
390
57
  0
LAYER
  5
25
330
A
100
AcDbSymbolTableRecord
100
AcDbLayerTableRecord
  2
KIJUN
 70
     0
 62
     7
  6
CONTINUOUS
370
    -3
390
57
  0
LAYER
  5
22
330
A
100
AcDbSymbolTableRecord
100
AcDbLayerTableRecord
  2
HOJO
 70
     0
 62
     3
  6
CONTINUOUS
370
    -3
390
57
  0
LAYER
  5
1B
330
A
100
AcDbSymbolTableRecord
100
AcDbLayerTableRecord
  2
WAKU
 70
     0
 62
     1
  6
CONTINUOUS
370
    -3
390
57
  0
LAYER
  5
31
330
A
100
AcDbSymbolTableRecord
100
AcDbLayerTableRecord
  2
DEFPOINTS
 70
     0
 62
     7
  6
CONTINUOUS
290
     0
370
    -3
390
57
  0
LAYER
  5
28
330
A
100
AcDbSymbolTableRecord
100
AcDbLayerTableRecord
  2
SUNPOU
 70
     0
 62
    70
  6
CONTINUOUS
370
    -3
390
57
  0
ENDTAB
  0
TABLE
  2
STYLE
  5
B
330
0
100
AcDbSymbolTable
 70
     3
  0
STYLE
  5
C
330
B
100
AcDbSymbolTableRecord
100
AcDbTextStyleTableRecord
  2
STANDARD
 70
     0
 40
0.0
 41
1.0
 50
0.0
 71
     0
 42
0.2
  3
txt
  4

  0
STYLE
  5
1C
330
B
100
AcDbSymbolTableRecord
100
AcDbTextStyleTableRecord
  2
SUNPOU
 70
     0
 40
0.0
 41
1.0
 50
0.0
 71
     0
 42
30.0
  3
txt
  4
bigfont
  0
STYLE
  5
1AD
330
B
100
AcDbSymbolTableRecord
100
AcDbTextStyleTableRecord
  2
LIFE
 70
     0
 40
0.0
 41
0.7
 50
0.0
 71
     0
 42
10.0
  3
romans
  4
extfont
  0
ENDTAB
  0
TABLE
  2
VIEW
  5
10
330
0
100
AcDbSymbolTable
 70
     0
  0
ENDTAB
  0
TABLE
  2
UCS
  5
11
330
0
100
AcDbSymbolTable
 70
     0
  0
ENDTAB
  0
TABLE
  2
APPID
  5
14
330
0
100
AcDbSymbolTable
 70
     2
  0
APPID
  5
15
330
14
100
AcDbSymbolTableRecord
100
AcDbRegAppTableRecord
  2
ACAD
 70
     0
  0
APPID
  5
553E
330
14
100
AcDbSymbolTableRecord
100
AcDbRegAppTableRecord
  2
ACAD_EXEMPT_FROM_CAD_STANDARDS
 70
     0
  0
ENDTAB
  0
TABLE
  2
DIMSTYLE
  5
16
330
0
100
AcDbSymbolTable
 70
     3
100
AcDbDimStyleTable
 71
     1
340
1E
  0
DIMSTYLE
105
1E
330
16
100
AcDbSymbolTableRecord
100
AcDbDimStyleTableRecord
  2
STANDARD
 70
     0
340
C
  0
DIMSTYLE
105
1AE
102
{ACAD_REACTORS
330
548B
330
5498
330
54A5
330
54C4
330
54EC
330
5502
102
}
330
16
100
AcDbSymbolTableRecord
100
AcDbDimStyleTableRecord
  2
STANDARD$0
 70
     0
 40
2.0
 41
1.0
 42
2.0
 43
0.0
 44
1.0
 73
     0
 74
     0
 77
     3
 78
     9
140
4.5
141
0.0
147
1.0
172
     1
173
     1
178
     3
271
     2
340
1AD
341
109
343
109
344
109
  0
ENDTAB
  0
TABLE
  2
BLOCK_RECORD
  5
1
330
0
100
AcDbSymbolTable
 70
    22
  0
BLOCK_RECORD
  5
2
330
1
100
AcDbSymbolTableRecord
100
AcDbBlockTableRecord
  2
*MODEL_SPACE
340
5A
  0
BLOCK_RECORD
  5
7
330
1
100
AcDbSymbolTableRecord
100
AcDbBlockTableRecord
  2
*PAPER_SPACE
340
5B
  0
BLOCK_RECORD
  5
109
330
1
100
AcDbSymbolTableRecord
100
AcDbBlockTableRecord
  2
_Dot
340
0
102
{BLKREFS
331
4F61
331
4F62
331
4F6F
331
4F70
331
4F7C
331
4F7D
331
4F8A
331
4F8B
331
4F98
331
4F99
331
4FA5
331
4FA6
331
4FC7
331
4FC8
331
4FBB
331
4FBC
331
508E
331
508F
331
5097
331
5098
331
546E
331
546F
331
5479
331
547A
331
5562
331
5563
331
556B
331
556C
331
5574
331
5575
331
557D
331
557E
331
5586
331
5587
331
558F
331
5590
102
}
  0
BLOCK_RECORD
  5
548C
330
1
100
AcDbSymbolTableRecord
100
AcDbBlockTableRecord
  2
*D14
340
0
  0
BLOCK_RECORD
  5
5499
330
1
100
AcDbSymbolTableRecord
100
AcDbBlockTableRecord
  2
*D15
340
0
  0
BLOCK_RECORD
  5
54A6
330
1
100
AcDbSymbolTableRecord
100
AcDbBlockTableRecord
  2
*D16
340
0
  0
BLOCK_RECORD
  5
54C5
330
1
100
AcDbSymbolTableRecord
100
AcDbBlockTableRecord
  2
*D18
340
0
  0
BLOCK_RECORD
  5
54ED
330
1
100
AcDbSymbolTableRecord
100
AcDbBlockTableRecord
  2
*D19
340
0
  0
BLOCK_RECORD
  5
5503
330
1
100
AcDbSymbolTableRecord
100
AcDbBlockTableRecord
  2
*D20
340
0
  0
ENDTAB
  0
ENDSEC
  0
SECTION
  2
BLOCKS
  0
BLOCK
  5
3
330
2
100
AcDbEntity
  8
0
100
AcDbBlockBegin
  2
*MODEL_SPACE
 70
     0
 10
0.0
 20
0.0
 30
0.0
  3
*MODEL_SPACE
  1

  0
ENDBLK
  5
6
330
2
100
AcDbEntity
  8
0
100
AcDbBlockEnd
  0
BLOCK
  5
8
330
7
100
AcDbEntity
 67
     1
  8
0
100
AcDbBlockBegin
  2
*PAPER_SPACE
 70
     0
 10
0.0
 20
0.0
 30
0.0
  3
*PAPER_SPACE
  1

  0
ENDBLK
  5
9
330
7
100
AcDbEntity
 67
     1
  8
0
100
AcDbBlockEnd
  0
BLOCK
  5
10C
330
109
100
AcDbEntity
  8
0
100
AcDbBlockBegin
  2
_Dot
 70
     0
 10
0.0
 20
0.0
 30
0.0
  3
_Dot
  1

  0
LWPOLYLINE
  5
10A
330
109
100
AcDbEntity
  8
0
  6
ByBlock
 62
     0
100
AcDbPolyline
 90
        2
 70
     1
 43
0.5
 10
-0.25
 20
0.0
 42
1.0
 10
0.25
 20
0.0
 42
1.0
  0
LINE
  5
10B
330
109
100
AcDbEntity
  8
0
  6
ByBlock
 62
     0
370
    -2
100
AcDbLine
 10
-0.5
 20
0.0
 30
0.0
 11
-1.0
 21
0.0
 31
0.0
  0
ENDBLK
  5
10D
330
109
100
AcDbEntity
  8
0
100
AcDbBlockEnd
  0
BLOCK
  5
5496
330
548C
100
AcDbEntity
  8
0
100
AcDbBlockBegin
  2
*D14
 70
     1
 10
0.0
 20
0.0
 30
0.0
  3
*D14
  1

  0
LINE
  5
555F
330
548C
100
AcDbEntity
  8
SUNPOU
 62
    70
370
    -2
100
AcDbLine
 10
256.0783803190677
 20
1388.614382378563
 30
0.0
 11
256.0783803190677
 21
1479.623224660311
 31
0.0
  0
LINE
  5
5560
330
548C
100
AcDbEntity
  8
SUNPOU
 62
    70
370
    -2
100
AcDbLine
 10
371.0783803190679
 20
1388.614382378563
 30
0.0
 11
371.0783803190679
 21
1479.623224660311
 31
0.0
  0
LINE
  5
5561
330
548C
100
AcDbEntity
  8
SUNPOU
 62
    60
370
    -2
100
AcDbLine
 10
262.0783803190677
 20
1479.623224660311
 30
0.0
 11
365.0783803190679
 21
1479.623224660311
 31
0.0
  0
INSERT
  5
5562
330
548C
100
AcDbEntity
  8
SUNPOU
 62
    60
370
    -2
100
AcDbBlockReference
  2
_Dot
 10
256.0783803190677
 20
1479.623224660311
 30
0.0
 41
6.0
 42
6.0
 43
6.0
 50
180.0
  0
INSERT
  5
5563
330
548C
100
AcDbEntity
  8
SUNPOU
 62
    60
370
    -2
100
AcDbBlockReference
  2
_Dot
 10
371.0783803190679
 20
1479.623224660311
 30
0.0
 41
6.0
 42
6.0
 43
6.0
  0
MTEXT
  5
5564
330
548C
100
AcDbEntity
  8
SUNPOU
 62
    60
100
AcDbMText
 10
313.5783803190678
 20
1499.623224660311
 30
0.0
 40
20.0
 41
0.0
 71
     5
 72
     1
  1
\A1;115
  7
SUNPOU
 73
     1
 44
1.0
1001
ACAD
1000
MTEXTBEGIN
1070
    73
1070
     1
1070
    44
1040
1.0
1070
    74
1070
     0
1000
MTEXTEND
  0
POINT
  5
5565
330
548C
100
AcDbEntity
  8
DEFPOINTS
 62
     0
100
AcDbPoint
 10
256.0783803190677
 20
1382.614382378563
 30
0.0
  0
POINT
  5
5566
330
548C
100
AcDbEntity
  8
DEFPOINTS
 62
     0
100
AcDbPoint
 10
371.0783803190679
 20
1382.614382378563
 30
0.0
  0
POINT
  5
5567
330
548C
100
AcDbEntity
  8
DEFPOINTS
 62
     0
100
AcDbPoint
 10
371.0783803190679
 20
1479.623224660311
 30
0.0
  0
ENDBLK
  5
5497
330
548C
100
AcDbEntity
  8
0
100
AcDbBlockEnd
  0
BLOCK
  5
54A3
330
5499
100
AcDbEntity
  8
0
100
AcDbBlockBegin
  2
*D15
 70
     1
 10
0.0
 20
0.0
 30
0.0
  3
*D15
  1

  0
LINE
  5
5568
330
5499
100
AcDbEntity
  8
SUNPOU
 62
    70
370
    -2
100
AcDbLine
 10
256.0783803190678
 20
280.6143823785628
 30
0.0
 11
256.0783803190678
 21
154.4411415304607
 31
0.0
  0
LINE
  5
5569
330
5499
100
AcDbEntity
  8
SUNPOU
 62
    70
370
    -2
100
AcDbLine
 10
371.0783803190679
 20
280.6143823785629
 30
0.0
 11
371.0783803190679
 21
154.4411415304607
 31
0.0
  0
LINE
  5
556A
330
5499
100
AcDbEntity
  8
SUNPOU
 62
    60
370
    -2
100
AcDbLine
 10
262.0783803190678
 20
154.4411415304607
 30
0.0
 11
365.0783803190679
 21
154.4411415304607
 31
0.0
  0
INSERT
  5
556B
330
5499
100
AcDbEntity
  8
SUNPOU
 62
    60
370
    -2
100
AcDbBlockReference
  2
_Dot
 10
256.0783803190678
 20
154.4411415304607
 30
0.0
 41
6.0
 42
6.0
 43
6.0
 50
180.0
  0
INSERT
  5
556C
330
5499
100
AcDbEntity
  8
SUNPOU
 62
    60
370
    -2
100
AcDbBlockReference
  2
_Dot
 10
371.0783803190679
 20
154.4411415304607
 30
0.0
 41
6.0
 42
6.0
 43
6.0
  0
MTEXT
  5
556D
330
5499
100
AcDbEntity
  8
SUNPOU
 62
    60
100
AcDbMText
 10
313.5783803190678
 20
174.4411415304607
 30
0.0
 40
20.0
 41
0.0
 71
     5
 72
     1
  1
\A1;115
  7
SUNPOU
 73
     1
 44
1.0
1001
ACAD
1000
MTEXTBEGIN
1070
    73
1070
     1
1070
    44
1040
1.0
1070
    74
1070
     0
1000
MTEXTEND
  0
POINT
  5
556E
330
5499
100
AcDbEntity
  8
DEFPOINTS
 62
     0
100
AcDbPoint
 10
256.0783803190678
 20
286.6143823785628
 30
0.0
  0
POINT
  5
556F
330
5499
100
AcDbEntity
  8
DEFPOINTS
 62
     0
100
AcDbPoint
 10
371.0783803190679
 20
286.6143823785629
 30
0.0
  0
POINT
  5
5570
330
5499
100
AcDbEntity
  8
DEFPOINTS
 62
     0
100
AcDbPoint
 10
371.0783803190679
 20
154.4411415304607
 30
0.0
  0
ENDBLK
  5
54A4
330
5499
100
AcDbEntity
  8
0
100
AcDbBlockEnd
  0
BLOCK
  5
54B0
330
54A6
100
AcDbEntity
  8
0
100
AcDbBlockBegin
  2
*D16
 70
     1
 10
0.0
 20
0.0
 30
0.0
  3
*D16
  1

  0
LINE
  5
5571
330
54A6
100
AcDbEntity
  8
SUNPOU
 62
    70
370
    -2
100
AcDbLine
 10
252.0783803190678
 20
284.6143823785628
 30
0.0
 11
56.51944005289699
 21
284.6143823785628
 31
0.0
  0
LINE
  5
5572
330
54A6
100
AcDbEntity
  8
SUNPOU
 62
    70
370
    -2
100
AcDbLine
 10
252.0783803190678
 20
1384.614382378563
 30
0.0
 11
56.51944005289723
 21
1384.614382378563
 31
0.0
  0
LINE
  5
5573
330
54A6
100
AcDbEntity
  8
SUNPOU
 62
    60
370
    -2
100
AcDbLine
 10
56.51944005289698
 20
290.6143823785628
 30
0.0
 11
56.51944005289722
 21
1378.614382378563
 31
0.0
  0
INSERT
  5
5574
330
54A6
100
AcDbEntity
  8
SUNPOU
 62
    60
370
    -2
100
AcDbBlockReference
  2
_Dot
 10
56.51944005289698
 20
284.6143823785628
 30
0.0
 41
6.0
 42
6.0
 43
6.0
 50
270.0
  0
INSERT
  5
5575
330
54A6
100
AcDbEntity
  8
SUNPOU
 62
    60
370
    -2
100
AcDbBlockReference
  2
_Dot
 10
56.51944005289722
 20
1384.614382378563
 30
0.0
 41
6.0
 42
6.0
 43
6.0
 50
90.0
  0
MTEXT
  5
5576
330
54A6
100
AcDbEntity
  8
SUNPOU
 62
    60
100
AcDbMText
 10
36.51944005289697
 20
834.6143823785627
 30
0.0
 40
20.0
 41
0.0
 71
     5
 72
     1
  1
\A1;1100
  7
SUNPOU
 11
0.0000000000000001
 21
1.0
 31
0.0
 73
     1
 44
1.0
1001
ACAD
1000
MTEXTBEGIN
1070
    73
1070
     1
1070
    44
1040
1.0
1070
    74
1070
     0
1000
MTEXTEND
  0
POINT
  5
5577
330
54A6
100
AcDbEntity
  8
DEFPOINTS
 62
     0
100
AcDbPoint
 10
258.0783803190678
 20
284.6143823785628
 30
0.0
  0
POINT
  5
5578
330
54A6
100
AcDbEntity
  8
DEFPOINTS
 62
     0
100
AcDbPoint
 10
258.0783803190677
 20
1384.614382378563
 30
0.0
  0
POINT
  5
5579
330
54A6
100
AcDbEntity
  8
DEFPOINTS
 62
     0
100
AcDbPoint
 10
56.51944005289722
 20
1384.614382378563
 30
0.0
  0
ENDBLK
  5
54B1
330
54A6
100
AcDbEntity
  8
0
100
AcDbBlockEnd
  0
BLOCK
  5
54CF
330
54C5
100
AcDbEntity
  8
0
100
AcDbBlockBegin
  2
*D18
 70
     1
 10
0.0
 20
0.0
 30
0.0
  3
*D18
  1

  0
LINE
  5
557A
330
54C5
100
AcDbEntity
  8
SUNPOU
 62
    70
370
    -2
100
AcDbLine
 10
252.0783803190678
 20
1229.463394378524
 30
0.0
 11
135.5927765734305
 21
1229.463394378524
 31
0.0
  0
LINE
  5
557B
330
54C5
100
AcDbEntity
  8
SUNPOU
 62
    70
370
    -2
100
AcDbLine
 10
252.0783803190678
 20
1384.614382378563
 30
0.0
 11
135.5927765734305
 21
1384.614382378563
 31
0.0
  0
LINE
  5
557C
330
54C5
100
AcDbEntity
  8
SUNPOU
 62
    60
370
    -2
100
AcDbLine
 10
135.5927765734305
 20
1235.463394378524
 30
0.0
 11
135.5927765734305
 21
1378.614382378563
 31
0.0
  0
INSERT
  5
557D
330
54C5
100
AcDbEntity
  8
SUNPOU
 62
    60
370
    -2
100
AcDbBlockReference
  2
_Dot
 10
135.5927765734305
 20
1229.463394378524
 30
0.0
 41
6.0
 42
6.0
 43
6.0
 50
270.0
  0
INSERT
  5
557E
330
54C5
100
AcDbEntity
  8
SUNPOU
 62
    60
370
    -2
100
AcDbBlockReference
  2
_Dot
 10
135.5927765734305
 20
1384.614382378563
 30
0.0
 41
6.0
 42
6.0
 43
6.0
 50
90.0
  0
MTEXT
  5
557F
330
54C5
100
AcDbEntity
  8
SUNPOU
 62
    60
100
AcDbMText
 10
115.5927765734303
 20
1307.038888378543
 30
0.0
 40
20.0
 41
0.0
 71
     5
 72
     1
  1
\A1;155
  7
SUNPOU
 11
0.0000000000000001
 21
1.0
 31
0.0
 73
     1
 44
1.0
1001
ACAD
1000
MTEXTBEGIN
1070
    73
1070
     1
1070
    44
1040
1.0
1070
    74
1070
     0
1000
MTEXTEND
  0
POINT
  5
5580
330
54C5
100
AcDbEntity
  8
DEFPOINTS
 62
     0
100
AcDbPoint
 10
258.0783803190678
 20
1229.463394378524
 30
0.0
  0
POINT
  5
5581
330
54C5
100
AcDbEntity
  8
DEFPOINTS
 62
     0
100
AcDbPoint
 10
258.0783803190677
 20
1384.614382378563
 30
0.0
  0
POINT
  5
5582
330
54C5
100
AcDbEntity
  8
DEFPOINTS
 62
     0
100
AcDbPoint
 10
135.5927765734305
 20
1384.614382378563
 30
0.0
  0
ENDBLK
  5
54D0
330
54C5
100
AcDbEntity
  8
0
100
AcDbBlockEnd
  0
BLOCK
  5
54F7
330
54ED
100
AcDbEntity
  8
0
100
AcDbBlockBegin
  2
*D19
 70
     1
 10
0.0
 20
0.0
 30
0.0
  3
*D19
  1

  0
LINE
  5
5583
330
54ED
100
AcDbEntity
  8
SUNPOU
 62
    70
370
    -2
100
AcDbLine
 10
252.0783803190678
 20
624.6143823785631
 30
0.0
 11
135.5927765734304
 21
624.6143823785631
 31
0.0
  0
LINE
  5
5584
330
54ED
100
AcDbEntity
  8
SUNPOU
 62
    70
370
    -2
100
AcDbLine
 10
252.0783803190678
 20
1229.463394378524
 30
0.0
 11
135.5927765734305
 21
1229.463394378524
 31
0.0
  0
LINE
  5
5585
330
54ED
100
AcDbEntity
  8
SUNPOU
 62
    60
370
    -2
100
AcDbLine
 10
135.5927765734304
 20
630.6143823785632
 30
0.0
 11
135.5927765734305
 21
1223.463394378524
 31
0.0
  0
INSERT
  5
5586
330
54ED
100
AcDbEntity
  8
SUNPOU
 62
    60
370
    -2
100
AcDbBlockReference
  2
_Dot
 10
135.5927765734304
 20
624.6143823785631
 30
0.0
 41
6.0
 42
6.0
 43
6.0
 50
270.0
  0
INSERT
  5
5587
330
54ED
100
AcDbEntity
  8
SUNPOU
 62
    60
370
    -2
100
AcDbBlockReference
  2
_Dot
 10
135.5927765734305
 20
1229.463394378524
 30
0.0
 41
6.0
 42
6.0
 43
6.0
 50
90.0
  0
MTEXT
  5
5588
330
54ED
100
AcDbEntity
  8
SUNPOU
 62
    60
100
AcDbMText
 10
115.5927765734303
 20
927.0388883785436
 30
0.0
 40
20.0
 41
0.0
 71
     5
 72
     1
  1
\A1;605
  7
SUNPOU
 11
0.0000000000000001
 21
1.0
 31
0.0
 73
     1
 44
1.0
1001
ACAD
1000
MTEXTBEGIN
1070
    73
1070
     1
1070
    44
1040
1.0
1070
    74
1070
     0
1000
MTEXTEND
  0
POINT
  5
5589
330
54ED
100
AcDbEntity
  8
DEFPOINTS
 62
     0
100
AcDbPoint
 10
258.0783803190678
 20
624.614382378563
 30
0.0
  0
POINT
  5
558A
330
54ED
100
AcDbEntity
  8
DEFPOINTS
 62
     0
100
AcDbPoint
 10
258.0783803190678
 20
1229.463394378524
 30
0.0
  0
POINT
  5
558B
330
54ED
100
AcDbEntity
  8
DEFPOINTS
 62
     0
100
AcDbPoint
 10
135.5927765734305
 20
1229.463394378524
 30
0.0
  0
ENDBLK
  5
54F8
330
54ED
100
AcDbEntity
  8
0
100
AcDbBlockEnd
  0
BLOCK
  5
550D
330
5503
100
AcDbEntity
  8
0
100
AcDbBlockBegin
  2
*D20
 70
     1
 10
0.0
 20
0.0
 30
0.0
  3
*D20
  1

  0
LINE
  5
558C
330
5503
100
AcDbEntity
  8
SUNPOU
 62
    70
370
    -2
100
AcDbLine
 10
252.0783803190678
 20
284.6143823785628
 30
0.0
 11
135.5927765734304
 21
284.6143823785628
 31
0.0
  0
LINE
  5
558D
330
5503
100
AcDbEntity
  8
SUNPOU
 62
    70
370
    -2
100
AcDbLine
 10
252.0783803190678
 20
624.6143823785631
 30
0.0
 11
135.5927765734305
 21
624.6143823785631
 31
0.0
  0
LINE
  5
558E
330
5503
100
AcDbEntity
  8
SUNPOU
 62
    60
370
    -2
100
AcDbLine
 10
135.5927765734304
 20
290.6143823785628
 30
0.0
 11
135.5927765734305
 21
618.6143823785632
 31
0.0
  0
INSERT
  5
558F
330
5503
100
AcDbEntity
  8
SUNPOU
 62
    60
370
    -2
100
AcDbBlockReference
  2
_Dot
 10
135.5927765734304
 20
284.6143823785628
 30
0.0
 41
6.0
 42
6.0
 43
6.0
 50
270.0
  0
INSERT
  5
5590
330
5503
100
AcDbEntity
  8
SUNPOU
 62
    60
370
    -2
100
AcDbBlockReference
  2
_Dot
 10
135.5927765734305
 20
624.6143823785631
 30
0.0
 41
6.0
 42
6.0
 43
6.0
 50
90.0
  0
MTEXT
  5
5591
330
5503
100
AcDbEntity
  8
SUNPOU
 62
    60
100
AcDbMText
 10
115.5927765734304
 20
454.6143823785629
 30
0.0
 40
20.0
 41
0.0
 71
     5
 72
     1
  1
\A1;340
  7
SUNPOU
 11
0.0000000000000001
 21
1.0
 31
0.0
 73
     1
 44
1.0
1001
ACAD
1000
MTEXTBEGIN
1070
    73
1070
     1
1070
    44
1040
1.0
1070
    74
1070
     0
1000
MTEXTEND
  0
POINT
  5
5592
330
5503
100
AcDbEntity
  8
DEFPOINTS
 62
     0
100
AcDbPoint
 10
258.0783803190678
 20
284.6143823785628
 30
0.0
  0
POINT
  5
5593
330
5503
100
AcDbEntity
  8
DEFPOINTS
 62
     0
100
AcDbPoint
 10
258.0783803190678
 20
624.614382378563
 30
0.0
  0
POINT
  5
5594
330
5503
100
AcDbEntity
  8
DEFPOINTS
 62
     0
100
AcDbPoint
 10
135.5927765734305
 20
624.6143823785631
 30
0.0
  0
ENDBLK
  5
550E
330
5503
100
AcDbEntity
  8
0
100
AcDbBlockEnd
  0
ENDSEC
  0
SECTION
  2
ENTITIES
  0
LINE
  5
1F
330
2
100
AcDbEntity
  8
WAKU
100
AcDbLine
 10
0.0
 20
70.0
 30
0.0
 11
610.6489978526152
 21
70.0
 31
0.0
  0
LINE
  5
20
330
2
100
AcDbEntity
  8
WAKU
100
AcDbLine
 10
0.0
 20
0.0
 30
0.0
 11
610.6489978526152
 21
0.0
 31
0.0
  0
TEXT
  5
21
330
2
100
AcDbEntity
  8
HOJO
100
AcDbText
 10
48.26983000000012
 20
11.83313000000009
 30
0.0
 40
45.0
  1
D-1
  7
SUNPOU
100
AcDbText
  0
TEXT
  5
4A3
330
2
100
AcDbEntity
  8
HOJO
100
AcDbText
 10
225.60543919488
 20
20.97829970797568
 30
0.0
 40
35.0
  1
1100x115x115
  7
SUNPOU
100
AcDbText
  0
LINE
  5
509D
330
2
100
AcDbEntity
  8
KIJUN
100
AcDbLine
 10
258.0783803190678
 20
624.614382378563
 30
0.0
 11
369.0783803190679
 21
624.6143823785629
 31
0.0
  0
LINE
  5
50AD
330
2
100
AcDbEntity
  8
KIJUN
100
AcDbLine
 10
361.5944133191915
 20
1173.249892378525
 30
0.0
 11
355.7305693191556
 21
1169.958179378564
 31
0.0
  0
LINE
  5
50AE
330
2
100
AcDbEntity
  8
KIJUN
100
AcDbLine
 10
355.7305693191556
 20
1169.958179378564
 30
0.0
 11
349.318847319144
 21
1164.805027378513
 31
0.0
  0
LINE
  5
50AF
330
2
100
AcDbEntity
  8
KIJUN
100
AcDbLine
 10
349.318847319144
 20
1164.805027378513
 30
0.0
 11
344.8639413190428
 21
1159.75538037852
 31
0.0
  0
LINE
  5
50B0
330
2
100
AcDbEntity
  8
KIJUN
100
AcDbLine
 10
344.8639413190428
 20
1159.75538037852
 30
0.0
 11
342.3034943192288
 21
1154.542030378544
 31
0.0
  0
LINE
  5
50B1
330
2
100
AcDbEntity
  8
KIJUN
100
AcDbLine
 10
342.3034943192288
 20
1154.542030378544
 30
0.0
 11
340.6434773190667
 21
1149.27673737854
 31
0.0
  0
LINE
  5
50B2
330
2
100
AcDbEntity
  8
KIJUN
100
AcDbLine
 10
340.6434773190667
 20
1149.27673737854
 30
0.0
 11
339.668371319076
 21
1144.166384378552
 31
0.0
  0
LINE
  5
50B3
330
2
100
AcDbEntity
  8
KIJUN
100
AcDbLine
 10
339.668371319076
 20
1144.166384378552
 30
0.0
 11
339.1041103191053
 21
1135.704501378563
 31
0.0
  0
LINE
  5
50B4
330
2
100
AcDbEntity
  8
KIJUN
100
AcDbLine
 10
339.1041103191053
 20
1135.704501378563
 30
0.0
 11
338.9703793191038
 21
1126.932103378561
 31
0.0
  0
LINE
  5
50B5
330
2
100
AcDbEntity
  8
KIJUN
100
AcDbLine
 10
338.9703793191038
 20
1126.932103378561
 30
0.0
 11
339.7563823190685
 21
1118.107889378569
 31
0.0
  0
LINE
  5
50B6
330
2
100
AcDbEntity
  8
KIJUN
100
AcDbLine
 10
339.7563823190685
 20
1118.107889378569
 30
0.0
 11
341.5077123191841
 21
1107.012280378558
 31
0.0
  0
LINE
  5
50B7
330
2
100
AcDbEntity
  8
KIJUN
100
AcDbLine
 10
341.5077123191841
 20
1107.012280378558
 30
0.0
 11
343.0517783191208
 21
1095.868411378493
 31
0.0
  0
LINE
  5
50B8
330
2
100
AcDbEntity
  8
KIJUN
100
AcDbLine
 10
343.0517783191208
 20
1095.868411378493
 30
0.0
 11
344.6889353191618
 21
1084.664979378484
 31
0.0
  0
LINE
  5
50B9
330
2
100
AcDbEntity
  8
KIJUN
100
AcDbLine
 10
344.6889353191618
 20
1084.664979378484
 30
0.0
 11
346.7191573192067
 21
1073.390808378552
 31
0.0
  0
LINE
  5
50BA
330
2
100
AcDbEntity
  8
KIJUN
100
AcDbLine
 10
346.7191573192067
 20
1073.390808378552
 30
0.0
 11
349.4424183191695
 21
1062.034849378536
 31
0.0
  0
LINE
  5
50BB
330
2
100
AcDbEntity
  8
KIJUN
100
AcDbLine
 10
349.4424183191695
 20
1062.034849378536
 30
0.0
 11
351.9767033191274
 21
1049.163526378588
 31
0.0
  0
LINE
  5
50BC
330
2
100
AcDbEntity
  8
KIJUN
100
AcDbLine
 10
351.9767033191274
 20
1049.163526378588
 30
0.0
 11
354.3348393190718
 21
1035.740515378531
 31
0.0
  0
LINE
  5
50BD
330
2
100
AcDbEntity
  8
KIJUN
100
AcDbLine
 10
354.3348393190718
 20
1035.740515378531
 30
0.0
 11
354.9904133192358
 21
1022.093349378601
 31
0.0
  0
LINE
  5
50BE
330
2
100
AcDbEntity
  8
KIJUN
100
AcDbLine
 10
354.9904133192358
 20
1022.093349378601
 30
0.0
 11
354.5108613190568
 21
1011.353467378542
 31
0.0
  0
LINE
  5
50BF
330
2
100
AcDbEntity
  8
KIJUN
100
AcDbLine
 10
354.5108613190568
 20
1011.353467378542
 30
0.0
 11
352.270200319148
 21
1000.751380378579
 31
0.0
  0
LINE
  5
50C0
330
2
100
AcDbEntity
  8
KIJUN
100
AcDbLine
 10
352.270200319148
 20
1000.751380378579
 30
0.0
 11
348.3859053191009
 21
990.3734483785033
 31
0.0
  0
LINE
  5
50C1
330
2
100
AcDbEntity
  8
KIJUN
100
AcDbLine
 10
348.3859053191009
 20
990.3734483785033
 30
0.0
 11
345.0234533192158
 21
983.3155503785112
 31
0.0
  0
LINE
  5
50C2
330
2
100
AcDbEntity
  8
KIJUN
100
AcDbLine
 10
345.0234533192158
 20
983.3155503785112
 30
0.0
 11
340.6237923191038
 21
977.9641513785705
 31
0.0
  0
LINE
  5
50C3
330
2
100
AcDbEntity
  8
KIJUN
100
AcDbLine
 10
340.6237923191038
 20
977.9641513785705
 30
0.0
 11
333.6804483190826
 21
972.9228863785269
 31
0.0
  0
LINE
  5
50C4
330
2
100
AcDbEntity
  8
KIJUN
100
AcDbLine
 10
333.6804483190826
 20
972.9228863785269
 30
0.0
 11
311.489865319043
 21
972.302872378505
 31
0.0
  0
LINE
  5
50C5
330
2
100
AcDbEntity
  8
KIJUN
100
AcDbLine
 10
311.489865319043
 20
972.302872378505
 30
0.0
 11
311.1374403191694
 21
1172.939885378576
 31
0.0
  0
LINE
  5
50C6
330
2
100
AcDbEntity
  8
KIJUN
100
AcDbLine
 10
311.1374403191694
 20
1172.939885378576
 30
0.0
 11
361.5944133191915
 21
1173.249892378525
 31
0.0
  0
LINE
  5
50C7
330
2
100
AcDbEntity
  8
KIJUN
100
AcDbLine
 10
264.5524433191785
 20
1172.749893378584
 30
0.0
 11
269.9371163191643
 21
1169.599023378484
 31
0.0
  0
LINE
  5
50C8
330
2
100
AcDbEntity
  8
KIJUN
100
AcDbLine
 10
269.9371163191643
 20
1169.599023378484
 30
0.0
 11
275.4586953190699
 21
1164.707110378521
 31
0.0
  0
LINE
  5
50C9
330
2
100
AcDbEntity
  8
KIJUN
100
AcDbLine
 10
275.4586953190699
 20
1164.707110378521
 30
0.0
 11
279.4344303191283
 21
1159.79792537848
 31
0.0
  0
LINE
  5
50CA
330
2
100
AcDbEntity
  8
KIJUN
100
AcDbLine
 10
279.4344303191283
 20
1159.79792537848
 30
0.0
 11
282.0988903190482
 21
1154.83451137857
 31
0.0
  0
LINE
  5
50CB
330
2
100
AcDbEntity
  8
KIJUN
100
AcDbLine
 10
282.0988903190482
 20
1154.83451137857
 30
0.0
 11
283.9024173190373
 21
1149.870970378493
 31
0.0
  0
LINE
  5
50CC
330
2
100
AcDbEntity
  8
KIJUN
100
AcDbLine
 10
283.9024173190373
 20
1149.870970378493
 30
0.0
 11
284.8058953190373
 21
1144.441847378586
 31
0.0
  0
LINE
  5
50CD
330
2
100
AcDbEntity
  8
KIJUN
100
AcDbLine
 10
284.8058953190373
 20
1144.441847378586
 30
0.0
 11
285.3309133191324
 21
1135.956850378514
 31
0.0
  0
LINE
  5
50CE
330
2
100
AcDbEntity
  8
KIJUN
100
AcDbLine
 10
285.3309133191324
 20
1135.956850378514
 30
0.0
 11
285.0144293191807
 21
1127.695627378535
 31
0.0
  0
LINE
  5
50CF
330
2
100
AcDbEntity
  8
KIJUN
100
AcDbLine
 10
285.0144293191807
 20
1127.695627378535
 30
0.0
 11
284.1894373191788
 21
1119.15894137852
 31
0.0
  0
LINE
  5
50D0
330
2
100
AcDbEntity
  8
KIJUN
100
AcDbLine
 10
284.1894373191788
 20
1119.15894137852
 30
0.0
 11
282.4473783192116
 21
1108.006817378549
 31
0.0
  0
LINE
  5
50D1
330
2
100
AcDbEntity
  8
KIJUN
100
AcDbLine
 10
282.4473783192116
 20
1108.006817378549
 30
0.0
 11
280.9250293192199
 21
1096.728328378538
 31
0.0
  0
LINE
  5
50D2
330
2
100
AcDbEntity
  8
KIJUN
100
AcDbLine
 10
280.9250293192199
 20
1096.728328378538
 30
0.0
 11
279.3139073192176
 21
1085.364114378501
 31
0.0
  0
LINE
  5
50D3
330
2
100
AcDbEntity
  8
KIJUN
100
AcDbLine
 10
279.3139073192176
 20
1085.364114378501
 30
0.0
 11
277.3055293191828
 21
1073.955323378491
 31
0.0
  0
LINE
  5
50D4
330
2
100
AcDbEntity
  8
KIJUN
100
AcDbLine
 10
277.3055293191828
 20
1073.955323378491
 30
0.0
 11
274.5914123190851
 21
1062.542849378524
 31
0.0
  0
LINE
  5
50D5
330
2
100
AcDbEntity
  8
KIJUN
100
AcDbLine
 10
274.5914123190851
 20
1062.542849378524
 30
0.0
 11
272.5138193191778
 21
1049.872567378488
 31
0.0
  0
LINE
  5
50D6
330
2
100
AcDbEntity
  8
KIJUN
100
AcDbLine
 10
272.5138193191778
 20
1049.872567378488
 30
0.0
 11
271.0037893192093
 21
1036.822936378588
 31
0.0
  0
LINE
  5
50D7
330
2
100
AcDbEntity
  8
KIJUN
100
AcDbLine
 10
271.0037893192093
 20
1036.822936378588
 30
0.0
 11
270.8049073191032
 21
1023.37693837849
 31
0.0
  0
LINE
  5
50D8
330
2
100
AcDbEntity
  8
KIJUN
100
AcDbLine
 10
270.8049073191032
 20
1023.37693837849
 30
0.0
 11
270.9286053191643
 21
1012.662964378544
 31
0.0
  0
LINE
  5
50D9
330
2
100
AcDbEntity
  8
KIJUN
100
AcDbLine
 10
270.9286053191643
 20
1012.662964378544
 30
0.0
 11
272.4418103190583
 21
1002.138347378585
 31
0.0
  0
LINE
  5
50DA
330
2
100
AcDbEntity
  8
KIJUN
100
AcDbLine
 10
272.4418103190583
 20
1002.138347378585
 30
0.0
 11
275.735936319139
 21
991.8894473785353
 31
0.0
  0
LINE
  5
50DB
330
2
100
AcDbEntity
  8
KIJUN
100
AcDbLine
 10
275.735936319139
 20
991.8894473785353
 30
0.0
 11
278.3776633192137
 21
984.2545883785371
 31
0.0
  0
LINE
  5
50DC
330
2
100
AcDbEntity
  8
KIJUN
100
AcDbLine
 10
278.3776633192137
 20
984.2545883785371
 30
0.0
 11
282.5458033190334
 21
977.9122083785498
 31
0.0
  0
LINE
  5
50DD
330
2
100
AcDbEntity
  8
KIJUN
100
AcDbLine
 10
282.5458033190334
 20
977.9122083785498
 30
0.0
 11
289.4728913191029
 21
972.3454173785814
 31
0.0
  0
LINE
  5
50DE
330
2
100
AcDbEntity
  8
KIJUN
100
AcDbLine
 10
289.4728913191029
 20
972.3454173785814
 30
0.0
 11
312.0153913190695
 21
972.4228873785852
 31
0.0
  0
LINE
  5
50DF
330
2
100
AcDbEntity
  8
KIJUN
100
AcDbLine
 10
312.0153913190695
 20
972.4228873785852
 30
0.0
 11
312.1034023190696
 21
1172.517356378522
 31
0.0
  0
LINE
  5
50E0
330
2
100
AcDbEntity
  8
KIJUN
100
AcDbLine
 10
312.1034023190696
 20
1172.517356378522
 30
0.0
 11
300.5377663190993
 21
1172.750020378517
 31
0.0
  0
LINE
  5
50E1
330
2
100
AcDbEntity
  8
KIJUN
100
AcDbLine
 10
300.5377663190993
 20
1172.750020378517
 30
0.0
 11
288.3281133191886
 21
1173.157182378557
 31
0.0
  0
LINE
  5
50E2
330
2
100
AcDbEntity
  8
KIJUN
100
AcDbLine
 10
288.3281133191886
 20
1173.157182378557
 30
0.0
 11
276.1183333192346
 21
1173.302470378528
 31
0.0
  0
LINE
  5
50E3
330
2
100
AcDbEntity
  8
KIJUN
100
AcDbLine
 10
276.1183333192346
 20
1173.302470378528
 30
0.0
 11
264.5524433191785
 21
1172.749893378584
 31
0.0
  0
LINE
  5
50E4
330
2
100
AcDbEntity
  8
KIJUN
100
AcDbLine
 10
294.1223613192306
 20
1024.073914378578
 30
0.0
 11
294.6052153191303
 21
1026.176653378572
 31
0.0
  0
LINE
  5
50E5
330
2
100
AcDbEntity
  8
KIJUN
100
AcDbLine
 10
294.6052153191303
 20
1026.176653378572
 30
0.0
 11
295.5771463192102
 21
1028.537837378501
 31
0.0
  0
LINE
  5
50E6
330
2
100
AcDbEntity
  8
KIJUN
100
AcDbLine
 10
295.5771463192102
 20
1028.537837378501
 30
0.0
 11
296.0598733190673
 21
1030.588887378546
 31
0.0
  0
LINE
  5
50E7
330
2
100
AcDbEntity
  8
KIJUN
100
AcDbLine
 10
296.0598733190673
 20
1030.588887378546
 30
0.0
 11
295.5611443191046
 21
1041.004284378485
 31
0.0
  0
LINE
  5
50E8
330
2
100
AcDbEntity
  8
KIJUN
100
AcDbLine
 10
295.5611443191046
 20
1041.004284378485
 30
0.0
 11
296.3811833190448
 21
1051.259661378536
 31
0.0
  0
LINE
  5
50E9
330
2
100
AcDbEntity
  8
KIJUN
100
AcDbLine
 10
296.3811833190448
 20
1051.259661378536
 30
0.0
 11
297.8733063191867
 21
1061.418264378519
 31
0.0
  0
LINE
  5
50EA
330
2
100
AcDbEntity
  8
KIJUN
100
AcDbLine
 10
297.8733063191867
 20
1061.418264378519
 30
0.0
 11
299.3908293191525
 21
1071.543466378507
 31
0.0
  0
LINE
  5
50EB
330
2
100
AcDbEntity
  8
KIJUN
100
AcDbLine
 10
299.3908293191525
 20
1071.543466378507
 30
0.0
 11
300.2869413191984
 21
1081.698386378508
 31
0.0
  0
LINE
  5
50EC
330
2
100
AcDbEntity
  8
KIJUN
100
AcDbLine
 10
300.2869413191984
 20
1081.698386378508
 30
0.0
 11
301.3434543190269
 21
1087.049404378553
 31
0.0
  0
LINE
  5
50ED
330
2
100
AcDbEntity
  8
KIJUN
100
AcDbLine
 10
301.3434543190269
 20
1087.049404378553
 30
0.0
 11
301.7833823191868
 21
1107.524344378538
 31
0.0
  0
LINE
  5
50EE
330
2
100
AcDbEntity
  8
KIJUN
100
AcDbLine
 10
301.7833823191868
 20
1107.524344378538
 30
0.0
 11
301.3434543190269
 21
1139.942872378591
 31
0.0
  0
LINE
  5
50EF
330
2
100
AcDbEntity
  8
KIJUN
100
AcDbLine
 10
301.3434543190269
 20
1139.942872378591
 30
0.0
 11
300.9909023191103
 21
1151.575945378508
 31
0.0
  0
LINE
  5
50F0
330
2
100
AcDbEntity
  8
KIJUN
100
AcDbLine
 10
300.9909023191103
 20
1151.575945378508
 30
0.0
 11
300.3749523191982
 21
1171.04288637858
 31
0.0
  0
LINE
  5
50F1
330
2
100
AcDbEntity
  8
KIJUN
100
AcDbLine
 10
300.3749523191982
 20
1171.04288637858
 30
0.0
 11
302.9284143191871
 21
1172.671407378585
 31
0.0
  0
LINE
  5
50F2
330
2
100
AcDbEntity
  8
KIJUN
100
AcDbLine
 10
302.9284143191871
 20
1172.671407378585
 30
0.0
 11
305.5698873191684
 21
1173.369399378551
 31
0.0
  0
LINE
  5
50F3
330
2
100
AcDbEntity
  8
KIJUN
100
AcDbLine
 10
305.5698873191684
 20
1173.369399378551
 30
0.0
 11
308.3878903190889
 21
1172.671407378585
 31
0.0
  0
LINE
  5
50F4
330
2
100
AcDbEntity
  8
KIJUN
100
AcDbLine
 10
308.3878903190889
 20
1172.671407378585
 30
0.0
 11
309.9729773190593
 21
1171.430363378539
 31
0.0
  0
LINE
  5
50F5
330
2
100
AcDbEntity
  8
KIJUN
100
AcDbLine
 10
309.9729773190593
 20
1171.430363378539
 30
0.0
 11
311.3819153192271
 21
1170.654901378563
 31
0.0
  0
LINE
  5
50F6
330
2
100
AcDbEntity
  8
KIJUN
100
AcDbLine
 10
311.3819153192271
 20
1170.654901378563
 30
0.0
 11
311.5579373192195
 21
1147.155456378505
 31
0.0
  0
LINE
  5
50F7
330
2
100
AcDbEntity
  8
KIJUN
100
AcDbLine
 10
311.5579373192195
 20
1147.155456378505
 30
0.0
 11
311.8224783191436
 21
1138.158903378508
 31
0.0
  0
LINE
  5
50F8
330
2
100
AcDbEntity
  8
KIJUN
100
AcDbLine
 10
311.8224783191436
 20
1138.158903378508
 30
0.0
 11
311.8224783191436
 21
1104.034384378576
 31
0.0
  0
LINE
  5
50F9
330
2
100
AcDbEntity
  8
KIJUN
100
AcDbLine
 10
311.8224783191436
 20
1104.034384378576
 30
0.0
 11
311.8224783191436
 21
1082.240930378534
 31
0.0
  0
LINE
  5
50FA
330
2
100
AcDbEntity
  8
KIJUN
100
AcDbLine
 10
311.8224783191436
 20
1082.240930378534
 30
0.0
 11
311.9983733190857
 21
1027.253867378599
 31
0.0
  0
LINE
  5
50FB
330
2
100
AcDbEntity
  8
KIJUN
100
AcDbLine
 10
311.9983733190857
 20
1027.253867378599
 30
0.0
 11
311.8224783191436
 21
981.9613493785091
 31
0.0
  0
LINE
  5
50FC
330
2
100
AcDbEntity
  8
KIJUN
100
AcDbLine
 10
311.8224783191436
 20
981.9613493785091
 30
0.0
 11
309.3632503191729
 21
981.2229713784931
 31
0.0
  0
LINE
  5
50FD
330
2
100
AcDbEntity
  8
KIJUN
100
AcDbLine
 10
309.3632503191729
 20
981.2229713784931
 30
0.0
 11
307.0606133190777
 21
981.1223873785152
 31
0.0
  0
LINE
  5
50FE
330
2
100
AcDbEntity
  8
KIJUN
100
AcDbLine
 10
307.0606133190777
 20
981.1223873785152
 30
0.0
 11
304.601385319107
 21
981.5733643784938
 31
0.0
  0
LINE
  5
50FF
330
2
100
AcDbEntity
  8
KIJUN
100
AcDbLine
 10
304.601385319107
 20
981.5733643784938
 30
0.0
 11
301.959912319111
 21
999.9544553785037
 31
0.0
  0
LINE
  5
5100
330
2
100
AcDbEntity
  8
KIJUN
100
AcDbLine
 10
301.959912319111
 20
999.9544553785037
 30
0.0
 11
300.7268693191327
 21
1011.509931378483
 31
0.0
  0
LINE
  5
5101
330
2
100
AcDbEntity
  8
KIJUN
100
AcDbLine
 10
300.7268693191327
 20
1011.509931378483
 30
0.0
 11
295.6194373192009
 21
1018.25744137852
 31
0.0
  0
LINE
  5
5102
330
2
100
AcDbEntity
  8
KIJUN
100
AcDbLine
 10
295.6194373192009
 20
1018.25744137852
 30
0.0
 11
294.1223613192306
 21
1024.073914378578
 31
0.0
  0
LINE
  5
5103
330
2
100
AcDbEntity
  8
KIJUN
100
AcDbLine
 10
300.4599153190757
 20
1169.892901378524
 30
0.0
 11
302.044875319003
 21
1120.334453378551
 31
0.0
  0
LINE
  5
5104
330
2
100
AcDbEntity
  8
KIJUN
100
AcDbLine
 10
302.044875319003
 20
1120.334453378551
 30
0.0
 11
301.3404063191519
 21
1073.335944378576
 31
0.0
  0
LINE
  5
5105
330
2
100
AcDbEntity
  8
KIJUN
100
AcDbLine
 10
301.3404063191519
 20
1073.335944378576
 30
0.0
 11
300.4599153190757
 21
1018.813955378524
 31
0.0
  0
LINE
  5
5106
330
2
100
AcDbEntity
  8
KIJUN
100
AcDbLine
 10
299.5014463191801
 20
1031.596886378584
 30
0.0
 11
301.878886319184
 21
1082.008393378581
 31
0.0
  0
LINE
  5
5107
330
2
100
AcDbEntity
  8
KIJUN
100
AcDbLine
 10
301.878886319184
 20
1082.008393378581
 30
0.0
 11
303.8163983190206
 21
1101.242416378571
 31
0.0
  0
LINE
  5
5108
330
2
100
AcDbEntity
  8
KIJUN
100
AcDbLine
 10
303.8163983190206
 20
1101.242416378571
 30
0.0
 11
304.1684423192307
 21
1129.317417378568
 31
0.0
  0
LINE
  5
5109
330
2
100
AcDbEntity
  8
KIJUN
100
AcDbLine
 10
304.1684423192307
 20
1129.317417378568
 30
0.0
 11
303.8163983190206
 21
1144.053354378508
 31
0.0
  0
LINE
  5
510A
330
2
100
AcDbEntity
  8
KIJUN
100
AcDbLine
 10
303.8163983190206
 20
1144.053354378508
 30
0.0
 11
302.6713663190276
 21
1155.764405378505
 31
0.0
  0
LINE
  5
510B
330
2
100
AcDbEntity
  8
KIJUN
100
AcDbLine
 10
302.6713663190276
 20
1155.764405378505
 30
0.0
 11
300.2059153190312
 21
1170.654901378563
 31
0.0
  0
LINE
  5
510C
330
2
100
AcDbEntity
  8
KIJUN
100
AcDbLine
 10
300.2059153190312
 20
1170.654901378563
 30
0.0
 11
298.0923813191875
 21
1172.360892378573
 31
0.0
  0
LINE
  5
510D
330
2
100
AcDbEntity
  8
KIJUN
100
AcDbLine
 10
298.0923813191875
 20
1172.360892378573
 30
0.0
 11
295.1863673190564
 21
1173.214459378543
 31
0.0
  0
LINE
  5
510E
330
2
100
AcDbEntity
  8
KIJUN
100
AcDbLine
 10
295.1863673190564
 20
1173.214459378543
 30
0.0
 11
291.8404253192093
 21
1172.748877378589
 31
0.0
  0
LINE
  5
510F
330
2
100
AcDbEntity
  8
KIJUN
100
AcDbLine
 10
291.8404253192093
 20
1172.748877378589
 30
0.0
 11
289.110941319228
 21
1171.275423378532
 31
0.0
  0
LINE
  5
5110
330
2
100
AcDbEntity
  8
KIJUN
100
AcDbLine
 10
289.110941319228
 20
1171.275423378532
 30
0.0
 11
288.5823673190935
 21
1170.344894378498
 31
0.0
  0
LINE
  5
5111
330
2
100
AcDbEntity
  8
KIJUN
100
AcDbLine
 10
288.5823673190935
 20
1170.344894378498
 30
0.0
 11
290.6073823192237
 21
1158.323455378538
 31
0.0
  0
LINE
  5
5112
330
2
100
AcDbEntity
  8
KIJUN
100
AcDbLine
 10
290.6073823192237
 20
1158.323455378538
 30
0.0
 11
292.2808613190828
 21
1145.293890378498
 31
0.0
  0
LINE
  5
5113
330
2
100
AcDbEntity
  8
KIJUN
100
AcDbLine
 10
292.2808613190828
 20
1145.293890378498
 30
0.0
 11
292.5448943190677
 21
1138.856895378596
 31
0.0
  0
LINE
  5
5114
330
2
100
AcDbEntity
  8
KIJUN
100
AcDbLine
 10
292.5448943190677
 20
1138.856895378596
 30
0.0
 11
292.5448943190677
 21
1121.018856378543
 31
0.0
  0
LINE
  5
5115
330
2
100
AcDbEntity
  8
KIJUN
100
AcDbLine
 10
292.5448943190677
 20
1121.018856378543
 30
0.0
 11
292.1044583191942
 21
1107.446874378527
 31
0.0
  0
LINE
  5
5116
330
2
100
AcDbEntity
  8
KIJUN
100
AcDbLine
 10
292.1044583191942
 20
1107.446874378527
 30
0.0
 11
291.1359563191327
 21
1096.356345378512
 31
0.0
  0
LINE
  5
5117
330
2
100
AcDbEntity
  8
KIJUN
100
AcDbLine
 10
291.1359563191327
 20
1096.356345378512
 30
0.0
 11
289.9034213190716
 21
1085.110876378583
 31
0.0
  0
LINE
  5
5118
330
2
100
AcDbEntity
  8
KIJUN
100
AcDbLine
 10
289.9034213190716
 20
1085.110876378583
 30
0.0
 11
285.5884693192311
 21
1052.149423378514
 31
0.0
  0
LINE
  5
5119
330
2
100
AcDbEntity
  8
KIJUN
100
AcDbLine
 10
285.5884693192311
 20
1052.149423378514
 30
0.0
 11
285.4124473190132
 21
1043.850862378482
 31
0.0
  0
LINE
  5
511A
330
2
100
AcDbEntity
  8
KIJUN
100
AcDbLine
 10
285.4124473190132
 20
1043.850862378482
 30
0.0
 11
284.7958623191116
 21
1036.172950378577
 31
0.0
  0
LINE
  5
511B
330
2
100
AcDbEntity
  8
KIJUN
100
AcDbLine
 10
284.7958623191116
 20
1036.172950378577
 30
0.0
 11
284.7958623191116
 21
1026.16839837855
 31
0.0
  0
LINE
  5
511C
330
2
100
AcDbEntity
  8
KIJUN
100
AcDbLine
 10
284.7958623191116
 20
1026.16839837855
 30
0.0
 11
285.4124473190132
 21
1014.689884378504
 31
0.0
  0
LINE
  5
511D
330
2
100
AcDbEntity
  8
KIJUN
100
AcDbLine
 10
285.4124473190132
 20
1014.689884378504
 30
0.0
 11
287.7018763190244
 21
1001.272842378503
 31
0.0
  0
LINE
  5
511E
330
2
100
AcDbEntity
  8
KIJUN
100
AcDbLine
 10
287.7018763190244
 20
1001.272842378503
 30
0.0
 11
290.6959013191554
 21
990.5699173784908
 31
0.0
  0
LINE
  5
511F
330
2
100
AcDbEntity
  8
KIJUN
100
AcDbLine
 10
290.6959013191554
 20
990.5699173784908
 30
0.0
 11
293.161352319159
 21
983.2798633785587
 31
0.0
  0
LINE
  5
5120
330
2
100
AcDbEntity
  8
KIJUN
100
AcDbLine
 10
293.161352319159
 20
983.2798633785587
 30
0.0
 11
293.5133963191292
 21
981.4958943784827
 31
0.0
  0
LINE
  5
5121
330
2
100
AcDbEntity
  8
KIJUN
100
AcDbLine
 10
293.5133963191292
 20
981.4958943784827
 30
0.0
 11
297.7468143190963
 21
980.7777093784922
 31
0.0
  0
LINE
  5
5122
330
2
100
AcDbEntity
  8
KIJUN
100
AcDbLine
 10
297.7468143190963
 20
980.7777093784922
 30
0.0
 11
301.1386033192139
 21
980.9730353785512
 31
0.0
  0
LINE
  5
5123
330
2
100
AcDbEntity
  8
KIJUN
100
AcDbLine
 10
301.1386033192139
 20
980.9730353785512
 30
0.0
 11
304.2564533192308
 21
981.6509613785406
 31
0.0
  0
LINE
  5
5124
330
2
100
AcDbEntity
  8
KIJUN
100
AcDbLine
 10
304.2564533192308
 20
981.6509613785406
 30
0.0
 11
303.1999403191621
 21
990.9579023785065
 31
0.0
  0
LINE
  5
5125
330
2
100
AcDbEntity
  8
KIJUN
100
AcDbLine
 10
303.1999403191621
 20
990.9579023785065
 30
0.0
 11
301.7908753191839
 21
1000.807387378483
 31
0.0
  0
LINE
  5
5126
330
2
100
AcDbEntity
  8
KIJUN
100
AcDbLine
 10
301.7908753191839
 20
1000.807387378483
 30
0.0
 11
300.8223733191226
 21
1012.905915378551
 31
0.0
  0
LINE
  5
5127
330
2
100
AcDbEntity
  8
KIJUN
100
AcDbLine
 10
300.8223733191226
 20
1012.905915378551
 30
0.0
 11
299.5014463191801
 21
1022.677930378524
 31
0.0
  0
LINE
  5
5128
330
2
100
AcDbEntity
  8
KIJUN
100
AcDbLine
 10
299.5014463191801
 20
1022.677930378524
 30
0.0
 11
299.5014463191801
 21
1031.596886378584
 31
0.0
  0
LINE
  5
5129
330
2
100
AcDbEntity
  8
KIJUN
100
AcDbLine
 10
277.4729153190238
 20
1170.527901378534
 30
0.0
 11
283.3109783190994
 21
1163.193905378511
 31
0.0
  0
LINE
  5
512A
330
2
100
AcDbEntity
  8
KIJUN
100
AcDbLine
 10
283.3109783190994
 20
1163.193905378511
 30
0.0
 11
287.5384273191266
 21
1148.408946378492
 31
0.0
  0
LINE
  5
512B
330
2
100
AcDbEntity
  8
KIJUN
100
AcDbLine
 10
287.5384273191266
 20
1148.408946378492
 30
0.0
 11
288.544902319114
 21
1130.713909378561
 31
0.0
  0
LINE
  5
512C
330
2
100
AcDbEntity
  8
KIJUN
100
AcDbLine
 10
288.544902319114
 20
1130.713909378561
 30
0.0
 11
286.4313683190521
 21
1100.67840937857
 31
0.0
  0
LINE
  5
512D
330
2
100
AcDbEntity
  8
KIJUN
100
AcDbLine
 10
286.4313683190521
 20
1100.67840937857
 30
0.0
 11
280.0898773190238
 21
1063.308913378548
 31
0.0
  0
LINE
  5
512E
330
2
100
AcDbEntity
  8
KIJUN
100
AcDbLine
 10
280.0898773190238
 20
1063.308913378548
 30
0.0
 11
276.9693603190353
 21
1032.575421378579
 31
0.0
  0
LINE
  5
512F
330
2
100
AcDbEntity
  8
KIJUN
100
AcDbLine
 10
276.9693603190353
 20
1032.575421378579
 30
0.0
 11
277.9764703189976
 21
1009.990884378584
 31
0.0
  0
LINE
  5
5130
330
2
100
AcDbEntity
  8
KIJUN
100
AcDbLine
 10
277.9764703189976
 20
1009.990884378584
 30
0.0
 11
283.3109783190994
 21
988.4538433784857
 31
0.0
  0
LINE
  5
5131
330
2
100
AcDbEntity
  8
KIJUN
100
AcDbLine
 10
283.3109783190994
 20
988.4538433784857
 30
0.0
 11
286.9344153191014
 21
981.1193393785165
 31
0.0
  0
LINE
  5
5132
330
2
100
AcDbEntity
  8
KIJUN
100
AcDbLine
 10
286.9344153191014
 20
981.1193393785165
 30
0.0
 11
290.1553893191413
 21
979.9553843785929
 31
0.0
  0
LINE
  5
5133
330
2
100
AcDbEntity
  8
KIJUN
100
AcDbLine
 10
290.1553893191413
 20
979.9553843785929
 30
0.0
 11
293.7789533191644
 21
981.8178393785588
 31
0.0
  0
LINE
  5
5134
330
2
100
AcDbEntity
  8
KIJUN
100
AcDbLine
 10
293.7789533191644
 20
981.8178393785588
 30
0.0
 11
288.0414743191759
 21
1000.793925378546
 31
0.0
  0
LINE
  5
5135
330
2
100
AcDbEntity
  8
KIJUN
100
AcDbLine
 10
288.0414743191759
 20
1000.793925378546
 30
0.0
 11
285.4243853191256
 21
1023.378462378541
 31
0.0
  0
LINE
  5
5136
330
2
100
AcDbEntity
  8
KIJUN
100
AcDbLine
 10
285.4243853191256
 20
1023.378462378541
 30
0.0
 11
285.4243853191256
 21
1046.661880378577
 31
0.0
  0
LINE
  5
5137
330
2
100
AcDbEntity
  8
KIJUN
100
AcDbLine
 10
285.4243853191256
 20
1046.661880378577
 30
0.0
 11
288.544902319114
 21
1073.669954378567
 31
0.0
  0
LINE
  5
5138
330
2
100
AcDbEntity
  8
KIJUN
100
AcDbLine
 10
288.544902319114
 20
1073.669954378567
 30
0.0
 11
291.7658763191539
 21
1097.535413378589
 31
0.0
  0
LINE
  5
5139
330
2
100
AcDbEntity
  8
KIJUN
100
AcDbLine
 10
291.7658763191539
 20
1097.535413378589
 30
0.0
 11
292.7724783191841
 21
1123.379405378489
 31
0.0
  0
LINE
  5
513A
330
2
100
AcDbEntity
  8
KIJUN
100
AcDbLine
 10
292.7724783191841
 20
1123.379405378489
 30
0.0
 11
292.7724783191841
 21
1143.519446378532
 31
0.0
  0
LINE
  5
513B
330
2
100
AcDbEntity
  8
KIJUN
100
AcDbLine
 10
292.7724783191841
 20
1143.519446378532
 30
0.0
 11
289.6519613191959
 21
1161.330942378497
 31
0.0
  0
LINE
  5
513C
330
2
100
AcDbEntity
  8
KIJUN
100
AcDbLine
 10
289.6519613191959
 20
1161.330942378497
 30
0.0
 11
288.0414743191759
 21
1170.527901378534
 31
0.0
  0
LINE
  5
513D
330
2
100
AcDbEntity
  8
KIJUN
100
AcDbLine
 10
288.0414743191759
 20
1170.527901378534
 30
0.0
 11
283.8138983190983
 21
1171.691856378581
 31
0.0
  0
LINE
  5
513E
330
2
100
AcDbEntity
  8
KIJUN
100
AcDbLine
 10
283.8138983190983
 20
1171.691856378581
 30
0.0
 11
280.0898773190238
 21
1171.691856378581
 31
0.0
  0
LINE
  5
513F
330
2
100
AcDbEntity
  8
KIJUN
100
AcDbLine
 10
280.0898773190238
 20
1171.691856378581
 30
0.0
 11
277.4729153190238
 21
1170.527901378534
 31
0.0
  0
LINE
  5
5140
330
2
100
AcDbEntity
  8
KIJUN
100
AcDbLine
 10
292.4638683191261
 20
1111.570945378562
 30
0.0
 11
284.8913663191013
 21
1035.643360378565
 31
0.0
  0
LINE
  5
5141
330
2
100
AcDbEntity
  8
KIJUN
100
AcDbLine
 10
323.1929153190977
 20
1169.892901378524
 30
0.0
 11
321.607955319163
 21
1120.334453378551
 31
0.0
  0
LINE
  5
5142
330
2
100
AcDbEntity
  8
KIJUN
100
AcDbLine
 10
321.607955319163
 20
1120.334453378551
 30
0.0
 11
322.3124243190139
 21
1073.335944378576
 31
0.0
  0
LINE
  5
5143
330
2
100
AcDbEntity
  8
KIJUN
100
AcDbLine
 10
322.3124243190139
 20
1073.335944378576
 30
0.0
 11
323.1929153190977
 21
1018.813955378524
 31
0.0
  0
LINE
  5
5144
330
2
100
AcDbEntity
  8
KIJUN
100
AcDbLine
 10
323.9824743191093
 20
1024.517906378498
 30
0.0
 11
323.9824743191093
 21
1030.024372378482
 31
0.0
  0
LINE
  5
5145
330
2
100
AcDbEntity
  8
KIJUN
100
AcDbLine
 10
323.9824743191093
 20
1030.024372378482
 30
0.0
 11
322.3093763191391
 21
1081.44438637858
 31
0.0
  0
LINE
  5
5146
330
2
100
AcDbEntity
  8
KIJUN
100
AcDbLine
 10
322.3093763191391
 20
1081.44438637858
 30
0.0
 11
322.3093763191391
 21
1086.795404378494
 31
0.0
  0
LINE
  5
5147
330
2
100
AcDbEntity
  8
KIJUN
100
AcDbLine
 10
322.3093763191391
 20
1086.795404378494
 30
0.0
 11
321.8694483192121
 21
1107.270344378487
 31
0.0
  0
LINE
  5
5148
330
2
100
AcDbEntity
  8
KIJUN
100
AcDbLine
 10
321.8694483192121
 20
1107.270344378487
 30
0.0
 11
322.3093763191391
 21
1139.688872378532
 31
0.0
  0
LINE
  5
5149
330
2
100
AcDbEntity
  8
KIJUN
100
AcDbLine
 10
322.3093763191391
 20
1139.688872378532
 30
0.0
 11
322.6619283190558
 21
1151.32194537858
 31
0.0
  0
LINE
  5
514A
330
2
100
AcDbEntity
  8
KIJUN
100
AcDbLine
 10
322.6619283190558
 20
1151.32194537858
 30
0.0
 11
323.2778783192153
 21
1170.788886378527
 31
0.0
  0
LINE
  5
514B
330
2
100
AcDbEntity
  8
KIJUN
100
AcDbLine
 10
323.2778783192153
 20
1170.788886378527
 30
0.0
 11
320.724416319219
 21
1172.417407378533
 31
0.0
  0
LINE
  5
514C
330
2
100
AcDbEntity
  8
KIJUN
100
AcDbLine
 10
320.724416319219
 20
1172.417407378533
 30
0.0
 11
318.1709543192228
 21
1173.115399378506
 31
0.0
  0
LINE
  5
514D
330
2
100
AcDbEntity
  8
KIJUN
100
AcDbLine
 10
318.1709543192228
 20
1173.115399378506
 30
0.0
 11
315.0009073190995
 21
1172.882862378553
 31
0.0
  0
LINE
  5
514E
330
2
100
AcDbEntity
  8
KIJUN
100
AcDbLine
 10
315.0009073190995
 20
1172.882862378553
 30
0.0
 11
312.9753843190297
 21
1172.417407378533
 31
0.0
  0
LINE
  5
514F
330
2
100
AcDbEntity
  8
KIJUN
100
AcDbLine
 10
312.9753843190297
 20
1172.417407378533
 30
0.0
 11
311.3024133191029
 21
1170.866356378538
 31
0.0
  0
LINE
  5
5150
330
2
100
AcDbEntity
  8
KIJUN
100
AcDbLine
 10
311.3024133191029
 20
1170.866356378538
 30
0.0
 11
311.5664463190878
 21
1147.056396378584
 31
0.0
  0
LINE
  5
5151
330
2
100
AcDbEntity
  8
KIJUN
100
AcDbLine
 10
311.5664463190878
 20
1147.056396378584
 30
0.0
 11
311.8303523190371
 21
1137.904903378579
 31
0.0
  0
LINE
  5
5152
330
2
100
AcDbEntity
  8
KIJUN
100
AcDbLine
 10
311.8303523190371
 20
1137.904903378579
 30
0.0
 11
311.8303523190371
 21
1103.780384378524
 31
0.0
  0
LINE
  5
5153
330
2
100
AcDbEntity
  8
KIJUN
100
AcDbLine
 10
311.8303523190371
 20
1103.780384378524
 30
0.0
 11
311.8303523190371
 21
1081.986930378591
 31
0.0
  0
LINE
  5
5154
330
2
100
AcDbEntity
  8
KIJUN
100
AcDbLine
 10
311.8303523190371
 20
1081.986930378591
 30
0.0
 11
311.6544573190877
 21
1026.999867378539
 31
0.0
  0
LINE
  5
5155
330
2
100
AcDbEntity
  8
KIJUN
100
AcDbLine
 10
311.6544573190877
 20
1026.999867378539
 30
0.0
 11
311.8303523190371
 21
981.7073493785668
 31
0.0
  0
LINE
  5
5156
330
2
100
AcDbEntity
  8
KIJUN
100
AcDbLine
 10
311.8303523190371
 20
981.7073493785668
 30
0.0
 11
313.8200613192203
 21
981.0696823785788
 31
0.0
  0
LINE
  5
5157
330
2
100
AcDbEntity
  8
KIJUN
100
AcDbLine
 10
313.8200613192203
 20
981.0696823785788
 30
0.0
 11
316.2987203190678
 21
981.1557883785011
 31
0.0
  0
LINE
  5
5158
330
2
100
AcDbEntity
  8
KIJUN
100
AcDbLine
 10
316.2987203190678
 20
981.1557883785011
 30
0.0
 11
319.0514453190663
 21
981.7073493785668
 31
0.0
  0
LINE
  5
5159
330
2
100
AcDbEntity
  8
KIJUN
100
AcDbLine
 10
319.0514453190663
 20
981.7073493785668
 30
0.0
 11
321.6929183190477
 21
999.7004553785613
 31
0.0
  0
LINE
  5
515A
330
2
100
AcDbEntity
  8
KIJUN
100
AcDbLine
 10
321.6929183190477
 20
999.7004553785613
 30
0.0
 11
323.1898673192154
 21
1011.178461378551
 31
0.0
  0
LINE
  5
515B
330
2
100
AcDbEntity
  8
KIJUN
100
AcDbLine
 10
323.1898673192154
 20
1011.178461378551
 30
0.0
 11
323.2778783192153
 21
1020.097417378494
 31
0.0
  0
LINE
  5
515C
330
2
100
AcDbEntity
  8
KIJUN
100
AcDbLine
 10
323.2778783192153
 20
1020.097417378494
 30
0.0
 11
323.9824743191093
 21
1024.517906378498
 31
0.0
  0
LINE
  5
515D
330
2
100
AcDbEntity
  8
KIJUN
100
AcDbLine
 10
323.9753623190008
 20
1031.596886378584
 30
0.0
 11
321.5979223190043
 21
1082.008393378581
 31
0.0
  0
LINE
  5
515E
330
2
100
AcDbEntity
  8
KIJUN
100
AcDbLine
 10
321.5979223190043
 20
1082.008393378581
 30
0.0
 11
320.8054423191606
 21
1101.552423378527
 31
0.0
  0
LINE
  5
515F
330
2
100
AcDbEntity
  8
KIJUN
100
AcDbLine
 10
320.8054423191606
 20
1101.552423378527
 30
0.0
 11
320.4528903190112
 21
1130.713401378505
 31
0.0
  0
LINE
  5
5160
330
2
100
AcDbEntity
  8
KIJUN
100
AcDbLine
 10
320.4528903190112
 20
1130.713401378505
 30
0.0
 11
320.4528903190112
 21
1141.028341378517
 31
0.0
  0
LINE
  5
5161
330
2
100
AcDbEntity
  8
KIJUN
100
AcDbLine
 10
320.4528903190112
 20
1141.028341378517
 30
0.0
 11
321.2453703190804
 21
1153.669921378533
 31
0.0
  0
LINE
  5
5162
330
2
100
AcDbEntity
  8
KIJUN
100
AcDbLine
 10
321.2453703190804
 20
1153.669921378533
 30
0.0
 11
323.4469153191424
 21
1170.654901378563
 31
0.0
  0
LINE
  5
5163
330
2
100
AcDbEntity
  8
KIJUN
100
AcDbLine
 10
323.4469153191424
 20
1170.654901378563
 30
0.0
 11
325.7364713191964
 21
1172.593937378574
 31
0.0
  0
LINE
  5
5164
330
2
100
AcDbEntity
  8
KIJUN
100
AcDbLine
 10
325.7364713191964
 20
1172.593937378574
 30
0.0
 11
328.7303693190588
 21
1173.214459378543
 31
0.0
  0
LINE
  5
5165
330
2
100
AcDbEntity
  8
KIJUN
100
AcDbLine
 10
328.7303693190588
 20
1173.214459378543
 30
0.0
 11
331.8124053191823
 21
1172.748877378589
 31
0.0
  0
LINE
  5
5166
330
2
100
AcDbEntity
  8
KIJUN
100
AcDbLine
 10
331.8124053191823
 20
1172.748877378589
 30
0.0
 11
334.5418893191709
 21
1171.275423378532
 31
0.0
  0
LINE
  5
5167
330
2
100
AcDbEntity
  8
KIJUN
100
AcDbLine
 10
334.5418893191709
 20
1171.275423378532
 30
0.0
 11
335.0704633190799
 21
1170.344894378498
 31
0.0
  0
LINE
  5
5168
330
2
100
AcDbEntity
  8
KIJUN
100
AcDbLine
 10
335.0704633190799
 20
1170.344894378498
 30
0.0
 11
333.0454483191825
 21
1158.323455378538
 31
0.0
  0
LINE
  5
5169
330
2
100
AcDbEntity
  8
KIJUN
100
AcDbLine
 10
333.0454483191825
 20
1158.323455378538
 30
0.0
 11
331.7243943191968
 21
1144.751346378487
 31
0.0
  0
LINE
  5
516A
330
2
100
AcDbEntity
  8
KIJUN
100
AcDbLine
 10
331.7243943191968
 20
1144.751346378487
 30
0.0
 11
331.1079363191057
 21
1138.856895378596
 31
0.0
  0
LINE
  5
516B
330
2
100
AcDbEntity
  8
KIJUN
100
AcDbLine
 10
331.1079363191057
 20
1138.856895378596
 30
0.0
 11
331.1079363191057
 21
1121.018856378543
 31
0.0
  0
LINE
  5
516C
330
2
100
AcDbEntity
  8
KIJUN
100
AcDbLine
 10
331.1079363191057
 20
1121.018856378543
 30
0.0
 11
331.5483723191974
 21
1107.446874378527
 31
0.0
  0
LINE
  5
516D
330
2
100
AcDbEntity
  8
KIJUN
100
AcDbLine
 10
331.5483723191974
 20
1107.446874378527
 30
0.0
 11
332.5168743190407
 21
1096.356345378512
 31
0.0
  0
LINE
  5
516E
330
2
100
AcDbEntity
  8
KIJUN
100
AcDbLine
 10
332.5168743190407
 20
1096.356345378512
 30
0.0
 11
333.7494093190871
 21
1085.110876378583
 31
0.0
  0
LINE
  5
516F
330
2
100
AcDbEntity
  8
KIJUN
100
AcDbLine
 10
333.7494093190871
 20
1085.110876378583
 30
0.0
 11
337.1838703190988
 21
1052.226893378518
 31
0.0
  0
LINE
  5
5170
330
2
100
AcDbEntity
  8
KIJUN
100
AcDbLine
 10
337.1838703190988
 20
1052.226893378518
 30
0.0
 11
338.2403833191602
 21
1043.850862378482
 31
0.0
  0
LINE
  5
5171
330
2
100
AcDbEntity
  8
KIJUN
100
AcDbLine
 10
338.2403833191602
 20
1043.850862378482
 30
0.0
 11
338.8569683190542
 21
1036.172950378577
 31
0.0
  0
LINE
  5
5172
330
2
100
AcDbEntity
  8
KIJUN
100
AcDbLine
 10
338.8569683190542
 20
1036.172950378577
 30
0.0
 11
338.8569683190542
 21
1026.16839837855
 31
0.0
  0
LINE
  5
5173
330
2
100
AcDbEntity
  8
KIJUN
100
AcDbLine
 10
338.8569683190542
 20
1026.16839837855
 30
0.0
 11
338.2403833191602
 21
1014.689884378504
 31
0.0
  0
LINE
  5
5174
330
2
100
AcDbEntity
  8
KIJUN
100
AcDbLine
 10
338.2403833191602
 20
1014.689884378504
 30
0.0
 11
335.9509543191486
 21
1001.272842378503
 31
0.0
  0
LINE
  5
5175
330
2
100
AcDbEntity
  8
KIJUN
100
AcDbLine
 10
335.9509543191486
 20
1001.272842378503
 30
0.0
 11
332.9569293190107
 21
990.5699173784908
 31
0.0
  0
LINE
  5
5176
330
2
100
AcDbEntity
  8
KIJUN
100
AcDbLine
 10
332.9569293190107
 20
990.5699173784908
 30
0.0
 11
330.4914783190143
 21
983.2798633785587
 31
0.0
  0
LINE
  5
5177
330
2
100
AcDbEntity
  8
KIJUN
100
AcDbLine
 10
330.4914783190143
 20
983.2798633785587
 30
0.0
 11
330.1394343190295
 21
981.4958943784827
 31
0.0
  0
LINE
  5
5178
330
2
100
AcDbEntity
  8
KIJUN
100
AcDbLine
 10
330.1394343190295
 20
981.4958943784827
 30
0.0
 11
326.3757893191687
 21
980.8296523785198
 31
0.0
  0
LINE
  5
5179
330
2
100
AcDbEntity
  8
KIJUN
100
AcDbLine
 10
326.3757893191687
 20
980.8296523785198
 30
0.0
 11
322.8077243192199
 21
980.8697843785942
 31
0.0
  0
LINE
  5
517A
330
2
100
AcDbEntity
  8
KIJUN
100
AcDbLine
 10
322.8077243192199
 20
980.8697843785942
 30
0.0
 11
319.3963773191754
 21
981.6509613785406
 31
0.0
  0
LINE
  5
517B
330
2
100
AcDbEntity
  8
KIJUN
100
AcDbLine
 10
319.3963773191754
 20
981.6509613785406
 30
0.0
 11
320.4528903190112
 21
990.9579023785065
 31
0.0
  0
LINE
  5
517C
330
2
100
AcDbEntity
  8
KIJUN
100
AcDbLine
 10
320.4528903190112
 20
990.9579023785065
 30
0.0
 11
321.8619553192147
 21
1000.807387378483
 31
0.0
  0
LINE
  5
517D
330
2
100
AcDbEntity
  8
KIJUN
100
AcDbLine
 10
321.8619553192147
 20
1000.807387378483
 30
0.0
 11
322.830457319058
 21
1012.905915378551
 31
0.0
  0
LINE
  5
517E
330
2
100
AcDbEntity
  8
KIJUN
100
AcDbLine
 10
322.830457319058
 20
1012.905915378551
 30
0.0
 11
323.006352319233
 21
1023.841377378509
 31
0.0
  0
LINE
  5
517F
330
2
100
AcDbEntity
  8
KIJUN
100
AcDbLine
 10
323.006352319233
 20
1023.841377378509
 30
0.0
 11
323.9753623190008
 21
1031.596886378584
 31
0.0
  0
LINE
  5
5180
330
2
100
AcDbEntity
  8
KIJUN
100
AcDbLine
 10
330.0999373190607
 20
1147.599448378542
 30
0.0
 11
329.3074573192171
 21
1125.960934378507
 31
0.0
  0
LINE
  5
5181
330
2
100
AcDbEntity
  8
KIJUN
100
AcDbLine
 10
329.3074573192171
 20
1125.960934378507
 30
0.0
 11
330.892417319144
 21
1091.681348378517
 31
0.0
  0
LINE
  5
5182
330
2
100
AcDbEntity
  8
KIJUN
100
AcDbLine
 10
330.892417319144
 20
1091.681348378517
 30
0.0
 11
332.0374493191375
 21
1084.468891378516
 31
0.0
  0
LINE
  5
5183
330
2
100
AcDbEntity
  8
KIJUN
100
AcDbLine
 10
332.0374493191375
 20
1084.468891378516
 30
0.0
 11
333.9744533190424
 21
1068.336843378589
 31
0.0
  0
LINE
  5
5184
330
2
100
AcDbEntity
  8
KIJUN
100
AcDbLine
 10
333.9744533190424
 20
1068.336843378589
 30
0.0
 11
337.0563623191374
 21
1042.278348378504
 31
0.0
  0
LINE
  5
5185
330
2
100
AcDbEntity
  8
KIJUN
100
AcDbLine
 10
337.0563623191374
 20
1042.278348378504
 30
0.0
 11
337.8489693190168
 21
1028.938395378502
 31
0.0
  0
LINE
  5
5186
330
2
100
AcDbEntity
  8
KIJUN
100
AcDbLine
 10
337.8489693190168
 20
1028.938395378502
 30
0.0
 11
337.9368533192064
 21
1017.072404378496
 31
0.0
  0
LINE
  5
5187
330
2
100
AcDbEntity
  8
KIJUN
100
AcDbLine
 10
337.9368533192064
 20
1017.072404378496
 30
0.0
 11
335.9119653191192
 21
1003.500422378487
 31
0.0
  0
LINE
  5
5188
330
2
100
AcDbEntity
  8
KIJUN
100
AcDbLine
 10
335.9119653191192
 20
1003.500422378487
 30
0.0
 11
332.3013553190794
 21
989.2299403785678
 31
0.0
  0
LINE
  5
5189
330
2
100
AcDbEntity
  8
KIJUN
100
AcDbLine
 10
332.3013553190794
 20
989.2299403785678
 30
0.0
 11
329.9239153190756
 21
981.5519013784962
 31
0.0
  0
LINE
  5
518A
330
2
100
AcDbEntity
  8
KIJUN
100
AcDbLine
 10
329.9239153190756
 20
981.5519013784962
 30
0.0
 11
331.7894183190329
 21
980.8108563785157
 31
0.0
  0
LINE
  5
518B
330
2
100
AcDbEntity
  8
KIJUN
100
AcDbLine
 10
331.7894183190329
 20
980.8108563785157
 30
0.0
 11
333.4592143190348
 21
980.7418953784964
 31
0.0
  0
LINE
  5
518C
330
2
100
AcDbEntity
  8
KIJUN
100
AcDbLine
 10
333.4592143190348
 20
980.7418953784964
 30
0.0
 11
335.3833913192102
 21
981.5519013784962
 31
0.0
  0
LINE
  5
518D
330
2
100
AcDbEntity
  8
KIJUN
100
AcDbLine
 10
335.3833913192102
 20
981.5519013784962
 30
0.0
 11
339.6104593191085
 21
986.9034273785896
 31
0.0
  0
LINE
  5
518E
330
2
100
AcDbEntity
  8
KIJUN
100
AcDbLine
 10
339.6104593191085
 20
986.9034273785896
 30
0.0
 11
341.81187731912
 21
991.8668413785075
 31
0.0
  0
LINE
  5
518F
330
2
100
AcDbEntity
  8
KIJUN
100
AcDbLine
 10
341.81187731912
 20
991.8668413785075
 30
0.0
 11
344.8939133190176
 21
1000.863394378505
 31
0.0
  0
LINE
  5
5190
330
2
100
AcDbEntity
  8
KIJUN
100
AcDbLine
 10
344.8939133190176
 20
1000.863394378505
 30
0.0
 11
346.6548953191702
 21
1008.308896378506
 31
0.0
  0
LINE
  5
5191
330
2
100
AcDbEntity
  8
KIJUN
100
AcDbLine
 10
346.6548953191702
 20
1008.308896378506
 30
0.0
 11
347.7114083192246
 21
1015.676420378559
 31
0.0
  0
LINE
  5
5192
330
2
100
AcDbEntity
  8
KIJUN
100
AcDbLine
 10
347.7114083192246
 20
1015.676420378559
 30
0.0
 11
348.3278663190831
 21
1022.035945378566
 31
0.0
  0
LINE
  5
5193
330
2
100
AcDbEntity
  8
KIJUN
100
AcDbLine
 10
348.3278663190831
 20
1022.035945378566
 30
0.0
 11
348.3278663190831
 21
1032.661400378582
 31
0.0
  0
LINE
  5
5194
330
2
100
AcDbEntity
  8
KIJUN
100
AcDbLine
 10
348.3278663190831
 20
1032.661400378582
 30
0.0
 11
347.4473753190141
 21
1042.278348378504
 31
0.0
  0
LINE
  5
5195
330
2
100
AcDbEntity
  8
KIJUN
100
AcDbLine
 10
347.4473753190141
 20
1042.278348378504
 30
0.0
 11
345.5098633191774
 21
1058.875343378512
 31
0.0
  0
LINE
  5
5196
330
2
100
AcDbEntity
  8
KIJUN
100
AcDbLine
 10
345.5098633191774
 20
1058.875343378512
 30
0.0
 11
342.25193231909
 21
1077.255926378582
 31
0.0
  0
LINE
  5
5197
330
2
100
AcDbEntity
  8
KIJUN
100
AcDbLine
 10
342.25193231909
 20
1077.255926378582
 30
0.0
 11
339.4339293191697
 21
1091.603878378513
 31
0.0
  0
LINE
  5
5198
330
2
100
AcDbEntity
  8
KIJUN
100
AcDbLine
 10
339.4339293191697
 20
1091.603878378513
 30
0.0
 11
336.7924563191882
 21
1113.551891378558
 31
0.0
  0
LINE
  5
5199
330
2
100
AcDbEntity
  8
KIJUN
100
AcDbLine
 10
336.7924563191882
 20
1113.551891378558
 30
0.0
 11
336.1758713190539
 21
1134.802420378563
 31
0.0
  0
LINE
  5
519A
330
2
100
AcDbEntity
  8
KIJUN
100
AcDbLine
 10
336.1758713190539
 20
1134.802420378563
 30
0.0
 11
336.3553223190574
 21
1139.056539378502
 31
0.0
  0
LINE
  5
519B
330
2
100
AcDbEntity
  8
KIJUN
100
AcDbLine
 10
336.3553223190574
 20
1139.056539378502
 30
0.0
 11
336.5543313191992
 21
1143.448580378574
 31
0.0
  0
LINE
  5
519C
330
2
100
AcDbEntity
  8
KIJUN
100
AcDbLine
 10
336.5543313191992
 20
1143.448580378574
 30
0.0
 11
336.7924563191882
 21
1147.754388378548
 31
0.0
  0
LINE
  5
519D
330
2
100
AcDbEntity
  8
KIJUN
100
AcDbLine
 10
336.7924563191882
 20
1147.754388378548
 30
0.0
 11
337.3892293190838
 21
1151.376428378537
 31
0.0
  0
LINE
  5
519E
330
2
100
AcDbEntity
  8
KIJUN
100
AcDbLine
 10
337.3892293190838
 20
1151.376428378537
 30
0.0
 11
338.1034773190149
 21
1154.912362378594
 31
0.0
  0
LINE
  5
519F
330
2
100
AcDbEntity
  8
KIJUN
100
AcDbLine
 10
338.1034773190149
 20
1154.912362378594
 30
0.0
 11
339.1698963191993
 21
1158.534402378575
 31
0.0
  0
LINE
  5
51A0
330
2
100
AcDbEntity
  8
KIJUN
100
AcDbLine
 10
339.1698963191993
 20
1158.534402378575
 30
0.0
 11
342.8683903191886
 21
1166.05737437858
 31
0.0
  0
LINE
  5
51A1
330
2
100
AcDbEntity
  8
KIJUN
100
AcDbLine
 10
342.8683903191886
 20
1166.05737437858
 30
0.0
 11
346.2144593190715
 21
1170.400901378504
 31
0.0
  0
LINE
  5
51A2
330
2
100
AcDbEntity
  8
KIJUN
100
AcDbLine
 10
346.2144593190715
 20
1170.400901378504
 30
0.0
 11
344.2774553191593
 21
1172.649944378588
 31
0.0
  0
LINE
  5
51A3
330
2
100
AcDbEntity
  8
KIJUN
100
AcDbLine
 10
344.2774553191593
 20
1172.649944378588
 30
0.0
 11
340.842867319112
 21
1173.425406378571
 31
0.0
  0
LINE
  5
51A4
330
2
100
AcDbEntity
  8
KIJUN
100
AcDbLine
 10
340.842867319112
 20
1173.425406378571
 30
0.0
 11
337.4089143190468
 21
1172.804884378494
 31
0.0
  0
LINE
  5
51A5
330
2
100
AcDbEntity
  8
KIJUN
100
AcDbLine
 10
337.4089143190468
 20
1172.804884378494
 30
0.0
 11
335.1193583192326
 21
1170.322923378561
 31
0.0
  0
LINE
  5
51A6
330
2
100
AcDbEntity
  8
KIJUN
100
AcDbLine
 10
335.1193583192326
 20
1170.322923378561
 30
0.0
 11
331.2449693190538
 21
1158.534402378575
 31
0.0
  0
LINE
  5
51A7
330
2
100
AcDbEntity
  8
KIJUN
100
AcDbLine
 10
331.2449693190538
 20
1158.534402378575
 30
0.0
 11
330.0999373190607
 21
1147.599448378542
 31
0.0
  0
LINE
  5
51A8
330
2
100
AcDbEntity
  8
KIJUN
100
AcDbLine
 10
331.1889623190473
 20
1111.570945378562
 30
0.0
 11
338.7614643190718
 21
1035.643360378565
 31
0.0
  0
LINE
  5
51A9
330
2
100
AcDbEntity
  8
KIJUN
100
AcDbLine
 10
366.8703743191108
 20
929.2069463785397
 30
0.0
 11
369.2203823190682
 21
927.5769013785852
 31
0.0
  0
LINE
  5
51AA
330
2
100
AcDbEntity
  8
KIJUN
100
AcDbLine
 10
369.2203823190682
 20
927.5769013785852
 30
0.0
 11
371.9629473190835
 21
927.8099463785933
 31
0.0
  0
LINE
  5
51AB
330
2
100
AcDbEntity
  8
KIJUN
100
AcDbLine
 10
371.9629473190835
 20
927.8099463785933
 30
0.0
 11
376.402359319025
 21
928.9739013785315
 31
0.0
  0
LINE
  5
51AC
330
2
100
AcDbEntity
  8
KIJUN
100
AcDbLine
 10
376.402359319025
 20
928.9739013785315
 30
0.0
 11
376.402359319025
 21
899.1714463785413
 31
0.0
  0
LINE
  5
51AD
330
2
100
AcDbEntity
  8
KIJUN
100
AcDbLine
 10
376.402359319025
 20
899.1714463785413
 30
0.0
 11
374.7048773191236
 21
875.4229543784918
 31
0.0
  0
LINE
  5
51AE
330
2
100
AcDbEntity
  8
KIJUN
100
AcDbLine
 10
374.7048773191236
 20
875.4229543784918
 30
0.0
 11
370.5264503190665
 21
855.0498683785576
 31
0.0
  0
LINE
  5
51AF
330
2
100
AcDbEntity
  8
KIJUN
100
AcDbLine
 10
370.5264503190665
 20
855.0498683785576
 30
0.0
 11
362.9529323191564
 21
837.7039543785453
 31
0.0
  0
LINE
  5
51B0
330
2
100
AcDbEntity
  8
KIJUN
100
AcDbLine
 10
362.9529323191564
 20
837.7039543785453
 30
0.0
 11
353.6814243191729
 21
824.8984173785816
 31
0.0
  0
LINE
  5
51B1
330
2
100
AcDbEntity
  8
KIJUN
100
AcDbLine
 10
353.6814243191729
 20
824.8984173785816
 30
0.0
 11
342.3214013190482
 21
815.7014583785372
 31
0.0
  0
LINE
  5
51B2
330
2
100
AcDbEntity
  8
KIJUN
100
AcDbLine
 10
342.3214013190482
 20
815.7014583785372
 30
0.0
 11
332.005445319166
 21
808.1344173785133
 31
0.0
  0
LINE
  5
51B3
330
2
100
AcDbEntity
  8
KIJUN
100
AcDbLine
 10
332.005445319166
 20
808.1344173785133
 30
0.0
 11
329.3939443191594
 21
808.1344173785133
 31
0.0
  0
LINE
  5
51B4
330
2
100
AcDbEntity
  8
KIJUN
100
AcDbLine
 10
329.3939443191594
 20
808.1344173785133
 30
0.0
 11
343.4964053190304
 21
820.7074173785315
 31
0.0
  0
LINE
  5
51B5
330
2
100
AcDbEntity
  8
KIJUN
100
AcDbLine
 10
343.4964053190304
 20
820.7074173785315
 30
0.0
 11
354.0734733190657
 21
835.9579583785039
 31
0.0
  0
LINE
  5
51B6
330
2
100
AcDbEntity
  8
KIJUN
100
AcDbLine
 10
354.0734733190657
 20
835.9579583785039
 30
0.0
 11
361.2554503190222
 21
856.5634543785732
 31
0.0
  0
LINE
  5
51B7
330
2
100
AcDbEntity
  8
KIJUN
100
AcDbLine
 10
361.2554503190222
 20
856.5634543785732
 30
0.0
 11
365.1723843190375
 21
878.6824093785057
 31
0.0
  0
LINE
  5
51B8
330
2
100
AcDbEntity
  8
KIJUN
100
AcDbLine
 10
365.1723843190375
 20
878.6824093785057
 30
0.0
 11
366.8703743191108
 21
900.684905378514
 31
0.0
  0
LINE
  5
51B9
330
2
100
AcDbEntity
  8
KIJUN
100
AcDbLine
 10
366.8703743191108
 20
900.684905378514
 30
0.0
 11
366.8703743191108
 21
929.2069463785397
 31
0.0
  0
LINE
  5
51BA
330
2
100
AcDbEntity
  8
KIJUN
100
AcDbLine
 10
355.9444373190163
 20
930.0959463784911
 30
0.0
 11
359.7314503191774
 21
928.4659013785372
 31
0.0
  0
LINE
  5
51BB
330
2
100
AcDbEntity
  8
KIJUN
100
AcDbLine
 10
359.7314503191774
 20
928.4659013785372
 30
0.0
 11
363.6488923191318
 21
928.4659013785372
 31
0.0
  0
LINE
  5
51BC
330
2
100
AcDbEntity
  8
KIJUN
100
AcDbLine
 10
363.6488923191318
 20
928.4659013785372
 30
0.0
 11
367.174412319011
 21
929.979360378517
 31
0.0
  0
LINE
  5
51BD
330
2
100
AcDbEntity
  8
KIJUN
100
AcDbLine
 10
367.174412319011
 20
929.979360378517
 30
0.0
 11
367.174412319011
 21
901.6903643784994
 31
0.0
  0
LINE
  5
51BE
330
2
100
AcDbEntity
  8
KIJUN
100
AcDbLine
 10
367.174412319011
 20
901.6903643784994
 30
0.0
 11
365.4769303191097
 21
882.0159053785197
 31
0.0
  0
LINE
  5
51BF
330
2
100
AcDbEntity
  8
KIJUN
100
AcDbLine
 10
365.4769303191097
 20
882.0159053785197
 30
0.0
 11
362.8654293190957
 21
863.5059093785335
 31
0.0
  0
LINE
  5
51C0
330
2
100
AcDbEntity
  8
KIJUN
100
AcDbLine
 10
362.8654293190957
 20
863.5059093785335
 30
0.0
 11
358.1643973190767
 21
846.7419093785816
 31
0.0
  0
LINE
  5
51C1
330
2
100
AcDbEntity
  8
KIJUN
100
AcDbLine
 10
358.1643973190767
 20
846.7419093785816
 30
0.0
 11
352.2883613190679
 21
833.4709173785906
 31
0.0
  0
LINE
  5
51C2
330
2
100
AcDbEntity
  8
KIJUN
100
AcDbLine
 10
352.2883613190679
 20
833.4709173785906
 30
0.0
 11
344.1923653189988
 21
821.2469133785585
 31
0.0
  0
LINE
  5
51C3
330
2
100
AcDbEntity
  8
KIJUN
100
AcDbLine
 10
344.1923653189988
 20
821.2469133785585
 30
0.0
 11
329.0454563192288
 21
808.3249173785539
 31
0.0
  0
LINE
  5
51C4
330
2
100
AcDbEntity
  8
KIJUN
100
AcDbLine
 10
329.0454563192288
 20
808.3249173785539
 30
0.0
 11
326.5643843190228
 21
808.3249173785539
 31
0.0
  0
LINE
  5
51C5
330
2
100
AcDbEntity
  8
KIJUN
100
AcDbLine
 10
326.5643843190228
 20
808.3249173785539
 30
0.0
 11
339.8833823191053
 21
826.6023763785947
 31
0.0
  0
LINE
  5
51C6
330
2
100
AcDbEntity
  8
KIJUN
100
AcDbLine
 10
339.8833823191053
 20
826.6023763785947
 30
0.0
 11
346.6734373192119
 21
846.7419093785816
 31
0.0
  0
LINE
  5
51C7
330
2
100
AcDbEntity
  8
KIJUN
100
AcDbLine
 10
346.6734373192119
 20
846.7419093785816
 30
0.0
 11
351.3744693190056
 21
866.6494133785622
 31
0.0
  0
LINE
  5
51C8
330
2
100
AcDbEntity
  8
KIJUN
100
AcDbLine
 10
351.3744693190056
 20
866.6494133785622
 30
0.0
 11
353.5939213191268
 21
886.7889463785564
 31
0.0
  0
LINE
  5
51C9
330
2
100
AcDbEntity
  8
KIJUN
100
AcDbLine
 10
353.5939213191268
 20
886.7889463785564
 30
0.0
 11
355.2919113191856
 21
905.5318603785078
 31
0.0
  0
LINE
  5
51CA
330
2
100
AcDbEntity
  8
KIJUN
100
AcDbLine
 10
355.2919113191856
 20
905.5318603785078
 30
0.0
 11
355.9444373190163
 21
930.0959463784911
 31
0.0
  0
LINE
  5
51CB
330
2
100
AcDbEntity
  8
KIJUN
100
AcDbLine
 10
342.4863743192218
 20
929.979360378517
 30
0.0
 11
347.1868983190761
 21
928.0004463785173
 31
0.0
  0
LINE
  5
51CC
330
2
100
AcDbEntity
  8
KIJUN
100
AcDbLine
 10
347.1868983190761
 20
928.0004463785173
 30
0.0
 11
352.0183593191432
 21
928.0004463785173
 31
0.0
  0
LINE
  5
51CD
330
2
100
AcDbEntity
  8
KIJUN
100
AcDbLine
 10
352.0183593191432
 20
928.0004463785173
 30
0.0
 11
356.0663573191669
 21
929.8629013785925
 31
0.0
  0
LINE
  5
51CE
330
2
100
AcDbEntity
  8
KIJUN
100
AcDbLine
 10
356.0663573191669
 20
929.8629013785925
 30
0.0
 11
354.7604163192191
 21
899.8279093785333
 31
0.0
  0
LINE
  5
51CF
330
2
100
AcDbEntity
  8
KIJUN
100
AcDbLine
 10
354.7604163192191
 20
899.8279093785333
 30
0.0
 11
351.8879303191024
 21
870.8404133784881
 31
0.0
  0
LINE
  5
51D0
330
2
100
AcDbEntity
  8
KIJUN
100
AcDbLine
 10
351.8879303191024
 20
870.8404133784881
 30
0.0
 11
347.1868983190761
 21
846.3929133784864
 31
0.0
  0
LINE
  5
51D1
330
2
100
AcDbEntity
  8
KIJUN
100
AcDbLine
 10
347.1868983190761
 20
846.3929133784864
 30
0.0
 11
340.3969703190123
 21
828.1154543785619
 31
0.0
  0
LINE
  5
51D2
330
2
100
AcDbEntity
  8
KIJUN
100
AcDbLine
 10
340.3969703190123
 20
828.1154543785619
 30
0.0
 11
330.0808873190799
 21
812.3994583785629
 31
0.0
  0
LINE
  5
51D3
330
2
100
AcDbEntity
  8
KIJUN
100
AcDbLine
 10
330.0808873190799
 20
812.3994583785629
 30
0.0
 11
327.077972319177
 21
808.208458378513
 31
0.0
  0
LINE
  5
51D4
330
2
100
AcDbEntity
  8
KIJUN
100
AcDbLine
 10
327.077972319177
 20
808.208458378513
 30
0.0
 11
319.8958683191702
 21
808.208458378513
 31
0.0
  0
LINE
  5
51D5
330
2
100
AcDbEntity
  8
KIJUN
100
AcDbLine
 10
319.8958683191702
 20
808.208458378513
 30
0.0
 11
329.297424319051
 21
828.4649583784796
 31
0.0
  0
LINE
  5
51D6
330
2
100
AcDbEntity
  8
KIJUN
100
AcDbLine
 10
329.297424319051
 20
828.4649583784796
 30
0.0
 11
335.6959383192116
 21
849.7689543785767
 31
0.0
  0
LINE
  5
51D7
330
2
100
AcDbEntity
  8
KIJUN
100
AcDbLine
 10
335.6959383192116
 20
849.7689543785767
 30
0.0
 11
339.4829513191398
 21
871.1894093785909
 31
0.0
  0
LINE
  5
51D8
330
2
100
AcDbEntity
  8
KIJUN
100
AcDbLine
 10
339.4829513191398
 20
871.1894093785909
 30
0.0
 11
340.7883843191557
 21
891.3294503785241
 31
0.0
  0
LINE
  5
51D9
330
2
100
AcDbEntity
  8
KIJUN
100
AcDbLine
 10
340.7883843191557
 20
891.3294503785241
 30
0.0
 11
341.5719743192203
 21
912.4004013784963
 31
0.0
  0
LINE
  5
51DA
330
2
100
AcDbEntity
  8
KIJUN
100
AcDbLine
 10
341.5719743192203
 20
912.4004013784963
 30
0.0
 11
342.4863743192218
 21
929.979360378517
 31
0.0
  0
LINE
  5
51DB
330
2
100
AcDbEntity
  8
KIJUN
100
AcDbLine
 10
251.8189153191088
 20
935.8319013785459
 30
0.0
 11
371.8958913190254
 21
935.8319013785459
 31
0.0
  0
LINE
  5
51DC
330
2
100
AcDbEntity
  8
KIJUN
100
AcDbLine
 10
371.8958913190254
 20
935.8319013785459
 30
0.0
 11
371.8958913190254
 21
929.5363843784821
 31
0.0
  0
LINE
  5
51DD
330
2
100
AcDbEntity
  8
KIJUN
100
AcDbLine
 10
371.8958913190254
 20
929.5363843784821
 30
0.0
 11
251.8189153191088
 21
929.5363843784821
 31
0.0
  0
LINE
  5
51DE
330
2
100
AcDbEntity
  8
KIJUN
100
AcDbLine
 10
251.8189153191088
 20
929.5363843784821
 30
0.0
 11
251.8189153191088
 21
935.8319013785459
 31
0.0
  0
LINE
  5
51DF
330
2
100
AcDbEntity
  8
KIJUN
100
AcDbLine
 10
249.2384023191953
 20
931.7679013785257
 30
0.0
 11
374.9559563191106
 21
931.7679013785257
 31
0.0
  0
LINE
  5
51E0
330
2
100
AcDbEntity
  8
KIJUN
100
AcDbLine
 10
374.9559563191106
 20
931.7679013785257
 30
0.0
 11
375.7674863191748
 21
931.3772493785313
 31
0.0
  0
LINE
  5
51E1
330
2
100
AcDbEntity
  8
KIJUN
100
AcDbLine
 10
375.7674863191748
 20
931.3772493785313
 30
0.0
 11
376.3458443190648
 21
930.3529943785274
 31
0.0
  0
LINE
  5
51E2
330
2
100
AcDbEntity
  8
KIJUN
100
AcDbLine
 10
376.3458443190648
 20
930.3529943785274
 30
0.0
 11
376.5664433191305
 21
928.9163703785769
 31
0.0
  0
LINE
  5
51E3
330
2
100
AcDbEntity
  8
KIJUN
100
AcDbLine
 10
376.5664433191305
 20
928.9163703785769
 30
0.0
 11
376.3458443190648
 21
927.4796193785828
 31
0.0
  0
LINE
  5
51E4
330
2
100
AcDbEntity
  8
KIJUN
100
AcDbLine
 10
376.3458443190648
 20
927.4796193785828
 30
0.0
 11
375.7674863191748
 21
926.4551103784929
 31
0.0
  0
LINE
  5
51E5
330
2
100
AcDbEntity
  8
KIJUN
100
AcDbLine
 10
375.7674863191748
 20
926.4551103784929
 30
0.0
 11
374.9559563191106
 21
926.0644583784984
 31
0.0
  0
LINE
  5
51E6
330
2
100
AcDbEntity
  8
KIJUN
100
AcDbLine
 10
374.9559563191106
 20
926.0644583784984
 30
0.0
 11
249.2384023191953
 21
926.0644583784984
 31
0.0
  0
LINE
  5
51E7
330
2
100
AcDbEntity
  8
KIJUN
100
AcDbLine
 10
249.2384023191953
 20
926.0644583784984
 30
0.0
 11
248.4271263192168
 21
926.4551103784929
 31
0.0
  0
LINE
  5
51E8
330
2
100
AcDbEntity
  8
KIJUN
100
AcDbLine
 10
248.4271263192168
 20
926.4551103784929
 30
0.0
 11
247.8485143190082
 21
927.4796193785828
 31
0.0
  0
LINE
  5
51E9
330
2
100
AcDbEntity
  8
KIJUN
100
AcDbLine
 10
247.8485143190082
 20
927.4796193785828
 30
0.0
 11
247.6279153191827
 21
928.9163703785769
 31
0.0
  0
LINE
  5
51EA
330
2
100
AcDbEntity
  8
KIJUN
100
AcDbLine
 10
247.6279153191827
 20
928.9163703785769
 30
0.0
 11
247.8485143190082
 21
930.3529943785274
 31
0.0
  0
LINE
  5
51EB
330
2
100
AcDbEntity
  8
KIJUN
100
AcDbLine
 10
247.8485143190082
 20
930.3529943785274
 30
0.0
 11
248.4271263192168
 21
931.3772493785313
 31
0.0
  0
LINE
  5
51EC
330
2
100
AcDbEntity
  8
KIJUN
100
AcDbLine
 10
248.4271263192168
 20
931.3772493785313
 30
0.0
 11
249.2384023191953
 21
931.7679013785257
 31
0.0
  0
LINE
  5
51ED
330
2
100
AcDbEntity
  8
KIJUN
100
AcDbLine
 10
285.8353573191816
 20
955.1673973785822
 30
0.0
 11
294.6816693191395
 21
955.5362053785742
 31
0.0
  0
LINE
  5
51EE
330
2
100
AcDbEntity
  8
KIJUN
100
AcDbLine
 10
294.6816693191395
 20
955.5362053785742
 30
0.0
 11
304.3332883191288
 21
955.6719683785653
 31
0.0
  0
LINE
  5
51EF
330
2
100
AcDbEntity
  8
KIJUN
100
AcDbLine
 10
304.3332883191288
 20
955.6719683785653
 30
0.0
 11
313.3139663190704
 21
955.6913993785588
 31
0.0
  0
LINE
  5
51F0
330
2
100
AcDbEntity
  8
KIJUN
100
AcDbLine
 10
313.3139663190704
 20
955.6913993785588
 30
0.0
 11
321.6012243191979
 21
955.6849223785635
 31
0.0
  0
LINE
  5
51F1
330
2
100
AcDbEntity
  8
KIJUN
100
AcDbLine
 10
321.6012243191979
 20
955.6849223785635
 30
0.0
 11
330.0899043191348
 21
955.6397103785007
 31
0.0
  0
LINE
  5
51F2
330
2
100
AcDbEntity
  8
KIJUN
100
AcDbLine
 10
330.0899043191348
 20
955.6397103785007
 30
0.0
 11
338.3769083191762
 21
955.5169013785148
 31
0.0
  0
LINE
  5
51F3
330
2
100
AcDbEntity
  8
KIJUN
100
AcDbLine
 10
338.3769083191762
 20
955.5169013785148
 30
0.0
 11
331.7226163190535
 21
952.5416723785042
 31
0.0
  0
LINE
  5
51F4
330
2
100
AcDbEntity
  8
KIJUN
100
AcDbLine
 10
331.7226163190535
 20
952.5416723785042
 30
0.0
 11
329.2959003190008
 21
947.3158763785782
 31
0.0
  0
LINE
  5
51F5
330
2
100
AcDbEntity
  8
KIJUN
100
AcDbLine
 10
329.2959003190008
 20
947.3158763785782
 30
0.0
 11
330.8279013190149
 21
942.2454013785777
 31
0.0
  0
LINE
  5
51F6
330
2
100
AcDbEntity
  8
KIJUN
100
AcDbLine
 10
330.8279013190149
 20
942.2454013785777
 30
0.0
 11
338.2129513191139
 21
938.3194503785148
 31
0.0
  0
LINE
  5
51F7
330
2
100
AcDbEntity
  8
KIJUN
100
AcDbLine
 10
338.2129513191139
 20
938.3194503785148
 30
0.0
 11
350.0492243192164
 21
935.7517643785563
 31
0.0
  0
LINE
  5
51F8
330
2
100
AcDbEntity
  8
KIJUN
100
AcDbLine
 10
350.0492243192164
 20
935.7517643785563
 30
0.0
 11
361.7289063192109
 21
934.7363993785643
 31
0.0
  0
LINE
  5
51F9
330
2
100
AcDbEntity
  8
KIJUN
100
AcDbLine
 10
361.7289063192109
 20
934.7363993785643
 30
0.0
 11
351.9307293190468
 21
934.8100593785513
 31
0.0
  0
LINE
  5
51FA
330
2
100
AcDbEntity
  8
KIJUN
100
AcDbLine
 10
351.9307293190468
 20
934.8100593785513
 30
0.0
 11
337.6221473191581
 21
934.8018043785286
 31
0.0
  0
LINE
  5
51FB
330
2
100
AcDbEntity
  8
KIJUN
100
AcDbLine
 10
337.6221473191581
 20
934.8018043785286
 30
0.0
 11
323.3135653190511
 21
934.7609103785456
 31
0.0
  0
LINE
  5
51FC
330
2
100
AcDbEntity
  8
KIJUN
100
AcDbLine
 10
323.3135653190511
 20
934.7609103785456
 30
0.0
 11
313.5153883191051
 21
934.7363993785643
 31
0.0
  0
LINE
  5
51FD
330
2
100
AcDbEntity
  8
KIJUN
100
AcDbLine
 10
313.5153883191051
 20
934.7363993785643
 30
0.0
 11
303.4421293191442
 21
934.8155203785522
 31
0.0
  0
LINE
  5
51FE
330
2
100
AcDbEntity
  8
KIJUN
100
AcDbLine
 10
303.4421293191442
 20
934.8155203785522
 30
0.0
 11
288.6411683191363
 21
934.9765563785499
 31
0.0
  0
LINE
  5
51FF
330
2
100
AcDbEntity
  8
KIJUN
100
AcDbLine
 10
288.6411683191363
 20
934.9765563785499
 30
0.0
 11
273.8968493191241
 21
935.1049533785866
 31
0.0
  0
LINE
  5
5200
330
2
100
AcDbEntity
  8
KIJUN
100
AcDbLine
 10
273.8968493191241
 20
935.1049533785866
 30
0.0
 11
263.9933893191155
 21
935.0859033784965
 31
0.0
  0
LINE
  5
5201
330
2
100
AcDbEntity
  8
KIJUN
100
AcDbLine
 10
263.9933893191155
 20
935.0859033784965
 30
0.0
 11
271.8704373192192
 21
935.4220723785205
 31
0.0
  0
LINE
  5
5202
330
2
100
AcDbEntity
  8
KIJUN
100
AcDbLine
 10
271.8704373192192
 20
935.4220723785205
 30
0.0
 11
283.1250503192314
 21
936.9611853785269
 31
0.0
  0
LINE
  5
5203
330
2
100
AcDbEntity
  8
KIJUN
100
AcDbLine
 10
283.1250503192314
 20
936.9611853785269
 30
0.0
 11
293.0823583192141
 21
943.118399378533
 31
0.0
  0
LINE
  5
5204
330
2
100
AcDbEntity
  8
KIJUN
100
AcDbLine
 10
293.0823583192141
 20
943.118399378533
 30
0.0
 11
294.3126073191779
 21
946.5914683785618
 31
0.0
  0
LINE
  5
5205
330
2
100
AcDbEntity
  8
KIJUN
100
AcDbLine
 10
294.3126073191779
 20
946.5914683785618
 30
0.0
 11
293.4625963190301
 21
952.1600373785572
 31
0.0
  0
LINE
  5
5206
330
2
100
AcDbEntity
  8
KIJUN
100
AcDbLine
 10
293.4625963190301
 20
952.1600373785572
 30
0.0
 11
285.8353573191816
 21
955.1673973785822
 31
0.0
  0
LINE
  5
5207
330
2
100
AcDbEntity
  8
KIJUN
100
AcDbLine
 10
271.8849153190349
 20
641.9539013785056
 30
0.0
 11
358.0453983192165
 21
641.9539013785056
 31
0.0
  0
LINE
  5
5208
330
2
100
AcDbEntity
  8
KIJUN
100
AcDbLine
 10
358.0453983192165
 20
641.9539013785056
 30
0.0
 11
358.0453983192165
 21
638.3449423785592
 31
0.0
  0
LINE
  5
5209
330
2
100
AcDbEntity
  8
KIJUN
100
AcDbLine
 10
358.0453983192165
 20
638.3449423785592
 30
0.0
 11
269.1113623189191
 21
638.3449423785592
 31
0.0
  0
LINE
  5
520B
330
2
100
AcDbEntity
  8
KIJUN
100
AcDbLine
 10
287.3809473191904
 20
665.0999053785657
 30
0.0
 11
298.0094503190739
 21
665.1543883785292
 31
0.0
  0
LINE
  5
520C
330
2
100
AcDbEntity
  8
KIJUN
100
AcDbLine
 10
298.0094503190739
 20
665.1543883785292
 30
0.0
 11
305.3052193192089
 21
665.1270833785332
 31
0.0
  0
LINE
  5
520D
330
2
100
AcDbEntity
  8
KIJUN
100
AcDbLine
 10
305.3052193192089
 20
665.1270833785332
 30
0.0
 11
315.8664123191806
 21
665.0999053785657
 31
0.0
  0
LINE
  5
520E
330
2
100
AcDbEntity
  8
KIJUN
100
AcDbLine
 10
315.8664123191806
 20
665.0999053785657
 30
0.0
 11
324.9253223190426
 21
665.1270833785332
 31
0.0
  0
LINE
  5
520F
330
2
100
AcDbEntity
  8
KIJUN
100
AcDbLine
 10
324.9253223190426
 20
665.1270833785332
 30
0.0
 11
329.2198273191207
 21
665.1543883785292
 31
0.0
  0
LINE
  5
5210
330
2
100
AcDbEntity
  8
KIJUN
100
AcDbLine
 10
329.2198273191207
 20
665.1543883785292
 30
0.0
 11
338.2114273190637
 21
665.0999053785657
 31
0.0
  0
LINE
  5
5211
330
2
100
AcDbEntity
  8
KIJUN
100
AcDbLine
 10
338.2114273190637
 20
665.0999053785657
 30
0.0
 11
331.8107543190963
 21
660.3960793785176
 31
0.0
  0
LINE
  5
5212
330
2
100
AcDbEntity
  8
KIJUN
100
AcDbLine
 10
331.8107543190963
 20
660.3960793785176
 30
0.0
 11
330.3531753190944
 21
652.1272363785051
 31
0.0
  0
LINE
  5
5213
330
2
100
AcDbEntity
  8
KIJUN
100
AcDbLine
 10
330.3531753190944
 20
652.1272363785051
 30
0.0
 11
334.4874063192074
 21
645.3823933785701
 31
0.0
  0
LINE
  5
5214
330
2
100
AcDbEntity
  8
KIJUN
100
AcDbLine
 10
334.4874063192074
 20
645.3823933785701
 30
0.0
 11
339.4716483190095
 21
643.8312153785322
 31
0.0
  0
LINE
  5
5215
330
2
100
AcDbEntity
  8
KIJUN
100
AcDbLine
 10
339.4716483190095
 20
643.8312153785322
 30
0.0
 11
348.5940583191077
 21
642.2799103785604
 31
0.0
  0
LINE
  5
5216
330
2
100
AcDbEntity
  8
KIJUN
100
AcDbLine
 10
348.5940583191077
 20
642.2799103785604
 30
0.0
 11
359.1478853191329
 21
641.7084103785623
 31
0.0
  0
LINE
  5
5217
330
2
100
AcDbEntity
  8
KIJUN
100
AcDbLine
 10
359.1478853191329
 20
641.7084103785623
 30
0.0
 11
348.1498123191086
 21
641.6949483785085
 31
0.0
  0
LINE
  5
5218
330
2
100
AcDbEntity
  8
KIJUN
100
AcDbLine
 10
348.1498123191086
 20
641.6949483785085
 30
0.0
 11
336.9157733191205
 21
641.7849913784979
 31
0.0
  0
LINE
  5
5219
330
2
100
AcDbEntity
  8
KIJUN
100
AcDbLine
 10
336.9157733191205
 20
641.7849913784979
 30
0.0
 11
325.7005303190417
 21
641.8978943784918
 31
0.0
  0
LINE
  5
521A
330
2
100
AcDbEntity
  8
KIJUN
100
AcDbLine
 10
325.7005303190417
 20
641.8978943784918
 30
0.0
 11
314.7589723192032
 21
641.9533933785665
 31
0.0
  0
LINE
  5
521B
330
2
100
AcDbEntity
  8
KIJUN
100
AcDbLine
 10
314.7589723192032
 20
641.9533933785665
 30
0.0
 11
303.9653693190883
 21
641.9533933785665
 31
0.0
  0
LINE
  5
521C
330
2
100
AcDbEntity
  8
KIJUN
100
AcDbLine
 10
303.9653693190883
 20
641.9533933785665
 30
0.0
 11
293.181164319165
 21
641.9533933785665
 31
0.0
  0
LINE
  5
521D
330
2
100
AcDbEntity
  8
KIJUN
100
AcDbLine
 10
293.181164319165
 20
641.9533933785665
 30
0.0
 11
282.4158823191719
 21
641.9533933785665
 31
0.0
  0
LINE
  5
521E
330
2
100
AcDbEntity
  8
KIJUN
100
AcDbLine
 10
282.4158823191719
 20
641.9533933785665
 30
0.0
 11
269.1113623189192
 21
641.9533933785664
 31
0.0
  0
LINE
  5
521F
330
2
100
AcDbEntity
  8
KIJUN
100
AcDbLine
 10
271.6789213190605
 20
641.9533933785665
 30
0.0
 11
280.1526153190098
 21
642.1438933784904
 31
0.0
  0
LINE
  5
5220
330
2
100
AcDbEntity
  8
KIJUN
100
AcDbLine
 10
280.1526153190098
 20
642.1438933784904
 30
0.0
 11
288.3353523190999
 21
643.5590543785678
 31
0.0
  0
LINE
  5
5221
330
2
100
AcDbEntity
  8
KIJUN
100
AcDbLine
 10
288.3353523190999
 20
643.5590543785678
 30
0.0
 11
294.5273643191137
 21
647.8318423785772
 31
0.0
  0
LINE
  5
5222
330
2
100
AcDbEntity
  8
KIJUN
100
AcDbLine
 10
294.5273643191137
 20
647.8318423785772
 30
0.0
 11
295.7390713190507
 21
653.8872023785391
 31
0.0
  0
LINE
  5
5223
330
2
100
AcDbEntity
  8
KIJUN
100
AcDbLine
 10
295.7390713190507
 20
653.8872023785391
 30
0.0
 11
293.2822563191983
 21
661.0039013785739
 31
0.0
  0
LINE
  5
5224
330
2
100
AcDbEntity
  8
KIJUN
100
AcDbLine
 10
293.2822563191983
 20
661.0039013785739
 30
0.0
 11
287.3809473191904
 21
665.0999053785657
 31
0.0
  0
LINE
  5
5225
330
2
100
AcDbEntity
  8
KIJUN
100
AcDbLine
 10
288.4568913191142
 20
668.0859293785418
 30
0.0
 11
284.7962433190078
 21
669.27464937854
 31
0.0
  0
LINE
  5
5226
330
2
100
AcDbEntity
  8
KIJUN
100
AcDbLine
 10
284.7962433190078
 20
669.27464937854
 30
0.0
 11
281.582889319001
 21
671.0716993785339
 31
0.0
  0
LINE
  5
5227
330
2
100
AcDbEntity
  8
KIJUN
100
AcDbLine
 10
281.582889319001
 20
671.0716993785339
 30
0.0
 11
278.3918873191833
 21
673.0324523785116
 31
0.0
  0
LINE
  5
5228
330
2
100
AcDbEntity
  8
KIJUN
100
AcDbLine
 10
278.3918873191833
 20
673.0324523785116
 30
0.0
 11
275.6627843190981
 21
674.8797943785488
 31
0.0
  0
LINE
  5
5229
330
2
100
AcDbEntity
  8
KIJUN
100
AcDbLine
 10
275.6627843190981
 20
674.8797943785488
 30
0.0
 11
273.3365253190896
 21
677.1482683785166
 31
0.0
  0
LINE
  5
522A
330
2
100
AcDbEntity
  8
KIJUN
100
AcDbLine
 10
273.3365253190896
 20
677.1482683785166
 30
0.0
 11
271.1443783192117
 21
679.9779553785724
 31
0.0
  0
LINE
  5
522B
330
2
100
AcDbEntity
  8
KIJUN
100
AcDbLine
 10
271.1443783192117
 20
679.9779553785724
 30
0.0
 11
267.3193923191393
 21
687.3444633785133
 31
0.0
  0
LINE
  5
522C
330
2
100
AcDbEntity
  8
KIJUN
100
AcDbLine
 10
267.3193923191393
 20
687.3444633785133
 30
0.0
 11
265.0044363190354
 21
695.8689573785617
 31
0.0
  0
LINE
  5
522D
330
2
100
AcDbEntity
  8
KIJUN
100
AcDbLine
 10
265.0044363190354
 20
695.8689573785617
 30
0.0
 11
265.0044363190354
 21
706.1823733785152
 31
0.0
  0
LINE
  5
522E
330
2
100
AcDbEntity
  8
KIJUN
100
AcDbLine
 10
265.0044363190354
 20
706.1823733785152
 30
0.0
 11
267.1184783190438
 21
716.6009453784886
 31
0.0
  0
LINE
  5
522F
330
2
100
AcDbEntity
  8
KIJUN
100
AcDbLine
 10
267.1184783190438
 20
716.6009453784886
 30
0.0
 11
268.4455013192019
 21
720.720825378596
 31
0.0
  0
LINE
  5
5230
330
2
100
AcDbEntity
  8
KIJUN
100
AcDbLine
 10
268.4455013192019
 20
720.720825378596
 30
0.0
 11
270.5554793192168
 21
724.7238653785412
 31
0.0
  0
LINE
  5
5231
330
2
100
AcDbEntity
  8
KIJUN
100
AcDbLine
 10
270.5554793192168
 20
724.7238653785412
 30
0.0
 11
273.3588773190386
 21
728.7034103784923
 31
0.0
  0
LINE
  5
5232
330
2
100
AcDbEntity
  8
KIJUN
100
AcDbLine
 10
273.3588773190386
 20
728.7034103784923
 30
0.0
 11
283.0219263192082
 21
739.6483973785676
 31
0.0
  0
LINE
  5
5233
330
2
100
AcDbEntity
  8
KIJUN
100
AcDbLine
 10
283.0219263192082
 20
739.6483973785676
 30
0.0
 11
284.4645193192155
 21
743.4760503785021
 31
0.0
  0
LINE
  5
5234
330
2
100
AcDbEntity
  8
KIJUN
100
AcDbLine
 10
284.4645193192155
 20
743.4760503785021
 30
0.0
 11
285.4374663191665
 21
747.6074873784839
 31
0.0
  0
LINE
  5
5235
330
2
100
AcDbEntity
  8
KIJUN
100
AcDbLine
 10
285.4374663191665
 20
747.6074873784839
 30
0.0
 11
285.7394723190628
 21
752.0664573785783
 31
0.0
  0
LINE
  5
5236
330
2
100
AcDbEntity
  8
KIJUN
100
AcDbLine
 10
285.7394723190628
 20
752.0664573785783
 30
0.0
 11
284.4308643191362
 21
758.3808973785729
 31
0.0
  0
LINE
  5
5237
330
2
100
AcDbEntity
  8
KIJUN
100
AcDbLine
 10
284.4308643191362
 20
758.3808973785729
 30
0.0
 11
281.2098903190961
 21
763.9583563785731
 31
0.0
  0
LINE
  5
5238
330
2
100
AcDbEntity
  8
KIJUN
100
AcDbLine
 10
281.2098903190961
 20
763.9583563785731
 30
0.0
 11
276.6804353191655
 21
768.3784643785571
 31
0.0
  0
LINE
  5
5239
330
2
100
AcDbEntity
  8
KIJUN
100
AcDbLine
 10
276.6804353191655
 20
768.3784643785571
 30
0.0
 11
272.6544083191802
 21
770.6939283784837
 31
0.0
  0
LINE
  5
523A
330
2
100
AcDbEntity
  8
KIJUN
100
AcDbLine
 10
272.6544083191802
 20
770.6939283784837
 30
0.0
 11
351.9703533190584
 21
770.6939283784837
 31
0.0
  0
LINE
  5
523B
330
2
100
AcDbEntity
  8
KIJUN
100
AcDbLine
 10
351.9703533190584
 20
770.6939283784837
 30
0.0
 11
346.3334583191572
 21
768.3784643785571
 31
0.0
  0
LINE
  5
523C
330
2
100
AcDbEntity
  8
KIJUN
100
AcDbLine
 10
346.3334583191572
 20
768.3784643785571
 30
0.0
 11
341.9049683192243
 21
765.4319373785641
 31
0.0
  0
LINE
  5
523D
330
2
100
AcDbEntity
  8
KIJUN
100
AcDbLine
 10
341.9049683192243
 20
765.4319373785641
 30
0.0
 11
338.2814043191865
 21
759.4333463785245
 31
0.0
  0
LINE
  5
523E
330
2
100
AcDbEntity
  8
KIJUN
100
AcDbLine
 10
338.2814043191865
 20
759.4333463785245
 30
0.0
 11
337.3753863190177
 21
750.2774083785136
 31
0.0
  0
LINE
  5
523F
330
2
100
AcDbEntity
  8
KIJUN
100
AcDbLine
 10
337.3753863190177
 20
750.2774083785136
 30
0.0
 11
338.1545313191998
 21
745.6585453785833
 31
0.0
  0
LINE
  5
5240
330
2
100
AcDbEntity
  8
KIJUN
100
AcDbLine
 10
338.1545313191998
 20
745.6585453785833
 30
0.0
 11
339.9848553190204
 21
741.8114613785387
 31
0.0
  0
LINE
  5
5241
330
2
100
AcDbEntity
  8
KIJUN
100
AcDbLine
 10
339.9848553190204
 20
741.8114613785387
 30
0.0
 11
342.105882319094
 21
738.5959483784995
 31
0.0
  0
LINE
  5
5242
330
2
100
AcDbEntity
  8
KIJUN
100
AcDbLine
 10
342.105882319094
 20
738.5959483784995
 30
0.0
 11
350.1584443192296
 21
730.3874303785798
 31
0.0
  0
LINE
  5
5243
330
2
100
AcDbEntity
  8
KIJUN
100
AcDbLine
 10
350.1584443192296
 20
730.3874303785798
 30
0.0
 11
353.3345873191099
 21
727.2730093785672
 31
0.0
  0
LINE
  5
5244
330
2
100
AcDbEntity
  8
KIJUN
100
AcDbLine
 10
353.3345873191099
 20
727.2730093785672
 30
0.0
 11
355.9068453192267
 21
724.0651163785683
 31
0.0
  0
LINE
  5
5245
330
2
100
AcDbEntity
  8
KIJUN
100
AcDbLine
 10
355.9068453192267
 20
724.0651163785683
 30
0.0
 11
358.0094573190543
 21
720.8103603785296
 31
0.0
  0
LINE
  5
5246
330
2
100
AcDbEntity
  8
KIJUN
100
AcDbLine
 10
358.0094573190543
 20
720.8103603785296
 30
0.0
 11
359.813746319076
 21
715.7941143785158
 31
0.0
  0
LINE
  5
5247
330
2
100
AcDbEntity
  8
KIJUN
100
AcDbLine
 10
359.813746319076
 20
715.7941143785158
 30
0.0
 11
361.3722903190756
 21
710.567302378486
 31
0.0
  0
LINE
  5
5248
330
2
100
AcDbEntity
  8
KIJUN
100
AcDbLine
 10
361.3722903190756
 20
710.567302378486
 30
0.0
 11
362.0358653191761
 21
705.3403633785295
 31
0.0
  0
LINE
  5
5249
330
2
100
AcDbEntity
  8
KIJUN
100
AcDbLine
 10
362.0358653191761
 20
705.3403633785295
 30
0.0
 11
362.0358653191761
 21
695.2373863785563
 31
0.0
  0
LINE
  5
524A
330
2
100
AcDbEntity
  8
KIJUN
100
AcDbLine
 10
362.0358653191761
 20
695.2373863785563
 30
0.0
 11
359.5193603192129
 21
686.2923953785671
 31
0.0
  0
LINE
  5
524B
330
2
100
AcDbEntity
  8
KIJUN
100
AcDbLine
 10
359.5193603192129
 20
686.2923953785671
 30
0.0
 11
355.3923683190187
 21
679.0309163784935
 31
0.0
  0
LINE
  5
524C
330
2
100
AcDbEntity
  8
KIJUN
100
AcDbLine
 10
355.3923683190187
 20
679.0309163784935
 30
0.0
 11
348.1453673192191
 21
672.400881378499
 31
0.0
  0
LINE
  5
524D
330
2
100
AcDbEntity
  8
KIJUN
100
AcDbLine
 10
348.1453673192191
 20
672.400881378499
 30
0.0
 11
345.1032093191861
 21
670.5648423785917
 31
0.0
  0
LINE
  5
524E
330
2
100
AcDbEntity
  8
KIJUN
100
AcDbLine
 10
345.1032093191861
 20
670.5648423785917
 30
0.0
 11
341.6585883192056
 21
669.2200393785338
 31
0.0
  0
LINE
  5
524F
330
2
100
AcDbEntity
  8
KIJUN
100
AcDbLine
 10
341.6585883192056
 20
669.2200393785338
 30
0.0
 11
337.878433319067
 21
668.296368378515
 31
0.0
  0
LINE
  5
5250
330
2
100
AcDbEntity
  8
KIJUN
100
AcDbLine
 10
337.878433319067
 20
668.296368378515
 30
0.0
 11
325.4996163191718
 21
668.2783343785289
 31
0.0
  0
LINE
  5
5251
330
2
100
AcDbEntity
  8
KIJUN
100
AcDbLine
 10
325.4996163191718
 20
668.2783343785289
 30
0.0
 11
313.1301973192276
 21
668.2307093785732
 31
0.0
  0
LINE
  5
5252
330
2
100
AcDbEntity
  8
KIJUN
100
AcDbLine
 10
313.1301973192276
 20
668.2307093785732
 30
0.0
 11
300.7794473191352
 21
668.16327237851
 31
0.0
  0
LINE
  5
5253
330
2
100
AcDbEntity
  8
KIJUN
100
AcDbLine
 10
300.7794473191352
 20
668.16327237851
 30
0.0
 11
288.4568913191142
 21
668.0859293785418
 31
0.0
  0
LINE
  5
5264
330
2
100
AcDbEntity
  8
KIJUN
100
AcDbLine
 10
272.2543583191255
 20
784.4479013785407
 30
0.0
 11
351.670887319091
 21
784.4479013785407
 31
0.0
  0
LINE
  5
5265
330
2
100
AcDbEntity
  8
KIJUN
100
AcDbLine
 10
351.670887319091
 20
784.4479013785407
 30
0.0
 11
353.6484043190831
 21
783.707618378578
 31
0.0
  0
LINE
  5
5266
330
2
100
AcDbEntity
  8
KIJUN
100
AcDbLine
 10
353.6484043190831
 20
783.707618378578
 30
0.0
 11
355.0586123192152
 21
781.7665503785705
 31
0.0
  0
LINE
  5
5267
330
2
100
AcDbEntity
  8
KIJUN
100
AcDbLine
 10
355.0586123192152
 20
781.7665503785705
 30
0.0
 11
355.5964573190322
 21
779.0449403785993
 31
0.0
  0
LINE
  5
5268
330
2
100
AcDbEntity
  8
KIJUN
100
AcDbLine
 10
355.5964573190322
 20
779.0449403785993
 30
0.0
 11
355.5964573190322
 21
778.9063833785863
 31
0.0
  0
LINE
  5
5269
330
2
100
AcDbEntity
  8
KIJUN
100
AcDbLine
 10
355.5964573190322
 20
778.9063833785863
 30
0.0
 11
355.0586123192152
 21
776.1850273785918
 31
0.0
  0
LINE
  5
526A
330
2
100
AcDbEntity
  8
KIJUN
100
AcDbLine
 10
355.0586123192152
 20
776.1850273785918
 30
0.0
 11
353.6484043190831
 21
774.2442133785467
 31
0.0
  0
LINE
  5
526B
330
2
100
AcDbEntity
  8
KIJUN
100
AcDbLine
 10
353.6484043190831
 20
774.2442133785467
 30
0.0
 11
351.670887319091
 21
773.5039303785838
 31
0.0
  0
LINE
  5
526C
330
2
100
AcDbEntity
  8
KIJUN
100
AcDbLine
 10
351.670887319091
 20
773.5039303785838
 30
0.0
 11
272.2543583191255
 21
773.5039303785838
 31
0.0
  0
LINE
  5
526D
330
2
100
AcDbEntity
  8
KIJUN
100
AcDbLine
 10
272.2543583191255
 20
773.5039303785838
 30
0.0
 11
270.2769683191836
 21
774.2442133785467
 31
0.0
  0
LINE
  5
526E
330
2
100
AcDbEntity
  8
KIJUN
100
AcDbLine
 10
270.2769683191836
 20
774.2442133785467
 30
0.0
 11
268.8667603190368
 21
776.1850273785918
 31
0.0
  0
LINE
  5
526F
330
2
100
AcDbEntity
  8
KIJUN
100
AcDbLine
 10
268.8667603190368
 20
776.1850273785918
 30
0.0
 11
268.328915319009
 21
778.9063833785863
 31
0.0
  0
LINE
  5
5270
330
2
100
AcDbEntity
  8
KIJUN
100
AcDbLine
 10
268.328915319009
 20
778.9063833785863
 30
0.0
 11
268.328915319009
 21
779.0449403785993
 31
0.0
  0
LINE
  5
5271
330
2
100
AcDbEntity
  8
KIJUN
100
AcDbLine
 10
268.328915319009
 20
779.0449403785993
 30
0.0
 11
268.8667603190368
 21
781.7665503785705
 31
0.0
  0
LINE
  5
5272
330
2
100
AcDbEntity
  8
KIJUN
100
AcDbLine
 10
268.8667603190368
 20
781.7665503785705
 30
0.0
 11
270.2769683191836
 21
783.707618378578
 31
0.0
  0
LINE
  5
5273
330
2
100
AcDbEntity
  8
KIJUN
100
AcDbLine
 10
270.2769683191836
 20
783.707618378578
 30
0.0
 11
272.2543583191255
 21
784.4479013785407
 31
0.0
  0
LINE
  5
5274
330
2
100
AcDbEntity
  8
KIJUN
100
AcDbLine
 10
254.2319153191311
 20
930.1169013785353
 30
0.0
 11
252.6569883191369
 21
929.8184513785695
 31
0.0
  0
LINE
  5
5275
330
2
100
AcDbEntity
  8
KIJUN
100
AcDbLine
 10
252.6569883191369
 20
929.8184513785695
 30
0.0
 11
251.4215323190256
 21
929.1871343785265
 31
0.0
  0
LINE
  5
5276
330
2
100
AcDbEntity
  8
KIJUN
100
AcDbLine
 10
251.4215323190256
 20
929.1871343785265
 30
0.0
 11
250.4729693190054
 21
928.2743853785087
 31
0.0
  0
LINE
  5
5277
330
2
100
AcDbEntity
  8
KIJUN
100
AcDbLine
 10
250.4729693190054
 20
928.2743853785087
 30
0.0
 11
249.9987513190244
 21
927.2041563785411
 31
0.0
  0
LINE
  5
5278
330
2
100
AcDbEntity
  8
KIJUN
100
AcDbLine
 10
249.9987513190244
 20
927.2041563785411
 30
0.0
 11
249.4984983192369
 21
926.08261937852
 31
0.0
  0
LINE
  5
5279
330
2
100
AcDbEntity
  8
KIJUN
100
AcDbLine
 10
249.4984983192369
 20
926.08261937852
 30
0.0
 11
248.945921319053
 21
924.9354283784946
 31
0.0
  0
LINE
  5
527A
330
2
100
AcDbEntity
  8
KIJUN
100
AcDbLine
 10
248.945921319053
 20
924.9354283784946
 30
0.0
 11
248.2975863190329
 21
919.8349813785123
 31
0.0
  0
LINE
  5
527B
330
2
100
AcDbEntity
  8
KIJUN
100
AcDbLine
 10
248.2975863190329
 20
919.8349813785123
 30
0.0
 11
247.7538993190865
 21
914.5298103785194
 31
0.0
  0
LINE
  5
527C
330
2
100
AcDbEntity
  8
KIJUN
100
AcDbLine
 10
247.7538993190865
 20
914.5298103785194
 30
0.0
 11
247.6539503192071
 21
909.5064523785209
 31
0.0
  0
LINE
  5
527D
330
2
100
AcDbEntity
  8
KIJUN
100
AcDbLine
 10
247.6539503192071
 20
909.5064523785209
 30
0.0
 11
247.6539503192071
 21
894.9978453784956
 31
0.0
  0
LINE
  5
527E
330
2
100
AcDbEntity
  8
KIJUN
100
AcDbLine
 10
247.6539503192071
 20
894.9978453784956
 30
0.0
 11
249.2984733192025
 21
876.229404378561
 31
0.0
  0
LINE
  5
527F
330
2
100
AcDbEntity
  8
KIJUN
100
AcDbLine
 10
249.2984733192025
 20
876.229404378561
 30
0.0
 11
252.3524423190647
 21
858.842850378542
 31
0.0
  0
LINE
  5
5280
330
2
100
AcDbEntity
  8
KIJUN
100
AcDbLine
 10
252.3524423190647
 20
858.842850378542
 30
0.0
 11
255.8764383191262
 21
845.9468893785617
 31
0.0
  0
LINE
  5
5281
330
2
100
AcDbEntity
  8
KIJUN
100
AcDbLine
 10
255.8764383191262
 20
845.9468893785617
 30
0.0
 11
258.1169723192106
 21
839.6564523784931
 31
0.0
  0
LINE
  5
5282
330
2
100
AcDbEntity
  8
KIJUN
100
AcDbLine
 10
258.1169723192106
 20
839.6564523784931
 30
0.0
 11
261.1929123191258
 21
833.7755903785893
 31
0.0
  0
LINE
  5
5283
330
2
100
AcDbEntity
  8
KIJUN
100
AcDbLine
 10
261.1929123191258
 20
833.7755903785893
 30
0.0
 11
264.9213783191044
 21
828.0994523785652
 31
0.0
  0
LINE
  5
5284
330
2
100
AcDbEntity
  8
KIJUN
100
AcDbLine
 10
264.9213783191044
 20
828.0994523785652
 30
0.0
 11
268.362697319124
 21
823.8518103785192
 31
0.0
  0
LINE
  5
5285
330
2
100
AcDbEntity
  8
KIJUN
100
AcDbLine
 10
268.362697319124
 20
823.8518103785192
 30
0.0
 11
272.326240319202
 21
819.9113813785247
 31
0.0
  0
LINE
  5
5286
330
2
100
AcDbEntity
  8
KIJUN
100
AcDbLine
 10
272.326240319202
 20
819.9113813785247
 30
0.0
 11
276.7859723190886
 21
816.3548733785523
 31
0.0
  0
LINE
  5
5287
330
2
100
AcDbEntity
  8
KIJUN
100
AcDbLine
 10
276.7859723190886
 20
816.3548733785523
 30
0.0
 11
280.4055993191832
 21
813.4421283785581
 31
0.0
  0
LINE
  5
5288
330
2
100
AcDbEntity
  8
KIJUN
100
AcDbLine
 10
280.4055993191832
 20
813.4421283785581
 30
0.0
 11
284.2079793192206
 21
810.4782023785542
 31
0.0
  0
LINE
  5
5289
330
2
100
AcDbEntity
  8
KIJUN
100
AcDbLine
 10
284.2079793192206
 20
810.4782023785542
 30
0.0
 11
288.5324563190622
 21
808.1793753784827
 31
0.0
  0
LINE
  5
528A
330
2
100
AcDbEntity
  8
KIJUN
100
AcDbLine
 10
288.5324563190622
 20
808.1793753784827
 30
0.0
 11
294.5234273191709
 21
808.0644403785068
 31
0.0
  0
LINE
  5
528B
330
2
100
AcDbEntity
  8
KIJUN
100
AcDbLine
 10
294.5234273191709
 20
808.0644403785068
 30
0.0
 11
294.5015833191681
 21
805.458908378549
 31
0.0
  0
LINE
  5
528C
330
2
100
AcDbEntity
  8
KIJUN
100
AcDbLine
 10
294.5015833191681
 20
805.458908378549
 30
0.0
 11
294.9758013191495
 21
801.8042293784915
 31
0.0
  0
LINE
  5
528D
330
2
100
AcDbEntity
  8
KIJUN
100
AcDbLine
 10
294.9758013191495
 20
801.8042293784915
 30
0.0
 11
294.6409023192064
 21
799.1984433785785
 31
0.0
  0
LINE
  5
528E
330
2
100
AcDbEntity
  8
KIJUN
100
AcDbLine
 10
294.6409023192064
 20
799.1984433785785
 30
0.0
 11
293.9534513191136
 21
797.8208743785239
 31
0.0
  0
LINE
  5
528F
330
2
100
AcDbEntity
  8
KIJUN
100
AcDbLine
 10
293.9534513191136
 20
797.8208743785239
 30
0.0
 11
294.5450173190875
 21
796.6993373785031
 31
0.0
  0
LINE
  5
5290
330
2
100
AcDbEntity
  8
KIJUN
100
AcDbLine
 10
294.5450173190875
 20
796.6993373785031
 30
0.0
 11
293.700975319105
 21
795.8593593785211
 31
0.0
  0
LINE
  5
5291
330
2
100
AcDbEntity
  8
KIJUN
100
AcDbLine
 10
293.700975319105
 20
795.8593593785211
 30
0.0
 11
290.0593773192047
 21
794.4773453785696
 31
0.0
  0
LINE
  5
5292
330
2
100
AcDbEntity
  8
KIJUN
100
AcDbLine
 10
290.0593773192047
 20
794.4773453785696
 30
0.0
 11
325.8874743190354
 21
796.4349233785127
 31
0.0
  0
LINE
  5
5293
330
2
100
AcDbEntity
  8
KIJUN
100
AcDbLine
 10
325.8874743190354
 20
796.4349233785127
 30
0.0
 11
327.0619703190714
 21
797.8169373785736
 31
0.0
  0
LINE
  5
5294
330
2
100
AcDbEntity
  8
KIJUN
100
AcDbLine
 10
327.0619703190714
 20
797.8169373785736
 30
0.0
 11
322.7159033190799
 21
800.1194473785023
 31
0.0
  0
LINE
  5
5295
330
2
100
AcDbEntity
  8
KIJUN
100
AcDbLine
 10
322.7159033190799
 20
800.1194473785023
 30
0.0
 11
322.3937043190488
 21
801.5440063785376
 31
0.0
  0
LINE
  5
5296
330
2
100
AcDbEntity
  8
KIJUN
100
AcDbLine
 10
322.3937043190488
 20
801.5440063785376
 30
0.0
 11
322.9592353192238
 21
803.0708003785207
 31
0.0
  0
LINE
  5
5297
330
2
100
AcDbEntity
  8
KIJUN
100
AcDbLine
 10
322.9592353192238
 20
803.0708003785207
 30
0.0
 11
323.1854223191003
 21
804.7253563785584
 31
0.0
  0
LINE
  5
5298
330
2
100
AcDbEntity
  8
KIJUN
100
AcDbLine
 10
323.1854223191003
 20
804.7253563785584
 30
0.0
 11
324.7125973190959
 21
807.0368833785419
 31
0.0
  0
LINE
  5
5299
330
2
100
AcDbEntity
  8
KIJUN
100
AcDbLine
 10
324.7125973190959
 20
807.0368833785419
 30
0.0
 11
328.5106593190612
 21
808.3247903785109
 31
0.0
  0
LINE
  5
529A
330
2
100
AcDbEntity
  8
KIJUN
100
AcDbLine
 10
328.5106593190612
 20
808.3247903785109
 30
0.0
 11
331.2909433191489
 21
809.7918943785066
 31
0.0
  0
LINE
  5
529B
330
2
100
AcDbEntity
  8
KIJUN
100
AcDbLine
 10
331.2909433191489
 20
809.7918943785066
 30
0.0
 11
338.9264373190126
 21
814.9728593784843
 31
0.0
  0
LINE
  5
529C
330
2
100
AcDbEntity
  8
KIJUN
100
AcDbLine
 10
338.9264373190126
 20
814.9728593784843
 30
0.0
 11
344.0861933191009
 21
818.4060503785245
 31
0.0
  0
LINE
  5
529D
330
2
100
AcDbEntity
  8
KIJUN
100
AcDbLine
 10
344.0861933191009
 20
818.4060503785245
 30
0.0
 11
348.8022113191146
 21
821.7879333785189
 31
0.0
  0
LINE
  5
529E
330
2
100
AcDbEntity
  8
KIJUN
100
AcDbLine
 10
348.8022113191146
 20
821.7879333785189
 30
0.0
 11
352.7874713191595
 21
825.4513753785454
 31
0.0
  0
LINE
  5
529F
330
2
100
AcDbEntity
  8
KIJUN
100
AcDbLine
 10
352.7874713191595
 20
825.4513753785454
 30
0.0
 11
362.8899403190844
 21
839.1534053785676
 31
0.0
  0
LINE
  5
52A0
330
2
100
AcDbEntity
  8
KIJUN
100
AcDbLine
 10
362.8899403190844
 20
839.1534053785676
 30
0.0
 11
369.1153533190918
 21
853.6613773784942
 31
0.0
  0
LINE
  5
52A1
330
2
100
AcDbEntity
  8
KIJUN
100
AcDbLine
 10
369.1153533190918
 20
853.6613773784942
 30
0.0
 11
373.1093763190984
 21
869.8969303785801
 31
0.0
  0
LINE
  5
52A2
330
2
100
AcDbEntity
  8
KIJUN
100
AcDbLine
 10
373.1093763190984
 20
869.8969303785801
 30
0.0
 11
375.4588763191168
 21
885.7864083785193
 31
0.0
  0
LINE
  5
52A3
330
2
100
AcDbEntity
  8
KIJUN
100
AcDbLine
 10
375.4588763191168
 20
885.7864083785193
 30
0.0
 11
376.1634723190109
 21
902.1368963785883
 31
0.0
  0
LINE
  5
52A4
330
2
100
AcDbEntity
  8
KIJUN
100
AcDbLine
 10
376.1634723190109
 20
902.1368963785883
 30
0.0
 11
376.0458703191653
 21
917.6814423785277
 31
0.0
  0
LINE
  5
52A5
330
2
100
AcDbEntity
  8
KIJUN
100
AcDbLine
 10
376.0458703191653
 20
917.6814423785277
 30
0.0
 11
376.0632693190453
 21
920.385145378556
 31
0.0
  0
LINE
  5
52A6
330
2
100
AcDbEntity
  8
KIJUN
100
AcDbLine
 10
376.0632693190453
 20
920.385145378556
 30
0.0
 11
376.0284713190449
 21
923.037667378589
 31
0.0
  0
LINE
  5
52A7
330
2
100
AcDbEntity
  8
KIJUN
100
AcDbLine
 10
376.0284713190449
 20
923.037667378589
 30
0.0
 11
375.8109203190868
 21
925.7413703785083
 31
0.0
  0
LINE
  5
52A8
330
2
100
AcDbEntity
  8
KIJUN
100
AcDbLine
 10
375.8109203190868
 20
925.7413703785083
 30
0.0
 11
374.8279403191955
 21
927.7202843785003
 31
0.0
  0
LINE
  5
52A9
330
2
100
AcDbEntity
  8
KIJUN
100
AcDbLine
 10
374.8279403191955
 20
927.7202843785003
 30
0.0
 11
373.0354623190178
 21
929.2129153785957
 31
0.0
  0
LINE
  5
52AA
330
2
100
AcDbEntity
  8
KIJUN
100
AcDbLine
 10
373.0354623190178
 20
929.2129153785957
 30
0.0
 11
370.4074513192063
 21
930.1169013785353
 31
0.0
  0
LINE
  5
52AB
330
2
100
AcDbEntity
  8
KIJUN
100
AcDbLine
 10
370.4074513192063
 20
930.1169013785353
 30
0.0
 11
254.2319153191311
 21
930.1169013785353
 31
0.0
  0
LINE
  5
52AC
330
2
100
AcDbEntity
  8
KIJUN
100
AcDbLine
 10
291.5699153191124
 20
808.0699013785002
 30
0.0
 11
328.0069773190371
 21
808.208839378533
 31
0.0
  0
LINE
  5
52AD
330
2
100
AcDbEntity
  8
KIJUN
100
AcDbLine
 10
328.0069773190371
 20
808.208839378533
 30
0.0
 11
326.9893263191952
 21
807.2705633785249
 31
0.0
  0
LINE
  5
52AE
330
2
100
AcDbEntity
  8
KIJUN
100
AcDbLine
 10
326.9893263191952
 20
807.2705633785249
 30
0.0
 11
326.2398993191419
 21
806.0845103785053
 31
0.0
  0
LINE
  5
52AF
330
2
100
AcDbEntity
  8
KIJUN
100
AcDbLine
 10
326.2398993191419
 20
806.0845103785053
 30
0.0
 11
325.8929353190288
 21
804.5889583785848
 31
0.0
  0
LINE
  5
52B0
330
2
100
AcDbEntity
  8
KIJUN
100
AcDbLine
 10
325.8929353190288
 20
804.5889583785848
 30
0.0
 11
325.4606273191421
 21
801.9589153785366
 31
0.0
  0
LINE
  5
52B1
330
2
100
AcDbEntity
  8
KIJUN
100
AcDbLine
 10
325.4606273191421
 20
801.9589153785366
 30
0.0
 11
325.78879531912
 21
799.6075103785719
 31
0.0
  0
LINE
  5
52B2
330
2
100
AcDbEntity
  8
KIJUN
100
AcDbLine
 10
325.78879531912
 20
799.6075103785719
 30
0.0
 11
326.8999183191884
 21
797.9059643785607
 31
0.0
  0
LINE
  5
52B3
330
2
100
AcDbEntity
  8
KIJUN
100
AcDbLine
 10
326.8999183191884
 20
797.9059643785607
 30
0.0
 11
327.8912803191452
 21
796.4671813785774
 31
0.0
  0
LINE
  5
52B4
330
2
100
AcDbEntity
  8
KIJUN
100
AcDbLine
 10
327.8912803191452
 20
796.4671813785774
 30
0.0
 11
329.1290223191136
 21
795.2140723784853
 31
0.0
  0
LINE
  5
52B5
330
2
100
AcDbEntity
  8
KIJUN
100
AcDbLine
 10
329.1290223191136
 20
795.2140723784853
 30
0.0
 11
330.7243963190885
 21
794.1463833785767
 31
0.0
  0
LINE
  5
52B6
330
2
100
AcDbEntity
  8
KIJUN
100
AcDbLine
 10
330.7243963190885
 20
794.1463833785767
 30
0.0
 11
333.9453703191357
 21
792.0578683785448
 31
0.0
  0
LINE
  5
52B7
330
2
100
AcDbEntity
  8
KIJUN
100
AcDbLine
 10
333.9453703191357
 20
792.0578683785448
 30
0.0
 11
337.3678933190204
 21
790.5263753785862
 31
0.0
  0
LINE
  5
52B8
330
2
100
AcDbEntity
  8
KIJUN
100
AcDbLine
 10
337.3678933190204
 20
790.5263753785862
 30
0.0
 11
341.9979323190453
 21
789.5519043785773
 31
0.0
  0
LINE
  5
52B9
330
2
100
AcDbEntity
  8
KIJUN
100
AcDbLine
 10
341.9979323190453
 20
789.5519043785773
 30
0.0
 11
347.735411319034
 21
788.2989223785358
 31
0.0
  0
LINE
  5
52BA
330
2
100
AcDbEntity
  8
KIJUN
100
AcDbLine
 10
347.735411319034
 20
788.2989223785358
 30
0.0
 11
274.2574023192101
 21
788.2989223785358
 31
0.0
  0
LINE
  5
52BB
330
2
100
AcDbEntity
  8
KIJUN
100
AcDbLine
 10
274.2574023192101
 20
788.2989223785358
 30
0.0
 11
280.5983853190664
 21
789.5519043785773
 31
0.0
  0
LINE
  5
52BC
330
2
100
AcDbEntity
  8
KIJUN
100
AcDbLine
 10
280.5983853190664
 20
789.5519043785773
 30
0.0
 11
283.3164393191073
 21
790.2478643785529
 31
0.0
  0
LINE
  5
52BD
330
2
100
AcDbEntity
  8
KIJUN
100
AcDbLine
 10
283.3164393191073
 20
790.2478643785529
 30
0.0
 11
285.9334013191146
 21
791.3619083785691
 31
0.0
  0
LINE
  5
52BE
330
2
100
AcDbEntity
  8
KIJUN
100
AcDbLine
 10
285.9334013191146
 20
791.3619083785691
 30
0.0
 11
288.4493983191242
 21
793.0328473784998
 31
0.0
  0
LINE
  5
52BF
330
2
100
AcDbEntity
  8
KIJUN
100
AcDbLine
 10
288.4493983191242
 20
793.0328473784998
 30
0.0
 11
290.5634403191325
 21
794.7034053785268
 31
0.0
  0
LINE
  5
52C0
330
2
100
AcDbEntity
  8
KIJUN
100
AcDbLine
 10
290.5634403191325
 20
794.7034053785268
 30
0.0
 11
292.1739273191524
 21
796.5134093785113
 31
0.0
  0
LINE
  5
52C1
330
2
100
AcDbEntity
  8
KIJUN
100
AcDbLine
 10
292.1739273191524
 20
796.5134093785113
 30
0.0
 11
293.2808593191912
 21
799.4374573785267
 31
0.0
  0
LINE
  5
52C2
330
2
100
AcDbEntity
  8
KIJUN
100
AcDbLine
 10
293.2808593191912
 20
799.4374573785267
 30
0.0
 11
293.4264013190222
 21
800.7576223785603
 31
0.0
  0
LINE
  5
52C3
330
2
100
AcDbEntity
  8
KIJUN
100
AcDbLine
 10
293.4264013190222
 20
800.7576223785603
 30
0.0
 11
293.5716893192327
 21
802.015684378583
 31
0.0
  0
LINE
  5
52C4
330
2
100
AcDbEntity
  8
KIJUN
100
AcDbLine
 10
293.5716893192327
 20
802.015684378583
 30
0.0
 11
293.5828653190802
 21
803.3358493785003
 31
0.0
  0
LINE
  5
52C5
330
2
100
AcDbEntity
  8
KIJUN
100
AcDbLine
 10
293.5828653190802
 20
803.3358493785003
 30
0.0
 11
293.1727823190995
 21
805.1821753785501
 31
0.0
  0
LINE
  5
52C6
330
2
100
AcDbEntity
  8
KIJUN
100
AcDbLine
 10
293.1727823190995
 20
805.1821753785501
 30
0.0
 11
292.5167003192291
 21
806.7807243785669
 31
0.0
  0
LINE
  5
52C7
330
2
100
AcDbEntity
  8
KIJUN
100
AcDbLine
 10
292.5167003192291
 20
806.7807243785669
 30
0.0
 11
291.5699153191124
 21
808.0699013785002
 31
0.0
  0
LINE
  5
52C8
330
2
100
AcDbEntity
  8
KIJUN
100
AcDbLine
 10
272.3929153191384
 20
788.3849013785314
 30
0.0
 11
350.298906319189
 21
788.3849013785314
 31
0.0
  0
LINE
  5
52C9
330
2
100
AcDbEntity
  8
KIJUN
100
AcDbLine
 10
350.298906319189
 20
788.3849013785314
 30
0.0
 11
350.298906319189
 21
784.4279623784918
 31
0.0
  0
LINE
  5
52CA
330
2
100
AcDbEntity
  8
KIJUN
100
AcDbLine
 10
350.298906319189
 20
784.4279623784918
 30
0.0
 11
272.3929153191384
 21
784.4279623784918
 31
0.0
  0
LINE
  5
52CB
330
2
100
AcDbEntity
  8
KIJUN
100
AcDbLine
 10
272.3929153191384
 20
784.4279623784918
 30
0.0
 11
272.3929153191384
 21
788.3849013785314
 31
0.0
  0
LINE
  5
52CC
330
2
100
AcDbEntity
  8
KIJUN
100
AcDbLine
 10
271.1229153191052
 20
773.652901378535
 30
0.0
 11
351.243913319162
 21
773.652901378535
 31
0.0
  0
LINE
  5
52CD
330
2
100
AcDbEntity
  8
KIJUN
100
AcDbLine
 10
351.243913319162
 20
773.652901378535
 30
0.0
 11
351.243913319162
 21
770.509905378562
 31
0.0
  0
LINE
  5
52CE
330
2
100
AcDbEntity
  8
KIJUN
100
AcDbLine
 10
351.243913319162
 20
770.509905378562
 30
0.0
 11
271.1229153191052
 21
770.509905378562
 31
0.0
  0
LINE
  5
52CF
330
2
100
AcDbEntity
  8
KIJUN
100
AcDbLine
 10
271.1229153191052
 20
770.509905378562
 30
0.0
 11
271.1229153191052
 21
773.652901378535
 31
0.0
  0
LINE
  5
52D0
330
2
100
AcDbEntity
  8
KIJUN
100
AcDbLine
 10
286.4899153190017
 20
668.1159013785238
 30
0.0
 11
337.8229343192179
 21
668.1159013785238
 31
0.0
  0
LINE
  5
52D1
330
2
100
AcDbEntity
  8
KIJUN
100
AcDbLine
 10
337.8229343192179
 20
668.1159013785238
 30
0.0
 11
337.8229343192179
 21
664.9729053785433
 31
0.0
  0
LINE
  5
52D2
330
2
100
AcDbEntity
  8
KIJUN
100
AcDbLine
 10
337.8229343192179
 20
664.9729053785433
 30
0.0
 11
286.4899153190017
 21
664.9729053785433
 31
0.0
  0
LINE
  5
52D3
330
2
100
AcDbEntity
  8
KIJUN
100
AcDbLine
 10
286.4899153190017
 20
664.9729053785433
 30
0.0
 11
286.4899153190017
 21
668.1159013785238
 31
0.0
  0
LINE
  5
52D4
330
2
100
AcDbEntity
  8
KIJUN
100
AcDbLine
 10
266.6923933191829
 20
929.0799463785026
 30
0.0
 11
262.9053803190218
 21
927.4499013785703
 31
0.0
  0
LINE
  5
52D5
330
2
100
AcDbEntity
  8
KIJUN
100
AcDbLine
 10
262.9053803190218
 20
927.4499013785703
 30
0.0
 11
258.9879383190673
 21
927.4499013785703
 31
0.0
  0
LINE
  5
52D6
330
2
100
AcDbEntity
  8
KIJUN
100
AcDbLine
 10
258.9879383190673
 20
927.4499013785703
 30
0.0
 11
255.4624183191879
 21
928.9633603785429
 31
0.0
  0
LINE
  5
52D7
330
2
100
AcDbEntity
  8
KIJUN
100
AcDbLine
 10
255.4624183191879
 20
928.9633603785429
 30
0.0
 11
255.4624183191879
 21
900.6743643785252
 31
0.0
  0
LINE
  5
52D8
330
2
100
AcDbEntity
  8
KIJUN
100
AcDbLine
 10
255.4624183191879
 20
900.6743643785252
 30
0.0
 11
257.1599003190893
 21
880.9999053785528
 31
0.0
  0
LINE
  5
52D9
330
2
100
AcDbEntity
  8
KIJUN
100
AcDbLine
 10
257.1599003190893
 20
880.9999053785528
 30
0.0
 11
259.7714013190962
 21
862.4899093785593
 31
0.0
  0
LINE
  5
52DA
330
2
100
AcDbEntity
  8
KIJUN
100
AcDbLine
 10
259.7714013190962
 20
862.4899093785593
 30
0.0
 11
264.4724333191225
 21
845.7259093784909
 31
0.0
  0
LINE
  5
52DB
330
2
100
AcDbEntity
  8
KIJUN
100
AcDbLine
 10
264.4724333191225
 20
845.7259093784909
 30
0.0
 11
270.3484693191313
 21
832.4549173785003
 31
0.0
  0
LINE
  5
52DC
330
2
100
AcDbEntity
  8
KIJUN
100
AcDbLine
 10
270.3484693191313
 20
832.4549173785003
 30
0.0
 11
278.4444653192004
 21
820.2309133785842
 31
0.0
  0
LINE
  5
52DD
330
2
100
AcDbEntity
  8
KIJUN
100
AcDbLine
 10
278.4444653192004
 20
820.2309133785842
 30
0.0
 11
292.0249563190846
 21
808.0074173784836
 31
0.0
  0
LINE
  5
52DE
330
2
100
AcDbEntity
  8
KIJUN
100
AcDbLine
 10
292.0249563190846
 20
808.0074173784836
 30
0.0
 11
295.5504763191966
 21
808.0074173784836
 31
0.0
  0
LINE
  5
52DF
330
2
100
AcDbEntity
  8
KIJUN
100
AcDbLine
 10
295.5504763191966
 20
808.0074173784836
 30
0.0
 11
282.7534483190939
 21
825.5863763785042
 31
0.0
  0
LINE
  5
52E0
330
2
100
AcDbEntity
  8
KIJUN
100
AcDbLine
 10
282.7534483190939
 20
825.5863763785042
 30
0.0
 11
275.9633933192199
 21
845.7259093784909
 31
0.0
  0
LINE
  5
52E1
330
2
100
AcDbEntity
  8
KIJUN
100
AcDbLine
 10
275.9633933192199
 20
845.7259093784909
 30
0.0
 11
271.2623613191936
 21
865.6334133785954
 31
0.0
  0
LINE
  5
52E2
330
2
100
AcDbEntity
  8
KIJUN
100
AcDbLine
 10
271.2623613191936
 20
865.6334133785954
 30
0.0
 11
269.0429093190723
 21
885.7729463785823
 31
0.0
  0
LINE
  5
52E3
330
2
100
AcDbEntity
  8
KIJUN
100
AcDbLine
 10
269.0429093190723
 20
885.7729463785823
 30
0.0
 11
267.344919318999
 21
904.5158603785335
 31
0.0
  0
LINE
  5
52E4
330
2
100
AcDbEntity
  8
KIJUN
100
AcDbLine
 10
267.344919318999
 20
904.5158603785335
 30
0.0
 11
266.6923933191829
 21
929.0799463785026
 31
0.0
  0
LINE
  5
52E5
330
2
100
AcDbEntity
  8
KIJUN
100
AcDbLine
 10
255.0044563191659
 20
929.3339463785619
 30
0.0
 11
252.6544483192083
 21
927.7039013784984
 31
0.0
  0
LINE
  5
52E6
330
2
100
AcDbEntity
  8
KIJUN
100
AcDbLine
 10
252.6544483192083
 20
927.7039013784984
 30
0.0
 11
249.9118833191787
 21
927.9369463785064
 31
0.0
  0
LINE
  5
52E7
330
2
100
AcDbEntity
  8
KIJUN
100
AcDbLine
 10
249.9118833191787
 20
927.9369463785064
 30
0.0
 11
247.8228603190983
 21
929.3339463785619
 31
0.0
  0
LINE
  5
52E8
330
2
100
AcDbEntity
  8
KIJUN
100
AcDbLine
 10
247.8228603190983
 20
929.3339463785619
 30
0.0
 11
247.8228603190983
 21
899.7644093785295
 31
0.0
  0
LINE
  5
52E9
330
2
100
AcDbEntity
  8
KIJUN
100
AcDbLine
 10
247.8228603190983
 20
899.7644093785295
 30
0.0
 11
249.1284203191572
 21
876.4808643785604
 31
0.0
  0
LINE
  5
52EA
330
2
100
AcDbEntity
  8
KIJUN
100
AcDbLine
 10
249.1284203191572
 20
876.4808643785604
 30
0.0
 11
253.3069743190242
 21
856.2248723785328
 31
0.0
  0
LINE
  5
52EB
330
2
100
AcDbEntity
  8
KIJUN
100
AcDbLine
 10
253.3069743190242
 20
856.2248723785328
 30
0.0
 11
259.7053613191492
 21
839.1113683785466
 31
0.0
  0
LINE
  5
52EC
330
2
100
AcDbEntity
  8
KIJUN
100
AcDbLine
 10
259.7053613191492
 20
839.1113683785466
 30
0.0
 11
268.5849473190501
 21
825.3744133785898
 31
0.0
  0
LINE
  5
52ED
330
2
100
AcDbEntity
  8
KIJUN
100
AcDbLine
 10
268.5849473190501
 20
825.3744133785898
 30
0.0
 11
279.8149223190376
 21
815.7118723784757
 31
0.0
  0
LINE
  5
52EE
330
2
100
AcDbEntity
  8
KIJUN
100
AcDbLine
 10
279.8149223190376
 20
815.7118723784757
 30
0.0
 11
289.8693853191034
 21
808.2614173785353
 31
0.0
  0
LINE
  5
52EF
330
2
100
AcDbEntity
  8
KIJUN
100
AcDbLine
 10
289.8693853191034
 20
808.2614173785353
 30
0.0
 11
292.4808863191174
 21
808.2614173785353
 31
0.0
  0
LINE
  5
52F0
330
2
100
AcDbEntity
  8
KIJUN
100
AcDbLine
 10
292.4808863191174
 20
808.2614173785353
 30
0.0
 11
279.4228733191521
 21
820.950876378602
 31
0.0
  0
LINE
  5
52F1
330
2
100
AcDbEntity
  8
KIJUN
100
AcDbLine
 10
279.4228733191521
 20
820.950876378602
 30
0.0
 11
267.8013573192109
 21
836.0849583785334
 31
0.0
  0
LINE
  5
52F2
330
2
100
AcDbEntity
  8
KIJUN
100
AcDbLine
 10
267.8013573192109
 20
836.0849583785334
 30
0.0
 11
260.6193803190217
 21
856.6904543784859
 31
0.0
  0
LINE
  5
52F3
330
2
100
AcDbEntity
  8
KIJUN
100
AcDbLine
 10
260.6193803190217
 20
856.6904543784859
 30
0.0
 11
256.7024463189991
 21
878.809409378528
 31
0.0
  0
LINE
  5
52F4
330
2
100
AcDbEntity
  8
KIJUN
100
AcDbLine
 10
256.7024463189991
 20
878.809409378528
 30
0.0
 11
255.0044563191659
 21
900.8119053785433
 31
0.0
  0
LINE
  5
52F5
330
2
100
AcDbEntity
  8
KIJUN
100
AcDbLine
 10
255.0044563191659
 20
900.8119053785433
 30
0.0
 11
255.0044563191659
 21
929.3339463785619
 31
0.0
  0
LINE
  5
52F6
330
2
100
AcDbEntity
  8
KIJUN
100
AcDbLine
 10
295.7789493191485
 20
929.4289423784888
 30
0.0
 11
292.6449703192229
 21
927.5663603784874
 31
0.0
  0
LINE
  5
52F7
330
2
100
AcDbEntity
  8
KIJUN
100
AcDbLine
 10
292.6449703192229
 20
927.5663603784874
 30
0.0
 11
287.8133823191129
 21
926.8678603785756
 31
0.0
  0
LINE
  5
52F8
330
2
100
AcDbEntity
  8
KIJUN
100
AcDbLine
 10
287.8133823191129
 20
926.8678603785756
 30
0.0
 11
282.7209363191832
 21
927.6829463785709
 31
0.0
  0
LINE
  5
52F9
330
2
100
AcDbEntity
  8
KIJUN
100
AcDbLine
 10
282.7209363191832
 20
927.6829463785709
 30
0.0
 11
279.717386319051
 21
929.545401378537
 31
0.0
  0
LINE
  5
52FA
330
2
100
AcDbEntity
  8
KIJUN
100
AcDbLine
 10
279.717386319051
 20
929.545401378537
 30
0.0
 11
281.4148683191852
 21
886.1224503785074
 31
0.0
  0
LINE
  5
52FB
330
2
100
AcDbEntity
  8
KIJUN
100
AcDbLine
 10
281.4148683191852
 20
886.1224503785074
 30
0.0
 11
283.1124773191223
 21
865.1674503785129
 31
0.0
  0
LINE
  5
52FC
330
2
100
AcDbEntity
  8
KIJUN
100
AcDbLine
 10
283.1124773191223
 20
865.1674503785129
 30
0.0
 11
286.5074413191578
 21
847.5888723785123
 31
0.0
  0
LINE
  5
52FD
330
2
100
AcDbEntity
  8
KIJUN
100
AcDbLine
 10
286.5074413191578
 20
847.5888723785123
 30
0.0
 11
289.9029133191323
 21
836.1799543785842
 31
0.0
  0
LINE
  5
52FE
330
2
100
AcDbEntity
  8
KIJUN
100
AcDbLine
 10
289.9029133191323
 20
836.1799543785842
 30
0.0
 11
295.5174563190992
 21
821.2789173785299
 31
0.0
  0
LINE
  5
52FF
330
2
100
AcDbEntity
  8
KIJUN
100
AcDbLine
 10
295.5174563190992
 20
821.2789173785299
 30
0.0
 11
301.393873318997
 21
808.3569213785253
 31
0.0
  0
LINE
  5
5300
330
2
100
AcDbEntity
  8
KIJUN
100
AcDbLine
 10
301.393873318997
 20
808.3569213785253
 30
0.0
 11
305.7028563191377
 21
808.3569213785253
 31
0.0
  0
LINE
  5
5301
330
2
100
AcDbEntity
  8
KIJUN
100
AcDbLine
 10
305.7028563191377
 20
808.3569213785253
 30
0.0
 11
299.6963913191028
 21
843.0483683785373
 31
0.0
  0
LINE
  5
5302
330
2
100
AcDbEntity
  8
KIJUN
100
AcDbLine
 10
299.6963913191028
 20
843.0483683785373
 30
0.0
 11
297.6068603190833
 21
873.2004543785029
 31
0.0
  0
LINE
  5
5303
330
2
100
AcDbEntity
  8
KIJUN
100
AcDbLine
 10
297.6068603190833
 20
873.2004543785029
 30
0.0
 11
296.8233973190472
 21
892.6413603785427
 31
0.0
  0
LINE
  5
5304
330
2
100
AcDbEntity
  8
KIJUN
100
AcDbLine
 10
296.8233973190472
 20
892.6413603785427
 30
0.0
 11
295.909378319182
 21
915.4589423785386
 31
0.0
  0
LINE
  5
5305
330
2
100
AcDbEntity
  8
KIJUN
100
AcDbLine
 10
295.909378319182
 20
915.4589423785386
 30
0.0
 11
295.7789493191485
 21
929.4289423784888
 31
0.0
  0
LINE
  5
5306
330
2
100
AcDbEntity
  8
KIJUN
100
AcDbLine
 10
279.7694563191289
 20
929.5983603785593
 30
0.0
 11
275.0689323190345
 21
927.61944637856
 31
0.0
  0
LINE
  5
5307
330
2
100
AcDbEntity
  8
KIJUN
100
AcDbLine
 10
275.0689323190345
 20
927.61944637856
 30
0.0
 11
270.2374713192075
 21
927.61944637856
 31
0.0
  0
LINE
  5
5308
330
2
100
AcDbEntity
  8
KIJUN
100
AcDbLine
 10
270.2374713192075
 20
927.61944637856
 30
0.0
 11
266.1894733191839
 21
929.4819013785259
 31
0.0
  0
LINE
  5
5309
330
2
100
AcDbEntity
  8
KIJUN
100
AcDbLine
 10
266.1894733191839
 20
929.4819013785259
 30
0.0
 11
267.4954143191244
 21
899.4469093785758
 31
0.0
  0
LINE
  5
530A
330
2
100
AcDbEntity
  8
KIJUN
100
AcDbLine
 10
267.4954143191244
 20
899.4469093785758
 30
0.0
 11
270.3679003190009
 21
870.4594133785306
 31
0.0
  0
LINE
  5
530B
330
2
100
AcDbEntity
  8
KIJUN
100
AcDbLine
 10
270.3679003190009
 20
870.4594133785306
 30
0.0
 11
275.0689323190345
 21
846.0119133785287
 31
0.0
  0
LINE
  5
530C
330
2
100
AcDbEntity
  8
KIJUN
100
AcDbLine
 10
275.0689323190345
 20
846.0119133785287
 30
0.0
 11
281.8588603191056
 21
827.734454378597
 31
0.0
  0
LINE
  5
530D
330
2
100
AcDbEntity
  8
KIJUN
100
AcDbLine
 10
281.8588603191056
 20
827.734454378597
 30
0.0
 11
292.1749433190307
 21
812.0184583785981
 31
0.0
  0
LINE
  5
530E
330
2
100
AcDbEntity
  8
KIJUN
100
AcDbLine
 10
292.1749433190307
 20
812.0184583785981
 30
0.0
 11
295.4394783190401
 21
808.1769623785898
 31
0.0
  0
LINE
  5
530F
330
2
100
AcDbEntity
  8
KIJUN
100
AcDbLine
 10
295.4394783190401
 20
808.1769623785898
 30
0.0
 11
302.0989773190702
 21
808.1769623785898
 31
0.0
  0
LINE
  5
5310
330
2
100
AcDbEntity
  8
KIJUN
100
AcDbLine
 10
302.0989773190702
 20
808.1769623785898
 30
0.0
 11
292.9584063190668
 21
828.0839583785223
 31
0.0
  0
LINE
  5
5311
330
2
100
AcDbEntity
  8
KIJUN
100
AcDbLine
 10
292.9584063190668
 20
828.0839583785223
 30
0.0
 11
286.5598923191392
 21
849.3879543784956
 31
0.0
  0
LINE
  5
5312
330
2
100
AcDbEntity
  8
KIJUN
100
AcDbLine
 10
286.5598923191392
 20
849.3879543784956
 30
0.0
 11
282.7728793192036
 21
870.8084093785242
 31
0.0
  0
LINE
  5
5313
330
2
100
AcDbEntity
  8
KIJUN
100
AcDbLine
 10
282.7728793192036
 20
870.8084093785242
 30
0.0
 11
281.4674463192023
 21
890.9484503785666
 31
0.0
  0
LINE
  5
5314
330
2
100
AcDbEntity
  8
KIJUN
100
AcDbLine
 10
281.4674463192023
 20
890.9484503785666
 30
0.0
 11
280.6838563191231
 21
912.019401378539
 31
0.0
  0
LINE
  5
5315
330
2
100
AcDbEntity
  8
KIJUN
100
AcDbLine
 10
280.6838563191231
 20
912.019401378539
 30
0.0
 11
279.7694563191289
 21
929.5983603785593
 31
0.0
  0
LINE
  5
5316
330
2
100
AcDbEntity
  8
KIJUN
100
AcDbLine
 10
287.6679673190917
 20
974.1859013785092
 30
0.0
 11
336.722352319015
 21
974.1859013785092
 31
0.0
  0
LINE
  5
5317
330
2
100
AcDbEntity
  8
KIJUN
100
AcDbLine
 10
336.722352319015
 20
974.1859013785092
 30
0.0
 11
338.6594833191957
 21
973.5702053785594
 31
0.0
  0
LINE
  5
5318
330
2
100
AcDbEntity
  8
KIJUN
100
AcDbLine
 10
338.6594833191957
 20
973.5702053785594
 30
0.0
 11
340.0407353190058
 21
971.9560353785587
 31
0.0
  0
LINE
  5
5319
330
2
100
AcDbEntity
  8
KIJUN
100
AcDbLine
 10
340.0407353190058
 20
971.9560353785587
 30
0.0
 11
340.5674043191864
 21
969.6923873785003
 31
0.0
  0
LINE
  5
531A
330
2
100
AcDbEntity
  8
KIJUN
100
AcDbLine
 10
340.5674043191864
 20
969.6923873785003
 30
0.0
 11
340.5674043191864
 21
968.1428603785557
 31
0.0
  0
LINE
  5
531B
330
2
100
AcDbEntity
  8
KIJUN
100
AcDbLine
 10
340.5674043191864
 20
968.1428603785557
 30
0.0
 11
340.0407353190058
 21
965.8792123784971
 31
0.0
  0
LINE
  5
531C
330
2
100
AcDbEntity
  8
KIJUN
100
AcDbLine
 10
340.0407353190058
 20
965.8792123784971
 30
0.0
 11
338.6594833191957
 21
964.2650423785037
 31
0.0
  0
LINE
  5
531D
330
2
100
AcDbEntity
  8
KIJUN
100
AcDbLine
 10
338.6594833191957
 20
964.2650423785037
 30
0.0
 11
336.722352319015
 21
963.6493463785541
 31
0.0
  0
LINE
  5
531E
330
2
100
AcDbEntity
  8
KIJUN
100
AcDbLine
 10
336.722352319015
 20
963.6493463785541
 30
0.0
 11
287.6679673190917
 21
963.6493463785541
 31
0.0
  0
LINE
  5
531F
330
2
100
AcDbEntity
  8
KIJUN
100
AcDbLine
 10
287.6679673190917
 20
963.6493463785541
 30
0.0
 11
285.7310903190046
 21
964.2650423785037
 31
0.0
  0
LINE
  5
5320
330
2
100
AcDbEntity
  8
KIJUN
100
AcDbLine
 10
285.7310903190046
 20
964.2650423785037
 30
0.0
 11
284.3497113191515
 21
965.8792123784971
 31
0.0
  0
LINE
  5
5321
330
2
100
AcDbEntity
  8
KIJUN
100
AcDbLine
 10
284.3497113191515
 20
965.8792123784971
 30
0.0
 11
283.8229153191605
 21
968.1428603785557
 31
0.0
  0
LINE
  5
5322
330
2
100
AcDbEntity
  8
KIJUN
100
AcDbLine
 10
283.8229153191605
 20
968.1428603785557
 30
0.0
 11
283.8229153191605
 21
969.6923873785003
 31
0.0
  0
LINE
  5
5323
330
2
100
AcDbEntity
  8
KIJUN
100
AcDbLine
 10
283.8229153191605
 20
969.6923873785003
 30
0.0
 11
284.3497113191515
 21
971.9560353785587
 31
0.0
  0
LINE
  5
5324
330
2
100
AcDbEntity
  8
KIJUN
100
AcDbLine
 10
284.3497113191515
 20
971.9560353785587
 30
0.0
 11
285.7310903190046
 21
973.5702053785594
 31
0.0
  0
LINE
  5
5325
330
2
100
AcDbEntity
  8
KIJUN
100
AcDbLine
 10
285.7310903190046
 20
973.5702053785594
 30
0.0
 11
287.6679673190917
 21
974.1859013785092
 31
0.0
  0
LINE
  5
532A
330
2
100
AcDbEntity
  8
KIJUN
100
AcDbLine
 10
247.8819153192271
 20
929.3549013784891
 30
0.0
 11
248.8883903192143
 21
928.3074053785989
 31
0.0
  0
LINE
  5
532B
330
2
100
AcDbEntity
  8
KIJUN
100
AcDbLine
 10
248.8883903192143
 20
928.3074053785989
 30
0.0
 11
250.3984203191901
 21
927.9579013785573
 31
0.0
  0
LINE
  5
532C
330
2
100
AcDbEntity
  8
KIJUN
100
AcDbLine
 10
250.3984203191901
 20
927.9579013785573
 30
0.0
 11
252.6129193190097
 21
927.9579013785573
 31
0.0
  0
LINE
  5
532D
330
2
100
AcDbEntity
  8
KIJUN
100
AcDbLine
 10
252.6129193190097
 20
927.9579013785573
 30
0.0
 11
253.8204353191286
 21
928.5399423785513
 31
0.0
  0
LINE
  5
532E
330
2
100
AcDbEntity
  8
KIJUN
100
AcDbLine
 10
253.8204353191286
 20
928.5399423785513
 30
0.0
 11
255.1289163190195
 21
929.7038973785916
 31
0.0
  0
LINE
  5
532F
330
2
100
AcDbEntity
  8
KIJUN
100
AcDbLine
 10
255.1289163190195
 20
929.7038973785916
 30
0.0
 11
247.8819153192271
 21
929.3549013784891
 31
0.0
  0
LINE
  5
5330
330
2
100
AcDbEntity
  8
KIJUN
100
AcDbLine
 10
326.6038813192317
 20
929.682942378548
 30
0.0
 11
329.7378603191573
 21
927.8203603785463
 31
0.0
  0
LINE
  5
5331
330
2
100
AcDbEntity
  8
KIJUN
100
AcDbLine
 10
329.7378603191573
 20
927.8203603785463
 30
0.0
 11
334.5694483190273
 21
927.1218603785111
 31
0.0
  0
LINE
  5
5332
330
2
100
AcDbEntity
  8
KIJUN
100
AcDbLine
 10
334.5694483190273
 20
927.1218603785111
 30
0.0
 11
339.661894319197
 21
927.9369463785064
 31
0.0
  0
LINE
  5
5333
330
2
100
AcDbEntity
  8
KIJUN
100
AcDbLine
 10
339.661894319197
 20
927.9369463785064
 30
0.0
 11
342.6654443190892
 21
929.7994013785887
 31
0.0
  0
LINE
  5
5334
330
2
100
AcDbEntity
  8
KIJUN
100
AcDbLine
 10
342.6654443190892
 20
929.7994013785887
 30
0.0
 11
340.9679623191878
 21
886.3764503785592
 31
0.0
  0
LINE
  5
5335
330
2
100
AcDbEntity
  8
KIJUN
100
AcDbLine
 10
340.9679623191878
 20
886.3764503785592
 30
0.0
 11
339.2703533190176
 21
865.4214503785647
 31
0.0
  0
LINE
  5
5336
330
2
100
AcDbEntity
  8
KIJUN
100
AcDbLine
 10
339.2703533190176
 20
865.4214503785647
 30
0.0
 11
335.8753893192152
 21
847.8428723785569
 31
0.0
  0
LINE
  5
5337
330
2
100
AcDbEntity
  8
KIJUN
100
AcDbLine
 10
335.8753893192152
 20
847.8428723785569
 30
0.0
 11
332.4799173190077
 21
836.4339543785195
 31
0.0
  0
LINE
  5
5338
330
2
100
AcDbEntity
  8
KIJUN
100
AcDbLine
 10
332.4799173190077
 20
836.4339543785195
 30
0.0
 11
326.865374319048
 21
821.5329173785816
 31
0.0
  0
LINE
  5
5339
330
2
100
AcDbEntity
  8
KIJUN
100
AcDbLine
 10
326.865374319048
 20
821.5329173785816
 30
0.0
 11
319.8139533191607
 21
808.1449583784946
 31
0.0
  0
LINE
  5
533A
330
2
100
AcDbEntity
  8
KIJUN
100
AcDbLine
 10
319.8139533191607
 20
808.1449583784946
 30
0.0
 11
316.6799743190022
 21
808.1449583784946
 31
0.0
  0
LINE
  5
533B
330
2
100
AcDbEntity
  8
KIJUN
100
AcDbLine
 10
316.6799743190022
 20
808.1449583784946
 30
0.0
 11
322.6864393190372
 21
843.302368378589
 31
0.0
  0
LINE
  5
533C
330
2
100
AcDbEntity
  8
KIJUN
100
AcDbLine
 10
322.6864393190372
 20
843.302368378589
 30
0.0
 11
324.7759703190641
 21
873.4544543785546
 31
0.0
  0
LINE
  5
533D
330
2
100
AcDbEntity
  8
KIJUN
100
AcDbLine
 10
324.7759703190641
 20
873.4544543785546
 30
0.0
 11
325.5594333190929
 21
892.8953603785869
 31
0.0
  0
LINE
  5
533E
330
2
100
AcDbEntity
  8
KIJUN
100
AcDbLine
 10
325.5594333190929
 20
892.8953603785869
 30
0.0
 11
326.4734523191983
 21
915.7129423785901
 31
0.0
  0
LINE
  5
533F
330
2
100
AcDbEntity
  8
KIJUN
100
AcDbLine
 10
326.4734523191983
 20
915.7129423785901
 30
0.0
 11
326.6038813192317
 21
929.682942378548
 31
0.0
  0
LINE
  5
5340
330
2
100
AcDbEntity
  8
KIJUN
100
AcDbLine
 10
295.8914713191298
 20
929.5663563785806
 30
0.0
 11
298.8948943192045
 21
927.1218603785111
 31
0.0
  0
LINE
  5
5341
330
2
100
AcDbEntity
  8
KIJUN
100
AcDbLine
 10
298.8948943192045
 20
927.1218603785111
 30
0.0
 11
302.8124633192019
 21
926.1904423785258
 31
0.0
  0
LINE
  5
5342
330
2
100
AcDbEntity
  8
KIJUN
100
AcDbLine
 10
302.8124633192019
 20
926.1904423785258
 30
0.0
 11
307.7743533190623
 21
927.3549053785195
 31
0.0
  0
LINE
  5
5343
330
2
100
AcDbEntity
  8
KIJUN
100
AcDbLine
 10
307.7743533190623
 20
927.3549053785195
 30
0.0
 11
311.0388883190717
 21
929.1009013785609
 31
0.0
  0
LINE
  5
5344
330
2
100
AcDbEntity
  8
KIJUN
100
AcDbLine
 10
311.0388883190717
 20
929.1009013785609
 30
0.0
 11
311.5608583190515
 21
810.8223723785288
 31
0.0
  0
LINE
  5
5345
330
2
100
AcDbEntity
  8
KIJUN
100
AcDbLine
 10
311.5608583190515
 20
810.8223723785288
 30
0.0
 11
311.1694443191336
 21
808.2614173785353
 31
0.0
  0
LINE
  5
5346
330
2
100
AcDbEntity
  8
KIJUN
100
AcDbLine
 10
311.1694443191336
 20
808.2614173785353
 30
0.0
 11
305.2934083191394
 21
808.0283723785344
 31
0.0
  0
LINE
  5
5347
330
2
100
AcDbEntity
  8
KIJUN
100
AcDbLine
 10
305.2934083191394
 20
808.0283723785344
 30
0.0
 11
303.1305983190214
 21
819.8556283785897
 31
0.0
  0
LINE
  5
5348
330
2
100
AcDbEntity
  8
KIJUN
100
AcDbLine
 10
303.1305983190214
 20
819.8556283785897
 30
0.0
 11
301.2126443191046
 21
832.0102903784814
 31
0.0
  0
LINE
  5
5349
330
2
100
AcDbEntity
  8
KIJUN
100
AcDbLine
 10
301.2126443191046
 20
832.0102903784814
 30
0.0
 11
299.6374633190244
 21
844.3394503785407
 31
0.0
  0
LINE
  5
534A
330
2
100
AcDbEntity
  8
KIJUN
100
AcDbLine
 10
299.6374633190244
 20
844.3394503785407
 30
0.0
 11
298.5029723191292
 21
856.6904543784859
 31
0.0
  0
LINE
  5
534B
330
2
100
AcDbEntity
  8
KIJUN
100
AcDbLine
 10
298.5029723191292
 20
856.6904543784859
 30
0.0
 11
296.2833933191978
 21
895.1074463785136
 31
0.0
  0
LINE
  5
534C
330
2
100
AcDbEntity
  8
KIJUN
100
AcDbLine
 10
296.2833933191978
 20
895.1074463785136
 30
0.0
 11
295.8914713191298
 21
929.5663563785806
 31
0.0
  0
LINE
  5
534D
330
2
100
AcDbEntity
  8
KIJUN
100
AcDbLine
 10
326.4913593190249
 20
929.9473563785454
 30
0.0
 11
323.4879363191685
 21
927.5028603785926
 31
0.0
  0
LINE
  5
534E
330
2
100
AcDbEntity
  8
KIJUN
100
AcDbLine
 10
323.4879363191685
 20
927.5028603785926
 30
0.0
 11
319.5703673191711
 21
926.5714423784904
 31
0.0
  0
LINE
  5
534F
330
2
100
AcDbEntity
  8
KIJUN
100
AcDbLine
 10
319.5703673191711
 20
926.5714423784904
 30
0.0
 11
314.6084773190778
 21
927.7359053785932
 31
0.0
  0
LINE
  5
5350
330
2
100
AcDbEntity
  8
KIJUN
100
AcDbLine
 10
314.6084773190778
 20
927.7359053785932
 30
0.0
 11
311.343942319083
 21
929.4819013785259
 31
0.0
  0
LINE
  5
5351
330
2
100
AcDbEntity
  8
KIJUN
100
AcDbLine
 10
311.343942319083
 20
929.4819013785259
 30
0.0
 11
310.821972319096
 21
811.2033723784866
 31
0.0
  0
LINE
  5
5352
330
2
100
AcDbEntity
  8
KIJUN
100
AcDbLine
 10
310.821972319096
 20
811.2033723784866
 30
0.0
 11
310.9524013191221
 21
808.1769623785898
 31
0.0
  0
LINE
  5
5353
330
2
100
AcDbEntity
  8
KIJUN
100
AcDbLine
 10
310.9524013191221
 20
808.1769623785898
 30
0.0
 11
316.4368963191773
 21
808.1769623785898
 31
0.0
  0
LINE
  5
5354
330
2
100
AcDbEntity
  8
KIJUN
100
AcDbLine
 10
316.4368963191773
 20
808.1769623785898
 30
0.0
 11
318.251345319175
 21
817.6316043785504
 31
0.0
  0
LINE
  5
5355
330
2
100
AcDbEntity
  8
KIJUN
100
AcDbLine
 10
318.251345319175
 20
817.6316043785504
 30
0.0
 11
320.0156293190557
 21
827.3490093785172
 31
0.0
  0
LINE
  5
5356
330
2
100
AcDbEntity
  8
KIJUN
100
AcDbLine
 10
320.0156293190557
 20
827.3490093785172
 30
0.0
 11
321.6169723192106
 21
837.2285933785265
 31
0.0
  0
LINE
  5
5357
330
2
100
AcDbEntity
  8
KIJUN
100
AcDbLine
 10
321.6169723192106
 20
837.2285933785265
 30
0.0
 11
322.9427253191789
 21
847.1695183784998
 31
0.0
  0
LINE
  5
5358
330
2
100
AcDbEntity
  8
KIJUN
100
AcDbLine
 10
322.9427253191789
 20
847.1695183784998
 30
0.0
 11
323.8798583190182
 21
857.0714543785674
 31
0.0
  0
LINE
  5
5359
330
2
100
AcDbEntity
  8
KIJUN
100
AcDbLine
 10
323.8798583190182
 20
857.0714543785674
 30
0.0
 11
326.0994373191752
 21
895.4884463785951
 31
0.0
  0
LINE
  5
535A
330
2
100
AcDbEntity
  8
KIJUN
100
AcDbLine
 10
326.0994373191752
 20
895.4884463785951
 30
0.0
 11
326.4913593190249
 21
929.9473563785454
 31
0.0
  0
LINE
  5
535B
330
2
100
AcDbEntity
  8
KIJUN
100
AcDbLine
 10
286.6169153190385
 20
808.196901378537
 30
0.0
 11
334.5394763190525
 21
808.4299463785303
 31
0.0
  0
LINE
  5
535C
330
2
100
AcDbEntity
  8
KIJUN
100
AcDbLine
 10
288.1119593190124
 20
963.1178513785803
 30
0.0
 11
295.9528123191012
 21
963.0261573784904
 31
0.0
  0
LINE
  5
535D
330
2
100
AcDbEntity
  8
KIJUN
100
AcDbLine
 10
295.9528123191012
 20
963.0261573784904
 30
0.0
 11
303.8221133191073
 21
963.0473663785183
 31
0.0
  0
LINE
  5
535E
330
2
100
AcDbEntity
  8
KIJUN
100
AcDbLine
 10
303.8221133191073
 20
963.0473663785183
 30
0.0
 11
311.7104643191014
 21
963.1178513785803
 31
0.0
  0
LINE
  5
535F
330
2
100
AcDbEntity
  8
KIJUN
100
AcDbLine
 10
311.7104643191014
 20
963.1178513785803
 30
0.0
 11
319.6173573191368
 21
963.1827483784823
 31
0.0
  0
LINE
  5
5360
330
2
100
AcDbEntity
  8
KIJUN
100
AcDbLine
 10
319.6173573191368
 20
963.1827483784823
 30
0.0
 11
327.5284413192094
 21
963.2674573785283
 31
0.0
  0
LINE
  5
5361
330
2
100
AcDbEntity
  8
KIJUN
100
AcDbLine
 10
327.5284413192094
 20
963.2674573785283
 30
0.0
 11
335.4414303192204
 21
963.4278583785366
 31
0.0
  0
LINE
  5
5362
330
2
100
AcDbEntity
  8
KIJUN
100
AcDbLine
 10
335.4414303192204
 20
963.4278583785366
 30
0.0
 11
336.5685553191615
 21
962.0481303785513
 31
0.0
  0
LINE
  5
5363
330
2
100
AcDbEntity
  8
KIJUN
100
AcDbLine
 10
336.5685553191615
 20
962.0481303785513
 30
0.0
 11
337.4552693190308
 21
960.7747013785141
 31
0.0
  0
LINE
  5
5364
330
2
100
AcDbEntity
  8
KIJUN
100
AcDbLine
 10
337.4552693190308
 20
960.7747013785141
 30
0.0
 11
338.0413743190111
 21
959.5529613785428
 31
0.0
  0
LINE
  5
5365
330
2
100
AcDbEntity
  8
KIJUN
100
AcDbLine
 10
338.0413743190111
 20
959.5529613785428
 30
0.0
 11
338.3229333191518
 21
958.2448613785549
 31
0.0
  0
LINE
  5
5366
330
2
100
AcDbEntity
  8
KIJUN
100
AcDbLine
 10
338.3229333191518
 20
958.2448613785549
 30
0.0
 11
338.3021053190351
 21
956.9587323784894
 31
0.0
  0
LINE
  5
5367
330
2
100
AcDbEntity
  8
KIJUN
100
AcDbLine
 10
338.3021053190351
 20
956.9587323784894
 30
0.0
 11
338.0408663190719
 21
955.6803503785145
 31
0.0
  0
LINE
  5
5368
330
2
100
AcDbEntity
  8
KIJUN
100
AcDbLine
 10
338.0408663190719
 20
955.6803503785145
 30
0.0
 11
329.314188319182
 21
955.7729333785557
 31
0.0
  0
LINE
  5
5369
330
2
100
AcDbEntity
  8
KIJUN
100
AcDbLine
 10
329.314188319182
 20
955.7729333785557
 30
0.0
 11
320.6000833191684
 21
955.7728063785132
 31
0.0
  0
LINE
  5
536A
330
2
100
AcDbEntity
  8
KIJUN
100
AcDbLine
 10
320.6000833191684
 20
955.7728063785132
 30
0.0
 11
311.9289043191275
 21
955.6803503785145
 31
0.0
  0
LINE
  5
536B
330
2
100
AcDbEntity
  8
KIJUN
100
AcDbLine
 10
311.9289043191275
 20
955.6803503785145
 30
0.0
 11
303.1565063190174
 21
955.5787503785486
 31
0.0
  0
LINE
  5
536C
330
2
100
AcDbEntity
  8
KIJUN
100
AcDbLine
 10
303.1565063190174
 20
955.5787503785486
 30
0.0
 11
294.4604353190914
 21
955.537094378533
 31
0.0
  0
LINE
  5
536D
330
2
100
AcDbEntity
  8
KIJUN
100
AcDbLine
 10
294.4604353190914
 20
955.537094378533
 30
0.0
 11
285.8373893191856
 21
955.5254103785069
 31
0.0
  0
LINE
  5
536E
330
2
100
AcDbEntity
  8
KIJUN
100
AcDbLine
 10
285.8373893191856
 20
955.5254103785069
 30
0.0
 11
285.5672603192106
 21
956.7742013785123
 31
0.0
  0
LINE
  5
536F
330
2
100
AcDbEntity
  8
KIJUN
100
AcDbLine
 10
285.5672603192106
 20
956.7742013785123
 30
0.0
 11
285.5146823192006
 21
958.0235003785732
 31
0.0
  0
LINE
  5
5370
330
2
100
AcDbEntity
  8
KIJUN
100
AcDbLine
 10
285.5146823192006
 20
958.0235003785732
 30
0.0
 11
285.7289313191977
 21
959.2429543785858
 31
0.0
  0
LINE
  5
5371
330
2
100
AcDbEntity
  8
KIJUN
100
AcDbLine
 10
285.7289313191977
 20
959.2429543785858
 30
0.0
 11
286.2738883191087
 21
960.525527378488
 31
0.0
  0
LINE
  5
5372
330
2
100
AcDbEntity
  8
KIJUN
100
AcDbLine
 10
286.2738883191087
 20
960.525527378488
 30
0.0
 11
287.0840213191513
 21
961.8026393784914
 31
0.0
  0
LINE
  5
5373
330
2
100
AcDbEntity
  8
KIJUN
100
AcDbLine
 10
287.0840213191513
 20
961.8026393784914
 30
0.0
 11
288.1119593190124
 21
963.1178513785803
 31
0.0
  0
LINE
  5
5374
330
2
100
AcDbEntity
  8
KIJUN
100
AcDbLine
 10
284.8913663191013
 20
1035.643360378565
 30
0.0
 11
285.4675653191916
 21
1023.842647378488
 31
0.0
  0
LINE
  5
5375
330
2
100
AcDbEntity
  8
KIJUN
100
AcDbLine
 10
285.4675653191916
 20
1023.842647378488
 30
0.0
 11
286.8805673191198
 21
1012.823492378595
 31
0.0
  0
LINE
  5
5376
330
2
100
AcDbEntity
  8
KIJUN
100
AcDbLine
 10
286.8805673191198
 20
1012.823492378595
 30
0.0
 11
288.9741623191255
 21
1002.307003378513
 31
0.0
  0
LINE
  5
5377
330
2
100
AcDbEntity
  8
KIJUN
100
AcDbLine
 10
288.9741623191255
 20
1002.307003378513
 30
0.0
 11
291.5918863191653
 21
992.0136533785358
 31
0.0
  0
LINE
  5
5378
330
2
100
AcDbEntity
  8
KIJUN
100
AcDbLine
 10
291.5918863191653
 20
992.0136533785358
 30
0.0
 11
294.5774023191877
 21
981.6644233785874
 31
0.0
  0
LINE
  5
5379
330
2
100
AcDbEntity
  8
KIJUN
100
AcDbLine
 10
300.4599153190757
 20
1018.813955378524
 30
0.0
 11
301.324150319193
 21
1005.959777378501
 31
0.0
  0
LINE
  5
537A
330
2
100
AcDbEntity
  8
KIJUN
100
AcDbLine
 10
301.324150319193
 20
1005.959777378501
 30
0.0
 11
302.5603683191111
 21
993.536510378583
 31
0.0
  0
LINE
  5
537B
330
2
100
AcDbEntity
  8
KIJUN
100
AcDbLine
 10
302.5603683191111
 20
993.536510378583
 30
0.0
 11
304.7748673191636
 21
981.1993493785873
 31
0.0
  0
LINE
  5
537C
330
2
100
AcDbEntity
  8
KIJUN
100
AcDbLine
 10
338.7614643190718
 20
1035.643360378565
 30
0.0
 11
338.1852653192145
 21
1023.842647378488
 31
0.0
  0
LINE
  5
537D
330
2
100
AcDbEntity
  8
KIJUN
100
AcDbLine
 10
338.1852653192145
 20
1023.842647378488
 30
0.0
 11
336.7722633190533
 21
1012.823492378595
 31
0.0
  0
LINE
  5
537E
330
2
100
AcDbEntity
  8
KIJUN
100
AcDbLine
 10
336.7722633190533
 20
1012.823492378595
 30
0.0
 11
334.6786683190403
 21
1002.307003378513
 31
0.0
  0
LINE
  5
537F
330
2
100
AcDbEntity
  8
KIJUN
100
AcDbLine
 10
334.6786683190403
 20
1002.307003378513
 30
0.0
 11
332.0609443190076
 21
992.0136533785358
 31
0.0
  0
LINE
  5
5380
330
2
100
AcDbEntity
  8
KIJUN
100
AcDbLine
 10
332.0609443190076
 20
992.0136533785358
 30
0.0
 11
329.0754283192107
 21
981.6644233785874
 31
0.0
  0
LINE
  5
5381
330
2
100
AcDbEntity
  8
KIJUN
100
AcDbLine
 10
323.1929153190977
 20
1018.813955378524
 30
0.0
 11
322.3286803192132
 21
1005.959777378501
 31
0.0
  0
LINE
  5
5382
330
2
100
AcDbEntity
  8
KIJUN
100
AcDbLine
 10
322.3286803192132
 20
1005.959777378501
 30
0.0
 11
321.0924623190622
 21
993.536510378583
 31
0.0
  0
LINE
  5
5383
330
2
100
AcDbEntity
  8
KIJUN
100
AcDbLine
 10
321.0924623190622
 20
993.536510378583
 30
0.0
 11
318.877963319017
 21
981.1993493785873
 31
0.0
  0
LINE
  5
5384
330
2
100
AcDbEntity
  8
KIJUN
100
AcDbLine
 10
366.7539153191865
 20
929.7359013785701
 30
0.0
 11
368.5659513190585
 21
928.3389013785223
 31
0.0
  0
LINE
  5
5385
330
2
100
AcDbEntity
  8
KIJUN
100
AcDbLine
 10
368.5659513190585
 20
928.3389013785223
 30
0.0
 11
370.7799423191718
 21
927.756860378528
 31
0.0
  0
LINE
  5
5386
330
2
100
AcDbEntity
  8
KIJUN
100
AcDbLine
 10
370.7799423191718
 20
927.756860378528
 30
0.0
 11
373.1958633190406
 21
927.756860378528
 31
0.0
  0
LINE
  5
5387
330
2
100
AcDbEntity
  8
KIJUN
100
AcDbLine
 10
373.1958633190406
 20
927.756860378528
 30
0.0
 11
375.7123683192294
 21
928.9209423785091
 31
0.0
  0
LINE
  5
5388
330
2
100
AcDbEntity
  8
KIJUN
100
AcDbLine
 10
375.7123683192294
 20
928.9209423785091
 30
0.0
 11
376.7189703190197
 21
930.3179423785573
 31
0.0
  0
LINE
  5
5389
330
2
100
AcDbEntity
  8
KIJUN
100
AcDbLine
 10
376.7189703190197
 20
930.3179423785573
 30
0.0
 11
366.7539153191865
 21
929.7359013785701
 31
0.0
  0
LINE
  5
538A
330
2
100
AcDbEntity
  8
KIJUN
100
AcDbLine
 10
271.2359453190256
 20
1187.723955378527
 30
0.0
 11
284.8852703191187
 21
1187.723955378527
 31
0.0
  0
LINE
  5
538B
330
2
100
AcDbEntity
  8
KIJUN
100
AcDbLine
 10
284.8852703191187
 20
1187.723955378527
 30
0.0
 11
298.5345953192045
 21
1187.723955378527
 31
0.0
  0
LINE
  5
538C
330
2
100
AcDbEntity
  8
KIJUN
100
AcDbLine
 10
298.5345953192045
 20
1187.723955378527
 30
0.0
 11
312.1839203190648
 21
1187.723955378527
 31
0.0
  0
LINE
  5
538D
330
2
100
AcDbEntity
  8
KIJUN
100
AcDbLine
 10
312.1839203190648
 20
1187.723955378527
 30
0.0
 11
325.7762223190257
 21
1187.723955378527
 31
0.0
  0
LINE
  5
538E
330
2
100
AcDbEntity
  8
KIJUN
100
AcDbLine
 10
325.7762223190257
 20
1187.723955378527
 30
0.0
 11
339.3703023191156
 21
1187.723955378527
 31
0.0
  0
LINE
  5
538F
330
2
100
AcDbEntity
  8
KIJUN
100
AcDbLine
 10
339.3703023191156
 20
1187.723955378527
 30
0.0
 11
352.9679383190414
 21
1187.723955378527
 31
0.0
  0
LINE
  5
5390
330
2
100
AcDbEntity
  8
KIJUN
100
AcDbLine
 10
352.9679383190414
 20
1187.723955378527
 30
0.0
 11
356.2254883192181
 21
1185.336355378539
 31
0.0
  0
LINE
  5
5391
330
2
100
AcDbEntity
  8
KIJUN
100
AcDbLine
 10
356.2254883192181
 20
1185.336355378539
 30
0.0
 11
358.9242383191849
 21
1182.972758378493
 31
0.0
  0
LINE
  5
5392
330
2
100
AcDbEntity
  8
KIJUN
100
AcDbLine
 10
358.9242383191849
 20
1182.972758378493
 30
0.0
 11
360.9204243190288
 21
1180.502862378491
 31
0.0
  0
LINE
  5
5393
330
2
100
AcDbEntity
  8
KIJUN
100
AcDbLine
 10
360.9204243190288
 20
1180.502862378491
 30
0.0
 11
361.9068333191499
 21
1178.150441378523
 31
0.0
  0
LINE
  5
5394
330
2
100
AcDbEntity
  8
KIJUN
100
AcDbLine
 10
361.9068333191499
 20
1178.150441378523
 30
0.0
 11
362.155372319201
 21
1175.704548378563
 31
0.0
  0
LINE
  5
5395
330
2
100
AcDbEntity
  8
KIJUN
100
AcDbLine
 10
362.155372319201
 20
1175.704548378563
 30
0.0
 11
361.8254263190793
 21
1173.288373378499
 31
0.0
  0
LINE
  5
5396
330
2
100
AcDbEntity
  8
KIJUN
100
AcDbLine
 10
361.8254263190793
 20
1173.288373378499
 30
0.0
 11
349.5440183191347
 21
1173.288373378499
 31
0.0
  0
LINE
  5
5397
330
2
100
AcDbEntity
  8
KIJUN
100
AcDbLine
 10
349.5440183191347
 20
1173.288373378499
 30
0.0
 11
337.2774693191277
 21
1173.288373378499
 31
0.0
  0
LINE
  5
5398
330
2
100
AcDbEntity
  8
KIJUN
100
AcDbLine
 10
337.2774693191277
 20
1173.288373378499
 30
0.0
 11
325.0256523190437
 21
1173.288373378499
 31
0.0
  0
LINE
  5
5399
330
2
100
AcDbEntity
  8
KIJUN
100
AcDbLine
 10
325.0256523190437
 20
1173.288373378499
 30
0.0
 11
312.7884403190437
 21
1173.288373378499
 31
0.0
  0
LINE
  5
539A
330
2
100
AcDbEntity
  8
KIJUN
100
AcDbLine
 10
312.7884403190437
 20
1173.288373378499
 30
0.0
 11
300.5630393191132
 21
1173.288373378499
 31
0.0
  0
LINE
  5
539B
330
2
100
AcDbEntity
  8
KIJUN
100
AcDbLine
 10
300.5630393191132
 20
1173.288373378499
 30
0.0
 11
288.3348443191605
 21
1173.288373378499
 31
0.0
  0
LINE
  5
539C
330
2
100
AcDbEntity
  8
KIJUN
100
AcDbLine
 10
288.3348443191605
 20
1173.288373378499
 30
0.0
 11
276.1084273191118
 21
1173.288373378499
 31
0.0
  0
LINE
  5
539D
330
2
100
AcDbEntity
  8
KIJUN
100
AcDbLine
 10
276.1084273191118
 20
1173.288373378499
 30
0.0
 11
263.8883603191389
 21
1173.288373378499
 31
0.0
  0
LINE
  5
539E
330
2
100
AcDbEntity
  8
KIJUN
100
AcDbLine
 10
263.8883603191389
 20
1173.288373378499
 30
0.0
 11
262.6597623190353
 21
1175.706961378572
 31
0.0
  0
LINE
  5
539F
330
2
100
AcDbEntity
  8
KIJUN
100
AcDbLine
 10
262.6597623190353
 20
1175.706961378572
 30
0.0
 11
262.2226283191303
 21
1178.155394378577
 31
0.0
  0
LINE
  5
53A0
330
2
100
AcDbEntity
  8
KIJUN
100
AcDbLine
 10
262.2226283191303
 20
1178.155394378577
 30
0.0
 11
262.7809203191609
 21
1180.502862378491
 31
0.0
  0
LINE
  5
53A1
330
2
100
AcDbEntity
  8
KIJUN
100
AcDbLine
 10
262.7809203191609
 20
1180.502862378491
 30
0.0
 11
264.6426133192181
 21
1182.991046378558
 31
0.0
  0
LINE
  5
53A2
330
2
100
AcDbEntity
  8
KIJUN
100
AcDbLine
 10
264.6426133192181
 20
1182.991046378558
 30
0.0
 11
267.5162423190229
 21
1185.345499378521
 31
0.0
  0
LINE
  5
53A3
330
2
100
AcDbEntity
  8
KIJUN
100
AcDbLine
 10
267.5162423190229
 20
1185.345499378521
 30
0.0
 11
271.2359453190256
 21
1187.723955378527
 31
0.0
  0
LINE
  5
53A4
330
2
100
AcDbEntity
  8
KIJUN
100
AcDbLine
 10
272.8513853191071
 20
1229.074901378562
 30
0.0
 11
352.2684223190188
 21
1229.074901378562
 31
0.0
  0
LINE
  5
53A5
330
2
100
AcDbEntity
  8
KIJUN
100
AcDbLine
 10
352.2684223190188
 20
1229.074901378562
 30
0.0
 11
356.2737483191559
 21
1228.028929378496
 31
0.0
  0
LINE
  5
53A6
330
2
100
AcDbEntity
  8
KIJUN
100
AcDbLine
 10
356.2737483191559
 20
1228.028929378496
 30
0.0
 11
359.1303593192024
 21
1225.28661837856
 31
0.0
  0
LINE
  5
53A7
330
2
100
AcDbEntity
  8
KIJUN
100
AcDbLine
 10
359.1303593192024
 20
1225.28661837856
 30
0.0
 11
360.2198923191281
 21
1221.441439378578
 31
0.0
  0
LINE
  5
53A8
330
2
100
AcDbEntity
  8
KIJUN
100
AcDbLine
 10
360.2198923191281
 20
1221.441439378578
 30
0.0
 11
360.2198923191281
 21
1221.344919378587
 31
0.0
  0
LINE
  5
53A9
330
2
100
AcDbEntity
  8
KIJUN
100
AcDbLine
 10
360.2198923191281
 20
1221.344919378587
 30
0.0
 11
359.1303593192024
 21
1217.49999437859
 31
0.0
  0
LINE
  5
53AA
330
2
100
AcDbEntity
  8
KIJUN
100
AcDbLine
 10
359.1303593192024
 20
1217.49999437859
 30
0.0
 11
356.2737483191559
 21
1214.757810378579
 31
0.0
  0
LINE
  5
53AB
330
2
100
AcDbEntity
  8
KIJUN
100
AcDbLine
 10
356.2737483191559
 20
1214.757810378579
 30
0.0
 11
352.2684223190188
 21
1213.711838378507
 31
0.0
  0
LINE
  5
53AC
330
2
100
AcDbEntity
  8
KIJUN
100
AcDbLine
 10
352.2684223190188
 20
1213.711838378507
 30
0.0
 11
272.8513853191071
 21
1213.711838378507
 31
0.0
  0
LINE
  5
53AD
330
2
100
AcDbEntity
  8
KIJUN
100
AcDbLine
 10
272.8513853191071
 20
1213.711838378507
 30
0.0
 11
268.8461863190132
 21
1214.757810378579
 31
0.0
  0
LINE
  5
53AE
330
2
100
AcDbEntity
  8
KIJUN
100
AcDbLine
 10
268.8461863190132
 20
1214.757810378579
 30
0.0
 11
265.9895753191922
 21
1217.49999437859
 31
0.0
  0
LINE
  5
53AF
330
2
100
AcDbEntity
  8
KIJUN
100
AcDbLine
 10
265.9895753191922
 20
1217.49999437859
 30
0.0
 11
264.8999153192235
 21
1221.344919378587
 31
0.0
  0
LINE
  5
53B0
330
2
100
AcDbEntity
  8
KIJUN
100
AcDbLine
 10
264.8999153192235
 20
1221.344919378587
 30
0.0
 11
264.8999153192235
 21
1221.441439378578
 31
0.0
  0
LINE
  5
53B1
330
2
100
AcDbEntity
  8
KIJUN
100
AcDbLine
 10
264.8999153192235
 20
1221.441439378578
 30
0.0
 11
265.9895753191922
 21
1225.28661837856
 31
0.0
  0
LINE
  5
53B2
330
2
100
AcDbEntity
  8
KIJUN
100
AcDbLine
 10
265.9895753191922
 20
1225.28661837856
 30
0.0
 11
268.8461863190132
 21
1228.028929378496
 31
0.0
  0
LINE
  5
53B3
330
2
100
AcDbEntity
  8
KIJUN
100
AcDbLine
 10
268.8461863190132
 20
1228.028929378496
 30
0.0
 11
272.8513853191071
 21
1229.074901378562
 31
0.0
  0
LINE
  5
53B4
330
2
100
AcDbEntity
  8
KIJUN
100
AcDbLine
 10
264.2649153190975
 20
1221.20090137858
 30
0.0
 11
360.6919513190769
 21
1221.20090137858
 31
0.0
  0
LINE
  5
53B5
330
2
100
AcDbEntity
  8
KIJUN
100
AcDbLine
 10
272.0119153190572
 20
1209.516901378513
 30
0.0
 11
285.4435623191493
 21
1209.382154378517
 31
0.0
  0
LINE
  5
53B6
330
2
100
AcDbEntity
  8
KIJUN
100
AcDbLine
 10
285.4435623191493
 20
1209.382154378517
 30
0.0
 11
298.8082803192265
 21
1209.332497378572
 31
0.0
  0
LINE
  5
53B7
330
2
100
AcDbEntity
  8
KIJUN
100
AcDbLine
 10
298.8082803192265
 20
1209.332497378572
 30
0.0
 11
312.1728713190205
 21
1209.325385378587
 31
0.0
  0
LINE
  5
53B8
330
2
100
AcDbEntity
  8
KIJUN
100
AcDbLine
 10
312.1728713190205
 20
1209.325385378587
 30
0.0
 11
325.6160753190889
 21
1209.282967378547
 31
0.0
  0
LINE
  5
53B9
330
2
100
AcDbEntity
  8
KIJUN
100
AcDbLine
 10
325.6160753190889
 20
1209.282967378547
 30
0.0
 11
339.1262083191941
 21
1209.240549378513
 31
0.0
  0
LINE
  5
53BA
330
2
100
AcDbEntity
  8
KIJUN
100
AcDbLine
 10
339.1262083191941
 20
1209.240549378513
 30
0.0
 11
352.6364683190948
 21
1209.325385378587
 31
0.0
  0
LINE
  5
53BB
330
2
100
AcDbEntity
  8
KIJUN
100
AcDbLine
 10
352.6364683190948
 20
1209.325385378587
 30
0.0
 11
347.1302563190802
 21
1208.822592378515
 31
0.0
  0
LINE
  5
53BC
330
2
100
AcDbEntity
  8
KIJUN
100
AcDbLine
 10
347.1302563190802
 20
1208.822592378515
 30
0.0
 11
341.1319193190245
 21
1205.939311378556
 31
0.0
  0
LINE
  5
53BD
330
2
100
AcDbEntity
  8
KIJUN
100
AcDbLine
 10
341.1319193190245
 20
1205.939311378556
 30
0.0
 11
339.8534103191159
 21
1199.187864378583
 31
0.0
  0
LINE
  5
53BE
330
2
100
AcDbEntity
  8
KIJUN
100
AcDbLine
 10
339.8534103191159
 20
1199.187864378583
 30
0.0
 11
344.4758293190935
 21
1193.839132378512
 31
0.0
  0
LINE
  5
53BF
330
2
100
AcDbEntity
  8
KIJUN
100
AcDbLine
 10
344.4758293190935
 20
1193.839132378512
 30
0.0
 11
349.9260343190945
 21
1192.868471378528
 31
0.0
  0
LINE
  5
53C0
330
2
100
AcDbEntity
  8
KIJUN
100
AcDbLine
 10
349.9260343190945
 20
1192.868471378528
 30
0.0
 11
352.3344623191913
 21
1190.197407378576
 31
0.0
  0
LINE
  5
53C1
330
2
100
AcDbEntity
  8
KIJUN
100
AcDbLine
 10
352.3344623191913
 20
1190.197407378576
 30
0.0
 11
338.9025613190131
 21
1190.459662378534
 31
0.0
  0
LINE
  5
53C2
330
2
100
AcDbEntity
  8
KIJUN
100
AcDbLine
 10
338.9025613190131
 20
1190.459662378534
 30
0.0
 11
325.5378433191763
 21
1191.14685937854
 31
0.0
  0
LINE
  5
53C3
330
2
100
AcDbEntity
  8
KIJUN
100
AcDbLine
 10
325.5378433191763
 20
1191.14685937854
 30
0.0
 11
312.1728713190205
 21
1191.536368378504
 31
0.0
  0
LINE
  5
53C4
330
2
100
AcDbEntity
  8
KIJUN
100
AcDbLine
 10
312.1728713190205
 20
1191.536368378504
 30
0.0
 11
299.6694673192214
 21
1191.692324378507
 31
0.0
  0
LINE
  5
53C5
330
2
100
AcDbEntity
  8
KIJUN
100
AcDbLine
 10
299.6694673192214
 20
1191.692324378507
 30
0.0
 11
287.9041873191345
 21
1192.018333378562
 31
0.0
  0
LINE
  5
53C6
330
2
100
AcDbEntity
  8
KIJUN
100
AcDbLine
 10
287.9041873191345
 20
1192.018333378562
 30
0.0
 11
275.3334733191987
 21
1192.301924378591
 31
0.0
  0
LINE
  5
53C7
330
2
100
AcDbEntity
  8
KIJUN
100
AcDbLine
 10
275.3334733191987
 20
1192.301924378591
 30
0.0
 11
280.4296023192183
 21
1194.058715378583
 31
0.0
  0
LINE
  5
53C8
330
2
100
AcDbEntity
  8
KIJUN
100
AcDbLine
 10
280.4296023192183
 20
1194.058715378583
 30
0.0
 11
283.5573583191181
 21
1196.66564437854
 31
0.0
  0
LINE
  5
53C9
330
2
100
AcDbEntity
  8
KIJUN
100
AcDbLine
 10
283.5573583191181
 20
1196.66564437854
 30
0.0
 11
284.8959383190338
 21
1199.570388378489
 31
0.0
  0
LINE
  5
53CA
330
2
100
AcDbEntity
  8
KIJUN
100
AcDbLine
 10
284.8959383190338
 20
1199.570388378489
 30
0.0
 11
283.1659443192148
 21
1205.46458537852
 31
0.0
  0
LINE
  5
53CB
330
2
100
AcDbEntity
  8
KIJUN
100
AcDbLine
 10
283.1659443192148
 20
1205.46458537852
 30
0.0
 11
277.7679363190946
 21
1208.978421378481
 31
0.0
  0
LINE
  5
53CC
330
2
100
AcDbEntity
  8
KIJUN
100
AcDbLine
 10
277.7679363190946
 20
1208.978421378481
 30
0.0
 11
272.0119153190572
 21
1209.516901378513
 31
0.0
  0
LINE
  5
53CD
330
2
100
AcDbEntity
  8
KIJUN
100
AcDbLine
 10
273.4089153191125
 20
1192.498901378503
 30
0.0
 11
352.7544513190769
 21
1192.498901378503
 31
0.0
  0
LINE
  5
53CE
330
2
100
AcDbEntity
  8
KIJUN
100
AcDbLine
 10
352.7544513190769
 20
1192.498901378503
 30
0.0
 11
352.7544513190769
 21
1187.36937137849
 31
0.0
  0
LINE
  5
53CF
330
2
100
AcDbEntity
  8
KIJUN
100
AcDbLine
 10
352.7544513190769
 20
1187.36937137849
 30
0.0
 11
273.4089153191125
 21
1187.36937137849
 31
0.0
  0
LINE
  5
53D0
330
2
100
AcDbEntity
  8
KIJUN
100
AcDbLine
 10
273.4089153191125
 20
1187.36937137849
 30
0.0
 11
273.4089153191125
 21
1192.498901378503
 31
0.0
  0
LINE
  5
53D1
330
2
100
AcDbEntity
  8
KIJUN
100
AcDbLine
 10
262.8679153190424
 20
1173.448901378551
 30
0.0
 11
353.9194223191187
 21
1173.060916378535
 31
0.0
  0
LINE
  5
53D2
330
2
100
AcDbEntity
  8
KIJUN
100
AcDbLine
 10
311.5089153190163
 20
1170.400901378504
 30
0.0
 11
312.7284963190723
 21
1171.409027378592
 31
0.0
  0
LINE
  5
53D3
330
2
100
AcDbEntity
  8
KIJUN
100
AcDbLine
 10
312.7284963190723
 20
1171.409027378592
 30
0.0
 11
314.1635963190893
 21
1172.313902378491
 31
0.0
  0
LINE
  5
53D4
330
2
100
AcDbEntity
  8
KIJUN
100
AcDbLine
 10
314.1635963190893
 20
1172.313902378491
 30
0.0
 11
315.9118783190895
 21
1172.960459378491
 31
0.0
  0
LINE
  5
53D5
330
2
100
AcDbEntity
  8
KIJUN
100
AcDbLine
 10
315.9118783190895
 20
1172.960459378491
 30
0.0
 11
317.1315863191885
 21
1173.270339378513
 31
0.0
  0
LINE
  5
53D6
330
2
100
AcDbEntity
  8
KIJUN
100
AcDbLine
 10
317.1315863191885
 20
1173.270339378513
 30
0.0
 11
318.3904103191342
 21
1173.270339378513
 31
0.0
  0
LINE
  5
53D7
330
2
100
AcDbEntity
  8
KIJUN
100
AcDbLine
 10
318.3904103191342
 20
1173.270339378513
 30
0.0
 11
319.7863943190714
 21
1172.960459378491
 31
0.0
  0
LINE
  5
53D8
330
2
100
AcDbEntity
  8
KIJUN
100
AcDbLine
 10
319.7863943190714
 20
1172.960459378491
 30
0.0
 11
321.0092773190879
 21
1172.210778378577
 31
0.0
  0
LINE
  5
53D9
330
2
100
AcDbEntity
  8
KIJUN
100
AcDbLine
 10
321.0092773190879
 20
1172.210778378577
 30
0.0
 11
322.1736133191553
 21
1171.409281378562
 31
0.0
  0
LINE
  5
53DA
330
2
100
AcDbEntity
  8
KIJUN
100
AcDbLine
 10
322.1736133191553
 20
1171.409281378562
 30
0.0
 11
323.2204743191794
 21
1170.400901378504
 31
0.0
  0
LINE
  5
53DB
330
2
100
AcDbEntity
  8
KIJUN
100
AcDbLine
 10
323.2204743191794
 20
1170.400901378504
 30
0.0
 11
324.1629413192168
 21
1171.242403378559
 31
0.0
  0
LINE
  5
53DC
330
2
100
AcDbEntity
  8
KIJUN
100
AcDbLine
 10
324.1629413192168
 20
1171.242403378559
 30
0.0
 11
325.4187173190403
 21
1172.015071378505
 31
0.0
  0
LINE
  5
53DD
330
2
100
AcDbEntity
  8
KIJUN
100
AcDbLine
 10
325.4187173190403
 20
1172.015071378505
 30
0.0
 11
327.0068523191255
 21
1172.649944378588
 31
0.0
  0
LINE
  5
53DE
330
2
100
AcDbEntity
  8
KIJUN
100
AcDbLine
 10
327.0068523191255
 20
1172.649944378588
 30
0.0
 11
328.2137333190292
 21
1172.580983378583
 31
0.0
  0
LINE
  5
53DF
330
2
100
AcDbEntity
  8
KIJUN
100
AcDbLine
 10
328.2137333190292
 20
1172.580983378583
 30
0.0
 11
329.2638963190218
 21
1172.615400378564
 31
0.0
  0
LINE
  5
53E0
330
2
100
AcDbEntity
  8
KIJUN
100
AcDbLine
 10
329.2638963190218
 20
1172.615400378564
 30
0.0
 11
330.5294513191729
 21
1172.649944378588
 31
0.0
  0
LINE
  5
53E1
330
2
100
AcDbEntity
  8
KIJUN
100
AcDbLine
 10
330.5294513191729
 20
1172.649944378588
 30
0.0
 11
332.1470503190537
 21
1172.170392378532
 31
0.0
  0
LINE
  5
53E2
330
2
100
AcDbEntity
  8
KIJUN
100
AcDbLine
 10
332.1470503190537
 20
1172.170392378532
 30
0.0
 11
333.4907103190599
 21
1171.501102378579
 31
0.0
  0
LINE
  5
53E3
330
2
100
AcDbEntity
  8
KIJUN
100
AcDbLine
 10
333.4907103190599
 20
1171.501102378579
 30
0.0
 11
334.5798623190895
 21
1170.400901378504
 31
0.0
  0
LINE
  5
53E4
330
2
100
AcDbEntity
  8
KIJUN
100
AcDbLine
 10
334.5798623190895
 20
1170.400901378504
 30
0.0
 11
337.8379203192053
 21
1172.417407378533
 31
0.0
  0
LINE
  5
53E5
330
2
100
AcDbEntity
  8
KIJUN
100
AcDbLine
 10
337.8379203192053
 20
1172.417407378533
 30
0.0
 11
339.602458319172
 21
1172.618448378555
 31
0.0
  0
LINE
  5
53E6
330
2
100
AcDbEntity
  8
KIJUN
100
AcDbLine
 10
339.602458319172
 20
1172.618448378555
 30
0.0
 11
341.0929303192206
 21
1172.630005378539
 31
0.0
  0
LINE
  5
53E7
330
2
100
AcDbEntity
  8
KIJUN
100
AcDbLine
 10
341.0929303192206
 20
1172.630005378539
 30
0.0
 11
342.6814463191949
 21
1172.262340378592
 31
0.0
  0
LINE
  5
53E8
330
2
100
AcDbEntity
  8
KIJUN
100
AcDbLine
 10
342.6814463191949
 20
1172.262340378592
 30
0.0
 11
345.5874603191003
 21
1170.400901378504
 31
0.0
  0
LINE
  5
53E9
330
2
100
AcDbEntity
  8
KIJUN
100
AcDbLine
 10
345.5874603191003
 20
1170.400901378504
 30
0.0
 11
348.5809773190667
 21
1172.339937378515
 31
0.0
  0
LINE
  5
53EA
330
2
100
AcDbEntity
  8
KIJUN
100
AcDbLine
 10
348.5809773190667
 20
1172.339937378515
 30
0.0
 11
353.6884093192311
 21
1173.270339378513
 31
0.0
  0
LINE
  5
53EB
330
2
100
AcDbEntity
  8
KIJUN
100
AcDbLine
 10
353.6884093192311
 20
1173.270339378513
 30
0.0
 11
310.3643913191954
 21
1172.804884378494
 31
0.0
  0
LINE
  5
53EC
330
2
100
AcDbEntity
  8
KIJUN
100
AcDbLine
 10
310.3643913191954
 20
1172.804884378494
 30
0.0
 11
311.5089153190163
 21
1170.400901378504
 31
0.0
  0
LINE
  5
53F5
330
2
100
AcDbEntity
  8
KIJUN
100
AcDbLine
 10
369.0783803190679
 20
1229.463394378525
 30
0.0
 11
258.0783803190678
 21
1229.463394378524
 31
0.0
  0
LINE
  5
5405
330
2
100
AcDbEntity
  8
KIJUN
100
AcDbLine
 10
348.3554253191796
 20
1229.46390237858
 30
0.0
 11
277.7914313191904
 21
1229.46390237858
 31
0.0
  0
LINE
  5
540D
330
2
100
AcDbEntity
  8
KIJUN
100
AcDbLine
 10
271.6309153192087
 20
1213.961901378491
 30
0.0
 11
352.0539193191689
 21
1213.961901378491
 31
0.0
  0
LINE
  5
540E
330
2
100
AcDbEntity
  8
KIJUN
100
AcDbLine
 10
352.0539193191689
 20
1213.961901378491
 30
0.0
 11
352.0539193191689
 21
1208.956958378492
 31
0.0
  0
LINE
  5
540F
330
2
100
AcDbEntity
  8
KIJUN
100
AcDbLine
 10
352.0539193191689
 20
1208.956958378492
 30
0.0
 11
271.6309153192087
 21
1208.956958378492
 31
0.0
  0
LINE
  5
5410
330
2
100
AcDbEntity
  8
KIJUN
100
AcDbLine
 10
271.6309153192087
 20
1208.956958378492
 30
0.0
 11
271.6309153192087
 21
1213.961901378491
 31
0.0
  0
LINE
  5
5411
330
2
100
AcDbEntity
  8
KIJUN
100
AcDbLine
 10
311.2549153192049
 20
1170.400901378504
 30
0.0
 11
310.0353343191418
 21
1171.483576378531
 31
0.0
  0
LINE
  5
5412
330
2
100
AcDbEntity
  8
KIJUN
100
AcDbLine
 10
310.0353343191418
 20
1171.483576378531
 30
0.0
 11
308.6002343191321
 21
1172.365083378486
 31
0.0
  0
LINE
  5
5413
330
2
100
AcDbEntity
  8
KIJUN
100
AcDbLine
 10
308.6002343191321
 20
1172.365083378486
 30
0.0
 11
306.8519523191317
 21
1173.025356378509
 31
0.0
  0
LINE
  5
5414
330
2
100
AcDbEntity
  8
KIJUN
100
AcDbLine
 10
306.8519523191317
 20
1173.025356378509
 30
0.0
 11
305.7008243191485
 21
1173.387433378536
 31
0.0
  0
LINE
  5
5415
330
2
100
AcDbEntity
  8
KIJUN
100
AcDbLine
 10
305.7008243191485
 20
1173.387433378536
 30
0.0
 11
304.5690003192321
 21
1173.387433378536
 31
0.0
  0
LINE
  5
5416
330
2
100
AcDbEntity
  8
KIJUN
100
AcDbLine
 10
304.5690003192321
 20
1173.387433378536
 30
0.0
 11
303.2419773190741
 21
1173.025356378509
 31
0.0
  0
LINE
  5
5417
330
2
100
AcDbEntity
  8
KIJUN
100
AcDbLine
 10
303.2419773190741
 20
1173.025356378509
 30
0.0
 11
301.9502603190886
 21
1172.244433378533
 31
0.0
  0
LINE
  5
5418
330
2
100
AcDbEntity
  8
KIJUN
100
AcDbLine
 10
301.9502603190886
 20
1172.244433378533
 30
0.0
 11
300.6586703191388
 21
1171.483576378531
 31
0.0
  0
LINE
  5
5419
330
2
100
AcDbEntity
  8
KIJUN
100
AcDbLine
 10
300.6586703191388
 20
1171.483576378531
 30
0.0
 11
299.5433563190418
 21
1170.400901378504
 31
0.0
  0
LINE
  5
541A
330
2
100
AcDbEntity
  8
KIJUN
100
AcDbLine
 10
299.5433563190418
 20
1170.400901378504
 30
0.0
 11
298.6008893190119
 21
1171.382992378561
 31
0.0
  0
LINE
  5
541B
330
2
100
AcDbEntity
  8
KIJUN
100
AcDbLine
 10
298.6008893190119
 20
1171.382992378561
 30
0.0
 11
297.3451133191811
 21
1172.284692378534
 31
0.0
  0
LINE
  5
541C
330
2
100
AcDbEntity
  8
KIJUN
100
AcDbLine
 10
297.3451133191811
 20
1172.284692378534
 30
0.0
 11
295.7569783191029
 21
1173.025356378509
 31
0.0
  0
LINE
  5
541D
330
2
100
AcDbEntity
  8
KIJUN
100
AcDbLine
 10
295.7569783191029
 20
1173.025356378509
 30
0.0
 11
294.5500973191847
 21
1172.944965378557
 31
0.0
  0
LINE
  5
541E
330
2
100
AcDbEntity
  8
KIJUN
100
AcDbLine
 10
294.5500973191847
 20
1172.944965378557
 30
0.0
 11
293.4999343191994
 21
1172.985224378551
 31
0.0
  0
LINE
  5
541F
330
2
100
AcDbEntity
  8
KIJUN
100
AcDbLine
 10
293.4999343191994
 20
1172.985224378551
 30
0.0
 11
292.234379319063
 21
1173.025356378509
 31
0.0
  0
LINE
  5
5420
330
2
100
AcDbEntity
  8
KIJUN
100
AcDbLine
 10
292.234379319063
 20
1173.025356378509
 30
0.0
 11
290.6167803191674
 21
1172.46566737858
 31
0.0
  0
LINE
  5
5421
330
2
100
AcDbEntity
  8
KIJUN
100
AcDbLine
 10
290.6167803191674
 20
1172.46566737858
 30
0.0
 11
289.2731203191543
 21
1171.684617378561
 31
0.0
  0
LINE
  5
5422
330
2
100
AcDbEntity
  8
KIJUN
100
AcDbLine
 10
289.2731203191543
 20
1171.684617378561
 30
0.0
 11
288.183968319132
 21
1170.400901378504
 31
0.0
  0
LINE
  5
5423
330
2
100
AcDbEntity
  8
KIJUN
100
AcDbLine
 10
288.183968319132
 20
1170.400901378504
 30
0.0
 11
284.8378993190163
 21
1173.025356378509
 31
0.0
  0
LINE
  5
5424
330
2
100
AcDbEntity
  8
KIJUN
100
AcDbLine
 10
284.8378993190163
 20
1173.025356378509
 30
0.0
 11
283.0962213191706
 21
1173.189694378591
 31
0.0
  0
LINE
  5
5425
330
2
100
AcDbEntity
  8
KIJUN
100
AcDbLine
 10
283.0962213191706
 20
1173.189694378591
 30
0.0
 11
281.6480403191126
 21
1173.072346378591
 31
0.0
  0
LINE
  5
5426
330
2
100
AcDbEntity
  8
KIJUN
100
AcDbLine
 10
281.6480403191126
 20
1173.072346378591
 30
0.0
 11
280.0823843190265
 21
1172.57285537848
 31
0.0
  0
LINE
  5
5427
330
2
100
AcDbEntity
  8
KIJUN
100
AcDbLine
 10
280.0823843190265
 20
1172.57285537848
 30
0.0
 11
277.1763703191209
 21
1170.400901378504
 31
0.0
  0
LINE
  5
5428
330
2
100
AcDbEntity
  8
KIJUN
100
AcDbLine
 10
277.1763703191209
 20
1170.400901378504
 30
0.0
 11
274.1828533191547
 21
1172.663406378532
 31
0.0
  0
LINE
  5
5429
330
2
100
AcDbEntity
  8
KIJUN
100
AcDbLine
 10
274.1828533191547
 20
1172.663406378532
 30
0.0
 11
268.3709523191465
 21
1173.387433378536
 31
0.0
  0
LINE
  5
542A
330
2
100
AcDbEntity
  8
KIJUN
100
AcDbLine
 10
268.3709523191465
 20
1173.387433378536
 30
0.0
 11
312.3994393190187
 21
1173.20645837849
 31
0.0
  0
LINE
  5
542B
330
2
100
AcDbEntity
  8
KIJUN
100
AcDbLine
 10
312.3994393190187
 20
1173.20645837849
 30
0.0
 11
311.2549153192049
 21
1170.400901378504
 31
0.0
  0
LINE
  5
542C
330
2
100
AcDbEntity
  8
KIJUN
100
AcDbLine
 10
312.2709153191788
 20
1170.781901378586
 30
0.0
 11
313.4904963192348
 21
1171.709636378481
 31
0.0
  0
LINE
  5
542D
330
2
100
AcDbEntity
  8
KIJUN
100
AcDbLine
 10
313.4904963192348
 20
1171.709636378481
 30
0.0
 11
314.9255963190189
 21
1172.465159378526
 31
0.0
  0
LINE
  5
542E
330
2
100
AcDbEntity
  8
KIJUN
100
AcDbLine
 10
314.9255963190189
 20
1172.465159378526
 30
0.0
 11
316.6738783190194
 21
1173.030944378552
 31
0.0
  0
LINE
  5
542F
330
2
100
AcDbEntity
  8
KIJUN
100
AcDbLine
 10
316.6738783190194
 20
1173.030944378552
 30
0.0
 11
317.8250063192354
 21
1173.341205378595
 31
0.0
  0
LINE
  5
5430
330
2
100
AcDbEntity
  8
KIJUN
100
AcDbLine
 10
317.8250063192354
 20
1173.341205378595
 30
0.0
 11
318.9568303191445
 21
1173.341205378595
 31
0.0
  0
LINE
  5
5431
330
2
100
AcDbEntity
  8
KIJUN
100
AcDbLine
 10
318.9568303191445
 20
1173.341205378595
 30
0.0
 11
320.2838533190768
 21
1173.030944378552
 31
0.0
  0
LINE
  5
5432
330
2
100
AcDbEntity
  8
KIJUN
100
AcDbLine
 10
320.2838533190768
 20
1173.030944378552
 30
0.0
 11
321.5755703190623
 21
1172.361654378482
 31
0.0
  0
LINE
  5
5433
330
2
100
AcDbEntity
  8
KIJUN
100
AcDbLine
 10
321.5755703190623
 20
1172.361654378482
 30
0.0
 11
322.8671603190123
 21
1171.709763378531
 31
0.0
  0
LINE
  5
5434
330
2
100
AcDbEntity
  8
KIJUN
100
AcDbLine
 10
322.8671603190123
 20
1171.709763378531
 30
0.0
 11
323.9824743191093
 21
1170.781901378586
 31
0.0
  0
LINE
  5
5435
330
2
100
AcDbEntity
  8
KIJUN
100
AcDbLine
 10
323.9824743191093
 20
1170.781901378586
 30
0.0
 11
324.9249413191392
 21
1171.623403378517
 31
0.0
  0
LINE
  5
5436
330
2
100
AcDbEntity
  8
KIJUN
100
AcDbLine
 10
324.9249413191392
 20
1171.623403378517
 30
0.0
 11
326.1807173192028
 21
1172.396071378579
 31
0.0
  0
LINE
  5
5437
330
2
100
AcDbEntity
  8
KIJUN
100
AcDbLine
 10
326.1807173192028
 20
1172.396071378579
 30
0.0
 11
327.7688523190481
 21
1173.030944378552
 31
0.0
  0
LINE
  5
5438
330
2
100
AcDbEntity
  8
KIJUN
100
AcDbLine
 10
327.7688523190481
 20
1173.030944378552
 30
0.0
 11
328.9757333191919
 21
1172.961983378548
 31
0.0
  0
LINE
  5
5439
330
2
100
AcDbEntity
  8
KIJUN
100
AcDbLine
 10
328.9757333191919
 20
1172.961983378548
 30
0.0
 11
330.0258963191845
 21
1172.996400378522
 31
0.0
  0
LINE
  5
543A
330
2
100
AcDbEntity
  8
KIJUN
100
AcDbLine
 10
330.0258963191845
 20
1172.996400378522
 30
0.0
 11
331.2914513190881
 21
1173.030944378552
 31
0.0
  0
LINE
  5
543B
330
2
100
AcDbEntity
  8
KIJUN
100
AcDbLine
 10
331.2914513190881
 20
1173.030944378552
 30
0.0
 11
332.9090503192017
 21
1172.55139237849
 31
0.0
  0
LINE
  5
543C
330
2
100
AcDbEntity
  8
KIJUN
100
AcDbLine
 10
332.9090503192017
 20
1172.55139237849
 30
0.0
 11
334.2527103192224
 21
1171.882102378536
 31
0.0
  0
LINE
  5
543D
330
2
100
AcDbEntity
  8
KIJUN
100
AcDbLine
 10
334.2527103192224
 20
1171.882102378536
 30
0.0
 11
335.3418623190046
 21
1170.781901378586
 31
0.0
  0
LINE
  5
543E
330
2
100
AcDbEntity
  8
KIJUN
100
AcDbLine
 10
335.3418623190046
 20
1170.781901378586
 30
0.0
 11
338.5999203191277
 21
1172.798407378498
 31
0.0
  0
LINE
  5
543F
330
2
100
AcDbEntity
  8
KIJUN
100
AcDbLine
 10
338.5999203191277
 20
1172.798407378498
 30
0.0
 11
340.3644583191017
 21
1172.99944837852
 31
0.0
  0
LINE
  5
5440
330
2
100
AcDbEntity
  8
KIJUN
100
AcDbLine
 10
340.3644583191017
 20
1172.99944837852
 30
0.0
 11
341.8549303191357
 21
1173.011005378504
 31
0.0
  0
LINE
  5
5441
330
2
100
AcDbEntity
  8
KIJUN
100
AcDbLine
 10
341.8549303191357
 20
1173.011005378504
 30
0.0
 11
343.4434463191101
 21
1172.643340378558
 31
0.0
  0
LINE
  5
5442
330
2
100
AcDbEntity
  8
KIJUN
100
AcDbLine
 10
343.4434463191101
 20
1172.643340378558
 30
0.0
 11
346.3494603190302
 21
1170.781901378586
 31
0.0
  0
LINE
  5
5443
330
2
100
AcDbEntity
  8
KIJUN
100
AcDbLine
 10
346.3494603190302
 20
1170.781901378586
 30
0.0
 11
350.2239763190118
 21
1173.263862378518
 31
0.0
  0
LINE
  5
5444
330
2
100
AcDbEntity
  8
KIJUN
100
AcDbLine
 10
350.2239763190118
 20
1173.263862378518
 30
0.0
 11
311.1263913191178
 21
1173.185884378567
 31
0.0
  0
LINE
  5
5445
330
2
100
AcDbEntity
  8
KIJUN
100
AcDbLine
 10
311.1263913191178
 20
1173.185884378567
 30
0.0
 11
312.2709153191788
 21
1170.781901378586
 31
0.0
  0
LINE
  5
5446
330
2
100
AcDbEntity
  8
KIJUN
100
AcDbLine
 10
288.4134573192023
 20
1170.435953378591
 30
0.0
 11
290.4317413191348
 21
1160.614154378513
 31
0.0
  0
LINE
  5
5447
330
2
100
AcDbEntity
  8
KIJUN
100
AcDbLine
 10
290.4317413191348
 20
1160.614154378513
 30
0.0
 11
291.7921653190458
 21
1150.831217378532
 31
0.0
  0
LINE
  5
5448
330
2
100
AcDbEntity
  8
KIJUN
100
AcDbLine
 10
291.7921653190458
 20
1150.831217378532
 30
0.0
 11
292.5851533190689
 21
1141.06136137849
 31
0.0
  0
LINE
  5
5449
330
2
100
AcDbEntity
  8
KIJUN
100
AcDbLine
 10
292.5851533190689
 20
1141.06136137849
 30
0.0
 11
292.9011293190815
 21
1131.278551378558
 31
0.0
  0
LINE
  5
544A
330
2
100
AcDbEntity
  8
KIJUN
100
AcDbLine
 10
292.9011293190815
 20
1131.278551378558
 30
0.0
 11
292.8305173191948
 21
1121.457006378559
 31
0.0
  0
LINE
  5
544B
330
2
100
AcDbEntity
  8
KIJUN
100
AcDbLine
 10
292.8305173191948
 20
1121.457006378559
 30
0.0
 11
292.4638683191261
 21
1111.570945378562
 31
0.0
  0
LINE
  5
544C
330
2
100
AcDbEntity
  8
KIJUN
100
AcDbLine
 10
335.2393733191966
 20
1170.435953378591
 30
0.0
 11
333.2210893190384
 21
1160.614154378513
 31
0.0
  0
LINE
  5
544D
330
2
100
AcDbEntity
  8
KIJUN
100
AcDbLine
 10
333.2210893190384
 20
1160.614154378513
 30
0.0
 11
331.8606653191273
 21
1150.831217378532
 31
0.0
  0
LINE
  5
544E
330
2
100
AcDbEntity
  8
KIJUN
100
AcDbLine
 10
331.8606653191273
 20
1150.831217378532
 30
0.0
 11
331.0676773191042
 21
1141.06136137849
 31
0.0
  0
LINE
  5
544F
330
2
100
AcDbEntity
  8
KIJUN
100
AcDbLine
 10
331.0676773191042
 20
1141.06136137849
 30
0.0
 11
330.7517013190918
 21
1131.278551378558
 31
0.0
  0
LINE
  5
5450
330
2
100
AcDbEntity
  8
KIJUN
100
AcDbLine
 10
330.7517013190918
 20
1131.278551378558
 30
0.0
 11
330.8223133192041
 21
1121.457006378559
 31
0.0
  0
LINE
  5
5451
330
2
100
AcDbEntity
  8
KIJUN
100
AcDbLine
 10
330.8223133192041
 20
1121.457006378559
 30
0.0
 11
331.1889623190473
 21
1111.570945378562
 31
0.0
  0
LINE
  5
5452
330
2
100
AcDbEntity
  8
KIJUN
  6
CENTER
100
AcDbLine
 10
313.5783803190678
 20
224.4818480174245
 30
0.0
 11
313.5783803190678
 21
1439.95299725
 31
0.0
  0
LINE
  5
5453
330
2
100
AcDbEntity
  8
KIJUN
100
AcDbLine
 10
258.0783803190678
 20
284.6143823785628
 30
0.0
 11
369.0783803190679
 21
284.6143823785629
 31
0.0
  0
LINE
  5
5454
330
2
100
AcDbEntity
  8
KIJUN
100
AcDbLine
 10
371.0783803190679
 20
286.6143823785629
 30
0.0
 11
371.0783803190679
 21
622.6143823785629
 31
0.0
  0
LINE
  5
5455
330
2
100
AcDbEntity
  8
KIJUN
100
AcDbLine
 10
256.0783803190678
 20
286.6143823785628
 30
0.0
 11
256.0783803190678
 21
622.6143823785629
 31
0.0
  0
LINE
  5
5456
330
2
100
AcDbEntity
  8
KIJUN
100
AcDbLine
 10
258.0783803190677
 20
1384.614382378563
 30
0.0
 11
369.0783803190679
 21
1384.614382378562
 31
0.0
  0
ARC
  5
5457
330
2
100
AcDbEntity
  8
KIJUN
100
AcDbCircle
 10
258.0783803190678
 20
286.6143823785628
 30
0.0
 40
2.0
100
AcDbArc
 50
180.0
 51
270.0
  0
ARC
  5
5458
330
2
100
AcDbEntity
  8
KIJUN
100
AcDbCircle
 10
369.0783803190679
 20
286.6143823785629
 30
0.0
 40
2.0
100
AcDbArc
 50
270.0
 51
0.0
  0
LINE
  5
5459
330
2
100
AcDbEntity
  8
KIJUN
100
AcDbLine
 10
371.0783803190679
 20
1231.463394378525
 30
0.0
 11
371.0783803190679
 21
1382.614382378563
 31
0.0
  0
LINE
  5
545A
330
2
100
AcDbEntity
  8
KIJUN
100
AcDbLine
 10
256.0783803190678
 20
1231.463394378524
 30
0.0
 11
256.0783803190677
 21
1382.614382378563
 31
0.0
  0
ARC
  5
545B
330
2
100
AcDbEntity
  8
KIJUN
100
AcDbCircle
 10
258.0783803190678
 20
622.614382378563
 30
0.0
 40
2.0
100
AcDbArc
 50
90.0
 51
180.0
  0
ARC
  5
545C
330
2
100
AcDbEntity
  8
KIJUN
100
AcDbCircle
 10
369.0783803190679
 20
622.6143823785629
 30
0.0
 40
2.0
100
AcDbArc
 50
0.0
 51
89.99999999999994
  0
ARC
  5
5483
330
2
100
AcDbEntity
  8
KIJUN
100
AcDbCircle
 10
279.0783803190678
 20
1252.463394378524
 30
0.0
 40
23.0
100
AcDbArc
 50
180.0
 51
270.0
  0
ARC
  5
5484
330
2
100
AcDbEntity
  8
KIJUN
100
AcDbCircle
 10
348.0783803190679
 20
1252.463394378524
 30
0.0
 40
23.0
100
AcDbArc
 50
270.0000000000002
 51
0.0
  0
ARC
  5
5485
330
2
100
AcDbEntity
  8
KIJUN
100
AcDbCircle
 10
279.0783803190677
 20
1361.614382378562
 30
0.0
 40
23.0
100
AcDbArc
 50
90.0
 51
180.0
  0
ARC
  5
5486
330
2
100
AcDbEntity
  8
KIJUN
100
AcDbCircle
 10
348.0783803190679
 20
1361.614382378562
 30
0.0
 40
23.0
100
AcDbArc
 50
0.0
 51
90.0
  0
ARC
  5
5487
330
2
100
AcDbEntity
  8
KIJUN
100
AcDbCircle
 10
258.0783803190677
 20
1382.614382378563
 30
0.0
 40
2.0
100
AcDbArc
 50
90.0
 51
180.0
  0
ARC
  5
5488
330
2
100
AcDbEntity
  8
KIJUN
100
AcDbCircle
 10
369.0783803190679
 20
1382.614382378563
 30
0.0
 40
2.0
100
AcDbArc
 50
0.0
 51
89.99999999999984
  0
ARC
  5
5489
330
2
100
AcDbEntity
  8
KIJUN
100
AcDbCircle
 10
369.0783803190679
 20
1231.463394378525
 30
0.0
 40
2.0
100
AcDbArc
 50
270.0000000000002
 51
0.0
  0
ARC
  5
548A
330
2
100
AcDbEntity
  8
KIJUN
100
AcDbCircle
 10
258.0783803190678
 20
1231.463394378524
 30
0.0
 40
2.0
100
AcDbArc
 50
180.0
 51
270.0000000000003
  0
DIMENSION
  5
548B
330
2
100
AcDbEntity
  8
SUNPOU
100
AcDbDimension
  2
*D14
 10
371.0783803190679
 20
1479.623224660311
 30
0.0
 11
313.5783803190678
 21
1499.623224660311
 31
0.0
 70
    32
 71
     5
 42
115.0000000000001
  3
STANDARD$0
100
AcDbAlignedDimension
 13
256.0783803190677
 23
1382.614382378563
 33
0.0
 14
371.0783803190679
 24
1382.614382378563
 34
0.0
100
AcDbRotatedDimension
1001
ACAD
1000
DSTYLE
1002
{
1070
    41
1040
3.0
1070
    42
1040
3.0
1070
    44
1040
0.0
1070
    77
1070
     1
1070
   140
1040
10.0
1070
   146
1040
0.064286
1070
   147
1040
5.0
1070
   176
1070
    60
1070
   177
1070
    70
1070
   178
1070
    60
1070
   271
1070
     0
1070
   272
1070
     0
1070
   340
1005
1C
1070
   342
1005
109
1002
}
  0
DIMENSION
  5
5498
330
2
100
AcDbEntity
  8
SUNPOU
100
AcDbDimension
  2
*D15
 10
371.0783803190679
 20
154.4411415304607
 30
0.0
 11
313.5783803190678
 21
174.4411415304607
 31
0.0
 70
    32
 71
     5
 42
115.0000000000001
  3
STANDARD$0
100
AcDbAlignedDimension
 13
256.0783803190678
 23
286.6143823785628
 33
0.0
 14
371.0783803190679
 24
286.6143823785629
 34
0.0
100
AcDbRotatedDimension
1001
ACAD
1000
DSTYLE
1002
{
1070
    41
1040
3.0
1070
    42
1040
3.0
1070
    44
1040
0.0
1070
    77
1070
     1
1070
   140
1040
10.0
1070
   146
1040
0.064286
1070
   147
1040
5.0
1070
   176
1070
    60
1070
   177
1070
    70
1070
   178
1070
    60
1070
   271
1070
     0
1070
   272
1070
     0
1070
   340
1005
1C
1070
   342
1005
109
1002
}
  0
DIMENSION
  5
54A5
330
2
100
AcDbEntity
  8
SUNPOU
100
AcDbDimension
  2
*D16
 10
56.51944005289722
 20
1384.614382378563
 30
0.0
 11
36.51944005289697
 21
834.6143823785627
 31
0.0
 70
    32
 71
     5
 42
1100.0
  3
STANDARD$0
100
AcDbAlignedDimension
 13
258.0783803190678
 23
284.6143823785628
 33
0.0
 14
258.0783803190677
 24
1384.614382378563
 34
0.0
 50
90.0
100
AcDbRotatedDimension
1001
ACAD
1000
DSTYLE
1002
{
1070
    41
1040
3.0
1070
    42
1040
3.0
1070
    44
1040
0.0
1070
    77
1070
     1
1070
   140
1040
10.0
1070
   146
1040
0.064286
1070
   147
1040
5.0
1070
   176
1070
    60
1070
   177
1070
    70
1070
   178
1070
    60
1070
   271
1070
     0
1070
   272
1070
     0
1070
   340
1005
1C
1070
   342
1005
109
1002
}
  0
TEXT
  5
54C3
330
2
100
AcDbEntity
  8
HOJO
100
AcDbText
 10
5.432643235333614
 20
-34.80214139359385
 30
0.0
 40
20.0
  1
※ 形状・寸法は製品特性や、生産ロットにより誤差があるものがあります。
  7
SUNPOU
100
AcDbText
  0
DIMENSION
  5
54C4
330
2
100
AcDbEntity
  8
SUNPOU
100
AcDbDimension
  2
*D18
 10
135.5927765734305
 20
1384.614382378563
 30
0.0
 11
115.5927765734303
 21
1307.038888378543
 31
0.0
 70
    32
 71
     5
 42
155.1509880000387
  3
STANDARD$0
100
AcDbAlignedDimension
 13
258.0783803190678
 23
1229.463394378524
 33
0.0
 14
258.0783803190677
 24
1384.614382378563
 34
0.0
 50
90.0
100
AcDbRotatedDimension
1001
ACAD
1000
DSTYLE
1002
{
1070
    41
1040
3.0
1070
    42
1040
3.0
1070
    44
1040
0.0
1070
    77
1070
     1
1070
   140
1040
10.0
1070
   146
1040
0.064286
1070
   147
1040
5.0
1070
   176
1070
    60
1070
   177
1070
    70
1070
   178
1070
    60
1070
   271
1070
     0
1070
   272
1070
     0
1070
   340
1005
1C
1070
   342
1005
109
1002
}
  0
DIMENSION
  5
54EC
330
2
100
AcDbEntity
  8
SUNPOU
100
AcDbDimension
  2
*D19
 10
135.5927765734305
 20
1229.463394378524
 30
0.0
 11
115.5927765734303
 21
927.0388883785436
 31
0.0
 70
    32
 71
     5
 42
604.8490119999609
  3
STANDARD$0
100
AcDbAlignedDimension
 13
258.0783803190678
 23
624.614382378563
 33
0.0
 14
258.0783803190678
 24
1229.463394378524
 34
0.0
 50
90.0
100
AcDbRotatedDimension
1001
ACAD
1000
DSTYLE
1002
{
1070
    41
1040
3.0
1070
    42
1040
3.0
1070
    44
1040
0.0
1070
    77
1070
     1
1070
   140
1040
10.0
1070
   146
1040
0.064286
1070
   147
1040
5.0
1070
   176
1070
    60
1070
   177
1070
    70
1070
   178
1070
    60
1070
   271
1070
     0
1070
   272
1070
     0
1070
   340
1005
1C
1070
   342
1005
109
1002
}
  0
DIMENSION
  5
5502
330
2
100
AcDbEntity
  8
SUNPOU
100
AcDbDimension
  2
*D20
 10
135.5927765734305
 20
624.6143823785631
 30
0.0
 11
115.5927765734304
 21
454.6143823785629
 31
0.0
 70
    32
 71
     5
 42
340.0000000000003
  3
STANDARD$0
100
AcDbAlignedDimension
 13
258.0783803190678
 23
284.6143823785628
 33
0.0
 14
258.0783803190678
 24
624.614382378563
 34
0.0
 50
90.0
100
AcDbRotatedDimension
1001
ACAD
1000
DSTYLE
1002
{
1070
    41
1040
3.0
1070
    42
1040
3.0
1070
    44
1040
0.0
1070
    77
1070
     1
1070
   140
1040
10.0
1070
   146
1040
0.064286
1070
   147
1040
5.0
1070
   176
1070
    60
1070
   177
1070
    70
1070
   178
1070
    60
1070
   271
1070
     0
1070
   272
1070
     0
1070
   340
1005
1C
1070
   342
1005
109
1002
}
  0
ARC
  5
554A
330
2
100
AcDbEntity
  8
0
100
AcDbCircle
 10
356.4536696304427
 20
631.4796623785609
 30
0.0
 40
7.047387437699314
100
AcDbArc
 50
283.0535024883614
 51
76.9464975116386
  0
LINE
  5
554B
330
2
100
AcDbEntity
  8
KIJUN
100
AcDbLine
 10
269.1113623189192
 20
641.9533933785664
 30
0.0
 11
269.1113623189191
 21
638.3449423785592
 31
0.0
  0
ARC
  5
554C
330
2
100
AcDbEntity
  8
0
100
AcDbCircle
 10
270.7030910076929
 20
631.4796623785609
 30
0.0
 40
7.047387437699314
100
AcDbArc
 50
103.0535024883614
 51
256.9464975116387
  0
ENDSEC
  0
SECTION
  2
OBJECTS
  0
DICTIONARY
  5
1A
330
0
100
AcDbDictionary
281
     1
  3
ACAD_COLOR
350
54B6
  3
ACAD_GROUP
350
18
  3
ACAD_LAYOUT
350
58
  3
ACAD_MATERIAL
350
54B5
  3
ACAD_MLINESTYLE
350
19
  3
ACAD_PLOTSETTINGS
350
59
  3
ACAD_PLOTSTYLENAME
350
56
  3
ACAD_TABLESTYLE
350
54B7
  3
ACDBHEADERROUNDTRIPXREC
350
55A5
  3
AcDbVariableDictionary
350
55A0
  0
DICTIONARY
  5
54B6
102
{ACAD_REACTORS
330
1A
102
}
330
1A
100
AcDbDictionary
281
     1
  0
DICTIONARY
  5
18
102
{ACAD_REACTORS
330
1A
102
}
330
1A
100
AcDbDictionary
281
     1
  3
*A1
350
3A0
  3
*A10
350
38D5
  3
*A11
350
46AB
  3
*A12
350
4FAD
  3
*A13
350
4FAE
  3
*A14
350
38D6
  3
*A15
350
46A2
  3
*A2
350
3A1
  3
*A3
350
ACC
  3
*A4
350
2120
  3
*A5
350
2765
  3
*A6
350
2766
  3
*A8
350
2FC6
  3
*A9
350
2FC7
  0
DICTIONARY
  5
58
102
{ACAD_REACTORS
330
1A
102
}
330
1A
100
AcDbDictionary
281
     1
  3
Model
350
5A
  3
ﾚｲｱｳﾄ1
350
5B
  0
DICTIONARY
  5
54B5
102
{ACAD_REACTORS
330
1A
102
}
330
1A
100
AcDbDictionary
281
     1
  0
DICTIONARY
  5
19
102
{ACAD_REACTORS
330
1A
102
}
330
1A
100
AcDbDictionary
281
     1
  3
STANDARD
350
1D
  0
DICTIONARY
  5
59
102
{ACAD_REACTORS
330
1A
102
}
330
1A
100
AcDbDictionary
281
     1
  0
ACDBDICTIONARYWDFLT
  5
56
102
{ACAD_REACTORS
330
1A
102
}
330
1A
100
AcDbDictionary
281
     1
  3
Normal
350
57
100
AcDbDictionaryWithDefault
340
57
  0
DICTIONARY
  5
54B7
102
{ACAD_REACTORS
330
1A
102
}
330
1A
100
AcDbDictionary
281
     1
  3
Standard
350
54B8
  0
DICTIONARY
  5
55A5
102
{ACAD_REACTORS
330
1A
102
}
330
1A
100
AcDbDictionary
281
     1
  0
DICTIONARY
  5
55A0
102
{ACAD_REACTORS
330
1A
102
}
330
1A
100
AcDbDictionary
281
     1
  3
CTABLESTYLE
350
55A1
  3
DIMASSOC
350
55A2
  3
PROJECTNAME
350
55A3
  0
GROUP
  5
3A0
102
{ACAD_REACTORS
330
18
102
}
330
18
100
AcDbGroup
300

 70
     1
 71
     1
  0
GROUP
  5
38D5
102
{ACAD_REACTORS
330
18
102
}
330
18
100
AcDbGroup
300

 70
     1
 71
     1
  0
GROUP
  5
46AB
102
{ACAD_REACTORS
330
18
102
}
330
18
100
AcDbGroup
300

 70
     1
 71
     1
  0
GROUP
  5
4FAD
102
{ACAD_REACTORS
330
18
102
}
330
18
100
AcDbGroup
300

 70
     1
 71
     1
  0
GROUP
  5
4FAE
102
{ACAD_REACTORS
330
18
102
}
330
18
100
AcDbGroup
300

 70
     1
 71
     1
  0
GROUP
  5
38D6
102
{ACAD_REACTORS
330
18
102
}
330
18
100
AcDbGroup
300

 70
     1
 71
     1
  0
GROUP
  5
46A2
102
{ACAD_REACTORS
330
18
102
}
330
18
100
AcDbGroup
300

 70
     1
 71
     1
  0
GROUP
  5
3A1
102
{ACAD_REACTORS
330
18
102
}
330
18
100
AcDbGroup
300

 70
     1
 71
     1
  0
GROUP
  5
ACC
102
{ACAD_REACTORS
330
18
102
}
330
18
100
AcDbGroup
300

 70
     1
 71
     1
  0
GROUP
  5
2120
102
{ACAD_REACTORS
330
18
102
}
330
18
100
AcDbGroup
300

 70
     1
 71
     1
  0
GROUP
  5
2765
102
{ACAD_REACTORS
330
18
102
}
330
18
100
AcDbGroup
300

 70
     1
 71
     1
  0
GROUP
  5
2766
102
{ACAD_REACTORS
330
18
102
}
330
18
100
AcDbGroup
300

 70
     1
 71
     1
  0
GROUP
  5
2FC6
102
{ACAD_REACTORS
330
18
102
}
330
18
100
AcDbGroup
300

 70
     1
 71
     1
  0
GROUP
  5
2FC7
102
{ACAD_REACTORS
330
18
102
}
330
18
100
AcDbGroup
300

 70
     1
 71
     1
  0
LAYOUT
  5
5A
102
{ACAD_XDICTIONARY
360
55A6
102
}
102
{ACAD_REACTORS
330
58
102
}
330
58
100
AcDbPlotSettings
  1

  2
なし
  4

  6

 40
0.0
 41
0.0
 42
0.0
 43
0.0
 44
0.0
 45
0.0
 46
0.0
 47
0.0
 48
0.0
 49
0.0
140
0.0
141
0.0
142
1.0
143
1.0
 70
  1712
 72
     0
 73
     0
 74
     0
  7
monochrome.ctb
 75
     0
147
1.0
148
0.0
149
0.0
100
AcDbLayout
  1
Model
 70
     1
 71
     0
 10
0.0
 20
0.0
 11
12.0
 21
9.0
 12
0.0
 22
0.0
 32
0.0
 14
0.0
 24
0.0
 34
0.0
 15
0.0
 25
0.0
 35
0.0
146
0.0
 13
0.0
 23
0.0
 33
0.0
 16
1.0
 26
0.0
 36
0.0
 17
0.0
 27
1.0
 37
0.0
 76
     0
330
2
  0
LAYOUT
  5
5B
102
{ACAD_XDICTIONARY
360
55A8
102
}
102
{ACAD_REACTORS
330
58
102
}
330
58
100
AcDbPlotSettings
  1

  2
なし
  4

  6

 40
0.0
 41
0.0
 42
0.0
 43
0.0
 44
0.0
 45
0.0
 46
0.0
 47
0.0
 48
0.0
 49
0.0
140
0.0
141
0.0
142
1.0
143
1.0
 70
   688
 72
     0
 73
     0
 74
     5
  7
monochrome.ctb
 75
    16
147
1.0
148
0.0
149
0.0
100
AcDbLayout
  1
ﾚｲｱｳﾄ1
 70
     1
 71
     1
 10
0.0
 20
0.0
 11
12.0
 21
9.0
 12
0.0
 22
0.0
 32
0.0
 14
1.000000000000000E+20
 24
1.000000000000000E+20
 34
1.000000000000000E+20
 15
-1.000000000000000E+20
 25
-1.000000000000000E+20
 35
-1.000000000000000E+20
146
0.0
 13
0.0
 23
0.0
 33
0.0
 16
1.0
 26
0.0
 36
0.0
 17
0.0
 27
1.0
 37
0.0
 76
     0
330
7
  0
MLINESTYLE
  5
1D
102
{ACAD_REACTORS
330
19
102
}
330
19
100
AcDbMlineStyle
  2
STANDARD
 70
     0
  3

 62
   256
 51
90.0
 52
90.0
 71
     2
 49
0.5
 62
   256
  6
BYLAYER
 49
-0.5
 62
   256
  6
BYLAYER
  0
ACDBPLACEHOLDER
  5
57
102
{ACAD_REACTORS
330
56
102
}
330
56
  0
TABLESTYLE
  5
54B8
102
{ACAD_REACTORS
330
54B7
102
}
330
54B7
100
AcDbTableStyle
  3
Standard
 70
     0
 71
     0
 40
0.06
 41
0.06
280
     0
281
     0
  7
STANDARD
140
0.18
170
     2
 62
     0
 63
     7
283
     0
274
    -2
284
     1
 64
     0
275
    -2
285
     1
 65
     0
276
    -2
286
     1
 66
     0
277
    -2
287
     1
 67
     0
278
    -2
288
     1
 68
     0
279
    -2
289
     1
 69
     0
  7
STANDARD
140
0.25
170
     5
 62
     0
 63
     7
283
     0
274
    -2
284
     1
 64
     0
275
    -2
285
     1
 65
     0
276
    -2
286
     1
 66
     0
277
    -2
287
     1
 67
     0
278
    -2
288
     1
 68
     0
279
    -2
289
     1
 69
     0
  7
STANDARD
140
0.18
170
     5
 62
     0
 63
     7
283
     0
274
    -2
284
     1
 64
     0
275
    -2
285
     1
 65
     0
276
    -2
286
     1
 66
     0
277
    -2
287
     1
 67
     0
278
    -2
288
     1
 68
     0
279
    -2
289
     1
 69
     0
  0
DICTIONARYVAR
  5
55A1
102
{ACAD_REACTORS
330
55A0
102
}
330
55A0
100
DictionaryVariables
280
     0
  1
STANDARD
  0
DICTIONARYVAR
  5
55A2
102
{ACAD_REACTORS
330
55A0
102
}
330
55A0
100
DictionaryVariables
280
     0
  1
1
  0
DICTIONARYVAR
  5
55A3
102
{ACAD_REACTORS
330
55A0
102
}
330
55A0
100
DictionaryVariables
280
     0
  1

  0
DICTIONARY
  5
55A6
330
5A
100
AcDbDictionary
280
     1
281
     1
  3
ACAD_XREC_ROUNDTRIP
360
55A7
  0
DICTIONARY
  5
55A8
330
5B
100
AcDbDictionary
280
     1
281
     1
  3
ACAD_XREC_ROUNDTRIP
360
55A9
  0
XRECORD
  5
55A7
102
{ACAD_REACTORS
330
55A6
102
}
330
55A6
100
AcDbXrecord
280
     1
102
SHADEPLOT
 70
     0
102
SHADEPLOTRESLEVEL
 70
     2
102
SHADEPLOTCUSTOMDPI
 70
   300
  0
XRECORD
  5
55A9
102
{ACAD_REACTORS
330
55A8
102
}
330
55A8
100
AcDbXrecord
280
     1
102
SHADEPLOT
 70
     0
102
SHADEPLOTRESLEVEL
 70
     2
102
SHADEPLOTCUSTOMDPI
 70
   300
  0
ENDSEC
  0
EOF
