  0
SECTION
  2
HEADER
  9
$ACADVER
  1
AC1015
  9
$ACADMAINTVER
 70
    20
  9
$DWGCODEPAGE
  3
ANSI_932
  9
$INSBASE
 10
922.019522
 20
-675.4306699999999
 30
0.0
  9
$EXTMIN
 10
-115.1499415436988
 20
-35.65623491458041
 30
-0.0000000349181948
  9
$EXTMAX
 10
818.0674437527931
 20
1002.876727392182
 30
0.0000000814935746
  9
$LIMMIN
 10
0.0
 20
0.0
  9
$LIMMAX
 10
420.0
 20
297.0
  9
$ORTHOMODE
 70
     0
  9
$REGENMODE
 70
     1
  9
$FILLMODE
 70
     1
  9
$QTEXTMODE
 70
     0
  9
$MIRRTEXT
 70
     1
  9
$LTSCALE
 40
50.0
  9
$ATTMODE
 70
     1
  9
$TEXTSIZE
 40
30.0
  9
$TRACEWID
 40
0.05
  9
$TEXTSTYLE
  7
SUNPOU
  9
$CLAYER
  8
0
  9
$CELTYPE
  6
BYLAYER
  9
$CECOLOR
 62
   256
  9
$CELTSCALE
 40
1.0
  9
$DISPSILH
 70
     0
  9
$DIMSCALE
 40
1.0
  9
$DIMASZ
 40
3.0
  9
$DIMEXO
 40
3.0
  9
$DIMDLI
 40
0.38
  9
$DIMRND
 40
0.0
  9
$DIMDLE
 40
0.0
  9
$DIMEXE
 40
0.0
  9
$DIMTP
 40
0.0
  9
$DIMTM
 40
0.0
  9
$DIMTXT
 40
10.0
  9
$DIMCEN
 40
0.0
  9
$DIMTSZ
 40
0.0
  9
$DIMTOL
 70
     0
  9
$DIMLIM
 70
     0
  9
$DIMTIH
 70
     0
  9
$DIMTOH
 70
     0
  9
$DIMSE1
 70
     0
  9
$DIMSE2
 70
     0
  9
$DIMTAD
 70
     1
  9
$DIMZIN
 70
     0
  9
$DIMBLK
  1
Dot
  9
$DIMASO
 70
     1
  9
$DIMSHO
 70
     1
  9
$DIMPOST
  1

  9
$DIMAPOST
  1

  9
$DIMALT
 70
     0
  9
$DIMALTD
 70
     2
  9
$DIMALTF
 40
25.4
  9
$DIMLFAC
 40
1.0
  9
$DIMTOFL
 70
     0
  9
$DIMTVP
 40
0.0
  9
$DIMTIX
 70
     0
  9
$DIMSOXD
 70
     0
  9
$DIMSAH
 70
     0
  9
$DIMBLK1
  1

  9
$DIMBLK2
  1

  9
$DIMSTYLE
  2
STANDARD
  9
$DIMCLRD
 70
    60
  9
$DIMCLRE
 70
    70
  9
$DIMCLRT
 70
    60
  9
$DIMTFAC
 40
0.064286
  9
$DIMGAP
 40
5.0
  9
$DIMJUST
 70
     0
  9
$DIMSD1
 70
     0
  9
$DIMSD2
 70
     0
  9
$DIMTOLJ
 70
     1
  9
$DIMTZIN
 70
     0
  9
$DIMALTZ
 70
     0
  9
$DIMALTTZ
 70
     0
  9
$DIMUPT
 70
     0
  9
$DIMDEC
 70
     0
  9
$DIMTDEC
 70
     0
  9
$DIMALTU
 70
     2
  9
$DIMALTTD
 70
     2
  9
$DIMTXSTY
  7
SUNPOU
  9
$DIMAUNIT
 70
     0
  9
$DIMADEC
 70
     0
  9
$DIMALTRND
 40
0.0
  9
$DIMAZIN
 70
     0
  9
$DIMDSEP
 70
    46
  9
$DIMATFIT
 70
     3
  9
$DIMFRAC
 70
     0
  9
$DIMLDRBLK
  1

  9
$DIMLUNIT
 70
     2
  9
$DIMLWD
 70
    -2
  9
$DIMLWE
 70
    -2
  9
$DIMTMOVE
 70
     0
  9
$LUNITS
 70
     2
  9
$LUPREC
 70
     5
  9
$SKETCHINC
 40
0.1
  9
$FILLETRAD
 40
0.0
  9
$AUNITS
 70
     0
  9
$AUPREC
 70
     0
  9
$MENU
  1
acad
  9
$ELEVATION
 40
0.0
  9
$PELEVATION
 40
0.0
  9
$THICKNESS
 40
0.0
  9
$LIMCHECK
 70
     0
  9
$CHAMFERA
 40
0.0
  9
$CHAMFERB
 40
0.0
  9
$CHAMFERC
 40
0.0
  9
$CHAMFERD
 40
0.0
  9
$SKPOLY
 70
     0
  9
$TDCREATE
 40
2450623.654673033
  9
$TDUCREATE
 40
2450623.279673032
  9
$TDUPDATE
 40
2454580.613074792
  9
$TDUUPDATE
 40
2454580.238074792
  9
$TDINDWG
 40
0.1571675000
  9
$TDUSRTIMER
 40
0.1571673264
  9
$USRTIMER
 70
     1
  9
$ANGBASE
 50
0.0
  9
$ANGDIR
 70
     0
  9
$PDMODE
 70
     0
  9
$PDSIZE
 40
0.0
  9
$PLINEWID
 40
0.0
  9
$SPLFRAME
 70
     0
  9
$SPLINETYPE
 70
     6
  9
$SPLINESEGS
 70
     8
  9
$HANDSEED
  5
3908
  9
$SURFTAB1
 70
     6
  9
$SURFTAB2
 70
     6
  9
$SURFTYPE
 70
     6
  9
$SURFU
 70
     6
  9
$SURFV
 70
     6
  9
$UCSBASE
  2

  9
$UCSNAME
  2

  9
$UCSORG
 10
0.0
 20
0.0
 30
0.0
  9
$UCSXDIR
 10
1.0
 20
0.0
 30
0.0
  9
$UCSYDIR
 10
0.0
 20
1.0
 30
0.0
  9
$UCSORTHOREF
  2

  9
$UCSORTHOVIEW
 70
     0
  9
$UCSORGTOP
 10
0.0
 20
0.0
 30
0.0
  9
$UCSORGBOTTOM
 10
0.0
 20
0.0
 30
0.0
  9
$UCSORGLEFT
 10
0.0
 20
0.0
 30
0.0
  9
$UCSORGRIGHT
 10
0.0
 20
0.0
 30
0.0
  9
$UCSORGFRONT
 10
0.0
 20
0.0
 30
0.0
  9
$UCSORGBACK
 10
0.0
 20
0.0
 30
0.0
  9
$PUCSBASE
  2

  9
$PUCSNAME
  2

  9
$PUCSORG
 10
0.0
 20
0.0
 30
0.0
  9
$PUCSXDIR
 10
1.0
 20
0.0
 30
0.0
  9
$PUCSYDIR
 10
0.0
 20
1.0
 30
0.0
  9
$PUCSORTHOREF
  2

  9
$PUCSORTHOVIEW
 70
     0
  9
$PUCSORGTOP
 10
0.0
 20
0.0
 30
0.0
  9
$PUCSORGBOTTOM
 10
0.0
 20
0.0
 30
0.0
  9
$PUCSORGLEFT
 10
0.0
 20
0.0
 30
0.0
  9
$PUCSORGRIGHT
 10
0.0
 20
0.0
 30
0.0
  9
$PUCSORGFRONT
 10
0.0
 20
0.0
 30
0.0
  9
$PUCSORGBACK
 10
0.0
 20
0.0
 30
0.0
  9
$USERI1
 70
     0
  9
$USERI2
 70
     0
  9
$USERI3
 70
     0
  9
$USERI4
 70
     0
  9
$USERI5
 70
     0
  9
$USERR1
 40
0.0
  9
$USERR2
 40
0.0
  9
$USERR3
 40
0.0
  9
$USERR4
 40
0.0
  9
$USERR5
 40
0.0
  9
$WORLDVIEW
 70
     1
  9
$SHADEDGE
 70
     3
  9
$SHADEDIF
 70
    70
  9
$TILEMODE
 70
     1
  9
$MAXACTVP
 70
    16
  9
$PINSBASE
 10
0.0
 20
0.0
 30
0.0
  9
$PLIMCHECK
 70
     0
  9
$PEXTMIN
 10
1.000000000000000E+20
 20
1.000000000000000E+20
 30
1.000000000000000E+20
  9
$PEXTMAX
 10
-1.000000000000000E+20
 20
-1.000000000000000E+20
 30
-1.000000000000000E+20
  9
$PLIMMIN
 10
0.0
 20
0.0
  9
$PLIMMAX
 10
12.0
 20
9.0
  9
$UNITMODE
 70
     0
  9
$VISRETAIN
 70
     0
  9
$PLINEGEN
 70
     0
  9
$PSLTSCALE
 70
     1
  9
$TREEDEPTH
 70
  3020
  9
$CMLSTYLE
  2
STANDARD
  9
$CMLJUST
 70
     0
  9
$CMLSCALE
 40
1.0
  9
$PROXYGRAPHICS
 70
     1
  9
$MEASUREMENT
 70
     0
  9
$CELWEIGHT
370
    -1
  9
$ENDCAPS
280
     0
  9
$JOINSTYLE
280
     0
  9
$LWDISPLAY
290
     0
  9
$INSUNITS
 70
     0
  9
$HYPERLINKBASE
  1

  9
$STYLESHEET
  1

  9
$XEDIT
290
     1
  9
$CEPSNTYPE
380
     0
  9
$PSTYLEMODE
290
     1
  9
$FINGERPRINTGUID
  2
{FB88A696-E29C-4009-92AF-A3599A8169D5}
  9
$VERSIONGUID
  2
{ACBB8014-A62A-41FD-8310-5BF35307F7F0}
  9
$EXTNAMES
290
     1
  9
$PSVPSCALE
 40
0.0
  9
$OLESTARTUP
290
     0
  0
ENDSEC
  0
SECTION
  2
CLASSES
  0
CLASS
  1
DICTIONARYVAR
  2
AcDbDictionaryVar
  3
ObjectDBX Classes
 90
        0
280
     0
281
     0
  0
CLASS
  1
ACDBDICTIONARYWDFLT
  2
AcDbDictionaryWithDefault
  3
ObjectDBX Classes
 90
        0
280
     0
281
     0
  0
CLASS
  1
ACDBPLACEHOLDER
  2
AcDbPlaceHolder
  3
ObjectDBX Classes
 90
        0
280
     0
281
     0
  0
CLASS
  1
LAYOUT
  2
AcDbLayout
  3
ObjectDBX Classes
 90
        0
280
     0
281
     0
  0
CLASS
  1
TABLESTYLE
  2
AcDbTableStyle
  3
ObjectDBX Classes
 90
     2047
280
     0
281
     0
  0
ENDSEC
  0
SECTION
  2
TABLES
  0
TABLE
  2
VPORT
  5
12
330
0
100
AcDbSymbolTable
 70
     4
  0
VPORT
  5
3902
330
12
100
AcDbSymbolTableRecord
100
AcDbViewportTableRecord
  2
*Active
 70
     0
 10
0.0
 20
0.0
 11
1.0
 21
1.0
 12
351.4587511045472
 22
483.6102462388009
 13
0.0
 23
0.0
 14
1.0
 24
1.0
 15
0.0
 25
0.0
 16
0.0
 26
0.0
 36
1.0
 17
0.0
 27
0.0
 37
0.0
 40
1046.460694843455
 41
1.528662420382165
 42
50.0
 43
0.0
 44
0.0
 50
0.0
 51
0.0
 71
     0
 72
 20000
 73
     1
 74
     1
 75
     0
 76
     0
 77
     0
 78
     0
281
     0
 65
     1
110
0.0
120
0.0
130
0.0
111
1.0
121
0.0
131
0.0
112
0.0
122
1.0
132
0.0
 79
     0
146
0.0
  0
ENDTAB
  0
TABLE
  2
LTYPE
  5
D
330
0
100
AcDbSymbolTable
 70
     2
  0
LTYPE
  5
E
330
D
100
AcDbSymbolTableRecord
100
AcDbLinetypeTableRecord
  2
BYBLOCK
 70
     0
  3

 72
    65
 73
     0
 40
0.0
  0
LTYPE
  5
F
330
D
100
AcDbSymbolTableRecord
100
AcDbLinetypeTableRecord
  2
BYLAYER
 70
     0
  3

 72
    65
 73
     0
 40
0.0
  0
LTYPE
  5
5
330
D
100
AcDbSymbolTableRecord
100
AcDbLinetypeTableRecord
  2
CONTINUOUS
 70
     0
  3
Solid line
 72
    65
 73
     0
 40
0.0
  0
LTYPE
  5
1AC
330
D
100
AcDbSymbolTableRecord
100
AcDbLinetypeTableRecord
  2
CENTER
 70
     0
  3
Center ____ _ ____ _ ____ _ ____ _ ____ _ ____
 72
    65
 73
     4
 40
2.0
 49
1.25
 74
     0
 49
-0.25
 74
     0
 49
0.25
 74
     0
 49
-0.25
 74
     0
  0
ENDTAB
  0
TABLE
  2
LAYER
  5
A
330
0
100
AcDbSymbolTable
 70
     6
  0
LAYER
  5
4
330
A
100
AcDbSymbolTableRecord
100
AcDbLayerTableRecord
  2
0
 70
     0
 62
     7
  6
CONTINUOUS
370
    -3
390
57
  0
LAYER
  5
25
330
A
100
AcDbSymbolTableRecord
100
AcDbLayerTableRecord
  2
KIJUN
 70
     0
 62
     7
  6
CONTINUOUS
370
    -3
390
57
  0
LAYER
  5
22
330
A
100
AcDbSymbolTableRecord
100
AcDbLayerTableRecord
  2
HOJO
 70
     0
 62
     3
  6
CONTINUOUS
370
    -3
390
57
  0
LAYER
  5
1B
330
A
100
AcDbSymbolTableRecord
100
AcDbLayerTableRecord
  2
WAKU
 70
     0
 62
     1
  6
CONTINUOUS
370
    -3
390
57
  0
LAYER
  5
31
330
A
100
AcDbSymbolTableRecord
100
AcDbLayerTableRecord
  2
DEFPOINTS
 70
     0
 62
     7
  6
CONTINUOUS
290
     0
370
    -3
390
57
  0
LAYER
  5
28
330
A
100
AcDbSymbolTableRecord
100
AcDbLayerTableRecord
  2
SUNPOU
 70
     0
 62
    70
  6
CONTINUOUS
370
    -3
390
57
  0
ENDTAB
  0
TABLE
  2
STYLE
  5
B
330
0
100
AcDbSymbolTable
 70
     3
  0
STYLE
  5
C
330
B
100
AcDbSymbolTableRecord
100
AcDbTextStyleTableRecord
  2
STANDARD
 70
     0
 40
0.0
 41
1.0
 50
0.0
 71
     0
 42
0.2
  3
txt
  4

  0
STYLE
  5
1C
330
B
100
AcDbSymbolTableRecord
100
AcDbTextStyleTableRecord
  2
SUNPOU
 70
     0
 40
0.0
 41
1.0
 50
0.0
 71
     0
 42
30.0
  3
txt
  4
bigfont
  0
STYLE
  5
1AD
330
B
100
AcDbSymbolTableRecord
100
AcDbTextStyleTableRecord
  2
LIFE
 70
     0
 40
0.0
 41
0.7
 50
0.0
 71
     0
 42
10.0
  3
romans
  4
extfont
  0
ENDTAB
  0
TABLE
  2
VIEW
  5
10
330
0
100
AcDbSymbolTable
 70
     0
  0
ENDTAB
  0
TABLE
  2
UCS
  5
11
330
0
100
AcDbSymbolTable
 70
     0
  0
ENDTAB
  0
TABLE
  2
APPID
  5
14
330
0
100
AcDbSymbolTable
 70
     1
  0
APPID
  5
15
330
14
100
AcDbSymbolTableRecord
100
AcDbRegAppTableRecord
  2
ACAD
 70
     0
  0
ENDTAB
  0
TABLE
  2
DIMSTYLE
  5
16
330
0
100
AcDbSymbolTable
 70
     2
100
AcDbDimStyleTable
 71
     1
340
1E
  0
DIMSTYLE
105
1E
330
16
100
AcDbSymbolTableRecord
100
AcDbDimStyleTableRecord
  2
STANDARD
 70
     0
340
C
  0
DIMSTYLE
105
1AE
102
{ACAD_REACTORS
330
3816
330
3823
330
3830
330
383D
330
384A
330
3858
102
}
330
16
100
AcDbSymbolTableRecord
100
AcDbDimStyleTableRecord
  2
STANDARD$0
 70
     0
 40
2.0
 41
1.0
 42
2.0
 43
0.0
 44
1.0
 73
     0
 74
     0
 77
     3
 78
     9
140
4.5
141
0.0
147
1.0
172
     1
173
     1
178
     3
271
     2
340
1AD
341
109
343
109
344
109
  0
ENDTAB
  0
TABLE
  2
BLOCK_RECORD
  5
1
330
0
100
AcDbSymbolTable
 70
    28
  0
BLOCK_RECORD
  5
2
330
1
100
AcDbSymbolTableRecord
100
AcDbBlockTableRecord
  2
*MODEL_SPACE
340
5A
  0
BLOCK_RECORD
  5
7
330
1
100
AcDbSymbolTableRecord
100
AcDbBlockTableRecord
  2
*PAPER_SPACE
340
5B
  0
BLOCK_RECORD
  5
109
330
1
100
AcDbSymbolTableRecord
100
AcDbBlockTableRecord
  2
_Dot
340
0
102
{BLKREFS
331
2F8A
331
2F8B
331
2FCB
331
2FCC
331
2FD4
331
2FD5
331
2FDD
331
2FDE
331
2FE6
331
2FE7
331
300A
331
300B
331
302E
331
302F
331
3022
331
3023
331
2FFE
331
2FFF
331
3016
331
3017
331
2FF2
331
2FF3
331
321F
331
3220
331
3231
331
3232
331
3243
331
3244
331
324C
331
324D
331
37DC
331
37DD
331
37E5
331
37E6
331
37FD
331
37FE
331
380E
331
380F
331
381B
331
381C
331
3828
331
3829
331
389B
331
389C
331
38B0
331
38B1
331
38C4
331
38C5
331
38CF
331
38D0
102
}
  0
BLOCK_RECORD
  5
3817
330
1
100
AcDbSymbolTableRecord
100
AcDbBlockTableRecord
  2
*D21
340
0
  0
BLOCK_RECORD
  5
3824
330
1
100
AcDbSymbolTableRecord
100
AcDbBlockTableRecord
  2
*D22
340
0
  0
BLOCK_RECORD
  5
3831
330
1
100
AcDbSymbolTableRecord
100
AcDbBlockTableRecord
  2
*D23
340
0
  0
BLOCK_RECORD
  5
383E
330
1
100
AcDbSymbolTableRecord
100
AcDbBlockTableRecord
  2
*D24
340
0
  0
BLOCK_RECORD
  5
384B
330
1
100
AcDbSymbolTableRecord
100
AcDbBlockTableRecord
  2
*D25
340
0
  0
BLOCK_RECORD
  5
3859
330
1
100
AcDbSymbolTableRecord
100
AcDbBlockTableRecord
  2
*D26
340
0
  0
ENDTAB
  0
ENDSEC
  0
SECTION
  2
BLOCKS
  0
BLOCK
  5
3
330
2
100
AcDbEntity
  8
0
100
AcDbBlockBegin
  2
*MODEL_SPACE
 70
     0
 10
0.0
 20
0.0
 30
0.0
  3
*MODEL_SPACE
  1

  0
ENDBLK
  5
6
330
2
100
AcDbEntity
  8
0
100
AcDbBlockEnd
  0
BLOCK
  5
8
330
7
100
AcDbEntity
 67
     1
  8
0
100
AcDbBlockBegin
  2
*PAPER_SPACE
 70
     0
 10
0.0
 20
0.0
 30
0.0
  3
*PAPER_SPACE
  1

  0
ENDBLK
  5
9
330
7
100
AcDbEntity
 67
     1
  8
0
100
AcDbBlockEnd
  0
BLOCK
  5
10C
330
109
100
AcDbEntity
  8
0
100
AcDbBlockBegin
  2
_Dot
 70
     0
 10
0.0
 20
0.0
 30
0.0
  3
_Dot
  1

  0
LWPOLYLINE
  5
10A
330
109
100
AcDbEntity
  8
0
  6
ByBlock
 62
     0
100
AcDbPolyline
 90
        2
 70
     1
 43
0.5
 10
-0.25
 20
0.0
 42
1.0
 10
0.25
 20
0.0
 42
1.0
  0
LINE
  5
10B
330
109
100
AcDbEntity
  8
0
  6
ByBlock
 62
     0
370
    -2
100
AcDbLine
 10
-0.5
 20
0.0
 30
0.0
 11
-1.0
 21
0.0
 31
0.0
  0
ENDBLK
  5
10D
330
109
100
AcDbEntity
  8
0
100
AcDbBlockEnd
  0
BLOCK
  5
3821
330
3817
100
AcDbEntity
  8
0
100
AcDbBlockBegin
  2
*D21
 70
     1
 10
0.0
 20
0.0
 30
0.0
  3
*D21
  1

  0
LINE
  5
3818
330
3817
100
AcDbEntity
  8
SUNPOU
 62
    70
370
    -2
100
AcDbLine
 10
42.56529384566284
 20
786.3238350847705
 30
0.0
 11
42.56529384566285
 21
972.8711304733078
 31
0.0
  0
LINE
  5
3819
330
3817
100
AcDbEntity
  8
SUNPOU
 62
    70
370
    -2
100
AcDbLine
 10
542.5652938456628
 20
821.3238350847703
 30
0.0
 11
542.5652938456628
 21
972.8711304733078
 31
0.0
  0
LINE
  5
381A
330
3817
100
AcDbEntity
  8
SUNPOU
 62
    60
370
    -2
100
AcDbLine
 10
48.56529384566285
 20
972.8711304733078
 30
0.0
 11
536.5652938456628
 21
972.8711304733078
 31
0.0
  0
INSERT
  5
381B
330
3817
100
AcDbEntity
  8
SUNPOU
 62
    60
370
    -2
100
AcDbBlockReference
  2
_Dot
 10
42.56529384566285
 20
972.8711304733078
 30
0.0
 41
6.0
 42
6.0
 43
6.0
 50
180.0
  0
INSERT
  5
381C
330
3817
100
AcDbEntity
  8
SUNPOU
 62
    60
370
    -2
100
AcDbBlockReference
  2
_Dot
 10
542.5652938456628
 20
972.8711304733078
 30
0.0
 41
6.0
 42
6.0
 43
6.0
  0
MTEXT
  5
381D
330
3817
100
AcDbEntity
  8
SUNPOU
 62
    60
100
AcDbMText
 10
292.5652938456628
 20
992.8711304733079
 30
0.0
 40
20.0
 41
0.0
 71
     5
 72
     1
  1
\A1;500
  7
SUNPOU
 73
     1
 44
1.0
1001
ACAD
1000
MTEXTBEGIN
1070
    73
1070
     1
1070
    44
1040
1.0
1070
    74
1070
     0
1000
MTEXTEND
  0
POINT
  5
381E
330
3817
100
AcDbEntity
  8
DEFPOINTS
 62
     0
100
AcDbPoint
 10
42.56529384566284
 20
780.3238350847705
 30
0.0
  0
POINT
  5
381F
330
3817
100
AcDbEntity
  8
DEFPOINTS
 62
     0
100
AcDbPoint
 10
542.5652938456628
 20
815.3238350847704
 30
0.0
  0
POINT
  5
3820
330
3817
100
AcDbEntity
  8
DEFPOINTS
 62
     0
100
AcDbPoint
 10
542.5652938456628
 20
972.8711304733078
 30
0.0
  0
ENDBLK
  5
3822
330
3817
100
AcDbEntity
  8
0
100
AcDbBlockEnd
  0
BLOCK
  5
382E
330
3824
100
AcDbEntity
  8
0
100
AcDbBlockBegin
  2
*D22
 70
     1
 10
0.0
 20
0.0
 30
0.0
  3
*D22
  1

  0
LINE
  5
3825
330
3824
100
AcDbEntity
  8
SUNPOU
 62
    70
370
    -2
100
AcDbLine
 10
548.5652938456628
 20
815.3238350847704
 30
0.0
 11
673.9527671917223
 21
815.3238350847704
 31
0.0
  0
LINE
  5
3826
330
3824
100
AcDbEntity
  8
SUNPOU
 62
    70
370
    -2
100
AcDbLine
 10
548.5652938456628
 20
745.3238350847705
 30
0.0
 11
673.9527671917222
 21
745.3238350847705
 31
0.0
  0
LINE
  5
3827
330
3824
100
AcDbEntity
  8
SUNPOU
 62
    60
370
    -2
100
AcDbLine
 10
673.9527671917223
 20
809.3238350847704
 30
0.0
 11
673.9527671917222
 21
751.3238350847704
 31
0.0
  0
INSERT
  5
3828
330
3824
100
AcDbEntity
  8
SUNPOU
 62
    60
370
    -2
100
AcDbBlockReference
  2
_Dot
 10
673.9527671917223
 20
815.3238350847704
 30
0.0
 41
6.0
 42
6.0
 43
6.0
 50
90.0
  0
INSERT
  5
3829
330
3824
100
AcDbEntity
  8
SUNPOU
 62
    60
370
    -2
100
AcDbBlockReference
  2
_Dot
 10
673.9527671917222
 20
745.3238350847705
 30
0.0
 41
6.0
 42
6.0
 43
6.0
 50
270.0
  0
MTEXT
  5
382A
330
3824
100
AcDbEntity
  8
SUNPOU
 62
    60
100
AcDbMText
 10
653.952767191722
 20
780.3238350847705
 30
0.0
 40
20.0
 41
0.0
 71
     5
 72
     1
  1
\A1;70
  7
SUNPOU
 11
0.0000000000000001
 21
1.0
 31
0.0
 73
     1
 44
1.0
1001
ACAD
1000
MTEXTBEGIN
1070
    73
1070
     1
1070
    44
1040
1.0
1070
    74
1070
     0
1000
MTEXTEND
  0
POINT
  5
382B
330
3824
100
AcDbEntity
  8
DEFPOINTS
 62
     0
100
AcDbPoint
 10
542.5652938456628
 20
815.3238350847704
 30
0.0
  0
POINT
  5
382C
330
3824
100
AcDbEntity
  8
DEFPOINTS
 62
     0
100
AcDbPoint
 10
542.5652938456628
 20
745.3238350847705
 30
0.0
  0
POINT
  5
382D
330
3824
100
AcDbEntity
  8
DEFPOINTS
 62
     0
100
AcDbPoint
 10
673.9527671917222
 20
745.3238350847705
 30
0.0
  0
ENDBLK
  5
382F
330
3824
100
AcDbEntity
  8
0
100
AcDbBlockEnd
  0
BLOCK
  5
383B
330
3831
100
AcDbEntity
  8
0
100
AcDbBlockBegin
  2
*D23
 70
     1
 10
0.0
 20
0.0
 30
0.0
  3
*D23
  1

  0
LINE
  5
3898
330
3831
100
AcDbEntity
  8
SUNPOU
 62
    70
370
    -2
100
AcDbLine
 10
85.02277884565456
 20
855.3238350847705
 30
0.0
 11
-85.10064412410514
 21
855.3238350847705
 31
0.0
  0
LINE
  5
3899
330
3831
100
AcDbEntity
  8
SUNPOU
 62
    70
370
    -2
100
AcDbLine
 10
84.00677884556399
 20
705.3238350847705
 30
0.0
 11
-85.10064412410519
 21
705.3238350847705
 31
0.0
  0
LINE
  5
389A
330
3831
100
AcDbEntity
  8
SUNPOU
 62
    60
370
    -2
100
AcDbLine
 10
-85.10064412410516
 20
849.3238350847704
 30
0.0
 11
-85.10064412410519
 21
711.3238350847705
 31
0.0
  0
INSERT
  5
389B
330
3831
100
AcDbEntity
  8
SUNPOU
 62
    60
370
    -2
100
AcDbBlockReference
  2
_Dot
 10
-85.10064412410516
 20
855.3238350847705
 30
0.0
 41
6.0
 42
6.0
 43
6.0
 50
90.0
  0
INSERT
  5
389C
330
3831
100
AcDbEntity
  8
SUNPOU
 62
    60
370
    -2
100
AcDbBlockReference
  2
_Dot
 10
-85.10064412410519
 20
705.3238350847705
 30
0.0
 41
6.0
 42
6.0
 43
6.0
 50
270.0
  0
MTEXT
  5
389D
330
3831
100
AcDbEntity
  8
SUNPOU
 62
    60
100
AcDbMText
 10
-105.1006441241053
 20
780.3238350847705
 30
0.0
 40
20.0
 41
0.0
 71
     5
 72
     1
  1
\A1;150
  7
SUNPOU
 11
0.0000000000000001
 21
1.0
 31
0.0
 73
     1
 44
1.0
1001
ACAD
1000
MTEXTBEGIN
1070
    73
1070
     1
1070
    44
1040
1.0
1070
    74
1070
     0
1000
MTEXTEND
  0
POINT
  5
389E
330
3831
100
AcDbEntity
  8
DEFPOINTS
 62
     0
100
AcDbPoint
 10
91.02277884565456
 20
855.3238350847705
 30
0.0
  0
POINT
  5
389F
330
3831
100
AcDbEntity
  8
DEFPOINTS
 62
     0
100
AcDbPoint
 10
90.00677884556399
 20
705.3238350847705
 30
0.0
  0
POINT
  5
38A0
330
3831
100
AcDbEntity
  8
DEFPOINTS
 62
     0
100
AcDbPoint
 10
-85.10064412410519
 20
705.3238350847705
 30
0.0
  0
ENDBLK
  5
383C
330
3831
100
AcDbEntity
  8
0
100
AcDbBlockEnd
  0
BLOCK
  5
3848
330
383E
100
AcDbEntity
  8
0
100
AcDbBlockBegin
  2
*D24
 70
     1
 10
0.0
 20
0.0
 30
0.0
  3
*D24
  1

  0
LINE
  5
38AD
330
383E
100
AcDbEntity
  8
SUNPOU
 62
    70
370
    -2
100
AcDbLine
 10
97.26938884559832
 20
453.0600115847905
 30
0.0
 11
-84.21348031522944
 21
453.0600115847905
 31
0.0
  0
LINE
  5
38AE
330
383E
100
AcDbEntity
  8
SUNPOU
 62
    70
370
    -2
100
AcDbLine
 10
170.1124319632241
 20
333.0600115847905
 30
0.0
 11
-84.21348031522949
 21
333.0600115847906
 31
0.0
  0
LINE
  5
38AF
330
383E
100
AcDbEntity
  8
SUNPOU
 62
    60
370
    -2
100
AcDbLine
 10
-84.21348031522944
 20
447.0600115847905
 30
0.0
 11
-84.21348031522947
 21
339.0600115847906
 31
0.0
  0
INSERT
  5
38B0
330
383E
100
AcDbEntity
  8
SUNPOU
 62
    60
370
    -2
100
AcDbBlockReference
  2
_Dot
 10
-84.21348031522944
 20
453.0600115847905
 30
0.0
 41
6.0
 42
6.0
 43
6.0
 50
90.0
  0
INSERT
  5
38B1
330
383E
100
AcDbEntity
  8
SUNPOU
 62
    60
370
    -2
100
AcDbBlockReference
  2
_Dot
 10
-84.21348031522947
 20
333.0600115847906
 30
0.0
 41
6.0
 42
6.0
 43
6.0
 50
270.0
  0
MTEXT
  5
38B2
330
383E
100
AcDbEntity
  8
SUNPOU
 62
    60
100
AcDbMText
 10
-104.2134803152295
 20
393.0600115847906
 30
0.0
 40
20.0
 41
0.0
 71
     5
 72
     1
  1
\A1;120
  7
SUNPOU
 11
0.0000000000000001
 21
1.0
 31
0.0
 73
     1
 44
1.0
1001
ACAD
1000
MTEXTBEGIN
1070
    73
1070
     1
1070
    44
1040
1.0
1070
    74
1070
     0
1000
MTEXTEND
  0
POINT
  5
38B3
330
383E
100
AcDbEntity
  8
DEFPOINTS
 62
     0
100
AcDbPoint
 10
103.2693888455983
 20
453.0600115847905
 30
0.0
  0
POINT
  5
38B4
330
383E
100
AcDbEntity
  8
DEFPOINTS
 62
     0
100
AcDbPoint
 10
176.1124319632241
 20
333.0600115847905
 30
0.0
  0
POINT
  5
38B5
330
383E
100
AcDbEntity
  8
DEFPOINTS
 62
     0
100
AcDbPoint
 10
-84.21348031522947
 20
333.0600115847906
 30
0.0
  0
ENDBLK
  5
3849
330
383E
100
AcDbEntity
  8
0
100
AcDbBlockEnd
  0
BLOCK
  5
3856
330
384B
100
AcDbEntity
  8
0
100
AcDbBlockBegin
  2
*D25
 70
     1
 10
0.0
 20
0.0
 30
0.0
  3
*D25
  1

  0
LINE
  5
38CB
330
384B
100
AcDbEntity
  8
SUNPOU
 62
    70
370
    -2
100
AcDbLine
 10
548.5652938456628
 20
333.0600115847906
 30
0.0
 11
673.7882763881498
 21
333.0600115847905
 31
0.0
  0
LINE
  5
38CC
330
384B
100
AcDbEntity
  8
SUNPOU
 62
    70
370
    -2
100
AcDbLine
 10
548.5652938456627
 20
378.0600115847906
 30
0.0
 11
673.7882763881498
 21
378.0600115847905
 31
0.0
  0
LINE
  5
38CD
330
384B
100
AcDbEntity
  8
SUNPOU
 62
    60
370
    -2
100
AcDbLine
 10
673.7882763881498
 20
339.0600115847905
 30
0.0
 11
673.7882763881498
 21
372.0600115847905
 31
0.0
  0
LINE
  5
38CE
330
384B
100
AcDbEntity
  8
SUNPOU
 62
    60
370
    -2
100
AcDbLine
 10
673.7882763881498
 20
378.0600115847905
 30
0.0
 11
673.7882763881498
 21
437.3933449181238
 31
0.0
  0
INSERT
  5
38CF
330
384B
100
AcDbEntity
  8
SUNPOU
 62
    60
370
    -2
100
AcDbBlockReference
  2
_Dot
 10
673.7882763881498
 20
333.0600115847905
 30
0.0
 41
6.0
 42
6.0
 43
6.0
 50
270.0
  0
INSERT
  5
38D0
330
384B
100
AcDbEntity
  8
SUNPOU
 62
    60
370
    -2
100
AcDbBlockReference
  2
_Dot
 10
673.7882763881498
 20
378.0600115847905
 30
0.0
 41
6.0
 42
6.0
 43
6.0
 50
90.0
  0
MTEXT
  5
38D1
330
384B
100
AcDbEntity
  8
SUNPOU
 62
    60
100
AcDbMText
 10
653.7882763881497
 20
410.7266782514573
 30
0.0
 40
20.0
 41
0.0
 71
     5
 72
     1
  1
\A1;45
  7
SUNPOU
 11
0.0000000000000001
 21
1.0
 31
0.0
 73
     1
 44
1.0
1001
ACAD
1000
MTEXTBEGIN
1070
    73
1070
     1
1070
    44
1040
1.0
1070
    74
1070
     0
1000
MTEXTEND
  0
POINT
  5
38D2
330
384B
100
AcDbEntity
  8
DEFPOINTS
 62
     0
100
AcDbPoint
 10
542.5652938456628
 20
333.0600115847906
 30
0.0
  0
POINT
  5
38D3
330
384B
100
AcDbEntity
  8
DEFPOINTS
 62
     0
100
AcDbPoint
 10
542.5652938456627
 20
378.0600115847906
 30
0.0
  0
POINT
  5
38D4
330
384B
100
AcDbEntity
  8
DEFPOINTS
 62
     0
100
AcDbPoint
 10
673.7882763881498
 20
378.0600115847905
 30
0.0
  0
ENDBLK
  5
3857
330
384B
100
AcDbEntity
  8
0
100
AcDbBlockEnd
  0
BLOCK
  5
3863
330
3859
100
AcDbEntity
  8
0
100
AcDbBlockBegin
  2
*D26
 70
     1
 10
0.0
 20
0.0
 30
0.0
  3
*D26
  1

  0
LINE
  5
38C1
330
3859
100
AcDbEntity
  8
SUNPOU
 62
    70
370
    -2
100
AcDbLine
 10
42.56529384566284
 20
422.093486584788
 30
0.0
 11
42.56529384566284
 21
556.2790173108664
 31
0.0
  0
LINE
  5
38C2
330
3859
100
AcDbEntity
  8
SUNPOU
 62
    70
370
    -2
100
AcDbLine
 10
542.5652938456627
 20
384.0600115847906
 30
0.0
 11
542.5652938456627
 21
556.2790173108664
 31
0.0
  0
LINE
  5
38C3
330
3859
100
AcDbEntity
  8
SUNPOU
 62
    60
370
    -2
100
AcDbLine
 10
48.56529384566284
 20
556.2790173108664
 30
0.0
 11
536.5652938456626
 21
556.2790173108664
 31
0.0
  0
INSERT
  5
38C4
330
3859
100
AcDbEntity
  8
SUNPOU
 62
    60
370
    -2
100
AcDbBlockReference
  2
_Dot
 10
42.56529384566284
 20
556.2790173108664
 30
0.0
 41
6.0
 42
6.0
 43
6.0
 50
180.0
  0
INSERT
  5
38C5
330
3859
100
AcDbEntity
  8
SUNPOU
 62
    60
370
    -2
100
AcDbBlockReference
  2
_Dot
 10
542.5652938456627
 20
556.2790173108664
 30
0.0
 41
6.0
 42
6.0
 43
6.0
  0
MTEXT
  5
38C6
330
3859
100
AcDbEntity
  8
SUNPOU
 62
    60
100
AcDbMText
 10
292.5652938456628
 20
576.2790173108665
 30
0.0
 40
20.0
 41
0.0
 71
     5
 72
     1
  1
\A1;500
  7
SUNPOU
 73
     1
 44
1.0
1001
ACAD
1000
MTEXTBEGIN
1070
    73
1070
     1
1070
    44
1040
1.0
1070
    74
1070
     0
1000
MTEXTEND
  0
POINT
  5
38C7
330
3859
100
AcDbEntity
  8
DEFPOINTS
 62
     0
100
AcDbPoint
 10
42.56529384566284
 20
416.093486584788
 30
0.0
  0
POINT
  5
38C8
330
3859
100
AcDbEntity
  8
DEFPOINTS
 62
     0
100
AcDbPoint
 10
542.5652938456627
 20
378.0600115847906
 30
0.0
  0
POINT
  5
38C9
330
3859
100
AcDbEntity
  8
DEFPOINTS
 62
     0
100
AcDbPoint
 10
542.5652938456627
 20
556.2790173108664
 30
0.0
  0
ENDBLK
  5
3864
330
3859
100
AcDbEntity
  8
0
100
AcDbBlockEnd
  0
ENDSEC
  0
SECTION
  2
ENTITIES
  0
LINE
  5
1F
330
2
100
AcDbEntity
  8
WAKU
100
AcDbLine
 10
0.0
 20
70.0
 30
0.0
 11
610.6489978526152
 21
70.0
 31
0.0
  0
LINE
  5
20
330
2
100
AcDbEntity
  8
WAKU
100
AcDbLine
 10
0.0
 20
0.0
 30
0.0
 11
610.6489978526152
 21
0.0
 31
0.0
  0
TEXT
  5
21
330
2
100
AcDbEntity
  8
HOJO
100
AcDbText
 10
48.26983000000012
 20
11.83313000000009
 30
0.0
 40
45.0
  1
C-2
  7
SUNPOU
100
AcDbText
  0
TEXT
  5
4A3
330
2
100
AcDbEntity
  8
HOJO
100
AcDbText
 10
225.60543919488
 20
20.97829970797568
 30
0.0
 40
35.0
  1
500x150x120
  7
SUNPOU
100
AcDbText
  0
LINE
  5
310B
102
{ACAD_REACTORS
330
38D5
102
}
330
2
100
AcDbEntity
  8
KIJUN
100
AcDbLine
 10
95.31131484556544
 20
834.8552855847806
 30
0.0
 11
103.6310848456182
 21
834.5534065848045
 31
0.0
  0
LINE
  5
310C
102
{ACAD_REACTORS
330
38D5
102
}
330
2
100
AcDbEntity
  8
KIJUN
100
AcDbLine
 10
101.0556518455801
 20
729.5741905847667
 30
0.0
 11
92.68698684560922
 21
729.4244575847819
 31
0.0
  0
LINE
  5
3114
102
{ACAD_REACTORS
330
38D5
102
}
330
2
100
AcDbEntity
  8
KIJUN
100
AcDbLine
 10
57.29132484559932
 20
760.909535584788
 30
0.0
 11
58.98372684563446
 21
771.6800245848121
 31
0.0
  0
LINE
  5
3115
102
{ACAD_REACTORS
330
38D5
102
}
330
2
100
AcDbEntity
  8
KIJUN
100
AcDbLine
 10
67.58480184562222
 20
729.0251695848104
 30
0.0
 11
59.21880384563201
 21
728.9074405848027
 31
0.0
  0
LINE
  5
3116
102
{ACAD_REACTORS
330
38D5
102
}
330
2
100
AcDbEntity
  8
KIJUN
100
AcDbLine
 10
52.85623084562621
 20
739.5017805847968
 30
0.0
 11
55.12546684560994
 21
750.1947995848153
 31
0.0
  0
LINE
  5
3117
102
{ACAD_REACTORS
330
38D5
102
}
330
2
100
AcDbEntity
  8
KIJUN
100
AcDbLine
 10
59.21880384563201
 20
728.9074405848027
 30
0.0
 11
50.85369484559897
 21
728.7965695848111
 31
0.0
  0
LINE
  5
3118
102
{ACAD_REACTORS
330
38D5
102
}
330
2
100
AcDbEntity
  8
KIJUN
100
AcDbLine
 10
50.85369484559897
 20
728.7965695848111
 30
0.0
 11
50.85369484559897
 21
728.7965695848111
 31
0.0
  0
LINE
  5
3119
102
{ACAD_REACTORS
330
38D5
102
}
330
2
100
AcDbEntity
  8
KIJUN
100
AcDbLine
 10
50.85369484559897
 20
728.7965695848111
 30
0.0
 11
52.85623084562621
 21
739.5017805847968
 31
0.0
  0
LINE
  5
311A
102
{ACAD_REACTORS
330
38D5
102
}
330
2
100
AcDbEntity
  8
KIJUN
100
AcDbLine
 10
55.12546684560994
 20
750.1947995848153
 30
0.0
 11
57.29132484559932
 21
760.909535584788
 31
0.0
  0
LINE
  5
311B
102
{ACAD_REACTORS
330
38D5
102
}
330
2
100
AcDbEntity
  8
KIJUN
100
AcDbLine
 10
84.3188298455866
 20
729.2833605847768
 30
0.0
 11
75.95143484559094
 21
729.1503915848119
 31
0.0
  0
LINE
  5
311C
102
{ACAD_REACTORS
330
38D5
102
}
330
2
100
AcDbEntity
  8
KIJUN
100
AcDbLine
 10
75.95143484559094
 20
729.1503915848119
 30
0.0
 11
67.58480184562222
 21
729.0251695848104
 31
0.0
  0
LINE
  5
311D
102
{ACAD_REACTORS
330
38D5
102
}
330
2
100
AcDbEntity
  8
KIJUN
100
AcDbLine
 10
92.68698684560922
 20
729.4244575847819
 30
0.0
 11
84.3188298455866
 21
729.2833605847768
 31
0.0
  0
LINE
  5
311E
102
{ACAD_REACTORS
330
38D5
102
}
330
2
100
AcDbEntity
  8
KIJUN
100
AcDbLine
 10
62.03871184561513
 20
836.0368935848004
 30
0.0
 11
70.35581484556906
 21
835.7450475847603
 31
0.0
  0
LINE
  5
311F
102
{ACAD_REACTORS
330
38D5
102
}
330
2
100
AcDbEntity
  8
KIJUN
100
AcDbLine
 10
59.58100784558019
 20
793.3148555848088
 30
0.0
 11
58.47394884562027
 21
804.0651515848079
 31
0.0
  0
LINE
  5
3120
102
{ACAD_REACTORS
330
38D5
102
}
330
2
100
AcDbEntity
  8
KIJUN
100
AcDbLine
 10
58.98372684563446
 20
771.6800245848121
 30
0.0
 11
59.83221384561011
 21
782.5400485847698
 31
0.0
  0
LINE
  5
3121
102
{ACAD_REACTORS
330
38D5
102
}
330
2
100
AcDbEntity
  8
KIJUN
100
AcDbLine
 10
59.83221384561011
 20
782.5400485847698
 30
0.0
 11
59.58100784558019
 21
793.3148555848088
 31
0.0
  0
LINE
  5
3122
102
{ACAD_REACTORS
330
38D5
102
}
330
2
100
AcDbEntity
  8
KIJUN
100
AcDbLine
 10
56.88162284562941
 20
814.806811584776
 30
0.0
 11
55.17423484560686
 21
825.5553295848136
 31
0.0
  0
LINE
  5
3123
102
{ACAD_REACTORS
330
38D5
102
}
330
2
100
AcDbEntity
  8
KIJUN
100
AcDbLine
 10
58.47394884562027
 20
804.0651515848079
 30
0.0
 11
56.88162284562941
 21
814.806811584776
 31
0.0
  0
LINE
  5
3124
102
{ACAD_REACTORS
330
38D5
102
}
330
2
100
AcDbEntity
  8
KIJUN
100
AcDbLine
 10
53.72224384564879
 20
836.3265805848046
 30
0.0
 11
62.03871184561513
 21
836.0368935848004
 31
0.0
  0
LINE
  5
3125
102
{ACAD_REACTORS
330
38D5
102
}
330
2
100
AcDbEntity
  8
KIJUN
100
AcDbLine
 10
55.17423484560686
 20
825.5553295848136
 30
0.0
 11
53.72224384564879
 21
836.3265805848046
 31
0.0
  0
LINE
  5
3126
102
{ACAD_REACTORS
330
38D5
102
}
330
2
100
AcDbEntity
  8
KIJUN
100
AcDbLine
 10
78.67367984565908
 20
835.4509155848068
 30
0.0
 11
86.99217984562755
 21
835.1543705847911
 31
0.0
  0
LINE
  5
3127
102
{ACAD_REACTORS
330
38D5
102
}
330
2
100
AcDbEntity
  8
KIJUN
100
AcDbLine
 10
70.35581484556906
 20
835.7450475847603
 30
0.0
 11
78.67367984565908
 21
835.4509155848068
 31
0.0
  0
LINE
  5
3128
102
{ACAD_REACTORS
330
38D5
102
}
330
2
100
AcDbEntity
  8
KIJUN
100
AcDbLine
 10
86.99217984562755
 20
835.1543705847911
 30
0.0
 11
95.31131484556544
 21
834.8552855847806
 31
0.0
  0
LINE
  5
3129
102
{ACAD_REACTORS
330
38D5
102
}
330
2
100
AcDbEntity
  8
KIJUN
100
AcDbLine
 10
170.2104538456556
 20
832.0234395847997
 30
0.0
 11
178.5353038455728
 21
831.6908265847537
 31
0.0
  0
LINE
  5
312A
102
{ACAD_REACTORS
330
38D5
102
}
330
2
100
AcDbEntity
  8
KIJUN
100
AcDbLine
 10
176.3921788456523
 20
731.3777175847631
 30
0.0
 11
168.0204658455736
 21
731.1317185847606
 31
0.0
  0
LINE
  5
312B
102
{ACAD_REACTORS
330
38D5
102
}
330
2
100
AcDbEntity
  8
KIJUN
100
AcDbLine
 10
142.9063428455888
 20
730.4664925847959
 30
0.0
 11
134.5353918456553
 21
730.267483584766
 31
0.0
  0
LINE
  5
312C
102
{ACAD_REACTORS
330
38D5
102
}
330
2
100
AcDbEntity
  8
KIJUN
100
AcDbLine
 10
117.794632845606
 20
729.9010885847806
 30
0.0
 11
109.4249518456386
 21
729.7329405847998
 31
0.0
  0
LINE
  5
312D
102
{ACAD_REACTORS
330
38D5
102
}
330
2
100
AcDbEntity
  8
KIJUN
100
AcDbLine
 10
109.4249518456386
 20
729.7329405847998
 30
0.0
 11
101.0556518455801
 21
729.5741905847667
 31
0.0
  0
LINE
  5
312E
102
{ACAD_REACTORS
330
38D5
102
}
330
2
100
AcDbEntity
  8
KIJUN
100
AcDbLine
 10
134.5353918456553
 20
730.267483584766
 30
0.0
 11
126.1648218456216
 21
730.0791425847632
 31
0.0
  0
LINE
  5
312F
102
{ACAD_REACTORS
330
38D5
102
}
330
2
100
AcDbEntity
  8
KIJUN
100
AcDbLine
 10
126.1648218456216
 20
730.0791425847632
 30
0.0
 11
117.794632845606
 21
729.9010885847806
 31
0.0
  0
LINE
  5
3130
102
{ACAD_REACTORS
330
38D5
102
}
330
2
100
AcDbEntity
  8
KIJUN
100
AcDbLine
 10
159.6490068455919
 20
730.8981655847577
 30
0.0
 11
151.277547845601
 21
730.6765505847583
 31
0.0
  0
LINE
  5
3131
102
{ACAD_REACTORS
330
38D5
102
}
330
2
100
AcDbEntity
  8
KIJUN
100
AcDbLine
 10
151.277547845601
 20
730.6765505847583
 30
0.0
 11
142.9063428455888
 21
730.4664925847959
 31
0.0
  0
LINE
  5
3132
102
{ACAD_REACTORS
330
38D5
102
}
330
2
100
AcDbEntity
  8
KIJUN
100
AcDbLine
 10
168.0204658455736
 20
731.1317185847606
 30
0.0
 11
159.6490068455919
 21
730.8981655847577
 31
0.0
  0
LINE
  5
3133
102
{ACAD_REACTORS
330
38D5
102
}
330
2
100
AcDbEntity
  8
KIJUN
100
AcDbLine
 10
128.5942048456568
 20
833.6299895848146
 30
0.0
 11
136.9163878455933
 21
833.315791584769
 31
0.0
  0
LINE
  5
3134
102
{ACAD_REACTORS
330
38D5
102
}
330
2
100
AcDbEntity
  8
KIJUN
100
AcDbLine
 10
111.9514898456404
 20
834.2486065847701
 30
0.0
 11
120.2725298456594
 21
833.94088558478
 31
0.0
  0
LINE
  5
3135
102
{ACAD_REACTORS
330
38D5
102
}
330
2
100
AcDbEntity
  8
KIJUN
100
AcDbLine
 10
103.6310848456182
 20
834.5534065848045
 30
0.0
 11
111.9514898456404
 21
834.2486065847701
 31
0.0
  0
LINE
  5
3136
102
{ACAD_REACTORS
330
38D5
102
}
330
2
100
AcDbEntity
  8
KIJUN
100
AcDbLine
 10
120.2725298456594
 20
833.94088558478
 30
0.0
 11
128.5942048456568
 21
833.6299895848146
 31
0.0
  0
LINE
  5
3137
102
{ACAD_REACTORS
330
38D5
102
}
330
2
100
AcDbEntity
  8
KIJUN
100
AcDbLine
 10
153.5624048455688
 20
832.6769815847914
 30
0.0
 11
161.8862388455986
 21
832.3521155847769
 31
0.0
  0
LINE
  5
3138
102
{ACAD_REACTORS
330
38D5
102
}
330
2
100
AcDbEntity
  8
KIJUN
100
AcDbLine
 10
136.9163878455933
 20
833.315791584769
 30
0.0
 11
145.2390788455873
 21
832.9981645847768
 31
0.0
  0
LINE
  5
3139
102
{ACAD_REACTORS
330
38D5
102
}
330
2
100
AcDbEntity
  8
KIJUN
100
AcDbLine
 10
145.2390788455873
 20
832.9981645847768
 30
0.0
 11
153.5624048455688
 21
832.6769815847914
 31
0.0
  0
LINE
  5
313A
102
{ACAD_REACTORS
330
38D5
102
}
330
2
100
AcDbEntity
  8
KIJUN
100
AcDbLine
 10
161.8862388455986
 20
832.3521155847769
 30
0.0
 11
170.2104538456556
 21
832.0234395847997
 31
0.0
  0
LINE
  5
313B
102
{ACAD_REACTORS
330
38D5
102
}
330
2
100
AcDbEntity
  8
KIJUN
100
AcDbLine
 10
209.878903845673
 20
732.4934125847634
 30
0.0
 11
201.5073178456428
 21
732.1938195848092
 31
0.0
  0
LINE
  5
313C
102
{ACAD_REACTORS
330
38D5
102
}
330
2
100
AcDbEntity
  8
KIJUN
100
AcDbLine
 10
193.1356048455641
 20
731.9083235847796
 30
0.0
 11
184.7638918456125
 21
731.6364165847884
 31
0.0
  0
LINE
  5
313D
102
{ACAD_REACTORS
330
38D5
102
}
330
2
100
AcDbEntity
  8
KIJUN
100
AcDbLine
 10
184.7638918456125
 20
731.6364165847884
 30
0.0
 11
176.3921788456523
 21
731.3777175847631
 31
0.0
  0
LINE
  5
313E
102
{ACAD_REACTORS
330
38D5
102
}
330
2
100
AcDbEntity
  8
KIJUN
100
AcDbLine
 10
201.5073178456428
 20
732.1938195848092
 30
0.0
 11
193.1356048455641
 21
731.9083235847796
 31
0.0
  0
LINE
  5
313F
102
{ACAD_REACTORS
330
38D5
102
}
330
2
100
AcDbEntity
  8
KIJUN
100
AcDbLine
 10
234.9922648456309
 20
733.4804565848121
 30
0.0
 11
226.6214408456276
 21
733.1362865847853
 31
0.0
  0
LINE
  5
3140
102
{ACAD_REACTORS
330
38D5
102
}
330
2
100
AcDbEntity
  8
KIJUN
100
AcDbLine
 10
218.2502358456154
 20
732.8074835847606
 30
0.0
 11
209.878903845673
 21
732.4934125847634
 31
0.0
  0
LINE
  5
3141
102
{ACAD_REACTORS
330
38D5
102
}
330
2
100
AcDbEntity
  8
KIJUN
100
AcDbLine
 10
226.6214408456276
 20
733.1362865847853
 30
0.0
 11
218.2502358456154
 21
732.8074835847606
 31
0.0
  0
LINE
  5
3142
102
{ACAD_REACTORS
330
38D5
102
}
330
2
100
AcDbEntity
  8
KIJUN
100
AcDbLine
 10
243.3628348456646
 20
733.8403745847958
 30
0.0
 11
234.9922648456309
 21
733.4804565848121
 31
0.0
  0
LINE
  5
3143
102
{ACAD_REACTORS
330
38D5
102
}
330
2
100
AcDbEntity
  8
KIJUN
100
AcDbLine
 10
203.5122668455628
 20
830.6674605847723
 30
0.0
 11
211.8387678455733
 21
830.3174485847881
 31
0.0
  0
LINE
  5
3144
102
{ACAD_REACTORS
330
38D5
102
}
330
2
100
AcDbEntity
  8
KIJUN
100
AcDbLine
 10
186.8605348456171
 20
831.3540225848004
 30
0.0
 11
195.1861468455613
 21
831.0129005847651
 31
0.0
  0
LINE
  5
3145
102
{ACAD_REACTORS
330
38D5
102
}
330
2
100
AcDbEntity
  8
KIJUN
100
AcDbLine
 10
178.5353038455728
 20
831.6908265847537
 30
0.0
 11
186.8605348456171
 21
831.3540225848004
 31
0.0
  0
LINE
  5
3146
102
{ACAD_REACTORS
330
38D5
102
}
330
2
100
AcDbEntity
  8
KIJUN
100
AcDbLine
 10
195.1861468455613
 20
831.0129005847651
 30
0.0
 11
203.5122668455628
 21
830.6674605847723
 31
0.0
  0
LINE
  5
3147
102
{ACAD_REACTORS
330
38D5
102
}
330
2
100
AcDbEntity
  8
KIJUN
100
AcDbLine
 10
220.1656498456018
 20
829.9627375847743
 30
0.0
 11
228.4929128456393
 21
829.6032005848013
 31
0.0
  0
LINE
  5
3148
102
{ACAD_REACTORS
330
38D5
102
}
330
2
100
AcDbEntity
  8
KIJUN
100
AcDbLine
 10
211.8387678455733
 20
830.3174485847881
 30
0.0
 11
220.1656498456018
 21
829.9627375847743
 31
0.0
  0
LINE
  5
3149
102
{ACAD_REACTORS
330
38D5
102
}
330
2
100
AcDbEntity
  8
KIJUN
100
AcDbLine
 10
228.4929128456393
 20
829.6032005848013
 30
0.0
 11
236.8204298456553
 21
829.2388375848119
 31
0.0
  0
LINE
  5
314A
102
{ACAD_REACTORS
330
38D5
102
}
330
2
100
AcDbEntity
  8
KIJUN
100
AcDbLine
 10
236.8204298456553
 20
829.2388375848119
 30
0.0
 11
245.1484548456106
 21
828.8692675847908
 31
0.0
  0
LINE
  5
3151
102
{ACAD_REACTORS
330
38D5
102
}
330
2
100
AcDbEntity
  8
KIJUN
100
AcDbLine
 10
366.3732568456621
 20
746.6291877395092
 30
0.0
 11
542.5652938456628
 21
752.6046443392724
 31
0.0
  0
LINE
  5
3152
102
{ACAD_REACTORS
330
38D5
102
}
330
2
100
AcDbEntity
  8
KIJUN
100
AcDbLine
 10
366.3732568456621
 20
815.9555265848071
 30
0.0
 11
542.5652938456628
 21
807.376906868701
 31
0.0
  0
LINE
  5
3252
102
{ACAD_REACTORS
330
38D5
102
}
330
2
100
AcDbEntity
  8
KIJUN
100
AcDbLine
 10
75.11323484563082
 20
712.450526584797
 30
0.0
 11
131.1352208455869
 21
712.450526584797
 31
0.0
  0
LINE
  5
3253
102
{ACAD_REACTORS
330
38D5
102
}
330
2
100
AcDbEntity
  8
KIJUN
100
AcDbLine
 10
131.1352208455869
 20
712.450526584797
 30
0.0
 11
132.7102748456314
 21
713.2563415847758
 31
0.0
  0
LINE
  5
3254
102
{ACAD_REACTORS
330
38D5
102
}
330
2
100
AcDbEntity
  8
KIJUN
100
AcDbLine
 10
132.7102748456314
 20
713.2563415847758
 30
0.0
 11
133.8334628456218
 21
715.3689865847613
 31
0.0
  0
LINE
  5
3255
102
{ACAD_REACTORS
330
38D5
102
}
330
2
100
AcDbEntity
  8
KIJUN
100
AcDbLine
 10
133.8334628456218
 20
715.3689865847613
 30
0.0
 11
134.2617068456316
 21
718.3315155848089
 31
0.0
  0
LINE
  5
3256
102
{ACAD_REACTORS
330
38D5
102
}
330
2
100
AcDbEntity
  8
KIJUN
100
AcDbLine
 10
134.2617068456316
 20
718.3315155848089
 30
0.0
 11
134.2617068456316
 21
726.5645445847681
 31
0.0
  0
LINE
  5
3257
102
{ACAD_REACTORS
330
38D5
102
}
330
2
100
AcDbEntity
  8
KIJUN
100
AcDbLine
 10
134.2617068456316
 20
726.5645445847681
 30
0.0
 11
133.8334628456218
 21
729.5269465847654
 31
0.0
  0
LINE
  5
3258
102
{ACAD_REACTORS
330
38D5
102
}
330
2
100
AcDbEntity
  8
KIJUN
100
AcDbLine
 10
133.8334628456218
 20
729.5269465847654
 30
0.0
 11
132.7102748456314
 21
731.6397185848022
 31
0.0
  0
LINE
  5
3259
102
{ACAD_REACTORS
330
38D5
102
}
330
2
100
AcDbEntity
  8
KIJUN
100
AcDbLine
 10
132.7102748456314
 20
731.6397185848022
 30
0.0
 11
131.1352208455869
 21
732.4455335847727
 31
0.0
  0
LINE
  5
325A
102
{ACAD_REACTORS
330
38D5
102
}
330
2
100
AcDbEntity
  8
KIJUN
100
AcDbLine
 10
131.1352208455869
 20
732.4455335847727
 30
0.0
 11
75.11323484563082
 21
732.4455335847727
 31
0.0
  0
LINE
  5
325B
102
{ACAD_REACTORS
330
38D5
102
}
330
2
100
AcDbEntity
  8
KIJUN
100
AcDbLine
 10
75.11323484563082
 20
732.4455335847727
 30
0.0
 11
73.53856184560618
 21
731.6397185848022
 31
0.0
  0
LINE
  5
325C
102
{ACAD_REACTORS
330
38D5
102
}
330
2
100
AcDbEntity
  8
KIJUN
100
AcDbLine
 10
73.53856184560618
 20
731.6397185848022
 30
0.0
 11
72.415627845578
 21
729.5269465847654
 31
0.0
  0
LINE
  5
325D
102
{ACAD_REACTORS
330
38D5
102
}
330
2
100
AcDbEntity
  8
KIJUN
100
AcDbLine
 10
72.415627845578
 20
729.5269465847654
 30
0.0
 11
71.98725684563441
 21
726.5645445847681
 31
0.0
  0
LINE
  5
325E
102
{ACAD_REACTORS
330
38D5
102
}
330
2
100
AcDbEntity
  8
KIJUN
100
AcDbLine
 10
71.98725684563441
 20
726.5645445847681
 30
0.0
 11
71.98725684563441
 21
718.3315155848089
 31
0.0
  0
LINE
  5
325F
102
{ACAD_REACTORS
330
38D5
102
}
330
2
100
AcDbEntity
  8
KIJUN
100
AcDbLine
 10
71.98725684563441
 20
718.3315155848089
 30
0.0
 11
72.415627845578
 21
715.3689865847613
 31
0.0
  0
LINE
  5
3260
102
{ACAD_REACTORS
330
38D5
102
}
330
2
100
AcDbEntity
  8
KIJUN
100
AcDbLine
 10
72.415627845578
 20
715.3689865847613
 30
0.0
 11
73.53856184560618
 21
713.2563415847758
 31
0.0
  0
LINE
  5
3261
102
{ACAD_REACTORS
330
38D5
102
}
330
2
100
AcDbEntity
  8
KIJUN
100
AcDbLine
 10
73.53856184560618
 20
713.2563415847758
 30
0.0
 11
75.11323484563082
 21
712.450526584797
 31
0.0
  0
LINE
  5
3262
102
{ACAD_REACTORS
330
38D5
102
}
330
2
100
AcDbEntity
  8
KIJUN
100
AcDbLine
 10
90.00677884556399
 20
705.3238350847705
 30
0.0
 11
118.4757338456334
 21
705.3238350847705
 31
0.0
  0
LINE
  5
3263
102
{ACAD_REACTORS
330
38D5
102
}
330
2
100
AcDbEntity
  8
KIJUN
100
AcDbLine
 10
118.4757338456334
 20
705.3238350847705
 30
0.0
 11
119.7480198456255
 21
705.932038084782
 31
0.0
  0
LINE
  5
3264
102
{ACAD_REACTORS
330
38D5
102
}
330
2
100
AcDbEntity
  8
KIJUN
100
AcDbLine
 10
119.7480198456255
 20
705.932038084782
 30
0.0
 11
120.6553078456422
 21
707.5267770847822
 31
0.0
  0
LINE
  5
3265
102
{ACAD_REACTORS
330
38D5
102
}
330
2
100
AcDbEntity
  8
KIJUN
100
AcDbLine
 10
120.6553078456422
 20
707.5267770847822
 30
0.0
 11
121.0012558456369
 21
709.7633740847476
 31
0.0
  0
LINE
  5
3266
102
{ACAD_REACTORS
330
38D5
102
}
330
2
100
AcDbEntity
  8
KIJUN
100
AcDbLine
 10
121.0012558456369
 20
709.7633740847476
 30
0.0
 11
121.0012558456369
 21
719.6503240847695
 31
0.0
  0
LINE
  5
3267
102
{ACAD_REACTORS
330
38D5
102
}
330
2
100
AcDbEntity
  8
KIJUN
100
AcDbLine
 10
121.0012558456369
 20
719.6503240847695
 30
0.0
 11
120.6553078456422
 21
721.8869210847941
 31
0.0
  0
LINE
  5
3268
102
{ACAD_REACTORS
330
38D5
102
}
330
2
100
AcDbEntity
  8
KIJUN
100
AcDbLine
 10
120.6553078456422
 20
721.8869210847941
 30
0.0
 11
119.7480198456255
 21
723.4816600847942
 31
0.0
  0
LINE
  5
3269
102
{ACAD_REACTORS
330
38D5
102
}
330
2
100
AcDbEntity
  8
KIJUN
100
AcDbLine
 10
119.7480198456255
 20
723.4816600847942
 30
0.0
 11
118.4757338456334
 21
724.0898630847468
 31
0.0
  0
LINE
  5
326A
102
{ACAD_REACTORS
330
38D5
102
}
330
2
100
AcDbEntity
  8
KIJUN
100
AcDbLine
 10
118.4757338456334
 20
724.0898630847468
 30
0.0
 11
90.00677884556399
 21
724.0898630847468
 31
0.0
  0
LINE
  5
326B
102
{ACAD_REACTORS
330
38D5
102
}
330
2
100
AcDbEntity
  8
KIJUN
100
AcDbLine
 10
90.00677884556399
 20
724.0898630847468
 30
0.0
 11
88.73449284557182
 21
723.4816600847942
 31
0.0
  0
LINE
  5
326C
102
{ACAD_REACTORS
330
38D5
102
}
330
2
100
AcDbEntity
  8
KIJUN
100
AcDbLine
 10
88.73449284557182
 20
723.4816600847942
 30
0.0
 11
87.82720484567153
 21
721.8869210847941
 31
0.0
  0
LINE
  5
326D
102
{ACAD_REACTORS
330
38D5
102
}
330
2
100
AcDbEntity
  8
KIJUN
100
AcDbLine
 10
87.82720484567153
 20
721.8869210847941
 30
0.0
 11
87.48125684567686
 21
719.6503240847695
 31
0.0
  0
LINE
  5
326E
102
{ACAD_REACTORS
330
38D5
102
}
330
2
100
AcDbEntity
  8
KIJUN
100
AcDbLine
 10
87.48125684567686
 20
719.6503240847695
 30
0.0
 11
87.48125684567686
 21
709.7633740847476
 31
0.0
  0
LINE
  5
326F
102
{ACAD_REACTORS
330
38D5
102
}
330
2
100
AcDbEntity
  8
KIJUN
100
AcDbLine
 10
87.48125684567686
 20
709.7633740847476
 30
0.0
 11
87.82720484567153
 21
707.5267770847822
 31
0.0
  0
LINE
  5
3270
102
{ACAD_REACTORS
330
38D5
102
}
330
2
100
AcDbEntity
  8
KIJUN
100
AcDbLine
 10
87.82720484567153
 20
707.5267770847822
 30
0.0
 11
88.73449284557182
 21
705.932038084782
 31
0.0
  0
LINE
  5
3271
102
{ACAD_REACTORS
330
38D5
102
}
330
2
100
AcDbEntity
  8
KIJUN
100
AcDbLine
 10
88.73449284557182
 20
705.932038084782
 30
0.0
 11
90.00677884556399
 21
705.3238350847705
 31
0.0
  0
LINE
  5
3272
102
{ACAD_REACTORS
330
38D5
102
}
330
2
100
AcDbEntity
  8
KIJUN
100
AcDbLine
 10
76.2562348456272
 20
847.9595265847953
 30
0.0
 11
132.2782208455905
 21
847.9595265847953
 31
0.0
  0
LINE
  5
3273
102
{ACAD_REACTORS
330
38D5
102
}
330
2
100
AcDbEntity
  8
KIJUN
100
AcDbLine
 10
132.2782208455905
 20
847.9595265847953
 30
0.0
 11
133.853274845635
 21
847.1537115847663
 31
0.0
  0
LINE
  5
3274
102
{ACAD_REACTORS
330
38D5
102
}
330
2
100
AcDbEntity
  8
KIJUN
100
AcDbLine
 10
133.853274845635
 20
847.1537115847663
 30
0.0
 11
134.9764628456255
 21
845.0410665847725
 31
0.0
  0
LINE
  5
3275
102
{ACAD_REACTORS
330
38D5
102
}
330
2
100
AcDbEntity
  8
KIJUN
100
AcDbLine
 10
134.9764628456255
 20
845.0410665847725
 30
0.0
 11
135.4047068456425
 21
842.0785375847904
 31
0.0
  0
LINE
  5
3276
102
{ACAD_REACTORS
330
38D5
102
}
330
2
100
AcDbEntity
  8
KIJUN
100
AcDbLine
 10
135.4047068456425
 20
842.0785375847904
 30
0.0
 11
135.4047068456425
 21
833.8455085847739
 31
0.0
  0
LINE
  5
3277
102
{ACAD_REACTORS
330
38D5
102
}
330
2
100
AcDbEntity
  8
KIJUN
100
AcDbLine
 10
135.4047068456425
 20
833.8455085847739
 30
0.0
 11
134.9764628456255
 21
830.8831065847684
 31
0.0
  0
LINE
  5
3278
102
{ACAD_REACTORS
330
38D5
102
}
330
2
100
AcDbEntity
  8
KIJUN
100
AcDbLine
 10
134.9764628456255
 20
830.8831065847684
 30
0.0
 11
133.853274845635
 21
828.7703345847898
 31
0.0
  0
LINE
  5
3279
102
{ACAD_REACTORS
330
38D5
102
}
330
2
100
AcDbEntity
  8
KIJUN
100
AcDbLine
 10
133.853274845635
 20
828.7703345847898
 30
0.0
 11
132.2782208455905
 21
827.964519584761
 31
0.0
  0
LINE
  5
327A
102
{ACAD_REACTORS
330
38D5
102
}
330
2
100
AcDbEntity
  8
KIJUN
100
AcDbLine
 10
132.2782208455905
 20
827.964519584761
 30
0.0
 11
76.2562348456272
 21
827.964519584761
 31
0.0
  0
LINE
  5
327B
102
{ACAD_REACTORS
330
38D5
102
}
330
2
100
AcDbEntity
  8
KIJUN
100
AcDbLine
 10
76.2562348456272
 20
827.964519584761
 30
0.0
 11
74.68156184560985
 21
828.7703345847898
 31
0.0
  0
LINE
  5
327C
102
{ACAD_REACTORS
330
38D5
102
}
330
2
100
AcDbEntity
  8
KIJUN
100
AcDbLine
 10
74.68156184560985
 20
828.7703345847898
 30
0.0
 11
73.55862784558894
 21
830.8831065847684
 31
0.0
  0
LINE
  5
327D
102
{ACAD_REACTORS
330
38D5
102
}
330
2
100
AcDbEntity
  8
KIJUN
100
AcDbLine
 10
73.55862784558894
 20
830.8831065847684
 30
0.0
 11
73.13025684564536
 21
833.8455085847739
 31
0.0
  0
LINE
  5
327E
102
{ACAD_REACTORS
330
38D5
102
}
330
2
100
AcDbEntity
  8
KIJUN
100
AcDbLine
 10
73.13025684564536
 20
833.8455085847739
 30
0.0
 11
73.13025684564536
 21
842.0785375847904
 31
0.0
  0
LINE
  5
327F
102
{ACAD_REACTORS
330
38D5
102
}
330
2
100
AcDbEntity
  8
KIJUN
100
AcDbLine
 10
73.13025684564536
 20
842.0785375847904
 30
0.0
 11
73.55862784558894
 21
845.0410665847725
 31
0.0
  0
LINE
  5
3280
102
{ACAD_REACTORS
330
38D5
102
}
330
2
100
AcDbEntity
  8
KIJUN
100
AcDbLine
 10
73.55862784558894
 20
845.0410665847725
 30
0.0
 11
74.68156184560985
 21
847.1537115847663
 31
0.0
  0
LINE
  5
3281
102
{ACAD_REACTORS
330
38D5
102
}
330
2
100
AcDbEntity
  8
KIJUN
100
AcDbLine
 10
74.68156184560985
 20
847.1537115847663
 30
0.0
 11
76.2562348456272
 21
847.9595265847953
 31
0.0
  0
LINE
  5
3282
102
{ACAD_REACTORS
330
38D5
102
}
330
2
100
AcDbEntity
  8
KIJUN
100
AcDbLine
 10
149.5842568456141
 20
723.7535265847895
 30
0.0
 11
152.0657098456072
 21
721.8335405847596
 31
0.0
  0
LINE
  5
3283
102
{ACAD_REACTORS
330
38D5
102
}
330
2
100
AcDbEntity
  8
KIJUN
100
AcDbLine
 10
152.0657098456072
 20
721.8335405847596
 30
0.0
 11
155.4402268456474
 21
720.2729645847707
 31
0.0
  0
LINE
  5
3284
102
{ACAD_REACTORS
330
38D5
102
}
330
2
100
AcDbEntity
  8
KIJUN
100
AcDbLine
 10
155.4402268456474
 20
720.2729645847707
 30
0.0
 11
159.7083158455721
 21
720.7530245847724
 31
0.0
  0
LINE
  5
3285
102
{ACAD_REACTORS
330
38D5
102
}
330
2
100
AcDbEntity
  8
KIJUN
100
AcDbLine
 10
159.7083158455721
 20
720.7530245847724
 30
0.0
 11
161.892207845653
 21
722.9135485848004
 31
0.0
  0
LINE
  5
3286
102
{ACAD_REACTORS
330
38D5
102
}
330
2
100
AcDbEntity
  8
KIJUN
100
AcDbLine
 10
161.892207845653
 20
722.9135485848004
 30
0.0
 11
162.4877108455844
 21
727.4739915847662
 31
0.0
  0
LINE
  5
3287
102
{ACAD_REACTORS
330
38D5
102
}
330
2
100
AcDbEntity
  8
KIJUN
100
AcDbLine
 10
162.4877108455844
 20
727.4739915847662
 30
0.0
 11
160.7006938456329
 21
733.1145695847649
 31
0.0
  0
LINE
  5
3288
102
{ACAD_REACTORS
330
38D5
102
}
330
2
100
AcDbEntity
  8
KIJUN
100
AcDbLine
 10
160.7006938456329
 20
733.1145695847649
 30
0.0
 11
157.6242458456622
 21
737.554997584752
 31
0.0
  0
LINE
  5
3289
102
{ACAD_REACTORS
330
38D5
102
}
330
2
100
AcDbEntity
  8
KIJUN
100
AcDbLine
 10
157.6242458456622
 20
737.554997584752
 30
0.0
 11
152.0657098456072
 21
739.8350285847613
 31
0.0
  0
LINE
  5
328A
102
{ACAD_REACTORS
330
38D5
102
}
330
2
100
AcDbEntity
  8
KIJUN
100
AcDbLine
 10
152.0657098456072
 20
739.8350285847613
 30
0.0
 11
144.91929284556
 21
741.7550145847912
 31
0.0
  0
LINE
  5
328B
102
{ACAD_REACTORS
330
38D5
102
}
330
2
100
AcDbEntity
  8
KIJUN
100
AcDbLine
 10
144.91929284556
 20
741.7550145847912
 30
0.0
 11
135.0927948456233
 21
742.4754855848062
 31
0.0
  0
LINE
  5
328C
102
{ACAD_REACTORS
330
38D5
102
}
330
2
100
AcDbEntity
  8
KIJUN
100
AcDbLine
 10
135.0927948456233
 20
742.4754855848062
 30
0.0
 11
123.2812868455807
 21
742.4754855848062
 31
0.0
  0
LINE
  5
328D
102
{ACAD_REACTORS
330
38D5
102
}
330
2
100
AcDbEntity
  8
KIJUN
100
AcDbLine
 10
123.2812868455807
 20
742.4754855848062
 30
0.0
 11
111.8667808456089
 21
742.1155675847617
 31
0.0
  0
LINE
  5
328E
102
{ACAD_REACTORS
330
38D5
102
}
330
2
100
AcDbEntity
  8
KIJUN
100
AcDbLine
 10
111.8667808456089
 20
742.1155675847617
 30
0.0
 11
99.85677184559655
 21
741.2750815847743
 31
0.0
  0
LINE
  5
328F
102
{ACAD_REACTORS
330
38D5
102
}
330
2
100
AcDbEntity
  8
KIJUN
100
AcDbLine
 10
99.85677184559655
 20
741.2750815847743
 30
0.0
 11
84.76980684555792
 21
740.9150365848094
 31
0.0
  0
LINE
  5
3290
102
{ACAD_REACTORS
330
38D5
102
}
330
2
100
AcDbEntity
  8
KIJUN
100
AcDbLine
 10
84.76980684555792
 20
740.9150365848094
 30
0.0
 11
68.98827884567481
 21
739.4749835847892
 31
0.0
  0
LINE
  5
3291
102
{ACAD_REACTORS
330
38D5
102
}
330
2
100
AcDbEntity
  8
KIJUN
100
AcDbLine
 10
68.98827884567481
 20
739.4749835847892
 30
0.0
 11
53.90131384562164
 21
737.554997584752
 31
0.0
  0
LINE
  5
3292
102
{ACAD_REACTORS
330
38D5
102
}
330
2
100
AcDbEntity
  8
KIJUN
100
AcDbLine
 10
53.90131384562164
 20
737.554997584752
 30
0.0
 11
47.74727484564983
 21
735.7545185847542
 31
0.0
  0
LINE
  5
3293
102
{ACAD_REACTORS
330
38D5
102
}
330
2
100
AcDbEntity
  8
KIJUN
100
AcDbLine
 10
47.74727484564983
 20
735.7545185847542
 30
0.0
 11
46.15926684561464
 21
730.8340305847582
 31
0.0
  0
LINE
  5
3294
102
{ACAD_REACTORS
330
38D5
102
}
330
2
100
AcDbEntity
  8
KIJUN
100
AcDbLine
 10
46.15926684561464
 20
730.8340305847582
 30
0.0
 11
46.75476984565512
 21
724.8335345847794
 31
0.0
  0
LINE
  5
3295
102
{ACAD_REACTORS
330
38D5
102
}
330
2
100
AcDbEntity
  8
KIJUN
100
AcDbLine
 10
46.75476984565512
 20
724.8335345847794
 30
0.0
 11
50.82423084556694
 21
722.5535035847774
 31
0.0
  0
LINE
  5
3296
102
{ACAD_REACTORS
330
38D5
102
}
330
2
100
AcDbEntity
  8
KIJUN
100
AcDbLine
 10
50.82423084556694
 20
722.5535035847774
 30
0.0
 11
53.30581084558843
 21
722.5535035847774
 31
0.0
  0
LINE
  5
3297
102
{ACAD_REACTORS
330
38D5
102
}
330
2
100
AcDbEntity
  8
KIJUN
100
AcDbLine
 10
53.30581084558843
 20
722.5535035847774
 30
0.0
 11
59.45972284564823
 21
722.9135485848004
 31
0.0
  0
LINE
  5
3298
102
{ACAD_REACTORS
330
38D5
102
}
330
2
100
AcDbEntity
  8
KIJUN
100
AcDbLine
 10
59.45972284564823
 20
722.9135485848004
 30
0.0
 11
64.72031684556032
 21
723.7535265847895
 31
0.0
  0
LINE
  5
3299
102
{ACAD_REACTORS
330
38D5
102
}
330
2
100
AcDbEntity
  8
KIJUN
100
AcDbLine
 10
64.72031684556032
 20
723.7535265847895
 30
0.0
 11
70.57628684558631
 21
724.1135715847617
 31
0.0
  0
LINE
  5
329A
102
{ACAD_REACTORS
330
38D5
102
}
330
2
100
AcDbEntity
  8
KIJUN
100
AcDbLine
 10
70.57628684558631
 20
724.1135715847617
 30
0.0
 11
77.02775984566006
 21
724.8335345847794
 31
0.0
  0
LINE
  5
329B
102
{ACAD_REACTORS
330
38D5
102
}
330
2
100
AcDbEntity
  8
KIJUN
100
AcDbLine
 10
77.02775984566006
 20
724.8335345847794
 30
0.0
 11
83.47974084566567
 21
725.1935795848098
 31
0.0
  0
LINE
  5
329C
102
{ACAD_REACTORS
330
38D5
102
}
330
2
100
AcDbEntity
  8
KIJUN
100
AcDbLine
 10
83.47974084566567
 20
725.1935795848098
 30
0.0
 11
91.51922184565092
 21
725.9135425847619
 31
0.0
  0
LINE
  5
329D
102
{ACAD_REACTORS
330
38D5
102
}
330
2
100
AcDbEntity
  8
KIJUN
100
AcDbLine
 10
91.51922184565092
 20
725.9135425847619
 30
0.0
 11
98.96370784565853
 21
726.2735875847997
 31
0.0
  0
LINE
  5
329E
102
{ACAD_REACTORS
330
38D5
102
}
330
2
100
AcDbEntity
  8
KIJUN
100
AcDbLine
 10
98.96370784565853
 20
726.2735875847997
 30
0.0
 11
107.0033158455776
 21
726.7540285848139
 31
0.0
  0
LINE
  5
329F
102
{ACAD_REACTORS
330
38D5
102
}
330
2
100
AcDbEntity
  8
KIJUN
100
AcDbLine
 10
107.0033158455776
 20
726.7540285848139
 30
0.0
 11
114.0507998456237
 21
727.1140735847796
 31
0.0
  0
LINE
  5
32A0
102
{ACAD_REACTORS
330
38D5
102
}
330
2
100
AcDbEntity
  8
KIJUN
100
AcDbLine
 10
114.0507998456237
 20
727.1140735847796
 30
0.0
 11
120.8992748456517
 21
727.1140735847796
 31
0.0
  0
LINE
  5
32A1
102
{ACAD_REACTORS
330
38D5
102
}
330
2
100
AcDbEntity
  8
KIJUN
100
AcDbLine
 10
120.8992748456517
 20
727.1140735847796
 30
0.0
 11
128.2443198455953
 21
727.1140735847796
 31
0.0
  0
LINE
  5
32A2
102
{ACAD_REACTORS
330
38D5
102
}
330
2
100
AcDbEntity
  8
KIJUN
100
AcDbLine
 10
128.2443198455953
 20
727.1140735847796
 30
0.0
 11
133.8027288456073
 21
726.7540285848139
 31
0.0
  0
LINE
  5
32A3
102
{ACAD_REACTORS
330
38D5
102
}
330
2
100
AcDbEntity
  8
KIJUN
100
AcDbLine
 10
133.8027288456073
 20
726.7540285848139
 30
0.0
 11
140.254201845572
 21
726.7540285848139
 31
0.0
  0
LINE
  5
32A4
102
{ACAD_REACTORS
330
38D5
102
}
330
2
100
AcDbEntity
  8
KIJUN
100
AcDbLine
 10
140.254201845572
 20
726.7540285848139
 30
0.0
 11
145.5147958456004
 21
725.9135425847619
 31
0.0
  0
LINE
  5
32A5
102
{ACAD_REACTORS
330
38D5
102
}
330
2
100
AcDbEntity
  8
KIJUN
100
AcDbLine
 10
145.5147958456004
 20
725.9135425847619
 30
0.0
 11
149.5842568456141
 21
723.7535265847895
 31
0.0
  0
LINE
  5
32A6
102
{ACAD_REACTORS
330
38D5
102
}
330
2
100
AcDbEntity
  8
KIJUN
100
AcDbLine
 10
162.9192568455623
 20
728.9605265847552
 30
0.0
 11
166.393214845652
 21
726.3200695847613
 31
0.0
  0
LINE
  5
32A7
102
{ACAD_REACTORS
330
38D5
102
}
330
2
100
AcDbEntity
  8
KIJUN
100
AcDbLine
 10
166.393214845652
 20
726.3200695847613
 30
0.0
 11
171.2568068456171
 21
724.1600535847898
 31
0.0
  0
LINE
  5
32A8
102
{ACAD_REACTORS
330
38D5
102
}
330
2
100
AcDbEntity
  8
KIJUN
100
AcDbLine
 10
171.2568068456171
 20
724.1600535847898
 30
0.0
 11
178.1052818456451
 21
723.8000085847584
 31
0.0
  0
LINE
  5
32A9
102
{ACAD_REACTORS
330
38D5
102
}
330
2
100
AcDbEntity
  8
KIJUN
100
AcDbLine
 10
178.1052818456451
 20
723.8000085847584
 30
0.0
 11
184.2591938455812
 21
724.5199715847769
 31
0.0
  0
LINE
  5
32AA
102
{ACAD_REACTORS
330
38D5
102
}
330
2
100
AcDbEntity
  8
KIJUN
100
AcDbLine
 10
184.2591938455812
 20
724.5199715847769
 30
0.0
 11
190.7107938455815
 21
726.8005105847755
 31
0.0
  0
LINE
  5
32AB
102
{ACAD_REACTORS
330
38D5
102
}
330
2
100
AcDbEntity
  8
KIJUN
100
AcDbLine
 10
190.7107938455815
 20
726.8005105847755
 30
0.0
 11
194.7802548455952
 21
729.8005045847952
 31
0.0
  0
LINE
  5
32AC
102
{ACAD_REACTORS
330
38D5
102
}
330
2
100
AcDbEntity
  8
KIJUN
100
AcDbLine
 10
194.7802548455952
 20
729.8005045847952
 30
0.0
 11
188.5272828456223
 21
733.1610515847918
 31
0.0
  0
LINE
  5
32AD
102
{ACAD_REACTORS
330
38D5
102
}
330
2
100
AcDbEntity
  8
KIJUN
100
AcDbLine
 10
188.5272828456223
 20
733.1610515847918
 30
0.0
 11
185.1527658455747
 21
736.5209635847918
 31
0.0
  0
LINE
  5
32AE
102
{ACAD_REACTORS
330
38D5
102
}
330
2
100
AcDbEntity
  8
KIJUN
100
AcDbLine
 10
185.1527658455747
 20
736.5209635847918
 30
0.0
 11
180.1897328455675
 21
741.3215635848013
 31
0.0
  0
LINE
  5
32AF
102
{ACAD_REACTORS
330
38D5
102
}
330
2
100
AcDbEntity
  8
KIJUN
100
AcDbLine
 10
180.1897328455675
 20
741.3215635848013
 30
0.0
 11
175.0287068456314
 21
745.5220885847798
 31
0.0
  0
LINE
  5
32B0
102
{ACAD_REACTORS
330
38D5
102
}
330
2
100
AcDbEntity
  8
KIJUN
100
AcDbLine
 10
175.0287068456314
 20
745.5220885847798
 30
0.0
 11
167.5842208456311
 21
750.3225615848045
 31
0.0
  0
LINE
  5
32B1
102
{ACAD_REACTORS
330
38D5
102
}
330
2
100
AcDbEntity
  8
KIJUN
100
AcDbLine
 10
167.5842208456311
 20
750.3225615848045
 30
0.0
 11
160.1402428455626
 21
753.3230635847634
 31
0.0
  0
LINE
  5
32B2
102
{ACAD_REACTORS
330
38D5
102
}
330
2
100
AcDbEntity
  8
KIJUN
100
AcDbLine
 10
160.1402428455626
 20
753.3230635847634
 30
0.0
 11
150.0158028455994
 21
755.6029675847808
 31
0.0
  0
LINE
  5
32B3
102
{ACAD_REACTORS
330
38D5
102
}
330
2
100
AcDbEntity
  8
KIJUN
100
AcDbLine
 10
150.0158028455994
 20
755.6029675847808
 30
0.0
 11
140.0902448456186
 21
757.5230805848027
 31
0.0
  0
LINE
  5
32B4
102
{ACAD_REACTORS
330
38D5
102
}
330
2
100
AcDbEntity
  8
KIJUN
100
AcDbLine
 10
140.0902448456186
 20
757.5230805848027
 30
0.0
 11
129.6682438456414
 21
758.2435515847596
 31
0.0
  0
LINE
  5
32B5
102
{ACAD_REACTORS
330
38D5
102
}
330
2
100
AcDbEntity
  8
KIJUN
100
AcDbLine
 10
129.6682438456414
 20
758.2435515847596
 30
0.0
 11
118.5518068456226
 21
758.2435515847596
 31
0.0
  0
LINE
  5
32B6
102
{ACAD_REACTORS
330
38D5
102
}
330
2
100
AcDbEntity
  8
KIJUN
100
AcDbLine
 10
118.5518068456226
 20
758.2435515847596
 30
0.0
 11
107.7328038455821
 21
757.5230805848027
 31
0.0
  0
LINE
  5
32B7
102
{ACAD_REACTORS
330
38D5
102
}
330
2
100
AcDbEntity
  8
KIJUN
100
AcDbLine
 10
107.7328038455821
 20
757.5230805848027
 30
0.0
 11
97.80724584560131
 21
756.6829755847707
 31
0.0
  0
LINE
  5
32B8
102
{ACAD_REACTORS
330
38D5
102
}
330
2
100
AcDbEntity
  8
KIJUN
100
AcDbLine
 10
97.80724584560131
 20
756.6829755847707
 30
0.0
 11
86.78974184558365
 21
756.3230575847906
 31
0.0
  0
LINE
  5
32B9
102
{ACAD_REACTORS
330
38D5
102
}
330
2
100
AcDbEntity
  8
KIJUN
100
AcDbLine
 10
86.78974184558365
 20
756.3230575847906
 30
0.0
 11
72.59622184561203
 21
755.2430495848007
 31
0.0
  0
LINE
  5
32BA
102
{ACAD_REACTORS
330
38D5
102
}
330
2
100
AcDbEntity
  8
KIJUN
100
AcDbLine
 10
72.59622184561203
 20
755.2430495848007
 30
0.0
 11
58.99820484556449
 21
753.68298158481
 31
0.0
  0
LINE
  5
32BB
102
{ACAD_REACTORS
330
38D5
102
}
330
2
100
AcDbEntity
  8
KIJUN
100
AcDbLine
 10
58.99820484556449
 20
753.68298158481
 30
0.0
 11
52.44729084556502
 21
752.9630185847913
 31
0.0
  0
LINE
  5
32BC
102
{ACAD_REACTORS
330
38D5
102
}
330
2
100
AcDbEntity
  8
KIJUN
100
AcDbLine
 10
52.44729084556502
 20
752.9630185847913
 30
0.0
 11
47.88125984560656
 21
752.2425475847763
 31
0.0
  0
LINE
  5
32BD
102
{ACAD_REACTORS
330
38D5
102
}
330
2
100
AcDbEntity
  8
KIJUN
100
AcDbLine
 10
47.88125984560656
 20
752.2425475847763
 30
0.0
 11
45.10224584560683
 21
749.9625165847742
 31
0.0
  0
LINE
  5
32BE
102
{ACAD_REACTORS
330
38D5
102
}
330
2
100
AcDbEntity
  8
KIJUN
100
AcDbLine
 10
45.10224584560683
 20
749.9625165847742
 30
0.0
 11
43.51423784557164
 21
746.6019695847848
 31
0.0
  0
LINE
  5
32BF
102
{ACAD_REACTORS
330
38D5
102
}
330
2
100
AcDbEntity
  8
KIJUN
100
AcDbLine
 10
43.51423784557164
 20
746.6019695847848
 30
0.0
 11
42.91873484564757
 21
742.5219675847752
 31
0.0
  0
LINE
  5
32C0
102
{ACAD_REACTORS
330
38D5
102
}
330
2
100
AcDbEntity
  8
KIJUN
100
AcDbLine
 10
42.91873484564757
 20
742.5219675847752
 30
0.0
 11
44.8043038455803
 21
739.5214655847579
 31
0.0
  0
LINE
  5
32C1
102
{ACAD_REACTORS
330
38D5
102
}
330
2
100
AcDbEntity
  8
KIJUN
100
AcDbLine
 10
44.8043038455803
 20
739.5214655847579
 30
0.0
 11
47.28575684556608
 21
737.241561584799
 31
0.0
  0
LINE
  5
32C2
102
{ACAD_REACTORS
330
38D5
102
}
330
2
100
AcDbEntity
  8
KIJUN
100
AcDbLine
 10
47.28575684556608
 20
737.241561584799
 30
0.0
 11
49.37020784560491
 21
736.5209635847918
 31
0.0
  0
LINE
  5
32C3
102
{ACAD_REACTORS
330
38D5
102
}
330
2
100
AcDbEntity
  8
KIJUN
100
AcDbLine
 10
49.37020784560491
 20
736.5209635847918
 30
0.0
 11
56.81431284559995
 21
737.9615245847512
 31
0.0
  0
LINE
  5
32C4
102
{ACAD_REACTORS
330
38D5
102
}
330
2
100
AcDbEntity
  8
KIJUN
100
AcDbLine
 10
56.81431284559995
 20
737.9615245847512
 30
0.0
 11
64.85430184564075
 21
738.8015025847984
 31
0.0
  0
LINE
  5
32C5
102
{ACAD_REACTORS
330
38D5
102
}
330
2
100
AcDbEntity
  8
KIJUN
100
AcDbLine
 10
64.85430184564075
 20
738.8015025847984
 30
0.0
 11
72.89378284562599
 21
739.8815105847884
 31
0.0
  0
LINE
  5
32C6
102
{ACAD_REACTORS
330
38D5
102
}
330
2
100
AcDbEntity
  8
KIJUN
100
AcDbLine
 10
72.89378284562599
 20
739.8815105847884
 30
0.0
 11
79.34576384563889
 21
740.2415555847605
 31
0.0
  0
LINE
  5
32C7
102
{ACAD_REACTORS
330
38D5
102
}
330
2
100
AcDbEntity
  8
KIJUN
100
AcDbLine
 10
79.34576384563889
 20
740.2415555847605
 30
0.0
 11
88.87431984566546
 21
740.6014735848063
 31
0.0
  0
LINE
  5
32C8
102
{ACAD_REACTORS
330
38D5
102
}
330
2
100
AcDbEntity
  8
KIJUN
100
AcDbLine
 10
88.87431984566546
 20
740.6014735848063
 30
0.0
 11
96.61623984564403
 21
740.9615185847709
 31
0.0
  0
LINE
  5
32C9
102
{ACAD_REACTORS
330
38D5
102
}
330
2
100
AcDbEntity
  8
KIJUN
100
AcDbLine
 10
96.61623984564403
 20
740.9615185847709
 30
0.0
 11
108.3283068456226
 21
741.8014965847601
 31
0.0
  0
LINE
  5
32CA
102
{ACAD_REACTORS
330
38D5
102
}
330
2
100
AcDbEntity
  8
KIJUN
100
AcDbLine
 10
108.3283068456226
 20
741.8014965847601
 30
0.0
 11
117.9563038455821
 21
742.1620495847959
 31
0.0
  0
LINE
  5
32CB
102
{ACAD_REACTORS
330
38D5
102
}
330
2
100
AcDbEntity
  8
KIJUN
100
AcDbLine
 10
117.9563038455821
 20
742.1620495847959
 30
0.0
 11
128.6757388456467
 21
742.5219675847752
 31
0.0
  0
LINE
  5
32CC
102
{ACAD_REACTORS
330
38D5
102
}
330
2
100
AcDbEntity
  8
KIJUN
100
AcDbLine
 10
128.6757388456467
 20
742.5219675847752
 30
0.0
 11
137.6087918456401
 21
742.1620495847959
 31
0.0
  0
LINE
  5
32CD
102
{ACAD_REACTORS
330
38D5
102
}
330
2
100
AcDbEntity
  8
KIJUN
100
AcDbLine
 10
137.6087918456401
 20
742.1620495847959
 30
0.0
 11
147.8322918456401
 21
740.9615185847709
 31
0.0
  0
LINE
  5
32CE
102
{ACAD_REACTORS
330
38D5
102
}
330
2
100
AcDbEntity
  8
KIJUN
100
AcDbLine
 10
147.8322918456401
 20
740.9615185847709
 30
0.0
 11
153.9862038455762
 21
738.8015025847984
 31
0.0
  0
LINE
  5
32CF
102
{ACAD_REACTORS
330
38D5
102
}
330
2
100
AcDbEntity
  8
KIJUN
100
AcDbLine
 10
153.9862038455762
 20
738.8015025847984
 30
0.0
 11
158.3532258456112
 21
736.1610455848135
 31
0.0
  0
LINE
  5
32D0
102
{ACAD_REACTORS
330
38D5
102
}
330
2
100
AcDbEntity
  8
KIJUN
100
AcDbLine
 10
158.3532258456112
 20
736.1610455848135
 30
0.0
 11
161.4303088455713
 21
731.6009835848005
 31
0.0
  0
LINE
  5
32D1
102
{ACAD_REACTORS
330
38D5
102
}
330
2
100
AcDbEntity
  8
KIJUN
100
AcDbLine
 10
161.4303088455713
 20
731.6009835848005
 30
0.0
 11
162.9192568455623
 21
728.9605265847552
 31
0.0
  0
LINE
  5
32D2
102
{ACAD_REACTORS
330
38D5
102
}
330
2
100
AcDbEntity
  8
KIJUN
100
AcDbLine
 10
163.8082568456307
 20
831.5765265847572
 30
0.0
 11
167.2822148456039
 21
834.2169835847956
 31
0.0
  0
LINE
  5
32D3
102
{ACAD_REACTORS
330
38D5
102
}
330
2
100
AcDbEntity
  8
KIJUN
100
AcDbLine
 10
167.2822148456039
 20
834.2169835847956
 30
0.0
 11
172.145806845569
 21
836.3769995847755
 31
0.0
  0
LINE
  5
32D4
102
{ACAD_REACTORS
330
38D5
102
}
330
2
100
AcDbEntity
  8
KIJUN
100
AcDbLine
 10
172.145806845569
 20
836.3769995847755
 30
0.0
 11
178.994281845597
 21
836.7370445848049
 31
0.0
  0
LINE
  5
32D5
102
{ACAD_REACTORS
330
38D5
102
}
330
2
100
AcDbEntity
  8
KIJUN
100
AcDbLine
 10
178.994281845597
 20
836.7370445848049
 30
0.0
 11
185.1481938456495
 21
836.0170815847872
 31
0.0
  0
LINE
  5
32D6
102
{ACAD_REACTORS
330
38D5
102
}
330
2
100
AcDbEntity
  8
KIJUN
100
AcDbLine
 10
185.1481938456495
 20
836.0170815847872
 30
0.0
 11
191.5997938456426
 21
833.7365425847877
 31
0.0
  0
LINE
  5
32D7
102
{ACAD_REACTORS
330
38D5
102
}
330
2
100
AcDbEntity
  8
KIJUN
100
AcDbLine
 10
191.5997938456426
 20
833.7365425847877
 30
0.0
 11
195.6692548456708
 21
830.7365485847681
 31
0.0
  0
LINE
  5
32D8
102
{ACAD_REACTORS
330
38D5
102
}
330
2
100
AcDbEntity
  8
KIJUN
100
AcDbLine
 10
195.6692548456708
 20
830.7365485847681
 30
0.0
 11
189.4162828455742
 21
827.3760015847788
 31
0.0
  0
LINE
  5
32D9
102
{ACAD_REACTORS
330
38D5
102
}
330
2
100
AcDbEntity
  8
KIJUN
100
AcDbLine
 10
189.4162828455742
 20
827.3760015847788
 30
0.0
 11
186.0417658456431
 21
824.0160895847644
 31
0.0
  0
LINE
  5
32DA
102
{ACAD_REACTORS
330
38D5
102
}
330
2
100
AcDbEntity
  8
KIJUN
100
AcDbLine
 10
186.0417658456431
 20
824.0160895847644
 30
0.0
 11
181.0787328456212
 21
819.215489584762
 31
0.0
  0
LINE
  5
32DB
102
{ACAD_REACTORS
330
38D5
102
}
330
2
100
AcDbEntity
  8
KIJUN
100
AcDbLine
 10
181.0787328456212
 20
819.215489584762
 30
0.0
 11
175.9177068455833
 21
815.0149645847836
 31
0.0
  0
LINE
  5
32DC
102
{ACAD_REACTORS
330
38D5
102
}
330
2
100
AcDbEntity
  8
KIJUN
100
AcDbLine
 10
175.9177068455833
 20
815.0149645847836
 30
0.0
 11
168.473220845583
 21
810.2144915847659
 31
0.0
  0
LINE
  5
32DD
102
{ACAD_REACTORS
330
38D5
102
}
330
2
100
AcDbEntity
  8
KIJUN
100
AcDbLine
 10
168.473220845583
 20
810.2144915847659
 30
0.0
 11
161.0292428456309
 21
807.2139895848
 31
0.0
  0
LINE
  5
32DE
102
{ACAD_REACTORS
330
38D5
102
}
330
2
100
AcDbEntity
  8
KIJUN
100
AcDbLine
 10
161.0292428456309
 20
807.2139895848
 30
0.0
 11
150.9048028456605
 21
804.9340855847752
 31
0.0
  0
LINE
  5
32DF
102
{ACAD_REACTORS
330
38D5
102
}
330
2
100
AcDbEntity
  8
KIJUN
100
AcDbLine
 10
150.9048028456605
 20
804.9340855847752
 30
0.0
 11
140.9792448455705
 21
803.0139725847607
 31
0.0
  0
LINE
  5
32E0
102
{ACAD_REACTORS
330
38D5
102
}
330
2
100
AcDbEntity
  8
KIJUN
100
AcDbLine
 10
140.9792448455705
 20
803.0139725847607
 30
0.0
 11
130.5572438455933
 21
802.2935015848037
 31
0.0
  0
LINE
  5
32E1
102
{ACAD_REACTORS
330
38D5
102
}
330
2
100
AcDbEntity
  8
KIJUN
100
AcDbLine
 10
130.5572438455933
 20
802.2935015848037
 30
0.0
 11
119.4408068455745
 21
802.2935015848037
 31
0.0
  0
LINE
  5
32E2
102
{ACAD_REACTORS
330
38D5
102
}
330
2
100
AcDbEntity
  8
KIJUN
100
AcDbLine
 10
119.4408068455745
 20
802.2935015848037
 30
0.0
 11
108.6218038456431
 21
803.0139725847607
 31
0.0
  0
LINE
  5
32E3
102
{ACAD_REACTORS
330
38D5
102
}
330
2
100
AcDbEntity
  8
KIJUN
100
AcDbLine
 10
108.6218038456431
 20
803.0139725847607
 30
0.0
 11
98.69624584567691
 21
803.8540775847945
 31
0.0
  0
LINE
  5
32E4
102
{ACAD_REACTORS
330
38D5
102
}
330
2
100
AcDbEntity
  8
KIJUN
100
AcDbLine
 10
98.69624584567691
 20
803.8540775847945
 30
0.0
 11
87.67874184565199
 21
804.2139955847799
 31
0.0
  0
LINE
  5
32E5
102
{ACAD_REACTORS
330
38D5
102
}
330
2
100
AcDbEntity
  8
KIJUN
100
AcDbLine
 10
87.67874184565199
 20
804.2139955847799
 30
0.0
 11
73.48522184556395
 21
805.2940035847637
 31
0.0
  0
LINE
  5
32E6
102
{ACAD_REACTORS
330
38D5
102
}
330
2
100
AcDbEntity
  8
KIJUN
100
AcDbLine
 10
73.48522184556395
 20
805.2940035847637
 30
0.0
 11
59.88720484563282
 21
806.8540715847543
 31
0.0
  0
LINE
  5
32E7
102
{ACAD_REACTORS
330
38D5
102
}
330
2
100
AcDbEntity
  8
KIJUN
100
AcDbLine
 10
59.88720484563282
 20
806.8540715847543
 30
0.0
 11
53.33629084562608
 21
807.5740345847721
 31
0.0
  0
LINE
  5
32E8
102
{ACAD_REACTORS
330
38D5
102
}
330
2
100
AcDbEntity
  8
KIJUN
100
AcDbLine
 10
53.33629084562608
 20
807.5740345847721
 30
0.0
 11
48.77025984555849
 21
808.2945055847881
 31
0.0
  0
LINE
  5
32E9
102
{ACAD_REACTORS
330
38D5
102
}
330
2
100
AcDbEntity
  8
KIJUN
100
AcDbLine
 10
48.77025984555849
 20
808.2945055847881
 30
0.0
 11
45.99124584555875
 21
810.5745365847893
 31
0.0
  0
LINE
  5
32EA
102
{ACAD_REACTORS
330
38D5
102
}
330
2
100
AcDbEntity
  8
KIJUN
100
AcDbLine
 10
45.99124584555875
 20
810.5745365847893
 30
0.0
 11
44.40323784564725
 21
813.9350835847784
 31
0.0
  0
LINE
  5
32EB
102
{ACAD_REACTORS
330
38D5
102
}
330
2
100
AcDbEntity
  8
KIJUN
100
AcDbLine
 10
44.40323784564725
 20
813.9350835847784
 30
0.0
 11
43.80773484559949
 21
818.0150855847884
 31
0.0
  0
LINE
  5
32EC
102
{ACAD_REACTORS
330
38D5
102
}
330
2
100
AcDbEntity
  8
KIJUN
100
AcDbLine
 10
43.80773484559949
 20
818.0150855847884
 30
0.0
 11
45.69330384564864
 21
821.0155875848053
 31
0.0
  0
LINE
  5
32ED
102
{ACAD_REACTORS
330
38D5
102
}
330
2
100
AcDbEntity
  8
KIJUN
100
AcDbLine
 10
45.69330384564864
 20
821.0155875848053
 30
0.0
 11
48.17475684563442
 21
823.2954915847717
 31
0.0
  0
LINE
  5
32EE
102
{ACAD_REACTORS
330
38D5
102
}
330
2
100
AcDbEntity
  8
KIJUN
100
AcDbLine
 10
48.17475684563442
 20
823.2954915847717
 30
0.0
 11
50.25920784567325
 21
824.0160895847644
 31
0.0
  0
LINE
  5
32EF
102
{ACAD_REACTORS
330
38D5
102
}
330
2
100
AcDbEntity
  8
KIJUN
100
AcDbLine
 10
50.25920784567325
 20
824.0160895847644
 30
0.0
 11
57.70331284566101
 21
822.5755285848048
 31
0.0
  0
LINE
  5
32F0
102
{ACAD_REACTORS
330
38D5
102
}
330
2
100
AcDbEntity
  8
KIJUN
100
AcDbLine
 10
57.70331284566101
 20
822.5755285848048
 30
0.0
 11
65.74330184558539
 21
821.7355505847658
 31
0.0
  0
LINE
  5
32F1
102
{ACAD_REACTORS
330
38D5
102
}
330
2
100
AcDbEntity
  8
KIJUN
100
AcDbLine
 10
65.74330184558539
 20
821.7355505847658
 30
0.0
 11
73.78278284557791
 21
820.6555425847833
 31
0.0
  0
LINE
  5
32F2
102
{ACAD_REACTORS
330
38D5
102
}
330
2
100
AcDbEntity
  8
KIJUN
100
AcDbLine
 10
73.78278284557791
 20
820.6555425847833
 30
0.0
 11
80.2347638455908
 21
820.2954975848101
 31
0.0
  0
LINE
  5
32F3
102
{ACAD_REACTORS
330
38D5
102
}
330
2
100
AcDbEntity
  8
KIJUN
100
AcDbLine
 10
80.2347638455908
 20
820.2954975848101
 30
0.0
 11
89.76331984561738
 21
819.9355795847646
 31
0.0
  0
LINE
  5
32F4
102
{ACAD_REACTORS
330
38D5
102
}
330
2
100
AcDbEntity
  8
KIJUN
100
AcDbLine
 10
89.76331984561738
 20
819.9355795847646
 30
0.0
 11
97.50523984558867
 21
819.5755345847922
 31
0.0
  0
LINE
  5
32F5
102
{ACAD_REACTORS
330
38D5
102
}
330
2
100
AcDbEntity
  8
KIJUN
100
AcDbLine
 10
97.50523984558867
 20
819.5755345847922
 30
0.0
 11
109.2173068455745
 21
818.7355565848033
 31
0.0
  0
LINE
  5
32F6
102
{ACAD_REACTORS
330
38D5
102
}
330
2
100
AcDbEntity
  8
KIJUN
100
AcDbLine
 10
109.2173068455745
 20
818.7355565848033
 30
0.0
 11
118.8453038456505
 21
818.3750035847756
 31
0.0
  0
LINE
  5
32F7
102
{ACAD_REACTORS
330
38D5
102
}
330
2
100
AcDbEntity
  8
KIJUN
100
AcDbLine
 10
118.8453038456505
 20
818.3750035847756
 30
0.0
 11
129.5647388455984
 21
818.0150855847884
 31
0.0
  0
LINE
  5
32F8
102
{ACAD_REACTORS
330
38D5
102
}
330
2
100
AcDbEntity
  8
KIJUN
100
AcDbLine
 10
129.5647388455984
 20
818.0150855847884
 30
0.0
 11
138.4977918455847
 21
818.3750035847756
 31
0.0
  0
LINE
  5
32F9
102
{ACAD_REACTORS
330
38D5
102
}
330
2
100
AcDbEntity
  8
KIJUN
100
AcDbLine
 10
138.4977918455847
 20
818.3750035847756
 30
0.0
 11
148.7212918455848
 21
819.5755345847922
 31
0.0
  0
LINE
  5
32FA
102
{ACAD_REACTORS
330
38D5
102
}
330
2
100
AcDbEntity
  8
KIJUN
100
AcDbLine
 10
148.7212918455848
 20
819.5755345847922
 30
0.0
 11
154.8752038456446
 21
821.7355505847658
 31
0.0
  0
LINE
  5
32FB
102
{ACAD_REACTORS
330
38D5
102
}
330
2
100
AcDbEntity
  8
KIJUN
100
AcDbLine
 10
154.8752038456446
 20
821.7355505847658
 30
0.0
 11
159.2422258455631
 21
824.3760075847598
 31
0.0
  0
LINE
  5
32FC
102
{ACAD_REACTORS
330
38D5
102
}
330
2
100
AcDbEntity
  8
KIJUN
100
AcDbLine
 10
159.2422258455631
 20
824.3760075847598
 30
0.0
 11
162.3193088456323
 21
828.936069584763
 31
0.0
  0
LINE
  5
32FD
102
{ACAD_REACTORS
330
38D5
102
}
330
2
100
AcDbEntity
  8
KIJUN
100
AcDbLine
 10
162.3193088456323
 20
828.936069584763
 30
0.0
 11
163.8082568456307
 21
831.5765265847572
 31
0.0
  0
LINE
  5
32FE
102
{ACAD_REACTORS
330
38D5
102
}
330
2
100
AcDbEntity
  8
KIJUN
100
AcDbLine
 10
150.6002568456028
 20
836.6565265848098
 30
0.0
 11
153.0817098455814
 21
838.5765125847814
 31
0.0
  0
LINE
  5
32FF
102
{ACAD_REACTORS
330
38D5
102
}
330
2
100
AcDbEntity
  8
KIJUN
100
AcDbLine
 10
153.0817098455814
 20
838.5765125847814
 30
0.0
 11
156.4562268456288
 21
840.1370885847631
 31
0.0
  0
LINE
  5
3300
102
{ACAD_REACTORS
330
38D5
102
}
330
2
100
AcDbEntity
  8
KIJUN
100
AcDbLine
 10
156.4562268456288
 20
840.1370885847631
 30
0.0
 11
160.7243158456626
 21
839.6570285847698
 31
0.0
  0
LINE
  5
3301
102
{ACAD_REACTORS
330
38D5
102
}
330
2
100
AcDbEntity
  8
KIJUN
100
AcDbLine
 10
160.7243158456626
 20
839.6570285847698
 30
0.0
 11
162.9082078456417
 21
837.4965045847932
 31
0.0
  0
LINE
  5
3302
102
{ACAD_REACTORS
330
38D5
102
}
330
2
100
AcDbEntity
  8
KIJUN
100
AcDbLine
 10
162.9082078456417
 20
837.4965045847932
 30
0.0
 11
163.5037108455585
 21
832.9360615847695
 31
0.0
  0
LINE
  5
3303
102
{ACAD_REACTORS
330
38D5
102
}
330
2
100
AcDbEntity
  8
KIJUN
100
AcDbLine
 10
163.5037108455585
 20
832.9360615847695
 30
0.0
 11
161.7166938456071
 21
827.2954835847762
 31
0.0
  0
LINE
  5
3304
102
{ACAD_REACTORS
330
38D5
102
}
330
2
100
AcDbEntity
  8
KIJUN
100
AcDbLine
 10
161.7166938456071
 20
827.2954835847762
 30
0.0
 11
158.6402458456437
 21
822.8550555847828
 31
0.0
  0
LINE
  5
3305
102
{ACAD_REACTORS
330
38D5
102
}
330
2
100
AcDbEntity
  8
KIJUN
100
AcDbLine
 10
158.6402458456437
 20
822.8550555847828
 30
0.0
 11
153.0817098455814
 21
820.5750245847799
 31
0.0
  0
LINE
  5
3306
102
{ACAD_REACTORS
330
38D5
102
}
330
2
100
AcDbEntity
  8
KIJUN
100
AcDbLine
 10
153.0817098455814
 20
820.5750245847799
 30
0.0
 11
145.9352928456505
 21
818.6550385848017
 31
0.0
  0
LINE
  5
3307
102
{ACAD_REACTORS
330
38D5
102
}
330
2
100
AcDbEntity
  8
KIJUN
100
AcDbLine
 10
145.9352928456505
 20
818.6550385848017
 30
0.0
 11
136.1087948455974
 21
817.9345675847939
 31
0.0
  0
LINE
  5
3308
102
{ACAD_REACTORS
330
38D5
102
}
330
2
100
AcDbEntity
  8
KIJUN
100
AcDbLine
 10
136.1087948455974
 20
817.9345675847939
 30
0.0
 11
124.2972868455549
 21
817.9345675847939
 31
0.0
  0
LINE
  5
3309
102
{ACAD_REACTORS
330
38D5
102
}
330
2
100
AcDbEntity
  8
KIJUN
100
AcDbLine
 10
124.2972868455549
 20
817.9345675847939
 30
0.0
 11
112.8827808455903
 21
818.294485584774
 31
0.0
  0
LINE
  5
330A
102
{ACAD_REACTORS
330
38D5
102
}
330
2
100
AcDbEntity
  8
KIJUN
100
AcDbLine
 10
112.8827808455903
 20
818.294485584774
 30
0.0
 11
100.8727718455779
 21
819.1349715847595
 31
0.0
  0
LINE
  5
330B
102
{ACAD_REACTORS
330
38D5
102
}
330
2
100
AcDbEntity
  8
KIJUN
100
AcDbLine
 10
100.8727718455779
 20
819.1349715847595
 30
0.0
 11
85.78580684564849
 21
819.4950165847908
 31
0.0
  0
LINE
  5
330C
102
{ACAD_REACTORS
330
38D5
102
}
330
2
100
AcDbEntity
  8
KIJUN
100
AcDbLine
 10
85.78580684564849
 20
819.4950165847908
 30
0.0
 11
70.00427884564169
 21
820.9350695848101
 31
0.0
  0
LINE
  5
330D
102
{ACAD_REACTORS
330
38D5
102
}
330
2
100
AcDbEntity
  8
KIJUN
100
AcDbLine
 10
70.00427884564169
 20
820.9350695848101
 30
0.0
 11
54.91731384561035
 21
822.8550555847828
 31
0.0
  0
LINE
  5
330E
102
{ACAD_REACTORS
330
38D5
102
}
330
2
100
AcDbEntity
  8
KIJUN
100
AcDbLine
 10
54.91731384561035
 20
822.8550555847828
 30
0.0
 11
48.76327484562398
 21
824.6555345847877
 31
0.0
  0
LINE
  5
330F
102
{ACAD_REACTORS
330
38D5
102
}
330
2
100
AcDbEntity
  8
KIJUN
100
AcDbLine
 10
48.76327484562398
 20
824.6555345847877
 30
0.0
 11
47.17526684558879
 21
829.576022584783
 31
0.0
  0
LINE
  5
3310
102
{ACAD_REACTORS
330
38D5
102
}
330
2
100
AcDbEntity
  8
KIJUN
100
AcDbLine
 10
47.17526684558879
 20
829.576022584783
 30
0.0
 11
47.77076984562927
 21
835.5765185847618
 31
0.0
  0
LINE
  5
3311
102
{ACAD_REACTORS
330
38D5
102
}
330
2
100
AcDbEntity
  8
KIJUN
100
AcDbLine
 10
47.77076984562927
 20
835.5765185847618
 30
0.0
 11
51.84023084565751
 21
837.8565495847638
 31
0.0
  0
LINE
  5
3312
102
{ACAD_REACTORS
330
38D5
102
}
330
2
100
AcDbEntity
  8
KIJUN
100
AcDbLine
 10
51.84023084565751
 20
837.8565495847638
 30
0.0
 11
54.32181084556259
 21
837.8565495847638
 31
0.0
  0
LINE
  5
3313
102
{ACAD_REACTORS
330
38D5
102
}
330
2
100
AcDbEntity
  8
KIJUN
100
AcDbLine
 10
54.32181084556259
 20
837.8565495847638
 30
0.0
 11
60.47572284562239
 21
837.4965045847932
 31
0.0
  0
LINE
  5
3314
102
{ACAD_REACTORS
330
38D5
102
}
330
2
100
AcDbEntity
  8
KIJUN
100
AcDbLine
 10
60.47572284562239
 20
837.4965045847932
 30
0.0
 11
65.73631684565089
 21
836.6565265848098
 31
0.0
  0
LINE
  5
3315
102
{ACAD_REACTORS
330
38D5
102
}
330
2
100
AcDbEntity
  8
KIJUN
100
AcDbLine
 10
65.73631684565089
 20
836.6565265848098
 30
0.0
 11
71.59228684556047
 21
836.2964815847794
 31
0.0
  0
LINE
  5
3316
102
{ACAD_REACTORS
330
38D5
102
}
330
2
100
AcDbEntity
  8
KIJUN
100
AcDbLine
 10
71.59228684556047
 20
836.2964815847794
 30
0.0
 11
78.04375984563421
 21
835.5765185847618
 31
0.0
  0
LINE
  5
3317
102
{ACAD_REACTORS
330
38D5
102
}
330
2
100
AcDbEntity
  8
KIJUN
100
AcDbLine
 10
78.04375984563421
 20
835.5765185847618
 30
0.0
 11
84.4957408456471
 21
835.2164735847896
 31
0.0
  0
LINE
  5
3318
102
{ACAD_REACTORS
330
38D5
102
}
330
2
100
AcDbEntity
  8
KIJUN
100
AcDbLine
 10
84.4957408456471
 20
835.2164735847896
 30
0.0
 11
92.53522184563962
 21
834.4965105847718
 31
0.0
  0
LINE
  5
3319
102
{ACAD_REACTORS
330
38D5
102
}
330
2
100
AcDbEntity
  8
KIJUN
100
AcDbLine
 10
92.53522184563962
 20
834.4965105847718
 30
0.0
 11
99.97970784563996
 21
834.1364655848067
 31
0.0
  0
LINE
  5
331A
102
{ACAD_REACTORS
330
38D5
102
}
330
2
100
AcDbEntity
  8
KIJUN
100
AcDbLine
 10
99.97970784563996
 20
834.1364655848067
 30
0.0
 11
108.0193158456682
 21
833.6560245847852
 31
0.0
  0
LINE
  5
331B
102
{ACAD_REACTORS
330
38D5
102
}
330
2
100
AcDbEntity
  8
KIJUN
100
AcDbLine
 10
108.0193158456682
 20
833.6560245847852
 30
0.0
 11
115.0667998456051
 21
833.2959795847623
 31
0.0
  0
LINE
  5
331C
102
{ACAD_REACTORS
330
38D5
102
}
330
2
100
AcDbEntity
  8
KIJUN
100
AcDbLine
 10
115.0667998456051
 20
833.2959795847623
 30
0.0
 11
121.9152748456258
 21
833.2959795847623
 31
0.0
  0
LINE
  5
331D
102
{ACAD_REACTORS
330
38D5
102
}
330
2
100
AcDbEntity
  8
KIJUN
100
AcDbLine
 10
121.9152748456258
 20
833.2959795847623
 30
0.0
 11
129.2603198455767
 21
833.2959795847623
 31
0.0
  0
LINE
  5
331E
102
{ACAD_REACTORS
330
38D5
102
}
330
2
100
AcDbEntity
  8
KIJUN
100
AcDbLine
 10
129.2603198455767
 20
833.2959795847623
 30
0.0
 11
134.818728845596
 21
833.6560245847852
 31
0.0
  0
LINE
  5
331F
102
{ACAD_REACTORS
330
38D5
102
}
330
2
100
AcDbEntity
  8
KIJUN
100
AcDbLine
 10
134.818728845596
 20
833.6560245847852
 30
0.0
 11
141.2702018456625
 21
833.6560245847852
 31
0.0
  0
LINE
  5
3320
102
{ACAD_REACTORS
330
38D5
102
}
330
2
100
AcDbEntity
  8
KIJUN
100
AcDbLine
 10
141.2702018456625
 20
833.6560245847852
 30
0.0
 11
146.5307958455746
 21
834.4965105847718
 31
0.0
  0
LINE
  5
3321
102
{ACAD_REACTORS
330
38D5
102
}
330
2
100
AcDbEntity
  8
KIJUN
100
AcDbLine
 10
146.5307958455746
 20
834.4965105847718
 30
0.0
 11
150.6002568456028
 21
836.6565265848098
 31
0.0
  0
LINE
  5
3322
102
{ACAD_REACTORS
330
38D5
102
}
330
2
100
AcDbEntity
  8
KIJUN
100
AcDbLine
 10
49.12725684559018
 20
807.5735265847674
 30
0.0
 11
45.75273984567366
 21
806.0135855847677
 31
0.0
  0
LINE
  5
3323
102
{ACAD_REACTORS
330
38D5
102
}
330
2
100
AcDbEntity
  8
KIJUN
100
AcDbLine
 10
45.75273984567366
 20
806.0135855847677
 30
0.0
 11
44.75972684562338
 21
802.6530385847786
 31
0.0
  0
LINE
  5
3324
102
{ACAD_REACTORS
330
38D5
102
}
330
2
100
AcDbEntity
  8
KIJUN
100
AcDbLine
 10
44.75972684562338
 20
802.6530385847786
 30
0.0
 11
44.46229284565243
 21
798.9325735848018
 31
0.0
  0
LINE
  5
3325
102
{ACAD_REACTORS
330
38D5
102
}
330
2
100
AcDbEntity
  8
KIJUN
100
AcDbLine
 10
44.46229284565243
 20
798.9325735848018
 30
0.0
 11
44.75972684562338
 21
795.57253458481
 31
0.0
  0
LINE
  5
3326
102
{ACAD_REACTORS
330
38D5
102
}
330
2
100
AcDbEntity
  8
KIJUN
100
AcDbLine
 10
44.75972684562338
 20
795.57253458481
 30
0.0
 11
46.64580384561168
 21
792.5720325847946
 31
0.0
  0
LINE
  5
3327
102
{ACAD_REACTORS
330
38D5
102
}
330
2
100
AcDbEntity
  8
KIJUN
100
AcDbLine
 10
46.64580384561168
 20
792.5720325847946
 30
0.0
 11
50.61620484558853
 21
790.6520465847557
 31
0.0
  0
LINE
  5
3328
102
{ACAD_REACTORS
330
38D5
102
}
330
2
100
AcDbEntity
  8
KIJUN
100
AcDbLine
 10
50.61620484558853
 20
790.6520465847557
 30
0.0
 11
58.95375484565057
 21
789.9320835848032
 31
0.0
  0
LINE
  5
3329
102
{ACAD_REACTORS
330
38D5
102
}
330
2
100
AcDbEntity
  8
KIJUN
100
AcDbLine
 10
58.95375484565057
 20
789.9320835848032
 30
0.0
 11
67.98574084563052
 21
789.5720385847729
 31
0.0
  0
LINE
  5
332A
102
{ACAD_REACTORS
330
38D5
102
}
330
2
100
AcDbEntity
  8
KIJUN
100
AcDbLine
 10
67.98574084563052
 20
789.5720385847729
 30
0.0
 11
77.8122388455672
 21
788.3715075847564
 31
0.0
  0
LINE
  5
332B
102
{ACAD_REACTORS
330
38D5
102
}
330
2
100
AcDbEntity
  8
KIJUN
100
AcDbLine
 10
77.8122388455672
 20
788.3715075847564
 30
0.0
 11
91.11269484560807
 21
788.0115895847698
 31
0.0
  0
LINE
  5
332C
102
{ACAD_REACTORS
330
38D5
102
}
330
2
100
AcDbEntity
  8
KIJUN
100
AcDbLine
 10
91.11269484560807
 20
788.0115895847698
 30
0.0
 11
102.8247618455866
 21
787.6515445847967
 31
0.0
  0
LINE
  5
332D
102
{ACAD_REACTORS
330
38D5
102
}
330
2
100
AcDbEntity
  8
KIJUN
100
AcDbLine
 10
102.8247618455866
 20
787.6515445847967
 30
0.0
 11
117.6142928456543
 21
787.6515445847967
 31
0.0
  0
LINE
  5
332E
102
{ACAD_REACTORS
330
38D5
102
}
330
2
100
AcDbEntity
  8
KIJUN
100
AcDbLine
 10
117.6142928456543
 20
787.6515445847967
 30
0.0
 11
129.9217358456376
 21
787.6515445847967
 31
0.0
  0
LINE
  5
332F
102
{ACAD_REACTORS
330
38D5
102
}
330
2
100
AcDbEntity
  8
KIJUN
100
AcDbLine
 10
129.9217358456376
 20
787.6515445847967
 30
0.0
 11
142.3287468456042
 21
788.0115895847698
 31
0.0
  0
LINE
  5
3330
102
{ACAD_REACTORS
330
38D5
102
}
330
2
100
AcDbEntity
  8
KIJUN
100
AcDbLine
 10
142.3287468456042
 20
788.0115895847698
 30
0.0
 11
152.452805845664
 21
789.2114855847962
 31
0.0
  0
LINE
  5
3331
102
{ACAD_REACTORS
330
38D5
102
}
330
2
100
AcDbEntity
  8
KIJUN
100
AcDbLine
 10
152.452805845664
 20
789.2114855847962
 30
0.0
 11
164.2643138455901
 21
791.0119645848021
 31
0.0
  0
LINE
  5
3332
102
{ACAD_REACTORS
330
38D5
102
}
330
2
100
AcDbEntity
  8
KIJUN
100
AcDbLine
 10
164.2643138455901
 20
791.0119645848021
 30
0.0
 11
174.6863148455672
 21
794.3720035847941
 31
0.0
  0
LINE
  5
3333
102
{ACAD_REACTORS
330
38D5
102
}
330
2
100
AcDbEntity
  8
KIJUN
100
AcDbLine
 10
174.6863148455672
 20
794.3720035847941
 30
0.0
 11
185.2072488456619
 21
798.2124835847993
 31
0.0
  0
LINE
  5
3334
102
{ACAD_REACTORS
330
38D5
102
}
330
2
100
AcDbEntity
  8
KIJUN
100
AcDbLine
 10
185.2072488456619
 20
798.2124835847993
 30
0.0
 11
193.2472378455863
 21
803.8530615847907
 31
0.0
  0
LINE
  5
3335
102
{ACAD_REACTORS
330
38D5
102
}
330
2
100
AcDbEntity
  8
KIJUN
100
AcDbLine
 10
193.2472378455863
 20
803.8530615847907
 30
0.0
 11
200.5922828456537
 21
808.6535345847574
 31
0.0
  0
LINE
  5
3336
102
{ACAD_REACTORS
330
38D5
102
}
330
2
100
AcDbEntity
  8
KIJUN
100
AcDbLine
 10
200.5922828456537
 20
808.6535345847574
 30
0.0
 11
206.1508188455996
 21
812.7340445847643
 31
0.0
  0
LINE
  5
3337
102
{ACAD_REACTORS
330
38D5
102
}
330
2
100
AcDbEntity
  8
KIJUN
100
AcDbLine
 10
206.1508188455996
 20
812.7340445847643
 30
0.0
 11
212.7012248456672
 21
817.2944875847884
 31
0.0
  0
LINE
  5
3338
102
{ACAD_REACTORS
330
38D5
102
}
330
2
100
AcDbEntity
  8
KIJUN
100
AcDbLine
 10
212.7012248456672
 20
817.2944875847884
 30
0.0
 11
219.1532058455564
 21
820.2944815848081
 31
0.0
  0
LINE
  5
3339
102
{ACAD_REACTORS
330
38D5
102
}
330
2
100
AcDbEntity
  8
KIJUN
100
AcDbLine
 10
219.1532058455564
 20
820.2944815848081
 30
0.0
 11
227.1928138455846
 21
822.9350655847881
 31
0.0
  0
LINE
  5
333A
102
{ACAD_REACTORS
330
38D5
102
}
330
2
100
AcDbEntity
  8
KIJUN
100
AcDbLine
 10
227.1928138455846
 20
822.9350655847881
 30
0.0
 11
235.8283058455568
 21
824.3749915847569
 31
0.0
  0
LINE
  5
333B
102
{ACAD_REACTORS
330
38D5
102
}
330
2
100
AcDbEntity
  8
KIJUN
100
AcDbLine
 10
235.8283058455568
 20
824.3749915847569
 30
0.0
 11
243.4707848455951
 21
825.214969584797
 31
0.0
  0
LINE
  5
333C
102
{ACAD_REACTORS
330
38D5
102
}
330
2
100
AcDbEntity
  8
KIJUN
100
AcDbLine
 10
243.4707848455951
 20
825.214969584797
 30
0.0
 11
246.2503068456576
 21
825.935567584805
 31
0.0
  0
LINE
  5
333D
102
{ACAD_REACTORS
330
38D5
102
}
330
2
100
AcDbEntity
  8
KIJUN
100
AcDbLine
 10
246.2503068456576
 20
825.935567584805
 30
0.0
 11
243.4707848455951
 21
828.5755165847936
 31
0.0
  0
LINE
  5
333E
102
{ACAD_REACTORS
330
38D5
102
}
330
2
100
AcDbEntity
  8
KIJUN
100
AcDbLine
 10
243.4707848455951
 20
828.5755165847936
 30
0.0
 11
236.7212428455682
 21
832.2959815847692
 31
0.0
  0
LINE
  5
333F
102
{ACAD_REACTORS
330
38D5
102
}
330
2
100
AcDbEntity
  8
KIJUN
100
AcDbLine
 10
236.7212428455682
 20
832.2959815847692
 30
0.0
 11
229.2772648456235
 21
834.5760125847723
 31
0.0
  0
LINE
  5
3340
102
{ACAD_REACTORS
330
38D5
102
}
330
2
100
AcDbEntity
  8
KIJUN
100
AcDbLine
 10
229.2772648456235
 20
834.5760125847723
 30
0.0
 11
221.6347858455849
 21
835.6560205847623
 31
0.0
  0
LINE
  5
3341
102
{ACAD_REACTORS
330
38D5
102
}
330
2
100
AcDbEntity
  8
KIJUN
100
AcDbLine
 10
221.6347858455849
 20
835.6560205847623
 30
0.0
 11
213.5947968456608
 21
835.6560205847623
 31
0.0
  0
LINE
  5
3342
102
{ACAD_REACTORS
330
38D5
102
}
330
2
100
AcDbEntity
  8
KIJUN
100
AcDbLine
 10
213.5947968456608
 20
835.6560205847623
 30
0.0
 11
208.334202845625
 21
834.9360575848027
 31
0.0
  0
LINE
  5
3343
102
{ACAD_REACTORS
330
38D5
102
}
330
2
100
AcDbEntity
  8
KIJUN
100
AcDbLine
 10
208.334202845625
 20
834.9360575848027
 30
0.0
 11
202.7757938456129
 21
834.2159675848002
 31
0.0
  0
LINE
  5
3344
102
{ACAD_REACTORS
330
38D5
102
}
330
2
100
AcDbEntity
  8
KIJUN
100
AcDbLine
 10
202.7757938456129
 20
834.2159675848002
 30
0.0
 11
198.8057738456414
 21
832.6560265848007
 31
0.0
  0
LINE
  5
3345
102
{ACAD_REACTORS
330
38D5
102
}
330
2
100
AcDbEntity
  8
KIJUN
100
AcDbLine
 10
198.8057738456414
 20
832.6560265848007
 30
0.0
 11
195.0337468455984
 21
830.3754875848021
 31
0.0
  0
LINE
  5
3346
102
{ACAD_REACTORS
330
38D5
102
}
330
2
100
AcDbEntity
  8
KIJUN
100
AcDbLine
 10
195.0337468455984
 20
830.3754875848021
 30
0.0
 11
189.8727208456553
 21
827.7355385848126
 31
0.0
  0
LINE
  5
3347
102
{ACAD_REACTORS
330
38D5
102
}
330
2
100
AcDbEntity
  8
KIJUN
100
AcDbLine
 10
189.8727208456553
 20
827.7355385848126
 30
0.0
 11
184.6117458456215
 21
823.6550285847972
 31
0.0
  0
LINE
  5
3348
102
{ACAD_REACTORS
330
38D5
102
}
330
2
100
AcDbEntity
  8
KIJUN
100
AcDbLine
 10
184.6117458456215
 20
823.6550285847972
 30
0.0
 11
179.9467818456764
 21
819.21447358476
 31
0.0
  0
LINE
  5
3349
102
{ACAD_REACTORS
330
38D5
102
}
330
2
100
AcDbEntity
  8
KIJUN
100
AcDbLine
 10
179.9467818456764
 20
819.21447358476
 30
0.0
 11
174.0908118456432
 21
814.2939855847712
 31
0.0
  0
LINE
  5
334A
102
{ACAD_REACTORS
330
38D5
102
}
330
2
100
AcDbEntity
  8
KIJUN
100
AcDbLine
 10
174.0908118456432
 20
814.2939855847712
 30
0.0
 11
166.6467068456554
 21
809.8535575847767
 31
0.0
  0
LINE
  5
334B
102
{ACAD_REACTORS
330
38D5
102
}
330
2
100
AcDbEntity
  8
KIJUN
100
AcDbLine
 10
166.6467068456554
 20
809.8535575847767
 30
0.0
 11
158.3092838456364
 21
806.8535635847577
 31
0.0
  0
LINE
  5
334C
102
{ACAD_REACTORS
330
38D5
102
}
330
2
100
AcDbEntity
  8
KIJUN
100
AcDbLine
 10
158.3092838456364
 20
806.8535635847577
 30
0.0
 11
150.3687358456523
 21
804.9330695847807
 31
0.0
  0
LINE
  5
334D
102
{ACAD_REACTORS
330
38D5
102
}
330
2
100
AcDbEntity
  8
KIJUN
100
AcDbLine
 10
150.3687358456523
 20
804.9330695847807
 30
0.0
 11
142.6268158456664
 21
803.373001584789
 31
0.0
  0
LINE
  5
334E
102
{ACAD_REACTORS
330
38D5
102
}
330
2
100
AcDbEntity
  8
KIJUN
100
AcDbLine
 10
142.6268158456664
 20
803.373001584789
 30
0.0
 11
131.5097438456728
 21
802.6530385847786
 31
0.0
  0
LINE
  5
334F
102
{ACAD_REACTORS
330
38D5
102
}
330
2
100
AcDbEntity
  8
KIJUN
100
AcDbLine
 10
131.5097438456728
 20
802.6530385847786
 30
0.0
 11
122.2792568456066
 21
802.6530385847786
 31
0.0
  0
LINE
  5
3350
102
{ACAD_REACTORS
330
38D5
102
}
330
2
100
AcDbEntity
  8
KIJUN
100
AcDbLine
 10
122.2792568456066
 20
802.6530385847786
 30
0.0
 11
112.0557568455992
 21
802.6530385847786
 31
0.0
  0
LINE
  5
3351
102
{ACAD_REACTORS
330
38D5
102
}
330
2
100
AcDbEntity
  8
KIJUN
100
AcDbLine
 10
112.0557568455992
 20
802.6530385847786
 30
0.0
 11
99.45024484565557
 21
803.8530615847907
 31
0.0
  0
LINE
  5
3352
102
{ACAD_REACTORS
330
38D5
102
}
330
2
100
AcDbEntity
  8
KIJUN
100
AcDbLine
 10
99.45024484565557
 20
803.8530615847907
 30
0.0
 11
87.73779684565715
 21
804.2129795847854
 31
0.0
  0
LINE
  5
3353
102
{ACAD_REACTORS
330
38D5
102
}
330
2
100
AcDbEntity
  8
KIJUN
100
AcDbLine
 10
87.73779684565715
 20
804.2129795847854
 30
0.0
 11
78.40774184561496
 21
804.9330695847807
 31
0.0
  0
LINE
  5
3354
102
{ACAD_REACTORS
330
38D5
102
}
330
2
100
AcDbEntity
  8
KIJUN
100
AcDbLine
 10
78.40774184561496
 20
804.9330695847807
 30
0.0
 11
66.10029884563164
 21
806.3735035847553
 31
0.0
  0
LINE
  5
3355
102
{ACAD_REACTORS
330
38D5
102
}
330
2
100
AcDbEntity
  8
KIJUN
100
AcDbLine
 10
66.10029884563164
 20
806.3735035847553
 30
0.0
 11
58.95375484565057
 21
806.8535635847577
 31
0.0
  0
LINE
  5
3356
102
{ACAD_REACTORS
330
38D5
102
}
330
2
100
AcDbEntity
  8
KIJUN
100
AcDbLine
 10
58.95375484565057
 20
806.8535635847577
 30
0.0
 11
53.7922208456589
 21
807.5735265847674
 31
0.0
  0
LINE
  5
3357
102
{ACAD_REACTORS
330
38D5
102
}
330
2
100
AcDbEntity
  8
KIJUN
100
AcDbLine
 10
53.7922208456589
 20
807.5735265847674
 30
0.0
 11
49.12725684559018
 21
807.5735265847674
 31
0.0
  0
LINE
  5
3358
102
{ACAD_REACTORS
330
38D5
102
}
330
2
100
AcDbEntity
  8
KIJUN
100
AcDbLine
 10
48.1112568456233
 20
752.9635265847896
 30
0.0
 11
44.73673984558309
 21
754.5234675847955
 31
0.0
  0
LINE
  5
3359
102
{ACAD_REACTORS
330
38D5
102
}
330
2
100
AcDbEntity
  8
KIJUN
100
AcDbLine
 10
44.73673984558309
 20
754.5234675847955
 30
0.0
 11
43.74372684564924
 21
757.8840145847848
 31
0.0
  0
LINE
  5
335A
102
{ACAD_REACTORS
330
38D5
102
}
330
2
100
AcDbEntity
  8
KIJUN
100
AcDbLine
 10
43.74372684564924
 20
757.8840145847848
 30
0.0
 11
43.44629284556186
 21
761.6044795847614
 31
0.0
  0
LINE
  5
335B
102
{ACAD_REACTORS
330
38D5
102
}
330
2
100
AcDbEntity
  8
KIJUN
100
AcDbLine
 10
43.44629284556186
 20
761.6044795847614
 30
0.0
 11
43.74372684564924
 21
764.9645185847535
 31
0.0
  0
LINE
  5
335C
102
{ACAD_REACTORS
330
38D5
102
}
330
2
100
AcDbEntity
  8
KIJUN
100
AcDbLine
 10
43.74372684564924
 20
764.9645185847535
 30
0.0
 11
45.62980384563752
 21
767.9650205847788
 31
0.0
  0
LINE
  5
335D
102
{ACAD_REACTORS
330
38D5
102
}
330
2
100
AcDbEntity
  8
KIJUN
100
AcDbLine
 10
45.62980384563752
 20
767.9650205847788
 30
0.0
 11
49.60020484561437
 21
769.8850065848087
 31
0.0
  0
LINE
  5
335E
102
{ACAD_REACTORS
330
38D5
102
}
330
2
100
AcDbEntity
  8
KIJUN
100
AcDbLine
 10
49.60020484561437
 20
769.8850065848087
 30
0.0
 11
57.93775484555999
 21
770.6049695847673
 31
0.0
  0
LINE
  5
335F
102
{ACAD_REACTORS
330
38D5
102
}
330
2
100
AcDbEntity
  8
KIJUN
100
AcDbLine
 10
57.93775484555999
 20
770.6049695847673
 30
0.0
 11
66.96974084565636
 21
770.9650145847977
 31
0.0
  0
LINE
  5
3360
102
{ACAD_REACTORS
330
38D5
102
}
330
2
100
AcDbEntity
  8
KIJUN
100
AcDbLine
 10
66.96974084565636
 20
770.9650145847977
 30
0.0
 11
76.79623884559305
 21
772.1655455848072
 31
0.0
  0
LINE
  5
3361
102
{ACAD_REACTORS
330
38D5
102
}
330
2
100
AcDbEntity
  8
KIJUN
100
AcDbLine
 10
76.79623884559305
 20
772.1655455848072
 30
0.0
 11
90.09669484561937
 21
772.5254635847946
 31
0.0
  0
LINE
  5
3362
102
{ACAD_REACTORS
330
38D5
102
}
330
2
100
AcDbEntity
  8
KIJUN
100
AcDbLine
 10
90.09669484561937
 20
772.5254635847946
 30
0.0
 11
101.8087618456124
 21
772.8855085847667
 31
0.0
  0
LINE
  5
3363
102
{ACAD_REACTORS
330
38D5
102
}
330
2
100
AcDbEntity
  8
KIJUN
100
AcDbLine
 10
101.8087618456124
 20
772.8855085847667
 30
0.0
 11
116.5982928455637
 21
772.8855085847667
 31
0.0
  0
LINE
  5
3364
102
{ACAD_REACTORS
330
38D5
102
}
330
2
100
AcDbEntity
  8
KIJUN
100
AcDbLine
 10
116.5982928455637
 20
772.8855085847667
 30
0.0
 11
128.9057358456634
 21
772.8855085847667
 31
0.0
  0
LINE
  5
3365
102
{ACAD_REACTORS
330
38D5
102
}
330
2
100
AcDbEntity
  8
KIJUN
100
AcDbLine
 10
128.9057358456634
 20
772.8855085847667
 30
0.0
 11
141.3127468456227
 21
772.5254635847946
 31
0.0
  0
LINE
  5
3366
102
{ACAD_REACTORS
330
38D5
102
}
330
2
100
AcDbEntity
  8
KIJUN
100
AcDbLine
 10
141.3127468456227
 20
772.5254635847946
 30
0.0
 11
151.4368058455734
 21
771.3255675847672
 31
0.0
  0
LINE
  5
3367
102
{ACAD_REACTORS
330
38D5
102
}
330
2
100
AcDbEntity
  8
KIJUN
100
AcDbLine
 10
151.4368058455734
 20
771.3255675847672
 30
0.0
 11
163.2483138456159
 21
769.5250885847695
 31
0.0
  0
LINE
  5
3368
102
{ACAD_REACTORS
330
38D5
102
}
330
2
100
AcDbEntity
  8
KIJUN
100
AcDbLine
 10
163.2483138456159
 20
769.5250885847695
 30
0.0
 11
173.6703148455931
 21
766.1650495847704
 31
0.0
  0
LINE
  5
3369
102
{ACAD_REACTORS
330
38D5
102
}
330
2
100
AcDbEntity
  8
KIJUN
100
AcDbLine
 10
173.6703148455931
 20
766.1650495847704
 30
0.0
 11
184.1912488455714
 21
762.3245695847639
 31
0.0
  0
LINE
  5
336A
102
{ACAD_REACTORS
330
38D5
102
}
330
2
100
AcDbEntity
  8
KIJUN
100
AcDbLine
 10
184.1912488455714
 20
762.3245695847639
 30
0.0
 11
192.2312378456122
 21
756.6839915847727
 31
0.0
  0
LINE
  5
336B
102
{ACAD_REACTORS
330
38D5
102
}
330
2
100
AcDbEntity
  8
KIJUN
100
AcDbLine
 10
192.2312378456122
 20
756.6839915847727
 30
0.0
 11
199.5762828455631
 21
751.8835185848061
 31
0.0
  0
LINE
  5
336C
102
{ACAD_REACTORS
330
38D5
102
}
330
2
100
AcDbEntity
  8
KIJUN
100
AcDbLine
 10
199.5762828455631
 20
751.8835185848061
 30
0.0
 11
205.1348188456254
 21
747.8030085847989
 31
0.0
  0
LINE
  5
336D
102
{ACAD_REACTORS
330
38D5
102
}
330
2
100
AcDbEntity
  8
KIJUN
100
AcDbLine
 10
205.1348188456254
 20
747.8030085847989
 30
0.0
 11
211.6852248455693
 21
743.2425655847751
 31
0.0
  0
LINE
  5
336E
102
{ACAD_REACTORS
330
38D5
102
}
330
2
100
AcDbEntity
  8
KIJUN
100
AcDbLine
 10
211.6852248455693
 20
743.2425655847751
 30
0.0
 11
218.1372058455895
 21
740.2425715847552
 31
0.0
  0
LINE
  5
336F
102
{ACAD_REACTORS
330
38D5
102
}
330
2
100
AcDbEntity
  8
KIJUN
100
AcDbLine
 10
218.1372058455895
 20
740.2425715847552
 30
0.0
 11
226.1768138456105
 21
737.6019875847837
 31
0.0
  0
LINE
  5
3370
102
{ACAD_REACTORS
330
38D5
102
}
330
2
100
AcDbEntity
  8
KIJUN
100
AcDbLine
 10
226.1768138456105
 20
737.6019875847837
 30
0.0
 11
234.8123058455826
 21
736.1620615848064
 31
0.0
  0
LINE
  5
3371
102
{ACAD_REACTORS
330
38D5
102
}
330
2
100
AcDbEntity
  8
KIJUN
100
AcDbLine
 10
234.8123058455826
 20
736.1620615848064
 30
0.0
 11
242.4547848456209
 21
735.3220835847592
 31
0.0
  0
LINE
  5
3372
102
{ACAD_REACTORS
330
38D5
102
}
330
2
100
AcDbEntity
  8
KIJUN
100
AcDbLine
 10
242.4547848456209
 20
735.3220835847592
 30
0.0
 11
245.2343068455671
 21
734.6014855847665
 31
0.0
  0
LINE
  5
3373
102
{ACAD_REACTORS
330
38D5
102
}
330
2
100
AcDbEntity
  8
KIJUN
100
AcDbLine
 10
245.2343068455671
 20
734.6014855847665
 30
0.0
 11
242.4547848456209
 21
731.9615365847773
 31
0.0
  0
LINE
  5
3374
102
{ACAD_REACTORS
330
38D5
102
}
330
2
100
AcDbEntity
  8
KIJUN
100
AcDbLine
 10
242.4547848456209
 20
731.9615365847773
 30
0.0
 11
235.705242845594
 21
728.2410715847941
 31
0.0
  0
LINE
  5
3375
102
{ACAD_REACTORS
330
38D5
102
}
330
2
100
AcDbEntity
  8
KIJUN
100
AcDbLine
 10
235.705242845594
 20
728.2410715847941
 30
0.0
 11
228.2612648456493
 21
725.9610405847911
 31
0.0
  0
LINE
  5
3376
102
{ACAD_REACTORS
330
38D5
102
}
330
2
100
AcDbEntity
  8
KIJUN
100
AcDbLine
 10
228.2612648456493
 20
725.9610405847911
 30
0.0
 11
220.618785845611
 21
724.8810325848084
 31
0.0
  0
LINE
  5
3377
102
{ACAD_REACTORS
330
38D5
102
}
330
2
100
AcDbEntity
  8
KIJUN
100
AcDbLine
 10
220.618785845611
 20
724.8810325848084
 30
0.0
 11
212.5787968455629
 21
724.8810325848084
 31
0.0
  0
LINE
  5
3378
102
{ACAD_REACTORS
330
38D5
102
}
330
2
100
AcDbEntity
  8
KIJUN
100
AcDbLine
 10
212.5787968455629
 20
724.8810325848084
 30
0.0
 11
207.3182028456508
 21
725.6009955847606
 31
0.0
  0
LINE
  5
3379
102
{ACAD_REACTORS
330
38D5
102
}
330
2
100
AcDbEntity
  8
KIJUN
100
AcDbLine
 10
207.3182028456508
 20
725.6009955847606
 30
0.0
 11
201.7597938456388
 21
726.3210855847632
 31
0.0
  0
LINE
  5
337A
102
{ACAD_REACTORS
330
38D5
102
}
330
2
100
AcDbEntity
  8
KIJUN
100
AcDbLine
 10
201.7597938456388
 20
726.3210855847632
 30
0.0
 11
197.7897738456672
 21
727.8810265847627
 31
0.0
  0
LINE
  5
337B
102
{ACAD_REACTORS
330
38D5
102
}
330
2
100
AcDbEntity
  8
KIJUN
100
AcDbLine
 10
197.7897738456672
 20
727.8810265847627
 30
0.0
 11
194.0177468456172
 21
730.1615655847695
 31
0.0
  0
LINE
  5
337C
102
{ACAD_REACTORS
330
38D5
102
}
330
2
100
AcDbEntity
  8
KIJUN
100
AcDbLine
 10
194.0177468456172
 20
730.1615655847695
 30
0.0
 11
188.8567208455647
 21
732.8015145847597
 31
0.0
  0
LINE
  5
337D
102
{ACAD_REACTORS
330
38D5
102
}
330
2
100
AcDbEntity
  8
KIJUN
100
AcDbLine
 10
188.8567208455647
 20
732.8015145847597
 30
0.0
 11
183.59574584564
 21
736.8820245847659
 31
0.0
  0
LINE
  5
337E
102
{ACAD_REACTORS
330
38D5
102
}
330
2
100
AcDbEntity
  8
KIJUN
100
AcDbLine
 10
183.59574584564
 20
736.8820245847659
 30
0.0
 11
178.9307818455859
 21
741.3225795848033
 31
0.0
  0
LINE
  5
337F
102
{ACAD_REACTORS
330
38D5
102
}
330
2
100
AcDbEntity
  8
KIJUN
100
AcDbLine
 10
178.9307818455859
 20
741.3225795848033
 30
0.0
 11
173.074811845669
 21
746.2430675847993
 31
0.0
  0
LINE
  5
3380
102
{ACAD_REACTORS
330
38D5
102
}
330
2
100
AcDbEntity
  8
KIJUN
100
AcDbLine
 10
173.074811845669
 20
746.2430675847993
 30
0.0
 11
165.6307068455576
 21
750.6834955847867
 31
0.0
  0
LINE
  5
3381
102
{ACAD_REACTORS
330
38D5
102
}
330
2
100
AcDbEntity
  8
KIJUN
100
AcDbLine
 10
165.6307068455576
 20
750.6834955847867
 30
0.0
 11
157.2932838456622
 21
753.6834895848063
 31
0.0
  0
LINE
  5
3382
102
{ACAD_REACTORS
330
38D5
102
}
330
2
100
AcDbEntity
  8
KIJUN
100
AcDbLine
 10
157.2932838456622
 20
753.6834895848063
 30
0.0
 11
149.3527358456636
 21
755.6039835847827
 31
0.0
  0
LINE
  5
3383
102
{ACAD_REACTORS
330
38D5
102
}
330
2
100
AcDbEntity
  8
KIJUN
100
AcDbLine
 10
149.3527358456636
 20
755.6039835847827
 30
0.0
 11
141.6108158455758
 21
757.164051584767
 31
0.0
  0
LINE
  5
3384
102
{ACAD_REACTORS
330
38D5
102
}
330
2
100
AcDbEntity
  8
KIJUN
100
AcDbLine
 10
141.6108158455758
 20
757.164051584767
 30
0.0
 11
130.4937438455822
 21
757.8840145847848
 31
0.0
  0
LINE
  5
3385
102
{ACAD_REACTORS
330
38D5
102
}
330
2
100
AcDbEntity
  8
KIJUN
100
AcDbLine
 10
130.4937438455822
 20
757.8840145847848
 30
0.0
 11
121.2632568456179
 21
757.8840145847848
 31
0.0
  0
LINE
  5
3386
102
{ACAD_REACTORS
330
38D5
102
}
330
2
100
AcDbEntity
  8
KIJUN
100
AcDbLine
 10
121.2632568456179
 20
757.8840145847848
 30
0.0
 11
111.0397568456178
 21
757.8840145847848
 31
0.0
  0
LINE
  5
3387
102
{ACAD_REACTORS
330
38D5
102
}
330
2
100
AcDbEntity
  8
KIJUN
100
AcDbLine
 10
111.0397568456178
 20
757.8840145847848
 30
0.0
 11
98.434244845565
 21
756.6839915847727
 31
0.0
  0
LINE
  5
3388
102
{ACAD_REACTORS
330
38D5
102
}
330
2
100
AcDbEntity
  8
KIJUN
100
AcDbLine
 10
98.434244845565
 20
756.6839915847727
 30
0.0
 11
86.72179684556658
 21
756.3240735847853
 31
0.0
  0
LINE
  5
3389
102
{ACAD_REACTORS
330
38D5
102
}
330
2
100
AcDbEntity
  8
KIJUN
100
AcDbLine
 10
86.72179684556658
 20
756.3240735847853
 30
0.0
 11
77.39174184562625
 21
755.6039835847827
 31
0.0
  0
LINE
  5
338A
102
{ACAD_REACTORS
330
38D5
102
}
330
2
100
AcDbEntity
  8
KIJUN
100
AcDbLine
 10
77.39174184562625
 20
755.6039835847827
 30
0.0
 11
65.08429884565021
 21
754.163549584808
 31
0.0
  0
LINE
  5
338B
102
{ACAD_REACTORS
330
38D5
102
}
330
2
100
AcDbEntity
  8
KIJUN
100
AcDbLine
 10
65.08429884565021
 20
754.163549584808
 30
0.0
 11
57.93775484555999
 21
753.6834895848063
 31
0.0
  0
LINE
  5
338C
102
{ACAD_REACTORS
330
38D5
102
}
330
2
100
AcDbEntity
  8
KIJUN
100
AcDbLine
 10
57.93775484555999
 20
753.6834895848063
 30
0.0
 11
52.77622084556833
 21
752.9635265847896
 31
0.0
  0
LINE
  5
338D
102
{ACAD_REACTORS
330
38D5
102
}
330
2
100
AcDbEntity
  8
KIJUN
100
AcDbLine
 10
52.77622084556833
 20
752.9635265847896
 30
0.0
 11
48.1112568456233
 21
752.9635265847896
 31
0.0
  0
LINE
  5
338E
102
{ACAD_REACTORS
330
38D5
102
}
330
2
100
AcDbEntity
  8
KIJUN
100
AcDbLine
 10
142.2182568456196
 20
780.2685265847598
 30
0.0
 11
160.4812378456122
 21
778.8284735847978
 31
0.0
  0
LINE
  5
338F
102
{ACAD_REACTORS
330
38D5
102
}
330
2
100
AcDbEntity
  8
KIJUN
100
AcDbLine
 10
160.4812378456122
 20
778.8284735847978
 30
0.0
 11
169.7122328456175
 21
777.2680245847945
 31
0.0
  0
LINE
  5
3390
102
{ACAD_REACTORS
330
38D5
102
}
330
2
100
AcDbEntity
  8
KIJUN
100
AcDbLine
 10
169.7122328456175
 20
777.2680245847945
 30
0.0
 11
179.5387308455615
 21
775.4680535847859
 31
0.0
  0
LINE
  5
3391
102
{ACAD_REACTORS
330
38D5
102
}
330
2
100
AcDbEntity
  8
KIJUN
100
AcDbLine
 10
179.5387308455615
 20
775.4680535847859
 30
0.0
 11
191.6477998456107
 21
772.4680595847662
 31
0.0
  0
LINE
  5
3392
102
{ACAD_REACTORS
330
38D5
102
}
330
2
100
AcDbEntity
  8
KIJUN
100
AcDbLine
 10
191.6477998456107
 20
772.4680595847662
 30
0.0
 11
200.8787948456161
 21
768.2675345847878
 31
0.0
  0
LINE
  5
3393
102
{ACAD_REACTORS
330
38D5
102
}
330
2
100
AcDbEntity
  8
KIJUN
100
AcDbLine
 10
200.8787948456161
 20
768.2675345847878
 30
0.0
 11
211.3007958456078
 21
762.6270835847812
 31
0.0
  0
LINE
  5
3394
102
{ACAD_REACTORS
330
38D5
102
}
330
2
100
AcDbEntity
  8
KIJUN
100
AcDbLine
 10
211.3007958456078
 20
762.6270835847812
 30
0.0
 11
218.7447738456617
 21
758.1865285848021
 31
0.0
  0
LINE
  5
3395
102
{ACAD_REACTORS
330
38D5
102
}
330
2
100
AcDbEntity
  8
KIJUN
100
AcDbLine
 10
218.7447738456617
 20
758.1865285848021
 30
0.0
 11
227.0821968455643
 21
753.626085584778
 31
0.0
  0
LINE
  5
3396
102
{ACAD_REACTORS
330
38D5
102
}
330
2
100
AcDbEntity
  8
KIJUN
100
AcDbLine
 10
227.0821968455643
 20
753.626085584778
 30
0.0
 11
237.9011998456121
 21
749.9054935847584
 31
0.0
  0
LINE
  5
3397
102
{ACAD_REACTORS
330
38D5
102
}
330
2
100
AcDbEntity
  8
KIJUN
100
AcDbLine
 10
237.9011998456121
 20
749.9054935847584
 30
0.0
 11
249.613266845598
 21
746.9054995847969
 31
0.0
  0
LINE
  5
3398
102
{ACAD_REACTORS
330
38D5
102
}
330
2
100
AcDbEntity
  8
KIJUN
100
AcDbLine
 10
249.613266845598
 20
746.9054995847969
 30
0.0
 11
260.730211845665
 21
745.1050205847917
 31
0.0
  0
LINE
  5
3399
102
{ACAD_REACTORS
330
38D5
102
}
330
2
100
AcDbEntity
  8
KIJUN
100
AcDbLine
 10
260.730211845665
 20
745.1050205847917
 30
0.0
 11
267.4797538455828
 21
745.1050205847917
 31
0.0
  0
LINE
  5
339A
102
{ACAD_REACTORS
330
38D5
102
}
330
2
100
AcDbEntity
  8
KIJUN
100
AcDbLine
 10
267.4797538455828
 20
745.1050205847917
 30
0.0
 11
264.9983008455897
 21
741.2650485847904
 31
0.0
  0
LINE
  5
339B
102
{ACAD_REACTORS
330
38D5
102
}
330
2
100
AcDbEntity
  8
KIJUN
100
AcDbLine
 10
264.9983008455897
 20
741.2650485847904
 30
0.0
 11
260.4322698456385
 21
737.5445835847553
 31
0.0
  0
LINE
  5
339C
102
{ACAD_REACTORS
330
38D5
102
}
330
2
100
AcDbEntity
  8
KIJUN
100
AcDbLine
 10
260.4322698456385
 20
737.5445835847553
 30
0.0
 11
255.4697448455704
 21
735.2640445848069
 31
0.0
  0
LINE
  5
339D
102
{ACAD_REACTORS
330
38D5
102
}
330
2
100
AcDbEntity
  8
KIJUN
100
AcDbLine
 10
255.4697448455704
 20
735.2640445848069
 30
0.0
 11
250.8047808456181
 21
734.5440815847892
 31
0.0
  0
LINE
  5
339E
102
{ACAD_REACTORS
330
38D5
102
}
330
2
100
AcDbEntity
  8
KIJUN
100
AcDbLine
 10
250.8047808456181
 20
734.5440815847892
 30
0.0
 11
244.9483028456457
 21
734.5440815847892
 31
0.0
  0
LINE
  5
339F
102
{ACAD_REACTORS
330
38D5
102
}
330
2
100
AcDbEntity
  8
KIJUN
100
AcDbLine
 10
244.9483028456457
 20
734.5440815847892
 30
0.0
 11
238.7947718456057
 21
735.2640445848069
 31
0.0
  0
LINE
  5
33A0
102
{ACAD_REACTORS
330
38D5
102
}
330
2
100
AcDbEntity
  8
KIJUN
100
AcDbLine
 10
238.7947718456057
 20
735.2640445848069
 30
0.0
 11
232.9382938456333
 21
736.1045305847932
 31
0.0
  0
LINE
  5
33A1
102
{ACAD_REACTORS
330
38D5
102
}
330
2
100
AcDbEntity
  8
KIJUN
100
AcDbLine
 10
232.9382938456333
 20
736.1045305847932
 30
0.0
 11
226.7847628455934
 21
737.5445835847553
 31
0.0
  0
LINE
  5
33A2
102
{ACAD_REACTORS
330
38D5
102
}
330
2
100
AcDbEntity
  8
KIJUN
100
AcDbLine
 10
226.7847628455934
 20
737.5445835847553
 30
0.0
 11
220.6307238456143
 21
739.4645695847852
 31
0.0
  0
LINE
  5
33A3
102
{ACAD_REACTORS
330
38D5
102
}
330
2
100
AcDbEntity
  8
KIJUN
100
AcDbLine
 10
220.6307238456143
 20
739.4645695847852
 30
0.0
 11
214.7747538455883
 21
741.7449815847998
 31
0.0
  0
LINE
  5
33A4
102
{ACAD_REACTORS
330
38D5
102
}
330
2
100
AcDbEntity
  8
KIJUN
100
AcDbLine
 10
214.7747538455883
 20
741.7449815847998
 30
0.0
 11
208.2237128456477
 21
745.4650655847721
 31
0.0
  0
LINE
  5
33A5
102
{ACAD_REACTORS
330
38D5
102
}
330
2
100
AcDbEntity
  8
KIJUN
100
AcDbLine
 10
208.2237128456477
 20
745.4650655847721
 30
0.0
 11
202.0698008455952
 21
749.1855305847987
 31
0.0
  0
LINE
  5
33A6
102
{ACAD_REACTORS
330
38D5
102
}
330
2
100
AcDbEntity
  8
KIJUN
100
AcDbLine
 10
202.0698008455952
 20
749.1855305847987
 30
0.0
 11
196.213703845628
 21
753.2660405848059
 31
0.0
  0
LINE
  5
33A7
102
{ACAD_REACTORS
330
38D5
102
}
330
2
100
AcDbEntity
  8
KIJUN
100
AcDbLine
 10
196.213703845628
 20
753.2660405848059
 30
0.0
 11
190.655294845616
 21
757.4665655847833
 31
0.0
  0
LINE
  5
33A8
102
{ACAD_REACTORS
330
38D5
102
}
330
2
100
AcDbEntity
  8
KIJUN
100
AcDbLine
 10
190.655294845616
 20
757.4665655847833
 30
0.0
 11
183.6083188456255
 21
761.9064855847812
 31
0.0
  0
LINE
  5
33A9
102
{ACAD_REACTORS
330
38D5
102
}
330
2
100
AcDbEntity
  8
KIJUN
100
AcDbLine
 10
183.6083188456255
 20
761.9064855847812
 30
0.0
 11
177.4542798456391
 21
764.9069875847985
 31
0.0
  0
LINE
  5
33AA
102
{ACAD_REACTORS
330
38D5
102
}
330
2
100
AcDbEntity
  8
KIJUN
100
AcDbLine
 10
177.4542798456391
 20
764.9069875847985
 30
0.0
 11
170.9032388455966
 21
767.1870185848088
 31
0.0
  0
LINE
  5
33AB
102
{ACAD_REACTORS
330
38D5
102
}
330
2
100
AcDbEntity
  8
KIJUN
100
AcDbLine
 10
170.9032388455966
 20
767.1870185848088
 30
0.0
 11
160.4812378456122
 21
769.8274755847947
 31
0.0
  0
LINE
  5
33AC
102
{ACAD_REACTORS
330
38D5
102
}
330
2
100
AcDbEntity
  8
KIJUN
100
AcDbLine
 10
160.4812378456122
 20
769.8274755847947
 30
0.0
 11
149.9603038456339
 21
771.6275735847869
 31
0.0
  0
LINE
  5
33AD
102
{ACAD_REACTORS
330
38D5
102
}
330
2
100
AcDbEntity
  8
KIJUN
100
AcDbLine
 10
149.9603038456339
 20
771.6275735847869
 30
0.0
 11
141.0272508456551
 21
772.4680595847662
 31
0.0
  0
LINE
  5
33AE
102
{ACAD_REACTORS
330
38D5
102
}
330
2
100
AcDbEntity
  8
KIJUN
100
AcDbLine
 10
141.0272508456551
 20
772.4680595847662
 30
0.0
 11
134.1782678455715
 21
772.8279775847536
 31
0.0
  0
LINE
  5
33AF
102
{ACAD_REACTORS
330
38D5
102
}
330
2
100
AcDbEntity
  8
KIJUN
100
AcDbLine
 10
134.1782678455715
 20
772.8279775847536
 30
0.0
 11
127.7267948456215
 21
772.8279775847536
 31
0.0
  0
LINE
  5
33B0
102
{ACAD_REACTORS
330
38D5
102
}
330
2
100
AcDbEntity
  8
KIJUN
100
AcDbLine
 10
127.7267948456215
 20
772.8279775847536
 30
0.0
 11
123.0617038456335
 21
772.8279775847536
 31
0.0
  0
LINE
  5
33B1
102
{ACAD_REACTORS
330
38D5
102
}
330
2
100
AcDbEntity
  8
KIJUN
100
AcDbLine
 10
123.0617038456335
 20
772.8279775847536
 30
0.0
 11
116.6102308455597
 21
772.8279775847536
 31
0.0
  0
LINE
  5
33B2
102
{ACAD_REACTORS
330
38D5
102
}
330
2
100
AcDbEntity
  8
KIJUN
100
AcDbLine
 10
116.6102308455597
 20
772.8279775847536
 30
0.0
 11
99.33975484555459
 21
772.8279775847536
 31
0.0
  0
LINE
  5
33B3
102
{ACAD_REACTORS
330
38D5
102
}
330
2
100
AcDbEntity
  8
KIJUN
100
AcDbLine
 10
99.33975484555459
 20
772.8279775847536
 30
0.0
 11
87.92524884559725
 21
772.1075065847967
 31
0.0
  0
LINE
  5
33B4
102
{ACAD_REACTORS
330
38D5
102
}
330
2
100
AcDbEntity
  8
KIJUN
100
AcDbLine
 10
87.92524884559725
 20
772.1075065847967
 30
0.0
 11
76.21280084559157
 21
772.1075065847967
 31
0.0
  0
LINE
  5
33B5
102
{ACAD_REACTORS
330
38D5
102
}
330
2
100
AcDbEntity
  8
KIJUN
100
AcDbLine
 10
76.21280084559157
 20
772.1075065847967
 30
0.0
 11
67.27974784561275
 21
771.2675285847567
 31
0.0
  0
LINE
  5
33B6
102
{ACAD_REACTORS
330
38D5
102
}
330
2
100
AcDbEntity
  8
KIJUN
100
AcDbLine
 10
67.27974784561275
 20
771.2675285847567
 30
0.0
 11
59.53770084559119
 21
770.9074835847773
 31
0.0
  0
LINE
  5
33B7
102
{ACAD_REACTORS
330
38D5
102
}
330
2
100
AcDbEntity
  8
KIJUN
100
AcDbLine
 10
59.53770084559119
 20
770.9074835847773
 30
0.0
 11
50.90271684556546
 21
770.1875205847668
 31
0.0
  0
LINE
  5
33B8
102
{ACAD_REACTORS
330
38D5
102
}
330
2
100
AcDbEntity
  8
KIJUN
100
AcDbLine
 10
50.90271684556546
 20
770.1875205847668
 30
0.0
 11
46.83325584566091
 21
770.1875205847668
 31
0.0
  0
LINE
  5
33B9
102
{ACAD_REACTORS
330
38D5
102
}
330
2
100
AcDbEntity
  8
KIJUN
100
AcDbLine
 10
46.83325584566091
 20
770.1875205847668
 30
0.0
 11
44.45073584566171
 21
772.4680595847662
 31
0.0
  0
LINE
  5
33BA
102
{ACAD_REACTORS
330
38D5
102
}
330
2
100
AcDbEntity
  8
KIJUN
100
AcDbLine
 10
44.45073584566171
 20
772.4680595847662
 30
0.0
 11
43.16079684558689
 21
775.8279715847733
 31
0.0
  0
LINE
  5
33BB
102
{ACAD_REACTORS
330
38D5
102
}
330
2
100
AcDbEntity
  8
KIJUN
100
AcDbLine
 10
43.16079684558689
 20
775.8279715847733
 30
0.0
 11
42.56529384566284
 21
780.3238350847705
 31
0.0
  0
LINE
  5
33BC
102
{ACAD_REACTORS
330
38D5
102
}
330
2
100
AcDbEntity
  8
KIJUN
100
AcDbLine
 10
42.56529384566284
 20
780.3238350847705
 30
0.0
 11
43.45823084555786
 21
784.4690515847892
 31
0.0
  0
LINE
  5
33BD
102
{ACAD_REACTORS
330
38D5
102
}
330
2
100
AcDbEntity
  8
KIJUN
100
AcDbLine
 10
43.45823084555786
 20
784.4690515847892
 30
0.0
 11
45.6417418456408
 21
787.8289635847963
 31
0.0
  0
LINE
  5
33BE
102
{ACAD_REACTORS
330
38D5
102
}
330
2
100
AcDbEntity
  8
KIJUN
100
AcDbLine
 10
45.6417418456408
 20
787.8289635847963
 30
0.0
 11
49.61226984565337
 21
790.4695475847743
 31
0.0
  0
LINE
  5
33BF
102
{ACAD_REACTORS
330
38D5
102
}
330
2
100
AcDbEntity
  8
KIJUN
100
AcDbLine
 10
49.61226984565337
 20
790.4695475847743
 30
0.0
 11
60.43127284558477
 21
790.8294655847553
 31
0.0
  0
LINE
  5
33C0
102
{ACAD_REACTORS
330
38D5
102
}
330
2
100
AcDbEntity
  8
KIJUN
100
AcDbLine
 10
60.43127284558477
 20
790.8294655847553
 30
0.0
 11
74.92273484558291
 21
791.1895105847856
 31
0.0
  0
LINE
  5
33C1
102
{ACAD_REACTORS
330
38D5
102
}
330
2
100
AcDbEntity
  8
KIJUN
100
AcDbLine
 10
74.92273484558291
 20
791.1895105847856
 30
0.0
 11
90.70426284558971
 21
791.1895105847856
 31
0.0
  0
LINE
  5
33C2
102
{ACAD_REACTORS
330
38D5
102
}
330
2
100
AcDbEntity
  8
KIJUN
100
AcDbLine
 10
90.70426284558971
 20
791.1895105847856
 30
0.0
 11
113.2352058455876
 21
791.1895105847856
 31
0.0
  0
LINE
  5
33C3
102
{ACAD_REACTORS
330
38D5
102
}
330
2
100
AcDbEntity
  8
KIJUN
100
AcDbLine
 10
113.2352058455876
 20
791.1895105847856
 30
0.0
 11
125.2452148455927
 21
791.1895105847856
 31
0.0
  0
LINE
  5
33C4
102
{ACAD_REACTORS
330
38D5
102
}
330
2
100
AcDbEntity
  8
KIJUN
100
AcDbLine
 10
125.2452148455927
 20
791.1895105847856
 30
0.0
 11
139.7368038456338
 21
789.9894875847664
 31
0.0
  0
LINE
  5
33C5
102
{ACAD_REACTORS
330
38D5
102
}
330
2
100
AcDbEntity
  8
KIJUN
100
AcDbLine
 10
139.7368038456338
 20
789.9894875847664
 30
0.0
 11
153.6327628455915
 21
789.9894875847664
 31
0.0
  0
LINE
  5
33C6
102
{ACAD_REACTORS
330
38D5
102
}
330
2
100
AcDbEntity
  8
KIJUN
100
AcDbLine
 10
153.6327628455915
 20
789.9894875847664
 30
0.0
 11
165.3447028456507
 21
789.6295695847863
 31
0.0
  0
LINE
  5
33C7
102
{ACAD_REACTORS
330
38D5
102
}
330
2
100
AcDbEntity
  8
KIJUN
100
AcDbLine
 10
165.3447028456507
 20
789.6295695847863
 30
0.0
 11
142.2182568456196
 21
780.2685265847598
 31
0.0
  0
LINE
  5
33C8
102
{ACAD_REACTORS
330
38D5
102
}
330
2
100
AcDbEntity
  8
KIJUN
100
AcDbLine
 10
138.3707918455625
 20
779.0615185847987
 30
0.0
 11
161.4972378455864
 21
781.5815795848098
 31
0.0
  0
LINE
  5
33C9
102
{ACAD_REACTORS
330
38D5
102
}
330
2
100
AcDbEntity
  8
KIJUN
100
AcDbLine
 10
161.4972378455864
 20
781.5815795848098
 30
0.0
 11
170.7282328456062
 21
783.1420285848056
 31
0.0
  0
LINE
  5
33CA
102
{ACAD_REACTORS
330
38D5
102
}
330
2
100
AcDbEntity
  8
KIJUN
100
AcDbLine
 10
170.7282328456062
 20
783.1420285848056
 30
0.0
 11
180.5547308456521
 21
784.941999584807
 31
0.0
  0
LINE
  5
33CB
102
{ACAD_REACTORS
330
38D5
102
}
330
2
100
AcDbEntity
  8
KIJUN
100
AcDbLine
 10
180.5547308456521
 20
784.941999584807
 30
0.0
 11
192.6637998455849
 21
787.9419935847677
 31
0.0
  0
LINE
  5
33CC
102
{ACAD_REACTORS
330
38D5
102
}
330
2
100
AcDbEntity
  8
KIJUN
100
AcDbLine
 10
192.6637998455849
 20
787.9419935847677
 30
0.0
 11
201.8947948456048
 21
792.1425185848051
 31
0.0
  0
LINE
  5
33CD
102
{ACAD_REACTORS
330
38D5
102
}
330
2
100
AcDbEntity
  8
KIJUN
100
AcDbLine
 10
201.8947948456048
 20
792.1425185848051
 30
0.0
 11
212.316795845582
 21
797.7829695847526
 31
0.0
  0
LINE
  5
33CE
102
{ACAD_REACTORS
330
38D5
102
}
330
2
100
AcDbEntity
  8
KIJUN
100
AcDbLine
 10
212.316795845582
 20
797.7829695847526
 30
0.0
 11
219.7607738456432
 21
802.2235245847909
 31
0.0
  0
LINE
  5
33CF
102
{ACAD_REACTORS
330
38D5
102
}
330
2
100
AcDbEntity
  8
KIJUN
100
AcDbLine
 10
219.7607738456432
 20
802.2235245847909
 30
0.0
 11
228.0981968456549
 21
806.7839675847558
 31
0.0
  0
LINE
  5
33D0
102
{ACAD_REACTORS
330
38D5
102
}
330
2
100
AcDbEntity
  8
KIJUN
100
AcDbLine
 10
228.0981968456549
 20
806.7839675847558
 30
0.0
 11
238.9171998455863
 21
810.5045595847828
 31
0.0
  0
LINE
  5
33D1
102
{ACAD_REACTORS
330
38D5
102
}
330
2
100
AcDbEntity
  8
KIJUN
100
AcDbLine
 10
238.9171998455863
 20
810.5045595847828
 30
0.0
 11
250.6292668455722
 21
813.5045535848025
 31
0.0
  0
LINE
  5
33D2
102
{ACAD_REACTORS
330
38D5
102
}
330
2
100
AcDbEntity
  8
KIJUN
100
AcDbLine
 10
250.6292668455722
 20
813.5045535848025
 30
0.0
 11
261.7462118456465
 21
815.3050325848003
 31
0.0
  0
LINE
  5
33D3
102
{ACAD_REACTORS
330
38D5
102
}
330
2
100
AcDbEntity
  8
KIJUN
100
AcDbLine
 10
261.7462118456465
 20
815.3050325848003
 30
0.0
 11
268.4957538456733
 21
815.3050325848003
 31
0.0
  0
LINE
  5
33D4
102
{ACAD_REACTORS
330
38D5
102
}
330
2
100
AcDbEntity
  8
KIJUN
100
AcDbLine
 10
268.4957538456733
 20
815.3050325848003
 30
0.0
 11
266.0143008455711
 21
819.1450045848091
 31
0.0
  0
LINE
  5
33D5
102
{ACAD_REACTORS
330
38D5
102
}
330
2
100
AcDbEntity
  8
KIJUN
100
AcDbLine
 10
266.0143008455711
 20
819.1450045848091
 30
0.0
 11
261.4482698456127
 21
822.8654695847867
 31
0.0
  0
LINE
  5
33D6
102
{ACAD_REACTORS
330
38D5
102
}
330
2
100
AcDbEntity
  8
KIJUN
100
AcDbLine
 10
261.4482698456127
 20
822.8654695847867
 30
0.0
 11
256.485744845661
 21
825.1460085847925
 31
0.0
  0
LINE
  5
33D7
102
{ACAD_REACTORS
330
38D5
102
}
330
2
100
AcDbEntity
  8
KIJUN
100
AcDbLine
 10
256.485744845661
 20
825.1460085847925
 30
0.0
 11
251.8207808455995
 21
825.8659715848029
 31
0.0
  0
LINE
  5
33D8
102
{ACAD_REACTORS
330
38D5
102
}
330
2
100
AcDbEntity
  8
KIJUN
100
AcDbLine
 10
251.8207808455995
 20
825.8659715848029
 30
0.0
 11
245.9643028456198
 21
825.8659715848029
 31
0.0
  0
LINE
  5
33D9
102
{ACAD_REACTORS
330
38D5
102
}
330
2
100
AcDbEntity
  8
KIJUN
100
AcDbLine
 10
245.9643028456198
 20
825.8659715848029
 30
0.0
 11
239.8107718455872
 21
825.1460085847925
 31
0.0
  0
LINE
  5
33DA
102
{ACAD_REACTORS
330
38D5
102
}
330
2
100
AcDbEntity
  8
KIJUN
100
AcDbLine
 10
239.8107718455872
 20
825.1460085847925
 30
0.0
 11
233.9542938456148
 21
824.3055225847989
 31
0.0
  0
LINE
  5
33DB
102
{ACAD_REACTORS
330
38D5
102
}
330
2
100
AcDbEntity
  8
KIJUN
100
AcDbLine
 10
233.9542938456148
 20
824.3055225847989
 30
0.0
 11
227.8007628455675
 21
822.8654695847867
 31
0.0
  0
LINE
  5
33DC
102
{ACAD_REACTORS
330
38D5
102
}
330
2
100
AcDbEntity
  8
KIJUN
100
AcDbLine
 10
227.8007628455675
 20
822.8654695847867
 30
0.0
 11
221.6467238455885
 21
820.9454835847486
 31
0.0
  0
LINE
  5
33DD
102
{ACAD_REACTORS
330
38D5
102
}
330
2
100
AcDbEntity
  8
KIJUN
100
AcDbLine
 10
221.6467238455885
 20
820.9454835847486
 30
0.0
 11
215.7907538456789
 21
818.6650715847923
 31
0.0
  0
LINE
  5
33DE
102
{ACAD_REACTORS
330
38D5
102
}
330
2
100
AcDbEntity
  8
KIJUN
100
AcDbLine
 10
215.7907538456789
 20
818.6650715847923
 30
0.0
 11
209.2397128456291
 21
814.9449875847698
 31
0.0
  0
LINE
  5
33DF
102
{ACAD_REACTORS
330
38D5
102
}
330
2
100
AcDbEntity
  8
KIJUN
100
AcDbLine
 10
209.2397128456291
 20
814.9449875847698
 30
0.0
 11
203.085800845562
 21
811.224522584794
 31
0.0
  0
LINE
  5
33E0
102
{ACAD_REACTORS
330
38D5
102
}
330
2
100
AcDbEntity
  8
KIJUN
100
AcDbLine
 10
203.085800845562
 20
811.224522584794
 30
0.0
 11
197.2297038456168
 21
807.1440125847862
 31
0.0
  0
LINE
  5
33E1
102
{ACAD_REACTORS
330
38D5
102
}
330
2
100
AcDbEntity
  8
KIJUN
100
AcDbLine
 10
197.2297038456168
 20
807.1440125847862
 30
0.0
 11
191.6712948455974
 21
802.9434875848078
 31
0.0
  0
LINE
  5
33E2
102
{ACAD_REACTORS
330
38D5
102
}
330
2
100
AcDbEntity
  8
KIJUN
100
AcDbLine
 10
191.6712948455974
 20
802.9434875848078
 30
0.0
 11
184.6243188455994
 21
798.5035675847598
 31
0.0
  0
LINE
  5
33E3
102
{ACAD_REACTORS
330
38D5
102
}
330
2
100
AcDbEntity
  8
KIJUN
100
AcDbLine
 10
184.6243188455994
 20
798.5035675847598
 30
0.0
 11
178.4702798456132
 21
795.5030655847935
 31
0.0
  0
LINE
  5
33E4
102
{ACAD_REACTORS
330
38D5
102
}
330
2
100
AcDbEntity
  8
KIJUN
100
AcDbLine
 10
178.4702798456132
 20
795.5030655847935
 30
0.0
 11
171.9192388455635
 21
793.2230345847988
 31
0.0
  0
LINE
  5
33E5
102
{ACAD_REACTORS
330
38D5
102
}
330
2
100
AcDbEntity
  8
KIJUN
100
AcDbLine
 10
171.9192388455635
 20
793.2230345847988
 30
0.0
 11
161.4972378455864
 21
790.5825775848046
 31
0.0
  0
LINE
  5
33E6
102
{ACAD_REACTORS
330
38D5
102
}
330
2
100
AcDbEntity
  8
KIJUN
100
AcDbLine
 10
161.4972378455864
 20
790.5825775848046
 30
0.0
 11
150.9763038456153
 21
788.7824795847614
 31
0.0
  0
LINE
  5
33E7
102
{ACAD_REACTORS
330
38D5
102
}
330
2
100
AcDbEntity
  8
KIJUN
100
AcDbLine
 10
150.9763038456153
 20
788.7824795847614
 30
0.0
 11
142.0432508456292
 21
787.9419935847677
 31
0.0
  0
LINE
  5
33E8
102
{ACAD_REACTORS
330
38D5
102
}
330
2
100
AcDbEntity
  8
KIJUN
100
AcDbLine
 10
142.0432508456292
 20
787.9419935847677
 30
0.0
 11
135.1942678456694
 21
787.5820755847876
 31
0.0
  0
LINE
  5
33E9
102
{ACAD_REACTORS
330
38D5
102
}
330
2
100
AcDbEntity
  8
KIJUN
100
AcDbLine
 10
135.1942678456694
 20
787.5820755847876
 30
0.0
 11
128.7427948456029
 21
787.5820755847876
 31
0.0
  0
LINE
  5
33EA
102
{ACAD_REACTORS
330
38D5
102
}
330
2
100
AcDbEntity
  8
KIJUN
100
AcDbLine
 10
128.7427948456029
 20
787.5820755847876
 30
0.0
 11
124.0777038456003
 21
787.5820755847876
 31
0.0
  0
LINE
  5
33EB
102
{ACAD_REACTORS
330
38D5
102
}
330
2
100
AcDbEntity
  8
KIJUN
100
AcDbLine
 10
124.0777038456003
 20
787.5820755847876
 30
0.0
 11
117.6262308456503
 21
787.5820755847876
 31
0.0
  0
LINE
  5
33EC
102
{ACAD_REACTORS
330
38D5
102
}
330
2
100
AcDbEntity
  8
KIJUN
100
AcDbLine
 10
117.6262308456503
 20
787.5820755847876
 30
0.0
 11
100.3557548456597
 21
787.5820755847876
 31
0.0
  0
LINE
  5
33ED
102
{ACAD_REACTORS
330
38D5
102
}
330
2
100
AcDbEntity
  8
KIJUN
100
AcDbLine
 10
100.3557548456597
 20
787.5820755847876
 30
0.0
 11
88.94124884556413
 21
788.3025465847953
 31
0.0
  0
LINE
  5
33EE
102
{ACAD_REACTORS
330
38D5
102
}
330
2
100
AcDbEntity
  8
KIJUN
100
AcDbLine
 10
88.94124884556413
 20
788.3025465847953
 30
0.0
 11
77.22880084556573
 21
788.3025465847953
 31
0.0
  0
LINE
  5
33EF
102
{ACAD_REACTORS
330
38D5
102
}
330
2
100
AcDbEntity
  8
KIJUN
100
AcDbLine
 10
77.22880084556573
 20
788.3025465847953
 30
0.0
 11
68.2957478455869
 21
789.1425245847844
 31
0.0
  0
LINE
  5
33F0
102
{ACAD_REACTORS
330
38D5
102
}
330
2
100
AcDbEntity
  8
KIJUN
100
AcDbLine
 10
68.2957478455869
 20
789.1425245847844
 30
0.0
 11
60.55370084556535
 21
789.5025695847565
 31
0.0
  0
LINE
  5
33F1
102
{ACAD_REACTORS
330
38D5
102
}
330
2
100
AcDbEntity
  8
KIJUN
100
AcDbLine
 10
60.55370084556535
 20
789.5025695847565
 30
0.0
 11
51.91871684565604
 21
790.2225325847743
 31
0.0
  0
LINE
  5
33F2
102
{ACAD_REACTORS
330
38D5
102
}
330
2
100
AcDbEntity
  8
KIJUN
100
AcDbLine
 10
51.91871684565604
 20
790.2225325847743
 30
0.0
 11
47.84925584563507
 21
790.2225325847743
 31
0.0
  0
LINE
  5
33F3
102
{ACAD_REACTORS
330
38D5
102
}
330
2
100
AcDbEntity
  8
KIJUN
100
AcDbLine
 10
47.84925584563507
 20
790.2225325847743
 30
0.0
 11
45.46673584565041
 21
787.9419935847677
 31
0.0
  0
LINE
  5
33F4
102
{ACAD_REACTORS
330
38D5
102
}
330
2
100
AcDbEntity
  8
KIJUN
100
AcDbLine
 10
45.46673584565041
 20
787.9419935847677
 30
0.0
 11
44.17679684556833
 21
784.5820815847607
 31
0.0
  0
LINE
  5
33F5
102
{ACAD_REACTORS
330
38D5
102
}
330
2
100
AcDbEntity
  8
KIJUN
100
AcDbLine
 10
44.17679684556833
 20
784.5820815847607
 30
0.0
 11
43.58129384563699
 21
780.5015715847534
 31
0.0
  0
LINE
  5
33F6
102
{ACAD_REACTORS
330
38D5
102
}
330
2
100
AcDbEntity
  8
KIJUN
100
AcDbLine
 10
43.58129384563699
 20
780.5015715847534
 30
0.0
 11
44.47423084564843
 21
775.9410015848104
 31
0.0
  0
LINE
  5
33F7
102
{ACAD_REACTORS
330
38D5
102
}
330
2
100
AcDbEntity
  8
KIJUN
100
AcDbLine
 10
44.47423084564843
 20
775.9410015848104
 30
0.0
 11
46.65774184560769
 21
772.581089584803
 31
0.0
  0
LINE
  5
33F8
102
{ACAD_REACTORS
330
38D5
102
}
330
2
100
AcDbEntity
  8
KIJUN
100
AcDbLine
 10
46.65774184560769
 20
772.581089584803
 30
0.0
 11
50.6282698456348
 21
769.9405055847659
 31
0.0
  0
LINE
  5
33F9
102
{ACAD_REACTORS
330
38D5
102
}
330
2
100
AcDbEntity
  8
KIJUN
100
AcDbLine
 10
50.6282698456348
 20
769.9405055847659
 30
0.0
 11
61.44727284555893
 21
769.5805875847858
 31
0.0
  0
LINE
  5
33FA
102
{ACAD_REACTORS
330
38D5
102
}
330
2
100
AcDbEntity
  8
KIJUN
100
AcDbLine
 10
61.44727284555893
 20
769.5805875847858
 30
0.0
 11
75.93873484556434
 21
769.2205425848062
 31
0.0
  0
LINE
  5
33FB
102
{ACAD_REACTORS
330
38D5
102
}
330
2
100
AcDbEntity
  8
KIJUN
100
AcDbLine
 10
75.93873484556434
 20
769.2205425848062
 30
0.0
 11
91.72026284556386
 21
769.2205425848062
 31
0.0
  0
LINE
  5
33FC
102
{ACAD_REACTORS
330
38D5
102
}
330
2
100
AcDbEntity
  8
KIJUN
100
AcDbLine
 10
91.72026284556386
 20
769.2205425848062
 30
0.0
 11
114.2512058456782
 21
769.2205425848062
 31
0.0
  0
LINE
  5
33FD
102
{ACAD_REACTORS
330
38D5
102
}
330
2
100
AcDbEntity
  8
KIJUN
100
AcDbLine
 10
114.2512058456782
 20
769.2205425848062
 30
0.0
 11
126.2612148455669
 21
769.2205425848062
 31
0.0
  0
LINE
  5
33FE
102
{ACAD_REACTORS
330
38D5
102
}
330
2
100
AcDbEntity
  8
KIJUN
100
AcDbLine
 10
126.2612148455669
 20
769.2205425848062
 30
0.0
 11
140.752803845608
 21
770.4205655847677
 31
0.0
  0
LINE
  5
33FF
102
{ACAD_REACTORS
330
38D5
102
}
330
2
100
AcDbEntity
  8
KIJUN
100
AcDbLine
 10
140.752803845608
 20
770.4205655847677
 30
0.0
 11
153.556816845638
 21
769.8204905847947
 31
0.0
  0
LINE
  5
3400
102
{ACAD_REACTORS
330
38D5
102
}
330
2
100
AcDbEntity
  8
KIJUN
100
AcDbLine
 10
153.556816845638
 20
769.8204905847947
 30
0.0
 11
166.658771845578
 21
767.0600185847782
 31
0.0
  0
LINE
  5
3401
102
{ACAD_REACTORS
330
38D5
102
}
330
2
100
AcDbEntity
  8
KIJUN
100
AcDbLine
 10
166.658771845578
 20
767.0600185847782
 30
0.0
 11
177.5767078456197
 21
763.340061584799
 31
0.0
  0
LINE
  5
3402
102
{ACAD_REACTORS
330
38D5
102
}
330
2
100
AcDbEntity
  8
KIJUN
100
AcDbLine
 10
177.5767078456197
 20
763.340061584799
 30
0.0
 11
188.9912138455916
 21
757.0995355847612
 31
0.0
  0
LINE
  5
3403
102
{ACAD_REACTORS
330
38D5
102
}
330
2
100
AcDbEntity
  8
KIJUN
100
AcDbLine
 10
188.9912138455916
 20
757.0995355847612
 30
0.0
 11
198.2222088456042
 21
751.8190025847939
 31
0.0
  0
LINE
  5
3404
102
{ACAD_REACTORS
330
38D5
102
}
330
2
100
AcDbEntity
  8
KIJUN
100
AcDbLine
 10
198.2222088456042
 20
751.8190025847939
 30
0.0
 11
209.93427584559
 21
744.3780725847813
 31
0.0
  0
LINE
  5
3405
102
{ACAD_REACTORS
330
38D5
102
}
330
2
100
AcDbEntity
  8
KIJUN
100
AcDbLine
 10
209.93427584559
 20
744.3780725847813
 30
0.0
 11
221.9442848456024
 21
738.6174795847604
 31
0.0
  0
LINE
  5
3406
102
{ACAD_REACTORS
330
38D5
102
}
330
2
100
AcDbEntity
  8
KIJUN
100
AcDbLine
 10
221.9442848456024
 20
738.6174795847604
 30
0.0
 11
233.9542938456148
 21
735.8570075847959
 31
0.0
  0
LINE
  5
3407
102
{ACAD_REACTORS
330
38D5
102
}
330
2
100
AcDbEntity
  8
KIJUN
100
AcDbLine
 10
233.9542938456148
 20
735.8570075847959
 30
0.0
 11
241.795781845562
 21
735.2570595847569
 31
0.0
  0
LINE
  5
3408
102
{ACAD_REACTORS
330
38D5
102
}
330
2
100
AcDbEntity
  8
KIJUN
100
AcDbLine
 10
241.795781845562
 20
735.2570595847569
 30
0.0
 11
252.5079778456061
 21
734.9903595847922
 31
0.0
  0
LINE
  5
3409
102
{ACAD_REACTORS
330
38D5
102
}
330
2
100
AcDbEntity
  8
KIJUN
100
AcDbLine
 10
252.5079778456061
 20
734.9903595847922
 30
0.0
 11
260.5294248456198
 21
737.9239325847942
 31
0.0
  0
LINE
  5
340A
102
{ACAD_REACTORS
330
38D5
102
}
330
2
100
AcDbEntity
  8
KIJUN
100
AcDbLine
 10
260.5294248456198
 20
737.9239325847942
 30
0.0
 11
267.2053068456521
 21
745.3380655847998
 31
0.0
  0
LINE
  5
340B
102
{ACAD_REACTORS
330
38D5
102
}
330
2
100
AcDbEntity
  8
KIJUN
100
AcDbLine
 10
267.2053068456521
 20
745.3380655847998
 30
0.0
 11
257.3788088455917
 21
745.0980355847991
 31
0.0
  0
LINE
  5
340C
102
{ACAD_REACTORS
330
38D5
102
}
330
2
100
AcDbEntity
  8
KIJUN
100
AcDbLine
 10
257.3788088455917
 20
745.0980355847991
 30
0.0
 11
248.4457558456129
 21
746.0580285847594
 31
0.0
  0
LINE
  5
340D
102
{ACAD_REACTORS
330
38D5
102
}
330
2
100
AcDbEntity
  8
KIJUN
100
AcDbLine
 10
248.4457558456129
 20
746.0580285847594
 30
0.0
 11
241.4977128456089
 21
748.4585825847885
 31
0.0
  0
LINE
  5
340E
102
{ACAD_REACTORS
330
38D5
102
}
330
2
100
AcDbEntity
  8
KIJUN
100
AcDbLine
 10
241.4977128456089
 20
748.4585825847885
 30
0.0
 11
232.8627288455832
 21
750.8585015847843
 31
0.0
  0
LINE
  5
340F
102
{ACAD_REACTORS
330
38D5
102
}
330
2
100
AcDbEntity
  8
KIJUN
100
AcDbLine
 10
232.8627288455832
 20
750.8585015847843
 30
0.0
 11
223.0362308456465
 21
755.5390865847579
 31
0.0
  0
LINE
  5
3410
102
{ACAD_REACTORS
330
38D5
102
}
330
2
100
AcDbEntity
  8
KIJUN
100
AcDbLine
 10
223.0362308456465
 20
755.5390865847579
 30
0.0
 11
209.338772845666
 21
762.7399865847751
 31
0.0
  0
LINE
  5
3411
102
{ACAD_REACTORS
330
38D5
102
}
330
2
100
AcDbEntity
  8
KIJUN
100
AcDbLine
 10
209.338772845666
 20
762.7399865847751
 30
0.0
 11
195.4431948456044
 21
769.8204905847947
 31
0.0
  0
LINE
  5
3412
102
{ACAD_REACTORS
330
38D5
102
}
330
2
100
AcDbEntity
  8
KIJUN
100
AcDbLine
 10
195.4431948456044
 20
769.8204905847947
 30
0.0
 11
181.1502338455834
 21
774.2610455847811
 31
0.0
  0
LINE
  5
3413
102
{ACAD_REACTORS
330
38D5
102
}
330
2
100
AcDbEntity
  8
KIJUN
100
AcDbLine
 10
181.1502338455834
 20
774.2610455847811
 30
0.0
 11
164.9711958455595
 21
775.9410015848104
 31
0.0
  0
LINE
  5
3414
102
{ACAD_REACTORS
330
38D5
102
}
330
2
100
AcDbEntity
  8
KIJUN
100
AcDbLine
 10
164.9711958455595
 20
775.9410015848104
 30
0.0
 11
152.0682498456594
 21
777.6214655847783
 31
0.0
  0
LINE
  5
3415
102
{ACAD_REACTORS
330
38D5
102
}
330
2
100
AcDbEntity
  8
KIJUN
100
AcDbLine
 10
152.0682498456594
 20
777.6214655847783
 30
0.0
 11
138.3707918455625
 21
779.0615185847987
 31
0.0
  0
LINE
  5
3416
102
{ACAD_REACTORS
330
38D5
102
}
330
2
100
AcDbEntity
  8
KIJUN
100
AcDbLine
 10
345.3297378456123
 20
750.5215705847799
 30
0.0
 11
252.5373148455988
 21
734.7999865847964
 31
0.0
  0
LINE
  5
3417
102
{ACAD_REACTORS
330
38D5
102
}
330
2
100
AcDbEntity
  8
KIJUN
100
AcDbLine
 10
252.5373148455988
 20
734.7999865847964
 30
0.0
 11
252.5373148455988
 21
827.6885485847801
 31
0.0
  0
LINE
  5
3418
102
{ACAD_REACTORS
330
38D5
102
}
330
2
100
AcDbEntity
  8
KIJUN
100
AcDbLine
 10
252.5373148455988
 20
827.6885485847801
 30
0.0
 11
347.4502568456224
 21
815.4475265847564
 31
0.0
  0
LINE
  5
3419
102
{ACAD_REACTORS
330
38D5
102
}
330
2
100
AcDbEntity
  8
KIJUN
100
AcDbLine
 10
347.4502568456224
 20
815.4475265847564
 30
0.0
 11
347.912028845662
 21
812.9449915848004
 31
0.0
  0
LINE
  5
341A
102
{ACAD_REACTORS
330
38D5
102
}
330
2
100
AcDbEntity
  8
KIJUN
100
AcDbLine
 10
347.912028845662
 20
812.9449915848004
 30
0.0
 11
349.066839845626
 21
810.7092835847783
 31
0.0
  0
LINE
  5
341B
102
{ACAD_REACTORS
330
38D5
102
}
330
2
100
AcDbEntity
  8
KIJUN
100
AcDbLine
 10
349.066839845626
 20
810.7092835847783
 30
0.0
 11
350.9422488455816
 21
808.3670225847876
 31
0.0
  0
LINE
  5
341C
102
{ACAD_REACTORS
330
38D5
102
}
330
2
100
AcDbEntity
  8
KIJUN
100
AcDbLine
 10
350.9422488455816
 20
808.3670225847876
 30
0.0
 11
362.5417938455935
 21
802.0059735847812
 31
0.0
  0
LINE
  5
341D
102
{ACAD_REACTORS
330
38D5
102
}
330
2
100
AcDbEntity
  8
KIJUN
100
AcDbLine
 10
362.5417938455935
 20
802.0059735847812
 30
0.0
 11
374.015735845584
 21
797.2055005847565
 31
0.0
  0
LINE
  5
341E
102
{ACAD_REACTORS
330
38D5
102
}
330
2
100
AcDbEntity
  8
KIJUN
100
AcDbLine
 10
374.015735845584
 20
797.2055005847565
 30
0.0
 11
377.7577908456519
 21
788.5650555847884
 31
0.0
  0
LINE
  5
341F
102
{ACAD_REACTORS
330
38D5
102
}
330
2
100
AcDbEntity
  8
KIJUN
100
AcDbLine
 10
377.7577908456519
 20
788.5650555847884
 30
0.0
 11
377.9056188455729
 21
782.591229584766
 31
0.0
  0
LINE
  5
3420
102
{ACAD_REACTORS
330
38D5
102
}
330
2
100
AcDbEntity
  8
KIJUN
100
AcDbLine
 10
377.9056188455729
 20
782.591229584766
 30
0.0
 11
376.6953088456426
 21
777.4173765847576
 31
0.0
  0
LINE
  5
3421
102
{ACAD_REACTORS
330
38D5
102
}
330
2
100
AcDbEntity
  8
KIJUN
100
AcDbLine
 10
376.6953088456426
 20
777.4173765847576
 30
0.0
 11
375.0137018455721
 21
772.0034935847565
 31
0.0
  0
LINE
  5
3422
102
{ACAD_REACTORS
330
38D5
102
}
330
2
100
AcDbEntity
  8
KIJUN
100
AcDbLine
 10
375.0137018455721
 20
772.0034935847565
 30
0.0
 11
368.9022078456769
 21
764.20251858478
 31
0.0
  0
LINE
  5
3423
102
{ACAD_REACTORS
330
38D5
102
}
330
2
100
AcDbEntity
  8
KIJUN
100
AcDbLine
 10
368.9022078456769
 20
764.20251858478
 30
0.0
 11
358.7997388456347
 21
761.6825845847547
 31
0.0
  0
LINE
  5
3424
102
{ACAD_REACTORS
330
38D5
102
}
330
2
100
AcDbEntity
  8
KIJUN
100
AcDbLine
 10
358.7997388456347
 20
761.6825845847547
 30
0.0
 11
348.6972698456089
 21
758.9219855848118
 31
0.0
  0
LINE
  5
3425
102
{ACAD_REACTORS
330
38D5
102
}
330
2
100
AcDbEntity
  8
KIJUN
100
AcDbLine
 10
348.6972698456089
 20
758.9219855848118
 30
0.0
 11
345.3297378456123
 21
754.6015725847895
 31
0.0
  0
LINE
  5
3426
102
{ACAD_REACTORS
330
38D5
102
}
330
2
100
AcDbEntity
  8
KIJUN
100
AcDbLine
 10
345.3297378456123
 20
754.6015725847895
 30
0.0
 11
345.3297378456123
 21
750.5215705847799
 31
0.0
  0
LINE
  5
3427
102
{ACAD_REACTORS
330
38D5
102
}
330
2
100
AcDbEntity
  8
KIJUN
100
AcDbLine
 10
156.0612568456713
 20
779.2525265847782
 30
0.0
 11
167.7731968456069
 21
778.5325635847607
 31
0.0
  0
LINE
  5
3428
102
{ACAD_REACTORS
330
38D5
102
}
330
2
100
AcDbEntity
  8
KIJUN
100
AcDbLine
 10
167.7731968456069
 20
778.5325635847607
 30
0.0
 11
179.4857718456555
 21
777.3325405848067
 31
0.0
  0
LINE
  5
3429
102
{ACAD_REACTORS
330
38D5
102
}
330
2
100
AcDbEntity
  8
KIJUN
100
AcDbLine
 10
179.4857718456555
 20
777.3325405848067
 30
0.0
 11
192.4882858456553
 21
776.6120695847843
 31
0.0
  0
LINE
  5
342A
102
{ACAD_REACTORS
330
38D5
102
}
330
2
100
AcDbEntity
  8
KIJUN
100
AcDbLine
 10
192.4882858456553
 20
776.6120695847843
 30
0.0
 11
202.612217845563
 21
775.1720165847713
 31
0.0
  0
LINE
  5
342B
102
{ACAD_REACTORS
330
38D5
102
}
330
2
100
AcDbEntity
  8
KIJUN
100
AcDbLine
 10
202.612217845563
 20
775.1720165847713
 30
0.0
 11
215.0192288456387
 21
773.971993584752
 31
0.0
  0
LINE
  5
342C
102
{ACAD_REACTORS
330
38D5
102
}
330
2
100
AcDbEntity
  8
KIJUN
100
AcDbLine
 10
215.0192288456387
 20
773.971993584752
 30
0.0
 11
224.5482928456117
 21
773.6120755847646
 31
0.0
  0
LINE
  5
342D
102
{ACAD_REACTORS
330
38D5
102
}
330
2
100
AcDbEntity
  8
KIJUN
100
AcDbLine
 10
224.5482928456117
 20
773.6120755847646
 30
0.0
 11
234.7712848456727
 21
772.8919855847692
 31
0.0
  0
LINE
  5
342E
102
{ACAD_REACTORS
330
38D5
102
}
330
2
100
AcDbEntity
  8
KIJUN
100
AcDbLine
 10
234.7712848456727
 20
772.8919855847692
 30
0.0
 11
245.8882298456306
 21
772.1720225848025
 31
0.0
  0
LINE
  5
342F
102
{ACAD_REACTORS
330
38D5
102
}
330
2
100
AcDbEntity
  8
KIJUN
100
AcDbLine
 10
245.8882298456306
 20
772.1720225848025
 30
0.0
 11
258.1957998456642
 21
771.6920895847938
 31
0.0
  0
LINE
  5
3430
102
{ACAD_REACTORS
330
38D5
102
}
330
2
100
AcDbEntity
  8
KIJUN
100
AcDbLine
 10
258.1957998456642
 20
771.6920895847938
 30
0.0
 11
274.5732118456003
 21
771.3315365847661
 31
0.0
  0
LINE
  5
3431
102
{ACAD_REACTORS
330
38D5
102
}
330
2
100
AcDbEntity
  8
KIJUN
100
AcDbLine
 10
274.5732118456003
 20
771.3315365847661
 30
0.0
 11
288.1712288456479
 21
771.3315365847661
 31
0.0
  0
LINE
  5
3432
102
{ACAD_REACTORS
330
38D5
102
}
330
2
100
AcDbEntity
  8
KIJUN
100
AcDbLine
 10
288.1712288456479
 20
771.3315365847661
 30
0.0
 11
299.1887328456646
 21
771.3315365847661
 31
0.0
  0
LINE
  5
3433
102
{ACAD_REACTORS
330
38D5
102
}
330
2
100
AcDbEntity
  8
KIJUN
100
AcDbLine
 10
299.1887328456646
 20
771.3315365847661
 30
0.0
 11
311.0002408455843
 21
770.9714915847929
 31
0.0
  0
LINE
  5
3434
102
{ACAD_REACTORS
330
38D5
102
}
330
2
100
AcDbEntity
  8
KIJUN
100
AcDbLine
 10
311.0002408455843
 20
770.9714915847929
 30
0.0
 11
319.3377908456455
 21
770.9714915847929
 31
0.0
  0
LINE
  5
3435
102
{ACAD_REACTORS
330
38D5
102
}
330
2
100
AcDbEntity
  8
KIJUN
100
AcDbLine
 10
319.3377908456455
 20
770.9714915847929
 30
0.0
 11
327.2782118455939
 21
770.9714915847929
 31
0.0
  0
LINE
  5
3436
102
{ACAD_REACTORS
330
38D5
102
}
330
2
100
AcDbEntity
  8
KIJUN
100
AcDbLine
 10
327.2782118455939
 20
770.9714915847929
 30
0.0
 11
334.4247558455759
 21
771.3315365847661
 31
0.0
  0
LINE
  5
3437
102
{ACAD_REACTORS
330
38D5
102
}
330
2
100
AcDbEntity
  8
KIJUN
100
AcDbLine
 10
334.4247558455759
 20
771.3315365847661
 30
0.0
 11
340.2807258456018
 21
772.1720225848025
 31
0.0
  0
LINE
  5
3438
102
{ACAD_REACTORS
330
38D5
102
}
330
2
100
AcDbEntity
  8
KIJUN
100
AcDbLine
 10
340.2807258456018
 20
772.1720225848025
 30
0.0
 11
344.9458168455899
 21
774.3320385847823
 31
0.0
  0
LINE
  5
3439
102
{ACAD_REACTORS
330
38D5
102
}
330
2
100
AcDbEntity
  8
KIJUN
100
AcDbLine
 10
344.9458168455899
 20
774.3320385847823
 30
0.0
 11
346.4347648455882
 21
777.6925855847718
 31
0.0
  0
LINE
  5
343A
102
{ACAD_REACTORS
330
38D5
102
}
330
2
100
AcDbEntity
  8
KIJUN
100
AcDbLine
 10
346.4347648455882
 20
777.6925855847718
 30
0.0
 11
346.1366958456197
 21
782.6130735847696
 31
0.0
  0
LINE
  5
343B
102
{ACAD_REACTORS
330
38D5
102
}
330
2
100
AcDbEntity
  8
KIJUN
100
AcDbLine
 10
346.1366958456197
 20
782.6130735847696
 30
0.0
 11
342.4642368455611
 21
786.3330305848053
 31
0.0
  0
LINE
  5
343C
102
{ACAD_REACTORS
330
38D5
102
}
330
2
100
AcDbEntity
  8
KIJUN
100
AcDbLine
 10
342.4642368455611
 20
786.3330305848053
 30
0.0
 11
336.6082668456515
 21
787.5335615847638
 31
0.0
  0
LINE
  5
343D
102
{ACAD_REACTORS
330
38D5
102
}
330
2
100
AcDbEntity
  8
KIJUN
100
AcDbLine
 10
336.6082668456515
 20
787.5335615847638
 30
0.0
 11
326.6827088456698
 21
787.8934795848094
 31
0.0
  0
LINE
  5
343E
102
{ACAD_REACTORS
330
38D5
102
}
330
2
100
AcDbEntity
  8
KIJUN
100
AcDbLine
 10
326.6827088456698
 20
787.8934795848094
 30
0.0
 11
317.4517138456581
 21
787.8934795848094
 31
0.0
  0
LINE
  5
343F
102
{ACAD_REACTORS
330
38D5
102
}
330
2
100
AcDbEntity
  8
KIJUN
100
AcDbLine
 10
317.4517138456581
 20
787.8934795848094
 30
0.0
 11
308.5187878456058
 21
788.2535245847743
 31
0.0
  0
LINE
  5
3440
102
{ACAD_REACTORS
330
38D5
102
}
330
2
100
AcDbEntity
  8
KIJUN
100
AcDbLine
 10
308.5187878456058
 20
788.2535245847743
 30
0.0
 11
293.3327628456396
 21
787.8934795848094
 31
0.0
  0
LINE
  5
3441
102
{ACAD_REACTORS
330
38D5
102
}
330
2
100
AcDbEntity
  8
KIJUN
100
AcDbLine
 10
293.3327628456396
 20
787.8934795848094
 30
0.0
 11
281.0248118456006
 21
788.2535245847743
 31
0.0
  0
LINE
  5
3442
102
{ACAD_REACTORS
330
38D5
102
}
330
2
100
AcDbEntity
  8
KIJUN
100
AcDbLine
 10
281.0248118456006
 20
788.2535245847743
 30
0.0
 11
268.0222978455863
 21
788.6135695848129
 31
0.0
  0
LINE
  5
3443
102
{ACAD_REACTORS
330
38D5
102
}
330
2
100
AcDbEntity
  8
KIJUN
100
AcDbLine
 10
268.0222978455863
 20
788.6135695848129
 30
0.0
 11
254.8212828456164
 21
788.2535245847743
 31
0.0
  0
LINE
  5
3444
102
{ACAD_REACTORS
330
38D5
102
}
330
2
100
AcDbEntity
  8
KIJUN
100
AcDbLine
 10
254.8212828456164
 20
788.2535245847743
 30
0.0
 11
243.1087078455753
 21
788.6135695848129
 31
0.0
  0
LINE
  5
3445
102
{ACAD_REACTORS
330
38D5
102
}
330
2
100
AcDbEntity
  8
KIJUN
100
AcDbLine
 10
243.1087078455753
 20
788.6135695848129
 30
0.0
 11
227.3273068456042
 21
788.6135695848129
 31
0.0
  0
LINE
  5
3446
102
{ACAD_REACTORS
330
38D5
102
}
330
2
100
AcDbEntity
  8
KIJUN
100
AcDbLine
 10
227.3273068456042
 20
788.6135695848129
 30
0.0
 11
215.0192288456387
 21
788.2535245847743
 31
0.0
  0
LINE
  5
3447
102
{ACAD_REACTORS
330
38D5
102
}
330
2
100
AcDbEntity
  8
KIJUN
100
AcDbLine
 10
215.0192288456387
 20
788.2535245847743
 30
0.0
 11
200.8257088456671
 21
787.8934795848094
 31
0.0
  0
LINE
  5
3448
102
{ACAD_REACTORS
330
38D5
102
}
330
2
100
AcDbEntity
  8
KIJUN
100
AcDbLine
 10
200.8257088456671
 20
787.8934795848094
 30
0.0
 11
188.4186978455914
 21
787.0529935847647
 31
0.0
  0
LINE
  5
3449
102
{ACAD_REACTORS
330
38D5
102
}
330
2
100
AcDbEntity
  8
KIJUN
100
AcDbLine
 10
188.4186978455914
 20
787.0529935847647
 30
0.0
 11
177.6992628456432
 21
786.3330305848053
 31
0.0
  0
LINE
  5
344A
102
{ACAD_REACTORS
330
38D5
102
}
330
2
100
AcDbEntity
  8
KIJUN
100
AcDbLine
 10
177.6992628456432
 20
786.3330305848053
 30
0.0
 11
167.1776938455664
 21
785.2530225847572
 31
0.0
  0
LINE
  5
344B
102
{ACAD_REACTORS
330
38D5
102
}
330
2
100
AcDbEntity
  8
KIJUN
100
AcDbLine
 10
167.1776938455664
 20
785.2530225847572
 30
0.0
 11
166.2847568456714
 21
784.892977584785
 31
0.0
  0
LINE
  5
344C
102
{ACAD_REACTORS
330
38D5
102
}
330
2
100
AcDbEntity
  8
KIJUN
100
AcDbLine
 10
166.2847568456714
 20
784.892977584785
 30
0.0
 11
157.6492648455828
 21
783.6930815847576
 31
0.0
  0
LINE
  5
344D
102
{ACAD_REACTORS
330
38D5
102
}
330
2
100
AcDbEntity
  8
KIJUN
100
AcDbLine
 10
157.6492648455828
 20
783.6930815847576
 30
0.0
 11
149.9072178455685
 21
782.9729915847551
 31
0.0
  0
LINE
  5
344E
102
{ACAD_REACTORS
330
38D5
102
}
330
2
100
AcDbEntity
  8
KIJUN
100
AcDbLine
 10
149.9072178455685
 20
782.9729915847551
 30
0.0
 11
139.6837178455612
 21
781.5325575847878
 31
0.0
  0
LINE
  5
344F
102
{ACAD_REACTORS
330
38D5
102
}
330
2
100
AcDbEntity
  8
KIJUN
100
AcDbLine
 10
139.6837178455612
 20
781.5325575847878
 30
0.0
 11
134.4232508455829
 21
781.5325575847878
 31
0.0
  0
LINE
  5
3450
102
{ACAD_REACTORS
330
38D5
102
}
330
2
100
AcDbEntity
  8
KIJUN
100
AcDbLine
 10
134.4232508455829
 20
781.5325575847878
 30
0.0
 11
142.1652978455972
 21
780.332534584761
 31
0.0
  0
LINE
  5
3451
102
{ACAD_REACTORS
330
38D5
102
}
330
2
100
AcDbEntity
  8
KIJUN
100
AcDbLine
 10
142.1652978455972
 20
780.332534584761
 30
0.0
 11
149.3117148456444
 21
779.9724895847962
 31
0.0
  0
LINE
  5
3452
102
{ACAD_REACTORS
330
38D5
102
}
330
2
100
AcDbEntity
  8
KIJUN
100
AcDbLine
 10
149.3117148456444
 20
779.9724895847962
 30
0.0
 11
156.0612568456713
 21
779.2525265847782
 31
0.0
  0
LINE
  5
3453
102
{ACAD_REACTORS
330
38D5
102
}
330
2
100
AcDbEntity
  8
KIJUN
100
AcDbLine
 10
156.0612568456713
 20
781.2845265847849
 30
0.0
 11
177.3022608455799
 21
782.3645345847749
 31
0.0
  0
LINE
  5
3454
102
{ACAD_REACTORS
330
38D5
102
}
330
2
100
AcDbEntity
  8
KIJUN
100
AcDbLine
 10
177.3022608455799
 20
782.3645345847749
 30
0.0
 11
190.9002778456201
 21
783.9249835847799
 31
0.0
  0
LINE
  5
3455
102
{ACAD_REACTORS
330
38D5
102
}
330
2
100
AcDbEntity
  8
KIJUN
100
AcDbLine
 10
190.9002778456201
 20
783.9249835847799
 30
0.0
 11
203.5057898455566
 21
785.3650365847928
 31
0.0
  0
LINE
  5
3456
102
{ACAD_REACTORS
330
38D5
102
}
330
2
100
AcDbEntity
  8
KIJUN
100
AcDbLine
 10
203.5057898455566
 20
785.3650365847928
 30
0.0
 11
214.9202958456449
 21
788.0049855847889
 31
0.0
  0
LINE
  5
3457
102
{ACAD_REACTORS
330
38D5
102
}
330
2
100
AcDbEntity
  8
KIJUN
100
AcDbLine
 10
214.9202958456449
 20
788.0049855847889
 30
0.0
 11
225.4412298456305
 21
791.0054875848059
 31
0.0
  0
LINE
  5
3458
102
{ACAD_REACTORS
330
38D5
102
}
330
2
100
AcDbEntity
  8
KIJUN
100
AcDbLine
 10
225.4412298456305
 20
791.0054875848059
 30
0.0
 11
236.260232845671
 21
795.2060125847841
 31
0.0
  0
LINE
  5
3459
102
{ACAD_REACTORS
330
38D5
102
}
330
2
100
AcDbEntity
  8
KIJUN
100
AcDbLine
 10
236.260232845671
 20
795.2060125847841
 30
0.0
 11
245.7887888455739
 21
797.3660285847569
 31
0.0
  0
LINE
  5
345A
102
{ACAD_REACTORS
330
38D5
102
}
330
2
100
AcDbEntity
  8
KIJUN
100
AcDbLine
 10
245.7887888455739
 20
797.3660285847569
 30
0.0
 11
260.5783198456415
 21
800.0064855848098
 31
0.0
  0
LINE
  5
345B
102
{ACAD_REACTORS
330
38D5
102
}
330
2
100
AcDbEntity
  8
KIJUN
100
AcDbLine
 10
260.5783198456415
 20
800.0064855848098
 30
0.0
 11
272.3897008456411
 21
800.8464635847918
 31
0.0
  0
LINE
  5
345C
102
{ACAD_REACTORS
330
38D5
102
}
330
2
100
AcDbEntity
  8
KIJUN
100
AcDbLine
 10
272.3897008456411
 20
800.8464635847918
 30
0.0
 11
284.9952128455775
 21
801.2065085847627
 31
0.0
  0
LINE
  5
345D
102
{ACAD_REACTORS
330
38D5
102
}
330
2
100
AcDbEntity
  8
KIJUN
100
AcDbLine
 10
284.9952128455775
 20
801.2065085847627
 30
0.0
 11
295.2182048456384
 21
801.2065085847627
 31
0.0
  0
LINE
  5
345E
102
{ACAD_REACTORS
330
38D5
102
}
330
2
100
AcDbEntity
  8
KIJUN
100
AcDbLine
 10
295.2182048456384
 20
801.2065085847627
 30
0.0
 11
293.3327628456396
 21
805.6470635848002
 31
0.0
  0
LINE
  5
345F
102
{ACAD_REACTORS
330
38D5
102
}
330
2
100
AcDbEntity
  8
KIJUN
100
AcDbLine
 10
293.3327628456396
 20
805.6470635848002
 30
0.0
 11
289.3622348456124
 21
809.8470805847814
 31
0.0
  0
LINE
  5
3460
102
{ACAD_REACTORS
330
38D5
102
}
330
2
100
AcDbEntity
  8
KIJUN
100
AcDbLine
 10
289.3622348456124
 20
809.8470805847814
 30
0.0
 11
283.8036988456665
 21
812.7275675847689
 31
0.0
  0
LINE
  5
3461
102
{ACAD_REACTORS
330
38D5
102
}
330
2
100
AcDbEntity
  8
KIJUN
100
AcDbLine
 10
283.8036988456665
 20
812.7275675847689
 30
0.0
 11
278.8413008456414
 21
814.2875085847686
 31
0.0
  0
LINE
  5
3462
102
{ACAD_REACTORS
330
38D5
102
}
330
2
100
AcDbEntity
  8
KIJUN
100
AcDbLine
 10
278.8413008456414
 20
814.2875085847686
 30
0.0
 11
273.5807068456129
 21
815.3680245847558
 31
0.0
  0
LINE
  5
3463
102
{ACAD_REACTORS
330
38D5
102
}
330
2
100
AcDbEntity
  8
KIJUN
100
AcDbLine
 10
273.5807068456129
 20
815.3680245847558
 30
0.0
 11
268.6178008456341
 21
815.3680245847558
 31
0.0
  0
LINE
  5
3464
102
{ACAD_REACTORS
330
38D5
102
}
330
2
100
AcDbEntity
  8
KIJUN
100
AcDbLine
 10
268.6178008456341
 20
815.3680245847558
 30
0.0
 11
261.8682588456145
 21
815.3680245847558
 31
0.0
  0
LINE
  5
3465
102
{ACAD_REACTORS
330
38D5
102
}
330
2
100
AcDbEntity
  8
KIJUN
100
AcDbLine
 10
261.8682588456145
 20
815.3680245847558
 30
0.0
 11
256.3097228456686
 21
815.0074715847862
 31
0.0
  0
LINE
  5
3466
102
{ACAD_REACTORS
330
38D5
102
}
330
2
100
AcDbEntity
  8
KIJUN
100
AcDbLine
 10
256.3097228456686
 20
815.0074715847862
 30
0.0
 11
249.1638138455605
 21
813.9274635848037
 31
0.0
  0
LINE
  5
3467
102
{ACAD_REACTORS
330
38D5
102
}
330
2
100
AcDbEntity
  8
KIJUN
100
AcDbLine
 10
249.1638138455605
 20
813.9274635848037
 30
0.0
 11
243.6052778456146
 21
813.2075005847786
 31
0.0
  0
LINE
  5
3468
102
{ACAD_REACTORS
330
38D5
102
}
330
2
100
AcDbEntity
  8
KIJUN
100
AcDbLine
 10
243.6052778456146
 20
813.2075005847786
 30
0.0
 11
237.7493078455886
 21
810.9274695847838
 31
0.0
  0
LINE
  5
3469
102
{ACAD_REACTORS
330
38D5
102
}
330
2
100
AcDbEntity
  8
KIJUN
100
AcDbLine
 10
237.7493078455886
 20
810.9274695847838
 30
0.0
 11
232.587773845597
 21
808.647057584762
 31
0.0
  0
LINE
  5
346A
102
{ACAD_REACTORS
330
38D5
102
}
330
2
100
AcDbEntity
  8
KIJUN
100
AcDbLine
 10
232.587773845597
 20
808.647057584762
 30
0.0
 11
226.3348018456241
 21
805.6470635848002
 31
0.0
  0
LINE
  5
346B
102
{ACAD_REACTORS
330
38D5
102
}
330
2
100
AcDbEntity
  8
KIJUN
100
AcDbLine
 10
226.3348018456241
 20
805.6470635848002
 30
0.0
 11
220.1807628456377
 21
803.0064795847634
 31
0.0
  0
LINE
  5
346C
102
{ACAD_REACTORS
330
38D5
102
}
330
2
100
AcDbEntity
  8
KIJUN
100
AcDbLine
 10
220.1807628456377
 20
803.0064795847634
 30
0.0
 11
214.6222268455754
 21
799.6465675847633
 31
0.0
  0
LINE
  5
346D
102
{ACAD_REACTORS
330
38D5
102
}
330
2
100
AcDbEntity
  8
KIJUN
100
AcDbLine
 10
214.6222268455754
 20
799.6465675847633
 30
0.0
 11
207.8728118455988
 21
795.9259755847947
 31
0.0
  0
LINE
  5
346E
102
{ACAD_REACTORS
330
38D5
102
}
330
2
100
AcDbEntity
  8
KIJUN
100
AcDbLine
 10
207.8728118455988
 20
795.9259755847947
 30
0.0
 11
202.314783845592
 21
792.5655555847993
 31
0.0
  0
LINE
  5
346F
102
{ACAD_REACTORS
330
38D5
102
}
330
2
100
AcDbEntity
  8
KIJUN
100
AcDbLine
 10
202.314783845592
 20
792.5655555847993
 30
0.0
 11
196.7562478456534
 21
789.9254795847577
 31
0.0
  0
LINE
  5
3470
102
{ACAD_REACTORS
330
38D5
102
}
330
2
100
AcDbEntity
  8
KIJUN
100
AcDbLine
 10
196.7562478456534
 20
789.9254795847577
 30
0.0
 11
189.6097038455632
 21
787.6450675847941
 31
0.0
  0
LINE
  5
3471
102
{ACAD_REACTORS
330
38D5
102
}
330
2
100
AcDbEntity
  8
KIJUN
100
AcDbLine
 10
189.6097038455632
 20
787.6450675847941
 30
0.0
 11
180.3792168455989
 21
785.0049915847689
 31
0.0
  0
LINE
  5
3472
102
{ACAD_REACTORS
330
38D5
102
}
330
2
100
AcDbEntity
  8
KIJUN
100
AcDbLine
 10
180.3792168455989
 20
785.0049915847689
 30
0.0
 11
173.9272358455932
 21
783.2045125847647
 31
0.0
  0
LINE
  5
3473
102
{ACAD_REACTORS
330
38D5
102
}
330
2
100
AcDbEntity
  8
KIJUN
100
AcDbLine
 10
173.9272358455932
 20
783.2045125847647
 30
0.0
 11
167.4757628456432
 21
782.3645345847749
 31
0.0
  0
LINE
  5
3474
102
{ACAD_REACTORS
330
38D5
102
}
330
2
100
AcDbEntity
  8
KIJUN
100
AcDbLine
 10
167.4757628456432
 20
782.3645345847749
 30
0.0
 11
160.6272878456152
 21
781.2845265847849
 31
0.0
  0
LINE
  5
3475
102
{ACAD_REACTORS
330
38D5
102
}
330
2
100
AcDbEntity
  8
KIJUN
100
AcDbLine
 10
160.6272878456152
 20
781.2845265847849
 30
0.0
 11
156.0612568456713
 21
781.2845265847849
 31
0.0
  0
LINE
  5
3476
102
{ACAD_REACTORS
330
38D5
102
}
330
2
100
AcDbEntity
  8
KIJUN
100
AcDbLine
 10
157.0772568456455
 20
781.2845265847849
 30
0.0
 11
168.7891968455883
 21
782.0044895848027
 31
0.0
  0
LINE
  5
3477
102
{ACAD_REACTORS
330
38D5
102
}
330
2
100
AcDbEntity
  8
KIJUN
100
AcDbLine
 10
168.7891968455883
 20
782.0044895848027
 30
0.0
 11
180.5017718456297
 21
783.2045125847647
 31
0.0
  0
LINE
  5
3478
102
{ACAD_REACTORS
330
38D5
102
}
330
2
100
AcDbEntity
  8
KIJUN
100
AcDbLine
 10
180.5017718456297
 20
783.2045125847647
 30
0.0
 11
193.5042858456368
 21
783.9249835847799
 31
0.0
  0
LINE
  5
3479
102
{ACAD_REACTORS
330
38D5
102
}
330
2
100
AcDbEntity
  8
KIJUN
100
AcDbLine
 10
193.5042858456368
 20
783.9249835847799
 30
0.0
 11
203.6282178456608
 21
785.3650365847928
 31
0.0
  0
LINE
  5
347A
102
{ACAD_REACTORS
330
38D5
102
}
330
2
100
AcDbEntity
  8
KIJUN
100
AcDbLine
 10
203.6282178456608
 20
785.3650365847928
 30
0.0
 11
216.0352288456202
 21
786.5650595848115
 31
0.0
  0
LINE
  5
347B
102
{ACAD_REACTORS
330
38D5
102
}
330
2
100
AcDbEntity
  8
KIJUN
100
AcDbLine
 10
216.0352288456202
 20
786.5650595848115
 30
0.0
 11
225.5642928455786
 21
786.9249775847988
 31
0.0
  0
LINE
  5
347C
102
{ACAD_REACTORS
330
38D5
102
}
330
2
100
AcDbEntity
  8
KIJUN
100
AcDbLine
 10
225.5642928455786
 20
786.9249775847988
 30
0.0
 11
235.7872848456468
 21
787.6450675847941
 31
0.0
  0
LINE
  5
347D
102
{ACAD_REACTORS
330
38D5
102
}
330
2
100
AcDbEntity
  8
KIJUN
100
AcDbLine
 10
235.7872848456468
 20
787.6450675847941
 30
0.0
 11
246.9042298456047
 21
788.3650305847536
 31
0.0
  0
LINE
  5
347E
102
{ACAD_REACTORS
330
38D5
102
}
330
2
100
AcDbEntity
  8
KIJUN
100
AcDbLine
 10
246.9042298456047
 20
788.3650305847536
 30
0.0
 11
259.211799845631
 21
788.8449635847704
 31
0.0
  0
LINE
  5
347F
102
{ACAD_REACTORS
330
38D5
102
}
330
2
100
AcDbEntity
  8
KIJUN
100
AcDbLine
 10
259.211799845631
 20
788.8449635847704
 30
0.0
 11
275.5892118455818
 21
789.2055165847984
 31
0.0
  0
LINE
  5
3480
102
{ACAD_REACTORS
330
38D5
102
}
330
2
100
AcDbEntity
  8
KIJUN
100
AcDbLine
 10
275.5892118455818
 20
789.2055165847984
 30
0.0
 11
289.187228845622
 21
789.2055165847984
 31
0.0
  0
LINE
  5
3481
102
{ACAD_REACTORS
330
38D5
102
}
330
2
100
AcDbEntity
  8
KIJUN
100
AcDbLine
 10
289.187228845622
 20
789.2055165847984
 30
0.0
 11
300.2047328456397
 21
789.2055165847984
 31
0.0
  0
LINE
  5
3482
102
{ACAD_REACTORS
330
38D5
102
}
330
2
100
AcDbEntity
  8
KIJUN
100
AcDbLine
 10
300.2047328456397
 20
789.2055165847984
 30
0.0
 11
312.0162408455658
 21
789.5655615847704
 31
0.0
  0
LINE
  5
3483
102
{ACAD_REACTORS
330
38D5
102
}
330
2
100
AcDbEntity
  8
KIJUN
100
AcDbLine
 10
312.0162408455658
 20
789.5655615847704
 30
0.0
 11
320.3537908456196
 21
789.5655615847704
 31
0.0
  0
LINE
  5
3484
102
{ACAD_REACTORS
330
38D5
102
}
330
2
100
AcDbEntity
  8
KIJUN
100
AcDbLine
 10
320.3537908456196
 20
789.5655615847704
 30
0.0
 11
328.2942118455753
 21
789.5655615847704
 31
0.0
  0
LINE
  5
3485
102
{ACAD_REACTORS
330
38D5
102
}
330
2
100
AcDbEntity
  8
KIJUN
100
AcDbLine
 10
328.2942118455753
 20
789.5655615847704
 30
0.0
 11
335.4407558456655
 21
789.2055165847984
 31
0.0
  0
LINE
  5
3486
102
{ACAD_REACTORS
330
38D5
102
}
330
2
100
AcDbEntity
  8
KIJUN
100
AcDbLine
 10
335.4407558456655
 20
789.2055165847984
 30
0.0
 11
341.296725845576
 21
788.3650305847536
 31
0.0
  0
LINE
  5
3487
102
{ACAD_REACTORS
330
38D5
102
}
330
2
100
AcDbEntity
  8
KIJUN
100
AcDbLine
 10
341.296725845576
 20
788.3650305847536
 30
0.0
 11
345.36631384564
 21
786.3250295848104
 31
0.0
  0
LINE
  5
3488
102
{ACAD_REACTORS
330
38D5
102
}
330
2
100
AcDbEntity
  8
KIJUN
100
AcDbLine
 10
345.36631384564
 20
786.3250295848104
 30
0.0
 11
347.4507648455615
 21
782.8444675847918
 31
0.0
  0
LINE
  5
3489
102
{ACAD_REACTORS
330
38D5
102
}
330
2
100
AcDbEntity
  8
KIJUN
100
AcDbLine
 10
347.4507648455615
 20
782.8444675847918
 30
0.0
 11
347.1526958456093
 21
777.9239795848038
 31
0.0
  0
LINE
  5
348A
102
{ACAD_REACTORS
330
38D5
102
}
330
2
100
AcDbEntity
  8
KIJUN
100
AcDbLine
 10
347.1526958456093
 20
777.9239795848038
 30
0.0
 11
346.3477698455831
 21
776.0706685847531
 31
0.0
  0
LINE
  5
348B
102
{ACAD_REACTORS
330
38D5
102
}
330
2
100
AcDbEntity
  8
KIJUN
100
AcDbLine
 10
346.3477698455831
 20
776.0706685847531
 30
0.0
 11
345.0794208456569
 21
774.5372705847826
 31
0.0
  0
LINE
  5
348C
102
{ACAD_REACTORS
330
38D5
102
}
330
2
100
AcDbEntity
  8
KIJUN
100
AcDbLine
 10
345.0794208456569
 20
774.5372705847826
 30
0.0
 11
343.2817358455582
 21
773.2435215848076
 31
0.0
  0
LINE
  5
348D
102
{ACAD_REACTORS
330
38D5
102
}
330
2
100
AcDbEntity
  8
KIJUN
100
AcDbLine
 10
343.2817358455582
 20
773.2435215848076
 30
0.0
 11
337.6242668456257
 21
771.8034685847872
 31
0.0
  0
LINE
  5
348E
102
{ACAD_REACTORS
330
38D5
102
}
330
2
100
AcDbEntity
  8
KIJUN
100
AcDbLine
 10
337.6242668456257
 20
771.8034685847872
 30
0.0
 11
328.9887748456526
 21
771.0835055847706
 31
0.0
  0
LINE
  5
348F
102
{ACAD_REACTORS
330
38D5
102
}
330
2
100
AcDbEntity
  8
KIJUN
100
AcDbLine
 10
328.9887748456526
 20
771.0835055847706
 30
0.0
 11
320.2542228456437
 21
771.0835055847706
 31
0.0
  0
LINE
  5
3490
102
{ACAD_REACTORS
330
38D5
102
}
330
2
100
AcDbEntity
  8
KIJUN
100
AcDbLine
 10
320.2542228456437
 20
771.0835055847706
 30
0.0
 11
310.0312308455755
 21
771.0835055847706
 31
0.0
  0
LINE
  5
3491
102
{ACAD_REACTORS
330
38D5
102
}
330
2
100
AcDbEntity
  8
KIJUN
100
AcDbLine
 10
310.0312308455755
 20
771.0835055847706
 30
0.0
 11
294.5472638455835
 21
771.5635655847713
 31
0.0
  0
LINE
  5
3492
102
{ACAD_REACTORS
330
38D5
102
}
330
2
100
AcDbEntity
  8
KIJUN
100
AcDbLine
 10
294.5472638455835
 20
771.5635655847713
 30
0.0
 11
282.4378138456454
 21
770.2435275847806
 31
0.0
  0
LINE
  5
3493
102
{ACAD_REACTORS
330
38D5
102
}
330
2
100
AcDbEntity
  8
KIJUN
100
AcDbLine
 10
282.4378138456454
 20
770.2435275847806
 30
0.0
 11
269.038297845575
 21
771.9234835847596
 31
0.0
  0
LINE
  5
3494
102
{ACAD_REACTORS
330
38D5
102
}
330
2
100
AcDbEntity
  8
KIJUN
100
AcDbLine
 10
269.038297845575
 20
771.9234835847596
 30
0.0
 11
255.8372828455908
 21
772.283528584789
 31
0.0
  0
LINE
  5
3495
102
{ACAD_REACTORS
330
38D5
102
}
330
2
100
AcDbEntity
  8
KIJUN
100
AcDbLine
 10
255.8372828455908
 20
772.283528584789
 30
0.0
 11
244.1247078456659
 21
771.9234835847596
 31
0.0
  0
LINE
  5
3496
102
{ACAD_REACTORS
330
38D5
102
}
330
2
100
AcDbEntity
  8
KIJUN
100
AcDbLine
 10
244.1247078456659
 20
771.9234835847596
 30
0.0
 11
228.3433068455929
 21
771.9234835847596
 31
0.0
  0
LINE
  5
3497
102
{ACAD_REACTORS
330
38D5
102
}
330
2
100
AcDbEntity
  8
KIJUN
100
AcDbLine
 10
228.3433068455929
 20
771.9234835847596
 30
0.0
 11
216.0352288456202
 21
772.283528584789
 31
0.0
  0
LINE
  5
3498
102
{ACAD_REACTORS
330
38D5
102
}
330
2
100
AcDbEntity
  8
KIJUN
100
AcDbLine
 10
216.0352288456202
 20
772.283528584789
 30
0.0
 11
201.7427758456474
 21
773.9639925847582
 31
0.0
  0
LINE
  5
3499
102
{ACAD_REACTORS
330
38D5
102
}
330
2
100
AcDbEntity
  8
KIJUN
100
AcDbLine
 10
201.7427758456474
 20
773.9639925847582
 30
0.0
 11
188.9382548455692
 21
775.2840305848062
 31
0.0
  0
LINE
  5
349A
102
{ACAD_REACTORS
330
38D5
102
}
330
2
100
AcDbEntity
  8
KIJUN
100
AcDbLine
 10
188.9382548455692
 20
775.2840305848062
 30
0.0
 11
178.3182608456704
 21
776.0039935847666
 31
0.0
  0
LINE
  5
349B
102
{ACAD_REACTORS
330
38D5
102
}
330
2
100
AcDbEntity
  8
KIJUN
100
AcDbLine
 10
178.3182608456704
 20
776.0039935847666
 30
0.0
 11
171.3702178456665
 21
776.6040685847969
 31
0.0
  0
LINE
  5
349C
102
{ACAD_REACTORS
330
38D5
102
}
330
2
100
AcDbEntity
  8
KIJUN
100
AcDbLine
 10
171.3702178456665
 20
776.6040685847969
 30
0.0
 11
165.5142478456405
 21
776.963986584777
 31
0.0
  0
LINE
  5
349D
102
{ACAD_REACTORS
330
38D5
102
}
330
2
100
AcDbEntity
  8
KIJUN
100
AcDbLine
 10
165.5142478456405
 20
776.963986584777
 30
0.0
 11
158.6652648455642
 21
776.8439715848129
 31
0.0
  0
LINE
  5
349E
102
{ACAD_REACTORS
330
38D5
102
}
330
2
100
AcDbEntity
  8
KIJUN
100
AcDbLine
 10
158.6652648455642
 20
776.8439715848129
 30
0.0
 11
150.9232178456664
 21
777.5640615848083
 31
0.0
  0
LINE
  5
349F
102
{ACAD_REACTORS
330
38D5
102
}
330
2
100
AcDbEntity
  8
KIJUN
100
AcDbLine
 10
150.9232178456664
 20
777.5640615848083
 30
0.0
 11
140.6997178456518
 21
779.0044955847839
 31
0.0
  0
LINE
  5
34A0
102
{ACAD_REACTORS
330
38D5
102
}
330
2
100
AcDbEntity
  8
KIJUN
100
AcDbLine
 10
140.6997178456518
 20
779.0044955847839
 30
0.0
 11
135.4392508456735
 21
779.0044955847839
 31
0.0
  0
LINE
  5
34A1
102
{ACAD_REACTORS
330
38D5
102
}
330
2
100
AcDbEntity
  8
KIJUN
100
AcDbLine
 10
135.4392508456735
 20
779.0044955847839
 30
0.0
 11
143.1812978455714
 21
780.2045185848023
 31
0.0
  0
LINE
  5
34A2
102
{ACAD_REACTORS
330
38D5
102
}
330
2
100
AcDbEntity
  8
KIJUN
100
AcDbLine
 10
143.1812978455714
 20
780.2045185848023
 30
0.0
 11
150.3277148456113
 21
780.5645635847745
 31
0.0
  0
LINE
  5
34A3
102
{ACAD_REACTORS
330
38D5
102
}
330
2
100
AcDbEntity
  8
KIJUN
100
AcDbLine
 10
150.3277148456113
 20
780.5645635847745
 30
0.0
 11
157.0772568456455
 21
781.2845265847849
 31
0.0
  0
LINE
  5
34A4
102
{ACAD_REACTORS
330
38D5
102
}
330
2
100
AcDbEntity
  8
KIJUN
100
AcDbLine
 10
154.9182568456676
 20
779.2525265847782
 30
0.0
 11
176.1592608455762
 21
778.1725185847886
 31
0.0
  0
LINE
  5
34A5
102
{ACAD_REACTORS
330
38D5
102
}
330
2
100
AcDbEntity
  8
KIJUN
100
AcDbLine
 10
176.1592608455762
 20
778.1725185847886
 30
0.0
 11
189.7572778456165
 21
776.6120695847843
 31
0.0
  0
LINE
  5
34A6
102
{ACAD_REACTORS
330
38D5
102
}
330
2
100
AcDbEntity
  8
KIJUN
100
AcDbLine
 10
189.7572778456165
 20
776.6120695847843
 30
0.0
 11
202.3627898455602
 21
775.1720165847713
 31
0.0
  0
LINE
  5
34A7
102
{ACAD_REACTORS
330
38D5
102
}
330
2
100
AcDbEntity
  8
KIJUN
100
AcDbLine
 10
202.3627898455602
 20
775.1720165847713
 30
0.0
 11
213.7772958456485
 21
772.5320675847828
 31
0.0
  0
LINE
  5
34A8
102
{ACAD_REACTORS
330
38D5
102
}
330
2
100
AcDbEntity
  8
KIJUN
100
AcDbLine
 10
213.7772958456485
 20
772.5320675847828
 30
0.0
 11
224.2982298456195
 21
769.5315655847648
 31
0.0
  0
LINE
  5
34A9
102
{ACAD_REACTORS
330
38D5
102
}
330
2
100
AcDbEntity
  8
KIJUN
100
AcDbLine
 10
224.2982298456195
 20
769.5315655847648
 30
0.0
 11
235.1172328456673
 21
765.3310405847864
 31
0.0
  0
LINE
  5
34AA
102
{ACAD_REACTORS
330
38D5
102
}
330
2
100
AcDbEntity
  8
KIJUN
100
AcDbLine
 10
235.1172328456673
 20
765.3310405847864
 30
0.0
 11
244.6457888455702
 21
763.1710245848067
 31
0.0
  0
LINE
  5
34AB
102
{ACAD_REACTORS
330
38D5
102
}
330
2
100
AcDbEntity
  8
KIJUN
100
AcDbLine
 10
244.6457888455702
 20
763.1710245848067
 30
0.0
 11
259.4353198456379
 21
760.5305675847618
 31
0.0
  0
LINE
  5
34AC
102
{ACAD_REACTORS
330
38D5
102
}
330
2
100
AcDbEntity
  8
KIJUN
100
AcDbLine
 10
259.4353198456379
 20
760.5305675847618
 30
0.0
 11
271.2467008456374
 21
759.6905895847807
 31
0.0
  0
LINE
  5
34AD
102
{ACAD_REACTORS
330
38D5
102
}
330
2
100
AcDbEntity
  8
KIJUN
100
AcDbLine
 10
271.2467008456374
 20
759.6905895847807
 30
0.0
 11
283.8522128455738
 21
759.3305445848003
 31
0.0
  0
LINE
  5
34AE
102
{ACAD_REACTORS
330
38D5
102
}
330
2
100
AcDbEntity
  8
KIJUN
100
AcDbLine
 10
283.8522128455738
 20
759.3305445848003
 30
0.0
 11
294.0752048456348
 21
759.3305445848003
 31
0.0
  0
LINE
  5
34AF
102
{ACAD_REACTORS
330
38D5
102
}
330
2
100
AcDbEntity
  8
KIJUN
100
AcDbLine
 10
294.0752048456348
 20
759.3305445848003
 30
0.0
 11
292.1897628456359
 21
754.8899895847703
 31
0.0
  0
LINE
  5
34B0
102
{ACAD_REACTORS
330
38D5
102
}
330
2
100
AcDbEntity
  8
KIJUN
100
AcDbLine
 10
292.1897628456359
 20
754.8899895847703
 30
0.0
 11
288.2192348456087
 21
750.6899725847894
 31
0.0
  0
LINE
  5
34B1
102
{ACAD_REACTORS
330
38D5
102
}
330
2
100
AcDbEntity
  8
KIJUN
100
AcDbLine
 10
288.2192348456087
 20
750.6899725847894
 30
0.0
 11
282.6606988456774
 21
747.8094855847943
 31
0.0
  0
LINE
  5
34B2
102
{ACAD_REACTORS
330
38D5
102
}
330
2
100
AcDbEntity
  8
KIJUN
100
AcDbLine
 10
282.6606988456774
 20
747.8094855847943
 30
0.0
 11
277.6983008456377
 21
746.2495445847949
 31
0.0
  0
LINE
  5
34B3
102
{ACAD_REACTORS
330
38D5
102
}
330
2
100
AcDbEntity
  8
KIJUN
100
AcDbLine
 10
277.6983008456377
 20
746.2495445847949
 30
0.0
 11
272.437706845602
 21
745.1690285848076
 31
0.0
  0
LINE
  5
34B4
102
{ACAD_REACTORS
330
38D5
102
}
330
2
100
AcDbEntity
  8
KIJUN
100
AcDbLine
 10
272.437706845602
 20
745.1690285848076
 30
0.0
 11
267.4748008456377
 21
745.1690285848076
 31
0.0
  0
LINE
  5
34B5
102
{ACAD_REACTORS
330
38D5
102
}
330
2
100
AcDbEntity
  8
KIJUN
100
AcDbLine
 10
267.4748008456377
 20
745.1690285848076
 30
0.0
 11
260.7252588456035
 21
745.1690285848076
 31
0.0
  0
LINE
  5
34B6
102
{ACAD_REACTORS
330
38D5
102
}
330
2
100
AcDbEntity
  8
KIJUN
100
AcDbLine
 10
260.7252588456035
 20
745.1690285848076
 30
0.0
 11
255.1667228456649
 21
745.5295815847771
 31
0.0
  0
LINE
  5
34B7
102
{ACAD_REACTORS
330
38D5
102
}
330
2
100
AcDbEntity
  8
KIJUN
100
AcDbLine
 10
255.1667228456649
 20
745.5295815847771
 30
0.0
 11
248.0208138455568
 21
746.6095895847669
 31
0.0
  0
LINE
  5
34B8
102
{ACAD_REACTORS
330
38D5
102
}
330
2
100
AcDbEntity
  8
KIJUN
100
AcDbLine
 10
248.0208138455568
 20
746.6095895847669
 30
0.0
 11
242.462277845611
 21
747.3295525847775
 31
0.0
  0
LINE
  5
34B9
102
{ACAD_REACTORS
330
38D5
102
}
330
2
100
AcDbEntity
  8
KIJUN
100
AcDbLine
 10
242.462277845611
 20
747.3295525847775
 30
0.0
 11
236.606307845585
 21
749.6095835847877
 31
0.0
  0
LINE
  5
34BA
102
{ACAD_REACTORS
330
38D5
102
}
330
2
100
AcDbEntity
  8
KIJUN
100
AcDbLine
 10
236.606307845585
 20
749.6095835847877
 30
0.0
 11
231.4447738455933
 21
751.8899955848014
 31
0.0
  0
LINE
  5
34BB
102
{ACAD_REACTORS
330
38D5
102
}
330
2
100
AcDbEntity
  8
KIJUN
100
AcDbLine
 10
231.4447738455933
 20
751.8899955848014
 30
0.0
 11
225.1918018456204
 21
754.8899895847703
 31
0.0
  0
LINE
  5
34BC
102
{ACAD_REACTORS
330
38D5
102
}
330
2
100
AcDbEntity
  8
KIJUN
100
AcDbLine
 10
225.1918018456204
 20
754.8899895847703
 30
0.0
 11
219.037762845634
 21
757.5305735848001
 31
0.0
  0
LINE
  5
34BD
102
{ACAD_REACTORS
330
38D5
102
}
330
2
100
AcDbEntity
  8
KIJUN
100
AcDbLine
 10
219.037762845634
 20
757.5305735848001
 30
0.0
 11
213.4792268455717
 21
760.8904855848074
 31
0.0
  0
LINE
  5
34BE
102
{ACAD_REACTORS
330
38D5
102
}
330
2
100
AcDbEntity
  8
KIJUN
100
AcDbLine
 10
213.4792268455717
 20
760.8904855848074
 30
0.0
 11
206.7298118455951
 21
764.6110775847687
 31
0.0
  0
LINE
  5
34BF
102
{ACAD_REACTORS
330
38D5
102
}
330
2
100
AcDbEntity
  8
KIJUN
100
AcDbLine
 10
206.7298118455951
 20
764.6110775847687
 30
0.0
 11
200.1792788455936
 21
767.4915645847563
 31
0.0
  0
LINE
  5
34C0
102
{ACAD_REACTORS
330
38D5
102
}
330
2
100
AcDbEntity
  8
KIJUN
100
AcDbLine
 10
200.1792788455936
 20
767.4915645847563
 30
0.0
 11
194.3228008456285
 21
770.2515285847753
 31
0.0
  0
LINE
  5
34C1
102
{ACAD_REACTORS
330
38D5
102
}
330
2
100
AcDbEntity
  8
KIJUN
100
AcDbLine
 10
194.3228008456285
 20
770.2515285847753
 30
0.0
 11
180.6257238456605
 21
773.971993584752
 31
0.0
  0
LINE
  5
34C2
102
{ACAD_REACTORS
330
38D5
102
}
330
2
100
AcDbEntity
  8
KIJUN
100
AcDbLine
 10
180.6257238456605
 20
773.971993584752
 30
0.0
 11
162.2633018456258
 21
776.6120695847843
 31
0.0
  0
LINE
  5
34C3
102
{ACAD_REACTORS
330
38D5
102
}
330
2
100
AcDbEntity
  8
KIJUN
100
AcDbLine
 10
162.2633018456258
 20
776.6120695847843
 30
0.0
 11
172.7842358455896
 21
777.3325405848067
 31
0.0
  0
LINE
  5
34C4
102
{ACAD_REACTORS
330
38D5
102
}
330
2
100
AcDbEntity
  8
KIJUN
100
AcDbLine
 10
172.7842358455896
 20
777.3325405848067
 30
0.0
 11
166.3327628456395
 21
778.1725185847886
 31
0.0
  0
LINE
  5
34C5
102
{ACAD_REACTORS
330
38D5
102
}
330
2
100
AcDbEntity
  8
KIJUN
100
AcDbLine
 10
166.3327628456395
 20
778.1725185847886
 30
0.0
 11
159.4842878456115
 21
779.2525265847782
 31
0.0
  0
LINE
  5
34C6
102
{ACAD_REACTORS
330
38D5
102
}
330
2
100
AcDbEntity
  8
KIJUN
100
AcDbLine
 10
159.4842878456115
 20
779.2525265847782
 30
0.0
 11
154.9182568456676
 21
779.2525265847782
 31
0.0
  0
LINE
  5
34C7
102
{ACAD_REACTORS
330
38D5
102
}
330
2
100
AcDbEntity
  8
KIJUN
100
AcDbLine
 10
200.7652568456547
 20
775.4425265848098
 30
0.0
 11
208.4077358455766
 21
773.8825855848103
 31
0.0
  0
LINE
  5
34C8
102
{ACAD_REACTORS
330
38D5
102
}
330
2
100
AcDbEntity
  8
KIJUN
100
AcDbLine
 10
208.4077358455766
 20
773.8825855848103
 30
0.0
 11
216.1497828455908
 21
772.0819795847623
 31
0.0
  0
LINE
  5
34C9
102
{ACAD_REACTORS
330
38D5
102
}
330
2
100
AcDbEntity
  8
KIJUN
100
AcDbLine
 10
216.1497828455908
 20
772.0819795847623
 30
0.0
 11
224.785274845563
 21
769.0819855848007
 31
0.0
  0
LINE
  5
34CA
102
{ACAD_REACTORS
330
38D5
102
}
330
2
100
AcDbEntity
  8
KIJUN
100
AcDbLine
 10
224.785274845563
 20
769.0819855848007
 30
0.0
 11
231.6337498455764
 21
766.8015735847798
 31
0.0
  0
LINE
  5
34CB
102
{ACAD_REACTORS
330
38D5
102
}
330
2
100
AcDbEntity
  8
KIJUN
100
AcDbLine
 10
231.6337498455764
 20
766.8015735847798
 30
0.0
 11
238.978794845651
 21
764.5215425847768
 31
0.0
  0
LINE
  5
34CC
102
{ACAD_REACTORS
330
38D5
102
}
330
2
100
AcDbEntity
  8
KIJUN
100
AcDbLine
 10
238.978794845651
 20
764.5215425847768
 30
0.0
 11
245.8277778456036
 21
762.6015565847978
 31
0.0
  0
LINE
  5
34CD
102
{ACAD_REACTORS
330
38D5
102
}
330
2
100
AcDbEntity
  8
KIJUN
100
AcDbLine
 10
245.8277778456036
 20
762.6015565847978
 30
0.0
 11
254.4627618456439
 21
761.1609955847874
 31
0.0
  0
LINE
  5
34CE
102
{ACAD_REACTORS
330
38D5
102
}
330
2
100
AcDbEntity
  8
KIJUN
100
AcDbLine
 10
254.4627618456439
 20
761.1609955847874
 30
0.0
 11
263.0982538456087
 21
759.6010545847807
 31
0.0
  0
LINE
  5
34CF
102
{ACAD_REACTORS
330
38D5
102
}
330
2
100
AcDbEntity
  8
KIJUN
100
AcDbLine
 10
263.0982538456087
 20
759.6010545847807
 30
0.0
 11
270.1452298455992
 21
759.2410095847502
 31
0.0
  0
LINE
  5
34D0
102
{ACAD_REACTORS
330
38D5
102
}
330
2
100
AcDbEntity
  8
KIJUN
100
AcDbLine
 10
270.1452298455992
 20
759.2410095847502
 30
0.0
 11
278.4827798456613
 21
758.521046584799
 31
0.0
  0
LINE
  5
34D1
102
{ACAD_REACTORS
330
38D5
102
}
330
2
100
AcDbEntity
  8
KIJUN
100
AcDbLine
 10
278.4827798456613
 20
758.521046584799
 30
0.0
 11
287.4157058456044
 21
757.8010835847804
 31
0.0
  0
LINE
  5
34D2
102
{ACAD_REACTORS
330
38D5
102
}
330
2
100
AcDbEntity
  8
KIJUN
100
AcDbLine
 10
287.4157058456044
 20
757.8010835847804
 30
0.0
 11
294.2648158456072
 21
758.1610015847604
 31
0.0
  0
LINE
  5
34D3
102
{ACAD_REACTORS
330
38D5
102
}
330
2
100
AcDbEntity
  8
KIJUN
100
AcDbLine
 10
294.2648158456072
 20
758.1610015847604
 30
0.0
 11
301.9072948456446
 21
759.2410095847502
 31
0.0
  0
LINE
  5
34D4
102
{ACAD_REACTORS
330
38D5
102
}
330
2
100
AcDbEntity
  8
KIJUN
100
AcDbLine
 10
301.9072948456446
 20
759.2410095847502
 30
0.0
 11
306.8702008456235
 21
761.1609955847874
 31
0.0
  0
LINE
  5
34D5
102
{ACAD_REACTORS
330
38D5
102
}
330
2
100
AcDbEntity
  8
KIJUN
100
AcDbLine
 10
306.8702008456235
 20
761.1609955847874
 30
0.0
 11
309.6492148456168
 21
763.8015795847591
 31
0.0
  0
LINE
  5
34D6
102
{ACAD_REACTORS
330
38D5
102
}
330
2
100
AcDbEntity
  8
KIJUN
100
AcDbLine
 10
309.6492148456168
 20
763.8015795847591
 30
0.0
 11
310.2447178456637
 21
767.5215365847966
 31
0.0
  0
LINE
  5
34D7
102
{ACAD_REACTORS
330
38D5
102
}
330
2
100
AcDbEntity
  8
KIJUN
100
AcDbLine
 10
310.2447178456637
 20
767.5215365847966
 30
0.0
 11
309.0537118455827
 21
770.5220385847629
 31
0.0
  0
LINE
  5
34D8
102
{ACAD_REACTORS
330
38D5
102
}
330
2
100
AcDbEntity
  8
KIJUN
100
AcDbLine
 10
309.0537118455827
 20
770.5220385847629
 30
0.0
 11
303.7932448455908
 21
770.5220385847629
 31
0.0
  0
LINE
  5
34D9
102
{ACAD_REACTORS
330
38D5
102
}
330
2
100
AcDbEntity
  8
KIJUN
100
AcDbLine
 10
303.7932448455908
 20
770.5220385847629
 30
0.0
 11
296.7457608456466
 21
770.8820835847943
 31
0.0
  0
LINE
  5
34DA
102
{ACAD_REACTORS
330
38D5
102
}
330
2
100
AcDbEntity
  8
KIJUN
100
AcDbLine
 10
296.7457608456466
 20
770.8820835847943
 30
0.0
 11
287.1182718456407
 21
770.8820835847943
 31
0.0
  0
LINE
  5
34DB
102
{ACAD_REACTORS
330
38D5
102
}
330
2
100
AcDbEntity
  8
KIJUN
100
AcDbLine
 10
287.1182718456407
 20
770.8820835847943
 30
0.0
 11
276.2992688455856
 21
771.2420015847722
 31
0.0
  0
LINE
  5
34DC
102
{ACAD_REACTORS
330
38D5
102
}
330
2
100
AcDbEntity
  8
KIJUN
100
AcDbLine
 10
276.2992688455856
 20
771.2420015847722
 30
0.0
 11
267.0682738455803
 21
771.2420015847722
 31
0.0
  0
LINE
  5
34DD
102
{ACAD_REACTORS
330
38D5
102
}
330
2
100
AcDbEntity
  8
KIJUN
100
AcDbLine
 10
267.0682738455803
 20
771.2420015847722
 30
0.0
 11
260.0212978455752
 21
771.2420015847722
 31
0.0
  0
LINE
  5
34DE
102
{ACAD_REACTORS
330
38D5
102
}
330
2
100
AcDbEntity
  8
KIJUN
100
AcDbLine
 10
260.0212978455752
 20
771.2420015847722
 30
0.0
 11
249.5002368455612
 21
771.6020465848036
 31
0.0
  0
LINE
  5
34DF
102
{ACAD_REACTORS
330
38D5
102
}
330
2
100
AcDbEntity
  8
KIJUN
100
AcDbLine
 10
249.5002368455612
 20
771.6020465848036
 30
0.0
 11
239.9712998456384
 21
772.0819795847623
 31
0.0
  0
LINE
  5
34E0
102
{ACAD_REACTORS
330
38D5
102
}
330
2
100
AcDbEntity
  8
KIJUN
100
AcDbLine
 10
239.9712998456384
 20
772.0819795847623
 30
0.0
 11
231.3363158456054
 21
772.8020695847658
 31
0.0
  0
LINE
  5
34E1
102
{ACAD_REACTORS
330
38D5
102
}
330
2
100
AcDbEntity
  8
KIJUN
100
AcDbLine
 10
231.3363158456054
 20
772.8020695847658
 30
0.0
 11
223.5942688455911
 21
773.52254058478
 31
0.0
  0
LINE
  5
34E2
102
{ACAD_REACTORS
330
38D5
102
}
330
2
100
AcDbEntity
  8
KIJUN
100
AcDbLine
 10
223.5942688455911
 20
773.52254058478
 30
0.0
 11
217.4402298456048
 21
773.52254058478
 31
0.0
  0
LINE
  5
34E3
102
{ACAD_REACTORS
330
38D5
102
}
330
2
100
AcDbEntity
  8
KIJUN
100
AcDbLine
 10
217.4402298456048
 20
773.52254058478
 30
0.0
 11
211.1872578456318
 21
773.8825855848103
 31
0.0
  0
LINE
  5
34E4
102
{ACAD_REACTORS
330
38D5
102
}
330
2
100
AcDbEntity
  8
KIJUN
100
AcDbLine
 10
211.1872578456318
 20
773.8825855848103
 30
0.0
 11
200.7652568456547
 21
775.4425265848098
 31
0.0
  0
LINE
  5
34E5
102
{ACAD_REACTORS
330
38D5
102
}
330
2
100
AcDbEntity
  8
KIJUN
100
AcDbLine
 10
201.9082568456511
 20
784.9675265847894
 30
0.0
 11
209.5507358455802
 21
786.5274675847889
 31
0.0
  0
LINE
  5
34E6
102
{ACAD_REACTORS
330
38D5
102
}
330
2
100
AcDbEntity
  8
KIJUN
100
AcDbLine
 10
209.5507358455802
 20
786.5274675847889
 30
0.0
 11
217.2927828455872
 21
788.3280735847788
 31
0.0
  0
LINE
  5
34E7
102
{ACAD_REACTORS
330
38D5
102
}
330
2
100
AcDbEntity
  8
KIJUN
100
AcDbLine
 10
217.2927828455872
 20
788.3280735847788
 30
0.0
 11
225.9282748455594
 21
791.3280675847986
 31
0.0
  0
LINE
  5
34E8
102
{ACAD_REACTORS
330
38D5
102
}
330
2
100
AcDbEntity
  8
KIJUN
100
AcDbLine
 10
225.9282748455594
 20
791.3280675847986
 30
0.0
 11
232.7767498455874
 21
793.6084795847623
 31
0.0
  0
LINE
  5
34E9
102
{ACAD_REACTORS
330
38D5
102
}
330
2
100
AcDbEntity
  8
KIJUN
100
AcDbLine
 10
232.7767498455874
 20
793.6084795847623
 30
0.0
 11
240.1217948456547
 21
795.8885105847643
 31
0.0
  0
LINE
  5
34EA
102
{ACAD_REACTORS
330
38D5
102
}
330
2
100
AcDbEntity
  8
KIJUN
100
AcDbLine
 10
240.1217948456547
 20
795.8885105847643
 30
0.0
 11
246.9707778456073
 21
797.8084965847942
 31
0.0
  0
LINE
  5
34EB
102
{ACAD_REACTORS
330
38D5
102
}
330
2
100
AcDbEntity
  8
KIJUN
100
AcDbLine
 10
246.9707778456073
 20
797.8084965847942
 30
0.0
 11
255.6057618456403
 21
799.2490575848119
 31
0.0
  0
LINE
  5
34EC
102
{ACAD_REACTORS
330
38D5
102
}
330
2
100
AcDbEntity
  8
KIJUN
100
AcDbLine
 10
255.6057618456403
 20
799.2490575848119
 30
0.0
 11
264.2412538456124
 21
800.8089985847604
 31
0.0
  0
LINE
  5
34ED
102
{ACAD_REACTORS
330
38D5
102
}
330
2
100
AcDbEntity
  8
KIJUN
100
AcDbLine
 10
264.2412538456124
 20
800.8089985847604
 30
0.0
 11
271.2882298456029
 21
801.1690435847835
 31
0.0
  0
LINE
  5
34EE
102
{ACAD_REACTORS
330
38D5
102
}
330
2
100
AcDbEntity
  8
KIJUN
100
AcDbLine
 10
271.2882298456029
 20
801.1690435847835
 30
0.0
 11
279.625779845665
 21
801.8890065848014
 31
0.0
  0
LINE
  5
34EF
102
{ACAD_REACTORS
330
38D5
102
}
330
2
100
AcDbEntity
  8
KIJUN
100
AcDbLine
 10
279.625779845665
 20
801.8890065848014
 30
0.0
 11
288.5587058456081
 21
802.6089695847609
 31
0.0
  0
LINE
  5
34F0
102
{ACAD_REACTORS
330
38D5
102
}
330
2
100
AcDbEntity
  8
KIJUN
100
AcDbLine
 10
288.5587058456081
 20
802.6089695847609
 30
0.0
 11
295.4078158456109
 21
802.2490515847735
 31
0.0
  0
LINE
  5
34F1
102
{ACAD_REACTORS
330
38D5
102
}
330
2
100
AcDbEntity
  8
KIJUN
100
AcDbLine
 10
295.4078158456109
 20
802.2490515847735
 30
0.0
 11
303.0502948456492
 21
801.1690435847835
 31
0.0
  0
LINE
  5
34F2
102
{ACAD_REACTORS
330
38D5
102
}
330
2
100
AcDbEntity
  8
KIJUN
100
AcDbLine
 10
303.0502948456492
 20
801.1690435847835
 30
0.0
 11
308.013200845628
 21
799.2490575848119
 31
0.0
  0
LINE
  5
34F3
102
{ACAD_REACTORS
330
38D5
102
}
330
2
100
AcDbEntity
  8
KIJUN
100
AcDbLine
 10
308.013200845628
 20
799.2490575848119
 30
0.0
 11
310.7922148456196
 21
796.6084735847821
 31
0.0
  0
LINE
  5
34F4
102
{ACAD_REACTORS
330
38D5
102
}
330
2
100
AcDbEntity
  8
KIJUN
100
AcDbLine
 10
310.7922148456196
 20
796.6084735847821
 30
0.0
 11
311.387717845661
 21
792.8885165848029
 31
0.0
  0
LINE
  5
34F5
102
{ACAD_REACTORS
330
38D5
102
}
330
2
100
AcDbEntity
  8
KIJUN
100
AcDbLine
 10
311.387717845661
 20
792.8885165848029
 30
0.0
 11
310.19671184558
 21
789.8880145847855
 31
0.0
  0
LINE
  5
34F6
102
{ACAD_REACTORS
330
38D5
102
}
330
2
100
AcDbEntity
  8
KIJUN
100
AcDbLine
 10
310.19671184558
 20
789.8880145847855
 30
0.0
 11
304.9362448455936
 21
789.8880145847855
 31
0.0
  0
LINE
  5
34F7
102
{ACAD_REACTORS
330
38D5
102
}
330
2
100
AcDbEntity
  8
KIJUN
100
AcDbLine
 10
304.9362448455936
 20
789.8880145847855
 30
0.0
 11
297.8887608456566
 21
789.5279695848134
 31
0.0
  0
LINE
  5
34F8
102
{ACAD_REACTORS
330
38D5
102
}
330
2
100
AcDbEntity
  8
KIJUN
100
AcDbLine
 10
297.8887608456566
 20
789.5279695848134
 30
0.0
 11
288.2612718456371
 21
789.5279695848134
 31
0.0
  0
LINE
  5
34F9
102
{ACAD_REACTORS
330
38D5
102
}
330
2
100
AcDbEntity
  8
KIJUN
100
AcDbLine
 10
288.2612718456371
 20
789.5279695848134
 30
0.0
 11
277.4422688455893
 21
789.1680515847606
 31
0.0
  0
LINE
  5
34FA
102
{ACAD_REACTORS
330
38D5
102
}
330
2
100
AcDbEntity
  8
KIJUN
100
AcDbLine
 10
277.4422688455893
 20
789.1680515847606
 30
0.0
 11
268.2112738455767
 21
789.1680515847606
 31
0.0
  0
LINE
  5
34FB
102
{ACAD_REACTORS
330
38D5
102
}
330
2
100
AcDbEntity
  8
KIJUN
100
AcDbLine
 10
268.2112738455767
 20
789.1680515847606
 30
0.0
 11
261.1642978455789
 21
789.1680515847606
 31
0.0
  0
LINE
  5
34FC
102
{ACAD_REACTORS
330
38D5
102
}
330
2
100
AcDbEntity
  8
KIJUN
100
AcDbLine
 10
261.1642978455789
 20
789.1680515847606
 30
0.0
 11
250.6432368455576
 21
788.8080065847957
 31
0.0
  0
LINE
  5
34FD
102
{ACAD_REACTORS
330
38D5
102
}
330
2
100
AcDbEntity
  8
KIJUN
100
AcDbLine
 10
250.6432368455576
 20
788.8080065847957
 30
0.0
 11
241.1142998456348
 21
788.3280735847788
 31
0.0
  0
LINE
  5
34FE
102
{ACAD_REACTORS
330
38D5
102
}
330
2
100
AcDbEntity
  8
KIJUN
100
AcDbLine
 10
241.1142998456348
 20
788.3280735847788
 30
0.0
 11
232.4793158456091
 21
787.6079835847763
 31
0.0
  0
LINE
  5
34FF
102
{ACAD_REACTORS
330
38D5
102
}
330
2
100
AcDbEntity
  8
KIJUN
100
AcDbLine
 10
232.4793158456091
 20
787.6079835847763
 30
0.0
 11
224.7372688455948
 21
786.8875125847612
 31
0.0
  0
LINE
  5
3500
102
{ACAD_REACTORS
330
38D5
102
}
330
2
100
AcDbEntity
  8
KIJUN
100
AcDbLine
 10
224.7372688455948
 20
786.8875125847612
 30
0.0
 11
218.5832298456158
 21
786.8875125847612
 31
0.0
  0
LINE
  5
3501
102
{ACAD_REACTORS
330
38D5
102
}
330
2
100
AcDbEntity
  8
KIJUN
100
AcDbLine
 10
218.5832298456158
 20
786.8875125847612
 30
0.0
 11
212.3302578456355
 21
786.5274675847889
 31
0.0
  0
LINE
  5
3502
102
{ACAD_REACTORS
330
38D5
102
}
330
2
100
AcDbEntity
  8
KIJUN
100
AcDbLine
 10
212.3302578456355
 20
786.5274675847889
 30
0.0
 11
201.9082568456511
 21
784.9675265847894
 31
0.0
  0
LINE
  5
3503
102
{ACAD_REACTORS
330
38D5
102
}
330
2
100
AcDbEntity
  8
KIJUN
100
AcDbLine
 10
91.02277884565456
 20
855.3238350847705
 30
0.0
 11
119.4917338456075
 21
855.3238350847705
 31
0.0
  0
LINE
  5
3504
102
{ACAD_REACTORS
330
38D5
102
}
330
2
100
AcDbEntity
  8
KIJUN
100
AcDbLine
 10
119.4917338456075
 20
855.3238350847705
 30
0.0
 11
120.7640198455997
 21
854.7156320847671
 31
0.0
  0
LINE
  5
3505
102
{ACAD_REACTORS
330
38D5
102
}
330
2
100
AcDbEntity
  8
KIJUN
100
AcDbLine
 10
120.7640198455997
 20
854.7156320847671
 30
0.0
 11
121.6713078456164
 21
853.1208930847597
 31
0.0
  0
LINE
  5
3506
102
{ACAD_REACTORS
330
38D5
102
}
330
2
100
AcDbEntity
  8
KIJUN
100
AcDbLine
 10
121.6713078456164
 20
853.1208930847597
 30
0.0
 11
122.0172558456111
 21
850.8842960847934
 31
0.0
  0
LINE
  5
3507
102
{ACAD_REACTORS
330
38D5
102
}
330
2
100
AcDbEntity
  8
KIJUN
100
AcDbLine
 10
122.0172558456111
 20
850.8842960847934
 30
0.0
 11
122.0172558456111
 21
840.9973460847787
 31
0.0
  0
LINE
  5
3508
102
{ACAD_REACTORS
330
38D5
102
}
330
2
100
AcDbEntity
  8
KIJUN
100
AcDbLine
 10
122.0172558456111
 20
840.9973460847787
 30
0.0
 11
121.6713078456164
 21
838.7607490847468
 31
0.0
  0
LINE
  5
3509
102
{ACAD_REACTORS
330
38D5
102
}
330
2
100
AcDbEntity
  8
KIJUN
100
AcDbLine
 10
121.6713078456164
 20
838.7607490847468
 30
0.0
 11
120.7640198455997
 21
837.1660100847465
 31
0.0
  0
LINE
  5
350A
102
{ACAD_REACTORS
330
38D5
102
}
330
2
100
AcDbEntity
  8
KIJUN
100
AcDbLine
 10
120.7640198455997
 20
837.1660100847465
 30
0.0
 11
119.4917338456075
 21
836.5578070847941
 31
0.0
  0
LINE
  5
350B
102
{ACAD_REACTORS
330
38D5
102
}
330
2
100
AcDbEntity
  8
KIJUN
100
AcDbLine
 10
119.4917338456075
 20
836.5578070847941
 30
0.0
 11
91.02277884565456
 21
836.5578070847941
 31
0.0
  0
LINE
  5
350C
102
{ACAD_REACTORS
330
38D5
102
}
330
2
100
AcDbEntity
  8
KIJUN
100
AcDbLine
 10
91.02277884565456
 20
836.5578070847941
 30
0.0
 11
89.75049284566239
 21
837.1660100847465
 31
0.0
  0
LINE
  5
350D
102
{ACAD_REACTORS
330
38D5
102
}
330
2
100
AcDbEntity
  8
KIJUN
100
AcDbLine
 10
89.75049284566239
 20
837.1660100847465
 30
0.0
 11
88.84320484564568
 21
838.7607490847468
 31
0.0
  0
LINE
  5
350E
102
{ACAD_REACTORS
330
38D5
102
}
330
2
100
AcDbEntity
  8
KIJUN
100
AcDbLine
 10
88.84320484564568
 20
838.7607490847468
 30
0.0
 11
88.49725684564374
 21
840.9973460847787
 31
0.0
  0
LINE
  5
350F
102
{ACAD_REACTORS
330
38D5
102
}
330
2
100
AcDbEntity
  8
KIJUN
100
AcDbLine
 10
88.49725684564374
 20
840.9973460847787
 30
0.0
 11
88.49725684564374
 21
850.8842960847934
 31
0.0
  0
LINE
  5
3510
102
{ACAD_REACTORS
330
38D5
102
}
330
2
100
AcDbEntity
  8
KIJUN
100
AcDbLine
 10
88.49725684564374
 20
850.8842960847934
 30
0.0
 11
88.84320484564568
 21
853.1208930847597
 31
0.0
  0
LINE
  5
3511
102
{ACAD_REACTORS
330
38D5
102
}
330
2
100
AcDbEntity
  8
KIJUN
100
AcDbLine
 10
88.84320484564568
 20
853.1208930847597
 30
0.0
 11
89.75049284566239
 21
854.7156320847671
 31
0.0
  0
LINE
  5
3512
102
{ACAD_REACTORS
330
38D5
102
}
330
2
100
AcDbEntity
  8
KIJUN
100
AcDbLine
 10
89.75049284566239
 20
854.7156320847671
 30
0.0
 11
91.02277884565456
 21
855.3238350847705
 31
0.0
  0
LINE
  5
3513
102
{ACAD_REACTORS
330
38D5
102
}
330
2
100
AcDbEntity
  8
KIJUN
100
AcDbLine
 10
325.73325684559
 20
824.7185265848004
 30
0.0
 11
358.5351978456015
 21
820.7580315847648
 31
0.0
  0
LINE
  5
3514
102
{ACAD_REACTORS
330
38D5
102
}
330
2
100
AcDbEntity
  8
KIJUN
100
AcDbLine
 10
358.5351978456015
 20
820.7580315847648
 30
0.0
 11
360.0317658456338
 21
815.5975135847688
 31
0.0
  0
LINE
  5
3515
102
{ACAD_REACTORS
330
38D5
102
}
330
2
100
AcDbEntity
  8
KIJUN
100
AcDbLine
 10
360.0317658456338
 20
815.5975135847688
 30
0.0
 11
367.8892558455696
 21
811.6370185847976
 31
0.0
  0
LINE
  5
3516
102
{ACAD_REACTORS
330
38D5
102
}
330
2
100
AcDbEntity
  8
KIJUN
100
AcDbLine
 10
367.8892558455696
 20
811.6370185847976
 30
0.0
 11
376.6197438455924
 21
808.3969945847698
 31
0.0
  0
LINE
  5
3517
102
{ACAD_REACTORS
330
38D5
102
}
330
2
100
AcDbEntity
  8
KIJUN
100
AcDbLine
 10
376.6197438455924
 20
808.3969945847698
 30
0.0
 11
382.9802848456015
 21
803.7165365847744
 31
0.0
  0
LINE
  5
3518
102
{ACAD_REACTORS
330
38D5
102
}
330
2
100
AcDbEntity
  8
KIJUN
100
AcDbLine
 10
382.9802848456015
 20
803.7165365847744
 30
0.0
 11
387.0962278456496
 21
797.8360555847671
 31
0.0
  0
LINE
  5
3519
102
{ACAD_REACTORS
330
38D5
102
}
330
2
100
AcDbEntity
  8
KIJUN
100
AcDbLine
 10
387.0962278456496
 20
797.8360555847671
 30
0.0
 11
388.5927958455727
 21
789.4350055847594
 31
0.0
  0
LINE
  5
351A
102
{ACAD_REACTORS
330
38D5
102
}
330
2
100
AcDbEntity
  8
KIJUN
100
AcDbLine
 10
388.5927958455727
 20
789.4350055847594
 30
0.0
 11
387.8447658456357
 21
779.7140445847976
 31
0.0
  0
LINE
  5
351B
102
{ACAD_REACTORS
330
38D5
102
}
330
2
100
AcDbEntity
  8
KIJUN
100
AcDbLine
 10
387.8447658456357
 20
779.7140445847976
 30
0.0
 11
385.9738018455687
 21
770.9535845847989
 31
0.0
  0
LINE
  5
351C
102
{ACAD_REACTORS
330
38D5
102
}
330
2
100
AcDbEntity
  8
KIJUN
100
AcDbLine
 10
385.9738018455687
 20
770.9535845847989
 30
0.0
 11
382.6062698455785
 21
763.6325425847667
 31
0.0
  0
LINE
  5
351D
102
{ACAD_REACTORS
330
38D5
102
}
330
2
100
AcDbEntity
  8
KIJUN
100
AcDbLine
 10
382.6062698455785
 20
763.6325425847667
 30
0.0
 11
377.742296845609
 21
757.8720765847888
 31
0.0
  0
LINE
  5
351E
102
{ACAD_REACTORS
330
38D5
102
}
330
2
100
AcDbEntity
  8
KIJUN
100
AcDbLine
 10
377.742296845609
 20
757.8720765847888
 30
0.0
 11
370.1342348456678
 21
754.2714995847987
 31
0.0
  0
LINE
  5
351F
102
{ACAD_REACTORS
330
38D5
102
}
330
2
100
AcDbEntity
  8
KIJUN
100
AcDbLine
 10
370.1342348456678
 20
754.2714995847987
 30
0.0
 11
364.1472008456262
 21
752.4715285847909
 31
0.0
  0
LINE
  5
3520
102
{ACAD_REACTORS
330
38D5
102
}
330
2
100
AcDbEntity
  8
KIJUN
100
AcDbLine
 10
364.1472008456262
 20
752.4715285847909
 30
0.0
 11
360.4057808456569
 21
749.110981584809
 31
0.0
  0
LINE
  5
3521
102
{ACAD_REACTORS
330
38D5
102
}
330
2
100
AcDbEntity
  8
KIJUN
100
AcDbLine
 10
360.4057808456569
 20
749.110981584809
 30
0.0
 11
357.4127718456298
 21
743.7105605847959
 31
0.0
  0
LINE
  5
3522
102
{ACAD_REACTORS
330
38D5
102
}
330
2
100
AcDbEntity
  8
KIJUN
100
AcDbLine
 10
357.4127718456298
 20
743.7105605847959
 30
0.0
 11
316.7532138456295
 21
737.4700345847582
 31
0.0
  0
LINE
  5
3523
102
{ACAD_REACTORS
330
38D6
102
}
330
2
100
AcDbEntity
  8
KIJUN
100
AcDbLine
 10
56.29780384560627
 20
391.6735455847942
 30
0.0
 11
176.1124319632241
 21
333.0600115847905
 31
0.0
  0
LINE
  5
3526
102
{ACAD_REACTORS
330
38D6
102
}
330
2
100
AcDbEntity
  8
KIJUN
100
AcDbLine
 10
542.5652938456627
 20
378.0600115847906
 30
0.0
 11
412.3513208456565
 21
378.0600115847905
 31
0.0
  0
LINE
  5
3527
102
{ACAD_REACTORS
330
38D6
102
}
330
2
100
AcDbEntity
  8
KIJUN
100
AcDbLine
 10
412.3513208456565
 20
378.0600115847905
 30
0.0
 11
340.7464848687996
 21
381.4170144679051
 31
0.0
  0
LINE
  5
3528
102
{ACAD_REACTORS
330
38D6
102
}
330
2
100
AcDbEntity
  8
KIJUN
100
AcDbLine
 10
340.7464848687996
 20
381.4170144679051
 30
0.0
 11
314.1382838456197
 21
384.9718799178358
 31
0.0
  0
LINE
  5
3529
102
{ACAD_REACTORS
330
38D6
102
}
330
2
100
AcDbEntity
  8
KIJUN
100
AcDbLine
 10
314.1382838456197
 20
384.9718799178358
 30
0.0
 11
262.6458798456156
 21
401.9633369178612
 31
0.0
  0
LINE
  5
352A
102
{ACAD_REACTORS
330
38D6
102
}
330
2
100
AcDbEntity
  8
KIJUN
100
AcDbLine
 10
262.6458798456156
 20
401.9633369178612
 30
0.0
 11
212.2833948457051
 21
415.8355495847848
 31
0.0
  0
LINE
  5
352B
102
{ACAD_REACTORS
330
38D6
102
}
330
2
100
AcDbEntity
  8
KIJUN
100
AcDbLine
 10
212.2833948457051
 20
415.8355495847848
 30
0.0
 11
172.0938638456578
 21
436.9519665847914
 31
0.0
  0
LINE
  5
352C
102
{ACAD_REACTORS
330
38D6
102
}
330
2
100
AcDbEntity
  8
KIJUN
100
AcDbLine
 10
172.0938638456578
 20
436.9519665847914
 30
0.0
 11
149.6128318457054
 21
446.2830375847756
 31
0.0
  0
LINE
  5
352D
102
{ACAD_REACTORS
330
38D6
102
}
330
2
100
AcDbEntity
  8
KIJUN
100
AcDbLine
 10
149.6128318457054
 20
446.2830375847756
 30
0.0
 11
129.7693358456749
 21
450.9975315848045
 31
0.0
  0
LINE
  5
352E
102
{ACAD_REACTORS
330
38D6
102
}
330
2
100
AcDbEntity
  8
KIJUN
100
AcDbLine
 10
129.7693358456749
 20
450.9975315848045
 30
0.0
 11
103.2693888455983
 21
453.0600115847905
 31
0.0
  0
LINE
  5
352F
102
{ACAD_REACTORS
330
38D6
102
}
330
2
100
AcDbEntity
  8
KIJUN
100
AcDbLine
 10
103.2693888455983
 20
453.0600115847905
 30
0.0
 11
80.66288084567394
 21
448.7385825847726
 31
0.0
  0
LINE
  5
3530
102
{ACAD_REACTORS
330
38D6
102
}
330
2
100
AcDbEntity
  8
KIJUN
100
AcDbLine
 10
80.66288084567394
 20
448.7385825847726
 30
0.0
 11
61.44727284567534
 21
442.1580775847965
 31
0.0
  0
LINE
  5
3531
102
{ACAD_REACTORS
330
38D6
102
}
330
2
100
AcDbEntity
  8
KIJUN
100
AcDbLine
 10
61.44727284567534
 20
442.1580775847965
 30
0.0
 11
48.25984684567129
 21
427.0319965847942
 31
0.0
  0
LINE
  5
3532
102
{ACAD_REACTORS
330
38D6
102
}
330
2
100
AcDbEntity
  8
KIJUN
100
AcDbLine
 10
48.25984684567129
 20
427.0319965847942
 30
0.0
 11
45.87389784568268
 21
408.2725725848054
 31
0.0
  0
LINE
  5
3533
102
{ACAD_REACTORS
330
38D6
102
}
330
2
100
AcDbEntity
  8
KIJUN
100
AcDbLine
 10
45.87389784568268
 20
408.2725725848054
 30
0.0
 11
56.29780384560627
 21
391.6735455847942
 31
0.0
  0
LINE
  5
3534
102
{ACAD_REACTORS
330
38D6
102
}
330
2
100
AcDbEntity
  8
KIJUN
100
AcDbLine
 10
274.7978748456521
 20
359.2588249178502
 30
0.0
 11
283.3826938456773
 21
359.2588249178502
 31
0.0
  0
LINE
  5
3535
102
{ACAD_REACTORS
330
38D6
102
}
330
2
100
AcDbEntity
  8
KIJUN
100
AcDbLine
 10
283.3826938456773
 20
359.2588249178502
 30
0.0
 11
291.9675128457025
 21
359.2588249178502
 31
0.0
  0
LINE
  5
3536
102
{ACAD_REACTORS
330
38D6
102
}
330
2
100
AcDbEntity
  8
KIJUN
100
AcDbLine
 10
291.9675128457025
 20
359.2588249178502
 30
0.0
 11
300.5524588456533
 21
359.2588249178502
 31
0.0
  0
LINE
  5
3537
102
{ACAD_REACTORS
330
38D6
102
}
330
2
100
AcDbEntity
  8
KIJUN
100
AcDbLine
 10
300.5524588456533
 20
359.2588249178502
 30
0.0
 11
309.1372778456794
 21
359.2588249178502
 31
0.0
  0
LINE
  5
3538
102
{ACAD_REACTORS
330
38D6
102
}
330
2
100
AcDbEntity
  8
KIJUN
100
AcDbLine
 10
309.1372778456794
 20
359.2588249178502
 30
0.0
 11
317.7220968457045
 21
359.2588249178502
 31
0.0
  0
LINE
  5
3539
102
{ACAD_REACTORS
330
38D6
102
}
330
2
100
AcDbEntity
  8
KIJUN
100
AcDbLine
 10
317.7220968457045
 20
359.2588249178502
 30
0.0
 11
326.3069158456206
 21
359.2588249178502
 31
0.0
  0
LINE
  5
353A
102
{ACAD_REACTORS
330
38D6
102
}
330
2
100
AcDbEntity
  8
KIJUN
100
AcDbLine
 10
326.3069158456206
 20
359.2588249178502
 30
0.0
 11
334.8918618456887
 21
359.2588249178502
 31
0.0
  0
LINE
  5
353B
102
{ACAD_REACTORS
330
38D6
102
}
330
2
100
AcDbEntity
  8
KIJUN
100
AcDbLine
 10
334.8918618456887
 20
359.2588249178502
 30
0.0
 11
343.4766808455893
 21
359.2588249178502
 31
0.0
  0
LINE
  5
353C
102
{ACAD_REACTORS
330
38D6
102
}
330
2
100
AcDbEntity
  8
KIJUN
100
AcDbLine
 10
343.4766808455893
 20
359.2588249178502
 30
0.0
 11
352.0614998456299
 21
359.2588249178502
 31
0.0
  0
LINE
  5
353D
102
{ACAD_REACTORS
330
38D6
102
}
330
2
100
AcDbEntity
  8
KIJUN
100
AcDbLine
 10
352.0614998456299
 20
359.2588249178502
 30
0.0
 11
360.6463188456542
 21
359.2588249178502
 31
0.0
  0
LINE
  5
353E
102
{ACAD_REACTORS
330
38D6
102
}
330
2
100
AcDbEntity
  8
KIJUN
100
AcDbLine
 10
360.6463188456542
 20
359.2588249178502
 30
0.0
 11
369.2312648455995
 21
359.2588249178502
 31
0.0
  0
LINE
  5
353F
102
{ACAD_REACTORS
330
38D6
102
}
330
2
100
AcDbEntity
  8
KIJUN
100
AcDbLine
 10
369.2312648455995
 20
359.2588249178502
 30
0.0
 11
377.8160838456311
 21
359.2588249178502
 31
0.0
  0
LINE
  5
3540
102
{ACAD_REACTORS
330
38D6
102
}
330
2
100
AcDbEntity
  8
KIJUN
100
AcDbLine
 10
377.8160838456311
 20
359.2588249178502
 30
0.0
 11
386.4010298456992
 21
359.2588249178502
 31
0.0
  0
LINE
  5
3541
102
{ACAD_REACTORS
330
38D6
102
}
330
2
100
AcDbEntity
  8
KIJUN
100
AcDbLine
 10
386.4010298456992
 20
359.2588249178502
 30
0.0
 11
394.9859758456519
 21
359.2588249178502
 31
0.0
  0
LINE
  5
3542
102
{ACAD_REACTORS
330
38D6
102
}
330
2
100
AcDbEntity
  8
KIJUN
100
AcDbLine
 10
394.9859758456519
 20
359.2588249178502
 30
0.0
 11
403.5709218456108
 21
359.2588249178502
 31
0.0
  0
LINE
  5
3543
102
{ACAD_REACTORS
330
38D6
102
}
330
2
100
AcDbEntity
  8
KIJUN
100
AcDbLine
 10
403.5709218456108
 20
359.2588249178502
 30
0.0
 11
412.1558678456717
 21
359.2588249178502
 31
0.0
  0
LINE
  5
3544
102
{ACAD_REACTORS
330
38D6
102
}
330
2
100
AcDbEntity
  8
KIJUN
100
AcDbLine
 10
412.1558678456717
 20
359.2588249178502
 30
0.0
 11
420.7406868456969
 21
359.2588249178502
 31
0.0
  0
LINE
  5
3545
102
{ACAD_REACTORS
330
38D6
102
}
330
2
100
AcDbEntity
  8
KIJUN
100
AcDbLine
 10
420.7406868456969
 20
359.2588249178502
 30
0.0
 11
429.3256328456559
 21
359.2588249178502
 31
0.0
  0
LINE
  5
3546
102
{ACAD_REACTORS
330
38D6
102
}
330
2
100
AcDbEntity
  8
KIJUN
100
AcDbLine
 10
429.3256328456559
 20
359.2588249178502
 30
0.0
 11
437.9105788456077
 21
359.2588249178502
 31
0.0
  0
LINE
  5
3547
102
{ACAD_REACTORS
330
38D6
102
}
330
2
100
AcDbEntity
  8
KIJUN
100
AcDbLine
 10
437.9105788456077
 20
359.2588249178502
 30
0.0
 11
446.4957788456526
 21
359.2588249178502
 31
0.0
  0
LINE
  5
3548
102
{ACAD_REACTORS
330
38D6
102
}
330
2
100
AcDbEntity
  8
KIJUN
100
AcDbLine
 10
446.4957788456526
 20
359.2588249178502
 30
0.0
 11
455.0811058456161
 21
359.2588249178502
 31
0.0
  0
LINE
  5
3549
102
{ACAD_REACTORS
330
38D6
102
}
330
2
100
AcDbEntity
  8
KIJUN
100
AcDbLine
 10
455.0811058456161
 20
359.2588249178502
 30
0.0
 11
463.666559845616
 21
359.2588249178502
 31
0.0
  0
LINE
  5
354A
102
{ACAD_REACTORS
330
38D6
102
}
330
2
100
AcDbEntity
  8
KIJUN
100
AcDbLine
 10
463.666559845616
 20
359.2588249178502
 30
0.0
 11
472.2522678456003
 21
359.2588249178502
 31
0.0
  0
LINE
  5
354B
102
{ACAD_REACTORS
330
38D6
102
}
330
2
100
AcDbEntity
  8
KIJUN
100
AcDbLine
 10
472.2522678456003
 20
359.2588249178502
 30
0.0
 11
480.8382298456704
 21
359.2588249178502
 31
0.0
  0
LINE
  5
354C
102
{ACAD_REACTORS
330
38D6
102
}
330
2
100
AcDbEntity
  8
KIJUN
100
AcDbLine
 10
480.8382298456704
 20
359.2588249178502
 30
0.0
 11
489.4245728456303
 21
359.2588249178502
 31
0.0
  0
LINE
  5
354D
102
{ACAD_REACTORS
330
38D6
102
}
330
2
100
AcDbEntity
  8
KIJUN
100
AcDbLine
 10
489.4245728456303
 20
359.2588249178502
 30
0.0
 11
498.0112968456082
 21
359.2588249178502
 31
0.0
  0
LINE
  5
354E
102
{ACAD_REACTORS
330
38D6
102
}
330
2
100
AcDbEntity
  8
KIJUN
100
AcDbLine
 10
498.0112968456082
 20
359.2588249178502
 30
0.0
 11
506.5984018456078
 21
359.2588249178502
 31
0.0
  0
LINE
  5
354F
102
{ACAD_REACTORS
330
38D6
102
}
330
2
100
AcDbEntity
  8
KIJUN
100
AcDbLine
 10
506.5984018456078
 20
359.2588249178502
 30
0.0
 11
515.1858878456119
 21
359.2588249178502
 31
0.0
  0
LINE
  5
3550
102
{ACAD_REACTORS
330
38D6
102
}
330
2
100
AcDbEntity
  8
KIJUN
100
AcDbLine
 10
515.1858878456119
 20
359.2588249178502
 30
0.0
 11
523.7740088455979
 21
359.2588249178502
 31
0.0
  0
LINE
  5
3551
102
{ACAD_REACTORS
330
38D6
102
}
330
2
100
AcDbEntity
  8
KIJUN
100
AcDbLine
 10
523.7740088455979
 20
359.2588249178502
 30
0.0
 11
532.362510845604
 21
359.2588249178502
 31
0.0
  0
LINE
  5
3552
102
{ACAD_REACTORS
330
38D6
102
}
330
2
100
AcDbEntity
  8
KIJUN
100
AcDbLine
 10
532.362510845604
 20
359.2588249178502
 30
0.0
 11
540.9516478457003
 21
359.2588249178502
 31
0.0
  0
LINE
  5
3553
102
{ACAD_REACTORS
330
38D6
102
}
330
2
100
AcDbEntity
  8
KIJUN
100
AcDbLine
 10
540.9516478457003
 20
359.2588249178502
 30
0.0
 11
542.5652938456628
 21
359.2588249178502
 31
0.0
  0
LINE
  5
3560
102
{ACAD_REACTORS
330
38D6
102
}
330
2
100
AcDbEntity
  8
KIJUN
100
AcDbLine
 10
542.5652938456628
 20
345.237011584772
 30
0.0
 11
540.9516478457003
 21
345.237011584772
 31
0.0
  0
LINE
  5
3561
102
{ACAD_REACTORS
330
38D6
102
}
330
2
100
AcDbEntity
  8
KIJUN
100
AcDbLine
 10
540.9516478457003
 20
345.237011584772
 30
0.0
 11
532.362510845604
 21
345.237011584772
 31
0.0
  0
LINE
  5
3562
102
{ACAD_REACTORS
330
38D6
102
}
330
2
100
AcDbEntity
  8
KIJUN
100
AcDbLine
 10
532.362510845604
 20
345.237011584772
 30
0.0
 11
523.7740088455979
 21
345.237011584772
 31
0.0
  0
LINE
  5
3563
102
{ACAD_REACTORS
330
38D6
102
}
330
2
100
AcDbEntity
  8
KIJUN
100
AcDbLine
 10
523.7740088455979
 20
345.237011584772
 30
0.0
 11
515.1858878456119
 21
345.237011584772
 31
0.0
  0
LINE
  5
3564
102
{ACAD_REACTORS
330
38D6
102
}
330
2
100
AcDbEntity
  8
KIJUN
100
AcDbLine
 10
515.1858878456119
 20
345.237011584772
 30
0.0
 11
506.5984018456078
 21
345.237011584772
 31
0.0
  0
LINE
  5
3565
102
{ACAD_REACTORS
330
38D6
102
}
330
2
100
AcDbEntity
  8
KIJUN
100
AcDbLine
 10
506.5984018456078
 20
345.237011584772
 30
0.0
 11
498.0112968456082
 21
345.237011584772
 31
0.0
  0
LINE
  5
3566
102
{ACAD_REACTORS
330
38D6
102
}
330
2
100
AcDbEntity
  8
KIJUN
100
AcDbLine
 10
498.0112968456082
 20
345.237011584772
 30
0.0
 11
489.4245728456303
 21
345.237011584772
 31
0.0
  0
LINE
  5
3567
102
{ACAD_REACTORS
330
38D6
102
}
330
2
100
AcDbEntity
  8
KIJUN
100
AcDbLine
 10
489.4245728456303
 20
345.237011584772
 30
0.0
 11
480.8382298456704
 21
345.237011584772
 31
0.0
  0
LINE
  5
3568
102
{ACAD_REACTORS
330
38D6
102
}
330
2
100
AcDbEntity
  8
KIJUN
100
AcDbLine
 10
480.8382298456704
 20
345.237011584772
 30
0.0
 11
472.2522678456003
 21
345.237011584772
 31
0.0
  0
LINE
  5
3569
102
{ACAD_REACTORS
330
38D6
102
}
330
2
100
AcDbEntity
  8
KIJUN
100
AcDbLine
 10
472.2522678456003
 20
345.237011584772
 30
0.0
 11
463.666559845616
 21
345.237011584772
 31
0.0
  0
LINE
  5
356A
102
{ACAD_REACTORS
330
38D6
102
}
330
2
100
AcDbEntity
  8
KIJUN
100
AcDbLine
 10
463.666559845616
 20
345.237011584772
 30
0.0
 11
455.0811058456161
 21
345.237011584772
 31
0.0
  0
LINE
  5
356B
102
{ACAD_REACTORS
330
38D6
102
}
330
2
100
AcDbEntity
  8
KIJUN
100
AcDbLine
 10
455.0811058456161
 20
345.237011584772
 30
0.0
 11
446.4957788456526
 21
345.237011584772
 31
0.0
  0
LINE
  5
356C
102
{ACAD_REACTORS
330
38D6
102
}
330
2
100
AcDbEntity
  8
KIJUN
100
AcDbLine
 10
446.4957788456526
 20
345.237011584772
 30
0.0
 11
437.9105788456077
 21
345.237011584772
 31
0.0
  0
LINE
  5
356D
102
{ACAD_REACTORS
330
38D6
102
}
330
2
100
AcDbEntity
  8
KIJUN
100
AcDbLine
 10
437.9105788456077
 20
345.237011584772
 30
0.0
 11
429.3256328456559
 21
345.237011584772
 31
0.0
  0
LINE
  5
356E
102
{ACAD_REACTORS
330
38D6
102
}
330
2
100
AcDbEntity
  8
KIJUN
100
AcDbLine
 10
429.3256328456559
 20
345.237011584772
 30
0.0
 11
420.7406868456969
 21
345.237011584772
 31
0.0
  0
LINE
  5
356F
102
{ACAD_REACTORS
330
38D6
102
}
330
2
100
AcDbEntity
  8
KIJUN
100
AcDbLine
 10
420.7406868456969
 20
345.237011584772
 30
0.0
 11
412.1558678456717
 21
345.237011584772
 31
0.0
  0
LINE
  5
3570
102
{ACAD_REACTORS
330
38D6
102
}
330
2
100
AcDbEntity
  8
KIJUN
100
AcDbLine
 10
412.1558678456717
 20
345.237011584772
 30
0.0
 11
403.5709218456108
 21
345.237011584772
 31
0.0
  0
LINE
  5
3571
102
{ACAD_REACTORS
330
38D6
102
}
330
2
100
AcDbEntity
  8
KIJUN
100
AcDbLine
 10
403.5709218456108
 20
345.237011584772
 30
0.0
 11
394.9859758456519
 21
345.237011584772
 31
0.0
  0
LINE
  5
3572
102
{ACAD_REACTORS
330
38D6
102
}
330
2
100
AcDbEntity
  8
KIJUN
100
AcDbLine
 10
394.9859758456519
 20
345.237011584772
 30
0.0
 11
386.4010298456992
 21
345.237011584772
 31
0.0
  0
LINE
  5
3573
102
{ACAD_REACTORS
330
38D6
102
}
330
2
100
AcDbEntity
  8
KIJUN
100
AcDbLine
 10
386.4010298456992
 20
345.237011584772
 30
0.0
 11
377.8160838456311
 21
345.237011584772
 31
0.0
  0
LINE
  5
3574
102
{ACAD_REACTORS
330
38D6
102
}
330
2
100
AcDbEntity
  8
KIJUN
100
AcDbLine
 10
377.8160838456311
 20
345.237011584772
 30
0.0
 11
369.2312648455995
 21
345.237011584772
 31
0.0
  0
LINE
  5
3575
102
{ACAD_REACTORS
330
38D6
102
}
330
2
100
AcDbEntity
  8
KIJUN
100
AcDbLine
 10
369.2312648455995
 20
345.237011584772
 30
0.0
 11
360.6463188456542
 21
345.237011584772
 31
0.0
  0
LINE
  5
3576
102
{ACAD_REACTORS
330
38D6
102
}
330
2
100
AcDbEntity
  8
KIJUN
100
AcDbLine
 10
360.6463188456542
 20
345.237011584772
 30
0.0
 11
352.0614998456299
 21
345.237011584772
 31
0.0
  0
LINE
  5
3577
102
{ACAD_REACTORS
330
38D6
102
}
330
2
100
AcDbEntity
  8
KIJUN
100
AcDbLine
 10
352.0614998456299
 20
345.237011584772
 30
0.0
 11
343.4766808455893
 21
345.237011584772
 31
0.0
  0
LINE
  5
3578
102
{ACAD_REACTORS
330
38D6
102
}
330
2
100
AcDbEntity
  8
KIJUN
100
AcDbLine
 10
343.4766808455893
 20
345.237011584772
 30
0.0
 11
334.8918618456887
 21
345.237011584772
 31
0.0
  0
LINE
  5
3579
102
{ACAD_REACTORS
330
38D6
102
}
330
2
100
AcDbEntity
  8
KIJUN
100
AcDbLine
 10
334.8918618456887
 20
345.237011584772
 30
0.0
 11
326.3069158456206
 21
345.237011584772
 31
0.0
  0
LINE
  5
357A
102
{ACAD_REACTORS
330
38D6
102
}
330
2
100
AcDbEntity
  8
KIJUN
100
AcDbLine
 10
326.3069158456206
 20
345.237011584772
 30
0.0
 11
317.7220968457045
 21
345.237011584772
 31
0.0
  0
LINE
  5
357B
102
{ACAD_REACTORS
330
38D6
102
}
330
2
100
AcDbEntity
  8
KIJUN
100
AcDbLine
 10
317.7220968457045
 20
345.237011584772
 30
0.0
 11
309.1372778456794
 21
345.237011584772
 31
0.0
  0
LINE
  5
357C
102
{ACAD_REACTORS
330
38D6
102
}
330
2
100
AcDbEntity
  8
KIJUN
100
AcDbLine
 10
309.1372778456794
 20
345.237011584772
 30
0.0
 11
300.5524588456533
 21
345.237011584772
 31
0.0
  0
LINE
  5
357D
102
{ACAD_REACTORS
330
38D6
102
}
330
2
100
AcDbEntity
  8
KIJUN
100
AcDbLine
 10
300.5524588456533
 20
345.237011584772
 30
0.0
 11
291.9675128457025
 21
345.237011584772
 31
0.0
  0
LINE
  5
357E
102
{ACAD_REACTORS
330
38D6
102
}
330
2
100
AcDbEntity
  8
KIJUN
100
AcDbLine
 10
291.9675128457025
 20
345.237011584772
 30
0.0
 11
283.3826938456773
 21
345.237011584772
 31
0.0
  0
LINE
  5
357F
102
{ACAD_REACTORS
330
38D6
102
}
330
2
100
AcDbEntity
  8
KIJUN
100
AcDbLine
 10
283.3826938456773
 20
345.237011584772
 30
0.0
 11
274.7978748456521
 21
345.237011584772
 31
0.0
  0
LINE
  5
3580
102
{ACAD_REACTORS
330
38D6
102
}
330
2
100
AcDbEntity
  8
KIJUN
100
AcDbLine
 10
274.7978748456521
 20
345.237011584772
 30
0.0
 11
274.3142588456035
 21
345.2888275847567
 31
0.0
  0
LINE
  5
3581
102
{ACAD_REACTORS
330
38D6
102
}
330
2
100
AcDbEntity
  8
KIJUN
100
AcDbLine
 10
274.3142588456035
 20
345.2888275847567
 30
0.0
 11
273.6407778456055
 21
345.4436405847876
 31
0.0
  0
LINE
  5
3582
102
{ACAD_REACTORS
330
38D6
102
}
330
2
100
AcDbEntity
  8
KIJUN
100
AcDbLine
 10
273.6407778456055
 20
345.4436405847876
 30
0.0
 11
272.9507868456935
 21
345.7005615847879
 31
0.0
  0
LINE
  5
3583
102
{ACAD_REACTORS
330
38D6
102
}
330
2
100
AcDbEntity
  8
KIJUN
100
AcDbLine
 10
272.9507868456935
 20
345.7005615847879
 30
0.0
 11
270.9026578455964
 21
346.8420375847913
 31
0.0
  0
LINE
  5
3584
102
{ACAD_REACTORS
330
38D6
102
}
330
2
100
AcDbEntity
  8
KIJUN
100
AcDbLine
 10
270.9026578455964
 20
346.8420375847913
 30
0.0
 11
269.5267398456276
 21
348.0332975847836
 31
0.0
  0
LINE
  5
3585
102
{ACAD_REACTORS
330
38D6
102
}
330
2
100
AcDbEntity
  8
KIJUN
100
AcDbLine
 10
269.5267398456276
 20
348.0332975847836
 30
0.0
 11
269.0233118456895
 21
349.261514584758
 31
0.0
  0
LINE
  5
3586
102
{ACAD_REACTORS
330
38D6
102
}
330
2
100
AcDbEntity
  8
KIJUN
100
AcDbLine
 10
269.0233118456895
 20
349.261514584758
 30
0.0
 11
269.5258508456832
 21
350.497224584788
 31
0.0
  0
LINE
  5
3587
102
{ACAD_REACTORS
330
38D6
102
}
330
2
100
AcDbEntity
  8
KIJUN
100
AcDbLine
 10
269.5258508456832
 20
350.497224584788
 30
0.0
 11
270.9010068456123
 21
351.7089315847774
 31
0.0
  0
LINE
  5
3588
102
{ACAD_REACTORS
330
38D6
102
}
330
2
100
AcDbEntity
  8
KIJUN
100
AcDbLine
 10
270.9010068456123
 20
351.7089315847774
 30
0.0
 11
272.9488818456307
 21
352.8900315847991
 31
0.0
  0
LINE
  5
3589
102
{ACAD_REACTORS
330
38D6
102
}
330
2
100
AcDbEntity
  8
KIJUN
100
AcDbLine
 10
272.9488818456307
 20
352.8900315847991
 30
0.0
 11
273.6392538456716
 21
359.0321299178672
 31
0.0
  0
LINE
  5
358A
102
{ACAD_REACTORS
330
38D6
102
}
330
2
100
AcDbEntity
  8
KIJUN
100
AcDbLine
 10
273.6392538456716
 20
359.0321299178672
 30
0.0
 11
274.3136238456141
 21
359.2009129178245
 31
0.0
  0
LINE
  5
358B
102
{ACAD_REACTORS
330
38D6
102
}
330
2
100
AcDbEntity
  8
KIJUN
100
AcDbLine
 10
274.3136238456141
 20
359.2009129178245
 30
0.0
 11
274.7978748456521
 21
359.2588249178502
 31
0.0
  0
LINE
  5
358C
102
{ACAD_REACTORS
330
38D6
102
}
330
2
100
AcDbEntity
  8
KIJUN
100
AcDbLine
 10
319.1077938456297
 20
370.4252999178347
 30
0.0
 11
327.9542328456305
 21
370.4252999178347
 31
0.0
  0
LINE
  5
358D
102
{ACAD_REACTORS
330
38D6
102
}
330
2
100
AcDbEntity
  8
KIJUN
100
AcDbLine
 10
327.9542328456305
 20
370.4252999178347
 30
0.0
 11
336.8023228456154
 21
370.4252999178347
 31
0.0
  0
LINE
  5
358E
102
{ACAD_REACTORS
330
38D6
102
}
330
2
100
AcDbEntity
  8
KIJUN
100
AcDbLine
 10
336.8023228456154
 20
370.4252999178347
 30
0.0
 11
345.6520638457009
 21
370.4252999178347
 31
0.0
  0
LINE
  5
358F
102
{ACAD_REACTORS
330
38D6
102
}
330
2
100
AcDbEntity
  8
KIJUN
100
AcDbLine
 10
345.6520638457009
 20
370.4252999178347
 30
0.0
 11
354.5033288456039
 21
370.4252999178347
 31
0.0
  0
LINE
  5
3590
102
{ACAD_REACTORS
330
38D6
102
}
330
2
100
AcDbEntity
  8
KIJUN
100
AcDbLine
 10
354.5033288456039
 20
370.4252999178347
 30
0.0
 11
363.3563718456358
 21
370.4252999178347
 31
0.0
  0
LINE
  5
3591
102
{ACAD_REACTORS
330
38D6
102
}
330
2
100
AcDbEntity
  8
KIJUN
100
AcDbLine
 10
363.3563718456358
 20
370.4252999178347
 30
0.0
 11
372.2109388456161
 21
370.4252999178347
 31
0.0
  0
LINE
  5
3592
102
{ACAD_REACTORS
330
38D6
102
}
330
2
100
AcDbEntity
  8
KIJUN
100
AcDbLine
 10
372.2109388456161
 20
370.4252999178347
 30
0.0
 11
381.0671568456969
 21
370.4252999178347
 31
0.0
  0
LINE
  5
3593
102
{ACAD_REACTORS
330
38D6
102
}
330
2
100
AcDbEntity
  8
KIJUN
100
AcDbLine
 10
381.0671568456969
 20
370.4252999178347
 30
0.0
 11
389.9250258456373
 21
370.4252999178347
 31
0.0
  0
LINE
  5
3594
102
{ACAD_REACTORS
330
38D6
102
}
330
2
100
AcDbEntity
  8
KIJUN
100
AcDbLine
 10
389.9250258456373
 20
370.4252999178347
 30
0.0
 11
398.78454584568
 21
370.4252999178347
 31
0.0
  0
LINE
  5
3595
102
{ACAD_REACTORS
330
38D6
102
}
330
2
100
AcDbEntity
  8
KIJUN
100
AcDbLine
 10
398.78454584568
 20
370.4252999178347
 30
0.0
 11
407.6455898456556
 21
370.4252999178347
 31
0.0
  0
LINE
  5
3596
102
{ACAD_REACTORS
330
38D6
102
}
330
2
100
AcDbEntity
  8
KIJUN
100
AcDbLine
 10
407.6455898456556
 20
370.4252999178347
 30
0.0
 11
416.5084118456584
 21
370.4252999178347
 31
0.0
  0
LINE
  5
3597
102
{ACAD_REACTORS
330
38D6
102
}
330
2
100
AcDbEntity
  8
KIJUN
100
AcDbLine
 10
416.5084118456584
 20
370.4252999178347
 30
0.0
 11
425.3727578456014
 21
370.4252999178347
 31
0.0
  0
LINE
  5
3598
102
{ACAD_REACTORS
330
38D6
102
}
330
2
100
AcDbEntity
  8
KIJUN
100
AcDbLine
 10
425.3727578456014
 20
370.4252999178347
 30
0.0
 11
434.2388818456824
 21
370.4252999178347
 31
0.0
  0
LINE
  5
3599
102
{ACAD_REACTORS
330
38D6
102
}
330
2
100
AcDbEntity
  8
KIJUN
100
AcDbLine
 10
434.2388818456824
 20
370.4252999178347
 30
0.0
 11
443.0905278455907
 21
370.4252999178347
 31
0.0
  0
LINE
  5
359A
102
{ACAD_REACTORS
330
38D6
102
}
330
2
100
AcDbEntity
  8
KIJUN
100
AcDbLine
 10
443.0905278455907
 20
370.4252999178347
 30
0.0
 11
451.944078845699
 21
370.4252999178347
 31
0.0
  0
LINE
  5
359B
102
{ACAD_REACTORS
330
38D6
102
}
330
2
100
AcDbEntity
  8
KIJUN
100
AcDbLine
 10
451.944078845699
 20
370.4252999178347
 30
0.0
 11
460.7992808456542
 21
370.4252999178347
 31
0.0
  0
LINE
  5
359C
102
{ACAD_REACTORS
330
38D6
102
}
330
2
100
AcDbEntity
  8
KIJUN
100
AcDbLine
 10
460.7992808456542
 20
370.4252999178347
 30
0.0
 11
469.6562608456447
 21
370.4252999178347
 31
0.0
  0
LINE
  5
359D
102
{ACAD_REACTORS
330
38D6
102
}
330
2
100
AcDbEntity
  8
KIJUN
100
AcDbLine
 10
469.6562608456447
 20
370.4252999178347
 30
0.0
 11
478.5151458456962
 21
370.4252999178347
 31
0.0
  0
LINE
  5
359E
102
{ACAD_REACTORS
330
38D6
102
}
330
2
100
AcDbEntity
  8
KIJUN
100
AcDbLine
 10
478.5151458456962
 20
370.4252999178347
 30
0.0
 11
487.3760628456361
 21
370.4252999178347
 31
0.0
  0
LINE
  5
359F
102
{ACAD_REACTORS
330
38D6
102
}
330
2
100
AcDbEntity
  8
KIJUN
100
AcDbLine
 10
487.3760628456361
 20
370.4252999178347
 30
0.0
 11
496.2388848456398
 21
370.4252999178347
 31
0.0
  0
LINE
  5
35A0
102
{ACAD_REACTORS
330
38D6
102
}
330
2
100
AcDbEntity
  8
KIJUN
100
AcDbLine
 10
496.2388848456398
 20
370.4252999178347
 30
0.0
 11
505.1038658456823
 21
370.4252999178347
 31
0.0
  0
LINE
  5
35A1
102
{ACAD_REACTORS
330
38D6
102
}
330
2
100
AcDbEntity
  8
KIJUN
100
AcDbLine
 10
505.1038658456823
 20
370.4252999178347
 30
0.0
 11
513.9708788455977
 21
370.4252999178347
 31
0.0
  0
LINE
  5
35A2
102
{ACAD_REACTORS
330
38D6
102
}
330
2
100
AcDbEntity
  8
KIJUN
100
AcDbLine
 10
513.9708788455977
 20
370.4252999178347
 30
0.0
 11
522.8401778456031
 21
370.4252999178347
 31
0.0
  0
LINE
  5
35A3
102
{ACAD_REACTORS
330
38D6
102
}
330
2
100
AcDbEntity
  8
KIJUN
100
AcDbLine
 10
522.8401778456031
 20
370.4252999178347
 30
0.0
 11
531.7117628456831
 21
370.4252999178347
 31
0.0
  0
LINE
  5
35A4
102
{ACAD_REACTORS
330
38D6
102
}
330
2
100
AcDbEntity
  8
KIJUN
100
AcDbLine
 10
531.7117628456831
 20
370.4252999178347
 30
0.0
 11
540.5856338456219
 21
370.4252999178347
 31
0.0
  0
LINE
  5
35A5
102
{ACAD_REACTORS
330
38D6
102
}
330
2
100
AcDbEntity
  8
KIJUN
100
AcDbLine
 10
540.5856338456219
 20
370.4252999178347
 30
0.0
 11
542.5652938456628
 21
370.4252999178347
 31
0.0
  0
LINE
  5
35AC
102
{ACAD_REACTORS
330
38D6
102
}
330
2
100
AcDbEntity
  8
KIJUN
100
AcDbLine
 10
542.5652938456628
 20
367.1838789178578
 30
0.0
 11
540.5856338456219
 21
367.1838789178578
 31
0.0
  0
LINE
  5
35AD
102
{ACAD_REACTORS
330
38D6
102
}
330
2
100
AcDbEntity
  8
KIJUN
100
AcDbLine
 10
540.5856338456219
 20
367.1838789178578
 30
0.0
 11
531.7117628456831
 21
367.1838789178578
 31
0.0
  0
LINE
  5
35AE
102
{ACAD_REACTORS
330
38D6
102
}
330
2
100
AcDbEntity
  8
KIJUN
100
AcDbLine
 10
531.7117628456831
 20
367.1838789178578
 30
0.0
 11
522.8401778456031
 21
367.1838789178578
 31
0.0
  0
LINE
  5
35AF
102
{ACAD_REACTORS
330
38D6
102
}
330
2
100
AcDbEntity
  8
KIJUN
100
AcDbLine
 10
522.8401778456031
 20
367.1838789178578
 30
0.0
 11
513.9708788455977
 21
367.1838789178578
 31
0.0
  0
LINE
  5
35B0
102
{ACAD_REACTORS
330
38D6
102
}
330
2
100
AcDbEntity
  8
KIJUN
100
AcDbLine
 10
513.9708788455977
 20
367.1838789178578
 30
0.0
 11
505.1038658456823
 21
367.1838789178578
 31
0.0
  0
LINE
  5
35B1
102
{ACAD_REACTORS
330
38D6
102
}
330
2
100
AcDbEntity
  8
KIJUN
100
AcDbLine
 10
505.1038658456823
 20
367.1838789178578
 30
0.0
 11
496.2388848456398
 21
367.1838789178578
 31
0.0
  0
LINE
  5
35B2
102
{ACAD_REACTORS
330
38D6
102
}
330
2
100
AcDbEntity
  8
KIJUN
100
AcDbLine
 10
496.2388848456398
 20
367.1838789178578
 30
0.0
 11
487.3760628456361
 21
367.1838789178578
 31
0.0
  0
LINE
  5
35B3
102
{ACAD_REACTORS
330
38D6
102
}
330
2
100
AcDbEntity
  8
KIJUN
100
AcDbLine
 10
487.3760628456361
 20
367.1838789178578
 30
0.0
 11
478.5151458456962
 21
367.1838789178578
 31
0.0
  0
LINE
  5
35B4
102
{ACAD_REACTORS
330
38D6
102
}
330
2
100
AcDbEntity
  8
KIJUN
100
AcDbLine
 10
478.5151458456962
 20
367.1838789178578
 30
0.0
 11
469.6562608456447
 21
367.1838789178578
 31
0.0
  0
LINE
  5
35B5
102
{ACAD_REACTORS
330
38D6
102
}
330
2
100
AcDbEntity
  8
KIJUN
100
AcDbLine
 10
469.6562608456447
 20
367.1838789178578
 30
0.0
 11
460.7992808456542
 21
367.1838789178578
 31
0.0
  0
LINE
  5
35B6
102
{ACAD_REACTORS
330
38D6
102
}
330
2
100
AcDbEntity
  8
KIJUN
100
AcDbLine
 10
460.7992808456542
 20
367.1838789178578
 30
0.0
 11
451.944078845699
 21
367.1838789178578
 31
0.0
  0
LINE
  5
35B7
102
{ACAD_REACTORS
330
38D6
102
}
330
2
100
AcDbEntity
  8
KIJUN
100
AcDbLine
 10
451.944078845699
 20
367.1838789178578
 30
0.0
 11
443.0905278455907
 21
367.1838789178578
 31
0.0
  0
LINE
  5
35B8
102
{ACAD_REACTORS
330
38D6
102
}
330
2
100
AcDbEntity
  8
KIJUN
100
AcDbLine
 10
443.0905278455907
 20
367.1838789178578
 30
0.0
 11
434.2388818456824
 21
367.1838789178578
 31
0.0
  0
LINE
  5
35B9
102
{ACAD_REACTORS
330
38D6
102
}
330
2
100
AcDbEntity
  8
KIJUN
100
AcDbLine
 10
434.2388818456824
 20
367.1838789178578
 30
0.0
 11
425.3727578456014
 21
367.1838789178578
 31
0.0
  0
LINE
  5
35BA
102
{ACAD_REACTORS
330
38D6
102
}
330
2
100
AcDbEntity
  8
KIJUN
100
AcDbLine
 10
425.3727578456014
 20
367.1838789178578
 30
0.0
 11
416.5084118456584
 21
367.1838789178578
 31
0.0
  0
LINE
  5
35BB
102
{ACAD_REACTORS
330
38D6
102
}
330
2
100
AcDbEntity
  8
KIJUN
100
AcDbLine
 10
416.5084118456584
 20
367.1838789178578
 30
0.0
 11
407.6455898456556
 21
367.1838789178578
 31
0.0
  0
LINE
  5
35BC
102
{ACAD_REACTORS
330
38D6
102
}
330
2
100
AcDbEntity
  8
KIJUN
100
AcDbLine
 10
407.6455898456556
 20
367.1838789178578
 30
0.0
 11
398.78454584568
 21
367.1838789178578
 31
0.0
  0
LINE
  5
35BD
102
{ACAD_REACTORS
330
38D6
102
}
330
2
100
AcDbEntity
  8
KIJUN
100
AcDbLine
 10
398.78454584568
 20
367.1838789178578
 30
0.0
 11
389.9250258456373
 21
367.1838789178578
 31
0.0
  0
LINE
  5
35BE
102
{ACAD_REACTORS
330
38D6
102
}
330
2
100
AcDbEntity
  8
KIJUN
100
AcDbLine
 10
389.9250258456373
 20
367.1838789178578
 30
0.0
 11
381.0671568456969
 21
367.1838789178578
 31
0.0
  0
LINE
  5
35BF
102
{ACAD_REACTORS
330
38D6
102
}
330
2
100
AcDbEntity
  8
KIJUN
100
AcDbLine
 10
381.0671568456969
 20
367.1838789178578
 30
0.0
 11
372.2109388456161
 21
367.1838789178578
 31
0.0
  0
LINE
  5
35C0
102
{ACAD_REACTORS
330
38D6
102
}
330
2
100
AcDbEntity
  8
KIJUN
100
AcDbLine
 10
372.2109388456161
 20
367.1838789178578
 30
0.0
 11
363.3563718456358
 21
367.1838789178578
 31
0.0
  0
LINE
  5
35C1
102
{ACAD_REACTORS
330
38D6
102
}
330
2
100
AcDbEntity
  8
KIJUN
100
AcDbLine
 10
363.3563718456358
 20
367.1838789178578
 30
0.0
 11
354.5033288456039
 21
367.1838789178578
 31
0.0
  0
LINE
  5
35C2
102
{ACAD_REACTORS
330
38D6
102
}
330
2
100
AcDbEntity
  8
KIJUN
100
AcDbLine
 10
354.5033288456039
 20
367.1838789178578
 30
0.0
 11
345.6520638457009
 21
367.1838789178578
 31
0.0
  0
LINE
  5
35C3
102
{ACAD_REACTORS
330
38D6
102
}
330
2
100
AcDbEntity
  8
KIJUN
100
AcDbLine
 10
345.6520638457009
 20
367.1838789178578
 30
0.0
 11
336.8023228456154
 21
367.1838789178578
 31
0.0
  0
LINE
  5
35C4
102
{ACAD_REACTORS
330
38D6
102
}
330
2
100
AcDbEntity
  8
KIJUN
100
AcDbLine
 10
336.8023228456154
 20
367.1838789178578
 30
0.0
 11
327.9542328456305
 21
367.1838789178578
 31
0.0
  0
LINE
  5
35C5
102
{ACAD_REACTORS
330
38D6
102
}
330
2
100
AcDbEntity
  8
KIJUN
100
AcDbLine
 10
327.9542328456305
 20
367.1838789178578
 30
0.0
 11
319.1077938456297
 21
367.1838789178578
 31
0.0
  0
LINE
  5
35C6
102
{ACAD_REACTORS
330
38D6
102
}
330
2
100
AcDbEntity
  8
KIJUN
100
AcDbLine
 10
319.1077938456297
 20
367.1838789178578
 30
0.0
 11
316.9816868456987
 21
367.6798139178639
 31
0.0
  0
LINE
  5
35C7
102
{ACAD_REACTORS
330
38D6
102
}
330
2
100
AcDbEntity
  8
KIJUN
100
AcDbLine
 10
316.9816868456987
 20
367.6798139178639
 30
0.0
 11
315.5430308456348
 21
368.1815909178244
 31
0.0
  0
LINE
  5
35C8
102
{ACAD_REACTORS
330
38D6
102
}
330
2
100
AcDbEntity
  8
KIJUN
100
AcDbLine
 10
315.5430308456348
 20
368.1815909178244
 30
0.0
 11
315.0138218456263
 21
368.7548689178425
 31
0.0
  0
LINE
  5
35C9
102
{ACAD_REACTORS
330
38D6
102
}
330
2
100
AcDbEntity
  8
KIJUN
100
AcDbLine
 10
315.0138218456263
 20
368.7548689178425
 30
0.0
 11
315.5422688456097
 21
369.358880917825
 31
0.0
  0
LINE
  5
35CA
102
{ACAD_REACTORS
330
38D6
102
}
330
2
100
AcDbEntity
  8
KIJUN
100
AcDbLine
 10
315.5422688456097
 20
369.358880917825
 30
0.0
 11
316.9807978456306
 21
369.8889789178415
 31
0.0
  0
LINE
  5
35CB
102
{ACAD_REACTORS
330
38D6
102
}
330
2
100
AcDbEntity
  8
KIJUN
100
AcDbLine
 10
316.9807978456306
 20
369.8889789178415
 30
0.0
 11
319.1077938456297
 21
370.4252999178347
 31
0.0
  0
LINE
  5
35CC
102
{ACAD_REACTORS
330
38D6
102
}
330
2
100
AcDbEntity
  8
KIJUN
100
AcDbLine
 10
118.0463468456878
 20
406.5665815847954
 30
0.0
 11
122.5678008456748
 21
404.6020185848014
 31
0.0
  0
LINE
  5
35CD
102
{ACAD_REACTORS
330
38D6
102
}
330
2
100
AcDbEntity
  8
KIJUN
100
AcDbLine
 10
122.5678008456748
 20
404.6020185848014
 30
0.0
 11
126.9633978456845
 21
404.5039745847592
 31
0.0
  0
LINE
  5
35CE
102
{ACAD_REACTORS
330
38D6
102
}
330
2
100
AcDbEntity
  8
KIJUN
100
AcDbLine
 10
126.9633978456845
 20
404.5039745847592
 30
0.0
 11
128.8473158456331
 21
404.9950835848052
 31
0.0
  0
LINE
  5
35CF
102
{ACAD_REACTORS
330
38D6
102
}
330
2
100
AcDbEntity
  8
KIJUN
100
AcDbLine
 10
128.8473158456331
 20
404.9950835848052
 30
0.0
 11
133.3688968456631
 21
406.5665815847954
 31
0.0
  0
LINE
  5
35D0
102
{ACAD_REACTORS
330
38D6
102
}
330
2
100
AcDbEntity
  8
KIJUN
100
AcDbLine
 10
133.3688968456631
 20
406.5665815847954
 30
0.0
 11
137.1363518456715
 21
409.0219995848005
 31
0.0
  0
LINE
  5
35D1
102
{ACAD_REACTORS
330
38D6
102
}
330
2
100
AcDbEntity
  8
KIJUN
100
AcDbLine
 10
137.1363518456715
 20
409.0219995848005
 30
0.0
 11
139.7738878455934
 21
413.6380685847675
 31
0.0
  0
LINE
  5
35D2
102
{ACAD_REACTORS
330
38D6
102
}
330
2
100
AcDbEntity
  8
KIJUN
100
AcDbLine
 10
139.7738878455934
 20
413.6380685847675
 30
0.0
 11
140.5087098456792
 21
414.8385995847843
 31
0.0
  0
LINE
  5
35D3
102
{ACAD_REACTORS
330
38D6
102
}
330
2
100
AcDbEntity
  8
KIJUN
100
AcDbLine
 10
140.5087098456792
 20
414.8385995847843
 30
0.0
 11
140.7971268455953
 21
416.2355995847815
 31
0.0
  0
LINE
  5
35D4
102
{ACAD_REACTORS
330
38D6
102
}
330
2
100
AcDbEntity
  8
KIJUN
100
AcDbLine
 10
140.7971268455953
 20
416.2355995847815
 30
0.0
 11
140.7783308457005
 21
417.7635365848095
 31
0.0
  0
LINE
  5
35D5
102
{ACAD_REACTORS
330
38D6
102
}
330
2
100
AcDbEntity
  8
KIJUN
100
AcDbLine
 10
140.7783308457005
 20
417.7635365848095
 30
0.0
 11
140.7783308457005
 21
420.1243395847836
 31
0.0
  0
LINE
  5
35D6
102
{ACAD_REACTORS
330
38D6
102
}
330
2
100
AcDbEntity
  8
KIJUN
100
AcDbLine
 10
140.7783308457005
 20
420.1243395847836
 30
0.0
 11
140.7783308457005
 21
422.5071135848033
 31
0.0
  0
LINE
  5
35D7
102
{ACAD_REACTORS
330
38D6
102
}
330
2
100
AcDbEntity
  8
KIJUN
100
AcDbLine
 10
140.7783308457005
 20
422.5071135848033
 30
0.0
 11
140.7783308457005
 21
424.9335755847701
 31
0.0
  0
LINE
  5
35D8
102
{ACAD_REACTORS
330
38D6
102
}
330
2
100
AcDbEntity
  8
KIJUN
100
AcDbLine
 10
140.7783308457005
 20
424.9335755847701
 30
0.0
 11
137.3873038456154
 21
433.4785165848065
 31
0.0
  0
LINE
  5
35D9
102
{ACAD_REACTORS
330
38D6
102
}
330
2
100
AcDbEntity
  8
KIJUN
100
AcDbLine
 10
137.3873038456154
 20
433.4785165848065
 30
0.0
 11
134.3733398456538
 21
437.3089635847704
 31
0.0
  0
LINE
  5
35DA
102
{ACAD_REACTORS
330
38D6
102
}
330
2
100
AcDbEntity
  8
KIJUN
100
AcDbLine
 10
134.3733398456538
 20
437.3089635847704
 30
0.0
 11
130.4797738456986
 21
440.6480475847697
 31
0.0
  0
LINE
  5
35DB
102
{ACAD_REACTORS
330
38D6
102
}
330
2
100
AcDbEntity
  8
KIJUN
100
AcDbLine
 10
130.4797738456986
 20
440.6480475847697
 30
0.0
 11
126.4608588456908
 21
443.3000615848054
 31
0.0
  0
LINE
  5
35DC
102
{ACAD_REACTORS
330
38D6
102
}
330
2
100
AcDbEntity
  8
KIJUN
100
AcDbLine
 10
126.4608588456908
 20
443.3000615848054
 30
0.0
 11
120.6838828456098
 21
446.4430575847785
 31
0.0
  0
LINE
  5
35DD
102
{ACAD_REACTORS
330
38D6
102
}
330
2
100
AcDbEntity
  8
KIJUN
100
AcDbLine
 10
120.6838828456098
 20
446.4430575847785
 30
0.0
 11
114.906271845663
 21
448.9965195847758
 31
0.0
  0
LINE
  5
35DE
102
{ACAD_REACTORS
330
38D6
102
}
330
2
100
AcDbEntity
  8
KIJUN
100
AcDbLine
 10
114.906271845663
 20
448.9965195847758
 30
0.0
 11
109.1292958456911
 21
450.9610825847635
 31
0.0
  0
LINE
  5
35DF
102
{ACAD_REACTORS
330
38D6
102
}
330
2
100
AcDbEntity
  8
KIJUN
100
AcDbLine
 10
109.1292958456911
 20
450.9610825847635
 30
0.0
 11
103.1008598456033
 21
452.1395155848062
 31
0.0
  0
LINE
  5
35E0
102
{ACAD_REACTORS
330
38D6
102
}
330
2
100
AcDbEntity
  8
KIJUN
100
AcDbLine
 10
103.1008598456033
 20
452.1395155848062
 30
0.0
 11
96.3188058456658
 21
452.6310055848066
 31
0.0
  0
LINE
  5
35E1
102
{ACAD_REACTORS
330
38D6
102
}
330
2
100
AcDbEntity
  8
KIJUN
100
AcDbLine
 10
96.3188058456658
 20
452.6310055848066
 30
0.0
 11
90.54182984569388
 21
452.6310055848066
 31
0.0
  0
LINE
  5
35E2
102
{ACAD_REACTORS
330
38D6
102
}
330
2
100
AcDbEntity
  8
KIJUN
100
AcDbLine
 10
90.54182984569388
 20
452.6310055848066
 30
0.0
 11
85.14128184564516
 21
452.3359845847866
 31
0.0
  0
LINE
  5
35E3
102
{ACAD_REACTORS
330
38D6
102
}
330
2
100
AcDbEntity
  8
KIJUN
100
AcDbLine
 10
85.14128184564516
 20
452.3359845847866
 30
0.0
 11
79.61538484566017
 21
451.6485335848033
 31
0.0
  0
LINE
  5
35E4
102
{ACAD_REACTORS
330
38D6
102
}
330
2
100
AcDbEntity
  8
KIJUN
100
AcDbLine
 10
79.61538484566017
 20
451.6485335848033
 30
0.0
 11
75.721818845705
 21
450.9610825847635
 31
0.0
  0
LINE
  5
35E5
102
{ACAD_REACTORS
330
38D6
102
}
330
2
100
AcDbEntity
  8
KIJUN
100
AcDbLine
 10
75.721818845705
 20
450.9610825847635
 30
0.0
 11
69.94484284562395
 21
449.2915405847947
 31
0.0
  0
LINE
  5
35E6
102
{ACAD_REACTORS
330
38D6
102
}
330
2
100
AcDbEntity
  8
KIJUN
100
AcDbLine
 10
69.94484284562395
 20
449.2915405847947
 30
0.0
 11
65.29778584561473
 21
447.6214905847659
 31
0.0
  0
LINE
  5
35E7
102
{ACAD_REACTORS
330
38D6
102
}
330
2
100
AcDbEntity
  8
KIJUN
100
AcDbLine
 10
65.29778584561473
 20
447.6214905847659
 30
0.0
 11
61.40434684569527
 21
445.6575625847531
 31
0.0
  0
LINE
  5
35E8
102
{ACAD_REACTORS
330
38D6
102
}
330
2
100
AcDbEntity
  8
KIJUN
100
AcDbLine
 10
61.40434684569527
 20
445.6575625847531
 30
0.0
 11
57.76236784566617
 21
443.4965305847785
 31
0.0
  0
LINE
  5
35E9
102
{ACAD_REACTORS
330
38D6
102
}
330
2
100
AcDbEntity
  8
KIJUN
100
AcDbLine
 10
57.76236784566617
 20
443.4965305847785
 30
0.0
 11
54.11988084569793
 21
440.9430685847896
 31
0.0
  0
LINE
  5
35EA
102
{ACAD_REACTORS
330
38D6
102
}
330
2
100
AcDbEntity
  8
KIJUN
100
AcDbLine
 10
54.11988084569793
 20
440.9430685847896
 30
0.0
 11
51.73380484565905
 21
438.7820365847568
 31
0.0
  0
LINE
  5
35EB
102
{ACAD_REACTORS
330
38D6
102
}
330
2
100
AcDbEntity
  8
KIJUN
100
AcDbLine
 10
51.73380484565905
 20
438.7820365847568
 30
0.0
 11
49.59880784559982
 21
436.3264915847671
 31
0.0
  0
LINE
  5
35EC
102
{ACAD_REACTORS
330
38D6
102
}
330
2
100
AcDbEntity
  8
KIJUN
100
AcDbLine
 10
49.59880784559982
 20
436.3264915847671
 30
0.0
 11
47.96584184559515
 21
433.9694985847512
 31
0.0
  0
LINE
  5
35ED
102
{ACAD_REACTORS
330
38D6
102
}
330
2
100
AcDbEntity
  8
KIJUN
100
AcDbLine
 10
47.96584184559515
 20
433.9694985847512
 30
0.0
 11
46.83579584570589
 21
431.6119975848037
 31
0.0
  0
LINE
  5
35EE
102
{ACAD_REACTORS
330
38D6
102
}
330
2
100
AcDbEntity
  8
KIJUN
100
AcDbLine
 10
46.83579584570589
 20
431.6119975848037
 30
0.0
 11
45.57989284559198
 21
429.9425825847561
 31
0.0
  0
LINE
  5
35EF
102
{ACAD_REACTORS
330
38D6
102
}
330
2
100
AcDbEntity
  8
KIJUN
100
AcDbLine
 10
45.57989284559198
 20
429.9425825847561
 30
0.0
 11
44.7007988456612
 21
427.0939725847624
 31
0.0
  0
LINE
  5
35F0
102
{ACAD_REACTORS
330
38D6
102
}
330
2
100
AcDbEntity
  8
KIJUN
100
AcDbLine
 10
44.7007988456612
 20
427.0939725847624
 30
0.0
 11
43.44489584566372
 21
424.1475725848053
 31
0.0
  0
LINE
  5
35F1
102
{ACAD_REACTORS
330
38D6
102
}
330
2
100
AcDbEntity
  8
KIJUN
100
AcDbLine
 10
43.44489584566372
 20
424.1475725848053
 30
0.0
 11
42.81688084569805
 21
419.9240605847794
 31
0.0
  0
LINE
  5
35F2
102
{ACAD_REACTORS
330
38D6
102
}
330
2
100
AcDbEntity
  8
KIJUN
100
AcDbLine
 10
42.81688084569805
 20
419.9240605847794
 30
0.0
 11
42.56529384566284
 21
416.093486584788
 31
0.0
  0
LINE
  5
35F3
102
{ACAD_REACTORS
330
38D6
102
}
330
2
100
AcDbEntity
  8
KIJUN
100
AcDbLine
 10
42.56529384566284
 20
416.093486584788
 30
0.0
 11
42.81688084569805
 21
412.2630395847649
 31
0.0
  0
LINE
  5
35F4
102
{ACAD_REACTORS
330
38D6
102
}
330
2
100
AcDbEntity
  8
KIJUN
100
AcDbLine
 10
42.81688084569805
 20
412.2630395847649
 30
0.0
 11
43.82132384569604
 21
409.6115335847921
 31
0.0
  0
LINE
  5
35F5
102
{ACAD_REACTORS
330
38D6
102
}
330
2
100
AcDbEntity
  8
KIJUN
100
AcDbLine
 10
43.82132384569604
 20
409.6115335847921
 30
0.0
 11
44.7007988456612
 21
405.9770475848112
 31
0.0
  0
LINE
  5
35F6
102
{ACAD_REACTORS
330
38D6
102
}
330
2
100
AcDbEntity
  8
KIJUN
100
AcDbLine
 10
44.7007988456612
 20
405.9770475848112
 30
0.0
 11
46.20778084563108
 21
402.4414945847734
 31
0.0
  0
LINE
  5
35F7
102
{ACAD_REACTORS
330
38D6
102
}
330
2
100
AcDbEntity
  8
KIJUN
100
AcDbLine
 10
46.20778084563108
 20
402.4414945847734
 30
0.0
 11
48.34277784568303
 21
399.1020295847543
 31
0.0
  0
LINE
  5
35F8
102
{ACAD_REACTORS
330
38D6
102
}
330
2
100
AcDbEntity
  8
KIJUN
100
AcDbLine
 10
48.34277784568303
 20
399.1020295847543
 30
0.0
 11
50.47777484561857
 21
396.7445285847993
 31
0.0
  0
LINE
  5
35F9
102
{ACAD_REACTORS
330
38D6
102
}
330
2
100
AcDbEntity
  8
KIJUN
100
AcDbLine
 10
50.47777484561857
 20
396.7445285847993
 30
0.0
 11
53.74332584562262
 21
393.7980015848065
 31
0.0
  0
LINE
  5
35FA
102
{ACAD_REACTORS
330
38D6
102
}
330
2
100
AcDbEntity
  8
KIJUN
100
AcDbLine
 10
53.74332584562262
 20
393.7980015848065
 30
0.0
 11
57.13435284570778
 21
391.6374775847721
 31
0.0
  0
LINE
  5
35FB
102
{ACAD_REACTORS
330
38D6
102
}
330
2
100
AcDbEntity
  8
KIJUN
100
AcDbLine
 10
57.13435284570778
 20
391.6374775847721
 30
0.0
 11
60.14831684566934
 21
389.5749975847851
 31
0.0
  0
LINE
  5
35FC
102
{ACAD_REACTORS
330
38D6
102
}
330
2
100
AcDbEntity
  8
KIJUN
100
AcDbLine
 10
60.14831684566934
 20
389.5749975847851
 30
0.0
 11
63.28839184568687
 21
388.5925255847746
 31
0.0
  0
LINE
  5
35FD
102
{ACAD_REACTORS
330
38D6
102
}
330
2
100
AcDbEntity
  8
KIJUN
100
AcDbLine
 10
63.28839184568687
 20
388.5925255847746
 30
0.0
 11
68.06079784562507
 21
386.9229835848076
 31
0.0
  0
LINE
  5
35FE
102
{ACAD_REACTORS
330
38D6
102
}
330
2
100
AcDbEntity
  8
KIJUN
100
AcDbLine
 10
68.06079784562507
 20
386.9229835848076
 30
0.0
 11
71.70277684565417
 21
386.2355325847661
 31
0.0
  0
LINE
  5
35FF
102
{ACAD_REACTORS
330
38D6
102
}
330
2
100
AcDbEntity
  8
KIJUN
100
AcDbLine
 10
71.70277684565417
 20
386.2355325847661
 30
0.0
 11
76.34983384567068
 21
385.2530605847645
 31
0.0
  0
LINE
  5
3600
102
{ACAD_REACTORS
330
38D6
102
}
330
2
100
AcDbEntity
  8
KIJUN
100
AcDbLine
 10
76.34983384567068
 20
385.2530605847645
 30
0.0
 11
81.12236684564459
 21
384.9585475848057
 31
0.0
  0
LINE
  5
3601
102
{ACAD_REACTORS
330
38D6
102
}
330
2
100
AcDbEntity
  8
KIJUN
100
AcDbLine
 10
81.12236684564459
 20
384.9585475848057
 30
0.0
 11
85.14128184564516
 21
384.9585475848057
 31
0.0
  0
LINE
  5
3602
102
{ACAD_REACTORS
330
38D6
102
}
330
2
100
AcDbEntity
  8
KIJUN
100
AcDbLine
 10
85.14128184564516
 20
384.9585475848057
 30
0.0
 11
89.66235484561957
 21
385.2530605847645
 31
0.0
  0
LINE
  5
3603
102
{ACAD_REACTORS
330
38D6
102
}
330
2
100
AcDbEntity
  8
KIJUN
100
AcDbLine
 10
89.66235484561957
 20
385.2530605847645
 30
0.0
 11
93.05338184570473
 21
385.9405115848044
 31
0.0
  0
LINE
  5
3604
102
{ACAD_REACTORS
330
38D6
102
}
330
2
100
AcDbEntity
  8
KIJUN
100
AcDbLine
 10
93.05338184570473
 20
385.9405115848044
 30
0.0
 11
96.69586884568026
 21
386.6280895847726
 31
0.0
  0
LINE
  5
3605
102
{ACAD_REACTORS
330
38D6
102
}
330
2
100
AcDbEntity
  8
KIJUN
100
AcDbLine
 10
96.69586884568026
 20
386.6280895847726
 30
0.0
 11
100.3378478455929
 21
388.2980125847593
 31
0.0
  0
LINE
  5
3606
102
{ACAD_REACTORS
330
38D6
102
}
330
2
100
AcDbEntity
  8
KIJUN
100
AcDbLine
 10
100.3378478455929
 20
388.2980125847593
 30
0.0
 11
104.6078418456968
 21
390.7535575847564
 31
0.0
  0
LINE
  5
3607
102
{ACAD_REACTORS
330
38D6
102
}
330
2
100
AcDbEntity
  8
KIJUN
100
AcDbLine
 10
104.6078418456968
 20
390.7535575847564
 30
0.0
 11
108.2503288456796
 21
393.4055715847847
 31
0.0
  0
LINE
  5
3608
102
{ACAD_REACTORS
330
38D6
102
}
330
2
100
AcDbEntity
  8
KIJUN
100
AcDbLine
 10
108.2503288456796
 20
393.4055715847847
 30
0.0
 11
112.5203228456671
 21
399.1020295847543
 31
0.0
  0
LINE
  5
3609
102
{ACAD_REACTORS
330
38D6
102
}
330
2
100
AcDbEntity
  8
KIJUN
100
AcDbLine
 10
112.5203228456671
 20
399.1020295847543
 30
0.0
 11
114.2788918456867
 21
403.423585584764
 31
0.0
  0
LINE
  5
360A
102
{ACAD_REACTORS
330
38D6
102
}
330
2
100
AcDbEntity
  8
KIJUN
100
AcDbLine
 10
114.2788918456867
 20
403.423585584764
 30
0.0
 11
115.2833348456774
 21
406.7630505847769
 31
0.0
  0
LINE
  5
360B
102
{ACAD_REACTORS
330
38D6
102
}
330
2
100
AcDbEntity
  8
KIJUN
100
AcDbLine
 10
115.2833348456774
 20
406.7630505847769
 30
0.0
 11
116.7903168456546
 21
409.8074945847687
 31
0.0
  0
LINE
  5
360C
102
{ACAD_REACTORS
330
38D6
102
}
330
2
100
AcDbEntity
  8
KIJUN
100
AcDbLine
 10
116.7903168456546
 20
409.8074945847687
 30
0.0
 11
118.0463468456878
 21
406.5665815847954
 31
0.0
  0
LINE
  5
360D
102
{ACAD_REACTORS
330
38D6
102
}
330
2
100
AcDbEntity
  8
KIJUN
100
AcDbLine
 10
115.9143978456272
 20
410.4375415847811
 30
0.0
 11
116.4163018456243
 21
418.8845655847602
 31
0.0
  0
LINE
  5
360E
102
{ACAD_REACTORS
330
38D6
102
}
330
2
100
AcDbEntity
  8
KIJUN
100
AcDbLine
 10
116.4163018456243
 20
418.8845655847602
 30
0.0
 11
115.2863828456688
 21
423.4024635847658
 31
0.0
  0
LINE
  5
360F
102
{ACAD_REACTORS
330
38D6
102
}
330
2
100
AcDbEntity
  8
KIJUN
100
AcDbLine
 10
115.2863828456688
 20
423.4024635847658
 30
0.0
 11
113.1513858456096
 21
427.429506584805
 31
0.0
  0
LINE
  5
3610
102
{ACAD_REACTORS
330
38D6
102
}
330
2
100
AcDbEntity
  8
KIJUN
100
AcDbLine
 10
113.1513858456096
 20
427.429506584805
 30
0.0
 11
110.6393258456669
 21
430.768971584765
 31
0.0
  0
LINE
  5
3611
102
{ACAD_REACTORS
330
38D6
102
}
330
2
100
AcDbEntity
  8
KIJUN
100
AcDbLine
 10
110.6393258456669
 20
430.768971584765
 30
0.0
 11
105.7413168455973
 21
434.4030765847842
 31
0.0
  0
LINE
  5
3612
102
{ACAD_REACTORS
330
38D6
102
}
330
2
100
AcDbEntity
  8
KIJUN
100
AcDbLine
 10
105.7413168455973
 20
434.4030765847842
 30
0.0
 11
99.46129384569985
 21
437.5460725847573
 31
0.0
  0
LINE
  5
3613
102
{ACAD_REACTORS
330
38D6
102
}
330
2
100
AcDbEntity
  8
KIJUN
100
AcDbLine
 10
99.46129384569985
 20
437.5460725847573
 30
0.0
 11
91.8002728456272
 21
439.4120835847702
 31
0.0
  0
LINE
  5
3614
102
{ACAD_REACTORS
330
38D6
102
}
330
2
100
AcDbEntity
  8
KIJUN
100
AcDbLine
 10
91.8002728456272
 20
439.4120835847702
 30
0.0
 11
83.63683984559656
 21
439.6085525848087
 31
0.0
  0
LINE
  5
3615
102
{ACAD_REACTORS
330
38D6
102
}
330
2
100
AcDbEntity
  8
KIJUN
100
AcDbLine
 10
83.63683984559656
 20
439.6085525848087
 30
0.0
 11
75.09685184562158
 21
438.9209745847824
 31
0.0
  0
LINE
  5
3616
102
{ACAD_REACTORS
330
38D6
102
}
330
2
100
AcDbEntity
  8
KIJUN
100
AcDbLine
 10
75.09685184562158
 20
438.9209745847824
 30
0.0
 11
69.06828884560718
 21
437.2510515848039
 31
0.0
  0
LINE
  5
3617
102
{ACAD_REACTORS
330
38D6
102
}
330
2
100
AcDbEntity
  8
KIJUN
100
AcDbLine
 10
69.06828884560718
 20
437.2510515848039
 30
0.0
 11
64.79829484561969
 21
435.0905275847676
 31
0.0
  0
LINE
  5
3618
102
{ACAD_REACTORS
330
38D6
102
}
330
2
100
AcDbEntity
  8
KIJUN
100
AcDbLine
 10
64.79829484561969
 20
435.0905275847676
 30
0.0
 11
62.03528284560935
 21
432.438513584791
 31
0.0
  0
LINE
  5
3619
102
{ACAD_REACTORS
330
38D6
102
}
330
2
100
AcDbEntity
  8
KIJUN
100
AcDbLine
 10
62.03528284560935
 20
432.438513584791
 30
0.0
 11
58.01636784560151
 21
429.3940695847981
 31
0.0
  0
LINE
  5
361A
102
{ACAD_REACTORS
330
38D6
102
}
330
2
100
AcDbEntity
  8
KIJUN
100
AcDbLine
 10
58.01636784560151
 20
429.3940695847981
 30
0.0
 11
55.88137084567325
 21
425.5634955847912
 31
0.0
  0
LINE
  5
361B
102
{ACAD_REACTORS
330
38D6
102
}
330
2
100
AcDbEntity
  8
KIJUN
100
AcDbLine
 10
55.88137084567325
 20
425.5634955847912
 30
0.0
 11
54.75081684560473
 21
421.241558584777
 31
0.0
  0
LINE
  5
361C
102
{ACAD_REACTORS
330
38D6
102
}
330
2
100
AcDbEntity
  8
KIJUN
100
AcDbLine
 10
54.75081684560473
 20
421.241558584777
 30
0.0
 11
54.75081684560473
 21
417.2145155847961
 31
0.0
  0
LINE
  5
361D
102
{ACAD_REACTORS
330
38D6
102
}
330
2
100
AcDbEntity
  8
KIJUN
100
AcDbLine
 10
54.75081684560473
 20
417.2145155847961
 30
0.0
 11
55.37883184567954
 21
413.5805375847617
 31
0.0
  0
LINE
  5
361E
102
{ACAD_REACTORS
330
38D6
102
}
330
2
100
AcDbEntity
  8
KIJUN
100
AcDbLine
 10
55.37883184567954
 20
413.5805375847617
 30
0.0
 11
56.25779884569829
 21
409.7499635847556
 31
0.0
  0
LINE
  5
361F
102
{ACAD_REACTORS
330
38D6
102
}
330
2
100
AcDbEntity
  8
KIJUN
100
AcDbLine
 10
56.25779884569829
 20
409.7499635847556
 30
0.0
 11
59.27239784564199
 21
405.5270865847765
 31
0.0
  0
LINE
  5
3620
102
{ACAD_REACTORS
330
38D6
102
}
330
2
100
AcDbEntity
  8
KIJUN
100
AcDbLine
 10
59.27239784564199
 20
405.5270865847765
 30
0.0
 11
62.91437684567108
 21
402.1874945847725
 31
0.0
  0
LINE
  5
3621
102
{ACAD_REACTORS
330
38D6
102
}
330
2
100
AcDbEntity
  8
KIJUN
100
AcDbLine
 10
62.91437684567108
 20
402.1874945847725
 30
0.0
 11
68.44027384564879
 21
399.7320765847676
 31
0.0
  0
LINE
  5
3622
102
{ACAD_REACTORS
330
38D6
102
}
330
2
100
AcDbEntity
  8
KIJUN
100
AcDbLine
 10
68.44027384564879
 20
399.7320765847676
 30
0.0
 11
74.84539184561481
 21
398.062026584796
 31
0.0
  0
LINE
  5
3623
102
{ACAD_REACTORS
330
38D6
102
}
330
2
100
AcDbEntity
  8
KIJUN
100
AcDbLine
 10
74.84539184561481
 20
398.062026584796
 30
0.0
 11
80.87382784570264
 21
397.3745755847544
 31
0.0
  0
LINE
  5
3624
102
{ACAD_REACTORS
330
38D6
102
}
330
2
100
AcDbEntity
  8
KIJUN
100
AcDbLine
 10
80.87382784570264
 20
397.3745755847544
 30
0.0
 11
86.14877284562727
 21
398.062026584796
 31
0.0
  0
LINE
  5
3625
102
{ACAD_REACTORS
330
38D6
102
}
330
2
100
AcDbEntity
  8
KIJUN
100
AcDbLine
 10
86.14877284562727
 20
398.062026584796
 30
0.0
 11
90.92130584560118
 21
398.9460735848038
 31
0.0
  0
LINE
  5
3626
102
{ACAD_REACTORS
330
38D6
102
}
330
2
100
AcDbEntity
  8
KIJUN
100
AcDbLine
 10
90.92130584560118
 20
398.9460735848038
 30
0.0
 11
95.19129984559596
 21
400.910509584813
 31
0.0
  0
LINE
  5
3627
102
{ACAD_REACTORS
330
38D6
102
}
330
2
100
AcDbEntity
  8
KIJUN
100
AcDbLine
 10
95.19129984559596
 20
400.910509584813
 30
0.0
 11
99.08486584566754
 21
403.366054584802
 31
0.0
  0
LINE
  5
3628
102
{ACAD_REACTORS
330
38D6
102
}
330
2
100
AcDbEntity
  8
KIJUN
100
AcDbLine
 10
99.08486584566754
 20
403.366054584802
 30
0.0
 11
101.8478778456779
 21
406.7055195847627
 31
0.0
  0
LINE
  5
3629
102
{ACAD_REACTORS
330
38D6
102
}
330
2
100
AcDbEntity
  8
KIJUN
100
AcDbLine
 10
101.8478778456779
 20
406.7055195847627
 30
0.0
 11
103.7317958456265
 21
410.5359665847776
 31
0.0
  0
LINE
  5
362A
102
{ACAD_REACTORS
330
38D6
102
}
330
2
100
AcDbEntity
  8
KIJUN
100
AcDbLine
 10
103.7317958456265
 20
410.5359665847776
 30
0.0
 11
104.233826845681
 21
415.5449735847637
 31
0.0
  0
LINE
  5
362B
102
{ACAD_REACTORS
330
38D6
102
}
330
2
100
AcDbEntity
  8
KIJUN
100
AcDbLine
 10
104.233826845681
 20
415.5449735847637
 30
0.0
 11
102.4758928456362
 21
420.5539805848087
 31
0.0
  0
LINE
  5
362C
102
{ACAD_REACTORS
330
38D6
102
}
330
2
100
AcDbEntity
  8
KIJUN
100
AcDbLine
 10
102.4758928456362
 20
420.5539805848087
 30
0.0
 11
100.3408958457007
 21
423.8935725848046
 31
0.0
  0
LINE
  5
362D
102
{ACAD_REACTORS
330
38D6
102
}
330
2
100
AcDbEntity
  8
KIJUN
100
AcDbLine
 10
100.3408958457007
 20
423.8935725848046
 30
0.0
 11
95.19129984559596
 21
427.2330375847655
 31
0.0
  0
LINE
  5
362E
102
{ACAD_REACTORS
330
38D6
102
}
330
2
100
AcDbEntity
  8
KIJUN
100
AcDbLine
 10
95.19129984559596
 20
427.2330375847655
 30
0.0
 11
87.90683384570774
 21
429.0990485847783
 31
0.0
  0
LINE
  5
362F
102
{ACAD_REACTORS
330
38D6
102
}
330
2
100
AcDbEntity
  8
KIJUN
100
AcDbLine
 10
87.90683384570774
 20
429.0990485847783
 30
0.0
 11
81.12528784570214
 21
429.0990485847783
 31
0.0
  0
LINE
  5
3630
102
{ACAD_REACTORS
330
38D6
102
}
330
2
100
AcDbEntity
  8
KIJUN
100
AcDbLine
 10
81.12528784570214
 20
429.0990485847783
 30
0.0
 11
75.34780384567466
 21
428.2150015847713
 31
0.0
  0
LINE
  5
3631
102
{ACAD_REACTORS
330
38D6
102
}
330
2
100
AcDbEntity
  8
KIJUN
100
AcDbLine
 10
75.34780384567466
 20
428.2150015847713
 30
0.0
 11
71.45436484564607
 21
425.2684745847714
 31
0.0
  0
LINE
  5
3632
102
{ACAD_REACTORS
330
38D6
102
}
330
2
100
AcDbEntity
  8
KIJUN
100
AcDbLine
 10
71.45436484564607
 20
425.2684745847714
 30
0.0
 11
69.31936784560139
 21
422.9114815847627
 31
0.0
  0
LINE
  5
3633
102
{ACAD_REACTORS
330
38D6
102
}
330
2
100
AcDbEntity
  8
KIJUN
100
AcDbLine
 10
69.31936784560139
 20
422.9114815847627
 30
0.0
 11
68.06333784567732
 21
419.3755475847642
 31
0.0
  0
LINE
  5
3634
102
{ACAD_REACTORS
330
38D6
102
}
330
2
100
AcDbEntity
  8
KIJUN
100
AcDbLine
 10
68.06333784567732
 20
419.3755475847642
 30
0.0
 11
68.06333784567732
 21
416.2325515847901
 31
0.0
  0
LINE
  5
3635
102
{ACAD_REACTORS
330
38D6
102
}
330
2
100
AcDbEntity
  8
KIJUN
100
AcDbLine
 10
68.06333784567732
 20
416.2325515847901
 30
0.0
 11
69.31936784560139
 21
413.5805375847617
 31
0.0
  0
LINE
  5
3636
102
{ACAD_REACTORS
330
38D6
102
}
330
2
100
AcDbEntity
  8
KIJUN
100
AcDbLine
 10
69.31936784560139
 20
413.5805375847617
 30
0.0
 11
72.33383984561124
 21
410.5359665847776
 31
0.0
  0
LINE
  5
3637
102
{ACAD_REACTORS
330
38D6
102
}
330
2
100
AcDbEntity
  8
KIJUN
100
AcDbLine
 10
72.33383984561124
 20
410.5359665847776
 30
0.0
 11
75.97581884564033
 21
409.0625125847805
 31
0.0
  0
LINE
  5
3638
102
{ACAD_REACTORS
330
38D6
102
}
330
2
100
AcDbEntity
  8
KIJUN
100
AcDbLine
 10
75.97581884564033
 20
409.0625125847805
 30
0.0
 11
80.24581284562783
 21
408.5715305847775
 31
0.0
  0
LINE
  5
3639
102
{ACAD_REACTORS
330
38D6
102
}
330
2
100
AcDbEntity
  8
KIJUN
100
AcDbLine
 10
80.24581284562783
 20
408.5715305847775
 30
0.0
 11
83.88829984559606
 21
409.4555775847751
 31
0.0
  0
LINE
  5
363A
102
{ACAD_REACTORS
330
38D6
102
}
330
2
100
AcDbEntity
  8
KIJUN
100
AcDbLine
 10
83.88829984559606
 20
409.4555775847751
 30
0.0
 11
87.2793268456885
 21
410.7325625848011
 31
0.0
  0
LINE
  5
363B
102
{ACAD_REACTORS
330
38D6
102
}
330
2
100
AcDbEntity
  8
KIJUN
100
AcDbLine
 10
87.2793268456885
 20
410.7325625848011
 30
0.0
 11
90.04233884569885
 21
412.4019775847905
 31
0.0
  0
LINE
  5
363C
102
{ACAD_REACTORS
330
38D6
102
}
330
2
100
AcDbEntity
  8
KIJUN
100
AcDbLine
 10
90.04233884569885
 20
412.4019775847905
 30
0.0
 11
91.1723848457118
 21
414.7594785847964
 31
0.0
  0
LINE
  5
363D
102
{ACAD_REACTORS
330
38D6
102
}
330
2
100
AcDbEntity
  8
KIJUN
100
AcDbLine
 10
91.1723848457118
 20
414.7594785847964
 30
0.0
 11
91.54932084567599
 21
417.9019665847794
 31
0.0
  0
LINE
  5
363E
102
{ACAD_REACTORS
330
38D6
102
}
330
2
100
AcDbEntity
  8
KIJUN
100
AcDbLine
 10
91.54932084567599
 20
417.9019665847794
 30
0.0
 11
90.54436984563698
 21
420.7505765847732
 31
0.0
  0
LINE
  5
363F
102
{ACAD_REACTORS
330
38D6
102
}
330
2
100
AcDbEntity
  8
KIJUN
100
AcDbLine
 10
90.54436984563698
 20
420.7505765847732
 30
0.0
 11
91.04678184569683
 21
418.5900525848023
 31
0.0
  0
LINE
  5
3640
102
{ACAD_REACTORS
330
38D6
102
}
330
2
100
AcDbEntity
  8
KIJUN
100
AcDbLine
 10
91.04678184569683
 20
418.5900525848023
 30
0.0
 11
91.29786084567649
 21
416.0360825848097
 31
0.0
  0
LINE
  5
3641
102
{ACAD_REACTORS
330
38D6
102
}
330
2
100
AcDbEntity
  8
KIJUN
100
AcDbLine
 10
91.29786084567649
 20
416.0360825848097
 30
0.0
 11
90.29329084564279
 21
412.8930865847783
 31
0.0
  0
LINE
  5
3642
102
{ACAD_REACTORS
330
38D6
102
}
330
2
100
AcDbEntity
  8
KIJUN
100
AcDbLine
 10
90.29329084564279
 20
412.8930865847783
 30
0.0
 11
87.53027884563243
 21
410.5359665847776
 31
0.0
  0
LINE
  5
3643
102
{ACAD_REACTORS
330
38D6
102
}
330
2
100
AcDbEntity
  8
KIJUN
100
AcDbLine
 10
87.53027884563243
 20
410.5359665847776
 30
0.0
 11
83.63683984559656
 21
409.2589815847518
 31
0.0
  0
LINE
  5
3644
102
{ACAD_REACTORS
330
38D6
102
}
330
2
100
AcDbEntity
  8
KIJUN
100
AcDbLine
 10
83.63683984559656
 20
409.2589815847518
 30
0.0
 11
78.48787884570675
 21
408.8660435847909
 31
0.0
  0
LINE
  5
3645
102
{ACAD_REACTORS
330
38D6
102
}
330
2
100
AcDbEntity
  8
KIJUN
100
AcDbLine
 10
78.48787884570675
 20
408.8660435847909
 30
0.0
 11
73.8408218457048
 21
410.0449845847746
 31
0.0
  0
LINE
  5
3646
102
{ACAD_REACTORS
330
38D6
102
}
330
2
100
AcDbEntity
  8
KIJUN
100
AcDbLine
 10
73.8408218457048
 20
410.0449845847746
 30
0.0
 11
69.94738284566892
 21
412.6964905848057
 31
0.0
  0
LINE
  5
3647
102
{ACAD_REACTORS
330
38D6
102
}
330
2
100
AcDbEntity
  8
KIJUN
100
AcDbLine
 10
69.94738284566892
 20
412.6964905848057
 30
0.0
 11
67.81238584561697
 21
416.0360825848097
 31
0.0
  0
LINE
  5
3648
102
{ACAD_REACTORS
330
38D6
102
}
330
2
100
AcDbEntity
  8
KIJUN
100
AcDbLine
 10
67.81238584561697
 20
416.0360825848097
 30
0.0
 11
67.81238584561697
 21
419.572016584802
 31
0.0
  0
LINE
  5
3649
102
{ACAD_REACTORS
330
38D6
102
}
330
2
100
AcDbEntity
  8
KIJUN
100
AcDbLine
 10
67.81238584561697
 20
419.572016584802
 30
0.0
 11
69.06828884560718
 21
423.2059945847853
 31
0.0
  0
LINE
  5
364A
102
{ACAD_REACTORS
330
38D6
102
}
330
2
100
AcDbEntity
  8
KIJUN
100
AcDbLine
 10
69.06828884560718
 20
423.2059945847853
 30
0.0
 11
71.07780984568717
 21
425.7595835847664
 31
0.0
  0
LINE
  5
364B
102
{ACAD_REACTORS
330
38D6
102
}
330
2
100
AcDbEntity
  8
KIJUN
100
AcDbLine
 10
71.07780984568717
 20
425.7595835847664
 30
0.0
 11
73.8408218457048
 21
427.2330375847655
 31
0.0
  0
LINE
  5
364C
102
{ACAD_REACTORS
330
38D6
102
}
330
2
100
AcDbEntity
  8
KIJUN
100
AcDbLine
 10
73.8408218457048
 20
427.2330375847655
 30
0.0
 11
77.85986384563194
 21
428.7059835847744
 31
0.0
  0
LINE
  5
364D
102
{ACAD_REACTORS
330
38D6
102
}
330
2
100
AcDbEntity
  8
KIJUN
100
AcDbLine
 10
77.85986384563194
 20
428.7059835847744
 30
0.0
 11
82.38080984568705
 21
429.0990485847783
 31
0.0
  0
LINE
  5
364E
102
{ACAD_REACTORS
330
38D6
102
}
330
2
100
AcDbEntity
  8
KIJUN
100
AcDbLine
 10
82.38080984568705
 20
429.0990485847783
 30
0.0
 11
86.90239084560062
 21
429.0990485847783
 31
0.0
  0
LINE
  5
364F
102
{ACAD_REACTORS
330
38D6
102
}
330
2
100
AcDbEntity
  8
KIJUN
100
AcDbLine
 10
86.90239084560062
 20
429.0990485847783
 30
0.0
 11
91.1723848457118
 21
428.4114705848101
 31
0.0
  0
LINE
  5
3650
102
{ACAD_REACTORS
330
38D6
102
}
330
2
100
AcDbEntity
  8
KIJUN
100
AcDbLine
 10
91.1723848457118
 20
428.4114705848101
 30
0.0
 11
95.19129984559596
 21
427.0365685847849
 31
0.0
  0
LINE
  5
3651
102
{ACAD_REACTORS
330
38D6
102
}
330
2
100
AcDbEntity
  8
KIJUN
100
AcDbLine
 10
95.19129984559596
 20
427.0365685847849
 30
0.0
 11
98.70780284565308
 21
425.1705575847794
 31
0.0
  0
LINE
  5
3652
102
{ACAD_REACTORS
330
38D6
102
}
330
2
100
AcDbEntity
  8
KIJUN
100
AcDbLine
 10
98.70780284565308
 20
425.1705575847794
 30
0.0
 11
100.5918478456519
 21
423.4024635847658
 31
0.0
  0
LINE
  5
3653
102
{ACAD_REACTORS
330
38D6
102
}
330
2
100
AcDbEntity
  8
KIJUN
100
AcDbLine
 10
100.5918478456519
 20
423.4024635847658
 30
0.0
 11
102.0988298456218
 21
420.7505765847732
 31
0.0
  0
LINE
  5
3654
102
{ACAD_REACTORS
330
38D6
102
}
330
2
100
AcDbEntity
  8
KIJUN
100
AcDbLine
 10
102.0988298456218
 20
420.7505765847732
 30
0.0
 11
103.7317958456265
 21
418.1969875847994
 31
0.0
  0
LINE
  5
3655
102
{ACAD_REACTORS
330
38D6
102
}
330
2
100
AcDbEntity
  8
KIJUN
100
AcDbLine
 10
103.7317958456265
 20
418.1969875847994
 30
0.0
 11
104.233826845681
 21
414.9555665847642
 31
0.0
  0
LINE
  5
3656
102
{ACAD_REACTORS
330
38D6
102
}
330
2
100
AcDbEntity
  8
KIJUN
100
AcDbLine
 10
104.233826845681
 20
414.9555665847642
 30
0.0
 11
103.7317958456265
 21
411.4200135847854
 31
0.0
  0
LINE
  5
3657
102
{ACAD_REACTORS
330
38D6
102
}
330
2
100
AcDbEntity
  8
KIJUN
100
AcDbLine
 10
103.7317958456265
 20
411.4200135847854
 30
0.0
 11
102.4758928456362
 21
408.375061584788
 31
0.0
  0
LINE
  5
3658
102
{ACAD_REACTORS
330
38D6
102
}
330
2
100
AcDbEntity
  8
KIJUN
100
AcDbLine
 10
102.4758928456362
 20
408.375061584788
 30
0.0
 11
100.3408958457007
 21
405.0354695847913
 31
0.0
  0
LINE
  5
3659
102
{ACAD_REACTORS
330
38D6
102
}
330
2
100
AcDbEntity
  8
KIJUN
100
AcDbLine
 10
100.3408958457007
 20
405.0354695847913
 30
0.0
 11
97.57788384569039
 21
402.3839635847602
 31
0.0
  0
LINE
  5
365A
102
{ACAD_REACTORS
330
38D6
102
}
330
2
100
AcDbEntity
  8
KIJUN
100
AcDbLine
 10
97.57788384569039
 20
402.3839635847602
 30
0.0
 11
93.68431784561881
 21
400.2230585847631
 31
0.0
  0
LINE
  5
365B
102
{ACAD_REACTORS
330
38D6
102
}
330
2
100
AcDbEntity
  8
KIJUN
100
AcDbLine
 10
93.68431784561881
 20
400.2230585847631
 30
0.0
 11
88.78630884566565
 21
398.5535165847964
 31
0.0
  0
LINE
  5
365C
102
{ACAD_REACTORS
330
38D6
102
}
330
2
100
AcDbEntity
  8
KIJUN
100
AcDbLine
 10
88.78630884566565
 20
398.5535165847964
 30
0.0
 11
83.00882484564544
 21
397.571044584794
 31
0.0
  0
LINE
  5
365D
102
{ACAD_REACTORS
330
38D6
102
}
330
2
100
AcDbEntity
  8
KIJUN
100
AcDbLine
 10
83.00882484564544
 20
397.571044584794
 30
0.0
 11
77.48280084561748
 21
398.062026584796
 31
0.0
  0
LINE
  5
365E
102
{ACAD_REACTORS
330
38D6
102
}
330
2
100
AcDbEntity
  8
KIJUN
100
AcDbLine
 10
77.48280084561748
 20
398.062026584796
 30
0.0
 11
71.45436484564607
 21
399.0444985847993
 31
0.0
  0
LINE
  5
365F
102
{ACAD_REACTORS
330
38D6
102
}
330
2
100
AcDbEntity
  8
KIJUN
100
AcDbLine
 10
71.45436484564607
 20
399.0444985847993
 30
0.0
 11
66.30527684559684
 21
400.7140405847734
 31
0.0
  0
LINE
  5
3660
102
{ACAD_REACTORS
330
38D6
102
}
330
2
100
AcDbEntity
  8
KIJUN
100
AcDbLine
 10
66.30527684559684
 20
400.7140405847734
 30
0.0
 11
61.15580784565145
 21
404.0535055847852
 31
0.0
  0
LINE
  5
3661
102
{ACAD_REACTORS
330
38D6
102
}
330
2
100
AcDbEntity
  8
KIJUN
100
AcDbLine
 10
61.15580784565145
 20
404.0535055847852
 30
0.0
 11
57.51382884562236
 21
407.884079584785
 31
0.0
  0
LINE
  5
3662
102
{ACAD_REACTORS
330
38D6
102
}
330
2
100
AcDbEntity
  8
KIJUN
100
AcDbLine
 10
57.51382884562236
 20
407.884079584785
 30
0.0
 11
55.62978384562348
 21
412.8930865847783
 31
0.0
  0
LINE
  5
3663
102
{ACAD_REACTORS
330
38D6
102
}
330
2
100
AcDbEntity
  8
KIJUN
100
AcDbLine
 10
55.62978384562348
 20
412.8930865847783
 30
0.0
 11
54.75081684560473
 21
417.4109845847765
 31
0.0
  0
LINE
  5
3664
102
{ACAD_REACTORS
330
38D6
102
}
330
2
100
AcDbEntity
  8
KIJUN
100
AcDbLine
 10
54.75081684560473
 20
417.4109845847765
 30
0.0
 11
54.75081684560473
 21
421.9290095847595
 31
0.0
  0
LINE
  5
3665
102
{ACAD_REACTORS
330
38D6
102
}
330
2
100
AcDbEntity
  8
KIJUN
100
AcDbLine
 10
54.75081684560473
 20
421.9290095847595
 30
0.0
 11
56.50887784568522
 21
426.7420555847625
 31
0.0
  0
LINE
  5
3666
102
{ACAD_REACTORS
330
38D6
102
}
330
2
100
AcDbEntity
  8
KIJUN
100
AcDbLine
 10
56.50887784568522
 20
426.7420555847625
 30
0.0
 11
58.39279584563382
 21
429.8850515848021
 31
0.0
  0
LINE
  5
3667
102
{ACAD_REACTORS
330
38D6
102
}
330
2
100
AcDbEntity
  8
KIJUN
100
AcDbLine
 10
58.39279584563382
 20
429.8850515848021
 30
0.0
 11
61.40739484568666
 21
432.2420445847588
 31
0.0
  0
LINE
  5
3668
102
{ACAD_REACTORS
330
38D6
102
}
330
2
100
AcDbEntity
  8
KIJUN
100
AcDbLine
 10
61.40739484568666
 20
432.2420445847588
 30
0.0
 11
63.79334384568983
 21
434.4030765847842
 31
0.0
  0
LINE
  5
3669
102
{ACAD_REACTORS
330
38D6
102
}
330
2
100
AcDbEntity
  8
KIJUN
100
AcDbLine
 10
63.79334384568983
 20
434.4030765847842
 30
0.0
 11
69.31936784560139
 21
437.2510515848039
 31
0.0
  0
LINE
  5
366A
102
{ACAD_REACTORS
330
38D6
102
}
330
2
100
AcDbEntity
  8
KIJUN
100
AcDbLine
 10
69.31936784560139
 20
437.2510515848039
 30
0.0
 11
75.72486684570367
 21
438.7245055848019
 31
0.0
  0
LINE
  5
366B
102
{ACAD_REACTORS
330
38D6
102
}
330
2
100
AcDbEntity
  8
KIJUN
100
AcDbLine
 10
75.72486684570367
 20
438.7245055848019
 30
0.0
 11
82.1298578456267
 21
439.6085525848087
 31
0.0
  0
LINE
  5
366C
102
{ACAD_REACTORS
330
38D6
102
}
330
2
100
AcDbEntity
  8
KIJUN
100
AcDbLine
 10
82.1298578456267
 20
439.6085525848087
 30
0.0
 11
88.15829384570724
 21
439.6085525848087
 31
0.0
  0
LINE
  5
366D
102
{ACAD_REACTORS
330
38D6
102
}
330
2
100
AcDbEntity
  8
KIJUN
100
AcDbLine
 10
88.15829384570724
 20
439.6085525848087
 30
0.0
 11
93.93539684560574
 21
439.215487584805
 31
0.0
  0
LINE
  5
366E
102
{ACAD_REACTORS
330
38D6
102
}
330
2
100
AcDbEntity
  8
KIJUN
100
AcDbLine
 10
93.93539684560574
 20
439.215487584805
 30
0.0
 11
98.45685084570915
 21
437.93850258478
 31
0.0
  0
LINE
  5
366F
102
{ACAD_REACTORS
330
38D6
102
}
330
2
100
AcDbEntity
  8
KIJUN
100
AcDbLine
 10
98.45685084570915
 20
437.93850258478
 30
0.0
 11
102.7268448456966
 21
436.2690875847969
 31
0.0
  0
LINE
  5
3670
102
{ACAD_REACTORS
330
38D6
102
}
330
2
100
AcDbEntity
  8
KIJUN
100
AcDbLine
 10
102.7268448456966
 20
436.2690875847969
 30
0.0
 11
105.4898568455978
 21
434.4030765847842
 31
0.0
  0
LINE
  5
3671
102
{ACAD_REACTORS
330
38D6
102
}
330
2
100
AcDbEntity
  8
KIJUN
100
AcDbLine
 10
105.4898568455978
 20
434.4030765847842
 30
0.0
 11
109.1323438456825
 21
432.2420445847588
 31
0.0
  0
LINE
  5
3672
102
{ACAD_REACTORS
330
38D6
102
}
330
2
100
AcDbEntity
  8
KIJUN
100
AcDbLine
 10
109.1323438456825
 20
432.2420445847588
 30
0.0
 11
111.8953558457001
 21
429.5900305847813
 31
0.0
  0
LINE
  5
3673
102
{ACAD_REACTORS
330
38D6
102
}
330
2
100
AcDbEntity
  8
KIJUN
100
AcDbLine
 10
111.8953558457001
 20
429.5900305847813
 30
0.0
 11
113.6532898456212
 21
426.5455865847829
 31
0.0
  0
LINE
  5
3674
102
{ACAD_REACTORS
330
38D6
102
}
330
2
100
AcDbEntity
  8
KIJUN
100
AcDbLine
 10
113.6532898456212
 20
426.5455865847829
 30
0.0
 11
114.9093198456544
 21
423.5990595847892
 31
0.0
  0
LINE
  5
3675
102
{ACAD_REACTORS
330
38D6
102
}
330
2
100
AcDbEntity
  8
KIJUN
100
AcDbLine
 10
114.9093198456544
 20
423.5990595847892
 30
0.0
 11
115.7882868456659
 21
420.7505765847732
 31
0.0
  0
LINE
  5
3676
102
{ACAD_REACTORS
330
38D6
102
}
330
2
100
AcDbEntity
  8
KIJUN
100
AcDbLine
 10
115.7882868456659
 20
420.7505765847732
 30
0.0
 11
116.4163018456243
 21
418.1969875847994
 31
0.0
  0
LINE
  5
3677
102
{ACAD_REACTORS
330
38D6
102
}
330
2
100
AcDbEntity
  8
KIJUN
100
AcDbLine
 10
116.4163018456243
 20
418.1969875847994
 30
0.0
 11
116.1653498456876
 21
415.1520355848037
 31
0.0
  0
LINE
  5
3678
102
{ACAD_REACTORS
330
38D6
102
}
330
2
100
AcDbEntity
  8
KIJUN
100
AcDbLine
 10
116.1653498456876
 20
415.1520355848037
 30
0.0
 11
115.9143978456272
 21
410.4375415847811
 31
0.0
  0
LINE
  5
3679
102
{ACAD_REACTORS
330
38D6
102
}
330
2
100
AcDbEntity
  8
KIJUN
100
AcDbLine
 10
91.15333484560734
 20
420.096526584783
 30
0.0
 11
92.78579284568014
 21
413.4174695847672
 31
0.0
  0
LINE
  5
367A
102
{ACAD_REACTORS
330
38D6
102
}
330
2
100
AcDbEntity
  8
KIJUN
100
AcDbLine
 10
92.78579284568014
 20
413.4174695847672
 30
0.0
 11
91.15333484560734
 21
409.292509584788
 31
0.0
  0
LINE
  5
367B
102
{ACAD_REACTORS
330
38D6
102
}
330
2
100
AcDbEntity
  8
KIJUN
100
AcDbLine
 10
91.15333484560734
 20
409.292509584788
 30
0.0
 11
86.75786484564786
 21
406.1495135848075
 31
0.0
  0
LINE
  5
367C
102
{ACAD_REACTORS
330
38D6
102
}
330
2
100
AcDbEntity
  8
KIJUN
100
AcDbLine
 10
86.75786484564786
 20
406.1495135848075
 30
0.0
 11
80.22688984569731
 21
404.8725285847816
 31
0.0
  0
LINE
  5
367D
102
{ACAD_REACTORS
330
38D6
102
}
330
2
100
AcDbEntity
  8
KIJUN
100
AcDbLine
 10
80.22688984569731
 20
404.8725285847816
 30
0.0
 11
71.68639384565222
 21
405.7565755847885
 31
0.0
  0
LINE
  5
367E
102
{ACAD_REACTORS
330
38D6
102
}
330
2
100
AcDbEntity
  8
KIJUN
100
AcDbLine
 10
71.68639384565222
 20
405.7565755847885
 30
0.0
 11
66.41182984563101
 21
408.7029755847965
 31
0.0
  0
LINE
  5
367F
102
{ACAD_REACTORS
330
38D6
102
}
330
2
100
AcDbEntity
  8
KIJUN
100
AcDbLine
 10
66.41182984563101
 20
408.7029755847965
 30
0.0
 11
63.64881784562067
 21
412.4355055847613
 31
0.0
  0
LINE
  5
3680
102
{ACAD_REACTORS
330
38D6
102
}
330
2
100
AcDbEntity
  8
KIJUN
100
AcDbLine
 10
63.64881784562067
 20
412.4355055847613
 30
0.0
 11
61.6392968456571
 21
416.2660795847608
 31
0.0
  0
LINE
  5
3681
102
{ACAD_REACTORS
330
38D6
102
}
330
2
100
AcDbEntity
  8
KIJUN
100
AcDbLine
 10
61.6392968456571
 20
416.2660795847608
 30
0.0
 11
61.6392968456571
 21
420.7839775847592
 31
0.0
  0
LINE
  5
3682
102
{ACAD_REACTORS
330
38D6
102
}
330
2
100
AcDbEntity
  8
KIJUN
100
AcDbLine
 10
61.6392968456571
 20
420.7839775847592
 30
0.0
 11
62.7693428456555
 21
424.516507584782
 31
0.0
  0
LINE
  5
3683
102
{ACAD_REACTORS
330
38D6
102
}
330
2
100
AcDbEntity
  8
KIJUN
100
AcDbLine
 10
62.7693428456555
 20
424.516507584782
 30
0.0
 11
65.28127584568619
 21
427.4630345847757
 31
0.0
  0
LINE
  5
3684
102
{ACAD_REACTORS
330
38D6
102
}
330
2
100
AcDbEntity
  8
KIJUN
100
AcDbLine
 10
65.28127584568619
 20
427.4630345847757
 30
0.0
 11
71.3098388457006
 21
430.900543584778
 31
0.0
  0
LINE
  5
3685
102
{ACAD_REACTORS
330
38D6
102
}
330
2
100
AcDbEntity
  8
KIJUN
100
AcDbLine
 10
71.3098388457006
 20
430.900543584778
 30
0.0
 11
77.46387784567969
 21
432.8649795847872
 31
0.0
  0
LINE
  5
3686
102
{ACAD_REACTORS
330
38D6
102
}
330
2
100
AcDbEntity
  8
KIJUN
100
AcDbLine
 10
77.46387784567969
 20
432.8649795847872
 30
0.0
 11
83.86886884560999
 21
433.4540055847678
 31
0.0
  0
LINE
  5
3687
102
{ACAD_REACTORS
330
38D6
102
}
330
2
100
AcDbEntity
  8
KIJUN
100
AcDbLine
 10
83.86886884560999
 20
433.4540055847678
 30
0.0
 11
90.39984384567697
 21
433.1594925848097
 31
0.0
  0
LINE
  5
3688
102
{ACAD_REACTORS
330
38D6
102
}
330
2
100
AcDbEntity
  8
KIJUN
100
AcDbLine
 10
90.39984384567697
 20
433.1594925848097
 30
0.0
 11
97.30737384571012
 21
431.1950565848006
 31
0.0
  0
LINE
  5
3689
102
{ACAD_REACTORS
330
38D6
102
}
330
2
100
AcDbEntity
  8
KIJUN
100
AcDbLine
 10
97.30737384571012
 20
431.1950565848006
 30
0.0
 11
102.079779845641
 21
429.0345325847652
 31
0.0
  0
LINE
  5
368A
102
{ACAD_REACTORS
330
38D6
102
}
330
2
100
AcDbEntity
  8
KIJUN
100
AcDbLine
 10
102.079779845641
 20
429.0345325847652
 30
0.0
 11
106.0988218456846
 21
425.7929845848106
 31
0.0
  0
LINE
  5
368B
102
{ACAD_REACTORS
330
38D6
102
}
330
2
100
AcDbEntity
  8
KIJUN
100
AcDbLine
 10
106.0988218456846
 20
425.7929845848106
 30
0.0
 11
108.2338188456274
 21
421.9625375847885
 31
0.0
  0
LINE
  5
368C
102
{ACAD_REACTORS
330
38D6
102
}
330
2
100
AcDbEntity
  8
KIJUN
100
AcDbLine
 10
108.2338188456274
 20
421.9625375847885
 30
0.0
 11
108.9873098456742
 21
417.5430645847876
 31
0.0
  0
LINE
  5
368D
102
{ACAD_REACTORS
330
38D6
102
}
330
2
100
AcDbEntity
  8
KIJUN
100
AcDbLine
 10
108.9873098456742
 20
417.5430645847876
 30
0.0
 11
108.6108818456418
 21
413.4174695847672
 31
0.0
  0
LINE
  5
368E
102
{ACAD_REACTORS
330
38D6
102
}
330
2
100
AcDbEntity
  8
KIJUN
100
AcDbLine
 10
108.6108818456418
 20
413.4174695847672
 30
0.0
 11
107.3548518456086
 21
408.7029755847965
 31
0.0
  0
LINE
  5
368F
102
{ACAD_REACTORS
330
38D6
102
}
330
2
100
AcDbEntity
  8
KIJUN
100
AcDbLine
 10
107.3548518456086
 20
408.7029755847965
 30
0.0
 11
104.9683948456663
 21
403.3010305847914
 31
0.0
  0
LINE
  5
3690
102
{ACAD_REACTORS
330
38D6
102
}
330
2
100
AcDbEntity
  8
KIJUN
100
AcDbLine
 10
104.9683948456663
 20
403.3010305847914
 30
0.0
 11
101.3262888456015
 21
398.7830055848085
 31
0.0
  0
LINE
  5
3691
102
{ACAD_REACTORS
330
38D6
102
}
330
2
100
AcDbEntity
  8
KIJUN
100
AcDbLine
 10
101.3262888456015
 20
398.7830055848085
 30
0.0
 11
95.17237684565817
 21
395.6400095847698
 31
0.0
  0
LINE
  5
3692
102
{ACAD_REACTORS
330
38D6
102
}
330
2
100
AcDbEntity
  8
KIJUN
100
AcDbLine
 10
95.17237684565817
 20
395.6400095847698
 30
0.0
 11
88.39032284559698
 21
393.6760815847724
 31
0.0
  0
LINE
  5
3693
102
{ACAD_REACTORS
330
38D6
102
}
330
2
100
AcDbEntity
  8
KIJUN
100
AcDbLine
 10
88.39032284559698
 20
393.6760815847724
 30
0.0
 11
78.21736884561005
 21
392.4970135847966
 31
0.0
  0
LINE
  5
3694
102
{ACAD_REACTORS
330
38D6
102
}
330
2
100
AcDbEntity
  8
KIJUN
100
AcDbLine
 10
78.21736884561005
 20
392.4970135847966
 30
0.0
 11
69.67738084562779
 21
393.6760815847724
 31
0.0
  0
LINE
  5
3695
102
{ACAD_REACTORS
330
38D6
102
}
330
2
100
AcDbEntity
  8
KIJUN
100
AcDbLine
 10
69.67738084562779
 20
393.6760815847724
 30
0.0
 11
62.015851845616
 21
396.2295435847613
 31
0.0
  0
LINE
  5
3696
102
{ACAD_REACTORS
330
38D6
102
}
330
2
100
AcDbEntity
  8
KIJUN
100
AcDbLine
 10
62.015851845616
 20
396.2295435847613
 30
0.0
 11
56.74128784570394
 21
400.0599905847771
 31
0.0
  0
LINE
  5
3697
102
{ACAD_REACTORS
330
38D6
102
}
330
2
100
AcDbEntity
  8
KIJUN
100
AcDbLine
 10
56.74128784570394
 20
400.0599905847771
 30
0.0
 11
52.34530984568164
 21
404.1850775847983
 31
0.0
  0
LINE
  5
3698
102
{ACAD_REACTORS
330
38D6
102
}
330
2
100
AcDbEntity
  8
KIJUN
100
AcDbLine
 10
52.34530984568164
 20
404.1850775847983
 30
0.0
 11
49.45682184569932
 21
410.2744735847867
 31
0.0
  0
LINE
  5
3699
102
{ACAD_REACTORS
330
38D6
102
}
330
2
100
AcDbEntity
  8
KIJUN
100
AcDbLine
 10
49.45682184569932
 20
410.2744735847867
 30
0.0
 11
48.20079184566612
 21
416.2660795847608
 31
0.0
  0
LINE
  5
369A
102
{ACAD_REACTORS
330
38D6
102
}
330
2
100
AcDbEntity
  8
KIJUN
100
AcDbLine
 10
48.20079184566612
 20
416.2660795847608
 30
0.0
 11
48.20079184566612
 21
421.9625375847885
 31
0.0
  0
LINE
  5
369B
102
{ACAD_REACTORS
330
38D6
102
}
330
2
100
AcDbEntity
  8
KIJUN
100
AcDbLine
 10
48.20079184566612
 20
421.9625375847885
 30
0.0
 11
50.21031284563696
 21
428.347081584789
 31
0.0
  0
LINE
  5
369C
102
{ACAD_REACTORS
330
38D6
102
}
330
2
100
AcDbEntity
  8
KIJUN
100
AcDbLine
 10
50.21031284563696
 20
428.347081584789
 30
0.0
 11
53.09880084561928
 21
434.0435395847585
 31
0.0
  0
LINE
  5
369D
102
{ACAD_REACTORS
330
38D6
102
}
330
2
100
AcDbEntity
  8
KIJUN
100
AcDbLine
 10
53.09880084561928
 20
434.0435395847585
 30
0.0
 11
57.4947788456343
 21
438.5615645847924
 31
0.0
  0
LINE
  5
369E
102
{ACAD_REACTORS
330
38D6
102
}
330
2
100
AcDbEntity
  8
KIJUN
100
AcDbLine
 10
57.4947788456343
 20
438.5615645847924
 30
0.0
 11
63.64881784562067
 21
442.6865245847789
 31
0.0
  0
LINE
  5
369F
102
{ACAD_REACTORS
330
38D6
102
}
330
2
100
AcDbEntity
  8
KIJUN
100
AcDbLine
 10
63.64881784562067
 20
442.6865245847789
 30
0.0
 11
71.3098388457006
 21
446.124541584772
 31
0.0
  0
LINE
  5
36A0
102
{ACAD_REACTORS
330
38D6
102
}
330
2
100
AcDbEntity
  8
KIJUN
100
AcDbLine
 10
71.3098388457006
 20
446.124541584772
 30
0.0
 11
78.97085984565683
 21
448.0884695847839
 31
0.0
  0
LINE
  5
36A1
102
{ACAD_REACTORS
330
38D6
102
}
330
2
100
AcDbEntity
  8
KIJUN
100
AcDbLine
 10
78.97085984565683
 20
448.0884695847839
 30
0.0
 11
86.75786484564786
 21
449.3655815847946
 31
0.0
  0
LINE
  5
36A2
102
{ACAD_REACTORS
330
38D6
102
}
330
2
100
AcDbEntity
  8
KIJUN
100
AcDbLine
 10
86.75786484564786
 20
449.3655815847946
 30
0.0
 11
93.16285584568731
 21
449.954988584794
 31
0.0
  0
LINE
  5
36A3
102
{ACAD_REACTORS
330
38D6
102
}
330
2
100
AcDbEntity
  8
KIJUN
100
AcDbLine
 10
93.16285584568731
 20
449.954988584794
 30
0.0
 11
100.9493528456228
 21
449.6599675847742
 31
0.0
  0
LINE
  5
36A4
102
{ACAD_REACTORS
330
38D6
102
}
330
2
100
AcDbEntity
  8
KIJUN
100
AcDbLine
 10
100.9493528456228
 20
449.6599675847742
 30
0.0
 11
107.3548518456086
 21
449.071068584772
 31
0.0
  0
LINE
  5
36A5
102
{ACAD_REACTORS
330
38D6
102
}
330
2
100
AcDbEntity
  8
KIJUN
100
AcDbLine
 10
107.3548518456086
 20
449.071068584772
 30
0.0
 11
112.6292888457105
 21
447.7940835848044
 31
0.0
  0
LINE
  5
36A6
102
{ACAD_REACTORS
330
38D6
102
}
330
2
100
AcDbEntity
  8
KIJUN
100
AcDbLine
 10
112.6292888457105
 20
447.7940835848044
 30
0.0
 11
117.5278058456026
 21
446.5169715847936
 31
0.0
  0
LINE
  5
36A7
102
{ACAD_REACTORS
330
38D6
102
}
330
2
100
AcDbEntity
  8
KIJUN
100
AcDbLine
 10
117.5278058456026
 20
446.5169715847936
 30
0.0
 11
123.55636884561
 21
444.2580225847619
 31
0.0
  0
LINE
  5
36A8
102
{ACAD_REACTORS
330
38D6
102
}
330
2
100
AcDbEntity
  8
KIJUN
100
AcDbLine
 10
123.55636884561
 20
444.2580225847619
 30
0.0
 11
129.2078688456026
 21
441.7045605847729
 31
0.0
  0
LINE
  5
36A9
102
{ACAD_REACTORS
330
38D6
102
}
330
2
100
AcDbEntity
  8
KIJUN
100
AcDbLine
 10
129.2078688456026
 20
441.7045605847729
 30
0.0
 11
132.8498478456317
 21
438.5615645847924
 31
0.0
  0
LINE
  5
36AA
102
{ACAD_REACTORS
330
38D6
102
}
330
2
100
AcDbEntity
  8
KIJUN
100
AcDbLine
 10
167.0428198456434
 20
439.7784785847538
 30
0.0
 11
173.8248738457046
 21
436.3405885848027
 31
0.0
  0
LINE
  5
36AB
102
{ACAD_REACTORS
330
38D6
102
}
330
2
100
AcDbEntity
  8
KIJUN
100
AcDbLine
 10
173.8248738457046
 20
436.3405885848027
 30
0.0
 11
188.0168698456186
 21
430.054469584806
 31
0.0
  0
LINE
  5
36AC
102
{ACAD_REACTORS
330
38D6
102
}
330
2
100
AcDbEntity
  8
KIJUN
100
AcDbLine
 10
188.0168698456186
 20
430.054469584806
 30
0.0
 11
194.9242728456088
 21
426.8135565847682
 31
0.0
  0
LINE
  5
36AD
102
{ACAD_REACTORS
330
38D6
102
}
330
2
100
AcDbEntity
  8
KIJUN
100
AcDbLine
 10
194.9242728456088
 20
426.8135565847682
 30
0.0
 11
202.8363728456757
 21
423.0810265847599
 31
0.0
  0
LINE
  5
36AE
102
{ACAD_REACTORS
330
38D6
102
}
330
2
100
AcDbEntity
  8
KIJUN
100
AcDbLine
 10
202.8363728456757
 20
423.0810265847599
 30
0.0
 11
210.7488538456314
 21
419.3490045847925
 31
0.0
  0
LINE
  5
36AF
102
{ACAD_REACTORS
330
38D6
102
}
330
2
100
AcDbEntity
  8
KIJUN
100
AcDbLine
 10
210.7488538456314
 20
419.3490045847925
 30
0.0
 11
219.9168568456885
 21
414.929023584786
 31
0.0
  0
LINE
  5
36B0
102
{ACAD_REACTORS
330
38D6
102
}
330
2
100
AcDbEntity
  8
KIJUN
100
AcDbLine
 10
219.9168568456885
 20
414.929023584786
 30
0.0
 11
227.5783858457075
 21
411.4915145847902
 31
0.0
  0
LINE
  5
36B1
102
{ACAD_REACTORS
330
38D6
102
}
330
2
100
AcDbEntity
  8
KIJUN
100
AcDbLine
 10
227.5783858457075
 20
411.4915145847902
 30
0.0
 11
235.9928978456014
 21
407.366554584811
 31
0.0
  0
LINE
  5
36B2
102
{ACAD_REACTORS
330
38D6
102
}
330
2
100
AcDbEntity
  8
KIJUN
100
AcDbLine
 10
235.9928978456014
 20
407.366554584811
 30
0.0
 11
244.6588698456112
 21
407.9323369178658
 31
0.0
  0
LINE
  5
36B3
102
{ACAD_REACTORS
330
38D6
102
}
330
2
100
AcDbEntity
  8
KIJUN
100
AcDbLine
 10
244.6588698456112
 20
407.9323369178658
 30
0.0
 11
250.4358458456922
 21
404.1998069178439
 31
0.0
  0
LINE
  5
36B4
102
{ACAD_REACTORS
330
38D6
102
}
330
2
100
AcDbEntity
  8
KIJUN
100
AcDbLine
 10
250.4358458456922
 20
404.1998069178439
 30
0.0
 11
253.9523488456402
 21
399.9768029178217
 31
0.0
  0
LINE
  5
36B5
102
{ACAD_REACTORS
330
38D6
102
}
330
2
100
AcDbEntity
  8
KIJUN
100
AcDbLine
 10
253.9523488456402
 20
399.9768029178217
 30
0.0
 11
256.5898848456786
 21
396.2443999178499
 31
0.0
  0
LINE
  5
36B6
102
{ACAD_REACTORS
330
38D6
102
}
330
2
100
AcDbEntity
  8
KIJUN
100
AcDbLine
 10
256.5898848456786
 20
396.2443999178499
 30
0.0
 11
261.7393538456313
 21
394.181792917871
 31
0.0
  0
LINE
  5
36B7
102
{ACAD_REACTORS
330
38D6
102
}
330
2
100
AcDbEntity
  8
KIJUN
100
AcDbLine
 10
261.7393538456313
 20
394.181792917871
 30
0.0
 11
270.7818808455927
 21
391.726374917866
 31
0.0
  0
LINE
  5
36B8
102
{ACAD_REACTORS
330
38D6
102
}
330
2
100
AcDbEntity
  8
KIJUN
100
AcDbLine
 10
270.7818808455927
 20
391.726374917866
 30
0.0
 11
280.2013438456492
 21
390.0568329178335
 31
0.0
  0
LINE
  5
36B9
102
{ACAD_REACTORS
330
38D6
102
}
330
2
100
AcDbEntity
  8
KIJUN
100
AcDbLine
 10
280.2013438456492
 20
390.0568329178335
 30
0.0
 11
285.9783198456212
 21
390.9408799178404
 31
0.0
  0
LINE
  5
36BA
102
{ACAD_REACTORS
330
38D6
102
}
330
2
100
AcDbEntity
  8
KIJUN
100
AcDbLine
 10
285.9783198456212
 20
390.9408799178404
 30
0.0
 11
290.7508528456024
 21
392.1193129178194
 31
0.0
  0
LINE
  5
36BB
102
{ACAD_REACTORS
330
38D6
102
}
330
2
100
AcDbEntity
  8
KIJUN
100
AcDbLine
 10
290.7508528456024
 20
392.1193129178194
 30
0.0
 11
276.558856845681
 21
398.3068799178349
 31
0.0
  0
LINE
  5
36BC
102
{ACAD_REACTORS
330
38D6
102
}
330
2
100
AcDbEntity
  8
KIJUN
100
AcDbLine
 10
276.558856845681
 20
398.3068799178349
 30
0.0
 11
265.5068088456324
 21
402.5303919178609
 31
0.0
  0
LINE
  5
36BD
102
{ACAD_REACTORS
330
38D6
102
}
330
2
100
AcDbEntity
  8
KIJUN
100
AcDbLine
 10
265.5068088456324
 20
402.5303919178609
 30
0.0
 11
246.5422798456207
 21
409.8968999178527
 31
0.0
  0
LINE
  5
36BE
102
{ACAD_REACTORS
330
38D6
102
}
330
2
100
AcDbEntity
  8
KIJUN
100
AcDbLine
 10
246.5422798456207
 20
409.8968999178527
 30
0.0
 11
234.3598048456702
 21
409.4290345848044
 31
0.0
  0
LINE
  5
36BF
102
{ACAD_REACTORS
330
38D6
102
}
330
2
100
AcDbEntity
  8
KIJUN
100
AcDbLine
 10
234.3598048456702
 20
409.4290345848044
 30
0.0
 11
224.6893898456697
 21
414.3399975848064
 31
0.0
  0
LINE
  5
36C0
102
{ACAD_REACTORS
330
38D6
102
}
330
2
100
AcDbEntity
  8
KIJUN
100
AcDbLine
 10
224.6893898456697
 20
414.3399975848064
 30
0.0
 11
215.2703078456255
 21
418.8580225847895
 31
0.0
  0
LINE
  5
36C1
102
{ACAD_REACTORS
330
38D6
102
}
330
2
100
AcDbEntity
  8
KIJUN
100
AcDbLine
 10
215.2703078456255
 20
418.8580225847895
 30
0.0
 11
206.3528758456237
 21
423.179578584792
 31
0.0
  0
LINE
  5
36C2
102
{ACAD_REACTORS
330
38D6
102
}
330
2
100
AcDbEntity
  8
KIJUN
100
AcDbLine
 10
206.3528758456237
 20
423.179578584792
 30
0.0
 11
198.5663788456881
 21
426.8135565847682
 31
0.0
  0
LINE
  5
36C3
102
{ACAD_REACTORS
330
38D6
102
}
330
2
100
AcDbEntity
  8
KIJUN
100
AcDbLine
 10
198.5663788456881
 20
426.8135565847682
 30
0.0
 11
192.2868638456134
 21
429.7600835847682
 31
0.0
  0
LINE
  5
36C4
102
{ACAD_REACTORS
330
38D6
102
}
330
2
100
AcDbEntity
  8
KIJUN
100
AcDbLine
 10
192.2868638456134
 20
429.7600835847682
 30
0.0
 11
185.3793338457039
 21
433.0009965848062
 31
0.0
  0
LINE
  5
36C5
102
{ACAD_REACTORS
330
38D6
102
}
330
2
100
AcDbEntity
  8
KIJUN
100
AcDbLine
 10
185.3793338457039
 20
433.0009965848062
 30
0.0
 11
178.0948678456993
 21
435.9480315847963
 31
0.0
  0
LINE
  5
36C6
102
{ACAD_REACTORS
330
38D6
102
}
330
2
100
AcDbEntity
  8
KIJUN
100
AcDbLine
 10
178.0948678456993
 20
435.9480315847963
 30
0.0
 11
167.0428198456434
 21
439.7784785847538
 31
0.0
  0
LINE
  5
36C7
102
{ACAD_REACTORS
330
38D6
102
}
330
2
100
AcDbEntity
  8
KIJUN
100
AcDbLine
 10
106.5668168456473
 20
391.9975225848014
 30
0.0
 11
177.4008128456703
 21
353.6925445848087
 31
0.0
  0
LINE
  5
36C8
102
{ACAD_REACTORS
330
38D6
102
}
330
2
100
AcDbEntity
  8
KIJUN
100
AcDbLine
 10
177.4008128456703
 20
353.6925445848087
 30
0.0
 11
242.7087848456726
 21
352.9065415847858
 31
0.0
  0
LINE
  5
36C9
102
{ACAD_REACTORS
330
38D6
102
}
330
2
100
AcDbEntity
  8
KIJUN
100
AcDbLine
 10
242.7087848456726
 20
352.9065415847858
 30
0.0
 11
254.5143238456517
 21
370.0718589178418
 31
0.0
  0
LINE
  5
36CA
102
{ACAD_REACTORS
330
38D6
102
}
330
2
100
AcDbEntity
  8
KIJUN
100
AcDbLine
 10
254.5143238456517
 20
370.0718589178418
 30
0.0
 11
259.0357778456387
 21
372.8582389178541
 31
0.0
  0
LINE
  5
36CB
102
{ACAD_REACTORS
330
38D6
102
}
330
2
100
AcDbEntity
  8
KIJUN
100
AcDbLine
 10
259.0357778456387
 20
372.8582389178541
 30
0.0
 11
263.6407978456268
 21
374.6187129178274
 31
0.0
  0
LINE
  5
36CC
102
{ACAD_REACTORS
330
38D6
102
}
330
2
100
AcDbEntity
  8
KIJUN
100
AcDbLine
 10
263.6407978456268
 20
374.6187129178274
 30
0.0
 11
268.8317958456469
 21
376.3573429178564
 31
0.0
  0
LINE
  5
36CD
102
{ACAD_REACTORS
330
38D6
102
}
330
2
100
AcDbEntity
  8
KIJUN
100
AcDbLine
 10
268.8317958456469
 20
376.3573429178564
 30
0.0
 11
281.9726128456973
 21
378.0454269178658
 31
0.0
  0
LINE
  5
36CE
102
{ACAD_REACTORS
330
38D6
102
}
330
2
100
AcDbEntity
  8
KIJUN
100
AcDbLine
 10
281.9726128456973
 20
378.0454269178658
 30
0.0
 11
294.7505908456956
 21
378.5983849178306
 31
0.0
  0
LINE
  5
36CF
102
{ACAD_REACTORS
330
38D6
102
}
330
2
100
AcDbEntity
  8
KIJUN
100
AcDbLine
 10
294.7505908456956
 20
378.5983849178306
 30
0.0
 11
307.8912808456958
 21
378.3217789178657
 31
0.0
  0
LINE
  5
36D0
102
{ACAD_REACTORS
330
38D6
102
}
330
2
100
AcDbEntity
  8
KIJUN
100
AcDbLine
 10
307.8912808456958
 20
378.3217789178657
 30
0.0
 11
317.3103628456224
 21
380.5808549178177
 31
0.0
  0
LINE
  5
36D1
102
{ACAD_REACTORS
330
38D6
102
}
330
2
100
AcDbEntity
  8
KIJUN
100
AcDbLine
 10
317.3103628456224
 20
380.5808549178177
 30
0.0
 11
327.7347768456098
 21
381.8578399178427
 31
0.0
  0
LINE
  5
36D2
102
{ACAD_REACTORS
330
38D6
102
}
330
2
100
AcDbEntity
  8
KIJUN
100
AcDbLine
 10
327.7347768456098
 20
381.8578399178427
 30
0.0
 11
362.7748388457044
 21
375.7683169178695
 31
0.0
  0
LINE
  5
36D3
102
{ACAD_REACTORS
330
38D6
102
}
330
2
100
AcDbEntity
  8
KIJUN
100
AcDbLine
 10
362.7748388457044
 20
375.7683169178695
 30
0.0
 11
350.0714098456524
 21
377.3833759178219
 31
0.0
  0
LINE
  5
36D4
102
{ACAD_REACTORS
330
38D6
102
}
330
2
100
AcDbEntity
  8
KIJUN
100
AcDbLine
 10
350.0714098456524
 20
377.3833759178219
 30
0.0
 11
338.9310968456416
 21
377.5580009178579
 31
0.0
  0
LINE
  5
36D5
102
{ACAD_REACTORS
330
38D6
102
}
330
2
100
AcDbEntity
  8
KIJUN
100
AcDbLine
 10
338.9310968456416
 20
377.5580009178579
 30
0.0
 11
327.2323648456663
 21
376.3573429178564
 31
0.0
  0
LINE
  5
36D6
102
{ACAD_REACTORS
330
38D6
102
}
330
2
100
AcDbEntity
  8
KIJUN
100
AcDbLine
 10
327.2323648456663
 20
376.3573429178564
 30
0.0
 11
312.6638138456697
 21
372.6253209178306
 31
0.0
  0
LINE
  5
36D7
102
{ACAD_REACTORS
330
38D6
102
}
330
2
100
AcDbEntity
  8
KIJUN
100
AcDbLine
 10
312.6638138456697
 20
372.6253209178306
 30
0.0
 11
285.4103758456627
 21
372.2323829178126
 31
0.0
  0
LINE
  5
36D8
102
{ACAD_REACTORS
330
38D6
102
}
330
2
100
AcDbEntity
  8
KIJUN
100
AcDbLine
 10
285.4103758456627
 20
372.2323829178126
 30
0.0
 11
271.7207918456993
 21
370.9553979178513
 31
0.0
  0
LINE
  5
36D9
102
{ACAD_REACTORS
330
38D6
102
}
330
2
100
AcDbEntity
  8
KIJUN
100
AcDbLine
 10
271.7207918456993
 20
370.9553979178513
 30
0.0
 11
262.5522808457031
 21
366.9288629178613
 31
0.0
  0
LINE
  5
36DA
102
{ACAD_REACTORS
330
38D6
102
}
330
2
100
AcDbEntity
  8
KIJUN
100
AcDbLine
 10
262.5522808457031
 20
366.9288629178613
 30
0.0
 11
257.0263838456017
 21
361.4283659178168
 31
0.0
  0
LINE
  5
36DB
102
{ACAD_REACTORS
330
38D6
102
}
330
2
100
AcDbEntity
  8
KIJUN
100
AcDbLine
 10
257.0263838456017
 20
361.4283659178168
 30
0.0
 11
251.8772958456689
 21
345.2455205847641
 31
0.0
  0
LINE
  5
36DC
102
{ACAD_REACTORS
330
38D6
102
}
330
2
100
AcDbEntity
  8
KIJUN
100
AcDbLine
 10
251.8772958456689
 20
345.2455205847641
 30
0.0
 11
174.3868488456066
 21
345.2455205847641
 31
0.0
  0
LINE
  5
36DD
102
{ACAD_REACTORS
330
38D6
102
}
330
2
100
AcDbEntity
  8
KIJUN
100
AcDbLine
 10
174.3868488456066
 20
345.2455205847641
 30
0.0
 11
95.01286484560159
 21
386.1044685848087
 31
0.0
  0
LINE
  5
36DE
102
{ACAD_REACTORS
330
38D6
102
}
330
2
100
AcDbEntity
  8
KIJUN
100
AcDbLine
 10
95.01286484560159
 20
386.1044685848087
 30
0.0
 11
99.04092384569276
 21
387.9378405848024
 31
0.0
  0
LINE
  5
36DF
102
{ACAD_REACTORS
330
38D6
102
}
330
2
100
AcDbEntity
  8
KIJUN
100
AcDbLine
 10
99.04092384569276
 20
387.9378405848024
 30
0.0
 11
102.7899638456952
 21
390.1641505847569
 31
0.0
  0
LINE
  5
36E0
102
{ACAD_REACTORS
330
38D6
102
}
330
2
100
AcDbEntity
  8
KIJUN
100
AcDbLine
 10
102.7899638456952
 20
390.1641505847569
 30
0.0
 11
106.5668168456473
 21
391.9975225848014
 31
0.0
  0
LINE
  5
36E1
102
{ACAD_REACTORS
330
38D6
102
}
330
2
100
AcDbEntity
  8
KIJUN
100
AcDbLine
 10
175.5388658456508
 20
435.5925585847566
 30
0.0
 11
187.4703888456574
 21
428.8150765848025
 31
0.0
  0
LINE
  5
36E2
102
{ACAD_REACTORS
330
38D6
102
}
330
2
100
AcDbEntity
  8
KIJUN
100
AcDbLine
 10
187.4703888456574
 20
428.8150765848025
 30
0.0
 11
193.8753798457041
 21
424.6899895847804
 31
0.0
  0
LINE
  5
36E3
102
{ACAD_REACTORS
330
38D6
102
}
330
2
100
AcDbEntity
  8
KIJUN
100
AcDbLine
 10
193.8753798457041
 20
424.6899895847804
 30
0.0
 11
201.1598458457015
 21
419.288044584769
 31
0.0
  0
LINE
  5
36E4
102
{ACAD_REACTORS
330
38D6
102
}
330
2
100
AcDbEntity
  8
KIJUN
100
AcDbLine
 10
201.1598458457015
 20
419.288044584769
 30
0.0
 11
208.4443118457134
 21
414.4755065847625
 31
0.0
  0
LINE
  5
36E5
102
{ACAD_REACTORS
330
38D6
102
}
330
2
100
AcDbEntity
  8
KIJUN
100
AcDbLine
 10
208.4443118457134
 20
414.4755065847625
 30
0.0
 11
213.8448598456457
 21
410.2519945848021
 31
0.0
  0
LINE
  5
36E6
102
{ACAD_REACTORS
330
38D6
102
}
330
2
100
AcDbEntity
  8
KIJUN
100
AcDbLine
 10
213.8448598456457
 20
410.2519945848021
 30
0.0
 11
219.1192968456239
 21
404.850049584797
 31
0.0
  0
LINE
  5
36E7
102
{ACAD_REACTORS
330
38D6
102
}
330
2
100
AcDbEntity
  8
KIJUN
100
AcDbLine
 10
219.1192968456239
 20
404.850049584797
 30
0.0
 11
224.8967808456514
 21
400.2339805847644
 31
0.0
  0
LINE
  5
36E8
102
{ACAD_REACTORS
330
38D6
102
}
330
2
100
AcDbEntity
  8
KIJUN
100
AcDbLine
 10
224.8967808456514
 20
400.2339805847644
 30
0.0
 11
231.3017718456981
 21
396.4035335847579
 31
0.0
  0
LINE
  5
36E9
102
{ACAD_REACTORS
330
38D6
102
}
330
2
100
AcDbEntity
  8
KIJUN
100
AcDbLine
 10
231.3017718456981
 20
396.4035335847579
 30
0.0
 11
239.5908078456127
 21
398.7372829178334
 31
0.0
  0
LINE
  5
36EA
102
{ACAD_REACTORS
330
38D6
102
}
330
2
100
AcDbEntity
  8
KIJUN
100
AcDbLine
 10
239.5908078456127
 20
398.7372829178334
 30
0.0
 11
248.0058278456786
 21
397.0673599178467
 31
0.0
  0
LINE
  5
36EB
102
{ACAD_REACTORS
330
38D6
102
}
330
2
100
AcDbEntity
  8
KIJUN
100
AcDbLine
 10
248.0058278456786
 20
397.0673599178467
 30
0.0
 11
255.4158968456909
 21
397.0673599178467
 31
0.0
  0
LINE
  5
36EC
102
{ACAD_REACTORS
330
38D6
102
}
330
2
100
AcDbEntity
  8
KIJUN
100
AcDbLine
 10
255.4158968456909
 20
397.0673599178467
 30
0.0
 11
253.2803918457071
 21
401.5853849178297
 31
0.0
  0
LINE
  5
36ED
102
{ACAD_REACTORS
330
38D6
102
}
330
2
100
AcDbEntity
  8
KIJUN
100
AcDbLine
 10
253.2803918457071
 20
401.5853849178297
 30
0.0
 11
248.633842845637
 21
405.7108529178716
 31
0.0
  0
LINE
  5
36EE
102
{ACAD_REACTORS
330
38D6
102
}
330
2
100
AcDbEntity
  8
KIJUN
100
AcDbLine
 10
248.633842845637
 20
405.7108529178716
 30
0.0
 11
241.2237738456174
 21
410.7198599178578
 31
0.0
  0
LINE
  5
36EF
102
{ACAD_REACTORS
330
38D6
102
}
330
2
100
AcDbEntity
  8
KIJUN
100
AcDbLine
 10
241.2237738456174
 20
410.7198599178578
 30
0.0
 11
227.0317778457033
 21
411.8234925847922
 31
0.0
  0
LINE
  5
36F0
102
{ACAD_REACTORS
330
38D6
102
}
330
2
100
AcDbEntity
  8
KIJUN
100
AcDbLine
 10
227.0317778457033
 20
411.8234925847922
 30
0.0
 11
212.8397818456656
 21
418.5025495848081
 31
0.0
  0
LINE
  5
36F1
102
{ACAD_REACTORS
330
38D6
102
}
330
2
100
AcDbEntity
  8
KIJUN
100
AcDbLine
 10
212.8397818456656
 20
418.5025495848081
 30
0.0
 11
199.0248488456568
 21
424.6899895847804
 31
0.0
  0
LINE
  5
36F2
102
{ACAD_REACTORS
330
38D6
102
}
330
2
100
AcDbEntity
  8
KIJUN
100
AcDbLine
 10
199.0248488456568
 20
424.6899895847804
 30
0.0
 11
190.1077978456528
 21
429.2080145847635
 31
0.0
  0
LINE
  5
36F3
102
{ACAD_REACTORS
330
38D6
102
}
330
2
100
AcDbEntity
  8
KIJUN
100
AcDbLine
 10
190.1077978456528
 20
429.2080145847635
 30
0.0
 11
175.5388658456508
 21
435.5925585847566
 31
0.0
  0
LINE
  5
36F4
102
{ACAD_REACTORS
330
38D6
102
}
330
2
100
AcDbEntity
  8
KIJUN
100
AcDbLine
 10
106.774334845672
 20
451.2115265847665
 30
0.0
 11
119.3333648457051
 21
447.2830355847695
 31
0.0
  0
LINE
  5
36F5
102
{ACAD_REACTORS
330
38D6
102
}
330
2
100
AcDbEntity
  8
KIJUN
100
AcDbLine
 10
119.3333648457051
 20
447.2830355847695
 30
0.0
 11
122.4733128456869
 21
445.6129855847962
 31
0.0
  0
LINE
  5
36F6
102
{ACAD_REACTORS
330
38D6
102
}
330
2
100
AcDbEntity
  8
KIJUN
100
AcDbLine
 10
122.4733128456869
 20
445.6129855847962
 30
0.0
 11
125.4872768456412
 21
443.7469745847834
 31
0.0
  0
LINE
  5
36F7
102
{ACAD_REACTORS
330
38D6
102
}
330
2
100
AcDbEntity
  8
KIJUN
100
AcDbLine
 10
125.4872768456412
 20
443.7469745847834
 30
0.0
 11
127.8738608456265
 21
442.0770515847966
 31
0.0
  0
LINE
  5
36F8
102
{ACAD_REACTORS
330
38D6
102
}
330
2
100
AcDbEntity
  8
KIJUN
100
AcDbLine
 10
127.8738608456265
 20
442.0770515847966
 30
0.0
 11
131.0138088456083
 21
439.9165275847685
 31
0.0
  0
LINE
  5
36F9
102
{ACAD_REACTORS
330
38D6
102
}
330
2
100
AcDbEntity
  8
KIJUN
100
AcDbLine
 10
131.0138088456083
 20
439.9165275847685
 30
0.0
 11
133.7768208456186
 21
437.755495584794
 31
0.0
  0
LINE
  5
36FA
102
{ACAD_REACTORS
330
38D6
102
}
330
2
100
AcDbEntity
  8
KIJUN
100
AcDbLine
 10
133.7768208456186
 20
437.755495584794
 30
0.0
 11
136.7907848456821
 21
434.5145825847635
 31
0.0
  0
LINE
  5
36FB
102
{ACAD_REACTORS
330
38D6
102
}
330
2
100
AcDbEntity
  8
KIJUN
100
AcDbLine
 10
136.7907848456821
 20
434.5145825847635
 30
0.0
 11
138.2978938456003
 21
431.7645245848092
 31
0.0
  0
LINE
  5
36FC
102
{ACAD_REACTORS
330
38D6
102
}
330
2
100
AcDbEntity
  8
KIJUN
100
AcDbLine
 10
138.2978938456003
 20
431.7645245848092
 30
0.0
 11
139.4283208456186
 21
429.2105545847574
 31
0.0
  0
LINE
  5
36FD
102
{ACAD_REACTORS
330
38D6
102
}
330
2
100
AcDbEntity
  8
KIJUN
100
AcDbLine
 10
139.4283208456186
 20
429.2105545847574
 30
0.0
 11
139.8048758456866
 21
426.7550095847605
 31
0.0
  0
LINE
  5
36FE
102
{ACAD_REACTORS
330
38D6
102
}
330
2
100
AcDbEntity
  8
KIJUN
100
AcDbLine
 10
139.8048758456866
 20
426.7550095847605
 30
0.0
 11
140.432890845645
 21
424.2994645847634
 31
0.0
  0
LINE
  5
36FF
102
{ACAD_REACTORS
330
38D6
102
}
330
2
100
AcDbEntity
  8
KIJUN
100
AcDbLine
 10
140.432890845645
 20
424.2994645847634
 30
0.0
 11
140.8098268456237
 21
421.7460025847745
 31
0.0
  0
LINE
  5
3700
102
{ACAD_REACTORS
330
38D6
102
}
330
2
100
AcDbEntity
  8
KIJUN
100
AcDbLine
 10
140.8098268456237
 20
421.7460025847745
 30
0.0
 11
141.0607788456841
 21
419.2905845847621
 31
0.0
  0
LINE
  5
3701
102
{ACAD_REACTORS
330
38D6
102
}
330
2
100
AcDbEntity
  8
KIJUN
100
AcDbLine
 10
141.0607788456841
 20
419.2905845847621
 30
0.0
 11
141.0607788456841
 21
416.7369955847885
 31
0.0
  0
LINE
  5
3702
102
{ACAD_REACTORS
330
38D6
102
}
330
2
100
AcDbEntity
  8
KIJUN
100
AcDbLine
 10
141.0607788456841
 20
416.7369955847885
 30
0.0
 11
140.0563358456861
 21
413.8885125847722
 31
0.0
  0
LINE
  5
3703
102
{ACAD_REACTORS
330
38D6
102
}
330
2
100
AcDbEntity
  8
KIJUN
100
AcDbLine
 10
140.0563358456861
 20
413.8885125847722
 30
0.0
 11
138.1722908456945
 21
411.236498584802
 31
0.0
  0
LINE
  5
3704
102
{ACAD_REACTORS
330
38D6
102
}
330
2
100
AcDbEntity
  8
KIJUN
100
AcDbLine
 10
138.1722908456945
 20
411.236498584802
 30
0.0
 11
134.6557878456374
 21
407.2099635847538
 31
0.0
  0
LINE
  5
3705
102
{ACAD_REACTORS
330
38D6
102
}
330
2
100
AcDbEntity
  8
KIJUN
100
AcDbLine
 10
134.6557878456374
 20
407.2099635847538
 30
0.0
 11
135.0323428455963
 21
403.6740295847615
 31
0.0
  0
LINE
  5
3706
102
{ACAD_REACTORS
330
38D6
102
}
330
2
100
AcDbEntity
  8
KIJUN
100
AcDbLine
 10
135.0323428455963
 20
403.6740295847615
 30
0.0
 11
135.7863418456986
 21
399.057579584783
 31
0.0
  0
LINE
  5
3707
102
{ACAD_REACTORS
330
38D6
102
}
330
2
100
AcDbEntity
  8
KIJUN
100
AcDbLine
 10
135.7863418456986
 20
399.057579584783
 30
0.0
 11
138.2978938456003
 21
389.0395655848037
 31
0.0
  0
LINE
  5
3708
102
{ACAD_REACTORS
330
38D6
102
}
330
2
100
AcDbEntity
  8
KIJUN
100
AcDbLine
 10
138.2978938456003
 20
389.0395655848037
 30
0.0
 11
144.9543448456393
 21
380.9854795847845
 31
0.0
  0
LINE
  5
3709
102
{ACAD_REACTORS
330
38D6
102
}
330
2
100
AcDbEntity
  8
KIJUN
100
AcDbLine
 10
144.9543448456393
 20
380.9854795847845
 30
0.0
 11
151.6107958456782
 21
377.0569885847858
 31
0.0
  0
LINE
  5
370A
102
{ACAD_REACTORS
330
38D6
102
}
330
2
100
AcDbEntity
  8
KIJUN
100
AcDbLine
 10
151.6107958456782
 20
377.0569885847858
 30
0.0
 11
161.5322898456656
 21
374.5030185847922
 31
0.0
  0
LINE
  5
370B
102
{ACAD_REACTORS
330
38D6
102
}
330
2
100
AcDbEntity
  8
KIJUN
100
AcDbLine
 10
161.5322898456656
 20
374.5030185847922
 30
0.0
 11
168.1888678456457
 21
375.5835345847795
 31
0.0
  0
LINE
  5
370C
102
{ACAD_REACTORS
330
38D6
102
}
330
2
100
AcDbEntity
  8
KIJUN
100
AcDbLine
 10
168.1888678456457
 20
375.5835345847795
 30
0.0
 11
162.5373678456385
 21
386.0930385848101
 31
0.0
  0
LINE
  5
370D
102
{ACAD_REACTORS
330
38D6
102
}
330
2
100
AcDbEntity
  8
KIJUN
100
AcDbLine
 10
162.5373678456385
 20
386.0930385848101
 30
0.0
 11
160.6533228456542
 21
391.4949835847578
 31
0.0
  0
LINE
  5
370E
102
{ACAD_REACTORS
330
38D6
102
}
330
2
100
AcDbEntity
  8
KIJUN
100
AcDbLine
 10
160.6533228456542
 20
391.4949835847578
 30
0.0
 11
160.6533228456542
 21
395.5220265848024
 31
0.0
  0
LINE
  5
370F
102
{ACAD_REACTORS
330
38D6
102
}
330
2
100
AcDbEntity
  8
KIJUN
100
AcDbLine
 10
160.6533228456542
 20
395.5220265848024
 30
0.0
 11
160.6533228456542
 21
400.0400515847854
 31
0.0
  0
LINE
  5
3710
102
{ACAD_REACTORS
330
38D6
102
}
330
2
100
AcDbEntity
  8
KIJUN
100
AcDbLine
 10
160.6533228456542
 20
400.0400515847854
 30
0.0
 11
161.2813378456053
 21
406.0310225847773
 31
0.0
  0
LINE
  5
3711
102
{ACAD_REACTORS
330
38D6
102
}
330
2
100
AcDbEntity
  8
KIJUN
100
AcDbLine
 10
161.2813378456053
 20
406.0310225847773
 30
0.0
 11
161.9093528456874
 21
409.9600215847735
 31
0.0
  0
LINE
  5
3712
102
{ACAD_REACTORS
330
38D6
102
}
330
2
100
AcDbEntity
  8
KIJUN
100
AcDbLine
 10
161.9093528456874
 20
409.9600215847735
 30
0.0
 11
161.2813378456053
 21
415.4600105847625
 31
0.0
  0
LINE
  5
3713
102
{ACAD_REACTORS
330
38D6
102
}
330
2
100
AcDbEntity
  8
KIJUN
100
AcDbLine
 10
161.2813378456053
 20
415.4600105847625
 30
0.0
 11
159.7743558456354
 21
420.9605075848144
 31
0.0
  0
LINE
  5
3714
102
{ACAD_REACTORS
330
38D6
102
}
330
2
100
AcDbEntity
  8
KIJUN
100
AcDbLine
 10
159.7743558456354
 20
420.9605075848144
 30
0.0
 11
157.8903108456366
 21
425.4785325847974
 31
0.0
  0
LINE
  5
3715
102
{ACAD_REACTORS
330
38D6
102
}
330
2
100
AcDbEntity
  8
KIJUN
100
AcDbLine
 10
157.8903108456366
 20
425.4785325847974
 30
0.0
 11
156.3833288456521
 21
429.6034925847766
 31
0.0
  0
LINE
  5
3716
102
{ACAD_REACTORS
330
38D6
102
}
330
2
100
AcDbEntity
  8
KIJUN
100
AcDbLine
 10
156.3833288456521
 20
429.6034925847766
 30
0.0
 11
153.6203168456491
 21
432.6485715847507
 31
0.0
  0
LINE
  5
3717
102
{ACAD_REACTORS
330
38D6
102
}
330
2
100
AcDbEntity
  8
KIJUN
100
AcDbLine
 10
153.6203168456491
 20
432.6485715847507
 30
0.0
 11
150.6058448456392
 21
436.2825495847922
 31
0.0
  0
LINE
  5
3718
102
{ACAD_REACTORS
330
38D6
102
}
330
2
100
AcDbEntity
  8
KIJUN
100
AcDbLine
 10
150.6058448456392
 20
436.2825495847922
 30
0.0
 11
146.3358508456444
 21
440.4075095847715
 31
0.0
  0
LINE
  5
3719
102
{ACAD_REACTORS
330
38D6
102
}
330
2
100
AcDbEntity
  8
KIJUN
100
AcDbLine
 10
146.3358508456444
 20
440.4075095847715
 30
0.0
 11
140.8098268456237
 21
443.7469745847834
 31
0.0
  0
LINE
  5
371A
102
{ACAD_REACTORS
330
38D6
102
}
330
2
100
AcDbEntity
  8
KIJUN
100
AcDbLine
 10
140.8098268456237
 20
443.7469745847834
 30
0.0
 11
135.5348818456991
 21
445.9074985847605
 31
0.0
  0
LINE
  5
371B
102
{ACAD_REACTORS
330
38D6
102
}
330
2
100
AcDbEntity
  8
KIJUN
100
AcDbLine
 10
135.5348818456991
 20
445.9074985847605
 30
0.0
 11
129.7577788456842
 21
447.7740175847634
 31
0.0
  0
LINE
  5
371C
102
{ACAD_REACTORS
330
38D6
102
}
330
2
100
AcDbEntity
  8
KIJUN
100
AcDbLine
 10
129.7577788456842
 20
447.7740175847634
 30
0.0
 11
123.6038668456317
 21
449.2469635847724
 31
0.0
  0
LINE
  5
371D
102
{ACAD_REACTORS
330
38D6
102
}
330
2
100
AcDbEntity
  8
KIJUN
100
AcDbLine
 10
123.6038668456317
 20
449.2469635847724
 30
0.0
 11
117.1983678456458
 21
450.2295625847605
 31
0.0
  0
LINE
  5
371E
102
{ACAD_REACTORS
330
38D6
102
}
330
2
100
AcDbEntity
  8
KIJUN
100
AcDbLine
 10
117.1983678456458
 20
450.2295625847605
 30
0.0
 11
112.3003588456999
 21
450.917013584802
 31
0.0
  0
LINE
  5
371F
102
{ACAD_REACTORS
330
38D6
102
}
330
2
100
AcDbEntity
  8
KIJUN
100
AcDbLine
 10
112.3003588456999
 20
450.917013584802
 30
0.0
 11
106.774334845672
 21
451.2115265847665
 31
0.0
  0
LINE
  5
3720
102
{ACAD_REACTORS
330
38D6
102
}
330
2
100
AcDbEntity
  8
KIJUN
100
AcDbLine
 10
167.6073348456998
 20
376.5355265847961
 30
0.0
 11
160.574328845702
 21
377.6160425847915
 31
0.0
  0
LINE
  5
3721
102
{ACAD_REACTORS
330
38D6
102
}
330
2
100
AcDbEntity
  8
KIJUN
100
AcDbLine
 10
160.574328845702
 20
377.6160425847915
 30
0.0
 11
153.6667988456761
 21
381.6430855847707
 31
0.0
  0
LINE
  5
3722
102
{ACAD_REACTORS
330
38D6
102
}
330
2
100
AcDbEntity
  8
KIJUN
100
AcDbLine
 10
153.6667988456761
 20
381.6430855847707
 30
0.0
 11
150.6523268456662
 21
386.4554965847914
 31
0.0
  0
LINE
  5
3723
102
{ACAD_REACTORS
330
38D6
102
}
330
2
100
AcDbEntity
  8
KIJUN
100
AcDbLine
 10
150.6523268456662
 20
386.4554965847914
 30
0.0
 11
148.391853845635
 21
392.2505065848004
 31
0.0
  0
LINE
  5
3724
102
{ACAD_REACTORS
330
38D6
102
}
330
2
100
AcDbEntity
  8
KIJUN
100
AcDbLine
 10
148.391853845635
 20
392.2505065848004
 30
0.0
 11
146.6332848456154
 21
400.4025095847596
 31
0.0
  0
LINE
  5
3725
102
{ACAD_REACTORS
330
38D6
102
}
330
2
100
AcDbEntity
  8
KIJUN
100
AcDbLine
 10
146.6332848456154
 20
400.4025095847596
 30
0.0
 11
146.2568568456995
 21
407.9654865847974
 31
0.0
  0
LINE
  5
3726
102
{ACAD_REACTORS
330
38D6
102
}
330
2
100
AcDbEntity
  8
KIJUN
100
AcDbLine
 10
146.2568568456995
 20
407.9654865847974
 30
0.0
 11
145.3773818456252
 21
418.1799695847571
 31
0.0
  0
LINE
  5
3727
102
{ACAD_REACTORS
330
38D6
102
}
330
2
100
AcDbEntity
  8
KIJUN
100
AcDbLine
 10
145.3773818456252
 20
418.1799695847571
 30
0.0
 11
144.1218598456476
 21
423.9749795847659
 31
0.0
  0
LINE
  5
3728
102
{ACAD_REACTORS
330
38D6
102
}
330
2
100
AcDbEntity
  8
KIJUN
100
AcDbLine
 10
144.1218598456476
 20
423.9749795847659
 30
0.0
 11
141.8608788456772
 21
428.6894735847877
 31
0.0
  0
LINE
  5
3729
102
{ACAD_REACTORS
330
38D6
102
}
330
2
100
AcDbEntity
  8
KIJUN
100
AcDbLine
 10
141.8608788456772
 20
428.6894735847877
 30
0.0
 11
138.8467878456872
 21
433.5020115847942
 31
0.0
  0
LINE
  5
372A
102
{ACAD_REACTORS
330
38D6
102
}
330
2
100
AcDbEntity
  8
KIJUN
100
AcDbLine
 10
138.8467878456872
 20
433.5020115847942
 30
0.0
 11
134.9533488456513
 21
437.6269715847724
 31
0.0
  0
LINE
  5
372B
102
{ACAD_REACTORS
330
38D6
102
}
330
2
100
AcDbEntity
  8
KIJUN
100
AcDbLine
 10
134.9533488456513
 20
437.6269715847724
 30
0.0
 11
128.9247858456442
 21
441.6540145847597
 31
0.0
  0
LINE
  5
372C
102
{ACAD_REACTORS
330
38D6
102
}
330
2
100
AcDbEntity
  8
KIJUN
100
AcDbLine
 10
128.9247858456442
 20
441.6540145847597
 30
0.0
 11
122.7708738457008
 21
445.0915235847554
 31
0.0
  0
LINE
  5
372D
102
{ACAD_REACTORS
330
38D6
102
}
330
2
100
AcDbEntity
  8
KIJUN
100
AcDbLine
 10
122.7708738457008
 20
445.0915235847554
 30
0.0
 11
118.8778158456775
 21
447.1545115848043
 31
0.0
  0
LINE
  5
372E
102
{ACAD_REACTORS
330
38D6
102
}
330
2
100
AcDbEntity
  8
KIJUN
100
AcDbLine
 10
118.8778158456775
 20
447.1545115848043
 30
0.0
 11
113.7283468456157
 21
449.2169915847902
 31
0.0
  0
LINE
  5
372F
102
{ACAD_REACTORS
330
38D6
102
}
330
2
100
AcDbEntity
  8
KIJUN
100
AcDbLine
 10
113.7283468456157
 20
449.2169915847902
 30
0.0
 11
107.1973718456579
 21
451.2794715847834
 31
0.0
  0
LINE
  5
3730
102
{ACAD_REACTORS
330
38D6
102
}
330
2
100
AcDbEntity
  8
KIJUN
100
AcDbLine
 10
107.1973718456579
 20
451.2794715847834
 30
0.0
 11
102.4248388456767
 21
452.2615625847742
 31
0.0
  0
LINE
  5
3731
102
{ACAD_REACTORS
330
38D6
102
}
330
2
100
AcDbEntity
  8
KIJUN
100
AcDbLine
 10
102.4248388456767
 20
452.2615625847742
 30
0.0
 11
110.2118438456678
 21
451.8690055847695
 31
0.0
  0
LINE
  5
3732
102
{ACAD_REACTORS
330
38D6
102
}
330
2
100
AcDbEntity
  8
KIJUN
100
AcDbLine
 10
110.2118438456678
 20
451.8690055847695
 30
0.0
 11
116.2402798456392
 21
451.5739845848069
 31
0.0
  0
LINE
  5
3733
102
{ACAD_REACTORS
330
38D6
102
}
330
2
100
AcDbEntity
  8
KIJUN
100
AcDbLine
 10
116.2402798456392
 20
451.5739845848069
 30
0.0
 11
121.8917798456318
 21
450.5920205848
 31
0.0
  0
LINE
  5
3734
102
{ACAD_REACTORS
330
38D6
102
}
330
2
100
AcDbEntity
  8
KIJUN
100
AcDbLine
 10
121.8917798456318
 20
450.5920205848
 30
0.0
 11
126.664312845613
 21
449.2169915847902
 31
0.0
  0
LINE
  5
3735
102
{ACAD_REACTORS
330
38D6
102
}
330
2
100
AcDbEntity
  8
KIJUN
100
AcDbLine
 10
126.664312845613
 20
449.2169915847902
 30
0.0
 11
131.939384845697
 21
447.4490245847686
 31
0.0
  0
LINE
  5
3736
102
{ACAD_REACTORS
330
38D6
102
}
330
2
100
AcDbEntity
  8
KIJUN
100
AcDbLine
 10
131.939384845697
 20
447.4490245847686
 30
0.0
 11
138.4698518455993
 21
444.7970105847912
 31
0.0
  0
LINE
  5
3737
102
{ACAD_REACTORS
330
38D6
102
}
330
2
100
AcDbEntity
  8
KIJUN
100
AcDbLine
 10
138.4698518455993
 20
444.7970105847912
 30
0.0
 11
143.2423848456824
 21
442.3414655847941
 31
0.0
  0
LINE
  5
3738
102
{ACAD_REACTORS
330
38D6
102
}
330
2
100
AcDbEntity
  8
KIJUN
100
AcDbLine
 10
143.2423848456824
 20
442.3414655847941
 30
0.0
 11
147.5128868456236
 21
439.0020005847822
 31
0.0
  0
LINE
  5
3739
102
{ACAD_REACTORS
330
38D6
102
}
330
2
100
AcDbEntity
  8
KIJUN
100
AcDbLine
 10
147.5128868456236
 20
439.0020005847822
 30
0.0
 11
152.2852928456709
 21
434.1895895847614
 31
0.0
  0
LINE
  5
373A
102
{ACAD_REACTORS
330
38D6
102
}
330
2
100
AcDbEntity
  8
KIJUN
100
AcDbLine
 10
152.2852928456709
 20
434.1895895847614
 30
0.0
 11
154.9223208456537
 21
430.064502584791
 31
0.0
  0
LINE
  5
373B
102
{ACAD_REACTORS
330
38D6
102
}
330
2
100
AcDbEntity
  8
KIJUN
100
AcDbLine
 10
154.9223208456537
 20
430.064502584791
 30
0.0
 11
157.5598568456921
 21
425.3500085847685
 31
0.0
  0
LINE
  5
373C
102
{ACAD_REACTORS
330
38D6
102
}
330
2
100
AcDbEntity
  8
KIJUN
100
AcDbLine
 10
157.5598568456921
 20
425.3500085847685
 30
0.0
 11
159.6948538456276
 21
420.5370895848085
 31
0.0
  0
LINE
  5
373D
102
{ACAD_REACTORS
330
38D6
102
}
330
2
100
AcDbEntity
  8
KIJUN
100
AcDbLine
 10
159.6948538456276
 20
420.5370895848085
 30
0.0
 11
160.574328845702
 21
415.7245515848029
 31
0.0
  0
LINE
  5
373E
102
{ACAD_REACTORS
330
38D6
102
}
330
2
100
AcDbEntity
  8
KIJUN
100
AcDbLine
 10
160.574328845702
 20
415.7245515848029
 30
0.0
 11
161.4532958456116
 21
411.0100575847813
 31
0.0
  0
LINE
  5
373F
102
{ACAD_REACTORS
330
38D6
102
}
330
2
100
AcDbEntity
  8
KIJUN
100
AcDbLine
 10
161.4532958456116
 20
411.0100575847813
 30
0.0
 11
161.4532958456116
 21
406.5900765847749
 31
0.0
  0
LINE
  5
3740
102
{ACAD_REACTORS
330
38D6
102
}
330
2
100
AcDbEntity
  8
KIJUN
100
AcDbLine
 10
161.4532958456116
 20
406.5900765847749
 30
0.0
 11
160.574328845702
 21
402.7595025847753
 31
0.0
  0
LINE
  5
3741
102
{ACAD_REACTORS
330
38D6
102
}
330
2
100
AcDbEntity
  8
KIJUN
100
AcDbLine
 10
160.574328845702
 20
402.7595025847753
 30
0.0
 11
160.1973928456141
 21
398.3400295847736
 31
0.0
  0
LINE
  5
3742
102
{ACAD_REACTORS
330
38D6
102
}
330
2
100
AcDbEntity
  8
KIJUN
100
AcDbLine
 10
160.1973928456141
 20
398.3400295847736
 30
0.0
 11
160.1973928456141
 21
394.607499584758
 31
0.0
  0
LINE
  5
3743
102
{ACAD_REACTORS
330
38D6
102
}
330
2
100
AcDbEntity
  8
KIJUN
100
AcDbLine
 10
160.1973928456141
 20
394.607499584758
 30
0.0
 11
162.332389845666
 21
389.2055545848038
 31
0.0
  0
LINE
  5
3744
102
{ACAD_REACTORS
330
38D6
102
}
330
2
100
AcDbEntity
  8
KIJUN
100
AcDbLine
 10
162.332389845666
 20
389.2055545848038
 30
0.0
 11
162.7093258456448
 21
385.7680455848081
 31
0.0
  0
LINE
  5
3745
102
{ACAD_REACTORS
330
38D6
102
}
330
2
100
AcDbEntity
  8
KIJUN
100
AcDbLine
 10
162.7093258456448
 20
385.7680455848081
 30
0.0
 11
164.4673868456016
 21
382.7229665847685
 31
0.0
  0
LINE
  5
3746
102
{ACAD_REACTORS
330
38D6
102
}
330
2
100
AcDbEntity
  8
KIJUN
100
AcDbLine
 10
164.4673868456016
 20
382.7229665847685
 30
0.0
 11
165.848892845614
 21
379.9730355847991
 31
0.0
  0
LINE
  5
3747
102
{ACAD_REACTORS
330
38D6
102
}
330
2
100
AcDbEntity
  8
KIJUN
100
AcDbLine
 10
165.848892845614
 20
379.9730355847991
 30
0.0
 11
167.6073348456998
 21
376.5355265847961
 31
0.0
  0
LINE
  5
3748
102
{ACAD_REACTORS
330
38D6
102
}
330
2
100
AcDbEntity
  8
KIJUN
100
AcDbLine
 10
118.7572928456507
 20
451.8740855847559
 30
0.0
 11
126.5625858456046
 21
451.0118825848097
 31
0.0
  0
LINE
  5
3749
102
{ACAD_REACTORS
330
38D6
102
}
330
2
100
AcDbEntity
  8
KIJUN
100
AcDbLine
 10
126.5625858456046
 20
451.0118825848097
 30
0.0
 11
134.0606658456095
 21
449.7567415847866
 31
0.0
  0
LINE
  5
374A
102
{ACAD_REACTORS
330
38D6
102
}
330
2
100
AcDbEntity
  8
KIJUN
100
AcDbLine
 10
134.0606658456095
 20
449.7567415847866
 30
0.0
 11
141.8658318456223
 21
448.0435115848145
 31
0.0
  0
LINE
  5
374B
102
{ACAD_REACTORS
330
38D6
102
}
330
2
100
AcDbEntity
  8
KIJUN
100
AcDbLine
 10
141.8658318456223
 20
448.0435115848145
 30
0.0
 11
149.778312845709
 21
446.1769925848042
 31
0.0
  0
LINE
  5
374C
102
{ACAD_REACTORS
330
38D6
102
}
330
2
100
AcDbEntity
  8
KIJUN
100
AcDbLine
 10
149.778312845709
 20
446.1769925848042
 30
0.0
 11
159.5743308456008
 21
442.2485015847983
 31
0.0
  0
LINE
  5
374D
102
{ACAD_REACTORS
330
38D6
102
}
330
2
100
AcDbEntity
  8
KIJUN
100
AcDbLine
 10
159.5743308456008
 20
442.2485015847983
 30
0.0
 11
168.3657788456989
 21
436.9444735847996
 31
0.0
  0
LINE
  5
374E
102
{ACAD_REACTORS
330
38D6
102
}
330
2
100
AcDbEntity
  8
KIJUN
100
AcDbLine
 10
168.3657788456989
 20
436.9444735847996
 30
0.0
 11
178.036320845626
 21
431.4444845848034
 31
0.0
  0
LINE
  5
374F
102
{ACAD_REACTORS
330
38D6
102
}
330
2
100
AcDbEntity
  8
KIJUN
100
AcDbLine
 10
178.036320845626
 20
431.4444845848034
 30
0.0
 11
184.0648838456404
 21
426.0425395847983
 31
0.0
  0
LINE
  5
3750
102
{ACAD_REACTORS
330
38D6
102
}
330
2
100
AcDbEntity
  8
KIJUN
100
AcDbLine
 10
184.0648838456404
 20
426.0425395847983
 30
0.0
 11
188.4608618456555
 21
420.5425505848093
 31
0.0
  0
LINE
  5
3751
102
{ACAD_REACTORS
330
38D6
102
}
330
2
100
AcDbEntity
  8
KIJUN
100
AcDbLine
 10
188.4608618456555
 20
420.5425505848093
 30
0.0
 11
190.9722868456233
 21
414.7475405848003
 31
0.0
  0
LINE
  5
3752
102
{ACAD_REACTORS
330
38D6
102
}
330
2
100
AcDbEntity
  8
KIJUN
100
AcDbLine
 10
190.9722868456233
 20
414.7475405848003
 30
0.0
 11
193.2333948456366
 21
408.6580175847688
 31
0.0
  0
LINE
  5
3753
102
{ACAD_REACTORS
330
38D6
102
}
330
2
100
AcDbEntity
  8
KIJUN
100
AcDbLine
 10
193.2333948456366
 20
408.6580175847688
 30
0.0
 11
193.6098228456617
 21
401.4879785848083
 31
0.0
  0
LINE
  5
3754
102
{ACAD_REACTORS
330
38D6
102
}
330
2
100
AcDbEntity
  8
KIJUN
100
AcDbLine
 10
193.6098228456617
 20
401.4879785848083
 30
0.0
 11
194.8658528457022
 21
393.2375505847944
 31
0.0
  0
LINE
  5
3755
102
{ACAD_REACTORS
330
38D6
102
}
330
2
100
AcDbEntity
  8
KIJUN
100
AcDbLine
 10
194.8658528457022
 20
393.2375505847944
 30
0.0
 11
195.7448198455972
 21
385.3800605847922
 31
0.0
  0
LINE
  5
3756
102
{ACAD_REACTORS
330
38D6
102
}
330
2
100
AcDbEntity
  8
KIJUN
100
AcDbLine
 10
195.7448198455972
 20
385.3800605847922
 30
0.0
 11
198.3823558456356
 21
380.6655665847706
 31
0.0
  0
LINE
  5
3757
102
{ACAD_REACTORS
330
38D6
102
}
330
2
100
AcDbEntity
  8
KIJUN
100
AcDbLine
 10
198.3823558456356
 20
380.6655665847706
 30
0.0
 11
203.1548888456168
 21
375.8530285847659
 31
0.0
  0
LINE
  5
3758
102
{ACAD_REACTORS
330
38D6
102
}
330
2
100
AcDbEntity
  8
KIJUN
100
AcDbLine
 10
203.1548888456168
 20
375.8530285847659
 30
0.0
 11
210.9418938456079
 21
372.1204985847994
 31
0.0
  0
LINE
  5
3759
102
{ACAD_REACTORS
330
38D6
102
}
330
2
100
AcDbEntity
  8
KIJUN
100
AcDbLine
 10
210.9418938456079
 20
372.1204985847994
 30
0.0
 11
217.0958058456749
 21
369.7635055847918
 31
0.0
  0
LINE
  5
375A
102
{ACAD_REACTORS
330
38D6
102
}
330
2
100
AcDbEntity
  8
KIJUN
100
AcDbLine
 10
217.0958058456749
 20
369.7635055847918
 30
0.0
 11
213.2023668456318
 21
366.3259965847887
 31
0.0
  0
LINE
  5
375B
102
{ACAD_REACTORS
330
38D6
102
}
330
2
100
AcDbEntity
  8
KIJUN
100
AcDbLine
 10
213.2023668456318
 20
366.3259965847887
 30
0.0
 11
205.7922978456195
 21
363.9684955847756
 31
0.0
  0
LINE
  5
375C
102
{ACAD_REACTORS
330
38D6
102
}
330
2
100
AcDbEntity
  8
KIJUN
100
AcDbLine
 10
205.7922978456195
 20
363.9684955847756
 30
0.0
 11
198.3823558456356
 21
362.8879795847956
 31
0.0
  0
LINE
  5
375D
102
{ACAD_REACTORS
330
38D6
102
}
330
2
100
AcDbEntity
  8
KIJUN
100
AcDbLine
 10
198.3823558456356
 20
362.8879795847956
 30
0.0
 11
190.5958588457074
 21
363.2810445847994
 31
0.0
  0
LINE
  5
375E
102
{ACAD_REACTORS
330
38D6
102
}
330
2
100
AcDbEntity
  8
KIJUN
100
AcDbLine
 10
190.5958588457074
 20
363.2810445847994
 30
0.0
 11
181.4273478456021
 21
367.0135745847578
 31
0.0
  0
LINE
  5
375F
102
{ACAD_REACTORS
330
38D6
102
}
330
2
100
AcDbEntity
  8
KIJUN
100
AcDbLine
 10
181.4273478456021
 20
367.0135745847578
 30
0.0
 11
176.278386845705
 21
370.0580185848143
 31
0.0
  0
LINE
  5
3760
102
{ACAD_REACTORS
330
38D6
102
}
330
2
100
AcDbEntity
  8
KIJUN
100
AcDbLine
 10
176.278386845705
 20
370.0580185848143
 30
0.0
 11
172.3848208456331
 21
373.4960355848074
 31
0.0
  0
LINE
  5
3761
102
{ACAD_REACTORS
330
38D6
102
}
330
2
100
AcDbEntity
  8
KIJUN
100
AcDbLine
 10
172.3848208456331
 20
373.4960355848074
 30
0.0
 11
169.2453808456998
 21
376.2459665847767
 31
0.0
  0
LINE
  5
3762
102
{ACAD_REACTORS
330
38D6
102
}
330
2
100
AcDbEntity
  8
KIJUN
100
AcDbLine
 10
169.2453808456998
 20
376.2459665847767
 30
0.0
 11
165.8543538456147
 21
379.5855585847807
 31
0.0
  0
LINE
  5
3763
102
{ACAD_REACTORS
330
38D6
102
}
330
2
100
AcDbEntity
  8
KIJUN
100
AcDbLine
 10
165.8543538456147
 20
379.5855585847807
 30
0.0
 11
164.0957848457115
 21
383.4160055847956
 31
0.0
  0
LINE
  5
3764
102
{ACAD_REACTORS
330
38D6
102
}
330
2
100
AcDbEntity
  8
KIJUN
100
AcDbLine
 10
164.0957848457115
 20
383.4160055847956
 30
0.0
 11
162.3373428456184
 21
388.5230565847655
 31
0.0
  0
LINE
  5
3765
102
{ACAD_REACTORS
330
38D6
102
}
330
2
100
AcDbEntity
  8
KIJUN
100
AcDbLine
 10
162.3373428456184
 20
388.5230565847655
 30
0.0
 11
160.5792818456543
 21
393.6304885848135
 31
0.0
  0
LINE
  5
3766
102
{ACAD_REACTORS
330
38D6
102
}
330
2
100
AcDbEntity
  8
KIJUN
100
AcDbLine
 10
160.5792818456543
 20
393.6304885848135
 30
0.0
 11
160.5792818456543
 21
401.0950405847893
 31
0.0
  0
LINE
  5
3767
102
{ACAD_REACTORS
330
38D6
102
}
330
2
100
AcDbEntity
  8
KIJUN
100
AcDbLine
 10
160.5792818456543
 20
401.0950405847893
 30
0.0
 11
161.9607878456522
 21
408.9525305847913
 31
0.0
  0
LINE
  5
3768
102
{ACAD_REACTORS
330
38D6
102
}
330
2
100
AcDbEntity
  8
KIJUN
100
AcDbLine
 10
161.9607878456522
 20
408.9525305847913
 30
0.0
 11
161.0818208456335
 21
416.1225695848101
 31
0.0
  0
LINE
  5
3769
102
{ACAD_REACTORS
330
38D6
102
}
330
2
100
AcDbEntity
  8
KIJUN
100
AcDbLine
 10
161.0818208456335
 20
416.1225695848101
 30
0.0
 11
157.0627788457063
 21
425.3550885847585
 31
0.0
  0
LINE
  5
376A
102
{ACAD_REACTORS
330
38D6
102
}
330
2
100
AcDbEntity
  8
KIJUN
100
AcDbLine
 10
157.0627788457063
 20
425.3550885847585
 30
0.0
 11
154.9277818456471
 21
430.0695825847782
 31
0.0
  0
LINE
  5
376B
102
{ACAD_REACTORS
330
38D6
102
}
330
2
100
AcDbEntity
  8
KIJUN
100
AcDbLine
 10
154.9277818456471
 20
430.0695825847782
 30
0.0
 11
152.2903728456517
 21
434.881993584799
 31
0.0
  0
LINE
  5
376C
102
{ACAD_REACTORS
330
38D6
102
}
330
2
100
AcDbEntity
  8
KIJUN
100
AcDbLine
 10
152.2903728456517
 20
434.881993584799
 30
0.0
 11
147.5178398456778
 21
439.3019745848055
 31
0.0
  0
LINE
  5
376D
102
{ACAD_REACTORS
330
38D6
102
}
330
2
100
AcDbEntity
  8
KIJUN
100
AcDbLine
 10
147.5178398456778
 20
439.3019745848055
 30
0.0
 11
141.8658318456223
 21
443.2304655848042
 31
0.0
  0
LINE
  5
376E
102
{ACAD_REACTORS
330
38D6
102
}
330
2
100
AcDbEntity
  8
KIJUN
100
AcDbLine
 10
141.8658318456223
 20
443.2304655848042
 30
0.0
 11
136.2143318456296
 21
445.7845625847825
 31
0.0
  0
LINE
  5
376F
102
{ACAD_REACTORS
330
38D6
102
}
330
2
100
AcDbEntity
  8
KIJUN
100
AcDbLine
 10
136.2143318456296
 20
445.7845625847825
 30
0.0
 11
118.7572928456507
 21
451.8740855847559
 31
0.0
  0
LINE
  5
3770
102
{ACAD_REACTORS
330
38D6
102
}
330
2
100
AcDbEntity
  8
KIJUN
100
AcDbLine
 10
115.9843748456337
 20
451.8415735847806
 30
0.0
 11
129.4228798456174
 21
451.0555705847577
 31
0.0
  0
LINE
  5
3771
102
{ACAD_REACTORS
330
38D6
102
}
330
2
100
AcDbEntity
  8
KIJUN
100
AcDbLine
 10
129.4228798456174
 20
451.0555705847577
 30
0.0
 11
137.0837738456616
 21
448.8950465847796
 31
0.0
  0
LINE
  5
3772
102
{ACAD_REACTORS
330
38D6
102
}
330
2
100
AcDbEntity
  8
KIJUN
100
AcDbLine
 10
137.0837738456616
 20
448.8950465847796
 30
0.0
 11
143.7403518456344
 21
445.6534985847669
 31
0.0
  0
LINE
  5
3773
102
{ACAD_REACTORS
330
38D6
102
}
330
2
100
AcDbEntity
  8
KIJUN
100
AcDbLine
 10
143.7403518456344
 20
445.6534985847669
 30
0.0
 11
150.7733578456323
 21
443.6895705847549
 31
0.0
  0
LINE
  5
3774
102
{ACAD_REACTORS
330
38D6
102
}
330
2
100
AcDbEntity
  8
KIJUN
100
AcDbLine
 10
150.7733578456323
 20
443.6895705847549
 30
0.0
 11
157.8068718456929
 21
441.0375565847847
 31
0.0
  0
LINE
  5
3775
102
{ACAD_REACTORS
330
38D6
102
}
330
2
100
AcDbEntity
  8
KIJUN
100
AcDbLine
 10
157.8068718456929
 20
441.0375565847847
 30
0.0
 11
163.5838478456576
 21
436.5195315847945
 31
0.0
  0
LINE
  5
3776
102
{ACAD_REACTORS
330
38D6
102
}
330
2
100
AcDbEntity
  8
KIJUN
100
AcDbLine
 10
163.5838478456576
 20
436.5195315847945
 30
0.0
 11
167.1003508455983
 21
432.5905325847983
 31
0.0
  0
LINE
  5
3777
102
{ACAD_REACTORS
330
38D6
102
}
330
2
100
AcDbEntity
  8
KIJUN
100
AcDbLine
 10
167.1003508455983
 20
432.5905325847983
 30
0.0
 11
169.7378868456367
 21
427.3850565847737
 31
0.0
  0
LINE
  5
3778
102
{ACAD_REACTORS
330
38D6
102
}
330
2
100
AcDbEntity
  8
KIJUN
100
AcDbLine
 10
169.7378868456367
 20
427.3850565847737
 30
0.0
 11
170.9937898456269
 21
421.5905545847621
 31
0.0
  0
LINE
  5
3779
102
{ACAD_REACTORS
330
38D6
102
}
330
2
100
AcDbEntity
  8
KIJUN
100
AcDbLine
 10
170.9937898456269
 20
421.5905545847621
 30
0.0
 11
171.8728838456959
 21
416.4829955847949
 31
0.0
  0
LINE
  5
377A
102
{ACAD_REACTORS
330
38D6
102
}
330
2
100
AcDbEntity
  8
KIJUN
100
AcDbLine
 10
171.8728838456959
 20
416.4829955847949
 30
0.0
 11
172.3752958456393
 21
410.3934725847634
 31
0.0
  0
LINE
  5
377B
102
{ACAD_REACTORS
330
38D6
102
}
330
2
100
AcDbEntity
  8
KIJUN
100
AcDbLine
 10
172.3752958456393
 20
410.3934725847634
 30
0.0
 11
174.0078808456314
 21
404.5985895847975
 31
0.0
  0
LINE
  5
377C
102
{ACAD_REACTORS
330
38D6
102
}
330
2
100
AcDbEntity
  8
KIJUN
100
AcDbLine
 10
174.0078808456314
 20
404.5985895847975
 30
0.0
 11
174.0078808456314
 21
398.4110225847821
 31
0.0
  0
LINE
  5
377D
102
{ACAD_REACTORS
330
38D6
102
}
330
2
100
AcDbEntity
  8
KIJUN
100
AcDbLine
 10
174.0078808456314
 20
398.4110225847821
 30
0.0
 11
175.7663228456081
 21
391.9285615847898
 31
0.0
  0
LINE
  5
377E
102
{ACAD_REACTORS
330
38D6
102
}
330
2
100
AcDbEntity
  8
KIJUN
100
AcDbLine
 10
175.7663228456081
 20
391.9285615847898
 30
0.0
 11
177.5248918456277
 21
387.2140675847681
 31
0.0
  0
LINE
  5
377F
102
{ACAD_REACTORS
330
38D6
102
}
330
2
100
AcDbEntity
  8
KIJUN
100
AcDbLine
 10
177.5248918456277
 20
387.2140675847681
 30
0.0
 11
180.1617928456912
 21
382.7940865847617
 31
0.0
  0
LINE
  5
3780
102
{ACAD_REACTORS
330
38D6
102
}
330
2
100
AcDbEntity
  8
KIJUN
100
AcDbLine
 10
180.1617928456912
 20
382.7940865847617
 30
0.0
 11
183.1763918456277
 21
378.3744865847752
 31
0.0
  0
LINE
  5
3781
102
{ACAD_REACTORS
330
38D6
102
}
330
2
100
AcDbEntity
  8
KIJUN
100
AcDbLine
 10
183.1763918456277
 20
378.3744865847752
 30
0.0
 11
187.9487978456823
 21
375.6240475848085
 31
0.0
  0
LINE
  5
3782
102
{ACAD_REACTORS
330
38D6
102
}
330
2
100
AcDbEntity
  8
KIJUN
100
AcDbLine
 10
187.9487978456823
 20
375.6240475848085
 30
0.0
 11
193.9773608456894
 21
371.8920255847838
 31
0.0
  0
LINE
  5
3783
102
{ACAD_REACTORS
330
38D6
102
}
330
2
100
AcDbEntity
  8
KIJUN
100
AcDbLine
 10
193.9773608456894
 20
371.8920255847838
 30
0.0
 11
201.2613188456312
 21
370.4185715847766
 31
0.0
  0
LINE
  5
3784
102
{ACAD_REACTORS
330
38D6
102
}
330
2
100
AcDbEntity
  8
KIJUN
100
AcDbLine
 10
201.2613188456312
 20
370.4185715847766
 30
0.0
 11
207.5413418456524
 21
370.1240585847613
 31
0.0
  0
LINE
  5
3785
102
{ACAD_REACTORS
330
38D6
102
}
330
2
100
AcDbEntity
  8
KIJUN
100
AcDbLine
 10
207.5413418456524
 20
370.1240585847613
 30
0.0
 11
215.8303778456834
 21
369.4364805847931
 31
0.0
  0
LINE
  5
3786
102
{ACAD_REACTORS
330
38D6
102
}
330
2
100
AcDbEntity
  8
KIJUN
100
AcDbLine
 10
215.8303778456834
 20
369.4364805847931
 30
0.0
 11
210.5553058456067
 21
372.4810515847698
 31
0.0
  0
LINE
  5
3787
102
{ACAD_REACTORS
330
38D6
102
}
330
2
100
AcDbEntity
  8
KIJUN
100
AcDbLine
 10
210.5553058456067
 20
372.4810515847698
 30
0.0
 11
204.903805845614
 21
375.6240475848085
 31
0.0
  0
LINE
  5
3788
102
{ACAD_REACTORS
330
38D6
102
}
330
2
100
AcDbEntity
  8
KIJUN
100
AcDbLine
 10
204.903805845614
 20
375.6240475848085
 30
0.0
 11
200.5078278457008
 21
378.6689995847978
 31
0.0
  0
LINE
  5
3789
102
{ACAD_REACTORS
330
38D6
102
}
330
2
100
AcDbEntity
  8
KIJUN
100
AcDbLine
 10
200.5078278457008
 20
378.6689995847978
 30
0.0
 11
197.1168008456229
 21
383.0889805847969
 31
0.0
  0
LINE
  5
378A
102
{ACAD_REACTORS
330
38D6
102
}
330
2
100
AcDbEntity
  8
KIJUN
100
AcDbLine
 10
197.1168008456229
 20
383.0889805847969
 30
0.0
 11
195.3588668456946
 21
388.5889695847941
 31
0.0
  0
LINE
  5
378B
102
{ACAD_REACTORS
330
38D6
102
}
330
2
100
AcDbEntity
  8
KIJUN
100
AcDbLine
 10
195.3588668456946
 20
388.5889695847941
 30
0.0
 11
194.1028368456614
 21
397.4285505847788
 31
0.0
  0
LINE
  5
378C
102
{ACAD_REACTORS
330
38D6
102
}
330
2
100
AcDbEntity
  8
KIJUN
100
AcDbLine
 10
194.1028368456614
 20
397.4285505847788
 30
0.0
 11
194.1028368456614
 21
404.2055245847936
 31
0.0
  0
LINE
  5
378D
102
{ACAD_REACTORS
330
38D6
102
}
330
2
100
AcDbEntity
  8
KIJUN
100
AcDbLine
 10
194.1028368456614
 20
404.2055245847936
 30
0.0
 11
192.3443948456847
 21
412.4560795847996
 31
0.0
  0
LINE
  5
378E
102
{ACAD_REACTORS
330
38D6
102
}
330
2
100
AcDbEntity
  8
KIJUN
100
AcDbLine
 10
192.3443948456847
 20
412.4560795847996
 30
0.0
 11
188.8278918456276
 21
418.5454755847809
 31
0.0
  0
LINE
  5
378F
102
{ACAD_REACTORS
330
38D6
102
}
330
2
100
AcDbEntity
  8
KIJUN
100
AcDbLine
 10
188.8278918456276
 20
418.5454755847809
 30
0.0
 11
186.1903558456983
 21
423.6530345847554
 31
0.0
  0
LINE
  5
3790
102
{ACAD_REACTORS
330
38D6
102
}
330
2
100
AcDbEntity
  8
KIJUN
100
AcDbLine
 10
186.1903558456983
 20
423.6530345847554
 30
0.0
 11
181.9203618455945
 21
428.7600855847836
 31
0.0
  0
LINE
  5
3791
102
{ACAD_REACTORS
330
38D6
102
}
330
2
100
AcDbEntity
  8
KIJUN
100
AcDbLine
 10
181.9203618455945
 20
428.7600855847836
 30
0.0
 11
175.3893868456439
 21
433.8675175847661
 31
0.0
  0
LINE
  5
3792
102
{ACAD_REACTORS
330
38D6
102
}
330
2
100
AcDbEntity
  8
KIJUN
100
AcDbLine
 10
175.3893868456439
 20
433.8675175847661
 30
0.0
 11
166.7237958456394
 21
438.8765245848103
 31
0.0
  0
LINE
  5
3793
102
{ACAD_REACTORS
330
38D6
102
}
330
2
100
AcDbEntity
  8
KIJUN
100
AcDbLine
 10
166.7237958456394
 20
438.8765245848103
 30
0.0
 11
157.3043328456992
 21
443.1000365847707
 31
0.0
  0
LINE
  5
3794
102
{ACAD_REACTORS
330
38D6
102
}
330
2
100
AcDbEntity
  8
KIJUN
100
AcDbLine
 10
157.3043328456992
 20
443.1000365847707
 30
0.0
 11
146.5033638456375
 21
446.6359705847702
 31
0.0
  0
LINE
  5
3795
102
{ACAD_REACTORS
330
38D6
102
}
330
2
100
AcDbEntity
  8
KIJUN
100
AcDbLine
 10
146.5033638456375
 20
446.6359705847702
 30
0.0
 11
135.5767918456845
 21
449.1895595848022
 31
0.0
  0
LINE
  5
3796
102
{ACAD_REACTORS
330
38D6
102
}
330
2
100
AcDbEntity
  8
KIJUN
100
AcDbLine
 10
135.5767918456845
 20
449.1895595848022
 30
0.0
 11
131.1813218456013
 21
449.9755625847678
 31
0.0
  0
LINE
  5
3797
102
{ACAD_REACTORS
330
38D6
102
}
330
2
100
AcDbEntity
  8
KIJUN
100
AcDbLine
 10
131.1813218456013
 20
449.9755625847678
 30
0.0
 11
126.9108198456674
 21
450.5645885847538
 31
0.0
  0
LINE
  5
3798
102
{ACAD_REACTORS
330
38D6
102
}
330
2
100
AcDbEntity
  8
KIJUN
100
AcDbLine
 10
126.9108198456674
 20
450.5645885847538
 30
0.0
 11
115.9843748456337
 21
451.8415735847806
 31
0.0
  0
LINE
  5
3799
102
{ACAD_REACTORS
330
38D6
102
}
330
2
100
AcDbEntity
  8
KIJUN
100
AcDbLine
 10
159.606334845696
 20
442.4485265847747
 30
0.0
 11
165.8858498456543
 21
439.207486584752
 31
0.0
  0
LINE
  5
379A
102
{ACAD_REACTORS
330
38D6
102
}
330
2
100
AcDbEntity
  8
KIJUN
100
AcDbLine
 10
165.8858498456543
 20
439.207486584752
 30
0.0
 11
171.1607948456881
 21
436.6535165847666
 31
0.0
  0
LINE
  5
379B
102
{ACAD_REACTORS
330
38D6
102
}
330
2
100
AcDbEntity
  8
KIJUN
100
AcDbLine
 10
171.1607948456881
 20
436.6535165847666
 30
0.0
 11
174.9283768456157
 21
433.4124765848013
 31
0.0
  0
LINE
  5
379C
102
{ACAD_REACTORS
330
38D6
102
}
330
2
100
AcDbEntity
  8
KIJUN
100
AcDbLine
 10
174.9283768456157
 20
433.4124765848013
 30
0.0
 11
180.7058608456432
 21
429.1889645847754
 31
0.0
  0
LINE
  5
379D
102
{ACAD_REACTORS
330
38D6
102
}
330
2
100
AcDbEntity
  8
KIJUN
100
AcDbLine
 10
180.7058608456432
 20
429.1889645847754
 30
0.0
 11
183.3433968456816
 21
425.948051584803
 31
0.0
  0
LINE
  5
379E
102
{ACAD_REACTORS
330
38D6
102
}
330
2
100
AcDbEntity
  8
KIJUN
100
AcDbLine
 10
183.3433968456816
 20
425.948051584803
 30
0.0
 11
186.9853758455942
 21
422.2155215847873
 31
0.0
  0
LINE
  5
379F
102
{ACAD_REACTORS
330
38D6
102
}
330
2
100
AcDbEntity
  8
KIJUN
100
AcDbLine
 10
186.9853758455942
 20
422.2155215847873
 30
0.0
 11
189.1203728456535
 21
418.8760565847756
 31
0.0
  0
LINE
  5
37A0
102
{ACAD_REACTORS
330
38D6
102
}
330
2
100
AcDbEntity
  8
KIJUN
100
AcDbLine
 10
189.1203728456535
 20
418.8760565847756
 30
0.0
 11
191.7577818456489
 21
412.6884895847601
 31
0.0
  0
LINE
  5
37A1
102
{ACAD_REACTORS
330
38D6
102
}
330
2
100
AcDbEntity
  8
KIJUN
100
AcDbLine
 10
191.7577818456489
 20
412.6884895847601
 30
0.0
 11
193.2648908456762
 21
409.3490245847992
 31
0.0
  0
LINE
  5
37A2
102
{ACAD_REACTORS
330
38D6
102
}
330
2
100
AcDbEntity
  8
KIJUN
100
AcDbLine
 10
193.2648908456762
 20
409.3490245847992
 30
0.0
 11
193.2648908456762
 21
405.2240645847627
 31
0.0
  0
LINE
  5
37A3
102
{ACAD_REACTORS
330
38D6
102
}
330
2
100
AcDbEntity
  8
KIJUN
100
AcDbLine
 10
193.2648908456762
 20
405.2240645847627
 30
0.0
 11
193.8927788457008
 21
401.0984695847942
 31
0.0
  0
LINE
  5
37A4
102
{ACAD_REACTORS
330
38D6
102
}
330
2
100
AcDbEntity
  8
KIJUN
100
AcDbLine
 10
193.8927788457008
 20
401.0984695847942
 30
0.0
 11
197.5353928456029
 21
397.3665745847597
 31
0.0
  0
LINE
  5
37A5
102
{ACAD_REACTORS
330
38D6
102
}
330
2
100
AcDbEntity
  8
KIJUN
100
AcDbLine
 10
197.5353928456029
 20
397.3665745847597
 30
0.0
 11
201.6797838456919
 21
396.9735095847559
 31
0.0
  0
LINE
  5
37A6
102
{ACAD_REACTORS
330
38D6
102
}
330
2
100
AcDbEntity
  8
KIJUN
100
AcDbLine
 10
201.6797838456919
 20
396.9735095847559
 30
0.0
 11
205.4473658456268
 21
398.6430515847882
 31
0.0
  0
LINE
  5
37A7
102
{ACAD_REACTORS
330
38D6
102
}
330
2
100
AcDbEntity
  8
KIJUN
100
AcDbLine
 10
205.4473658456268
 20
398.6430515847882
 30
0.0
 11
206.4523168456658
 21
401.0984695847942
 31
0.0
  0
LINE
  5
37A8
102
{ACAD_REACTORS
330
38D6
102
}
330
2
100
AcDbEntity
  8
KIJUN
100
AcDbLine
 10
206.4523168456658
 20
401.0984695847942
 30
0.0
 11
206.4523168456658
 21
405.2240645847627
 31
0.0
  0
LINE
  5
37A9
102
{ACAD_REACTORS
330
38D6
102
}
330
2
100
AcDbEntity
  8
KIJUN
100
AcDbLine
 10
206.4523168456658
 20
405.2240645847627
 30
0.0
 11
204.9448268456331
 21
408.9560865847801
 31
0.0
  0
LINE
  5
37AA
102
{ACAD_REACTORS
330
38D6
102
}
330
2
100
AcDbEntity
  8
KIJUN
100
AcDbLine
 10
204.9448268456331
 20
408.9560865847801
 30
0.0
 11
206.954347845604
 21
405.6164945847763
 31
0.0
  0
LINE
  5
37AB
102
{ACAD_REACTORS
330
38D6
102
}
330
2
100
AcDbEntity
  8
KIJUN
100
AcDbLine
 10
206.954347845604
 20
405.6164945847763
 30
0.0
 11
205.9497778456866
 21
401.491534584797
 31
0.0
  0
LINE
  5
37AC
102
{ACAD_REACTORS
330
38D6
102
}
330
2
100
AcDbEntity
  8
KIJUN
100
AcDbLine
 10
205.9497778456866
 20
401.491534584797
 30
0.0
 11
209.089852845595
 21
399.0359895848072
 31
0.0
  0
LINE
  5
37AD
102
{ACAD_REACTORS
330
38D6
102
}
330
2
100
AcDbEntity
  8
KIJUN
100
AcDbLine
 10
209.089852845595
 20
399.0359895848072
 30
0.0
 11
214.8668288456761
 21
395.6965245847955
 31
0.0
  0
LINE
  5
37AE
102
{ACAD_REACTORS
330
38D6
102
}
330
2
100
AcDbEntity
  8
KIJUN
100
AcDbLine
 10
214.8668288456761
 20
395.6965245847955
 30
0.0
 11
221.2718198455991
 21
394.91102958477
 31
0.0
  0
LINE
  5
37AF
102
{ACAD_REACTORS
330
38D6
102
}
330
2
100
AcDbEntity
  8
KIJUN
100
AcDbLine
 10
221.2718198455991
 20
394.91102958477
 30
0.0
 11
227.0493038456339
 21
394.91102958477
 31
0.0
  0
LINE
  5
37B0
102
{ACAD_REACTORS
330
38D6
102
}
330
2
100
AcDbEntity
  8
KIJUN
100
AcDbLine
 10
227.0493038456339
 20
394.91102958477
 30
0.0
 11
231.1938218456494
 21
396.5805715847959
 31
0.0
  0
LINE
  5
37B1
102
{ACAD_REACTORS
330
38D6
102
}
330
2
100
AcDbEntity
  8
KIJUN
100
AcDbLine
 10
231.1938218456494
 20
396.5805715847959
 30
0.0
 11
223.9093558456375
 21
401.0984695847942
 31
0.0
  0
LINE
  5
37B2
102
{ACAD_REACTORS
330
38D6
102
}
330
2
100
AcDbEntity
  8
KIJUN
100
AcDbLine
 10
223.9093558456375
 20
401.0984695847942
 30
0.0
 11
219.1368228456636
 21
405.2240645847627
 31
0.0
  0
LINE
  5
37B3
102
{ACAD_REACTORS
330
38D6
102
}
330
2
100
AcDbEntity
  8
KIJUN
100
AcDbLine
 10
219.1368228456636
 20
405.2240645847627
 30
0.0
 11
214.3642898456897
 21
409.742089584803
 31
0.0
  0
LINE
  5
37B4
102
{ACAD_REACTORS
330
38D6
102
}
330
2
100
AcDbEntity
  8
KIJUN
100
AcDbLine
 10
214.3642898456897
 20
409.742089584803
 30
0.0
 11
209.089852845595
 21
413.8670495847832
 31
0.0
  0
LINE
  5
37B5
102
{ACAD_REACTORS
330
38D6
102
}
330
2
100
AcDbEntity
  8
KIJUN
100
AcDbLine
 10
209.089852845595
 20
413.8670495847832
 30
0.0
 11
202.3077988456503
 21
418.483499584769
 31
0.0
  0
LINE
  5
37B6
102
{ACAD_REACTORS
330
38D6
102
}
330
2
100
AcDbEntity
  8
KIJUN
100
AcDbLine
 10
202.3077988456503
 20
418.483499584769
 30
0.0
 11
196.5303148456301
 21
423.0015245848102
 31
0.0
  0
LINE
  5
37B7
102
{ACAD_REACTORS
330
38D6
102
}
330
2
100
AcDbEntity
  8
KIJUN
100
AcDbLine
 10
196.5303148456301
 20
423.0015245848102
 30
0.0
 11
190.6273548456379
 21
427.1264845847976
 31
0.0
  0
LINE
  5
37B8
102
{ACAD_REACTORS
330
38D6
102
}
330
2
100
AcDbEntity
  8
KIJUN
100
AcDbLine
 10
190.6273548456379
 20
427.1264845847976
 30
0.0
 11
181.7103038456339
 21
432.1354915847755
 31
0.0
  0
LINE
  5
37B9
102
{ACAD_REACTORS
330
38D6
102
}
330
2
100
AcDbEntity
  8
KIJUN
100
AcDbLine
 10
181.7103038456339
 20
432.1354915847755
 30
0.0
 11
175.4307888456756
 21
435.475083584772
 31
0.0
  0
LINE
  5
37BA
102
{ACAD_REACTORS
330
38D6
102
}
330
2
100
AcDbEntity
  8
KIJUN
100
AcDbLine
 10
175.4307888456756
 20
435.475083584772
 30
0.0
 11
169.0257978456361
 21
438.7159965847517
 31
0.0
  0
LINE
  5
37BB
102
{ACAD_REACTORS
330
38D6
102
}
330
2
100
AcDbEntity
  8
KIJUN
100
AcDbLine
 10
169.0257978456361
 20
438.7159965847517
 30
0.0
 11
159.606334845696
 21
442.4485265847747
 31
0.0
  0
LINE
  5
37BC
102
{ACAD_REACTORS
330
38D6
102
}
330
2
100
AcDbEntity
  8
KIJUN
100
AcDbLine
 10
119.7523378456976
 20
451.3215085848054
 30
0.0
 11
119.7570368456731
 21
451.3105865848032
 31
0.0
  0
LINE
  5
37BD
102
{ACAD_REACTORS
330
38D6
102
}
330
2
100
AcDbEntity
  8
KIJUN
100
AcDbLine
 10
119.7570368456731
 20
451.3105865848032
 30
0.0
 11
120.2081408456874
 21
451.234259584779
 31
0.0
  0
LINE
  5
37BE
102
{ACAD_REACTORS
330
38D6
102
}
330
2
100
AcDbEntity
  8
KIJUN
100
AcDbLine
 10
120.2081408456874
 20
451.234259584779
 30
0.0
 11
119.8778138456696
 21
451.026995584782
 31
0.0
  0
LINE
  5
37BF
102
{ACAD_REACTORS
330
38D6
102
}
330
2
100
AcDbEntity
  8
KIJUN
100
AcDbLine
 10
119.8778138456696
 20
451.026995584782
 30
0.0
 11
119.7523378456976
 21
451.1250395847659
 31
0.0
  0
LINE
  5
37C0
102
{ACAD_REACTORS
330
38D6
102
}
330
2
100
AcDbEntity
  8
KIJUN
100
AcDbLine
 10
269.8423348456277
 20
400.9473369178299
 30
0.0
 11
280.1408918456295
 21
395.8397779178617
 31
0.0
  0
LINE
  5
37C1
102
{ACAD_REACTORS
330
38D6
102
}
330
2
100
AcDbEntity
  8
KIJUN
100
AcDbLine
 10
280.1408918456295
 20
395.8397779178617
 30
0.0
 11
286.2948038456893
 21
392.5988649178248
 31
0.0
  0
LINE
  5
37C2
102
{ACAD_REACTORS
330
38D6
102
}
330
2
100
AcDbEntity
  8
KIJUN
100
AcDbLine
 10
286.2948038456893
 20
392.5988649178248
 30
0.0
 11
288.4298008456249
 21
391.5183489178366
 31
0.0
  0
LINE
  5
37C3
102
{ACAD_REACTORS
330
38D6
102
}
330
2
100
AcDbEntity
  8
KIJUN
100
AcDbLine
 10
288.4298008456249
 20
391.5183489178366
 30
0.0
 11
294.3328878456664
 21
389.1613559178281
 31
0.0
  0
LINE
  5
37C4
102
{ACAD_REACTORS
330
38D6
102
}
330
2
100
AcDbEntity
  8
KIJUN
100
AcDbLine
 10
294.3328878456664
 20
389.1613559178281
 30
0.0
 11
299.3563728457015
 21
387.5898579178379
 31
0.0
  0
LINE
  5
37C5
102
{ACAD_REACTORS
330
38D6
102
}
330
2
100
AcDbEntity
  8
KIJUN
100
AcDbLine
 10
299.3563728457015
 20
387.5898579178379
 30
0.0
 11
305.6358878456526
 21
385.7233389178286
 31
0.0
  0
LINE
  5
37C6
102
{ACAD_REACTORS
330
38D6
102
}
330
2
100
AcDbEntity
  8
KIJUN
100
AcDbLine
 10
305.6358878456526
 20
385.7233389178286
 30
0.0
 11
310.9108328456937
 21
384.6433309178378
 31
0.0
  0
LINE
  5
37C7
102
{ACAD_REACTORS
330
38D6
102
}
330
2
100
AcDbEntity
  8
KIJUN
100
AcDbLine
 10
310.9108328456937
 20
384.6433309178378
 30
0.0
 11
316.1857778456174
 21
383.9558799178617
 31
0.0
  0
LINE
  5
37C8
102
{ACAD_REACTORS
330
38D6
102
}
330
2
100
AcDbEntity
  8
KIJUN
100
AcDbLine
 10
316.1857778456174
 20
383.9558799178617
 30
0.0
 11
321.4608498456942
 21
383.9558799178617
 31
0.0
  0
LINE
  5
37C9
102
{ACAD_REACTORS
330
38D6
102
}
330
2
100
AcDbEntity
  8
KIJUN
100
AcDbLine
 10
321.4608498456942
 20
383.9558799178617
 30
0.0
 11
323.0933078456433
 21
384.8392919178208
 31
0.0
  0
LINE
  5
37CA
102
{ACAD_REACTORS
330
38D6
102
}
330
2
100
AcDbEntity
  8
KIJUN
100
AcDbLine
 10
323.0933078456433
 20
384.8392919178208
 30
0.0
 11
322.0888648456607
 21
386.3128729178702
 31
0.0
  0
LINE
  5
37CB
102
{ACAD_REACTORS
330
38D6
102
}
330
2
100
AcDbEntity
  8
KIJUN
100
AcDbLine
 10
322.0888648456607
 20
386.3128729178702
 30
0.0
 11
318.4463778456843
 21
386.803854917815
 31
0.0
  0
LINE
  5
37CC
102
{ACAD_REACTORS
330
38D6
102
}
330
2
100
AcDbEntity
  8
KIJUN
100
AcDbLine
 10
318.4463778456843
 20
386.803854917815
 30
0.0
 11
313.6738448457031
 21
387.0003239178536
 31
0.0
  0
LINE
  5
37CD
102
{ACAD_REACTORS
330
38D6
102
}
330
2
100
AcDbEntity
  8
KIJUN
100
AcDbLine
 10
313.6738448457031
 20
387.0003239178536
 30
0.0
 11
307.896868845623
 21
387.8843709178604
 31
0.0
  0
LINE
  5
37CE
102
{ACAD_REACTORS
330
38D6
102
}
330
2
100
AcDbEntity
  8
KIJUN
100
AcDbLine
 10
307.896868845623
 20
387.8843709178604
 30
0.0
 11
301.7428298456366
 21
389.5537859178498
 31
0.0
  0
LINE
  5
37CF
102
{ACAD_REACTORS
330
38D6
102
}
330
2
100
AcDbEntity
  8
KIJUN
100
AcDbLine
 10
301.7428298456366
 20
389.5537859178498
 30
0.0
 11
295.337330845658
 21
391.2238359178213
 31
0.0
  0
LINE
  5
37D0
102
{ACAD_REACTORS
330
38D6
102
}
330
2
100
AcDbEntity
  8
KIJUN
100
AcDbLine
 10
295.337330845658
 20
391.2238359178213
 30
0.0
 11
287.4253578456414
 21
394.0718109178336
 31
0.0
  0
LINE
  5
37D1
102
{ACAD_REACTORS
330
38D6
102
}
330
2
100
AcDbEntity
  8
KIJUN
100
AcDbLine
 10
287.4253578456414
 20
394.0718109178336
 30
0.0
 11
280.6433038456894
 21
396.625780917819
 31
0.0
  0
LINE
  5
37D2
102
{ACAD_REACTORS
330
38D6
102
}
330
2
100
AcDbEntity
  8
KIJUN
100
AcDbLine
 10
280.6433038456894
 20
396.625780917819
 30
0.0
 11
269.8423348456277
 21
400.9473369178299
 31
0.0
  0
LINE
  5
37D3
102
{ACAD_REACTORS
330
38D5
102
}
330
2
100
AcDbEntity
  8
KIJUN
  6
CENTER
100
AcDbLine
 10
597.1041580677502
 20
780.3238350847705
 30
0.0
 11
2.711760394634438
 21
780.3238350847705
 31
0.0
  0
LINE
  5
37D7
102
{ACAD_REACTORS
330
38D6
102
}
330
2
100
AcDbEntity
  8
KIJUN
100
AcDbLine
 10
542.5652938456628
 20
333.0600115847906
 30
0.0
 11
542.5652938456627
 21
378.0600115847906
 31
0.0
  0
LINE
  5
37EB
102
{ACAD_REACTORS
330
38D5
102
}
330
2
100
AcDbEntity
  8
KIJUN
100
AcDbLine
 10
542.5652938456628
 20
745.3238350847705
 30
0.0
 11
542.5652938456628
 21
815.3238350847704
 31
0.0
  0
LINE
  5
3805
102
{ACAD_REACTORS
330
38D5
102
}
330
2
100
AcDbEntity
  8
KIJUN
100
AcDbLine
 10
542.5652938456628
 20
815.3238350847704
 30
0.0
 11
242.7443230985399
 21
828.9759549410153
 31
0.0
  0
LINE
  5
3806
102
{ACAD_REACTORS
330
38D5
102
}
330
2
100
AcDbEntity
  8
KIJUN
100
AcDbLine
 10
542.5652938456628
 20
745.3238350847705
 30
0.0
 11
244.4860706232931
 21
733.8908218566916
 31
0.0
  0
DIMENSION
  5
3816
330
2
100
AcDbEntity
  8
SUNPOU
100
AcDbDimension
  2
*D21
 10
542.5652938456628
 20
972.8711304733078
 30
0.0
 11
292.5652938456628
 21
992.8711304733079
 31
0.0
 70
    32
 71
     5
 42
500.0
  3
STANDARD$0
100
AcDbAlignedDimension
 13
42.56529384566284
 23
780.3238350847705
 33
0.0
 14
542.5652938456628
 24
815.3238350847704
 34
0.0
100
AcDbRotatedDimension
1001
ACAD
1000
DSTYLE
1002
{
1070
    41
1040
3.0
1070
    42
1040
3.0
1070
    44
1040
0.0
1070
    77
1070
     1
1070
   140
1040
10.0
1070
   146
1040
0.064286
1070
   147
1040
5.0
1070
   176
1070
    60
1070
   177
1070
    70
1070
   178
1070
    60
1070
   271
1070
     0
1070
   272
1070
     0
1070
   340
1005
1C
1070
   342
1005
109
1002
}
  0
DIMENSION
  5
3823
330
2
100
AcDbEntity
  8
SUNPOU
100
AcDbDimension
  2
*D22
 10
673.9527671917222
 20
745.3238350847705
 30
0.0
 11
653.952767191722
 21
780.3238350847705
 31
0.0
 70
    32
 71
     5
 42
69.99999999999989
  3
STANDARD$0
100
AcDbAlignedDimension
 13
542.5652938456628
 23
815.3238350847704
 33
0.0
 14
542.5652938456628
 24
745.3238350847705
 34
0.0
 50
90.0
100
AcDbRotatedDimension
1001
ACAD
1000
DSTYLE
1002
{
1070
    41
1040
3.0
1070
    42
1040
3.0
1070
    44
1040
0.0
1070
    77
1070
     1
1070
   140
1040
10.0
1070
   146
1040
0.064286
1070
   147
1040
5.0
1070
   176
1070
    60
1070
   177
1070
    70
1070
   178
1070
    60
1070
   271
1070
     0
1070
   272
1070
     0
1070
   340
1005
1C
1070
   342
1005
109
1002
}
  0
DIMENSION
  5
3830
330
2
100
AcDbEntity
  8
SUNPOU
100
AcDbDimension
  2
*D23
 10
-85.10064412410519
 20
705.3238350847705
 30
0.0
 11
-105.1006441241053
 21
780.3238350847705
 31
0.0
 70
    32
 71
     5
 42
150.0
  3
STANDARD$0
100
AcDbAlignedDimension
 13
91.02277884565456
 23
855.3238350847705
 33
0.0
 14
90.00677884556399
 24
705.3238350847705
 34
0.0
 50
90.0
100
AcDbRotatedDimension
1001
ACAD
1000
DSTYLE
1002
{
1070
    41
1040
3.0
1070
    42
1040
3.0
1070
    44
1040
0.0
1070
    77
1070
     1
1070
   140
1040
10.0
1070
   146
1040
0.064286
1070
   147
1040
5.0
1070
   176
1070
    60
1070
   177
1070
    70
1070
   178
1070
    60
1070
   271
1070
     6
1070
   272
1070
     0
1070
   340
1005
1C
1070
   342
1005
109
1002
}
  0
DIMENSION
  5
383D
330
2
100
AcDbEntity
  8
SUNPOU
100
AcDbDimension
  2
*D24
 10
-84.21348031522947
 20
333.0600115847906
 30
0.0
 11
-104.2134803152295
 21
393.0600115847906
 31
0.0
 70
    32
 71
     5
 42
119.9999999999999
  3
STANDARD$0
100
AcDbAlignedDimension
 13
103.2693888455983
 23
453.0600115847905
 33
0.0
 14
176.1124319632241
 24
333.0600115847905
 34
0.0
 50
90.0
100
AcDbRotatedDimension
1001
ACAD
1000
DSTYLE
1002
{
1070
    41
1040
3.0
1070
    42
1040
3.0
1070
    44
1040
0.0
1070
    77
1070
     1
1070
   140
1040
10.0
1070
   146
1040
0.064286
1070
   147
1040
5.0
1070
   176
1070
    60
1070
   177
1070
    70
1070
   178
1070
    60
1070
   271
1070
     6
1070
   272
1070
     0
1070
   340
1005
1C
1070
   342
1005
109
1002
}
  0
DIMENSION
  5
384A
330
2
100
AcDbEntity
  8
SUNPOU
100
AcDbDimension
  2
*D25
 10
673.7882763881498
 20
378.0600115847905
 30
0.0
 11
653.7882763881497
 21
410.7266782514573
 31
0.0
 70
    32
 71
     5
 42
45.0
  3
STANDARD$0
100
AcDbAlignedDimension
 13
542.5652938456628
 23
333.0600115847906
 33
0.0
 14
542.5652938456627
 24
378.0600115847906
 34
0.0
 50
90.0
100
AcDbRotatedDimension
1001
ACAD
1000
DSTYLE
1002
{
1070
    41
1040
3.0
1070
    42
1040
3.0
1070
    44
1040
0.0
1070
    77
1070
     1
1070
   140
1040
10.0
1070
   146
1040
0.064286
1070
   147
1040
5.0
1070
   176
1070
    60
1070
   177
1070
    70
1070
   178
1070
    60
1070
   271
1070
     6
1070
   272
1070
     0
1070
   340
1005
1C
1070
   342
1005
109
1002
}
  0
DIMENSION
  5
3858
330
2
100
AcDbEntity
  8
SUNPOU
100
AcDbDimension
  2
*D26
 10
542.5652938456627
 20
556.2790173108664
 30
0.0
 11
292.5652938456628
 21
576.2790173108665
 31
0.0
 70
    32
 71
     5
 42
499.9999999999999
  3
STANDARD$0
100
AcDbAlignedDimension
 13
42.56529384566284
 23
416.093486584788
 33
0.0
 14
542.5652938456627
 24
378.0600115847906
 34
0.0
100
AcDbRotatedDimension
1001
ACAD
1000
DSTYLE
1002
{
1070
    41
1040
3.0
1070
    42
1040
3.0
1070
    44
1040
0.0
1070
    77
1070
     1
1070
   140
1040
10.0
1070
   146
1040
0.064286
1070
   147
1040
5.0
1070
   176
1070
    60
1070
   177
1070
    70
1070
   178
1070
    60
1070
   271
1070
     0
1070
   272
1070
     0
1070
   340
1005
1C
1070
   342
1005
109
1002
}
  0
LINE
  5
38A2
102
{ACAD_REACTORS
330
38D6
102
}
330
2
100
AcDbEntity
  8
KIJUN
100
AcDbLine
 10
176.1124319632241
 20
333.0600115847905
 30
0.0
 11
542.5652938456628
 21
333.0600115847906
 31
0.0
  0
TEXT
  5
38E9
330
2
100
AcDbEntity
  8
HOJO
100
AcDbText
 10
7.365911441272089
 20
-35.6111187597752
 30
0.0
 40
20.0
  1
※ 形状・寸法は製品特性や、生産ロットにより誤差があるものがあります。
  7
SUNPOU
100
AcDbText
  0
ENDSEC
  0
SECTION
  2
OBJECTS
  0
DICTIONARY
  5
1A
330
0
100
AcDbDictionary
281
     1
  3
ACAD_COLOR
350
38DC
  3
ACAD_GROUP
350
18
  3
ACAD_LAYOUT
350
58
  3
ACAD_MATERIAL
350
38DB
  3
ACAD_MLINESTYLE
350
19
  3
ACAD_PLOTSETTINGS
350
59
  3
ACAD_PLOTSTYLENAME
350
56
  3
ACAD_TABLESTYLE
350
38DD
  3
ACDBHEADERROUNDTRIPXREC
350
3903
  3
AcDbVariableDictionary
350
38FE
  0
DICTIONARY
  5
38DC
102
{ACAD_REACTORS
330
1A
102
}
330
1A
100
AcDbDictionary
281
     1
  0
DICTIONARY
  5
18
102
{ACAD_REACTORS
330
1A
102
}
330
1A
100
AcDbDictionary
281
     1
  3
*A1
350
3A0
  3
*A10
350
38D5
  3
*A2
350
38D6
  3
*A3
350
3A1
  3
*A4
350
ACC
  3
*A5
350
2120
  3
*A6
350
2765
  3
*A7
350
2766
  3
*A8
350
2FC6
  3
*A9
350
2FC7
  0
DICTIONARY
  5
58
102
{ACAD_REACTORS
330
1A
102
}
330
1A
100
AcDbDictionary
281
     1
  3
Model
350
5A
  3
ﾚｲｱｳﾄ1
350
5B
  0
DICTIONARY
  5
38DB
102
{ACAD_REACTORS
330
1A
102
}
330
1A
100
AcDbDictionary
281
     1
  0
DICTIONARY
  5
19
102
{ACAD_REACTORS
330
1A
102
}
330
1A
100
AcDbDictionary
281
     1
  3
STANDARD
350
1D
  0
DICTIONARY
  5
59
102
{ACAD_REACTORS
330
1A
102
}
330
1A
100
AcDbDictionary
281
     1
  0
ACDBDICTIONARYWDFLT
  5
56
102
{ACAD_REACTORS
330
1A
102
}
330
1A
100
AcDbDictionary
281
     1
  3
Normal
350
57
100
AcDbDictionaryWithDefault
340
57
  0
DICTIONARY
  5
38DD
102
{ACAD_REACTORS
330
1A
102
}
330
1A
100
AcDbDictionary
281
     1
  3
Standard
350
38DE
  0
DICTIONARY
  5
3903
102
{ACAD_REACTORS
330
1A
102
}
330
1A
100
AcDbDictionary
281
     1
  0
DICTIONARY
  5
38FE
102
{ACAD_REACTORS
330
1A
102
}
330
1A
100
AcDbDictionary
281
     1
  3
CTABLESTYLE
350
38FF
  3
DIMASSOC
350
3900
  3
PROJECTNAME
350
3901
  0
GROUP
  5
3A0
102
{ACAD_REACTORS
330
18
102
}
330
18
100
AcDbGroup
300

 70
     1
 71
     1
  0
GROUP
  5
38D5
102
{ACAD_REACTORS
330
18
102
}
330
18
100
AcDbGroup
300

 70
     1
 71
     1
340
3266
340
326E
340
325F
340
3255
340
3261
340
3260
340
3252
340
3262
340
3271
340
326F
340
3270
340
3263
340
3264
340
3265
340
3254
340
3253
340
3806
340
3805
340
3151
340
3152
340
37D3
340
33B5
340
338A
340
3360
340
3354
340
332A
340
3316
340
330C
340
32F2
340
32E5
340
32C6
340
32B9
340
329A
340
3290
340
3281
340
327B
340
325B
340
3127
340
311C
340
33FA
340
33EF
340
33C0
340
330F
340
3125
340
33B9
340
3120
340
33F8
340
32BF
340
3116
340
32C3
340
3296
340
3292
340
3119
340
3117
340
32C2
340
32C1
340
32C0
340
3295
340
3294
340
3293
340
3118
340
32C5
340
32C4
340
3299
340
3298
340
3297
340
3291
340
325E
340
325D
340
325C
340
3115
340
33B7
340
338D
340
335E
340
32BC
340
33F9
340
33B8
340
335D
340
335C
340
335B
340
335A
340
3359
340
3358
340
32BE
340
32BD
340
33B6
340
338C
340
338B
340
335F
340
32BB
340
32BA
340
311A
340
3114
340
3324
340
311F
340
33BF
340
3328
340
33F2
340
33BB
340
33BC
340
33BE
340
33BD
340
33BA
340
3327
340
3326
340
3325
340
33F7
340
33F6
340
33F5
340
33F4
340
33F3
340
3329
340
3121
340
33F1
340
33F0
340
3357
340
330E
340
32EF
340
32E8
340
3323
340
3322
340
32EE
340
32ED
340
32EC
340
32EB
340
32EA
340
32E9
340
3356
340
3355
340
330D
340
32F1
340
32F0
340
32E7
340
32E6
340
3123
340
3122
340
3311
340
3310
340
3315
340
3314
340
3313
340
3312
340
3280
340
327F
340
327E
340
327D
340
327C
340
3124
340
311E
340
339B
340
3399
340
34FB
340
34EC
340
34DD
340
34CE
340
34B5
340
34AC
340
3494
340
347F
340
3464
340
345B
340
3443
340
3430
340
3418
340
3416
340
340B
340
340A
340
33D5
340
33D3
340
3346
340
333D
340
3303
340
32FC
340
32D8
340
3279
340
33AB
340
338F
340
3380
340
3368
340
334A
340
3332
340
32DD
340
32B0
340
32A7
340
312A
340
34C4
340
34C3
340
34C2
340
34A4
340
349C
340
3476
340
3473
340
3453
340
344A
340
3428
340
3413
340
3401
340
33E5
340
33C9
340
33B3
340
33AD
340
3366
340
3385
340
32CB
340
32B5
340
32A1
340
328D
340
325A
340
312F
340
33FD
340
326A
340
32C9
340
329D
340
328F
340
310C
340
326B
340
326C
340
326D
340
32C8
340
32C7
340
329C
340
329B
340
311D
340
311B
340
3267
340
3268
340
3269
340
32CA
340
32A0
340
329F
340
329E
340
328E
340
312D
340
312C
340
3388
340
32B7
340
33FC
340
33B4
340
3389
340
32B8
340
33FB
340
3387
340
3386
340
32B6
340
32CD
340
32A4
340
328A
340
3131
340
32CC
340
32A3
340
32A2
340
328C
340
328B
340
3259
340
3258
340
3257
340
3256
340
312E
340
312B
340
32D1
340
32D0
340
32CF
340
32CE
340
32A6
340
32A5
340
3289
340
3288
340
3287
340
3286
340
3285
340
3284
340
3283
340
3282
340
3132
340
3130
340
3383
340
32B3
340
33FF
340
3384
340
32B4
340
33FE
340
33AC
340
3382
340
3381
340
3367
340
32B2
340
32B1
340
3400
340
33B1
340
3364
340
3350
340
332E
340
3309
340
32F7
340
32E1
340
327A
340
33EB
340
33C3
340
3362
340
332C
340
33ED
340
33C2
340
3361
340
332B
340
33EE
340
33C1
340
33B2
340
3363
340
332D
340
33EC
340
3352
340
330B
340
32F5
340
32E4
340
3353
340
32F4
340
32F3
340
3351
340
330A
340
32F6
340
32E3
340
32E2
340
338E
340
3330
340
34A2
340
349F
340
3451
340
344E
340
3415
340
33E7
340
33C8
340
33C7
340
33C5
340
33B0
340
33AF
340
33AE
340
3365
340
332F
340
34A1
340
34A0
340
3450
340
344F
340
33EA
340
33E9
340
33E8
340
33C4
340
3331
340
34C6
340
34C5
340
34A3
340
349E
340
349D
340
3475
340
3474
340
3452
340
344D
340
344C
340
344B
340
3427
340
3414
340
33E6
340
33C6
340
334D
340
3307
340
32F9
340
32DF
340
334F
340
334E
340
3308
340
32F8
340
32E0
340
334C
340
334B
340
3306
340
3305
340
3304
340
32FB
340
32FA
340
32DE
340
3392
340
34E0
340
34C8
340
34C1
340
34A8
340
3497
340
3495
340
342F
340
3417
340
3412
340
33A3
340
3394
340
3377
340
336E
340
3140
340
34BD
340
3410
340
3405
340
33A4
340
337F
340
336D
340
32AF
340
337C
340
32AC
340
32AB
340
313C
340
337E
340
337D
340
32AE
340
32AD
340
32AA
340
32A9
340
32A8
340
313D
340
337B
340
337A
340
3379
340
3378
340
313E
340
313B
340
33A7
340
336A
340
3403
340
33AA
340
33A9
340
33A8
340
3369
340
3402
340
33A6
340
33A5
340
3393
340
336C
340
336B
340
34C0
340
34BF
340
34BE
340
3411
340
3404
340
33A0
340
3374
340
3371
340
3142
340
3407
340
33A2
340
33A1
340
3376
340
3375
340
3370
340
336F
340
3141
340
313F
340
3406
340
339F
340
339E
340
339D
340
339C
340
3373
340
3372
340
3409
340
3408
340
3397
340
34CB
340
34B9
340
34AA
340
3496
340
340E
340
3396
340
3395
340
34CA
340
34C9
340
34BC
340
34BB
340
34BA
340
34A9
340
340F
340
3398
340
34DF
340
34DE
340
34CD
340
34CC
340
34B8
340
34B7
340
34B6
340
34AB
340
340D
340
340C
340
3338
340
3501
340
34E6
340
34E3
340
3498
340
347A
340
346C
340
3457
340
3446
340
342C
340
33DE
340
33CE
340
3334
340
33E2
340
34A6
340
3499
340
3478
340
3470
340
3455
340
3448
340
3429
340
33CB
340
3391
340
3390
340
3333
340
34A5
340
349B
340
349A
340
3477
340
3472
340
3471
340
3454
340
3449
340
33E4
340
33E3
340
33CA
340
3502
340
34E5
340
34E4
340
34C7
340
34A7
340
3479
340
346F
340
346E
340
346D
340
3456
340
3447
340
342B
340
342A
340
33CD
340
33CC
340
33E1
340
3349
340
3348
340
3347
340
32DC
340
32DB
340
32DA
340
32D9
340
3337
340
3336
340
3335
340
33E0
340
33DF
340
34FE
340
34E9
340
347D
340
3459
340
3445
340
342E
340
3500
340
34FF
340
34E8
340
34E7
340
34E2
340
34E1
340
347C
340
347B
340
3458
340
342D
340
34FD
340
34FC
340
34EB
340
34EA
340
347E
340
345A
340
3444
340
333B
340
3468
340
33DA
340
33D0
340
333A
340
3339
340
346B
340
346A
340
3469
340
33DD
340
33DC
340
33DB
340
33CF
340
333C
340
3467
340
3466
340
3465
340
33D9
340
33D8
340
33D7
340
33D6
340
33D2
340
33D1
340
32D3
340
313A
340
3505
340
3509
340
331C
340
3272
340
3136
340
3503
340
350B
340
3319
340
310B
340
3510
340
3511
340
3512
340
350C
340
350D
340
350E
340
350F
340
3318
340
3317
340
3128
340
3126
340
3504
340
350A
340
331B
340
331A
340
3135
340
3134
340
3320
340
3138
340
3506
340
3507
340
3508
340
331F
340
331E
340
331D
340
3278
340
3277
340
3276
340
3275
340
3274
340
3273
340
3133
340
3321
340
3302
340
3301
340
3300
340
32FF
340
32FE
340
32FD
340
32D2
340
3139
340
3137
340
3341
340
3148
340
32D7
340
3144
340
32D6
340
32D5
340
32D4
340
3145
340
3129
340
3345
340
3344
340
3343
340
3342
340
3146
340
3143
340
333E
340
314A
340
3340
340
333F
340
3149
340
3147
340
3522
340
3513
340
3424
340
341C
340
348D
340
3437
340
34D8
340
34D5
340
3491
340
3433
340
339A
340
34DB
340
34D1
340
34B1
340
34AE
340
3492
340
3431
340
34DC
340
34D0
340
34CF
340
34B4
340
34B3
340
34B2
340
34AD
340
3493
340
34DA
340
34D9
340
34D4
340
34D3
340
34D2
340
34B0
340
34AF
340
3432
340
348E
340
3436
340
34D7
340
34D6
340
3490
340
348F
340
3435
340
3434
340
3426
340
3425
340
34F6
340
34F3
340
3482
340
343F
340
34F2
340
34F9
340
3480
340
3441
340
34FA
340
3442
340
34F8
340
34F7
340
3481
340
3440
340
34EF
340
3460
340
345D
340
34EE
340
34ED
340
3463
340
3462
340
3461
340
345C
340
33D4
340
34F1
340
34F0
340
345F
340
345E
340
3485
340
343D
340
34F5
340
34F4
340
3484
340
3483
340
343E
340
348C
340
348B
340
348A
340
3489
340
3488
340
3487
340
3486
340
343C
340
343B
340
343A
340
3439
340
3438
340
341B
340
341A
340
3419
340
351B
340
3421
340
3521
340
351D
340
3520
340
351F
340
351E
340
3423
340
3422
340
351C
340
3518
340
341D
340
3420
340
341F
340
341E
340
351A
340
3519
340
3517
340
3516
340
3515
340
3514
340
37EB
  0
GROUP
  5
38D6
102
{ACAD_REACTORS
330
18
102
}
330
18
100
AcDbGroup
300

 70
     1
 71
     1
340
3526
340
38A2
340
3548
340
359A
340
35B7
340
356B
340
3523
340
35E5
340
3616
340
366A
340
36A0
340
3631
340
3637
340
3645
340
364C
340
3685
340
35FF
340
3622
340
365E
340
367D
340
3694
340
3530
340
3531
340
35EB
340
369D
340
3617
340
3669
340
3532
340
35F5
340
361F
340
3662
340
3698
340
367E
340
3533
340
35F9
340
35F7
340
35F8
340
35F6
340
35FA
340
35FB
340
35FC
340
35FD
340
3620
340
3660
340
3661
340
3696
340
3697
340
35FE
340
3621
340
365F
340
3695
340
369C
340
35EC
340
35ED
340
35EE
340
3699
340
369A
340
369B
340
35F0
340
35F1
340
35F2
340
35F3
340
35F4
340
35EF
340
3632
340
3636
340
3646
340
364A
340
364B
340
3618
340
3619
340
361A
340
361B
340
361C
340
361D
340
361E
340
3634
340
3648
340
3663
340
3664
340
3665
340
3666
340
3667
340
3668
340
367F
340
3680
340
3681
340
3682
340
3683
340
3633
340
3635
340
3647
340
3649
340
3684
340
35E7
340
35E8
340
35E9
340
35EA
340
369E
340
35E6
340
369F
340
36B7
340
36CB
340
36DA
340
352A
340
36BD
340
36C7
340
36DD
340
3709
340
370C
340
3721
340
3746
340
3757
340
3763
340
3780
340
3789
340
3762
340
3747
340
370A
340
370B
340
3720
340
3759
340
375A
340
3786
340
36C8
340
36DC
340
3785
340
375D
340
3782
340
375F
340
3760
340
3761
340
375E
340
3781
340
375C
340
3783
340
3784
340
3788
340
3758
340
375B
340
3787
340
36DB
340
36C9
340
36CA
340
379A
340
3777
340
36AA
340
36C6
340
374E
340
3792
340
352C
340
37BB
340
3776
340
35D9
340
3612
340
366F
340
36FA
340
3718
340
372A
340
3739
340
376C
340
35CC
340
360B
340
360C
340
3629
340
3657
340
367B
340
368F
340
3605
340
3627
340
3659
340
3691
340
36DE
340
3604
340
365A
340
3600
340
3601
340
3602
340
3623
340
3624
340
3625
340
365C
340
365D
340
367C
340
3693
340
3603
340
3626
340
365B
340
3692
340
3606
340
3607
340
3608
340
3609
340
3628
340
3658
340
3690
340
36DF
340
36E0
340
360A
340
362D
340
3651
340
3689
340
362F
340
3630
340
3638
340
3639
340
363A
340
363B
340
363C
340
363D
340
363E
340
363F
340
3640
340
3641
340
3642
340
3643
340
3644
340
364D
340
364E
340
364F
340
3686
340
3687
340
362E
340
3650
340
3679
340
367A
340
3688
340
360D
340
360E
340
3676
340
3677
340
3678
340
3610
340
3611
340
362A
340
362B
340
362C
340
3652
340
3653
340
3654
340
3655
340
3656
340
3670
340
3671
340
3672
340
3673
340
3674
340
368A
340
368B
340
368C
340
368D
340
368E
340
360F
340
3675
340
35D0
340
3704
340
3726
340
373F
340
3711
340
3767
340
35CD
340
35CE
340
35CF
340
3705
340
3706
340
3707
340
3708
340
3744
340
3745
340
3764
340
370E
340
370F
340
3710
340
3722
340
3723
340
3724
340
3725
340
3740
340
3741
340
3742
340
3766
340
370D
340
3743
340
3765
340
3727
340
35D2
340
35D3
340
35D4
340
35D5
340
35D6
340
35D7
340
36FD
340
36FE
340
36FF
340
3700
340
3701
340
3702
340
3728
340
3729
340
36FB
340
35D1
340
35D8
340
36FC
340
3703
340
3713
340
3714
340
3715
340
3716
340
3717
340
373A
340
373B
340
373C
340
373D
340
373E
340
3769
340
376A
340
376B
340
3712
340
3768
340
35DC
340
36A7
340
36F5
340
371D
340
372D
340
3733
340
3748
340
376F
340
3770
340
3798
340
352E
340
35E0
340
3613
340
366E
340
36A3
340
352F
340
35E2
340
35E3
340
35E4
340
3615
340
366B
340
366C
340
36A1
340
35E1
340
3614
340
366D
340
36A2
340
37BC
340
37BD
340
37BE
340
37BF
340
35DE
340
35DF
340
36A4
340
36A5
340
371F
340
372F
340
3730
340
3731
340
35DD
340
36A6
340
36F4
340
371E
340
372E
340
3732
340
3719
340
3738
340
374B
340
376D
340
3773
340
352D
340
3795
340
3737
340
35DA
340
35DB
340
36A8
340
36A9
340
36F6
340
36F7
340
36F8
340
36F9
340
371B
340
371C
340
372B
340
372C
340
3734
340
3735
340
3749
340
3771
340
3796
340
3797
340
371A
340
3736
340
374A
340
376E
340
3772
340
374C
340
3774
340
3794
340
374D
340
3775
340
3793
340
3799
340
352B
340
379B
340
37BA
340
36AF
340
36F0
340
37AE
340
36E6
340
37B3
340
36C1
340
3753
340
377B
340
378D
340
37A2
340
37A9
340
37AA
340
377C
340
377D
340
377E
340
377F
340
37AD
340
3754
340
3755
340
3756
340
378A
340
378B
340
378C
340
37A3
340
37A4
340
37A5
340
37A6
340
37A7
340
37A8
340
37AB
340
37AC
340
36AC
340
36C4
340
36E2
340
36F2
340
3752
340
378E
340
37A1
340
37B7
340
3751
340
378F
340
379F
340
37A0
340
374F
340
3778
340
3779
340
377A
340
3791
340
379C
340
379D
340
37B9
340
36AB
340
36C5
340
36E1
340
36F3
340
3750
340
3790
340
379E
340
37B8
340
37B4
340
36AD
340
36C2
340
36C3
340
36E3
340
36E4
340
37B6
340
36AE
340
36E5
340
36F1
340
37B5
340
36B1
340
36EE
340
36B2
340
36E9
340
36E7
340
36E8
340
37AF
340
37B0
340
37B1
340
37B2
340
36B6
340
36B3
340
36B4
340
36EA
340
36ED
340
36B5
340
36EB
340
36EC
340
36BE
340
36EF
340
36B0
340
36C0
340
36BF
340
3527
340
36D0
340
36D2
340
353D
340
3590
340
35C1
340
36D3
340
3576
340
3537
340
357C
340
36D7
340
3588
340
357E
340
3580
340
3581
340
3582
340
3583
340
3584
340
3585
340
3586
340
3587
340
357F
340
357D
340
3535
340
36CE
340
36D8
340
3589
340
358A
340
358B
340
36CC
340
36D9
340
3534
340
36CD
340
3536
340
36CF
340
3579
340
357B
340
357A
340
3578
340
3577
340
353A
340
358D
340
35C4
340
36D5
340
3538
340
35C6
340
35C7
340
35C8
340
35C9
340
35CA
340
35CB
340
3539
340
358C
340
35C5
340
36D6
340
353B
340
358E
340
35C3
340
353C
340
358F
340
35C2
340
36D4
340
3595
340
35BC
340
3542
340
3571
340
3573
340
3575
340
3574
340
3572
340
3540
340
3592
340
35BF
340
353E
340
3591
340
35C0
340
353F
340
3541
340
3593
340
35BE
340
3594
340
35BD
340
356E
340
3570
340
356F
340
356D
340
356C
340
3545
340
3598
340
35B9
340
3543
340
3596
340
35BB
340
3544
340
3597
340
35BA
340
3546
340
3547
340
3599
340
35B8
340
37C6
340
37CD
340
3529
340
36B9
340
37C1
340
37D1
340
36BB
340
36BC
340
36B8
340
37C0
340
37D2
340
36BA
340
37C2
340
37C3
340
37C4
340
37CF
340
37D0
340
37C5
340
37CE
340
3528
340
37C7
340
37C8
340
37C9
340
37CA
340
37CB
340
37CC
340
36D1
340
354D
340
3566
340
359F
340
35B2
340
3568
340
356A
340
3569
340
3567
340
354B
340
359D
340
35B4
340
3549
340
359B
340
35B6
340
354A
340
359C
340
35B5
340
359E
340
35B3
340
354C
340
37D7
340
3563
340
3565
340
3564
340
3560
340
3562
340
3561
340
3550
340
35A2
340
35AF
340
354E
340
35A0
340
35B1
340
354F
340
35A1
340
35B0
340
3553
340
35AC
340
35A5
340
3551
340
35A3
340
35AE
340
3552
340
35A4
340
35AD
  0
GROUP
  5
3A1
102
{ACAD_REACTORS
330
18
102
}
330
18
100
AcDbGroup
300

 70
     1
 71
     1
  0
GROUP
  5
ACC
102
{ACAD_REACTORS
330
18
102
}
330
18
100
AcDbGroup
300

 70
     1
 71
     1
  0
GROUP
  5
2120
102
{ACAD_REACTORS
330
18
102
}
330
18
100
AcDbGroup
300

 70
     1
 71
     1
  0
GROUP
  5
2765
102
{ACAD_REACTORS
330
18
102
}
330
18
100
AcDbGroup
300

 70
     1
 71
     1
  0
GROUP
  5
2766
102
{ACAD_REACTORS
330
18
102
}
330
18
100
AcDbGroup
300

 70
     1
 71
     1
  0
GROUP
  5
2FC6
102
{ACAD_REACTORS
330
18
102
}
330
18
100
AcDbGroup
300

 70
     1
 71
     1
  0
GROUP
  5
2FC7
102
{ACAD_REACTORS
330
18
102
}
330
18
100
AcDbGroup
300

 70
     1
 71
     1
  0
LAYOUT
  5
5A
102
{ACAD_XDICTIONARY
360
3904
102
}
102
{ACAD_REACTORS
330
58
102
}
330
58
100
AcDbPlotSettings
  1

  2
なし
  4

  6

 40
0.0
 41
0.0
 42
0.0
 43
0.0
 44
0.0
 45
0.0
 46
0.0
 47
0.0
 48
0.0
 49
0.0
140
0.0
141
0.0
142
1.0
143
1.0
 70
  1712
 72
     0
 73
     0
 74
     0
  7
monochrome.ctb
 75
     0
147
1.0
148
0.0
149
0.0
100
AcDbLayout
  1
Model
 70
     1
 71
     0
 10
0.0
 20
0.0
 11
12.0
 21
9.0
 12
0.0
 22
0.0
 32
0.0
 14
0.0
 24
0.0
 34
0.0
 15
0.0
 25
0.0
 35
0.0
146
0.0
 13
0.0
 23
0.0
 33
0.0
 16
1.0
 26
0.0
 36
0.0
 17
0.0
 27
1.0
 37
0.0
 76
     0
330
2
  0
LAYOUT
  5
5B
102
{ACAD_XDICTIONARY
360
3906
102
}
102
{ACAD_REACTORS
330
58
102
}
330
58
100
AcDbPlotSettings
  1

  2
なし
  4

  6

 40
0.0
 41
0.0
 42
0.0
 43
0.0
 44
0.0
 45
0.0
 46
0.0
 47
0.0
 48
0.0
 49
0.0
140
0.0
141
0.0
142
1.0
143
1.0
 70
   688
 72
     0
 73
     0
 74
     5
  7
monochrome.ctb
 75
    16
147
1.0
148
0.0
149
0.0
100
AcDbLayout
  1
ﾚｲｱｳﾄ1
 70
     1
 71
     1
 10
0.0
 20
0.0
 11
12.0
 21
9.0
 12
0.0
 22
0.0
 32
0.0
 14
1.000000000000000E+20
 24
1.000000000000000E+20
 34
1.000000000000000E+20
 15
-1.000000000000000E+20
 25
-1.000000000000000E+20
 35
-1.000000000000000E+20
146
0.0
 13
0.0
 23
0.0
 33
0.0
 16
1.0
 26
0.0
 36
0.0
 17
0.0
 27
1.0
 37
0.0
 76
     0
330
7
  0
MLINESTYLE
  5
1D
102
{ACAD_REACTORS
330
19
102
}
330
19
100
AcDbMlineStyle
  2
STANDARD
 70
     0
  3

 62
   256
 51
90.0
 52
90.0
 71
     2
 49
0.5
 62
   256
  6
BYLAYER
 49
-0.5
 62
   256
  6
BYLAYER
  0
ACDBPLACEHOLDER
  5
57
102
{ACAD_REACTORS
330
56
102
}
330
56
  0
TABLESTYLE
  5
38DE
102
{ACAD_REACTORS
330
38DD
102
}
330
38DD
100
AcDbTableStyle
  3
Standard
 70
     0
 71
     0
 40
0.06
 41
0.06
280
     0
281
     0
  7
STANDARD
140
0.18
170
     2
 62
     0
 63
     7
283
     0
274
    -2
284
     1
 64
     0
275
    -2
285
     1
 65
     0
276
    -2
286
     1
 66
     0
277
    -2
287
     1
 67
     0
278
    -2
288
     1
 68
     0
279
    -2
289
     1
 69
     0
  7
STANDARD
140
0.25
170
     5
 62
     0
 63
     7
283
     0
274
    -2
284
     1
 64
     0
275
    -2
285
     1
 65
     0
276
    -2
286
     1
 66
     0
277
    -2
287
     1
 67
     0
278
    -2
288
     1
 68
     0
279
    -2
289
     1
 69
     0
  7
STANDARD
140
0.18
170
     5
 62
     0
 63
     7
283
     0
274
    -2
284
     1
 64
     0
275
    -2
285
     1
 65
     0
276
    -2
286
     1
 66
     0
277
    -2
287
     1
 67
     0
278
    -2
288
     1
 68
     0
279
    -2
289
     1
 69
     0
  0
DICTIONARYVAR
  5
38FF
102
{ACAD_REACTORS
330
38FE
102
}
330
38FE
100
DictionaryVariables
280
     0
  1
STANDARD
  0
DICTIONARYVAR
  5
3900
102
{ACAD_REACTORS
330
38FE
102
}
330
38FE
100
DictionaryVariables
280
     0
  1
1
  0
DICTIONARYVAR
  5
3901
102
{ACAD_REACTORS
330
38FE
102
}
330
38FE
100
DictionaryVariables
280
     0
  1

  0
DICTIONARY
  5
3904
330
5A
100
AcDbDictionary
280
     1
281
     1
  3
ACAD_XREC_ROUNDTRIP
360
3905
  0
DICTIONARY
  5
3906
330
5B
100
AcDbDictionary
280
     1
281
     1
  3
ACAD_XREC_ROUNDTRIP
360
3907
  0
XRECORD
  5
3905
102
{ACAD_REACTORS
330
3904
102
}
330
3904
100
AcDbXrecord
280
     1
102
SHADEPLOT
 70
     0
102
SHADEPLOTRESLEVEL
 70
     2
102
SHADEPLOTCUSTOMDPI
 70
   300
  0
XRECORD
  5
3907
102
{ACAD_REACTORS
330
3906
102
}
330
3906
100
AcDbXrecord
280
     1
102
SHADEPLOT
 70
     0
102
SHADEPLOTRESLEVEL
 70
     2
102
SHADEPLOTCUSTOMDPI
 70
   300
  0
ENDSEC
  0
EOF
