  0
SECTION
  2
HEADER
  9
$ACADVER
  1
AC1015
  9
$ACADMAINTVER
 70
    20
  9
$DWGCODEPAGE
  3
ANSI_932
  9
$INSBASE
 10
922.019522
 20
-675.4306699999999
 30
0.0
  9
$EXTMIN
 10
-162.3338424707024
 20
-34.71146962336843
 30
-0.0000000349181948
  9
$EXTMAX
 10
817.6434003165736
 20
1459.097344792587
 30
0.0000000814935746
  9
$LIMMIN
 10
0.0
 20
0.0
  9
$LIMMAX
 10
420.0
 20
297.0
  9
$ORTHOMODE
 70
     1
  9
$REGENMODE
 70
     1
  9
$FILLMODE
 70
     1
  9
$QTEXTMODE
 70
     0
  9
$MIRRTEXT
 70
     1
  9
$LTSCALE
 40
50.0
  9
$ATTMODE
 70
     1
  9
$TEXTSIZE
 40
30.0
  9
$TRACEWID
 40
0.05
  9
$TEXTSTYLE
  7
SUNPOU
  9
$CLAYER
  8
0
  9
$CELTYPE
  6
BYLAYER
  9
$CECOLOR
 62
   256
  9
$CELTSCALE
 40
1.0
  9
$DISPSILH
 70
     0
  9
$DIMSCALE
 40
1.0
  9
$DIMASZ
 40
3.0
  9
$DIMEXO
 40
3.0
  9
$DIMDLI
 40
0.38
  9
$DIMRND
 40
0.0
  9
$DIMDLE
 40
0.0
  9
$DIMEXE
 40
0.0
  9
$DIMTP
 40
0.0
  9
$DIMTM
 40
0.0
  9
$DIMTXT
 40
10.0
  9
$DIMCEN
 40
0.0
  9
$DIMTSZ
 40
0.0
  9
$DIMTOL
 70
     0
  9
$DIMLIM
 70
     0
  9
$DIMTIH
 70
     0
  9
$DIMTOH
 70
     0
  9
$DIMSE1
 70
     0
  9
$DIMSE2
 70
     0
  9
$DIMTAD
 70
     1
  9
$DIMZIN
 70
     0
  9
$DIMBLK
  1
Dot
  9
$DIMASO
 70
     1
  9
$DIMSHO
 70
     1
  9
$DIMPOST
  1

  9
$DIMAPOST
  1

  9
$DIMALT
 70
     0
  9
$DIMALTD
 70
     2
  9
$DIMALTF
 40
25.4
  9
$DIMLFAC
 40
1.0
  9
$DIMTOFL
 70
     0
  9
$DIMTVP
 40
0.0
  9
$DIMTIX
 70
     0
  9
$DIMSOXD
 70
     0
  9
$DIMSAH
 70
     0
  9
$DIMBLK1
  1

  9
$DIMBLK2
  1

  9
$DIMSTYLE
  2
STANDARD
  9
$DIMCLRD
 70
    60
  9
$DIMCLRE
 70
    70
  9
$DIMCLRT
 70
    60
  9
$DIMTFAC
 40
0.064286
  9
$DIMGAP
 40
5.0
  9
$DIMJUST
 70
     0
  9
$DIMSD1
 70
     0
  9
$DIMSD2
 70
     0
  9
$DIMTOLJ
 70
     1
  9
$DIMTZIN
 70
     0
  9
$DIMALTZ
 70
     0
  9
$DIMALTTZ
 70
     0
  9
$DIMUPT
 70
     0
  9
$DIMDEC
 70
     0
  9
$DIMTDEC
 70
     0
  9
$DIMALTU
 70
     2
  9
$DIMALTTD
 70
     2
  9
$DIMTXSTY
  7
SUNPOU
  9
$DIMAUNIT
 70
     0
  9
$DIMADEC
 70
     0
  9
$DIMALTRND
 40
0.0
  9
$DIMAZIN
 70
     0
  9
$DIMDSEP
 70
    46
  9
$DIMATFIT
 70
     3
  9
$DIMFRAC
 70
     0
  9
$DIMLDRBLK
  1

  9
$DIMLUNIT
 70
     2
  9
$DIMLWD
 70
    -2
  9
$DIMLWE
 70
    -2
  9
$DIMTMOVE
 70
     0
  9
$LUNITS
 70
     2
  9
$LUPREC
 70
     5
  9
$SKETCHINC
 40
0.1
  9
$FILLETRAD
 40
0.0
  9
$AUNITS
 70
     0
  9
$AUPREC
 70
     0
  9
$MENU
  1
acad
  9
$ELEVATION
 40
0.0
  9
$PELEVATION
 40
0.0
  9
$THICKNESS
 40
0.0
  9
$LIMCHECK
 70
     0
  9
$CHAMFERA
 40
0.0
  9
$CHAMFERB
 40
0.0
  9
$CHAMFERC
 40
0.0
  9
$CHAMFERD
 40
0.0
  9
$SKPOLY
 70
     0
  9
$TDCREATE
 40
2450623.654673033
  9
$TDUCREATE
 40
2450623.279673032
  9
$TDUPDATE
 40
2454580.612585752
  9
$TDUUPDATE
 40
2454580.237585752
  9
$TDINDWG
 40
0.1477732060
  9
$TDUSRTIMER
 40
0.1477730324
  9
$USRTIMER
 70
     1
  9
$ANGBASE
 50
0.0
  9
$ANGDIR
 70
     0
  9
$PDMODE
 70
     0
  9
$PDSIZE
 40
0.0
  9
$PLINEWID
 40
0.0
  9
$SPLFRAME
 70
     0
  9
$SPLINETYPE
 70
     6
  9
$SPLINESEGS
 70
     8
  9
$HANDSEED
  5
30A7
  9
$SURFTAB1
 70
     6
  9
$SURFTAB2
 70
     6
  9
$SURFTYPE
 70
     6
  9
$SURFU
 70
     6
  9
$SURFV
 70
     6
  9
$UCSBASE
  2

  9
$UCSNAME
  2

  9
$UCSORG
 10
0.0
 20
0.0
 30
0.0
  9
$UCSXDIR
 10
1.0
 20
0.0
 30
0.0
  9
$UCSYDIR
 10
0.0
 20
1.0
 30
0.0
  9
$UCSORTHOREF
  2

  9
$UCSORTHOVIEW
 70
     0
  9
$UCSORGTOP
 10
0.0
 20
0.0
 30
0.0
  9
$UCSORGBOTTOM
 10
0.0
 20
0.0
 30
0.0
  9
$UCSORGLEFT
 10
0.0
 20
0.0
 30
0.0
  9
$UCSORGRIGHT
 10
0.0
 20
0.0
 30
0.0
  9
$UCSORGFRONT
 10
0.0
 20
0.0
 30
0.0
  9
$UCSORGBACK
 10
0.0
 20
0.0
 30
0.0
  9
$PUCSBASE
  2

  9
$PUCSNAME
  2

  9
$PUCSORG
 10
0.0
 20
0.0
 30
0.0
  9
$PUCSXDIR
 10
1.0
 20
0.0
 30
0.0
  9
$PUCSYDIR
 10
0.0
 20
1.0
 30
0.0
  9
$PUCSORTHOREF
  2

  9
$PUCSORTHOVIEW
 70
     0
  9
$PUCSORGTOP
 10
0.0
 20
0.0
 30
0.0
  9
$PUCSORGBOTTOM
 10
0.0
 20
0.0
 30
0.0
  9
$PUCSORGLEFT
 10
0.0
 20
0.0
 30
0.0
  9
$PUCSORGRIGHT
 10
0.0
 20
0.0
 30
0.0
  9
$PUCSORGFRONT
 10
0.0
 20
0.0
 30
0.0
  9
$PUCSORGBACK
 10
0.0
 20
0.0
 30
0.0
  9
$USERI1
 70
     0
  9
$USERI2
 70
     0
  9
$USERI3
 70
     0
  9
$USERI4
 70
     0
  9
$USERI5
 70
     0
  9
$USERR1
 40
0.0
  9
$USERR2
 40
0.0
  9
$USERR3
 40
0.0
  9
$USERR4
 40
0.0
  9
$USERR5
 40
0.0
  9
$WORLDVIEW
 70
     1
  9
$SHADEDGE
 70
     3
  9
$SHADEDIF
 70
    70
  9
$TILEMODE
 70
     1
  9
$MAXACTVP
 70
    16
  9
$PINSBASE
 10
0.0
 20
0.0
 30
0.0
  9
$PLIMCHECK
 70
     0
  9
$PEXTMIN
 10
1.000000000000000E+20
 20
1.000000000000000E+20
 30
1.000000000000000E+20
  9
$PEXTMAX
 10
-1.000000000000000E+20
 20
-1.000000000000000E+20
 30
-1.000000000000000E+20
  9
$PLIMMIN
 10
0.0
 20
0.0
  9
$PLIMMAX
 10
12.0
 20
9.0
  9
$UNITMODE
 70
     0
  9
$VISRETAIN
 70
     0
  9
$PLINEGEN
 70
     0
  9
$PSLTSCALE
 70
     1
  9
$TREEDEPTH
 70
  3020
  9
$CMLSTYLE
  2
STANDARD
  9
$CMLJUST
 70
     0
  9
$CMLSCALE
 40
1.0
  9
$PROXYGRAPHICS
 70
     1
  9
$MEASUREMENT
 70
     0
  9
$CELWEIGHT
370
    -1
  9
$ENDCAPS
280
     0
  9
$JOINSTYLE
280
     0
  9
$LWDISPLAY
290
     0
  9
$INSUNITS
 70
     0
  9
$HYPERLINKBASE
  1

  9
$STYLESHEET
  1

  9
$XEDIT
290
     1
  9
$CEPSNTYPE
380
     0
  9
$PSTYLEMODE
290
     1
  9
$FINGERPRINTGUID
  2
{FB88A696-E29C-4009-92AF-A3599A8169D5}
  9
$VERSIONGUID
  2
{A472DA77-875D-49FE-8ADE-8719A15B74C5}
  9
$EXTNAMES
290
     1
  9
$PSVPSCALE
 40
0.0
  9
$OLESTARTUP
290
     0
  0
ENDSEC
  0
SECTION
  2
CLASSES
  0
CLASS
  1
DICTIONARYVAR
  2
AcDbDictionaryVar
  3
ObjectDBX Classes
 90
        0
280
     0
281
     0
  0
CLASS
  1
ACDBDICTIONARYWDFLT
  2
AcDbDictionaryWithDefault
  3
ObjectDBX Classes
 90
        0
280
     0
281
     0
  0
CLASS
  1
ACDBPLACEHOLDER
  2
AcDbPlaceHolder
  3
ObjectDBX Classes
 90
        0
280
     0
281
     0
  0
CLASS
  1
LAYOUT
  2
AcDbLayout
  3
ObjectDBX Classes
 90
        0
280
     0
281
     0
  0
CLASS
  1
TABLESTYLE
  2
AcDbTableStyle
  3
ObjectDBX Classes
 90
     2047
280
     0
281
     0
  0
ENDSEC
  0
SECTION
  2
TABLES
  0
TABLE
  2
VPORT
  5
12
330
0
100
AcDbSymbolTable
 70
     7
  0
VPORT
  5
30A1
330
12
100
AcDbSymbolTableRecord
100
AcDbViewportTableRecord
  2
*Active
 70
     0
 10
0.0
 20
0.0
 11
1.0
 21
1.0
 12
327.6547789229355
 22
712.1929375846097
 13
0.0
 23
0.0
 14
1.0
 24
1.0
 15
0.0
 25
0.0
 16
0.0
 26
0.0
 36
1.0
 17
0.0
 27
0.0
 37
0.0
 40
1505.211935136689
 41
1.528662420382165
 42
50.0
 43
0.0
 44
0.0
 50
0.0
 51
0.0
 71
     0
 72
 20000
 73
     1
 74
     1
 75
     0
 76
     0
 77
     0
 78
     0
281
     0
 65
     1
110
0.0
120
0.0
130
0.0
111
1.0
121
0.0
131
0.0
112
0.0
122
1.0
132
0.0
 79
     0
146
0.0
  0
ENDTAB
  0
TABLE
  2
LTYPE
  5
D
330
0
100
AcDbSymbolTable
 70
     3
  0
LTYPE
  5
E
330
D
100
AcDbSymbolTableRecord
100
AcDbLinetypeTableRecord
  2
BYBLOCK
 70
     0
  3

 72
    65
 73
     0
 40
0.0
  0
LTYPE
  5
F
330
D
100
AcDbSymbolTableRecord
100
AcDbLinetypeTableRecord
  2
BYLAYER
 70
     0
  3

 72
    65
 73
     0
 40
0.0
  0
LTYPE
  5
5
330
D
100
AcDbSymbolTableRecord
100
AcDbLinetypeTableRecord
  2
CONTINUOUS
 70
     0
  3
Solid line
 72
    65
 73
     0
 40
0.0
  0
LTYPE
  5
1AC
330
D
100
AcDbSymbolTableRecord
100
AcDbLinetypeTableRecord
  2
CENTER
 70
     0
  3
Center ____ _ ____ _ ____ _ ____ _ ____ _ ____
 72
    65
 73
     4
 40
2.0
 49
1.25
 74
     0
 49
-0.25
 74
     0
 49
0.25
 74
     0
 49
-0.25
 74
     0
  0
ENDTAB
  0
TABLE
  2
LAYER
  5
A
330
0
100
AcDbSymbolTable
 70
     6
  0
LAYER
  5
4
330
A
100
AcDbSymbolTableRecord
100
AcDbLayerTableRecord
  2
0
 70
     0
 62
     7
  6
CONTINUOUS
370
    -3
390
57
  0
LAYER
  5
25
330
A
100
AcDbSymbolTableRecord
100
AcDbLayerTableRecord
  2
KIJUN
 70
     0
 62
     7
  6
CONTINUOUS
370
    -3
390
57
  0
LAYER
  5
22
330
A
100
AcDbSymbolTableRecord
100
AcDbLayerTableRecord
  2
HOJO
 70
     0
 62
     3
  6
CONTINUOUS
370
    -3
390
57
  0
LAYER
  5
1B
330
A
100
AcDbSymbolTableRecord
100
AcDbLayerTableRecord
  2
WAKU
 70
     0
 62
     1
  6
CONTINUOUS
370
    -3
390
57
  0
LAYER
  5
31
330
A
100
AcDbSymbolTableRecord
100
AcDbLayerTableRecord
  2
DEFPOINTS
 70
     0
 62
     7
  6
CONTINUOUS
290
     0
370
    -3
390
57
  0
LAYER
  5
28
330
A
100
AcDbSymbolTableRecord
100
AcDbLayerTableRecord
  2
SUNPOU
 70
     0
 62
    70
  6
CONTINUOUS
370
    -3
390
57
  0
ENDTAB
  0
TABLE
  2
STYLE
  5
B
330
0
100
AcDbSymbolTable
 70
     3
  0
STYLE
  5
C
330
B
100
AcDbSymbolTableRecord
100
AcDbTextStyleTableRecord
  2
STANDARD
 70
     0
 40
0.0
 41
1.0
 50
0.0
 71
     0
 42
0.2
  3
txt
  4

  0
STYLE
  5
1C
330
B
100
AcDbSymbolTableRecord
100
AcDbTextStyleTableRecord
  2
SUNPOU
 70
     0
 40
0.0
 41
1.0
 50
0.0
 71
     0
 42
30.0
  3
txt
  4
bigfont
  0
STYLE
  5
1AD
330
B
100
AcDbSymbolTableRecord
100
AcDbTextStyleTableRecord
  2
LIFE
 70
     0
 40
0.0
 41
0.7
 50
0.0
 71
     0
 42
10.0
  3
romans
  4
extfont
  0
ENDTAB
  0
TABLE
  2
VIEW
  5
10
330
0
100
AcDbSymbolTable
 70
     0
  0
ENDTAB
  0
TABLE
  2
UCS
  5
11
330
0
100
AcDbSymbolTable
 70
     0
  0
ENDTAB
  0
TABLE
  2
APPID
  5
14
330
0
100
AcDbSymbolTable
 70
     2
  0
APPID
  5
15
330
14
100
AcDbSymbolTableRecord
100
AcDbRegAppTableRecord
  2
ACAD
 70
     0
  0
APPID
  5
306A
330
14
100
AcDbSymbolTableRecord
100
AcDbRegAppTableRecord
  2
ACAD_EXEMPT_FROM_CAD_STANDARDS
 70
     0
  0
ENDTAB
  0
TABLE
  2
DIMSTYLE
  5
16
330
0
100
AcDbSymbolTable
 70
     3
100
AcDbDimStyleTable
 71
     1
340
1E
  0
DIMSTYLE
105
1E
330
16
100
AcDbSymbolTableRecord
100
AcDbDimStyleTableRecord
  2
STANDARD
 70
     0
340
C
  0
DIMSTYLE
105
1AE
102
{ACAD_REACTORS
330
2F6B
330
2F99
330
2FAC
330
2FB9
330
2FFD
330
3025
102
}
330
16
100
AcDbSymbolTableRecord
100
AcDbDimStyleTableRecord
  2
STANDARD$0
 70
     0
 40
2.0
 41
1.0
 42
2.0
 43
0.0
 44
1.0
 73
     0
 74
     0
 77
     3
 78
     9
140
4.5
141
0.0
147
1.0
172
     1
173
     1
178
     3
271
     2
340
1AD
341
109
343
109
344
109
  0
ENDTAB
  0
TABLE
  2
BLOCK_RECORD
  5
1
330
0
100
AcDbSymbolTable
 70
    11
  0
BLOCK_RECORD
  5
2
330
1
100
AcDbSymbolTableRecord
100
AcDbBlockTableRecord
  2
*MODEL_SPACE
340
5A
  0
BLOCK_RECORD
  5
7
330
1
100
AcDbSymbolTableRecord
100
AcDbBlockTableRecord
  2
*PAPER_SPACE
340
5B
  0
BLOCK_RECORD
  5
109
330
1
100
AcDbSymbolTableRecord
100
AcDbBlockTableRecord
  2
_Dot
340
0
102
{BLKREFS
331
2F8A
331
2F8B
331
2FE6
331
2FE7
331
303E
331
303F
331
3047
331
3048
331
3050
331
3051
331
3076
331
3077
331
307F
331
3080
102
}
  0
BLOCK_RECORD
  5
2F6C
330
1
100
AcDbSymbolTableRecord
100
AcDbBlockTableRecord
  2
*D2
340
0
  0
BLOCK_RECORD
  5
2F9A
330
1
100
AcDbSymbolTableRecord
100
AcDbBlockTableRecord
  2
*D4
340
0
  0
BLOCK_RECORD
  5
2FAD
330
1
100
AcDbSymbolTableRecord
100
AcDbBlockTableRecord
  2
*D5
340
0
  0
BLOCK_RECORD
  5
2FBA
330
1
100
AcDbSymbolTableRecord
100
AcDbBlockTableRecord
  2
*D6
340
0
  0
BLOCK_RECORD
  5
2FFE
330
1
100
AcDbSymbolTableRecord
100
AcDbBlockTableRecord
  2
*D8
340
0
  0
BLOCK_RECORD
  5
3026
330
1
100
AcDbSymbolTableRecord
100
AcDbBlockTableRecord
  2
*D9
340
0
  0
ENDTAB
  0
ENDSEC
  0
SECTION
  2
BLOCKS
  0
BLOCK
  5
3
330
2
100
AcDbEntity
  8
0
100
AcDbBlockBegin
  2
*MODEL_SPACE
 70
     0
 10
0.0
 20
0.0
 30
0.0
  3
*MODEL_SPACE
  1

  0
ENDBLK
  5
6
330
2
100
AcDbEntity
  8
0
100
AcDbBlockEnd
  0
BLOCK
  5
8
330
7
100
AcDbEntity
 67
     1
  8
0
100
AcDbBlockBegin
  2
*PAPER_SPACE
 70
     0
 10
0.0
 20
0.0
 30
0.0
  3
*PAPER_SPACE
  1

  0
ENDBLK
  5
9
330
7
100
AcDbEntity
 67
     1
  8
0
100
AcDbBlockEnd
  0
BLOCK
  5
10C
330
109
100
AcDbEntity
  8
0
100
AcDbBlockBegin
  2
_Dot
 70
     0
 10
0.0
 20
0.0
 30
0.0
  3
_Dot
  1

  0
LWPOLYLINE
  5
10A
330
109
100
AcDbEntity
  8
0
  6
ByBlock
 62
     0
100
AcDbPolyline
 90
        2
 70
     1
 43
0.5
 10
-0.25
 20
0.0
 42
1.0
 10
0.25
 20
0.0
 42
1.0
  0
LINE
  5
10B
330
109
100
AcDbEntity
  8
0
  6
ByBlock
 62
     0
370
    -2
100
AcDbLine
 10
-0.5
 20
0.0
 30
0.0
 11
-1.0
 21
0.0
 31
0.0
  0
ENDBLK
  5
10D
330
109
100
AcDbEntity
  8
0
100
AcDbBlockEnd
  0
BLOCK
  5
2F76
330
2F6C
100
AcDbEntity
  8
0
100
AcDbBlockBegin
  2
*D2
 70
     1
 10
0.0
 20
0.0
 30
0.0
  3
*D2
  1

  0
LINE
  5
3044
330
2F6C
100
AcDbEntity
  8
SUNPOU
 62
    70
370
    -2
100
AcDbLine
 10
53.83979658912233
 20
313.5554686871056
 30
0.0
 11
53.83979658912232
 21
186.8908197926262
 31
0.0
  0
LINE
  5
3045
330
2F6C
100
AcDbEntity
  8
SUNPOU
 62
    70
370
    -2
100
AcDbLine
 10
168.8397965891222
 20
313.5554686871056
 30
0.0
 11
168.8397965891222
 21
186.8908197926262
 31
0.0
  0
LINE
  5
3046
330
2F6C
100
AcDbEntity
  8
SUNPOU
 62
    60
370
    -2
100
AcDbLine
 10
59.83979658912232
 20
186.8908197926262
 30
0.0
 11
162.8397965891222
 21
186.8908197926262
 31
0.0
  0
INSERT
  5
3047
330
2F6C
100
AcDbEntity
  8
SUNPOU
 62
    60
370
    -2
100
AcDbBlockReference
  2
_Dot
 10
53.83979658912232
 20
186.8908197926262
 30
0.0
 41
6.0
 42
6.0
 43
6.0
 50
180.0
  0
INSERT
  5
3048
330
2F6C
100
AcDbEntity
  8
SUNPOU
 62
    60
370
    -2
100
AcDbBlockReference
  2
_Dot
 10
168.8397965891222
 20
186.8908197926262
 30
0.0
 41
6.0
 42
6.0
 43
6.0
  0
MTEXT
  5
3049
330
2F6C
100
AcDbEntity
  8
SUNPOU
 62
    60
100
AcDbMText
 10
111.3397965891222
 20
206.8908197926262
 30
0.0
 40
20.0
 41
0.0
 71
     5
 72
     1
  1
\A1;115
  7
SUNPOU
 73
     1
 44
1.0
1001
ACAD
1000
MTEXTBEGIN
1070
    73
1070
     1
1070
    44
1040
1.0
1070
    74
1070
     0
1000
MTEXTEND
  0
POINT
  5
304A
330
2F6C
100
AcDbEntity
  8
DEFPOINTS
 62
     0
100
AcDbPoint
 10
53.83979658912233
 20
319.5554686871056
 30
0.0
  0
POINT
  5
304B
330
2F6C
100
AcDbEntity
  8
DEFPOINTS
 62
     0
100
AcDbPoint
 10
168.8397965891222
 20
319.5554686871056
 30
0.0
  0
POINT
  5
304C
330
2F6C
100
AcDbEntity
  8
DEFPOINTS
 62
     0
100
AcDbPoint
 10
168.8397965891222
 20
186.8908197926262
 30
0.0
  0
ENDBLK
  5
2F77
330
2F6C
100
AcDbEntity
  8
0
100
AcDbBlockEnd
  0
BLOCK
  5
2FA4
330
2F9A
100
AcDbEntity
  8
0
100
AcDbBlockBegin
  2
*D4
 70
     1
 10
0.0
 20
0.0
 30
0.0
  3
*D4
  1

  0
LINE
  5
304D
330
2F9A
100
AcDbEntity
  8
SUNPOU
 62
    70
370
    -2
100
AcDbLine
 10
61.67579958913018
 20
1419.555468687106
 30
0.0
 11
-132.285045587543
 21
1419.555468687106
 31
0.0
  0
LINE
  5
304E
330
2F9A
100
AcDbEntity
  8
SUNPOU
 62
    70
370
    -2
100
AcDbLine
 10
47.83979658912232
 20
319.5554686871056
 30
0.0
 11
-132.2850455875433
 21
319.5554686871057
 31
0.0
  0
LINE
  5
304F
330
2F9A
100
AcDbEntity
  8
SUNPOU
 62
    60
370
    -2
100
AcDbLine
 10
-132.285045587543
 20
1413.555468687106
 30
0.0
 11
-132.2850455875433
 21
325.5554686871057
 31
0.0
  0
INSERT
  5
3050
330
2F9A
100
AcDbEntity
  8
SUNPOU
 62
    60
370
    -2
100
AcDbBlockReference
  2
_Dot
 10
-132.285045587543
 20
1419.555468687106
 30
0.0
 41
6.0
 42
6.0
 43
6.0
 50
90.0
  0
INSERT
  5
3051
330
2F9A
100
AcDbEntity
  8
SUNPOU
 62
    60
370
    -2
100
AcDbBlockReference
  2
_Dot
 10
-132.2850455875433
 20
319.5554686871057
 30
0.0
 41
6.0
 42
6.0
 43
6.0
 50
270.0
  0
MTEXT
  5
3052
330
2F9A
100
AcDbEntity
  8
SUNPOU
 62
    60
100
AcDbMText
 10
-152.2850455875433
 20
869.5554686871057
 30
0.0
 40
20.0
 41
0.0
 71
     5
 72
     1
  1
\A1;1100
  7
SUNPOU
 11
0.0000000000000001
 21
1.0
 31
0.0
 73
     1
 44
1.0
1001
ACAD
1000
MTEXTBEGIN
1070
    73
1070
     1
1070
    44
1040
1.0
1070
    74
1070
     0
1000
MTEXTEND
  0
POINT
  5
3053
330
2F9A
100
AcDbEntity
  8
DEFPOINTS
 62
     0
100
AcDbPoint
 10
67.67579958913017
 20
1419.555468687106
 30
0.0
  0
POINT
  5
3054
330
2F9A
100
AcDbEntity
  8
DEFPOINTS
 62
     0
100
AcDbPoint
 10
53.83979658912233
 20
319.5554686871056
 30
0.0
  0
POINT
  5
3055
330
2F9A
100
AcDbEntity
  8
DEFPOINTS
 62
     0
100
AcDbPoint
 10
-132.2850455875433
 20
319.5554686871057
 30
0.0
  0
ENDBLK
  5
2FA5
330
2F9A
100
AcDbEntity
  8
0
100
AcDbBlockEnd
  0
BLOCK
  5
2FB7
330
2FAD
100
AcDbEntity
  8
0
100
AcDbBlockBegin
  2
*D5
 70
     1
 10
0.0
 20
0.0
 30
0.0
  3
*D5
  1

  0
LINE
  5
2FE3
330
2FAD
100
AcDbEntity
  8
SUNPOU
 62
    70
370
    -2
100
AcDbLine
 10
532.4427413589922
 20
313.5554686871056
 30
0.0
 11
532.4427413589922
 21
187.2293024889882
 31
0.0
  0
LINE
  5
2FE4
330
2FAD
100
AcDbEntity
  8
SUNPOU
 62
    70
370
    -2
100
AcDbLine
 10
647.4427413589924
 20
313.5554686871056
 30
0.0
 11
647.4427413589924
 21
187.2293024889882
 31
0.0
  0
LINE
  5
2FE5
330
2FAD
100
AcDbEntity
  8
SUNPOU
 62
    60
370
    -2
100
AcDbLine
 10
538.4427413589921
 20
187.2293024889882
 30
0.0
 11
641.4427413589923
 21
187.2293024889882
 31
0.0
  0
INSERT
  5
2FE6
330
2FAD
100
AcDbEntity
  8
SUNPOU
 62
    60
370
    -2
100
AcDbBlockReference
  2
_Dot
 10
532.4427413589922
 20
187.2293024889882
 30
0.0
 41
6.0
 42
6.0
 43
6.0
 50
180.0
  0
INSERT
  5
2FE7
330
2FAD
100
AcDbEntity
  8
SUNPOU
 62
    60
370
    -2
100
AcDbBlockReference
  2
_Dot
 10
647.4427413589924
 20
187.2293024889882
 30
0.0
 41
6.0
 42
6.0
 43
6.0
  0
MTEXT
  5
2FE8
330
2FAD
100
AcDbEntity
  8
SUNPOU
 62
    60
100
AcDbMText
 10
589.9427413589923
 20
207.2293024889882
 30
0.0
 40
20.0
 41
0.0
 71
     5
 72
     1
  1
\A1;115
  7
SUNPOU
 73
     1
 44
1.0
1001
ACAD
1000
MTEXTBEGIN
1070
    73
1070
     1
1070
    44
1040
1.0
1070
    74
1070
     0
1000
MTEXTEND
  0
POINT
  5
2FE9
330
2FAD
100
AcDbEntity
  8
DEFPOINTS
 62
     0
100
AcDbPoint
 10
532.4427413589922
 20
319.5554686871056
 30
0.0
  0
POINT
  5
2FEA
330
2FAD
100
AcDbEntity
  8
DEFPOINTS
 62
     0
100
AcDbPoint
 10
647.4427413589924
 20
319.5554686871056
 30
0.0
  0
POINT
  5
2FEB
330
2FAD
100
AcDbEntity
  8
DEFPOINTS
 62
     0
100
AcDbPoint
 10
647.4427413589924
 20
187.2293024889882
 30
0.0
  0
ENDBLK
  5
2FB8
330
2FAD
100
AcDbEntity
  8
0
100
AcDbBlockEnd
  0
BLOCK
  5
2FC4
330
2FBA
100
AcDbEntity
  8
0
100
AcDbBlockBegin
  2
*D6
 70
     1
 10
0.0
 20
0.0
 30
0.0
  3
*D6
  1

  0
LINE
  5
303B
330
2FBA
100
AcDbEntity
  8
SUNPOU
 62
    70
370
    -2
100
AcDbLine
 10
526.4427413589921
 20
319.5554686871056
 30
0.0
 11
355.1098165596429
 21
319.5554686871057
 31
0.0
  0
LINE
  5
303C
330
2FBA
100
AcDbEntity
  8
SUNPOU
 62
    70
370
    -2
100
AcDbLine
 10
534.3195233590136
 20
1419.555468687105
 30
0.0
 11
355.1098165596432
 21
1419.555468687106
 31
0.0
  0
LINE
  5
303D
330
2FBA
100
AcDbEntity
  8
SUNPOU
 62
    60
370
    -2
100
AcDbLine
 10
355.1098165596429
 20
325.5554686871057
 30
0.0
 11
355.1098165596432
 21
1413.555468687106
 31
0.0
  0
INSERT
  5
303E
330
2FBA
100
AcDbEntity
  8
SUNPOU
 62
    60
370
    -2
100
AcDbBlockReference
  2
_Dot
 10
355.1098165596429
 20
319.5554686871057
 30
0.0
 41
6.0
 42
6.0
 43
6.0
 50
270.0
  0
INSERT
  5
303F
330
2FBA
100
AcDbEntity
  8
SUNPOU
 62
    60
370
    -2
100
AcDbBlockReference
  2
_Dot
 10
355.1098165596432
 20
1419.555468687106
 30
0.0
 41
6.0
 42
6.0
 43
6.0
 50
90.0
  0
MTEXT
  5
3040
330
2FBA
100
AcDbEntity
  8
SUNPOU
 62
    60
100
AcDbMText
 10
335.1098165596429
 20
869.5554686871057
 30
0.0
 40
20.0
 41
0.0
 71
     5
 72
     1
  1
\A1;1100
  7
SUNPOU
 11
0.0000000000000001
 21
1.0
 31
0.0
 73
     1
 44
1.0
1001
ACAD
1000
MTEXTBEGIN
1070
    73
1070
     1
1070
    44
1040
1.0
1070
    74
1070
     0
1000
MTEXTEND
  0
POINT
  5
3041
330
2FBA
100
AcDbEntity
  8
DEFPOINTS
 62
     0
100
AcDbPoint
 10
532.4427413589922
 20
319.5554686871056
 30
0.0
  0
POINT
  5
3042
330
2FBA
100
AcDbEntity
  8
DEFPOINTS
 62
     0
100
AcDbPoint
 10
540.3195233590135
 20
1419.555468687105
 30
0.0
  0
POINT
  5
3043
330
2FBA
100
AcDbEntity
  8
DEFPOINTS
 62
     0
100
AcDbPoint
 10
355.1098165596432
 20
1419.555468687106
 30
0.0
  0
ENDBLK
  5
2FC5
330
2FBA
100
AcDbEntity
  8
0
100
AcDbBlockEnd
  0
BLOCK
  5
3008
330
2FFE
100
AcDbEntity
  8
0
100
AcDbBlockBegin
  2
*D8
 70
     1
 10
0.0
 20
0.0
 30
0.0
  3
*D8
  1

  0
LINE
  5
3073
330
2FFE
100
AcDbEntity
  8
SUNPOU
 62
    70
370
    -2
100
AcDbLine
 10
54.83979658912222
 20
809.5554686871055
 30
0.0
 11
-53.49419222465257
 21
809.5554686871055
 31
0.0
  0
LINE
  5
3074
330
2FFE
100
AcDbEntity
  8
SUNPOU
 62
    70
370
    -2
100
AcDbLine
 10
47.83979658912222
 20
319.5554686871056
 30
0.0
 11
-53.49419222465269
 21
319.5554686871056
 31
0.0
  0
LINE
  5
3075
330
2FFE
100
AcDbEntity
  8
SUNPOU
 62
    60
370
    -2
100
AcDbLine
 10
-53.49419222465258
 20
803.5554686871055
 30
0.0
 11
-53.49419222465269
 21
325.5554686871056
 31
0.0
  0
INSERT
  5
3076
330
2FFE
100
AcDbEntity
  8
SUNPOU
 62
    60
370
    -2
100
AcDbBlockReference
  2
_Dot
 10
-53.49419222465258
 20
809.5554686871055
 30
0.0
 41
6.0
 42
6.0
 43
6.0
 50
90.0
  0
INSERT
  5
3077
330
2FFE
100
AcDbEntity
  8
SUNPOU
 62
    60
370
    -2
100
AcDbBlockReference
  2
_Dot
 10
-53.49419222465269
 20
319.5554686871056
 30
0.0
 41
6.0
 42
6.0
 43
6.0
 50
270.0
  0
MTEXT
  5
3078
330
2FFE
100
AcDbEntity
  8
SUNPOU
 62
    60
100
AcDbMText
 10
-73.49419222465273
 20
564.5554686871055
 30
0.0
 40
20.0
 41
0.0
 71
     5
 72
     1
  1
\A1;490
  7
SUNPOU
 11
0.0000000000000001
 21
1.0
 31
0.0
 73
     1
 44
1.0
1001
ACAD
1000
MTEXTBEGIN
1070
    73
1070
     1
1070
    44
1040
1.0
1070
    74
1070
     0
1000
MTEXTEND
  0
POINT
  5
3079
330
2FFE
100
AcDbEntity
  8
DEFPOINTS
 62
     0
100
AcDbPoint
 10
60.83979658912221
 20
809.5554686871055
 30
0.0
  0
POINT
  5
307A
330
2FFE
100
AcDbEntity
  8
DEFPOINTS
 62
     0
100
AcDbPoint
 10
53.83979658912221
 20
319.5554686871056
 30
0.0
  0
POINT
  5
307B
330
2FFE
100
AcDbEntity
  8
DEFPOINTS
 62
     0
100
AcDbPoint
 10
-53.49419222465269
 20
319.5554686871056
 30
0.0
  0
ENDBLK
  5
3009
330
2FFE
100
AcDbEntity
  8
0
100
AcDbBlockEnd
  0
BLOCK
  5
3030
330
3026
100
AcDbEntity
  8
0
100
AcDbBlockBegin
  2
*D9
 70
     1
 10
0.0
 20
0.0
 30
0.0
  3
*D9
  1

  0
LINE
  5
307C
330
3026
100
AcDbEntity
  8
SUNPOU
 62
    70
370
    -2
100
AcDbLine
 10
531.4427413589923
 20
809.5554686871055
 30
0.0
 11
425.1087525452174
 21
809.5554686871055
 31
0.0
  0
LINE
  5
307D
330
3026
100
AcDbEntity
  8
SUNPOU
 62
    70
370
    -2
100
AcDbLine
 10
526.4427413589921
 20
319.5554686871056
 30
0.0
 11
425.1087525452172
 21
319.5554686871056
 31
0.0
  0
LINE
  5
307E
330
3026
100
AcDbEntity
  8
SUNPOU
 62
    60
370
    -2
100
AcDbLine
 10
425.1087525452174
 20
803.5554686871055
 30
0.0
 11
425.1087525452172
 21
325.5554686871056
 31
0.0
  0
INSERT
  5
307F
330
3026
100
AcDbEntity
  8
SUNPOU
 62
    60
370
    -2
100
AcDbBlockReference
  2
_Dot
 10
425.1087525452174
 20
809.5554686871055
 30
0.0
 41
6.0
 42
6.0
 43
6.0
 50
90.0
  0
INSERT
  5
3080
330
3026
100
AcDbEntity
  8
SUNPOU
 62
    60
370
    -2
100
AcDbBlockReference
  2
_Dot
 10
425.1087525452172
 20
319.5554686871056
 30
0.0
 41
6.0
 42
6.0
 43
6.0
 50
270.0
  0
MTEXT
  5
3081
330
3026
100
AcDbEntity
  8
SUNPOU
 62
    60
100
AcDbMText
 10
405.1087525452173
 20
564.5554686871057
 30
0.0
 40
20.0
 41
0.0
 71
     5
 72
     1
  1
\A1;490
  7
SUNPOU
 11
0.0000000000000001
 21
1.0
 31
0.0
 73
     1
 44
1.0
1001
ACAD
1000
MTEXTBEGIN
1070
    73
1070
     1
1070
    44
1040
1.0
1070
    74
1070
     0
1000
MTEXTEND
  0
POINT
  5
3082
330
3026
100
AcDbEntity
  8
DEFPOINTS
 62
     0
100
AcDbPoint
 10
537.4427413589923
 20
809.5554686871055
 30
0.0
  0
POINT
  5
3083
330
3026
100
AcDbEntity
  8
DEFPOINTS
 62
     0
100
AcDbPoint
 10
532.4427413589922
 20
319.5554686871056
 30
0.0
  0
POINT
  5
3084
330
3026
100
AcDbEntity
  8
DEFPOINTS
 62
     0
100
AcDbPoint
 10
425.1087525452172
 20
319.5554686871056
 30
0.0
  0
ENDBLK
  5
3031
330
3026
100
AcDbEntity
  8
0
100
AcDbBlockEnd
  0
ENDSEC
  0
SECTION
  2
ENTITIES
  0
LINE
  5
1F
330
2
100
AcDbEntity
  8
WAKU
100
AcDbLine
 10
0.0
 20
70.0
 30
0.0
 11
610.6489978526152
 21
70.0
 31
0.0
  0
LINE
  5
20
330
2
100
AcDbEntity
  8
WAKU
100
AcDbLine
 10
0.0
 20
0.0
 30
0.0
 11
610.6489978526152
 21
0.0
 31
0.0
  0
TEXT
  5
21
330
2
100
AcDbEntity
  8
HOJO
100
AcDbText
 10
48.26983000000012
 20
11.83313000000009
 30
0.0
 40
45.0
  1
C-1
  7
SUNPOU
100
AcDbText
  0
TEXT
  5
4A3
330
2
100
AcDbEntity
  8
HOJO
100
AcDbText
 10
225.60543919488
 20
20.97829970797568
 30
0.0
 40
35.0
  1
1100x115x115
  7
SUNPOU
100
AcDbText
  0
LINE
  5
285D
330
2
100
AcDbEntity
  8
KIJUN
100
AcDbLine
 10
133.0952775891046
 20
1375.271457687116
 30
0.0
 11
130.7075505890816
 21
1375.271457687116
 31
0.0
  0
LINE
  5
285E
330
2
100
AcDbEntity
  8
KIJUN
100
AcDbLine
 10
130.7075505890816
 20
1375.271457687116
 30
0.0
 11
128.2704205890832
 21
1375.271457687116
 31
0.0
  0
LINE
  5
285F
330
2
100
AcDbEntity
  8
KIJUN
100
AcDbLine
 10
128.2704205890832
 20
1375.271457687116
 30
0.0
 11
125.7943015891132
 21
1375.271457687116
 31
0.0
  0
LINE
  5
2860
330
2
100
AcDbEntity
  8
KIJUN
100
AcDbLine
 10
125.7943015891132
 20
1375.271457687116
 30
0.0
 11
123.3617435891046
 21
1375.271457687116
 31
0.0
  0
LINE
  5
2861
330
2
100
AcDbEntity
  8
KIJUN
100
AcDbLine
 10
123.3617435891046
 20
1375.271457687116
 30
0.0
 11
120.92283558908
 21
1375.271457687116
 31
0.0
  0
LINE
  5
2862
330
2
100
AcDbEntity
  8
KIJUN
100
AcDbLine
 10
120.92283558908
 20
1375.271457687116
 30
0.0
 11
118.4882455890829
 21
1375.271457687116
 31
0.0
  0
LINE
  5
2863
330
2
100
AcDbEntity
  8
KIJUN
100
AcDbLine
 10
118.4882455890829
 20
1375.271457687116
 30
0.0
 11
118.7799645890764
 21
1364.059008687175
 31
0.0
  0
LINE
  5
2864
330
2
100
AcDbEntity
  8
KIJUN
100
AcDbLine
 10
118.7799645890764
 20
1364.059008687175
 30
0.0
 11
119.0626665890877
 21
1352.853544687163
 31
0.0
  0
LINE
  5
2865
330
2
100
AcDbEntity
  8
KIJUN
100
AcDbLine
 10
119.0626665890877
 20
1352.853544687163
 30
0.0
 11
119.3395265890785
 21
1341.65150968716
 31
0.0
  0
LINE
  5
2866
330
2
100
AcDbEntity
  8
KIJUN
100
AcDbLine
 10
119.3395265890785
 20
1341.65150968716
 30
0.0
 11
119.6138465890826
 21
1330.449347687115
 31
0.0
  0
LINE
  5
2867
330
2
100
AcDbEntity
  8
KIJUN
100
AcDbLine
 10
119.6138465890826
 20
1330.449347687115
 30
0.0
 11
119.8888015891188
 21
1319.243375687171
 31
0.0
  0
LINE
  5
2868
330
2
100
AcDbEntity
  8
KIJUN
100
AcDbLine
 10
119.8888015891188
 20
1319.243375687171
 30
0.0
 11
120.1717575890998
 21
1307.947106687149
 31
0.0
  0
LINE
  5
2869
330
2
100
AcDbEntity
  8
KIJUN
100
AcDbLine
 10
120.1717575890998
 20
1307.947106687149
 30
0.0
 11
120.4589045891107
 21
1296.670522687086
 31
0.0
  0
LINE
  5
286A
330
2
100
AcDbEntity
  8
KIJUN
100
AcDbLine
 10
120.4589045891107
 20
1296.670522687086
 30
0.0
 11
120.604827589078
 21
1275.292358687055
 31
0.0
  0
LINE
  5
286B
330
2
100
AcDbEntity
  8
KIJUN
100
AcDbLine
 10
120.7445275891286
 20
1271.944384687109
 30
0.0
 11
121.0234195891162
 21
1260.716822687008
 31
0.0
  0
LINE
  5
286C
330
2
100
AcDbEntity
  8
KIJUN
100
AcDbLine
 10
121.0234195891162
 20
1260.716822687008
 30
0.0
 11
121.2897385891183
 21
1249.51834368706
 31
0.0
  0
LINE
  5
286D
330
2
100
AcDbEntity
  8
KIJUN
100
AcDbLine
 10
121.2897385891183
 20
1249.51834368706
 30
0.0
 11
124.2174695891144
 21
1249.260152687094
 31
0.0
  0
LINE
  5
286E
330
2
100
AcDbEntity
  8
KIJUN
100
AcDbLine
 10
124.2174695891144
 20
1249.260152687094
 30
0.0
 11
127.1452005890951
 21
1249.707446687078
 31
0.0
  0
LINE
  5
286F
330
2
100
AcDbEntity
  8
KIJUN
100
AcDbLine
 10
127.1452005890951
 20
1249.707446687078
 30
0.0
 11
129.9972395891
 21
1251.078919687041
 31
0.0
  0
LINE
  5
2870
330
2
100
AcDbEntity
  8
KIJUN
100
AcDbLine
 10
129.9972395891
 20
1251.078919687041
 30
0.0
 11
132.9449095890804
 21
1253.666163687043
 31
0.0
  0
LINE
  5
2871
330
2
100
AcDbEntity
  8
KIJUN
100
AcDbLine
 10
132.9449095890804
 20
1253.666163687043
 30
0.0
 11
135.7841215891294
 21
1257.140629687079
 31
0.0
  0
LINE
  5
2872
330
2
100
AcDbEntity
  8
KIJUN
100
AcDbLine
 10
135.7841215891294
 20
1257.140629687079
 30
0.0
 11
138.5978065890876
 21
1261.284893687008
 31
0.0
  0
LINE
  5
2873
330
2
100
AcDbEntity
  8
KIJUN
100
AcDbLine
 10
138.5978065890876
 20
1261.284893687008
 30
0.0
 11
138.0571675890742
 21
1271.263029687108
 31
0.0
  0
LINE
  5
2874
330
2
100
AcDbEntity
  8
KIJUN
100
AcDbLine
 10
138.0438325891291
 20
1273.001405687109
 30
0.0
 11
137.516782589103
 21
1294.730216687111
 31
0.0
  0
LINE
  5
2875
330
2
100
AcDbEntity
  8
KIJUN
100
AcDbLine
 10
137.516782589103
 20
1294.730216687111
 30
0.0
 11
136.9767785890781
 21
1304.738197687142
 31
0.0
  0
LINE
  5
2876
330
2
100
AcDbEntity
  8
KIJUN
100
AcDbLine
 10
136.9767785890781
 20
1304.738197687142
 30
0.0
 11
136.4367745891131
 21
1314.756719687177
 31
0.0
  0
LINE
  5
2877
330
2
100
AcDbEntity
  8
KIJUN
100
AcDbLine
 10
136.4367745891131
 20
1314.756719687177
 30
0.0
 11
135.8967705890891
 21
1324.782988687172
 31
0.0
  0
LINE
  5
2878
330
2
100
AcDbEntity
  8
KIJUN
100
AcDbLine
 10
135.8967705890891
 20
1324.782988687172
 30
0.0
 11
135.3511785890796
 21
1334.859422687173
 31
0.0
  0
LINE
  5
2879
330
2
100
AcDbEntity
  8
KIJUN
100
AcDbLine
 10
135.3511785890796
 20
1334.859422687173
 30
0.0
 11
134.7992365891168
 21
1344.938650687073
 31
0.0
  0
LINE
  5
287A
330
2
100
AcDbEntity
  8
KIJUN
100
AcDbLine
 10
134.7992365891168
 20
1344.938650687073
 30
0.0
 11
134.2399285890851
 21
1355.028546687129
 31
0.0
  0
LINE
  5
287B
330
2
100
AcDbEntity
  8
KIJUN
100
AcDbLine
 10
134.2399285890851
 20
1355.028546687129
 30
0.0
 11
133.6722385891107
 21
1365.136857687176
 31
0.0
  0
LINE
  5
287C
330
2
100
AcDbEntity
  8
KIJUN
100
AcDbLine
 10
133.6722385891107
 20
1365.136857687176
 30
0.0
 11
133.0952775891046
 21
1375.271457687116
 31
0.0
  0
LINE
  5
287D
330
2
100
AcDbEntity
  8
KIJUN
100
AcDbLine
 10
141.1927975891003
 20
1375.0554306871
 30
0.0
 11
139.9762645891014
 21
1374.965514687153
 31
0.0
  0
LINE
  5
287E
330
2
100
AcDbEntity
  8
KIJUN
100
AcDbLine
 10
139.9762645891014
 20
1374.965514687153
 30
0.0
 11
138.7532545890999
 21
1374.874836687182
 31
0.0
  0
LINE
  5
287F
330
2
100
AcDbEntity
  8
KIJUN
100
AcDbLine
 10
138.7532545890999
 20
1374.874836687182
 30
0.0
 11
137.5263075890889
 21
1374.783904687124
 31
0.0
  0
LINE
  5
2880
330
2
100
AcDbEntity
  8
KIJUN
100
AcDbLine
 10
137.5263075890889
 20
1374.783904687124
 30
0.0
 11
136.2927565890986
 21
1374.692718687097
 31
0.0
  0
LINE
  5
2881
330
2
100
AcDbEntity
  8
KIJUN
100
AcDbLine
 10
136.2927565890986
 20
1374.692718687097
 30
0.0
 11
135.0580625891298
 21
1374.601405687136
 31
0.0
  0
LINE
  5
2882
330
2
100
AcDbEntity
  8
KIJUN
100
AcDbLine
 10
135.0580625891298
 20
1374.601405687136
 30
0.0
 11
133.8232415891088
 21
1374.509965687134
 31
0.0
  0
LINE
  5
2883
330
2
100
AcDbEntity
  8
KIJUN
100
AcDbLine
 10
133.8232415891088
 20
1374.509965687134
 30
0.0
 11
132.2785405891318
 21
1373.952816687132
 31
0.0
  0
LINE
  5
2884
330
2
100
AcDbEntity
  8
KIJUN
100
AcDbLine
 10
132.2785405891318
 20
1373.952816687132
 30
0.0
 11
131.2569525891067
 21
1372.712534687126
 31
0.0
  0
LINE
  5
2885
330
2
100
AcDbEntity
  8
KIJUN
100
AcDbLine
 10
131.2569525891067
 20
1372.712534687126
 30
0.0
 11
130.9692975891012
 21
1371.049469687089
 31
0.0
  0
LINE
  5
2886
330
2
100
AcDbEntity
  8
KIJUN
100
AcDbLine
 10
130.9692975891012
 20
1371.049469687089
 30
0.0
 11
131.8538525891044
 21
1360.473798687185
 31
0.0
  0
LINE
  5
2887
330
2
100
AcDbEntity
  8
KIJUN
100
AcDbLine
 10
131.8538525891044
 20
1360.473798687185
 30
0.0
 11
132.7384075891077
 21
1349.899143687159
 31
0.0
  0
LINE
  5
2888
330
2
100
AcDbEntity
  8
KIJUN
100
AcDbLine
 10
132.7384075891077
 20
1349.899143687159
 30
0.0
 11
133.6227085890841
 21
1339.32639368708
 31
0.0
  0
LINE
  5
2889
330
2
100
AcDbEntity
  8
KIJUN
100
AcDbLine
 10
133.6227085890841
 20
1339.32639368708
 30
0.0
 11
134.5067555890909
 21
1328.756437687147
 31
0.0
  0
LINE
  5
288A
330
2
100
AcDbEntity
  8
KIJUN
100
AcDbLine
 10
134.5067555890909
 20
1328.756437687147
 30
0.0
 11
135.3910565891265
 21
1318.186862687102
 31
0.0
  0
LINE
  5
288B
330
2
100
AcDbEntity
  8
KIJUN
100
AcDbLine
 10
135.3910565891265
 20
1318.186862687102
 30
0.0
 11
136.2754845890877
 21
1307.61538268711
 31
0.0
  0
LINE
  5
288C
330
2
100
AcDbEntity
  8
KIJUN
100
AcDbLine
 10
136.2754845890877
 20
1307.61538268711
 30
0.0
 11
137.1597855891223
 21
1297.043775687082
 31
0.0
  0
LINE
  5
288D
330
2
100
AcDbEntity
  8
KIJUN
100
AcDbLine
 10
137.1597855891223
 20
1297.043775687082
 30
0.0
 11
138.0438325891291
 21
1286.473946687184
 31
0.0
  0
LINE
  5
288E
330
2
100
AcDbEntity
  8
KIJUN
100
AcDbLine
 10
138.0438325891291
 20
1273.001405687109
 30
0.0
 11
137.669817589106
 21
1269.373142687103
 31
0.0
  0
LINE
  5
288F
330
2
100
AcDbEntity
  8
KIJUN
100
AcDbLine
 10
137.669817589106
 20
1269.373142687103
 30
0.0
 11
137.3805115891155
 21
1264.424460687102
 31
0.0
  0
LINE
  5
2890
330
2
100
AcDbEntity
  8
KIJUN
100
AcDbLine
 10
137.3805115891155
 20
1264.424460687102
 30
0.0
 11
138.8432975890882
 21
1262.051846687102
 31
0.0
  0
LINE
  5
2891
330
2
100
AcDbEntity
  8
KIJUN
100
AcDbLine
 10
138.8432975890882
 20
1262.051846687102
 30
0.0
 11
140.0791345891048
 21
1262.14341368704
 31
0.0
  0
LINE
  5
2892
330
2
100
AcDbEntity
  8
KIJUN
100
AcDbLine
 10
140.0791345891048
 20
1262.14341368704
 30
0.0
 11
141.314209589086
 21
1262.234726687102
 31
0.0
  0
LINE
  5
2893
330
2
100
AcDbEntity
  8
KIJUN
100
AcDbLine
 10
141.314209589086
 20
1262.234726687102
 30
0.0
 11
142.5477605890764
 21
1262.32591268702
 31
0.0
  0
LINE
  5
2894
330
2
100
AcDbEntity
  8
KIJUN
100
AcDbLine
 10
142.5477605890764
 20
1262.32591268702
 30
0.0
 11
143.7810575890971
 21
1262.417225687097
 31
0.0
  0
LINE
  5
2895
330
2
100
AcDbEntity
  8
KIJUN
100
AcDbLine
 10
143.7810575890971
 20
1262.417225687097
 30
0.0
 11
145.0143545891105
 21
1262.508538687059
 31
0.0
  0
LINE
  5
2896
330
2
100
AcDbEntity
  8
KIJUN
100
AcDbLine
 10
145.0143545891105
 20
1262.508538687059
 30
0.0
 11
146.2472705891187
 21
1262.599851687012
 31
0.0
  0
LINE
  5
2897
330
2
100
AcDbEntity
  8
KIJUN
100
AcDbLine
 10
146.2472705891187
 20
1262.599851687012
 30
0.0
 11
147.1531615891354
 21
1263.172621687091
 31
0.0
  0
LINE
  5
2898
330
2
100
AcDbEntity
  8
KIJUN
100
AcDbLine
 10
147.1531615891354
 20
1263.172621687091
 30
0.0
 11
148.3403575890761
 21
1264.618516687065
 31
0.0
  0
LINE
  5
2899
330
2
100
AcDbEntity
  8
KIJUN
100
AcDbLine
 10
148.3403575890761
 20
1264.618516687065
 30
0.0
 11
149.5863545891188
 21
1266.681885687018
 31
0.0
  0
LINE
  5
289A
330
2
100
AcDbEntity
  8
KIJUN
100
AcDbLine
 10
149.5863545891188
 20
1266.681885687018
 30
0.0
 11
150.6702995891164
 21
1269.104029687015
 31
0.0
  0
LINE
  5
289B
330
2
100
AcDbEntity
  8
KIJUN
100
AcDbLine
 10
150.6702995891164
 20
1269.104029687015
 30
0.0
 11
151.3938185891229
 21
1271.631964687035
 31
0.0
  0
LINE
  5
289C
330
2
100
AcDbEntity
  8
KIJUN
100
AcDbLine
 10
151.3938185891229
 20
1271.631964687035
 30
0.0
 11
151.5567595891316
 21
1274.001403687101
 31
0.0
  0
LINE
  5
289D
330
2
100
AcDbEntity
  8
KIJUN
100
AcDbLine
 10
151.5567595891316
 20
1274.001403687101
 30
0.0
 11
150.6724585890906
 21
1298.04390068711
 31
0.0
  0
LINE
  5
289E
330
2
100
AcDbEntity
  8
KIJUN
100
AcDbLine
 10
150.6724585890906
 20
1298.04390068711
 30
0.0
 11
149.7881575891224
 21
1308.615634687071
 31
0.0
  0
LINE
  5
289F
330
2
100
AcDbEntity
  8
KIJUN
100
AcDbLine
 10
149.7881575891224
 20
1308.615634687071
 30
0.0
 11
148.9038565890796
 21
1319.187241687106
 31
0.0
  0
LINE
  5
28A0
330
2
100
AcDbEntity
  8
KIJUN
100
AcDbLine
 10
148.9038565890796
 20
1319.187241687106
 30
0.0
 11
148.01980958908
 21
1329.75694368707
 31
0.0
  0
LINE
  5
28A1
330
2
100
AcDbEntity
  8
KIJUN
100
AcDbLine
 10
148.01980958908
 20
1329.75694368707
 30
0.0
 11
147.1357625891314
 21
1340.326899687128
 31
0.0
  0
LINE
  5
28A2
330
2
100
AcDbEntity
  8
KIJUN
100
AcDbLine
 10
147.1357625891314
 20
1340.326899687128
 30
0.0
 11
146.2514615890959
 21
1350.899649687083
 31
0.0
  0
LINE
  5
28A3
330
2
100
AcDbEntity
  8
KIJUN
100
AcDbLine
 10
146.2514615890959
 20
1350.899649687083
 30
0.0
 11
145.3669065890926
 21
1361.47417768719
 31
0.0
  0
LINE
  5
28A4
330
2
100
AcDbEntity
  8
KIJUN
100
AcDbLine
 10
145.3669065890926
 20
1361.47417768719
 30
0.0
 11
144.4823515890875
 21
1372.049467687074
 31
0.0
  0
LINE
  5
28A5
330
2
100
AcDbEntity
  8
KIJUN
100
AcDbLine
 10
144.4823515890875
 20
1372.049467687074
 30
0.0
 11
143.9386645890824
 21
1373.651064687098
 31
0.0
  0
LINE
  5
28A6
330
2
100
AcDbEntity
  8
KIJUN
100
AcDbLine
 10
143.9386645890824
 20
1373.651064687098
 30
0.0
 11
142.7637875890932
 21
1374.729040687149
 31
0.0
  0
LINE
  5
28A7
330
2
100
AcDbEntity
  8
KIJUN
100
AcDbLine
 10
142.7637875890932
 20
1374.729040687149
 30
0.0
 11
141.1927975891003
 21
1375.0554306871
 31
0.0
  0
LINE
  5
28A8
330
2
100
AcDbEntity
  8
KIJUN
100
AcDbLine
 10
81.4857795890839
 20
1375.563430687093
 30
0.0
 11
82.81788258911456
 21
1375.47351468714
 31
0.0
  0
LINE
  5
28A9
330
2
100
AcDbEntity
  8
KIJUN
100
AcDbLine
 10
82.81788258911456
 20
1375.47351468714
 30
0.0
 11
84.15722458911295
 21
1375.382836687169
 31
0.0
  0
LINE
  5
28AA
330
2
100
AcDbEntity
  8
KIJUN
100
AcDbLine
 10
84.15722458911295
 20
1375.382836687169
 30
0.0
 11
85.50024958908579
 21
1375.291904687111
 31
0.0
  0
LINE
  5
28AB
330
2
100
AcDbEntity
  8
KIJUN
100
AcDbLine
 10
85.50024958908579
 20
1375.291904687111
 30
0.0
 11
86.85127558911245
 21
1375.200718687077
 31
0.0
  0
LINE
  5
28AC
330
2
100
AcDbEntity
  8
KIJUN
100
AcDbLine
 10
86.85127558911245
 20
1375.200718687077
 30
0.0
 11
88.20331758907377
 21
1375.109405687124
 31
0.0
  0
LINE
  5
28AD
330
2
100
AcDbEntity
  8
KIJUN
100
AcDbLine
 10
88.20331758907377
 20
1375.109405687124
 30
0.0
 11
89.55523258911762
 21
1375.01796568712
 31
0.0
  0
LINE
  5
28AE
330
2
100
AcDbEntity
  8
KIJUN
100
AcDbLine
 10
89.55523258911762
 20
1375.01796568712
 30
0.0
 11
91.24687258911398
 21
1374.460816687127
 31
0.0
  0
LINE
  5
28AF
330
2
100
AcDbEntity
  8
KIJUN
100
AcDbLine
 10
91.24687258911398
 20
1374.460816687127
 30
0.0
 11
92.36548858912101
 21
1373.220534687107
 31
0.0
  0
LINE
  5
28B0
330
2
100
AcDbEntity
  8
KIJUN
100
AcDbLine
 10
92.36548858912101
 20
1373.220534687107
 30
0.0
 11
92.68032158908955
 21
1371.557469687076
 31
0.0
  0
LINE
  5
28B1
330
2
100
AcDbEntity
  8
KIJUN
100
AcDbLine
 10
92.68032158908955
 20
1371.557469687076
 30
0.0
 11
91.71169258909413
 21
1360.981798687172
 31
0.0
  0
LINE
  5
28B2
330
2
100
AcDbEntity
  8
KIJUN
100
AcDbLine
 10
91.71169258909413
 20
1360.981798687172
 30
0.0
 11
90.74319058909077
 21
1350.407143687147
 31
0.0
  0
LINE
  5
28B3
330
2
100
AcDbEntity
  8
KIJUN
100
AcDbLine
 10
90.74319058909077
 20
1350.407143687147
 30
0.0
 11
89.77481558912314
 21
1339.83439368719
 31
0.0
  0
LINE
  5
28B4
330
2
100
AcDbEntity
  8
KIJUN
100
AcDbLine
 10
89.77481558912314
 20
1339.83439368719
 30
0.0
 11
88.80682158911076
 21
1329.264437687133
 31
0.0
  0
LINE
  5
28B5
330
2
100
AcDbEntity
  8
KIJUN
100
AcDbLine
 10
88.80682158911076
 20
1329.264437687133
 30
0.0
 11
87.83870058911089
 21
1318.694862687088
 31
0.0
  0
LINE
  5
28B6
330
2
100
AcDbEntity
  8
KIJUN
100
AcDbLine
 10
87.83870058911089
 20
1318.694862687088
 30
0.0
 11
86.87032558909322
 21
1308.123382687104
 31
0.0
  0
LINE
  5
28B7
330
2
100
AcDbEntity
  8
KIJUN
100
AcDbLine
 10
86.87032558909322
 20
1308.123382687104
 30
0.0
 11
85.9019505891265
 21
1297.551775687187
 31
0.0
  0
LINE
  5
28B8
330
2
100
AcDbEntity
  8
KIJUN
100
AcDbLine
 10
85.9019505891265
 20
1297.551775687187
 30
0.0
 11
84.93382958912661
 21
1286.98194668718
 31
0.0
  0
LINE
  5
28B9
330
2
100
AcDbEntity
  8
KIJUN
100
AcDbLine
 10
84.93382958912661
 20
1273.509405687105
 30
0.0
 11
85.34327758907512
 21
1269.881142687091
 31
0.0
  0
LINE
  5
28BA
330
2
100
AcDbEntity
  8
KIJUN
100
AcDbLine
 10
85.34327758907512
 20
1269.881142687091
 30
0.0
 11
85.66026958908242
 21
1264.932460687082
 31
0.0
  0
LINE
  5
28BB
330
2
100
AcDbEntity
  8
KIJUN
100
AcDbLine
 10
85.66026958908242
 20
1264.932460687082
 30
0.0
 11
84.05879958911738
 21
1262.559846687096
 31
0.0
  0
LINE
  5
28BC
330
2
100
AcDbEntity
  8
KIJUN
100
AcDbLine
 10
84.05879958911738
 20
1262.559846687096
 30
0.0
 11
82.70548758912537
 21
1262.651413687019
 31
0.0
  0
LINE
  5
28BD
330
2
100
AcDbEntity
  8
KIJUN
100
AcDbLine
 10
82.70548758912537
 20
1262.651413687019
 30
0.0
 11
81.35293758910666
 21
1262.742726687096
 31
0.0
  0
LINE
  5
28BE
330
2
100
AcDbEntity
  8
KIJUN
100
AcDbLine
 10
81.35293758910666
 20
1262.742726687096
 30
0.0
 11
80.0022925890944
 21
1262.833912687014
 31
0.0
  0
LINE
  5
28BF
330
2
100
AcDbEntity
  8
KIJUN
100
AcDbLine
 10
80.0022925890944
 20
1262.833912687014
 30
0.0
 11
78.65190158910809
 21
1262.925225687078
 31
0.0
  0
LINE
  5
28C0
330
2
100
AcDbEntity
  8
KIJUN
100
AcDbLine
 10
78.65190158910809
 20
1262.925225687078
 30
0.0
 11
77.30138358907971
 21
1263.016538687037
 31
0.0
  0
LINE
  5
28C1
330
2
100
AcDbEntity
  8
KIJUN
100
AcDbLine
 10
77.30138358907971
 20
1263.016538687037
 30
0.0
 11
75.951246589123
 21
1263.107851687116
 31
0.0
  0
LINE
  5
28C2
330
2
100
AcDbEntity
  8
KIJUN
100
AcDbLine
 10
75.951246589123
 20
1263.107851687116
 30
0.0
 11
74.95937658911748
 21
1263.680621687085
 31
0.0
  0
LINE
  5
28C3
330
2
100
AcDbEntity
  8
KIJUN
100
AcDbLine
 10
74.95937658911748
 20
1263.680621687085
 30
0.0
 11
73.65927758912403
 21
1265.126516687052
 31
0.0
  0
LINE
  5
28C4
330
2
100
AcDbEntity
  8
KIJUN
100
AcDbLine
 10
73.65927758912403
 20
1265.126516687052
 30
0.0
 11
72.29478958910476
 21
1267.189885686997
 31
0.0
  0
LINE
  5
28C5
330
2
100
AcDbEntity
  8
KIJUN
100
AcDbLine
 10
72.29478958910476
 20
1267.189885686997
 30
0.0
 11
71.1079745891102
 21
1269.612029687009
 31
0.0
  0
LINE
  5
28C6
330
2
100
AcDbEntity
  8
KIJUN
100
AcDbLine
 10
71.1079745891102
 20
1269.612029687009
 30
0.0
 11
70.31574858911972
 21
1272.139964687014
 31
0.0
  0
LINE
  5
28C7
330
2
100
AcDbEntity
  8
KIJUN
100
AcDbLine
 10
70.31574858911972
 20
1272.139964687014
 30
0.0
 11
70.13731358912536
 21
1274.509403687081
 31
0.0
  0
LINE
  5
28C8
330
2
100
AcDbEntity
  8
KIJUN
100
AcDbLine
 10
70.13731358912536
 20
1274.509403687081
 30
0.0
 11
71.10556158910004
 21
1298.551900687104
 31
0.0
  0
LINE
  5
28C9
330
2
100
AcDbEntity
  8
KIJUN
100
AcDbLine
 10
71.10556158910004
 20
1298.551900687104
 30
0.0
 11
72.07393658912678
 21
1309.123634687176
 31
0.0
  0
LINE
  5
28CA
330
2
100
AcDbEntity
  8
KIJUN
100
AcDbLine
 10
72.07393658912678
 20
1309.123634687176
 30
0.0
 11
73.04231158909442
 21
1319.695241687101
 31
0.0
  0
LINE
  5
28CB
330
2
100
AcDbEntity
  8
KIJUN
100
AcDbLine
 10
73.04231158909442
 20
1319.695241687101
 30
0.0
 11
74.01030558910679
 21
1330.264943687173
 31
0.0
  0
LINE
  5
28CC
330
2
100
AcDbEntity
  8
KIJUN
100
AcDbLine
 10
74.01030558910679
 20
1330.264943687173
 30
0.0
 11
74.97829958911279
 21
1340.834899687122
 31
0.0
  0
LINE
  5
28CD
330
2
100
AcDbEntity
  8
KIJUN
100
AcDbLine
 10
74.97829958911279
 20
1340.834899687122
 30
0.0
 11
75.94667458907406
 21
1351.40764968707
 31
0.0
  0
LINE
  5
28CE
330
2
100
AcDbEntity
  8
KIJUN
100
AcDbLine
 10
75.94667458907406
 20
1351.40764968707
 30
0.0
 11
76.91543058911884
 21
1361.98217768717
 31
0.0
  0
LINE
  5
28CF
330
2
100
AcDbEntity
  8
KIJUN
100
AcDbLine
 10
76.91543058911884
 20
1361.98217768717
 30
0.0
 11
77.88431358908474
 21
1372.557467687185
 31
0.0
  0
LINE
  5
28D0
330
2
100
AcDbEntity
  8
KIJUN
100
AcDbLine
 10
77.88431358908474
 20
1372.557467687185
 30
0.0
 11
78.47930858912786
 21
1374.159064687083
 31
0.0
  0
LINE
  5
28D1
330
2
100
AcDbEntity
  8
KIJUN
100
AcDbLine
 10
78.47930858912786
 20
1374.159064687083
 30
0.0
 11
79.76569158909751
 21
1375.237040687128
 31
0.0
  0
LINE
  5
28D2
330
2
100
AcDbEntity
  8
KIJUN
100
AcDbLine
 10
79.76569158909751
 20
1375.237040687128
 30
0.0
 11
81.4857795890839
 21
1375.563430687093
 31
0.0
  0
LINE
  5
28D3
330
2
100
AcDbEntity
  8
KIJUN
100
AcDbLine
 10
105.9977955891145
 20
1374.586927687081
 30
0.0
 11
105.9977955891145
 21
1365.021922687077
 31
0.0
  0
LINE
  5
28D4
330
2
100
AcDbEntity
  8
KIJUN
100
AcDbLine
 10
105.9977955891145
 20
1365.021922687077
 30
0.0
 11
105.5977455891107
 21
1350.608946687085
 31
0.0
  0
LINE
  5
28D5
330
2
100
AcDbEntity
  8
KIJUN
100
AcDbLine
 10
105.5977455891107
 20
1350.608946687085
 30
0.0
 11
105.0972385891145
 21
1336.196478687148
 31
0.0
  0
LINE
  5
28D6
330
2
100
AcDbEntity
  8
KIJUN
100
AcDbLine
 10
105.0972385891145
 20
1336.196478687148
 30
0.0
 11
104.5972395891213
 21
1319.948987687183
 31
0.0
  0
LINE
  5
28D7
330
2
100
AcDbEntity
  8
KIJUN
100
AcDbLine
 10
104.5972395891213
 20
1319.948987687183
 30
0.0
 11
104.1968085891121
 21
1301.343487687083
 31
0.0
  0
LINE
  5
28D8
330
2
100
AcDbEntity
  8
KIJUN
100
AcDbLine
 10
104.1968085891121
 20
1301.343487687083
 30
0.0
 11
103.8841345891187
 21
1272.452384687096
 31
0.0
  0
LINE
  5
28D9
330
2
100
AcDbEntity
  8
KIJUN
100
AcDbLine
 10
103.6968095891125
 20
1271.623328687109
 30
0.0
 11
102.7962525891262
 21
1256.031411687074
 31
0.0
  0
LINE
  5
28DA
330
2
100
AcDbEntity
  8
KIJUN
100
AcDbLine
 10
102.7962525891262
 20
1256.031411687074
 30
0.0
 11
102.7962525891262
 21
1242.797884687063
 31
0.0
  0
LINE
  5
28DB
330
2
100
AcDbEntity
  8
KIJUN
100
AcDbLine
 10
102.7962525891262
 20
1242.797884687063
 30
0.0
 11
105.5977455891107
 21
1239.259918687016
 31
0.0
  0
LINE
  5
28DC
330
2
100
AcDbEntity
  8
KIJUN
100
AcDbLine
 10
105.5977455891107
 20
1239.259918687016
 30
0.0
 11
111.000325589097
 21
1237.425911687098
 31
0.0
  0
LINE
  5
28DD
330
2
100
AcDbEntity
  8
KIJUN
100
AcDbLine
 10
111.000325589097
 20
1237.425911687098
 30
0.0
 11
117.0028535890733
 21
1237.425911687098
 31
0.0
  0
LINE
  5
28DE
330
2
100
AcDbEntity
  8
KIJUN
100
AcDbLine
 10
117.0028535890733
 20
1237.425911687098
 30
0.0
 11
120.2042695890768
 21
1239.784428687048
 31
0.0
  0
LINE
  5
28DF
330
2
100
AcDbEntity
  8
KIJUN
100
AcDbLine
 10
120.2042695890768
 20
1239.784428687048
 30
0.0
 11
122.0052565890789
 21
1245.811340687078
 31
0.0
  0
LINE
  5
28E0
330
2
100
AcDbEntity
  8
KIJUN
100
AcDbLine
 10
122.0052565890789
 20
1245.811340687078
 30
0.0
 11
121.5047495890821
 21
1254.852343687114
 31
0.0
  0
LINE
  5
28E1
330
2
100
AcDbEntity
  8
KIJUN
100
AcDbLine
 10
121.5047495890821
 20
1254.852343687114
 30
0.0
 11
120.604827589078
 21
1275.292358687055
 31
0.0
  0
LINE
  5
28E2
330
2
100
AcDbEntity
  8
KIJUN
100
AcDbLine
 10
120.604827589078
 20
1288.764899687129
 30
0.0
 11
119.7042705890844
 21
1312.742372687078
 31
0.0
  0
LINE
  5
28E3
330
2
100
AcDbEntity
  8
KIJUN
100
AcDbLine
 10
119.7042705890844
 20
1312.742372687078
 30
0.0
 11
119.3038395891262
 21
1343.402966687086
 31
0.0
  0
LINE
  5
28E4
330
2
100
AcDbEntity
  8
KIJUN
100
AcDbLine
 10
119.3038395891262
 20
1343.402966687086
 30
0.0
 11
118.8038405890747
 21
1362.663405687127
 31
0.0
  0
LINE
  5
28E5
330
2
100
AcDbEntity
  8
KIJUN
100
AcDbLine
 10
118.8038405890747
 20
1362.663405687127
 30
0.0
 11
118.303333589085
 21
1374.586927687081
 31
0.0
  0
LINE
  5
28E6
330
2
100
AcDbEntity
  8
KIJUN
100
AcDbLine
 10
118.303333589085
 20
1374.586927687081
 30
0.0
 11
105.9977955891145
 21
1374.586927687081
 31
0.0
  0
LINE
  5
28E7
330
2
100
AcDbEntity
  8
KIJUN
100
AcDbLine
 10
90.3602855891213
 20
1375.77945768711
 30
0.0
 11
92.9748345891121
 21
1375.77945768711
 31
0.0
  0
LINE
  5
28E8
330
2
100
AcDbEntity
  8
KIJUN
100
AcDbLine
 10
92.9748345891121
 20
1375.77945768711
 30
0.0
 11
95.64348558911843
 21
1375.77945768711
 31
0.0
  0
LINE
  5
28E9
330
2
100
AcDbEntity
  8
KIJUN
100
AcDbLine
 10
95.64348558911843
 20
1375.77945768711
 30
0.0
 11
98.35430058907332
 21
1375.77945768711
 31
0.0
  0
LINE
  5
28EA
330
2
100
AcDbEntity
  8
KIJUN
100
AcDbLine
 10
98.35430058907332
 20
1375.77945768711
 30
0.0
 11
101.018252589105
 21
1375.77945768711
 31
0.0
  0
LINE
  5
28EB
330
2
100
AcDbEntity
  8
KIJUN
100
AcDbLine
 10
101.018252589105
 20
1375.77945768711
 30
0.0
 11
103.6888085891251
 21
1375.77945768711
 31
0.0
  0
LINE
  5
28EC
330
2
100
AcDbEntity
  8
KIJUN
100
AcDbLine
 10
103.6888085891251
 20
1375.77945768711
 30
0.0
 11
106.3547925890952
 21
1375.77945768711
 31
0.0
  0
LINE
  5
28ED
330
2
100
AcDbEntity
  8
KIJUN
100
AcDbLine
 10
106.3547925890952
 20
1375.77945768711
 30
0.0
 11
106.0353875890714
 21
1364.567008687156
 31
0.0
  0
LINE
  5
28EE
330
2
100
AcDbEntity
  8
KIJUN
100
AcDbLine
 10
106.0353875890714
 20
1364.567008687156
 30
0.0
 11
105.7257615890767
 21
1353.361544687156
 31
0.0
  0
LINE
  5
28EF
330
2
100
AcDbEntity
  8
KIJUN
100
AcDbLine
 10
105.7257615890767
 20
1353.361544687156
 30
0.0
 11
105.4224855890852
 21
1342.159509687147
 31
0.0
  0
LINE
  5
28F0
330
2
100
AcDbEntity
  8
KIJUN
100
AcDbLine
 10
105.4224855890852
 20
1342.159509687147
 30
0.0
 11
105.1220035891301
 21
1330.957347687103
 31
0.0
  0
LINE
  5
28F1
330
2
100
AcDbEntity
  8
KIJUN
100
AcDbLine
 10
105.1220035891301
 20
1330.957347687103
 30
0.0
 11
104.8207595890762
 21
1319.751375687157
 31
0.0
  0
LINE
  5
28F2
330
2
100
AcDbEntity
  8
KIJUN
100
AcDbLine
 10
104.8207595890762
 20
1319.751375687157
 30
0.0
 11
104.5111335890824
 21
1308.455106687137
 31
0.0
  0
LINE
  5
28F3
330
2
100
AcDbEntity
  8
KIJUN
100
AcDbLine
 10
104.5111335890824
 20
1308.455106687137
 30
0.0
 11
104.1969355890969
 21
1297.178522687073
 31
0.0
  0
LINE
  5
28F4
330
2
100
AcDbEntity
  8
KIJUN
100
AcDbLine
 10
104.1969355890969
 20
1297.178522687073
 30
0.0
 11
103.8841345891187
 21
1285.924925687171
 31
0.0
  0
LINE
  5
28F5
330
2
100
AcDbEntity
  8
KIJUN
100
AcDbLine
 10
103.8841345891187
 20
1272.452384687096
 30
0.0
 11
103.5789535891217
 21
1261.224822687001
 31
0.0
  0
LINE
  5
28F6
330
2
100
AcDbEntity
  8
KIJUN
100
AcDbLine
 10
103.5789535891217
 20
1261.224822687001
 30
0.0
 11
103.2872345891292
 21
1250.02634368704
 31
0.0
  0
LINE
  5
28F7
330
2
100
AcDbEntity
  8
KIJUN
100
AcDbLine
 10
103.2872345891292
 20
1250.02634368704
 30
0.0
 11
100.0816275890893
 21
1249.768152687075
 31
0.0
  0
LINE
  5
28F8
330
2
100
AcDbEntity
  8
KIJUN
100
AcDbLine
 10
100.0816275890893
 20
1249.768152687075
 30
0.0
 11
96.87576658907984
 21
1250.215446687072
 31
0.0
  0
LINE
  5
28F9
330
2
100
AcDbEntity
  8
KIJUN
100
AcDbLine
 10
96.87576658907984
 20
1250.215446687072
 30
0.0
 11
93.75283658908211
 21
1251.586919687036
 31
0.0
  0
LINE
  5
28FA
330
2
100
AcDbEntity
  8
KIJUN
100
AcDbLine
 10
93.75283658908211
 20
1251.586919687036
 30
0.0
 11
90.52500458909253
 21
1254.174163687022
 31
0.0
  0
LINE
  5
28FB
330
2
100
AcDbEntity
  8
KIJUN
100
AcDbLine
 10
90.52500458909253
 20
1254.174163687022
 30
0.0
 11
87.41604458908751
 21
1257.648629687067
 31
0.0
  0
LINE
  5
28FC
330
2
100
AcDbEntity
  8
KIJUN
100
AcDbLine
 10
87.41604458908751
 20
1257.648629687067
 30
0.0
 11
84.33527858909565
 21
1261.792893687112
 31
0.0
  0
LINE
  5
28FD
330
2
100
AcDbEntity
  8
KIJUN
100
AcDbLine
 10
84.33527858909565
 20
1261.792893687112
 30
0.0
 11
84.92709858910439
 21
1271.771029687102
 31
0.0
  0
LINE
  5
28FE
330
2
100
AcDbEntity
  8
KIJUN
100
AcDbLine
 10
84.93382958912661
 20
1273.509405687105
 30
0.0
 11
85.51866458908534
 21
1295.238216687089
 31
0.0
  0
LINE
  5
28FF
330
2
100
AcDbEntity
  8
KIJUN
100
AcDbLine
 10
85.51866458908534
 20
1295.238216687089
 30
0.0
 11
86.11010358907424
 21
1305.246197687128
 31
0.0
  0
LINE
  5
2900
330
2
100
AcDbEntity
  8
KIJUN
100
AcDbLine
 10
86.11010358907424
 20
1305.246197687128
 30
0.0
 11
86.70154258912862
 21
1315.264719687156
 31
0.0
  0
LINE
  5
2901
330
2
100
AcDbEntity
  8
KIJUN
100
AcDbLine
 10
86.70154258912862
 20
1315.264719687156
 30
0.0
 11
87.29285458908089
 21
1325.290988687158
 31
0.0
  0
LINE
  5
2902
330
2
100
AcDbEntity
  8
KIJUN
100
AcDbLine
 10
87.29285458908089
 20
1325.290988687158
 30
0.0
 11
87.89000858909913
 21
1335.36742268716
 31
0.0
  0
LINE
  5
2903
330
2
100
AcDbEntity
  8
KIJUN
100
AcDbLine
 10
87.89000858909913
 20
1335.36742268716
 30
0.0
 11
88.49440158909329
 21
1345.446650687185
 31
0.0
  0
LINE
  5
2904
330
2
100
AcDbEntity
  8
KIJUN
100
AcDbLine
 10
88.49440158909329
 20
1345.446650687185
 30
0.0
 11
89.10692258911694
 21
1355.536546687116
 31
0.0
  0
LINE
  5
2905
330
2
100
AcDbEntity
  8
KIJUN
100
AcDbLine
 10
89.10692258911694
 20
1355.536546687116
 30
0.0
 11
89.72846058907999
 21
1365.644857687171
 31
0.0
  0
LINE
  5
2906
330
2
100
AcDbEntity
  8
KIJUN
100
AcDbLine
 10
89.72846058907999
 20
1365.644857687171
 30
0.0
 11
90.3602855891213
 21
1375.77945768711
 31
0.0
  0
LINE
  5
2907
330
2
100
AcDbEntity
  8
KIJUN
100
AcDbLine
 10
145.3262665890779
 20
1375.475927687149
 30
0.0
 11
78.37135858907823
 21
1375.475927687149
 31
0.0
  0
LINE
  5
2908
330
2
100
AcDbEntity
  8
KIJUN
100
AcDbLine
 10
78.37135858907823
 20
1375.475927687149
 30
0.0
 11
76.49531458908223
 21
1376.178364687121
 31
0.0
  0
LINE
  5
2909
330
2
100
AcDbEntity
  8
KIJUN
100
AcDbLine
 10
76.49531458908223
 20
1376.178364687121
 30
0.0
 11
75.15749658908226
 21
1378.019991687078
 31
0.0
  0
LINE
  5
290A
330
2
100
AcDbEntity
  8
KIJUN
100
AcDbLine
 10
75.15749658908226
 20
1378.019991687078
 30
0.0
 11
74.64733758911279
 21
1380.602409687171
 31
0.0
  0
LINE
  5
290B
330
2
100
AcDbEntity
  8
KIJUN
100
AcDbLine
 10
74.64733758911279
 20
1380.602409687171
 30
0.0
 11
75.15749658908226
 21
1383.184446687142
 31
0.0
  0
LINE
  5
290C
330
2
100
AcDbEntity
  8
KIJUN
100
AcDbLine
 10
75.15749658908226
 20
1383.184446687142
 30
0.0
 11
76.49531458908223
 21
1385.026073687086
 31
0.0
  0
LINE
  5
290D
330
2
100
AcDbEntity
  8
KIJUN
100
AcDbLine
 10
76.49531458908223
 20
1385.026073687086
 30
0.0
 11
78.37135858907823
 21
1385.728383687137
 31
0.0
  0
LINE
  5
290E
330
2
100
AcDbEntity
  8
KIJUN
100
AcDbLine
 10
78.37135858907823
 20
1385.728383687137
 30
0.0
 11
145.3262665890779
 21
1385.728383687137
 31
0.0
  0
LINE
  5
290F
330
2
100
AcDbEntity
  8
KIJUN
100
AcDbLine
 10
145.3262665890779
 20
1385.728383687137
 30
0.0
 11
147.2023105890766
 21
1385.026073687086
 31
0.0
  0
LINE
  5
2910
330
2
100
AcDbEntity
  8
KIJUN
100
AcDbLine
 10
147.2023105890766
 20
1385.026073687086
 30
0.0
 11
148.5403825891108
 21
1383.184446687142
 31
0.0
  0
LINE
  5
2911
330
2
100
AcDbEntity
  8
KIJUN
100
AcDbLine
 10
148.5403825891108
 20
1383.184446687142
 30
0.0
 11
149.0507955890998
 21
1380.602409687171
 31
0.0
  0
LINE
  5
2912
330
2
100
AcDbEntity
  8
KIJUN
100
AcDbLine
 10
149.0507955890998
 20
1380.602409687171
 30
0.0
 11
148.5403825891108
 21
1378.019991687078
 31
0.0
  0
LINE
  5
2913
330
2
100
AcDbEntity
  8
KIJUN
100
AcDbLine
 10
148.5403825891108
 20
1378.019991687078
 30
0.0
 11
147.2023105890766
 21
1376.178364687121
 31
0.0
  0
LINE
  5
2914
330
2
100
AcDbEntity
  8
KIJUN
100
AcDbLine
 10
147.2023105890766
 20
1376.178364687121
 30
0.0
 11
145.3262665890779
 21
1375.475927687149
 31
0.0
  0
LINE
  5
2919
330
2
100
AcDbEntity
  8
KIJUN
100
AcDbLine
 10
143.7167955891109
 20
1385.635927687139
 30
0.0
 11
133.2804435891294
 21
1385.549313687153
 31
0.0
  0
LINE
  5
291A
330
2
100
AcDbEntity
  8
KIJUN
100
AcDbLine
 10
133.2804435891294
 20
1385.549313687153
 30
0.0
 11
122.8646655891198
 21
1385.517436687109
 31
0.0
  0
LINE
  5
291B
330
2
100
AcDbEntity
  8
KIJUN
100
AcDbLine
 10
122.8646655891198
 20
1385.517436687109
 30
0.0
 11
112.4283135890719
 21
1385.512864687184
 31
0.0
  0
LINE
  5
291C
330
2
100
AcDbEntity
  8
KIJUN
100
AcDbLine
 10
112.4283135890719
 20
1385.512864687184
 30
0.0
 11
102.3479425891264
 21
1385.544868687154
 31
0.0
  0
LINE
  5
291D
330
2
100
AcDbEntity
  8
KIJUN
100
AcDbLine
 10
102.3479425891264
 20
1385.544868687154
 30
0.0
 11
92.43368758910856
 21
1385.604050687093
 31
0.0
  0
LINE
  5
291E
330
2
100
AcDbEntity
  8
KIJUN
100
AcDbLine
 10
92.43368758910856
 20
1385.604050687093
 30
0.0
 11
82.35331658910491
 21
1385.635927687139
 31
0.0
  0
LINE
  5
291F
330
2
100
AcDbEntity
  8
KIJUN
100
AcDbLine
 10
82.35331658910491
 20
1385.635927687139
 30
0.0
 11
83.28409958910834
 21
1389.717072687076
 31
0.0
  0
LINE
  5
2920
330
2
100
AcDbEntity
  8
KIJUN
100
AcDbLine
 10
83.28409958910834
 20
1389.717072687076
 30
0.0
 11
83.75793658908424
 21
1394.508782687074
 31
0.0
  0
LINE
  5
2921
330
2
100
AcDbEntity
  8
KIJUN
100
AcDbLine
 10
83.75793658908424
 20
1394.508782687074
 30
0.0
 11
82.82029558912382
 21
1398.425970687183
 31
0.0
  0
LINE
  5
2922
330
2
100
AcDbEntity
  8
KIJUN
100
AcDbLine
 10
82.82029558912382
 20
1398.425970687183
 30
0.0
 11
79.48578358911527
 21
1401.828427687092
 31
0.0
  0
LINE
  5
2923
330
2
100
AcDbEntity
  8
KIJUN
100
AcDbLine
 10
79.48578358911527
 20
1401.828427687092
 30
0.0
 11
74.44921758909003
 21
1404.411099687154
 31
0.0
  0
LINE
  5
2924
330
2
100
AcDbEntity
  8
KIJUN
100
AcDbLine
 10
74.44921758909003
 20
1404.411099687154
 30
0.0
 11
67.87684058909417
 21
1405.435989687133
 31
0.0
  0
LINE
  5
2925
330
2
100
AcDbEntity
  8
KIJUN
100
AcDbLine
 10
67.87684058909417
 20
1405.435989687133
 30
0.0
 11
78.7503265891064
 21
1405.364869687081
 31
0.0
  0
LINE
  5
2926
330
2
100
AcDbEntity
  8
KIJUN
100
AcDbLine
 10
78.7503265891064
 20
1405.364869687081
 30
0.0
 11
89.65035558908766
 21
1405.32829368717
 31
0.0
  0
LINE
  5
2927
330
2
100
AcDbEntity
  8
KIJUN
100
AcDbLine
 10
89.65035558908766
 20
1405.32829368717
 30
0.0
 11
100.5679105891176
 21
1405.314831687124
 31
0.0
  0
LINE
  5
2928
330
2
100
AcDbEntity
  8
KIJUN
100
AcDbLine
 10
100.5679105891176
 20
1405.314831687124
 30
0.0
 11
111.4943555890913
 21
1405.312926687177
 31
0.0
  0
LINE
  5
2929
330
2
100
AcDbEntity
  8
KIJUN
100
AcDbLine
 10
111.4943555890913
 20
1405.312926687177
 30
0.0
 11
122.4233405891191
 21
1405.314831687124
 31
0.0
  0
LINE
  5
292A
330
2
100
AcDbEntity
  8
KIJUN
100
AcDbLine
 10
122.4233405891191
 20
1405.314831687124
 30
0.0
 11
133.3612155890941
 21
1405.32829368717
 31
0.0
  0
LINE
  5
292B
330
2
100
AcDbEntity
  8
KIJUN
100
AcDbLine
 10
133.3612155890941
 20
1405.32829368717
 30
0.0
 11
144.3166165891152
 21
1405.364869687081
 31
0.0
  0
LINE
  5
292C
330
2
100
AcDbEntity
  8
KIJUN
100
AcDbLine
 10
144.3166165891152
 20
1405.364869687081
 30
0.0
 11
155.2983065890794
 21
1405.435989687133
 31
0.0
  0
LINE
  5
292D
330
2
100
AcDbEntity
  8
KIJUN
100
AcDbLine
 10
155.2983065890794
 20
1405.435989687133
 30
0.0
 11
146.6329695891172
 21
1403.928372687174
 31
0.0
  0
LINE
  5
292E
330
2
100
AcDbEntity
  8
KIJUN
100
AcDbLine
 10
146.6329695891172
 20
1403.928372687174
 30
0.0
 11
142.2639155890847
 21
1400.425712687184
 31
0.0
  0
LINE
  5
292F
330
2
100
AcDbEntity
  8
KIJUN
100
AcDbLine
 10
142.2639155890847
 20
1400.425712687184
 30
0.0
 11
139.8872375891142
 21
1396.458486687117
 31
0.0
  0
LINE
  5
2930
330
2
100
AcDbEntity
  8
KIJUN
100
AcDbLine
 10
139.8872375891142
 20
1396.458486687117
 30
0.0
 11
139.1574955890755
 21
1392.778026687113
 31
0.0
  0
LINE
  5
2931
330
2
100
AcDbEntity
  8
KIJUN
100
AcDbLine
 10
139.1574955890755
 20
1392.778026687113
 30
0.0
 11
140.3993015890874
 21
1388.660305687156
 31
0.0
  0
LINE
  5
2932
330
2
100
AcDbEntity
  8
KIJUN
100
AcDbLine
 10
140.3993015890874
 20
1388.660305687156
 30
0.0
 11
143.7167955891109
 21
1385.635927687139
 31
0.0
  0
LINE
  5
2933
330
2
100
AcDbEntity
  8
KIJUN
100
AcDbLine
 10
155.0037935891141
 20
1405.574927687158
 30
0.0
 11
67.67579958913029
 21
1405.574927687158
 31
0.0
  0
LINE
  5
2934
330
2
100
AcDbEntity
  8
KIJUN
100
AcDbLine
 10
67.67579958913029
 20
1405.574927687158
 30
0.0
 11
64.8528435890903
 21
1406.532888687129
 31
0.0
  0
LINE
  5
2935
330
2
100
AcDbEntity
  8
KIJUN
100
AcDbLine
 10
64.8528435890903
 20
1406.532888687129
 30
0.0
 11
62.83963958909407
 21
1409.044186687163
 31
0.0
  0
LINE
  5
2936
330
2
100
AcDbEntity
  8
KIJUN
100
AcDbLine
 10
62.83963958909407
 20
1409.044186687163
 30
0.0
 11
62.07179758909387
 21
1412.565388687087
 31
0.0
  0
LINE
  5
2937
330
2
100
AcDbEntity
  8
KIJUN
100
AcDbLine
 10
62.07179758909387
 20
1412.565388687087
 30
0.0
 11
62.83963958909407
 21
1416.086336687144
 31
0.0
  0
LINE
  5
2938
330
2
100
AcDbEntity
  8
KIJUN
100
AcDbLine
 10
62.83963958909407
 20
1416.086336687144
 30
0.0
 11
64.8528435890903
 21
1418.597507687148
 31
0.0
  0
LINE
  5
2939
330
2
100
AcDbEntity
  8
KIJUN
100
AcDbLine
 10
64.8528435890903
 20
1418.597507687148
 30
0.0
 11
67.67579958913029
 21
1419.555468687106
 31
0.0
  0
LINE
  5
293A
330
2
100
AcDbEntity
  8
KIJUN
100
AcDbLine
 10
67.67579958913029
 20
1419.555468687106
 30
0.0
 11
155.0037935891141
 21
1419.555468687106
 31
0.0
  0
LINE
  5
293B
330
2
100
AcDbEntity
  8
KIJUN
100
AcDbLine
 10
155.0037935891141
 20
1419.555468687106
 30
0.0
 11
157.8264955891272
 21
1418.597507687148
 31
0.0
  0
LINE
  5
293C
330
2
100
AcDbEntity
  8
KIJUN
100
AcDbLine
 10
157.8264955891272
 20
1418.597507687148
 30
0.0
 11
159.8398265891064
 21
1416.086336687144
 31
0.0
  0
LINE
  5
293D
330
2
100
AcDbEntity
  8
KIJUN
100
AcDbLine
 10
159.8398265891064
 20
1416.086336687144
 30
0.0
 11
160.6077955890932
 21
1412.565388687087
 31
0.0
  0
LINE
  5
293E
330
2
100
AcDbEntity
  8
KIJUN
100
AcDbLine
 10
160.6077955890932
 20
1412.565388687087
 30
0.0
 11
159.8398265891064
 21
1409.044186687163
 31
0.0
  0
LINE
  5
293F
330
2
100
AcDbEntity
  8
KIJUN
100
AcDbLine
 10
159.8398265891064
 20
1409.044186687163
 30
0.0
 11
157.8264955891272
 21
1406.532888687129
 31
0.0
  0
LINE
  5
2940
330
2
100
AcDbEntity
  8
KIJUN
100
AcDbLine
 10
157.8264955891272
 20
1406.532888687129
 30
0.0
 11
155.0037935891141
 21
1405.574927687158
 31
0.0
  0
LINE
  5
2941
330
2
100
AcDbEntity
  8
KIJUN
100
AcDbLine
 10
54.08603758913386
 20
785.7088912380297
 30
0.0
 11
63.604052589106
 21
792.0868312380425
 31
0.0
  0
LINE
  5
2942
330
2
100
AcDbEntity
  8
KIJUN
100
AcDbLine
 10
63.604052589106
 20
792.0868312380425
 30
0.0
 11
73.12003558909646
 21
797.7352832380506
 31
0.0
  0
LINE
  5
2943
330
2
100
AcDbEntity
  8
KIJUN
100
AcDbLine
 10
73.12003558909646
 20
797.7352832380506
 30
0.0
 11
82.64173358910785
 21
802.4626042380786
 31
0.0
  0
LINE
  5
2944
330
2
100
AcDbEntity
  8
KIJUN
100
AcDbLine
 10
82.64173358910785
 20
802.4626042380786
 30
0.0
 11
92.17676658912978
 21
806.077024238019
 31
0.0
  0
LINE
  5
2945
330
2
100
AcDbEntity
  8
KIJUN
100
AcDbLine
 10
92.17676658912978
 20
806.077024238019
 30
0.0
 11
101.7326275891014
 21
808.3869002380255
 31
0.0
  0
LINE
  5
2946
330
2
100
AcDbEntity
  8
KIJUN
100
AcDbLine
 10
101.7326275891014
 20
808.3869002380255
 30
0.0
 11
111.3170635891051
 21
809.2003352380356
 31
0.0
  0
LINE
  5
2947
330
2
100
AcDbEntity
  8
KIJUN
100
AcDbLine
 10
111.3170635891051
 20
809.2003352380356
 30
0.0
 11
120.8786395891061
 21
808.3891862379838
 31
0.0
  0
LINE
  5
2948
330
2
100
AcDbEntity
  8
KIJUN
100
AcDbLine
 10
120.8786395891061
 20
808.3891862379838
 30
0.0
 11
130.4234515891426
 21
806.0808342380427
 31
0.0
  0
LINE
  5
2949
330
2
100
AcDbEntity
  8
KIJUN
100
AcDbLine
 10
130.4234515891426
 20
806.0808342380427
 30
0.0
 11
139.9595005891074
 21
802.4669222380417
 31
0.0
  0
LINE
  5
294A
330
2
100
AcDbEntity
  8
KIJUN
100
AcDbLine
 10
139.9595005891074
 20
802.4669222380417
 30
0.0
 11
149.4945335891302
 21
797.7392202379937
 31
0.0
  0
LINE
  5
294B
330
2
100
AcDbEntity
  8
KIJUN
100
AcDbLine
 10
149.4945335891302
 20
797.7392202379937
 30
0.0
 11
159.036678589136
 21
792.0892442380445
 31
0.0
  0
LINE
  5
294C
330
2
100
AcDbEntity
  8
KIJUN
100
AcDbLine
 10
159.036678589136
 20
792.0892442380445
 30
0.0
 11
168.5935555891106
 21
785.7088912380297
 31
0.0
  0
LINE
  5
29A8
330
2
100
AcDbEntity
  8
KIJUN
100
AcDbLine
 10
143.3375735891436
 20
843.5914686871129
 30
0.0
 11
132.901221589103
 21
843.6780826870977
 31
0.0
  0
LINE
  5
29A9
330
2
100
AcDbEntity
  8
KIJUN
100
AcDbLine
 10
132.901221589103
 20
843.6780826870977
 30
0.0
 11
122.4854435891516
 21
843.709959687143
 31
0.0
  0
LINE
  5
29AA
330
2
100
AcDbEntity
  8
KIJUN
100
AcDbLine
 10
122.4854435891516
 20
843.709959687143
 30
0.0
 11
112.0490915891046
 21
843.7145316871987
 31
0.0
  0
LINE
  5
29AB
330
2
100
AcDbEntity
  8
KIJUN
100
AcDbLine
 10
112.0490915891046
 20
843.7145316871987
 30
0.0
 11
101.9687205891009
 21
843.6825276871037
 31
0.0
  0
LINE
  5
29AC
330
2
100
AcDbEntity
  8
KIJUN
100
AcDbLine
 10
101.9687205891009
 20
843.6825276871037
 30
0.0
 11
92.05446558913399
 21
843.6233456871645
 31
0.0
  0
LINE
  5
29AD
330
2
100
AcDbEntity
  8
KIJUN
100
AcDbLine
 10
92.05446558913399
 20
843.6233456871645
 30
0.0
 11
81.97409458913034
 21
843.5914686871129
 31
0.0
  0
LINE
  5
29AE
330
2
100
AcDbEntity
  8
KIJUN
100
AcDbLine
 10
81.97409458913034
 20
843.5914686871129
 30
0.0
 11
82.90487758913286
 21
839.5103236871886
 31
0.0
  0
LINE
  5
29AF
330
2
100
AcDbEntity
  8
KIJUN
100
AcDbLine
 10
82.90487758913286
 20
839.5103236871886
 30
0.0
 11
83.37871458910967
 21
834.7186136871769
 31
0.0
  0
LINE
  5
29B0
330
2
100
AcDbEntity
  8
KIJUN
100
AcDbLine
 10
83.37871458910967
 20
834.7186136871769
 30
0.0
 11
82.44107358909833
 21
830.8014256871997
 31
0.0
  0
LINE
  5
29B1
330
2
100
AcDbEntity
  8
KIJUN
100
AcDbLine
 10
82.44107358909833
 20
830.8014256871997
 30
0.0
 11
79.10656158914071
 21
827.3989686871736
 31
0.0
  0
LINE
  5
29B2
330
2
100
AcDbEntity
  8
KIJUN
100
AcDbLine
 10
79.10656158914071
 20
827.3989686871736
 30
0.0
 11
74.06999558912366
 21
824.8162966870967
 31
0.0
  0
LINE
  5
29B3
330
2
100
AcDbEntity
  8
KIJUN
100
AcDbLine
 10
74.06999558912366
 20
824.8162966870967
 30
0.0
 11
67.49761858912598
 21
823.7914066871176
 31
0.0
  0
LINE
  5
29B4
330
2
100
AcDbEntity
  8
KIJUN
100
AcDbLine
 10
67.49761858912598
 20
823.7914066871176
 30
0.0
 11
78.37110458913094
 21
823.8625266871768
 31
0.0
  0
LINE
  5
29B5
330
2
100
AcDbEntity
  8
KIJUN
100
AcDbLine
 10
78.37110458913094
 20
823.8625266871768
 30
0.0
 11
89.27113358912038
 21
823.8991026871977
 31
0.0
  0
LINE
  5
29B6
330
2
100
AcDbEntity
  8
KIJUN
100
AcDbLine
 10
89.27113358912038
 20
823.8991026871977
 30
0.0
 11
100.1886885891504
 21
823.9125646871267
 31
0.0
  0
LINE
  5
29B7
330
2
100
AcDbEntity
  8
KIJUN
100
AcDbLine
 10
100.1886885891504
 20
823.9125646871267
 30
0.0
 11
111.115133589125
 21
823.9144696872047
 31
0.0
  0
LINE
  5
29B8
330
2
100
AcDbEntity
  8
KIJUN
100
AcDbLine
 10
111.115133589125
 20
823.9144696872047
 30
0.0
 11
122.0441185890936
 21
823.9125646871267
 31
0.0
  0
LINE
  5
29B9
330
2
100
AcDbEntity
  8
KIJUN
100
AcDbLine
 10
122.0441185890936
 20
823.9125646871267
 30
0.0
 11
132.9819935891278
 21
823.8991026871977
 31
0.0
  0
LINE
  5
29BA
330
2
100
AcDbEntity
  8
KIJUN
100
AcDbLine
 10
132.9819935891278
 20
823.8991026871977
 30
0.0
 11
143.9373945891407
 21
823.8625266871768
 31
0.0
  0
LINE
  5
29BB
330
2
100
AcDbEntity
  8
KIJUN
100
AcDbLine
 10
143.9373945891407
 20
823.8625266871768
 30
0.0
 11
154.9190845891112
 21
823.7914066871176
 31
0.0
  0
LINE
  5
29BC
330
2
100
AcDbEntity
  8
KIJUN
100
AcDbLine
 10
154.9190845891112
 20
823.7914066871176
 30
0.0
 11
146.2537475891426
 21
825.2990236871937
 31
0.0
  0
LINE
  5
29BD
330
2
100
AcDbEntity
  8
KIJUN
100
AcDbLine
 10
146.2537475891426
 20
825.2990236871937
 30
0.0
 11
141.884693589111
 21
828.8016836871928
 31
0.0
  0
LINE
  5
29BE
330
2
100
AcDbEntity
  8
KIJUN
100
AcDbLine
 10
141.884693589111
 20
828.8016836871928
 30
0.0
 11
139.5080155891396
 21
832.7689096871347
 31
0.0
  0
LINE
  5
29BF
330
2
100
AcDbEntity
  8
KIJUN
100
AcDbLine
 10
139.5080155891396
 20
832.7689096871347
 30
0.0
 11
138.7782735891073
 21
836.4493696871377
 31
0.0
  0
LINE
  5
29C0
330
2
100
AcDbEntity
  8
KIJUN
100
AcDbLine
 10
138.7782735891073
 20
836.4493696871377
 30
0.0
 11
140.0200795891201
 21
840.5670906870966
 31
0.0
  0
LINE
  5
29C1
330
2
100
AcDbEntity
  8
KIJUN
100
AcDbLine
 10
140.0200795891201
 20
840.5670906870966
 30
0.0
 11
143.3375735891436
 21
843.5914686871129
 31
0.0
  0
LINE
  5
29C3
330
2
100
AcDbEntity
  8
KIJUN
100
AcDbLine
 10
154.6245715891468
 20
823.6524686870998
 30
0.0
 11
67.29657758909752
 21
823.6524686870998
 31
0.0
  0
LINE
  5
29C4
330
2
100
AcDbEntity
  8
KIJUN
100
AcDbLine
 10
67.29657758909752
 20
823.6524686870998
 30
0.0
 11
64.47362158912302
 21
822.6945076871288
 31
0.0
  0
LINE
  5
29C5
330
2
100
AcDbEntity
  8
KIJUN
100
AcDbLine
 10
64.47362158912302
 20
822.6945076871288
 30
0.0
 11
62.46041758912042
 21
820.1832096870875
 31
0.0
  0
LINE
  5
29C6
330
2
100
AcDbEntity
  8
KIJUN
100
AcDbLine
 10
62.46041758912042
 20
820.1832096870875
 30
0.0
 11
61.6925755891275
 21
816.6620076871787
 31
0.0
  0
LINE
  5
29C7
330
2
100
AcDbEntity
  8
KIJUN
100
AcDbLine
 10
61.6925755891275
 20
816.6620076871787
 30
0.0
 11
62.46041758912042
 21
813.1410596871077
 31
0.0
  0
LINE
  5
29C8
330
2
100
AcDbEntity
  8
KIJUN
100
AcDbLine
 10
62.46041758912042
 20
813.1410596871077
 30
0.0
 11
64.47362158912302
 21
810.6298886871098
 31
0.0
  0
LINE
  5
29C9
330
2
100
AcDbEntity
  8
KIJUN
100
AcDbLine
 10
64.47362158912302
 20
810.6298886871098
 30
0.0
 11
67.29657758909752
 21
809.6719276871541
 31
0.0
  0
LINE
  5
29CA
330
2
100
AcDbEntity
  8
KIJUN
100
AcDbLine
 10
67.29657758909752
 20
809.6719276871541
 30
0.0
 11
154.6245715891468
 21
809.6719276871541
 31
0.0
  0
LINE
  5
29CB
330
2
100
AcDbEntity
  8
KIJUN
100
AcDbLine
 10
154.6245715891468
 20
809.6719276871541
 30
0.0
 11
157.4472735890936
 21
810.6298886871098
 31
0.0
  0
LINE
  5
29CC
330
2
100
AcDbEntity
  8
KIJUN
100
AcDbLine
 10
157.4472735890936
 20
810.6298886871098
 30
0.0
 11
159.4606045891391
 21
813.1410596871077
 31
0.0
  0
LINE
  5
29CD
330
2
100
AcDbEntity
  8
KIJUN
100
AcDbLine
 10
159.4606045891391
 20
813.1410596871077
 30
0.0
 11
160.2285735891187
 21
816.6620076871787
 31
0.0
  0
LINE
  5
29CE
330
2
100
AcDbEntity
  8
KIJUN
100
AcDbLine
 10
160.2285735891187
 20
816.6620076871787
 30
0.0
 11
159.4606045891391
 21
820.1832096870875
 31
0.0
  0
LINE
  5
29CF
330
2
100
AcDbEntity
  8
KIJUN
100
AcDbLine
 10
159.4606045891391
 20
820.1832096870875
 30
0.0
 11
157.4472735890936
 21
822.6945076871288
 31
0.0
  0
LINE
  5
29D0
330
2
100
AcDbEntity
  8
KIJUN
100
AcDbLine
 10
157.4472735890936
 20
822.6945076871288
 30
0.0
 11
154.6245715891468
 21
823.6524686870998
 31
0.0
  0
LINE
  5
29D1
330
2
100
AcDbEntity
  8
KIJUN
100
AcDbLine
 10
60.83979658912221
 20
809.5554686871055
 30
0.0
 11
161.8397965891222
 21
809.5554686871055
 31
0.0
  0
LINE
  5
29E5
330
2
100
AcDbEntity
  8
KIJUN
100
AcDbLine
 10
126.1925735891186
 20
1086.669468687202
 30
0.0
 11
124.6980375891339
 21
1091.250993687196
 31
0.0
  0
LINE
  5
29E6
330
2
100
AcDbEntity
  8
KIJUN
100
AcDbLine
 10
124.6980375891339
 20
1091.250993687196
 30
0.0
 11
123.110537589097
 21
1094.686978687148
 31
0.0
  0
LINE
  5
29E7
330
2
100
AcDbEntity
  8
KIJUN
100
AcDbLine
 10
123.110537589097
 20
1094.686978687148
 30
0.0
 11
120.8686065891138
 21
1097.206531687096
 31
0.0
  0
LINE
  5
29E8
330
2
100
AcDbEntity
  8
KIJUN
100
AcDbLine
 10
120.2235735891058
 20
1097.337468687178
 30
0.0
 11
117.2346285891376
 21
1098.597435687154
 31
0.0
  0
LINE
  5
29E9
330
2
100
AcDbEntity
  8
KIJUN
100
AcDbLine
 10
117.2346285891376
 20
1098.597435687154
 30
0.0
 11
113.405578589131
 21
1099.284505687131
 31
0.0
  0
LINE
  5
29EA
330
2
100
AcDbEntity
  8
KIJUN
100
AcDbLine
 10
113.405578589131
 20
1099.284505687131
 30
0.0
 11
110.9770845891093
 21
1099.284505687131
 31
0.0
  0
LINE
  5
29EB
330
2
100
AcDbEntity
  8
KIJUN
100
AcDbLine
 10
110.9770845891093
 20
1099.284505687131
 30
0.0
 11
108.0816115891261
 21
1098.254027687103
 31
0.0
  0
LINE
  5
29EC
330
2
100
AcDbEntity
  8
KIJUN
100
AcDbLine
 10
108.0816115891261
 20
1098.254027687103
 30
0.0
 11
105.6531175891045
 21
1096.764952687184
 31
0.0
  0
LINE
  5
29ED
330
2
100
AcDbEntity
  8
KIJUN
100
AcDbLine
 10
105.6531175891045
 20
1096.764952687184
 30
0.0
 11
103.1315325891105
 21
1094.932469687085
 31
0.0
  0
LINE
  5
29EE
330
2
100
AcDbEntity
  8
KIJUN
100
AcDbLine
 10
103.1315325891105
 20
1094.932469687085
 30
0.0
 11
101.1700175891078
 21
1092.069000687138
 31
0.0
  0
LINE
  5
29EF
330
2
100
AcDbEntity
  8
KIJUN
100
AcDbLine
 10
101.1700175891078
 20
1092.069000687138
 30
0.0
 11
99.3021015891486
 21
1088.403907687136
 31
0.0
  0
LINE
  5
29F0
330
2
100
AcDbEntity
  8
KIJUN
100
AcDbLine
 10
99.3021015891486
 20
1088.403907687136
 30
0.0
 11
100.2360595891282
 21
1093.099478687169
 31
0.0
  0
LINE
  5
29F1
330
2
100
AcDbEntity
  8
KIJUN
100
AcDbLine
 10
100.2360595891282
 20
1093.099478687169
 30
0.0
 11
101.4505605891368
 21
1098.138965687185
 31
0.0
  0
LINE
  5
29F2
330
2
100
AcDbEntity
  8
KIJUN
100
AcDbLine
 10
101.4505605891368
 20
1098.138965687185
 30
0.0
 11
102.4776095890979
 21
1102.262528687164
 31
0.0
  0
LINE
  5
29F3
330
2
100
AcDbEntity
  8
KIJUN
100
AcDbLine
 10
102.4776095890979
 20
1102.262528687164
 30
0.0
 11
103.8785465890964
 21
1105.812940687153
 31
0.0
  0
LINE
  5
29F4
330
2
100
AcDbEntity
  8
KIJUN
100
AcDbLine
 10
103.8785465890964
 20
1105.812940687153
 30
0.0
 11
105.3730825891375
 21
1109.019944687193
 31
0.0
  0
LINE
  5
29F5
330
2
100
AcDbEntity
  8
KIJUN
100
AcDbLine
 10
105.3730825891375
 20
1109.019944687193
 30
0.0
 11
107.5210335891302
 21
1111.654432687131
 31
0.0
  0
LINE
  5
29F6
330
2
100
AcDbEntity
  8
KIJUN
100
AcDbLine
 10
107.5210335891302
 20
1111.654432687131
 30
0.0
 11
109.9495275890935
 21
1112.799464687124
 31
0.0
  0
LINE
  5
29F7
330
2
100
AcDbEntity
  8
KIJUN
100
AcDbLine
 10
109.9495275890935
 20
1112.799464687124
 30
0.0
 11
111.911042589089
 21
1113.601469687195
 31
0.0
  0
LINE
  5
29F8
330
2
100
AcDbEntity
  8
KIJUN
100
AcDbLine
 10
111.911042589089
 20
1113.601469687195
 30
0.0
 11
114.5260995891426
 21
1113.4869156871
 31
0.0
  0
LINE
  5
29F9
330
2
100
AcDbEntity
  8
KIJUN
100
AcDbLine
 10
114.5260995891426
 20
1113.4869156871
 30
0.0
 11
117.0480655890992
 21
1112.341502687102
 31
0.0
  0
LINE
  5
29FA
330
2
100
AcDbEntity
  8
KIJUN
100
AcDbLine
 10
117.0480655890992
 20
1112.341502687102
 30
0.0
 11
119.4765595891217
 21
1110.279911687177
 31
0.0
  0
LINE
  5
29FB
330
2
100
AcDbEntity
  8
KIJUN
100
AcDbLine
 10
119.4765595891217
 20
1110.279911687177
 30
0.0
 11
121.0640595891004
 21
1107.530996687195
 31
0.0
  0
LINE
  5
29FC
330
2
100
AcDbEntity
  8
KIJUN
100
AcDbLine
 10
121.0640595891004
 20
1107.530996687195
 30
0.0
 11
122.7455395891279
 21
1104.095011687147
 31
0.0
  0
LINE
  5
29FD
330
2
100
AcDbEntity
  8
KIJUN
100
AcDbLine
 10
122.7455395891279
 20
1104.095011687147
 30
0.0
 11
123.7725885891473
 21
1099.284505687131
 31
0.0
  0
LINE
  5
29FE
330
2
100
AcDbEntity
  8
KIJUN
100
AcDbLine
 10
123.7725885891473
 20
1099.284505687131
 30
0.0
 11
124.8000185891201
 21
1094.473999687116
 31
0.0
  0
LINE
  5
29FF
330
2
100
AcDbEntity
  8
KIJUN
100
AcDbLine
 10
124.8000185891201
 20
1094.473999687116
 30
0.0
 11
125.5475405891115
 21
1090.121963687192
 31
0.0
  0
LINE
  5
2A00
330
2
100
AcDbEntity
  8
KIJUN
100
AcDbLine
 10
125.5475405891115
 20
1090.121963687192
 30
0.0
 11
126.0140115891313
 21
1086.914959687138
 31
0.0
  0
LINE
  5
2A01
330
2
100
AcDbEntity
  8
KIJUN
100
AcDbLine
 10
126.0140115891313
 20
1086.914959687138
 30
0.0
 11
124.4265115891016
 21
1091.152441687105
 31
0.0
  0
LINE
  5
2A02
330
2
100
AcDbEntity
  8
KIJUN
100
AcDbLine
 10
124.4265115891016
 20
1091.152441687105
 30
0.0
 11
123.2125185891405
 21
1094.817407687175
 31
0.0
  0
LINE
  5
2A03
330
2
100
AcDbEntity
  8
KIJUN
100
AcDbLine
 10
123.2125185891405
 20
1094.817407687175
 30
0.0
 11
120.2235735891058
 21
1097.337468687178
 31
0.0
  0
LINE
  5
2A04
330
2
100
AcDbEntity
  8
KIJUN
100
AcDbLine
 10
86.93293194765798
 20
1258.298515568645
 30
0.0
 11
71.38559658909662
 21
975.2639256871717
 31
0.0
  0
LINE
  5
2A06
330
2
100
AcDbEntity
  8
KIJUN
100
AcDbLine
 10
154.4175615891204
 20
977.2109626871255
 30
0.0
 11
141.6728494315281
 21
1262.261237899564
 31
0.0
  0
LINE
  5
2A08
330
2
100
AcDbEntity
  8
KIJUN
100
AcDbLine
 10
114.6730385891046
 20
1113.689988687119
 30
0.0
 11
107.3880645891015
 21
1111.28498968715
 31
0.0
  0
LINE
  5
2A09
330
2
100
AcDbEntity
  8
KIJUN
100
AcDbLine
 10
107.3880645891015
 20
1111.28498968715
 30
0.0
 11
102.8116195890975
 21
1102.923944687115
 31
0.0
  0
LINE
  5
2A0A
330
2
100
AcDbEntity
  8
KIJUN
100
AcDbLine
 10
102.8116195890975
 20
1102.923944687115
 30
0.0
 11
100.9435765891453
 21
1096.051974687102
 31
0.0
  0
LINE
  5
2A0B
330
2
100
AcDbEntity
  8
KIJUN
100
AcDbLine
 10
100.9435765891453
 20
1096.051974687102
 30
0.0
 11
99.63611158913909
 21
1089.752520687102
 31
0.0
  0
LINE
  5
2A0C
330
2
100
AcDbEntity
  8
KIJUN
100
AcDbLine
 10
99.63611158913909
 20
1089.752520687102
 30
0.0
 11
98.42161058913143
 21
1080.704024687185
 31
0.0
  0
LINE
  5
2A0D
330
2
100
AcDbEntity
  8
KIJUN
100
AcDbLine
 10
98.42161058913143
 20
1080.704024687185
 30
0.0
 11
97.86103258913271
 21
1071.541482687129
 31
0.0
  0
LINE
  5
2A0E
330
2
100
AcDbEntity
  8
KIJUN
100
AcDbLine
 10
97.86103258913271
 20
1071.541482687129
 30
0.0
 11
97.20761758911841
 21
1059.285982687173
 31
0.0
  0
LINE
  5
2A0F
330
2
100
AcDbEntity
  8
KIJUN
100
AcDbLine
 10
97.20761758911841
 20
1059.285982687173
 30
0.0
 11
96.5535675891283
 21
1047.030990687165
 31
0.0
  0
LINE
  5
2A10
330
2
100
AcDbEntity
  8
KIJUN
100
AcDbLine
 10
96.5535675891283
 20
1047.030990687165
 30
0.0
 11
97.86103258913271
 21
1033.17198868713
 31
0.0
  0
LINE
  5
2A11
330
2
100
AcDbEntity
  8
KIJUN
100
AcDbLine
 10
97.86103258913271
 20
1033.17198868713
 30
0.0
 11
99.07553358913583
 21
1018.626424687175
 31
0.0
  0
LINE
  5
2A12
330
2
100
AcDbEntity
  8
KIJUN
100
AcDbLine
 10
99.07553358913583
 20
1018.626424687175
 30
0.0
 11
102.1575695890992
 21
1001.67497268718
 31
0.0
  0
LINE
  5
2A13
330
2
100
AcDbEntity
  8
KIJUN
100
AcDbLine
 10
102.1575695890992
 20
1001.67497268718
 30
0.0
 11
104.0256125891014
 21
990.2214776871787
 31
0.0
  0
LINE
  5
2A14
330
2
100
AcDbEntity
  8
KIJUN
100
AcDbLine
 10
104.0256125891014
 20
990.2214776871787
 30
0.0
 11
105.893528589125
 21
972.5834636871537
 31
0.0
  0
LINE
  5
2A15
330
2
100
AcDbEntity
  8
KIJUN
100
AcDbLine
 10
105.893528589125
 20
972.5834636871537
 30
0.0
 11
107.2011205891163
 21
957.2355136871211
 31
0.0
  0
LINE
  5
2A16
330
2
100
AcDbEntity
  8
KIJUN
100
AcDbLine
 10
107.2011205891163
 20
957.2355136871211
 30
0.0
 11
107.2011205891163
 21
945.7820186871197
 31
0.0
  0
LINE
  5
2A17
330
2
100
AcDbEntity
  8
KIJUN
100
AcDbLine
 10
107.2011205891163
 20
945.7820186871197
 30
0.0
 11
107.2011205891163
 21
930.4344496870999
 31
0.0
  0
LINE
  5
2A18
330
2
100
AcDbEntity
  8
KIJUN
100
AcDbLine
 10
107.2011205891163
 20
930.4344496870999
 30
0.0
 11
107.2011205891163
 21
913.4835056871615
 31
0.0
  0
LINE
  5
2A19
330
2
100
AcDbEntity
  8
KIJUN
100
AcDbLine
 10
107.2011205891163
 20
913.4835056871615
 30
0.0
 11
107.2011205891163
 21
897.448485687159
 31
0.0
  0
LINE
  5
2A1A
330
2
100
AcDbEntity
  8
KIJUN
100
AcDbLine
 10
107.2011205891163
 20
897.448485687159
 30
0.0
 11
107.2011205891163
 21
882.1009166871467
 31
0.0
  0
LINE
  5
2A1B
330
2
100
AcDbEntity
  8
KIJUN
100
AcDbLine
 10
107.2011205891163
 20
882.1009166871467
 30
0.0
 11
106.5475785891153
 21
870.5329946870937
 31
0.0
  0
LINE
  5
2A1C
330
2
100
AcDbEntity
  8
KIJUN
100
AcDbLine
 10
106.5475785891153
 20
870.5329946870937
 30
0.0
 11
106.5475785891153
 21
859.8809966871138
 31
0.0
  0
LINE
  5
2A1D
330
2
100
AcDbEntity
  8
KIJUN
100
AcDbLine
 10
106.5475785891153
 20
859.8809966871138
 30
0.0
 11
109.0690365891328
 21
855.1849176871417
 31
0.0
  0
LINE
  5
2A1E
330
2
100
AcDbEntity
  8
KIJUN
100
AcDbLine
 10
109.0690365891328
 20
855.1849176871417
 30
0.0
 11
114.0196235890966
 21
854.4979746870977
 31
0.0
  0
LINE
  5
2A1F
330
2
100
AcDbEntity
  8
KIJUN
100
AcDbLine
 10
114.0196235890966
 20
854.4979746870977
 30
0.0
 11
117.1015325891262
 21
855.9869226870887
 31
0.0
  0
LINE
  5
2A20
330
2
100
AcDbEntity
  8
KIJUN
100
AcDbLine
 10
117.1015325891262
 20
855.9869226870887
 30
0.0
 11
118.4091245891163
 21
860.5684476870905
 31
0.0
  0
LINE
  5
2A21
330
2
100
AcDbEntity
  8
KIJUN
100
AcDbLine
 10
118.4091245891163
 20
860.5684476870905
 30
0.0
 11
117.7555825891236
 21
873.6254446871699
 31
0.0
  0
LINE
  5
2A22
330
2
100
AcDbEntity
  8
KIJUN
100
AcDbLine
 10
117.7555825891236
 20
873.6254446871699
 30
0.0
 11
117.1015325891262
 21
890.461961687181
 31
0.0
  0
LINE
  5
2A23
330
2
100
AcDbEntity
  8
KIJUN
100
AcDbLine
 10
117.1015325891262
 20
890.461961687181
 30
0.0
 11
116.5410815891132
 21
911.192425687174
 31
0.0
  0
LINE
  5
2A24
330
2
100
AcDbEntity
  8
KIJUN
100
AcDbLine
 10
116.5410815891132
 20
911.192425687174
 30
0.0
 11
117.1015325891262
 21
931.1220276871267
 31
0.0
  0
LINE
  5
2A25
330
2
100
AcDbEntity
  8
KIJUN
100
AcDbLine
 10
117.1015325891262
 20
931.1220276871267
 30
0.0
 11
117.1015325891262
 21
952.6544966871757
 31
0.0
  0
LINE
  5
2A26
330
2
100
AcDbEntity
  8
KIJUN
100
AcDbLine
 10
117.1015325891262
 20
952.6544966871757
 30
0.0
 11
118.4091245891163
 21
970.2925106870921
 31
0.0
  0
LINE
  5
2A27
330
2
100
AcDbEntity
  8
KIJUN
100
AcDbLine
 10
118.4091245891163
 20
970.2925106870921
 30
0.0
 11
120.837618589137
 21
991.7104256871775
 31
0.0
  0
LINE
  5
2A28
330
2
100
AcDbEntity
  8
KIJUN
100
AcDbLine
 10
120.837618589137
 20
991.7104256871775
 30
0.0
 11
124.5735775891066
 21
1008.662004687098
 31
0.0
  0
LINE
  5
2A29
330
2
100
AcDbEntity
  8
KIJUN
100
AcDbLine
 10
124.5735775891066
 20
1008.662004687098
 30
0.0
 11
127.0950355891159
 21
1030.079919687183
 31
0.0
  0
LINE
  5
2A2A
330
2
100
AcDbEntity
  8
KIJUN
100
AcDbLine
 10
127.0950355891159
 20
1030.079919687183
 30
0.0
 11
128.3095365891263
 21
1049.321435687171
 31
0.0
  0
LINE
  5
2A2B
330
2
100
AcDbEntity
  8
KIJUN
100
AcDbLine
 10
128.3095365891263
 20
1049.321435687171
 30
0.0
 11
127.7490855891133
 21
1067.647027687106
 31
0.0
  0
LINE
  5
2A2C
330
2
100
AcDbEntity
  8
KIJUN
100
AcDbLine
 10
127.7490855891133
 20
1067.647027687106
 30
0.0
 11
126.4416205891089
 21
1084.5984796871
 31
0.0
  0
LINE
  5
2A2D
330
2
100
AcDbEntity
  8
KIJUN
100
AcDbLine
 10
126.4416205891089
 20
1084.5984796871
 30
0.0
 11
124.5735775891066
 21
1096.051974687102
 31
0.0
  0
LINE
  5
2A2E
330
2
100
AcDbEntity
  8
KIJUN
100
AcDbLine
 10
124.5735775891066
 20
1096.051974687102
 30
0.0
 11
122.7055345890962
 21
1103.725441687123
 31
0.0
  0
LINE
  5
2A2F
330
2
100
AcDbEntity
  8
KIJUN
100
AcDbLine
 10
122.7055345890962
 20
1103.725441687123
 30
0.0
 11
119.6231175891294
 21
1109.910468687195
 31
0.0
  0
LINE
  5
2A30
330
2
100
AcDbEntity
  8
KIJUN
100
AcDbLine
 10
119.6231175891294
 20
1109.910468687195
 30
0.0
 11
114.6730385891046
 21
1113.689988687119
 31
0.0
  0
LINE
  5
2A31
330
2
100
AcDbEntity
  8
KIJUN
100
AcDbLine
 10
131.6535735891279
 20
859.212468687178
 30
0.0
 11
130.4480895891161
 21
855.702950687179
 31
0.0
  0
LINE
  5
2A32
330
2
100
AcDbEntity
  8
KIJUN
100
AcDbLine
 10
130.4480895891161
 20
855.702950687179
 30
0.0
 11
127.8355725891074
 21
854.6595186871506
 31
0.0
  0
LINE
  5
2A33
330
2
100
AcDbEntity
  8
KIJUN
100
AcDbLine
 10
127.8355725891074
 20
854.6595186871506
 30
0.0
 11
124.941115589128
 21
854.3364306871607
 31
0.0
  0
LINE
  5
2A34
330
2
100
AcDbEntity
  8
KIJUN
100
AcDbLine
 10
124.941115589128
 20
854.3364306871607
 30
0.0
 11
122.3250425891297
 21
854.6329756871797
 31
0.0
  0
LINE
  5
2A35
330
2
100
AcDbEntity
  8
KIJUN
100
AcDbLine
 10
122.3250425891297
 20
854.6329756871797
 30
0.0
 11
119.9850675891052
 21
856.5800126871197
 31
0.0
  0
LINE
  5
2A36
330
2
100
AcDbEntity
  8
KIJUN
100
AcDbLine
 10
119.9850675891052
 20
856.5800126871197
 30
0.0
 11
118.4806255891221
 21
860.6949396871728
 31
0.0
  0
LINE
  5
2A37
330
2
100
AcDbEntity
  8
KIJUN
100
AcDbLine
 10
118.4806255891221
 20
860.6949396871728
 30
0.0
 11
117.8985845891352
 21
869.3484656871319
 31
0.0
  0
LINE
  5
2A38
330
2
100
AcDbEntity
  8
KIJUN
100
AcDbLine
 10
117.8985845891352
 20
869.3484656871319
 30
0.0
 11
117.5950545891151
 21
878.7250026870918
 31
0.0
  0
LINE
  5
2A39
330
2
100
AcDbEntity
  8
KIJUN
100
AcDbLine
 10
117.5950545891151
 20
878.7250026870918
 30
0.0
 11
116.635569589102
 21
888.9224676871767
 31
0.0
  0
LINE
  5
2A3A
330
2
100
AcDbEntity
  8
KIJUN
100
AcDbLine
 10
116.635569589102
 20
888.9224676871767
 30
0.0
 11
116.3206095890914
 21
902.7304156871416
 31
0.0
  0
LINE
  5
2A3B
330
2
100
AcDbEntity
  8
KIJUN
100
AcDbLine
 10
116.3206095890914
 20
902.7304156871416
 30
0.0
 11
116.0100945891368
 21
914.8895226871486
 31
0.0
  0
LINE
  5
2A3C
330
2
100
AcDbEntity
  8
KIJUN
100
AcDbLine
 10
116.0100945891368
 20
914.8895226871486
 30
0.0
 11
115.9716135891053
 21
930.2444576871144
 31
0.0
  0
LINE
  5
2A3D
330
2
100
AcDbEntity
  8
KIJUN
100
AcDbLine
 10
115.9716135891053
 20
930.2444576871144
 30
0.0
 11
115.9396095891265
 21
943.0229436871686
 31
0.0
  0
LINE
  5
2A3E
330
2
100
AcDbEntity
  8
KIJUN
100
AcDbLine
 10
115.9396095891265
 20
943.0229436871686
 30
0.0
 11
116.4740255891061
 21
953.3310256871578
 31
0.0
  0
LINE
  5
2A3F
330
2
100
AcDbEntity
  8
KIJUN
100
AcDbLine
 10
116.4740255891061
 20
953.3310256871578
 30
0.0
 11
117.1941155891095
 21
964.2579786871447
 31
0.0
  0
LINE
  5
2A40
330
2
100
AcDbEntity
  8
KIJUN
100
AcDbLine
 10
117.1941155891095
 20
964.2579786871447
 30
0.0
 11
117.6365835891461
 21
974.0504406870986
 31
0.0
  0
LINE
  5
2A41
330
2
100
AcDbEntity
  8
KIJUN
100
AcDbLine
 10
117.6365835891461
 20
974.0504406870986
 30
0.0
 11
118.6340415891368
 21
986.0095226872017
 31
0.0
  0
LINE
  5
2A42
330
2
100
AcDbEntity
  8
KIJUN
100
AcDbLine
 10
118.6340415891368
 20
986.0095226872017
 30
0.0
 11
120.7550685891378
 21
996.8404636871218
 31
0.0
  0
LINE
  5
2A43
330
2
100
AcDbEntity
  8
KIJUN
100
AcDbLine
 10
120.7550685891378
 20
996.8404636871218
 30
0.0
 11
122.5970765891093
 21
1007.154514687174
 31
0.0
  0
LINE
  5
2A44
330
2
100
AcDbEntity
  8
KIJUN
100
AcDbLine
 10
122.5970765891093
 20
1007.154514687174
 30
0.0
 11
124.3570425891435
 21
1013.037027687179
 31
0.0
  0
LINE
  5
2A45
330
2
100
AcDbEntity
  8
KIJUN
100
AcDbLine
 10
124.3570425891435
 20
1013.037027687179
 30
0.0
 11
125.3706295891074
 21
1018.5039966872
 31
0.0
  0
LINE
  5
2A46
330
2
100
AcDbEntity
  8
KIJUN
100
AcDbLine
 10
125.3706295891074
 20
1018.5039966872
 30
0.0
 11
125.729531589101
 21
1024.483029687189
 31
0.0
  0
LINE
  5
2A47
330
2
100
AcDbEntity
  8
KIJUN
100
AcDbLine
 10
125.729531589101
 20
1024.483029687189
 30
0.0
 11
126.7380385891351
 21
1031.907449687097
 31
0.0
  0
LINE
  5
2A48
330
2
100
AcDbEntity
  8
KIJUN
100
AcDbLine
 10
126.7380385891351
 20
1031.907449687097
 30
0.0
 11
127.4656215891359
 21
1039.743476687169
 31
0.0
  0
LINE
  5
2A49
330
2
100
AcDbEntity
  8
KIJUN
100
AcDbLine
 10
127.4656215891359
 20
1039.743476687169
 30
0.0
 11
128.2640705891012
 21
1056.544941687093
 31
0.0
  0
LINE
  5
2A4A
330
2
100
AcDbEntity
  8
KIJUN
100
AcDbLine
 10
128.2640705891012
 20
1056.544941687093
 30
0.0
 11
125.0121085891355
 21
1087.136447687162
 31
0.0
  0
LINE
  5
2A4B
330
2
100
AcDbEntity
  8
KIJUN
100
AcDbLine
 10
125.0121085891355
 20
1087.136447687162
 30
0.0
 11
135.9605245890984
 21
1078.841950687124
 31
0.0
  0
LINE
  5
2A4C
330
2
100
AcDbEntity
  8
KIJUN
100
AcDbLine
 10
135.9605245890984
 20
1078.841950687124
 30
0.0
 11
143.7446085891411
 21
1065.997424687123
 31
0.0
  0
LINE
  5
2A4D
330
2
100
AcDbEntity
  8
KIJUN
100
AcDbLine
 10
143.7446085891411
 20
1065.997424687123
 30
0.0
 11
146.2865135891465
 21
1058.074529687105
 31
0.0
  0
LINE
  5
2A4E
330
2
100
AcDbEntity
  8
KIJUN
100
AcDbLine
 10
146.2865135891465
 20
1058.074529687105
 30
0.0
 11
147.7035795891193
 21
1051.589020687172
 31
0.0
  0
LINE
  5
2A4F
330
2
100
AcDbEntity
  8
KIJUN
100
AcDbLine
 10
147.7035795891193
 20
1051.589020687172
 30
0.0
 11
148.7510755891321
 21
1043.65901368717
 31
0.0
  0
LINE
  5
2A50
330
2
100
AcDbEntity
  8
KIJUN
100
AcDbLine
 10
148.7510755891321
 20
1043.65901368717
 30
0.0
 11
149.0466045890921
 21
1037.476907687155
 31
0.0
  0
LINE
  5
2A51
330
2
100
AcDbEntity
  8
KIJUN
100
AcDbLine
 10
149.0466045890921
 20
1037.476907687155
 30
0.0
 11
148.7835875891082
 21
1030.571028687113
 31
0.0
  0
LINE
  5
2A52
330
2
100
AcDbEntity
  8
KIJUN
100
AcDbLine
 10
148.7835875891082
 20
1030.571028687113
 30
0.0
 11
146.6540515891161
 21
1023.038023687174
 31
0.0
  0
LINE
  5
2A53
330
2
100
AcDbEntity
  8
KIJUN
100
AcDbLine
 10
146.6540515891161
 20
1023.038023687174
 30
0.0
 11
144.151135589133
 21
1015.605983687108
 31
0.0
  0
LINE
  5
2A54
330
2
100
AcDbEntity
  8
KIJUN
100
AcDbLine
 10
144.151135589133
 20
1015.605983687108
 30
0.0
 11
141.736103589114
 21
1010.23540768715
 31
0.0
  0
LINE
  5
2A55
330
2
100
AcDbEntity
  8
KIJUN
100
AcDbLine
 10
141.736103589114
 20
1010.23540768715
 30
0.0
 11
139.1346355890987
 21
1004.760945687144
 31
0.0
  0
LINE
  5
2A56
330
2
100
AcDbEntity
  8
KIJUN
100
AcDbLine
 10
139.1346355890987
 20
1004.760945687144
 30
0.0
 11
136.9976065891082
 21
1000.319501687098
 31
0.0
  0
LINE
  5
2A57
330
2
100
AcDbEntity
  8
KIJUN
100
AcDbLine
 10
136.9976065891082
 20
1000.319501687098
 30
0.0
 11
134.957605589107
 21
994.4354646871527
 31
0.0
  0
LINE
  5
2A58
330
2
100
AcDbEntity
  8
KIJUN
100
AcDbLine
 10
134.957605589107
 20
994.4354646871527
 30
0.0
 11
132.4506255891369
 21
988.5495226871366
 31
0.0
  0
LINE
  5
2A59
330
2
100
AcDbEntity
  8
KIJUN
100
AcDbLine
 10
132.4506255891369
 20
988.5495226871366
 30
0.0
 11
130.6971365891063
 21
980.0904336871699
 31
0.0
  0
LINE
  5
2A5A
330
2
100
AcDbEntity
  8
KIJUN
100
AcDbLine
 10
130.6971365891063
 20
980.0904336871699
 30
0.0
 11
128.9426315891301
 21
972.1469646871137
 31
0.0
  0
LINE
  5
2A5B
330
2
100
AcDbEntity
  8
KIJUN
100
AcDbLine
 10
128.9426315891301
 20
972.1469646871137
 30
0.0
 11
127.8415415891127
 21
964.3094136871097
 31
0.0
  0
LINE
  5
2A5C
330
2
100
AcDbEntity
  8
KIJUN
100
AcDbLine
 10
127.8415415891127
 20
964.3094136871097
 30
0.0
 11
127.1151015890996
 21
955.8555316871739
 31
0.0
  0
LINE
  5
2A5D
330
2
100
AcDbEntity
  8
KIJUN
100
AcDbLine
 10
127.1151015890996
 20
955.8555316871739
 30
0.0
 11
127.610020589103
 21
944.7279186871837
 31
0.0
  0
LINE
  5
2A5E
330
2
100
AcDbEntity
  8
KIJUN
100
AcDbLine
 10
127.610020589103
 20
944.7279186871837
 30
0.0
 11
127.6340235891453
 21
935.1439906871256
 31
0.0
  0
LINE
  5
2A5F
330
2
100
AcDbEntity
  8
KIJUN
100
AcDbLine
 10
127.6340235891453
 20
935.1439906871256
 30
0.0
 11
127.660566589117
 21
924.5294576871035
 31
0.0
  0
LINE
  5
2A60
330
2
100
AcDbEntity
  8
KIJUN
100
AcDbLine
 10
127.660566589117
 20
924.5294576871035
 30
0.0
 11
128.6275445891274
 21
911.446425687102
 31
0.0
  0
LINE
  5
2A61
330
2
100
AcDbEntity
  8
KIJUN
100
AcDbLine
 10
128.6275445891274
 20
911.446425687102
 30
0.0
 11
128.9380595891402
 21
899.2874456871376
 31
0.0
  0
LINE
  5
2A62
330
2
100
AcDbEntity
  8
KIJUN
100
AcDbLine
 10
128.9380595891402
 20
899.2874456871376
 30
0.0
 11
129.5225135891437
 21
889.6029336871087
 31
0.0
  0
LINE
  5
2A63
330
2
100
AcDbEntity
  8
KIJUN
100
AcDbLine
 10
129.5225135891437
 20
889.6029336871087
 30
0.0
 11
130.6755465891315
 21
876.8299086871715
 31
0.0
  0
LINE
  5
2A64
330
2
100
AcDbEntity
  8
KIJUN
100
AcDbLine
 10
130.6755465891315
 20
876.8299086871715
 30
0.0
 11
131.0675955891406
 21
869.411965687143
 31
0.0
  0
LINE
  5
2A65
330
2
100
AcDbEntity
  8
KIJUN
100
AcDbLine
 10
131.0675955891406
 20
869.411965687143
 30
0.0
 11
131.6416355891329
 21
864.0559946871597
 31
0.0
  0
LINE
  5
2A66
330
2
100
AcDbEntity
  8
KIJUN
100
AcDbLine
 10
131.6416355891329
 20
864.0559946871597
 30
0.0
 11
131.6535735891279
 21
859.212468687178
 31
0.0
  0
LINE
  5
2A67
330
2
100
AcDbEntity
  8
KIJUN
100
AcDbLine
 10
92.9185735890992
 20
856.7994686871479
 30
0.0
 11
94.12405758911109
 21
853.2899506871418
 31
0.0
  0
LINE
  5
2A68
330
2
100
AcDbEntity
  8
KIJUN
100
AcDbLine
 10
94.12405758911109
 20
853.2899506871418
 30
0.0
 11
96.73657458911248
 21
852.2465186871215
 31
0.0
  0
LINE
  5
2A69
330
2
100
AcDbEntity
  8
KIJUN
100
AcDbLine
 10
96.73657458911248
 20
852.2465186871215
 30
0.0
 11
99.63103158909371
 21
851.9234306871316
 31
0.0
  0
LINE
  5
2A6A
330
2
100
AcDbEntity
  8
KIJUN
100
AcDbLine
 10
99.63103158909371
 20
851.9234306871316
 30
0.0
 11
102.2471045891493
 21
852.2199756871437
 31
0.0
  0
LINE
  5
2A6B
330
2
100
AcDbEntity
  8
KIJUN
100
AcDbLine
 10
102.2471045891493
 20
852.2199756871437
 30
0.0
 11
104.5870795891155
 21
854.1670126870977
 31
0.0
  0
LINE
  5
2A6C
330
2
100
AcDbEntity
  8
KIJUN
100
AcDbLine
 10
104.5870795891155
 20
854.1670126870977
 30
0.0
 11
106.0915215890986
 21
858.2819396871437
 31
0.0
  0
LINE
  5
2A6D
330
2
100
AcDbEntity
  8
KIJUN
100
AcDbLine
 10
106.0915215890986
 20
858.2819396871437
 30
0.0
 11
106.673562589151
 21
866.9354656870947
 31
0.0
  0
LINE
  5
2A6E
330
2
100
AcDbEntity
  8
KIJUN
100
AcDbLine
 10
106.673562589151
 20
866.9354656870947
 30
0.0
 11
106.9770925891048
 21
876.3120026871789
 31
0.0
  0
LINE
  5
2A6F
330
2
100
AcDbEntity
  8
KIJUN
100
AcDbLine
 10
106.9770925891048
 20
876.3120026871789
 30
0.0
 11
107.9365775891187
 21
886.5094676871397
 31
0.0
  0
LINE
  5
2A70
330
2
100
AcDbEntity
  8
KIJUN
100
AcDbLine
 10
107.9365775891187
 20
886.5094676871397
 30
0.0
 11
108.2515375891293
 21
900.317415687105
 31
0.0
  0
LINE
  5
2A71
330
2
100
AcDbEntity
  8
KIJUN
100
AcDbLine
 10
108.2515375891293
 20
900.317415687105
 30
0.0
 11
108.5620525891413
 21
912.4765226871188
 31
0.0
  0
LINE
  5
2A72
330
2
100
AcDbEntity
  8
KIJUN
100
AcDbLine
 10
108.5620525891413
 20
912.4765226871188
 30
0.0
 11
108.6005335891218
 21
927.8314576870926
 31
0.0
  0
LINE
  5
2A73
330
2
100
AcDbEntity
  8
KIJUN
100
AcDbLine
 10
108.6005335891218
 20
927.8314576870926
 30
0.0
 11
108.6325375890933
 21
940.60994368714
 31
0.0
  0
LINE
  5
2A74
330
2
100
AcDbEntity
  8
KIJUN
100
AcDbLine
 10
108.6325375890933
 20
940.60994368714
 30
0.0
 11
108.0981215891202
 21
950.9180256871276
 31
0.0
  0
LINE
  5
2A75
330
2
100
AcDbEntity
  8
KIJUN
100
AcDbLine
 10
108.0981215891202
 20
950.9180256871276
 30
0.0
 11
107.3780315891113
 21
961.8449786871078
 31
0.0
  0
LINE
  5
2A76
330
2
100
AcDbEntity
  8
KIJUN
100
AcDbLine
 10
107.3780315891113
 20
961.8449786871078
 30
0.0
 11
106.9355635891393
 21
971.6374406871857
 31
0.0
  0
LINE
  5
2A77
330
2
100
AcDbEntity
  8
KIJUN
100
AcDbLine
 10
106.9355635891393
 20
971.6374406871857
 30
0.0
 11
105.9381055891404
 21
983.5965226871726
 31
0.0
  0
LINE
  5
2A78
330
2
100
AcDbEntity
  8
KIJUN
100
AcDbLine
 10
105.9381055891404
 20
983.5965226871726
 30
0.0
 11
103.8170785891402
 21
994.4274636870996
 31
0.0
  0
LINE
  5
2A79
330
2
100
AcDbEntity
  8
KIJUN
100
AcDbLine
 10
103.8170785891402
 20
994.4274636870996
 30
0.0
 11
101.9750705891115
 21
1004.741514687152
 31
0.0
  0
LINE
  5
2A7A
330
2
100
AcDbEntity
  8
KIJUN
100
AcDbLine
 10
101.9750705891115
 20
1004.741514687152
 30
0.0
 11
100.2151045891355
 21
1010.624027687149
 31
0.0
  0
LINE
  5
2A7B
330
2
100
AcDbEntity
  8
KIJUN
100
AcDbLine
 10
100.2151045891355
 20
1010.624027687149
 30
0.0
 11
99.20151758911243
 21
1016.090996687164
 31
0.0
  0
LINE
  5
2A7C
330
2
100
AcDbEntity
  8
KIJUN
100
AcDbLine
 10
99.20151758911243
 20
1016.090996687164
 30
0.0
 11
98.84261558912795
 21
1022.07002968716
 31
0.0
  0
LINE
  5
2A7D
330
2
100
AcDbEntity
  8
KIJUN
100
AcDbLine
 10
98.84261558912795
 20
1022.07002968716
 30
0.0
 11
97.83410858914386
 21
1029.494449687185
 31
0.0
  0
LINE
  5
2A7E
330
2
100
AcDbEntity
  8
KIJUN
100
AcDbLine
 10
97.83410858914386
 20
1029.494449687185
 30
0.0
 11
97.10652558915036
 21
1037.330476687139
 31
0.0
  0
LINE
  5
2A7F
330
2
100
AcDbEntity
  8
KIJUN
100
AcDbLine
 10
97.10652558915036
 20
1037.330476687139
 30
0.0
 11
96.30807658912681
 21
1054.131941687179
 31
0.0
  0
LINE
  5
2A80
330
2
100
AcDbEntity
  8
KIJUN
100
AcDbLine
 10
96.30807658912681
 20
1054.131941687179
 30
0.0
 11
99.56003858914346
 21
1084.723447687133
 31
0.0
  0
LINE
  5
2A81
330
2
100
AcDbEntity
  8
KIJUN
100
AcDbLine
 10
99.56003858914346
 20
1084.723447687133
 30
0.0
 11
88.61162258912235
 21
1076.428950687093
 31
0.0
  0
LINE
  5
2A82
330
2
100
AcDbEntity
  8
KIJUN
100
AcDbLine
 10
88.61162258912235
 20
1076.428950687093
 30
0.0
 11
80.82753858914429
 21
1063.5844246871
 31
0.0
  0
LINE
  5
2A83
330
2
100
AcDbEntity
  8
KIJUN
100
AcDbLine
 10
80.82753858914429
 20
1063.5844246871
 30
0.0
 11
78.28563358913334
 21
1055.661529687192
 31
0.0
  0
LINE
  5
2A84
330
2
100
AcDbEntity
  8
KIJUN
100
AcDbLine
 10
78.28563358913334
 20
1055.661529687192
 30
0.0
 11
76.86856758910153
 21
1049.17602068715
 31
0.0
  0
LINE
  5
2A85
330
2
100
AcDbEntity
  8
KIJUN
100
AcDbLine
 10
76.86856758910153
 20
1049.17602068715
 30
0.0
 11
75.82107158908684
 21
1041.246013687147
 31
0.0
  0
LINE
  5
2A86
330
2
100
AcDbEntity
  8
KIJUN
100
AcDbLine
 10
75.82107158908684
 20
1041.246013687147
 30
0.0
 11
75.52554258912778
 21
1035.063907687132
 31
0.0
  0
LINE
  5
2A87
330
2
100
AcDbEntity
  8
KIJUN
100
AcDbLine
 10
75.52554258912778
 20
1035.063907687132
 30
0.0
 11
75.78855958911072
 21
1028.1580286872
 31
0.0
  0
LINE
  5
2A88
330
2
100
AcDbEntity
  8
KIJUN
100
AcDbLine
 10
75.78855958911072
 20
1028.1580286872
 30
0.0
 11
77.91809558910472
 21
1020.625023687137
 31
0.0
  0
LINE
  5
2A89
330
2
100
AcDbEntity
  8
KIJUN
100
AcDbLine
 10
77.91809558910472
 20
1020.625023687137
 30
0.0
 11
80.42101158913784
 21
1013.192983687188
 31
0.0
  0
LINE
  5
2A8A
330
2
100
AcDbEntity
  8
KIJUN
100
AcDbLine
 10
80.42101158913784
 20
1013.192983687188
 30
0.0
 11
82.83604358910588
 21
1007.822407687122
 31
0.0
  0
LINE
  5
2A8B
330
2
100
AcDbEntity
  8
KIJUN
100
AcDbLine
 10
82.83604358910588
 20
1007.822407687122
 30
0.0
 11
85.43751158912119
 21
1002.347945687108
 31
0.0
  0
LINE
  5
2A8C
330
2
100
AcDbEntity
  8
KIJUN
100
AcDbLine
 10
85.43751158912119
 20
1002.347945687108
 30
0.0
 11
87.57454058911253
 21
997.9065016871777
 31
0.0
  0
LINE
  5
2A8D
330
2
100
AcDbEntity
  8
KIJUN
100
AcDbLine
 10
87.57454058911253
 20
997.9065016871777
 30
0.0
 11
89.61454158911283
 21
992.0224646871156
 31
0.0
  0
LINE
  5
2A8E
330
2
100
AcDbEntity
  8
KIJUN
100
AcDbLine
 10
89.61454158911283
 20
992.0224646871156
 30
0.0
 11
92.12152158914113
 21
986.1365226871148
 31
0.0
  0
LINE
  5
2A8F
330
2
100
AcDbEntity
  8
KIJUN
100
AcDbLine
 10
92.12152158914113
 20
986.1365226871148
 30
0.0
 11
93.87501058911448
 21
977.6774336871408
 31
0.0
  0
LINE
  5
2A90
330
2
100
AcDbEntity
  8
KIJUN
100
AcDbLine
 10
93.87501058911448
 20
977.6774336871408
 30
0.0
 11
95.62951558909707
 21
969.7339646870918
 31
0.0
  0
LINE
  5
2A91
330
2
100
AcDbEntity
  8
KIJUN
100
AcDbLine
 10
95.62951558909707
 20
969.7339646870918
 30
0.0
 11
96.73060558911538
 21
961.8964136871968
 31
0.0
  0
LINE
  5
2A92
330
2
100
AcDbEntity
  8
KIJUN
100
AcDbLine
 10
96.73060558911538
 20
961.8964136871968
 30
0.0
 11
97.45704558912848
 21
953.4425316871368
 31
0.0
  0
LINE
  5
2A93
330
2
100
AcDbEntity
  8
KIJUN
100
AcDbLine
 10
97.45704558912848
 20
953.4425316871368
 30
0.0
 11
96.962126589116
 21
942.3149186871551
 31
0.0
  0
LINE
  5
2A94
330
2
100
AcDbEntity
  8
KIJUN
100
AcDbLine
 10
96.962126589116
 20
942.3149186871551
 30
0.0
 11
96.9381235891401
 21
932.7309906870887
 31
0.0
  0
LINE
  5
2A95
330
2
100
AcDbEntity
  8
KIJUN
100
AcDbLine
 10
96.9381235891401
 20
932.7309906870887
 30
0.0
 11
96.91158058910469
 21
922.1164576871906
 31
0.0
  0
LINE
  5
2A96
330
2
100
AcDbEntity
  8
KIJUN
100
AcDbLine
 10
96.91158058910469
 20
922.1164576871906
 30
0.0
 11
95.94460258908521
 21
909.0334256871885
 31
0.0
  0
LINE
  5
2A97
330
2
100
AcDbEntity
  8
KIJUN
100
AcDbLine
 10
95.94460258908521
 20
909.0334256871885
 30
0.0
 11
95.63408758913784
 21
896.8744456871158
 31
0.0
  0
LINE
  5
2A98
330
2
100
AcDbEntity
  8
KIJUN
100
AcDbLine
 10
95.63408758913784
 20
896.8744456871158
 30
0.0
 11
95.04963358914256
 21
887.1899336871889
 31
0.0
  0
LINE
  5
2A99
330
2
100
AcDbEntity
  8
KIJUN
100
AcDbLine
 10
95.04963358914256
 20
887.1899336871889
 30
0.0
 11
93.8966005890893
 21
874.4169086871348
 31
0.0
  0
LINE
  5
2A9A
330
2
100
AcDbEntity
  8
KIJUN
100
AcDbLine
 10
93.8966005890893
 20
874.4169086871348
 30
0.0
 11
93.50455158914565
 21
866.9989656871125
 31
0.0
  0
LINE
  5
2A9B
330
2
100
AcDbEntity
  8
KIJUN
100
AcDbLine
 10
93.50455158914565
 20
866.9989656871125
 30
0.0
 11
92.9305115890952
 21
861.6429946871305
 31
0.0
  0
LINE
  5
2A9C
330
2
100
AcDbEntity
  8
KIJUN
100
AcDbLine
 10
92.9305115890952
 20
861.6429946871305
 30
0.0
 11
92.9185735890992
 21
856.7994686871479
 31
0.0
  0
LINE
  5
2A9D
330
2
100
AcDbEntity
  8
KIJUN
100
AcDbLine
 10
156.9420675891283
 20
961.6474936871259
 30
0.0
 11
158.048618589089
 21
967.3209646871709
 31
0.0
  0
LINE
  5
2A9E
330
2
100
AcDbEntity
  8
KIJUN
100
AcDbLine
 10
158.048618589089
 20
967.3209646871709
 30
0.0
 11
158.7825515891004
 21
972.6830316871296
 31
0.0
  0
LINE
  5
2A9F
330
2
100
AcDbEntity
  8
KIJUN
100
AcDbLine
 10
158.7825515891004
 20
972.6830316871296
 30
0.0
 11
156.8976175890998
 21
979.4754996871356
 31
0.0
  0
LINE
  5
2AA0
330
2
100
AcDbEntity
  8
KIJUN
100
AcDbLine
 10
156.8976175890998
 20
979.4754996871356
 30
0.0
 11
153.8031355891421
 21
984.4074176871309
 31
0.0
  0
LINE
  5
2AA1
330
2
100
AcDbEntity
  8
KIJUN
100
AcDbLine
 10
153.8031355891421
 20
984.4074176871309
 30
0.0
 11
149.8910275891462
 21
979.9569566871527
 31
0.0
  0
LINE
  5
2AA2
330
2
100
AcDbEntity
  8
KIJUN
100
AcDbLine
 10
149.8910275891462
 20
979.9569566871527
 30
0.0
 11
146.8185165891186
 21
976.1294306871368
 31
0.0
  0
LINE
  5
2AA3
330
2
100
AcDbEntity
  8
KIJUN
100
AcDbLine
 10
146.8185165891186
 20
976.1294306871368
 30
0.0
 11
143.3711015891144
 21
972.917981687091
 31
0.0
  0
LINE
  5
2AA4
330
2
100
AcDbEntity
  8
KIJUN
100
AcDbLine
 10
143.3711015891144
 20
972.917981687091
 30
0.0
 11
141.6111355891376
 21
967.138465687176
 31
0.0
  0
LINE
  5
2AA5
330
2
100
AcDbEntity
  8
KIJUN
100
AcDbLine
 10
141.6111355891376
 20
967.138465687176
 30
0.0
 11
140.1350145891024
 21
959.7115056871066
 31
0.0
  0
LINE
  5
2AA6
330
2
100
AcDbEntity
  8
KIJUN
100
AcDbLine
 10
140.1350145891024
 20
959.7115056871066
 30
0.0
 11
139.6000905891173
 21
949.506420687098
 31
0.0
  0
LINE
  5
2AA7
330
2
100
AcDbEntity
  8
KIJUN
100
AcDbLine
 10
139.6000905891173
 20
949.506420687098
 30
0.0
 11
139.6310785891014
 21
937.2429196870887
 31
0.0
  0
LINE
  5
2AA8
330
2
100
AcDbEntity
  8
KIJUN
100
AcDbLine
 10
139.6310785891014
 20
937.2429196870887
 30
0.0
 11
139.9405775891123
 21
925.3934386871346
 31
0.0
  0
LINE
  5
2AA9
330
2
100
AcDbEntity
  8
KIJUN
100
AcDbLine
 10
139.9405775891123
 20
925.3934386871346
 30
0.0
 11
140.6256155891437
 21
912.9269916871505
 31
0.0
  0
LINE
  5
2AAA
330
2
100
AcDbEntity
  8
KIJUN
100
AcDbLine
 10
140.6256155891437
 20
912.9269916871505
 30
0.0
 11
140.9450205891103
 21
897.2644626871211
 31
0.0
  0
LINE
  5
2AAB
330
2
100
AcDbEntity
  8
KIJUN
100
AcDbLine
 10
140.9450205891103
 20
897.2644626871211
 30
0.0
 11
142.1070705891457
 21
880.8845106871249
 31
0.0
  0
LINE
  5
2AAC
330
2
100
AcDbEntity
  8
KIJUN
100
AcDbLine
 10
142.1070705891457
 20
880.8845106871249
 30
0.0
 11
143.6405955891
 21
865.2274426870958
 31
0.0
  0
LINE
  5
2AAD
330
2
100
AcDbEntity
  8
KIJUN
100
AcDbLine
 10
143.6405955891
 20
865.2274426870958
 30
0.0
 11
145.0575345891461
 21
858.8449306871497
 31
0.0
  0
LINE
  5
2AAE
330
2
100
AcDbEntity
  8
KIJUN
100
AcDbLine
 10
145.0575345891461
 20
858.8449306871497
 30
0.0
 11
148.8910295891023
 21
857.2145046871979
 31
0.0
  0
LINE
  5
2AAF
330
2
100
AcDbEntity
  8
KIJUN
100
AcDbLine
 10
148.8910295891023
 20
857.2145046871979
 30
0.0
 11
153.5590415890888
 21
857.8554736871538
 31
0.0
  0
LINE
  5
2AB0
330
2
100
AcDbEntity
  8
KIJUN
100
AcDbLine
 10
153.5590415890888
 20
857.8554736871538
 30
0.0
 11
155.3230715891163
 21
862.0895266871107
 31
0.0
  0
LINE
  5
2AB1
330
2
100
AcDbEntity
  8
KIJUN
100
AcDbLine
 10
155.3230715891163
 20
862.0895266871107
 30
0.0
 11
155.3165945891146
 21
864.6654676872076
 31
0.0
  0
LINE
  5
2AB2
330
2
100
AcDbEntity
  8
KIJUN
100
AcDbLine
 10
155.3165945891146
 20
864.6654676872076
 30
0.0
 11
155.0205575891
 21
871.0534406871397
 31
0.0
  0
LINE
  5
2AB3
330
2
100
AcDbEntity
  8
KIJUN
100
AcDbLine
 10
155.0205575891
 20
871.0534406871397
 30
0.0
 11
154.3530455891073
 21
876.5120276870899
 31
0.0
  0
LINE
  5
2AB4
330
2
100
AcDbEntity
  8
KIJUN
100
AcDbLine
 10
154.3530455891073
 20
876.5120276870899
 30
0.0
 11
154.05751658909
 21
882.5910096871908
 31
0.0
  0
LINE
  5
2AB5
330
2
100
AcDbEntity
  8
KIJUN
100
AcDbLine
 10
154.05751658909
 20
882.5910096871908
 30
0.0
 11
153.4805555891494
 21
889.2864496871426
 31
0.0
  0
LINE
  5
2AB6
330
2
100
AcDbEntity
  8
KIJUN
100
AcDbLine
 10
153.4805555891494
 20
889.2864496871426
 30
0.0
 11
153.1836295891175
 21
895.9839216871055
 31
0.0
  0
LINE
  5
2AB7
330
2
100
AcDbEntity
  8
KIJUN
100
AcDbLine
 10
153.1836295891175
 20
895.9839216871055
 30
0.0
 11
152.602096589128
 21
904.3284566871028
 31
0.0
  0
LINE
  5
2AB8
330
2
100
AcDbEntity
  8
KIJUN
100
AcDbLine
 10
152.602096589128
 20
904.3284566871028
 30
0.0
 11
152.3026305891021
 21
912.0560256871847
 31
0.0
  0
LINE
  5
2AB9
330
2
100
AcDbEntity
  8
KIJUN
100
AcDbLine
 10
152.3026305891021
 20
912.0560256871847
 30
0.0
 11
151.908041589106
 21
920.4014496871335
 31
0.0
  0
LINE
  5
2ABA
330
2
100
AcDbEntity
  8
KIJUN
100
AcDbLine
 10
151.908041589106
 20
920.4014496871335
 30
0.0
 11
151.6095915891324
 21
927.7170306871576
 31
0.0
  0
LINE
  5
2ABB
330
2
100
AcDbEntity
  8
KIJUN
100
AcDbLine
 10
151.6095915891324
 20
927.7170306871576
 30
0.0
 11
151.5920655890936
 21
934.8275066871737
 31
0.0
  0
LINE
  5
2ABC
330
2
100
AcDbEntity
  8
KIJUN
100
AcDbLine
 10
151.5920655890936
 20
934.8275066871737
 30
0.0
 11
151.5730155891119
 21
942.4534756871681
 31
0.0
  0
LINE
  5
2ABD
330
2
100
AcDbEntity
  8
KIJUN
100
AcDbLine
 10
151.5730155891119
 20
942.4534756871681
 30
0.0
 11
151.8385725890889
 21
948.226006687134
 31
0.0
  0
LINE
  5
2ABE
330
2
100
AcDbEntity
  8
KIJUN
100
AcDbLine
 10
151.8385725890889
 20
948.226006687134
 30
0.0
 11
153.0406275891059
 21
953.0749936871165
 31
0.0
  0
LINE
  5
2ABF
330
2
100
AcDbEntity
  8
KIJUN
100
AcDbLine
 10
153.0406275891059
 20
953.0749936871165
 30
0.0
 11
155.2730335890942
 21
956.7959666870898
 31
0.0
  0
LINE
  5
2AC0
330
2
100
AcDbEntity
  8
KIJUN
100
AcDbLine
 10
155.2730335890942
 20
956.7959666870898
 30
0.0
 11
156.9420675891283
 21
961.6474936871259
 31
0.0
  0
LINE
  5
2AC1
330
2
100
AcDbEntity
  8
KIJUN
100
AcDbLine
 10
150.0685735891295
 20
978.338468687196
 30
0.0
 11
152.1140355891316
 21
981.9554286871808
 31
0.0
  0
LINE
  5
2AC2
330
2
100
AcDbEntity
  8
KIJUN
100
AcDbLine
 10
152.1140355891316
 20
981.9554286871808
 30
0.0
 11
153.7825615891047
 21
987.0129496871907
 31
0.0
  0
LINE
  5
2AC3
330
2
100
AcDbEntity
  8
KIJUN
100
AcDbLine
 10
153.7825615891047
 20
987.0129496871907
 30
0.0
 11
154.0450705890966
 21
994.124949687141
 31
0.0
  0
LINE
  5
2AC4
330
2
100
AcDbEntity
  8
KIJUN
100
AcDbLine
 10
154.0450705890966
 20
994.124949687141
 30
0.0
 11
153.4691255891434
 21
1000.511525687182
 31
0.0
  0
LINE
  5
2AC5
330
2
100
AcDbEntity
  8
KIJUN
100
AcDbLine
 10
153.4691255891434
 20
1000.511525687182
 30
0.0
 11
152.6005725891286
 21
1011.533982687158
 31
0.0
  0
LINE
  5
2AC6
330
2
100
AcDbEntity
  8
KIJUN
100
AcDbLine
 10
152.6005725891286
 20
1011.533982687158
 30
0.0
 11
147.9860275891019
 21
1026.763949687085
 31
0.0
  0
LINE
  5
2AC7
330
2
100
AcDbEntity
  8
KIJUN
100
AcDbLine
 10
147.9860275891019
 20
1026.763949687085
 30
0.0
 11
143.4426025891212
 21
1013.550996687113
 31
0.0
  0
LINE
  5
2AC8
330
2
100
AcDbEntity
  8
KIJUN
100
AcDbLine
 10
143.4426025891212
 20
1013.550996687113
 30
0.0
 11
138.7960535891156
 21
1004.15045668711
 31
0.0
  0
LINE
  5
2AC9
330
2
100
AcDbEntity
  8
KIJUN
100
AcDbLine
 10
138.7960535891156
 20
1004.15045668711
 30
0.0
 11
135.2665965891187
 21
996.3014756871658
 31
0.0
  0
LINE
  5
2ACA
330
2
100
AcDbEntity
  8
KIJUN
100
AcDbLine
 10
135.2665965891187
 20
996.3014756871658
 30
0.0
 11
132.1096305890883
 21
988.8665146871449
 31
0.0
  0
LINE
  5
2ACB
330
2
100
AcDbEntity
  8
KIJUN
100
AcDbLine
 10
132.1096305890883
 20
988.8665146871449
 30
0.0
 11
130.7260925891519
 21
981.8519236871377
 31
0.0
  0
LINE
  5
2ACC
330
2
100
AcDbEntity
  8
KIJUN
100
AcDbLine
 10
130.7260925891519
 20
981.8519236871377
 30
0.0
 11
129.2490825890913
 21
974.9404566871687
 31
0.0
  0
LINE
  5
2ACD
330
2
100
AcDbEntity
  8
KIJUN
100
AcDbLine
 10
129.2490825890913
 20
974.9404566871687
 30
0.0
 11
127.5005465891213
 21
964.5234086871301
 31
0.0
  0
LINE
  5
2ACE
330
2
100
AcDbEntity
  8
KIJUN
100
AcDbLine
 10
127.5005465891213
 20
964.5234086871301
 30
0.0
 11
127.151550589135
 21
954.7314546871007
 31
0.0
  0
LINE
  5
2ACF
330
2
100
AcDbEntity
  8
KIJUN
100
AcDbLine
 10
127.151550589135
 20
954.7314546871007
 30
0.0
 11
127.3660535891017
 21
943.7059496871457
 31
0.0
  0
LINE
  5
2AD0
330
2
100
AcDbEntity
  8
KIJUN
100
AcDbLine
 10
127.3660535891017
 20
943.7059496871457
 30
0.0
 11
127.3951365891239
 21
932.1639356870967
 31
0.0
  0
LINE
  5
2AD1
330
2
100
AcDbEntity
  8
KIJUN
100
AcDbLine
 10
127.3951365891239
 20
932.1639356870967
 30
0.0
 11
127.9835275891296
 21
920.9339606871017
 31
0.0
  0
LINE
  5
2AD2
330
2
100
AcDbEntity
  8
KIJUN
100
AcDbLine
 10
127.9835275891296
 20
920.9339606871017
 30
0.0
 11
128.6631045891022
 21
910.6314666871567
 31
0.0
  0
LINE
  5
2AD3
330
2
100
AcDbEntity
  8
KIJUN
100
AcDbLine
 10
128.6631045891022
 20
910.6314666871567
 30
0.0
 11
128.9715875891183
 21
899.1939736871447
 31
0.0
  0
LINE
  5
2AD4
330
2
100
AcDbEntity
  8
KIJUN
100
AcDbLine
 10
128.9715875891183
 20
899.1939736871447
 30
0.0
 11
129.8490305891378
 21
884.4614656870858
 31
0.0
  0
LINE
  5
2AD5
330
2
100
AcDbEntity
  8
KIJUN
100
AcDbLine
 10
129.8490305891378
 20
884.4614656870858
 30
0.0
 11
131.0985835891174
 21
870.3494796871186
 31
0.0
  0
LINE
  5
2AD6
330
2
100
AcDbEntity
  8
KIJUN
100
AcDbLine
 10
131.0985835891174
 20
870.3494796871186
 30
0.0
 11
131.67605258912
 21
863.5504076871816
 31
0.0
  0
LINE
  5
2AD7
330
2
100
AcDbEntity
  8
KIJUN
100
AcDbLine
 10
131.67605258912
 20
863.5504076871816
 30
0.0
 11
132.2485685891129
 21
858.8124186871157
 31
0.0
  0
LINE
  5
2AD8
330
2
100
AcDbEntity
  8
KIJUN
100
AcDbLine
 10
132.2485685891129
 20
858.8124186871157
 30
0.0
 11
134.0301245891219
 21
855.9359956871796
 31
0.0
  0
LINE
  5
2AD9
330
2
100
AcDbEntity
  8
KIJUN
100
AcDbLine
 10
134.0301245891219
 20
855.9359956871796
 30
0.0
 11
136.649626589116
 21
854.2994736871207
 31
0.0
  0
LINE
  5
2ADA
330
2
100
AcDbEntity
  8
KIJUN
100
AcDbLine
 10
136.649626589116
 20
854.2994736871207
 30
0.0
 11
139.8265315891381
 21
853.6964776870828
 31
0.0
  0
LINE
  5
2ADB
330
2
100
AcDbEntity
  8
KIJUN
100
AcDbLine
 10
139.8265315891381
 20
853.6964776870828
 30
0.0
 11
142.1566005891059
 21
855.6659936871387
 31
0.0
  0
LINE
  5
2ADC
330
2
100
AcDbEntity
  8
KIJUN
100
AcDbLine
 10
142.1566005891059
 20
855.6659936871387
 30
0.0
 11
143.9245675891347
 21
858.2504436871035
 31
0.0
  0
LINE
  5
2ADD
330
2
100
AcDbEntity
  8
KIJUN
100
AcDbLine
 10
143.9245675891347
 20
858.2504436871035
 30
0.0
 11
144.4795575891462
 21
860.4174446871416
 31
0.0
  0
LINE
  5
2ADE
330
2
100
AcDbEntity
  8
KIJUN
100
AcDbLine
 10
144.4795575891462
 20
860.4174446871416
 30
0.0
 11
143.3396055891339
 21
868.1409496871147
 31
0.0
  0
LINE
  5
2ADF
330
2
100
AcDbEntity
  8
KIJUN
100
AcDbLine
 10
143.3396055891339
 20
868.1409496871147
 30
0.0
 11
142.6646005891002
 21
876.4849766871725
 31
0.0
  0
LINE
  5
2AE0
330
2
100
AcDbEntity
  8
KIJUN
100
AcDbLine
 10
142.6646005891002
 20
876.4849766871725
 30
0.0
 11
141.8035405891346
 21
884.8284956871736
 31
0.0
  0
LINE
  5
2AE1
330
2
100
AcDbEntity
  8
KIJUN
100
AcDbLine
 10
141.8035405891346
 20
884.8284956871736
 30
0.0
 11
141.506614589101
 21
891.5254596871836
 31
0.0
  0
LINE
  5
2AE2
330
2
100
AcDbEntity
  8
KIJUN
100
AcDbLine
 10
141.506614589101
 20
891.5254596871836
 30
0.0
 11
141.2015605890906
 21
901.4174896871359
 31
0.0
  0
LINE
  5
2AE3
330
2
100
AcDbEntity
  8
KIJUN
100
AcDbLine
 10
141.2015605890906
 20
901.4174896871359
 30
0.0
 11
140.9010785891355
 21
909.4539226871297
 31
0.0
  0
LINE
  5
2AE4
330
2
100
AcDbEntity
  8
KIJUN
100
AcDbLine
 10
140.9010785891355
 20
909.4539226871297
 30
0.0
 11
140.2170565890978
 21
921.6109976871466
 31
0.0
  0
LINE
  5
2AE5
330
2
100
AcDbEntity
  8
KIJUN
100
AcDbLine
 10
140.2170565890978
 20
921.6109976871466
 30
0.0
 11
139.9116215891322
 21
931.6060246871948
 31
0.0
  0
LINE
  5
2AE6
330
2
100
AcDbEntity
  8
KIJUN
100
AcDbLine
 10
139.9116215891322
 20
931.6060246871948
 30
0.0
 11
139.6035195891295
 21
942.7345266871288
 31
0.0
  0
LINE
  5
2AE7
330
2
100
AcDbEntity
  8
KIJUN
100
AcDbLine
 10
139.6035195891295
 20
942.7345266871288
 30
0.0
 11
139.8605675891144
 21
952.0104796871187
 31
0.0
  0
LINE
  5
2AE8
330
2
100
AcDbEntity
  8
KIJUN
100
AcDbLine
 10
139.8605675891144
 20
952.0104796871187
 30
0.0
 11
140.7681095890998
 21
962.6294576871318
 31
0.0
  0
LINE
  5
2AE9
330
2
100
AcDbEntity
  8
KIJUN
100
AcDbLine
 10
140.7681095890998
 20
962.6294576871318
 30
0.0
 11
142.4330795891487
 21
969.0269556871808
 31
0.0
  0
LINE
  5
2AEA
330
2
100
AcDbEntity
  8
KIJUN
100
AcDbLine
 10
142.4330795891487
 20
969.0269556871808
 30
0.0
 11
144.4766365891405
 21
973.5710156870869
 31
0.0
  0
LINE
  5
2AEB
330
2
100
AcDbEntity
  8
KIJUN
100
AcDbLine
 10
144.4766365891405
 20
973.5710156870869
 30
0.0
 11
148.0175235891351
 21
976.7829726871948
 31
0.0
  0
LINE
  5
2AEC
330
2
100
AcDbEntity
  8
KIJUN
100
AcDbLine
 10
148.0175235891351
 20
976.7829726871948
 30
0.0
 11
150.0685735891295
 21
978.338468687196
 31
0.0
  0
LINE
  5
2AED
330
2
100
AcDbEntity
  8
KIJUN
100
AcDbLine
 10
74.50357358909832
 20
975.9254686871591
 30
0.0
 11
72.45811158908918
 21
979.542428687159
 31
0.0
  0
LINE
  5
2AEE
330
2
100
AcDbEntity
  8
KIJUN
100
AcDbLine
 10
72.45811158908918
 20
979.542428687159
 30
0.0
 11
70.78958558911608
 21
984.5999496871677
 31
0.0
  0
LINE
  5
2AEF
330
2
100
AcDbEntity
  8
KIJUN
100
AcDbLine
 10
70.78958558911608
 20
984.5999496871677
 30
0.0
 11
70.52707658913141
 21
991.7119496871107
 31
0.0
  0
LINE
  5
2AF0
330
2
100
AcDbEntity
  8
KIJUN
100
AcDbLine
 10
70.52707658913141
 20
991.7119496871107
 30
0.0
 11
71.10302158913555
 21
998.0985256871599
 31
0.0
  0
LINE
  5
2AF1
330
2
100
AcDbEntity
  8
KIJUN
100
AcDbLine
 10
71.10302158913555
 20
998.0985256871599
 30
0.0
 11
71.97157458909214
 21
1009.120982687122
 31
0.0
  0
LINE
  5
2AF2
330
2
100
AcDbEntity
  8
KIJUN
100
AcDbLine
 10
71.97157458909214
 20
1009.120982687122
 30
0.0
 11
76.58611958911706
 21
1024.350949687172
 31
0.0
  0
LINE
  5
2AF3
330
2
100
AcDbEntity
  8
KIJUN
100
AcDbLine
 10
76.58611958911706
 20
1024.350949687172
 30
0.0
 11
81.12954458910781
 21
1011.137996687198
 31
0.0
  0
LINE
  5
2AF4
330
2
100
AcDbEntity
  8
KIJUN
100
AcDbLine
 10
81.12954458910781
 20
1011.137996687198
 30
0.0
 11
85.77609358910422
 21
1001.737456687197
 31
0.0
  0
LINE
  5
2AF5
330
2
100
AcDbEntity
  8
KIJUN
100
AcDbLine
 10
85.77609358910422
 20
1001.737456687197
 30
0.0
 11
89.3055505891084
 21
993.8884756871289
 31
0.0
  0
LINE
  5
2AF6
330
2
100
AcDbEntity
  8
KIJUN
100
AcDbLine
 10
89.3055505891084
 20
993.8884756871289
 30
0.0
 11
92.46251658913251
 21
986.4535146871231
 31
0.0
  0
LINE
  5
2AF7
330
2
100
AcDbEntity
  8
KIJUN
100
AcDbLine
 10
92.46251658913251
 20
986.4535146871231
 30
0.0
 11
93.84605458913346
 21
979.4389236871159
 31
0.0
  0
LINE
  5
2AF8
330
2
100
AcDbEntity
  8
KIJUN
100
AcDbLine
 10
93.84605458913346
 20
979.4389236871159
 30
0.0
 11
95.32306458912945
 21
972.5274566871316
 31
0.0
  0
LINE
  5
2AF9
330
2
100
AcDbEntity
  8
KIJUN
100
AcDbLine
 10
95.32306458912945
 20
972.5274566871316
 30
0.0
 11
97.07160058910586
 21
962.1104086870996
 31
0.0
  0
LINE
  5
2AFA
330
2
100
AcDbEntity
  8
KIJUN
100
AcDbLine
 10
97.07160058910586
 20
962.1104086870996
 30
0.0
 11
97.42059658914378
 21
952.3184546871867
 31
0.0
  0
LINE
  5
2AFB
330
2
100
AcDbEntity
  8
KIJUN
100
AcDbLine
 10
97.42059658914378
 20
952.3184546871867
 30
0.0
 11
97.20609358912634
 21
941.2929496871166
 31
0.0
  0
LINE
  5
2AFC
330
2
100
AcDbEntity
  8
KIJUN
100
AcDbLine
 10
97.20609358912634
 20
941.2929496871166
 30
0.0
 11
97.17701058909506
 21
929.7509356871838
 31
0.0
  0
LINE
  5
2AFD
330
2
100
AcDbEntity
  8
KIJUN
100
AcDbLine
 10
97.17701058909506
 20
929.7509356871838
 30
0.0
 11
96.58861958909847
 21
918.5209606871955
 31
0.0
  0
LINE
  5
2AFE
330
2
100
AcDbEntity
  8
KIJUN
100
AcDbLine
 10
96.58861958909847
 20
918.5209606871955
 30
0.0
 11
95.90904258912406
 21
908.2184666871278
 31
0.0
  0
LINE
  5
2AFF
330
2
100
AcDbEntity
  8
KIJUN
100
AcDbLine
 10
95.90904258912406
 20
908.2184666871278
 30
0.0
 11
95.6005595891097
 21
896.7809736871149
 31
0.0
  0
LINE
  5
2B00
330
2
100
AcDbEntity
  8
KIJUN
100
AcDbLine
 10
95.6005595891097
 20
896.7809736871149
 30
0.0
 11
94.72311658914032
 21
882.0484656871796
 31
0.0
  0
LINE
  5
2B01
330
2
100
AcDbEntity
  8
KIJUN
100
AcDbLine
 10
94.72311658914032
 20
882.0484656871796
 30
0.0
 11
93.47356358910337
 21
867.9364796871977
 31
0.0
  0
LINE
  5
2B02
330
2
100
AcDbEntity
  8
KIJUN
100
AcDbLine
 10
93.47356358910337
 20
867.9364796871977
 30
0.0
 11
92.89609458910717
 21
861.1374076871596
 31
0.0
  0
LINE
  5
2B03
330
2
100
AcDbEntity
  8
KIJUN
100
AcDbLine
 10
92.89609458910717
 20
861.1374076871596
 30
0.0
 11
92.32357858910608
 21
856.3994186870937
 31
0.0
  0
LINE
  5
2B04
330
2
100
AcDbEntity
  8
KIJUN
100
AcDbLine
 10
92.32357858910608
 20
856.3994186870937
 30
0.0
 11
90.54202258910526
 21
853.5229956871498
 31
0.0
  0
LINE
  5
2B05
330
2
100
AcDbEntity
  8
KIJUN
100
AcDbLine
 10
90.54202258910526
 20
853.5229956871498
 30
0.0
 11
87.92252058910298
 21
851.8864736870987
 31
0.0
  0
LINE
  5
2B06
330
2
100
AcDbEntity
  8
KIJUN
100
AcDbLine
 10
87.92252058910298
 20
851.8864736870987
 30
0.0
 11
84.74561558914002
 21
851.28347768717
 31
0.0
  0
LINE
  5
2B07
330
2
100
AcDbEntity
  8
KIJUN
100
AcDbLine
 10
84.74561558914002
 20
851.28347768717
 30
0.0
 11
82.41554658911582
 21
853.2529936871087
 31
0.0
  0
LINE
  5
2B08
330
2
100
AcDbEntity
  8
KIJUN
100
AcDbLine
 10
82.41554658911582
 20
853.2529936871087
 30
0.0
 11
80.6475795890933
 21
855.8374436871906
 31
0.0
  0
LINE
  5
2B09
330
2
100
AcDbEntity
  8
KIJUN
100
AcDbLine
 10
80.6475795890933
 20
855.8374436871906
 30
0.0
 11
80.09258958913278
 21
858.0044446871056
 31
0.0
  0
LINE
  5
2B0A
330
2
100
AcDbEntity
  8
KIJUN
100
AcDbLine
 10
80.09258958913278
 20
858.0044446871056
 30
0.0
 11
81.23254158914505
 21
865.7279496870847
 31
0.0
  0
LINE
  5
2B0B
330
2
100
AcDbEntity
  8
KIJUN
100
AcDbLine
 10
81.23254158914505
 20
865.7279496870847
 30
0.0
 11
81.90754658912783
 21
874.071976687143
 31
0.0
  0
LINE
  5
2B0C
330
2
100
AcDbEntity
  8
KIJUN
100
AcDbLine
 10
81.90754658912783
 20
874.071976687143
 30
0.0
 11
82.76860658909436
 21
882.4154956871447
 31
0.0
  0
LINE
  5
2B0D
330
2
100
AcDbEntity
  8
KIJUN
100
AcDbLine
 10
82.76860658909436
 20
882.4154956871447
 30
0.0
 11
83.0655325891189
 21
889.1124596871618
 31
0.0
  0
LINE
  5
2B0E
330
2
100
AcDbEntity
  8
KIJUN
100
AcDbLine
 10
83.0655325891189
 20
889.1124596871618
 30
0.0
 11
83.3705865891302
 21
899.004489687099
 31
0.0
  0
LINE
  5
2B0F
330
2
100
AcDbEntity
  8
KIJUN
100
AcDbLine
 10
83.3705865891302
 20
899.004489687099
 30
0.0
 11
83.67106858909256
 21
907.0409226870927
 31
0.0
  0
LINE
  5
2B10
330
2
100
AcDbEntity
  8
KIJUN
100
AcDbLine
 10
83.67106858909256
 20
907.0409226870927
 30
0.0
 11
84.35509058913021
 21
919.1979976871097
 31
0.0
  0
LINE
  5
2B11
330
2
100
AcDbEntity
  8
KIJUN
100
AcDbLine
 10
84.35509058913021
 20
919.1979976871097
 30
0.0
 11
84.66052558909495
 21
929.1930246871579
 31
0.0
  0
LINE
  5
2B12
330
2
100
AcDbEntity
  8
KIJUN
100
AcDbLine
 10
84.66052558909495
 20
929.1930246871579
 30
0.0
 11
84.96862758909855
 21
940.3215266871066
 31
0.0
  0
LINE
  5
2B13
330
2
100
AcDbEntity
  8
KIJUN
100
AcDbLine
 10
84.96862758909855
 20
940.3215266871066
 30
0.0
 11
84.71157958911271
 21
949.5974796870818
 31
0.0
  0
LINE
  5
2B14
330
2
100
AcDbEntity
  8
KIJUN
100
AcDbLine
 10
84.71157958911271
 20
949.5974796870818
 30
0.0
 11
83.80403758911915
 21
960.2164576871098
 31
0.0
  0
LINE
  5
2B15
330
2
100
AcDbEntity
  8
KIJUN
100
AcDbLine
 10
83.80403758911915
 20
960.2164576871098
 30
0.0
 11
82.13906758913571
 21
966.6139556871435
 31
0.0
  0
LINE
  5
2B16
330
2
100
AcDbEntity
  8
KIJUN
100
AcDbLine
 10
82.13906758913571
 20
966.6139556871435
 30
0.0
 11
80.0955105891394
 21
971.1580156871736
 31
0.0
  0
LINE
  5
2B17
330
2
100
AcDbEntity
  8
KIJUN
100
AcDbLine
 10
80.0955105891394
 20
971.1580156871736
 30
0.0
 11
76.55462358914383
 21
974.3699726871586
 31
0.0
  0
LINE
  5
2B18
330
2
100
AcDbEntity
  8
KIJUN
100
AcDbLine
 10
76.55462358914383
 20
974.3699726871586
 30
0.0
 11
74.50357358909832
 21
975.9254686871591
 31
0.0
  0
LINE
  5
2B19
330
2
100
AcDbEntity
  8
KIJUN
100
AcDbLine
 10
67.75707958912107
 20
959.2344936871036
 30
0.0
 11
66.65052858909394
 21
964.9079646871417
 31
0.0
  0
LINE
  5
2B1A
330
2
100
AcDbEntity
  8
KIJUN
100
AcDbLine
 10
66.65052858909394
 20
964.9079646871417
 30
0.0
 11
65.91659558914898
 21
970.2700316870997
 31
0.0
  0
LINE
  5
2B1B
330
2
100
AcDbEntity
  8
KIJUN
100
AcDbLine
 10
65.91659558914898
 20
970.2700316870997
 30
0.0
 11
67.80152958910048
 21
977.0624996870997
 31
0.0
  0
LINE
  5
2B1C
330
2
100
AcDbEntity
  8
KIJUN
100
AcDbLine
 10
67.80152958910048
 20
977.0624996870997
 30
0.0
 11
70.89601158910818
 21
981.9944176871016
 31
0.0
  0
LINE
  5
2B1D
330
2
100
AcDbEntity
  8
KIJUN
100
AcDbLine
 10
70.89601158910818
 20
981.9944176871016
 30
0.0
 11
74.80811958910408
 21
977.543956687116
 31
0.0
  0
LINE
  5
2B1E
330
2
100
AcDbEntity
  8
KIJUN
100
AcDbLine
 10
74.80811958910408
 20
977.543956687116
 30
0.0
 11
77.88063058913258
 21
973.7164306871077
 31
0.0
  0
LINE
  5
2B1F
330
2
100
AcDbEntity
  8
KIJUN
100
AcDbLine
 10
77.88063058913258
 20
973.7164306871077
 30
0.0
 11
81.32804558913404
 21
970.5049816871778
 31
0.0
  0
LINE
  5
2B20
330
2
100
AcDbEntity
  8
KIJUN
100
AcDbLine
 10
81.32804558913404
 20
970.5049816871778
 30
0.0
 11
83.08801158911093
 21
964.7254656871536
 31
0.0
  0
LINE
  5
2B21
330
2
100
AcDbEntity
  8
KIJUN
100
AcDbLine
 10
83.08801158911093
 20
964.7254656871536
 30
0.0
 11
84.56413258909606
 21
957.2985056871928
 31
0.0
  0
LINE
  5
2B22
330
2
100
AcDbEntity
  8
KIJUN
100
AcDbLine
 10
84.56413258909606
 20
957.2985056871928
 30
0.0
 11
85.09905658913112
 21
947.0934206871916
 31
0.0
  0
LINE
  5
2B23
330
2
100
AcDbEntity
  8
KIJUN
100
AcDbLine
 10
85.09905658913112
 20
947.0934206871916
 30
0.0
 11
85.06806858908886
 21
934.8299196871758
 31
0.0
  0
LINE
  5
2B24
330
2
100
AcDbEntity
  8
KIJUN
100
AcDbLine
 10
85.06806858908886
 20
934.8299196871758
 30
0.0
 11
84.758569589138
 21
922.9804386871128
 31
0.0
  0
LINE
  5
2B25
330
2
100
AcDbEntity
  8
KIJUN
100
AcDbLine
 10
84.758569589138
 20
922.9804386871128
 30
0.0
 11
84.07353158909836
 21
910.5139916871216
 31
0.0
  0
LINE
  5
2B26
330
2
100
AcDbEntity
  8
KIJUN
100
AcDbLine
 10
84.07353158909836
 20
910.5139916871216
 30
0.0
 11
83.75412658914729
 21
894.8514626870837
 31
0.0
  0
LINE
  5
2B27
330
2
100
AcDbEntity
  8
KIJUN
100
AcDbLine
 10
83.75412658914729
 20
894.8514626870837
 30
0.0
 11
82.59207658910463
 21
878.4715106870958
 31
0.0
  0
LINE
  5
2B28
330
2
100
AcDbEntity
  8
KIJUN
100
AcDbLine
 10
82.59207658910463
 20
878.4715106870958
 30
0.0
 11
81.05855158909117
 21
862.8144426871818
 31
0.0
  0
LINE
  5
2B29
330
2
100
AcDbEntity
  8
KIJUN
100
AcDbLine
 10
81.05855158909117
 20
862.8144426871818
 30
0.0
 11
79.64161258910326
 21
856.4319306871276
 31
0.0
  0
LINE
  5
2B2A
330
2
100
AcDbEntity
  8
KIJUN
100
AcDbLine
 10
79.64161258910326
 20
856.4319306871276
 30
0.0
 11
75.80811758909613
 21
854.8015046871679
 31
0.0
  0
LINE
  5
2B2B
330
2
100
AcDbEntity
  8
KIJUN
100
AcDbLine
 10
75.80811758909613
 20
854.8015046871679
 30
0.0
 11
71.14010558909512
 21
855.4424736871238
 31
0.0
  0
LINE
  5
2B2C
330
2
100
AcDbEntity
  8
KIJUN
100
AcDbLine
 10
71.14010558909512
 20
855.4424736871238
 30
0.0
 11
69.37607558913214
 21
859.6765266871898
 31
0.0
  0
LINE
  5
2B2D
330
2
100
AcDbEntity
  8
KIJUN
100
AcDbLine
 10
69.37607558913214
 20
859.6765266871898
 30
0.0
 11
69.38255258913568
 21
862.2524676871707
 31
0.0
  0
LINE
  5
2B2E
330
2
100
AcDbEntity
  8
KIJUN
100
AcDbLine
 10
69.38255258913568
 20
862.2524676871707
 30
0.0
 11
69.6785895890921
 21
868.6404406871098
 31
0.0
  0
LINE
  5
2B2F
330
2
100
AcDbEntity
  8
KIJUN
100
AcDbLine
 10
69.6785895890921
 20
868.6404406871098
 30
0.0
 11
70.34610158914211
 21
874.0990276871766
 31
0.0
  0
LINE
  5
2B30
330
2
100
AcDbEntity
  8
KIJUN
100
AcDbLine
 10
70.34610158914211
 20
874.0990276871766
 30
0.0
 11
70.6416305890939
 21
880.1780096871608
 31
0.0
  0
LINE
  5
2B31
330
2
100
AcDbEntity
  8
KIJUN
100
AcDbLine
 10
70.6416305890939
 20
880.1780096871608
 30
0.0
 11
71.2185915891082
 21
886.8734496871207
 31
0.0
  0
LINE
  5
2B32
330
2
100
AcDbEntity
  8
KIJUN
100
AcDbLine
 10
71.2185915891082
 20
886.8734496871207
 30
0.0
 11
71.51551758913274
 21
893.5709216871927
 31
0.0
  0
LINE
  5
2B33
330
2
100
AcDbEntity
  8
KIJUN
100
AcDbLine
 10
71.51551758913274
 20
893.5709216871927
 30
0.0
 11
72.09705058912232
 21
901.9154566871899
 31
0.0
  0
LINE
  5
2B34
330
2
100
AcDbEntity
  8
KIJUN
100
AcDbLine
 10
72.09705058912232
 20
901.9154566871899
 30
0.0
 11
72.39651658914818
 21
909.6430256871625
 31
0.0
  0
LINE
  5
2B35
330
2
100
AcDbEntity
  8
KIJUN
100
AcDbLine
 10
72.39651658914818
 20
909.6430256871625
 30
0.0
 11
72.79110558914317
 21
917.9884496871036
 31
0.0
  0
LINE
  5
2B36
330
2
100
AcDbEntity
  8
KIJUN
100
AcDbLine
 10
72.79110558914317
 20
917.9884496871036
 30
0.0
 11
73.08955558910884
 21
925.3040306871357
 31
0.0
  0
LINE
  5
2B37
330
2
100
AcDbEntity
  8
KIJUN
100
AcDbLine
 10
73.08955558910884
 20
925.3040306871357
 30
0.0
 11
73.10708158909847
 21
932.414506687137
 31
0.0
  0
LINE
  5
2B38
330
2
100
AcDbEntity
  8
KIJUN
100
AcDbLine
 10
73.10708158909847
 20
932.414506687137
 30
0.0
 11
73.12613158913655
 21
940.0404756871308
 31
0.0
  0
LINE
  5
2B39
330
2
100
AcDbEntity
  8
KIJUN
100
AcDbLine
 10
73.12613158913655
 20
940.0404756871308
 30
0.0
 11
72.86057458910227
 21
945.8130066870968
 31
0.0
  0
LINE
  5
2B3A
330
2
100
AcDbEntity
  8
KIJUN
100
AcDbLine
 10
72.86057458910227
 20
945.8130066870968
 30
0.0
 11
71.65851958914436
 21
950.6619936870867
 31
0.0
  0
LINE
  5
2B3B
330
2
100
AcDbEntity
  8
KIJUN
100
AcDbLine
 10
71.65851958914436
 20
950.6619936870867
 30
0.0
 11
69.42611358909061
 21
954.382966687177
 31
0.0
  0
LINE
  5
2B3C
330
2
100
AcDbEntity
  8
KIJUN
100
AcDbLine
 10
69.42611358909061
 20
954.382966687177
 30
0.0
 11
67.75707958912107
 21
959.2344936871036
 31
0.0
  0
LINE
  5
2B3D
330
2
100
AcDbEntity
  8
KIJUN
100
AcDbLine
 10
144.9470445891115
 20
853.8784686871318
 30
0.0
 11
77.99213658911094
 21
853.8784686871318
 31
0.0
  0
LINE
  5
2B3E
330
2
100
AcDbEntity
  8
KIJUN
100
AcDbLine
 10
77.99213658911094
 20
853.8784686871318
 30
0.0
 11
76.11609258910767
 21
853.1760316871608
 31
0.0
  0
LINE
  5
2B3F
330
2
100
AcDbEntity
  8
KIJUN
100
AcDbLine
 10
76.11609258910767
 20
853.1760316871608
 30
0.0
 11
74.7782745891077
 21
851.3344046870857
 31
0.0
  0
LINE
  5
2B40
330
2
100
AcDbEntity
  8
KIJUN
100
AcDbLine
 10
74.7782745891077
 20
851.3344046870857
 30
0.0
 11
74.26811558913823
 21
848.7519866871098
 31
0.0
  0
LINE
  5
2B41
330
2
100
AcDbEntity
  8
KIJUN
100
AcDbLine
 10
74.26811558913823
 20
848.7519866871098
 30
0.0
 11
74.7782745891077
 21
846.1699496871538
 31
0.0
  0
LINE
  5
2B42
330
2
100
AcDbEntity
  8
KIJUN
100
AcDbLine
 10
74.7782745891077
 20
846.1699496871538
 30
0.0
 11
76.11609258910767
 21
844.3283226871958
 31
0.0
  0
LINE
  5
2B43
330
2
100
AcDbEntity
  8
KIJUN
100
AcDbLine
 10
76.11609258910767
 20
844.3283226871958
 30
0.0
 11
77.99213658911094
 21
843.6260126871436
 31
0.0
  0
LINE
  5
2B44
330
2
100
AcDbEntity
  8
KIJUN
100
AcDbLine
 10
77.99213658911094
 20
843.6260126871436
 30
0.0
 11
144.9470445891115
 21
843.6260126871436
 31
0.0
  0
LINE
  5
2B45
330
2
100
AcDbEntity
  8
KIJUN
100
AcDbLine
 10
144.9470445891115
 20
843.6260126871436
 30
0.0
 11
146.8230885891084
 21
844.3283226871958
 31
0.0
  0
LINE
  5
2B46
330
2
100
AcDbEntity
  8
KIJUN
100
AcDbLine
 10
146.8230885891084
 20
844.3283226871958
 30
0.0
 11
148.1611605891362
 21
846.1699496871538
 31
0.0
  0
LINE
  5
2B47
330
2
100
AcDbEntity
  8
KIJUN
100
AcDbLine
 10
148.1611605891362
 20
846.1699496871538
 30
0.0
 11
148.6715735891325
 21
848.7519866871098
 31
0.0
  0
LINE
  5
2B48
330
2
100
AcDbEntity
  8
KIJUN
100
AcDbLine
 10
148.6715735891325
 20
848.7519866871098
 30
0.0
 11
148.1611605891362
 21
851.3344046870857
 31
0.0
  0
LINE
  5
2B49
330
2
100
AcDbEntity
  8
KIJUN
100
AcDbLine
 10
148.1611605891362
 20
851.3344046870857
 30
0.0
 11
146.8230885891084
 21
853.1760316871608
 31
0.0
  0
LINE
  5
2B4A
330
2
100
AcDbEntity
  8
KIJUN
100
AcDbLine
 10
146.8230885891084
 20
853.1760316871608
 30
0.0
 11
144.9470445891115
 21
853.8784686871318
 31
0.0
  0
LINE
  5
2B4B
330
2
100
AcDbEntity
  8
KIJUN
100
AcDbLine
 10
55.46005058914079
 20
900.5695106870939
 30
0.0
 11
55.53409158914064
 21
930.1279986871977
 31
0.0
  0
LINE
  5
2B4C
330
2
100
AcDbEntity
  8
KIJUN
100
AcDbLine
 10
55.53409158914064
 20
930.1279986871977
 30
0.0
 11
56.01072258913109
 21
931.4466396871816
 31
0.0
  0
LINE
  5
2B4D
330
2
100
AcDbEntity
  8
KIJUN
100
AcDbLine
 10
56.01072258913109
 20
931.4466396871816
 30
0.0
 11
57.25430658911273
 21
932.3825026871659
 31
0.0
  0
LINE
  5
2B4E
330
2
100
AcDbEntity
  8
KIJUN
100
AcDbLine
 10
57.25430658911273
 20
932.3825026871659
 30
0.0
 11
58.9956035891214
 21
932.7335306871409
 31
0.0
  0
LINE
  5
2B4F
330
2
100
AcDbEntity
  8
KIJUN
100
AcDbLine
 10
58.9956035891214
 20
932.7335306871409
 30
0.0
 11
66.69002558912916
 21
932.6959386871259
 31
0.0
  0
LINE
  5
2B50
330
2
100
AcDbEntity
  8
KIJUN
100
AcDbLine
 10
66.69002558912916
 20
932.6959386871259
 30
0.0
 11
68.4295445891089
 21
932.3285276871406
 31
0.0
  0
LINE
  5
2B51
330
2
100
AcDbEntity
  8
KIJUN
100
AcDbLine
 10
68.4295445891089
 20
932.3285276871406
 30
0.0
 11
69.6684295891232
 21
931.380599687111
 31
0.0
  0
LINE
  5
2B52
330
2
100
AcDbEntity
  8
KIJUN
100
AcDbLine
 10
69.6684295891232
 20
931.380599687111
 30
0.0
 11
70.13858358911829
 21
930.0575136871286
 31
0.0
  0
LINE
  5
2B53
330
2
100
AcDbEntity
  8
KIJUN
100
AcDbLine
 10
70.13858358911829
 20
930.0575136871286
 30
0.0
 11
70.06454258911117
 21
900.4990256871478
 31
0.0
  0
LINE
  5
2B54
330
2
100
AcDbEntity
  8
KIJUN
100
AcDbLine
 10
70.06454258911117
 20
900.4990256871478
 30
0.0
 11
69.58791158912072
 21
899.180638687134
 31
0.0
  0
LINE
  5
2B55
330
2
100
AcDbEntity
  8
KIJUN
100
AcDbLine
 10
69.58791158912072
 20
899.180638687134
 30
0.0
 11
68.34432758913909
 21
898.2446486870996
 31
0.0
  0
LINE
  5
2B56
330
2
100
AcDbEntity
  8
KIJUN
100
AcDbLine
 10
68.34432758913909
 20
898.2446486870996
 30
0.0
 11
66.60303058913132
 21
897.8940016871296
 31
0.0
  0
LINE
  5
2B57
330
2
100
AcDbEntity
  8
KIJUN
100
AcDbLine
 10
66.60303058913132
 20
897.8940016871296
 30
0.0
 11
58.90860858912356
 21
897.93095868717
 31
0.0
  0
LINE
  5
2B58
330
2
100
AcDbEntity
  8
KIJUN
100
AcDbLine
 10
58.90860858912356
 20
897.93095868717
 30
0.0
 11
57.169089589142
 21
898.2984966871978
 31
0.0
  0
LINE
  5
2B59
330
2
100
AcDbEntity
  8
KIJUN
100
AcDbLine
 10
57.169089589142
 20
898.2984966871978
 30
0.0
 11
55.93020458913589
 21
899.2462976871847
 31
0.0
  0
LINE
  5
2B5A
330
2
100
AcDbEntity
  8
KIJUN
100
AcDbLine
 10
55.93020458913589
 20
899.2462976871847
 30
0.0
 11
55.46005058914079
 21
900.5695106870939
 31
0.0
  0
LINE
  5
2B5B
330
2
100
AcDbEntity
  8
KIJUN
100
AcDbLine
 10
61.55757458910239
 20
885.0644616871306
 30
0.0
 11
61.70311658911533
 21
943.2284296872039
 31
0.0
  0
LINE
  5
2B5C
330
2
100
AcDbEntity
  8
KIJUN
100
AcDbLine
 10
61.70311658911533
 20
943.2284296872039
 30
0.0
 11
62.33430658910811
 21
944.860506687141
 31
0.0
  0
LINE
  5
2B5D
330
2
100
AcDbEntity
  8
KIJUN
100
AcDbLine
 10
62.33430658910811
 20
944.860506687141
 30
0.0
 11
63.98149658914054
 21
946.0186196871678
 31
0.0
  0
LINE
  5
2B5E
330
2
100
AcDbEntity
  8
KIJUN
100
AcDbLine
 10
63.98149658914054
 20
946.0186196871678
 30
0.0
 11
66.28807058912162
 21
946.4519436871729
 31
0.0
  0
LINE
  5
2B5F
330
2
100
AcDbEntity
  8
KIJUN
100
AcDbLine
 10
66.28807058912162
 20
946.4519436871729
 30
0.0
 11
72.69560158909508
 21
946.4214636871346
 31
0.0
  0
LINE
  5
2B60
330
2
100
AcDbEntity
  8
KIJUN
100
AcDbLine
 10
72.69560158909508
 20
946.4214636871346
 30
0.0
 11
74.99988958910899
 21
945.9656606871449
 31
0.0
  0
LINE
  5
2B61
330
2
100
AcDbEntity
  8
KIJUN
100
AcDbLine
 10
74.99988958910899
 20
945.9656606871449
 30
0.0
 11
76.64111058914432
 21
944.7916726871646
 31
0.0
  0
LINE
  5
2B62
330
2
100
AcDbEntity
  8
KIJUN
100
AcDbLine
 10
76.64111058914432
 20
944.7916726871646
 30
0.0
 11
77.26404558911463
 21
943.1534996871286
 31
0.0
  0
LINE
  5
2B63
330
2
100
AcDbEntity
  8
KIJUN
100
AcDbLine
 10
77.26404558911463
 20
943.1534996871286
 30
0.0
 11
77.11863058909376
 21
884.9895316871716
 31
0.0
  0
LINE
  5
2B64
330
2
100
AcDbEntity
  8
KIJUN
100
AcDbLine
 10
77.11863058909376
 20
884.9895316871716
 30
0.0
 11
76.48744058910097
 21
883.3574546871187
 31
0.0
  0
LINE
  5
2B65
330
2
100
AcDbEntity
  8
KIJUN
100
AcDbLine
 10
76.48744058910097
 20
883.3574546871187
 30
0.0
 11
74.84037758911154
 21
882.1992146871576
 31
0.0
  0
LINE
  5
2B66
330
2
100
AcDbEntity
  8
KIJUN
100
AcDbLine
 10
74.84037758911154
 20
882.1992146871576
 30
0.0
 11
72.53354958910358
 21
881.7655096871408
 31
0.0
  0
LINE
  5
2B67
330
2
100
AcDbEntity
  8
KIJUN
100
AcDbLine
 10
72.53354958910358
 20
881.7655096871408
 30
0.0
 11
66.12652658912475
 21
881.7964976871099
 31
0.0
  0
LINE
  5
2B68
330
2
100
AcDbEntity
  8
KIJUN
100
AcDbLine
 10
66.12652658912475
 20
881.7964976871099
 30
0.0
 11
63.82185758909099
 21
882.2523006871067
 31
0.0
  0
LINE
  5
2B69
330
2
100
AcDbEntity
  8
KIJUN
100
AcDbLine
 10
63.82185758909099
 20
882.2523006871067
 30
0.0
 11
62.18063658912297
 21
883.4262886870947
 31
0.0
  0
LINE
  5
2B6A
330
2
100
AcDbEntity
  8
KIJUN
100
AcDbLine
 10
62.18063658912297
 20
883.4262886870947
 30
0.0
 11
61.55757458910239
 21
885.0644616871306
 31
0.0
  0
LINE
  5
2B6B
330
2
100
AcDbEntity
  8
KIJUN
100
AcDbLine
 10
169.1120965891436
 20
902.8555106871008
 30
0.0
 11
169.0380555891365
 21
932.4139986870818
 31
0.0
  0
LINE
  5
2B6C
330
2
100
AcDbEntity
  8
KIJUN
100
AcDbLine
 10
169.0380555891365
 20
932.4139986870818
 30
0.0
 11
168.5614245891388
 21
933.7326396871818
 31
0.0
  0
LINE
  5
2B6D
330
2
100
AcDbEntity
  8
KIJUN
100
AcDbLine
 10
168.5614245891388
 20
933.7326396871818
 30
0.0
 11
167.3178405891071
 21
934.6685026871657
 31
0.0
  0
LINE
  5
2B6E
330
2
100
AcDbEntity
  8
KIJUN
100
AcDbLine
 10
167.3178405891071
 20
934.6685026871657
 30
0.0
 11
165.5765435890994
 21
935.0195306871407
 31
0.0
  0
LINE
  5
2B6F
330
2
100
AcDbEntity
  8
KIJUN
100
AcDbLine
 10
165.5765435890994
 20
935.0195306871407
 30
0.0
 11
157.8821215890998
 21
934.9819386871256
 31
0.0
  0
LINE
  5
2B70
330
2
100
AcDbEntity
  8
KIJUN
100
AcDbLine
 10
157.8821215890998
 20
934.9819386871256
 30
0.0
 11
156.14260258911
 21
934.6145276871487
 31
0.0
  0
LINE
  5
2B71
330
2
100
AcDbEntity
  8
KIJUN
100
AcDbLine
 10
156.14260258911
 20
934.6145276871487
 30
0.0
 11
154.9037175891039
 21
933.6665996871177
 31
0.0
  0
LINE
  5
2B72
330
2
100
AcDbEntity
  8
KIJUN
100
AcDbLine
 10
154.9037175891039
 20
933.6665996871177
 30
0.0
 11
154.4335635891088
 21
932.3435136871358
 31
0.0
  0
LINE
  5
2B73
330
2
100
AcDbEntity
  8
KIJUN
100
AcDbLine
 10
154.4335635891088
 20
932.3435136871358
 30
0.0
 11
154.5076045891096
 21
902.7850256871479
 31
0.0
  0
LINE
  5
2B74
330
2
100
AcDbEntity
  8
KIJUN
100
AcDbLine
 10
154.5076045891096
 20
902.7850256871479
 30
0.0
 11
154.9842355891073
 21
901.466638687134
 31
0.0
  0
LINE
  5
2B75
330
2
100
AcDbEntity
  8
KIJUN
100
AcDbLine
 10
154.9842355891073
 20
901.466638687134
 30
0.0
 11
156.227819589139
 21
900.5306486871068
 31
0.0
  0
LINE
  5
2B76
330
2
100
AcDbEntity
  8
KIJUN
100
AcDbLine
 10
156.227819589139
 20
900.5306486871068
 30
0.0
 11
157.9691165890895
 21
900.1800016871371
 31
0.0
  0
LINE
  5
2B77
330
2
100
AcDbEntity
  8
KIJUN
100
AcDbLine
 10
157.9691165890895
 20
900.1800016871371
 30
0.0
 11
165.6635385890972
 21
900.2169586871699
 31
0.0
  0
LINE
  5
2B78
330
2
100
AcDbEntity
  8
KIJUN
100
AcDbLine
 10
165.6635385890972
 20
900.2169586871699
 30
0.0
 11
167.4030575891434
 21
900.5844966872045
 31
0.0
  0
LINE
  5
2B79
330
2
100
AcDbEntity
  8
KIJUN
100
AcDbLine
 10
167.4030575891434
 20
900.5844966872045
 30
0.0
 11
168.6419425891422
 21
901.5322976871848
 31
0.0
  0
LINE
  5
2B7A
330
2
100
AcDbEntity
  8
KIJUN
100
AcDbLine
 10
168.6419425891422
 20
901.5322976871848
 30
0.0
 11
169.1120965891436
 21
902.8555106871008
 31
0.0
  0
LINE
  5
2B7B
330
2
100
AcDbEntity
  8
KIJUN
100
AcDbLine
 10
163.0145725891184
 20
887.4774616871528
 30
0.0
 11
162.8690305891127
 21
945.6414296871166
 31
0.0
  0
LINE
  5
2B7C
330
2
100
AcDbEntity
  8
KIJUN
100
AcDbLine
 10
162.8690305891127
 20
945.6414296871166
 30
0.0
 11
162.2378405891127
 21
947.2735066871628
 31
0.0
  0
LINE
  5
2B7D
330
2
100
AcDbEntity
  8
KIJUN
100
AcDbLine
 10
162.2378405891127
 20
947.2735066871628
 30
0.0
 11
160.5906505891457
 21
948.4316196870876
 31
0.0
  0
LINE
  5
2B7E
330
2
100
AcDbEntity
  8
KIJUN
100
AcDbLine
 10
160.5906505891457
 20
948.4316196870876
 30
0.0
 11
158.2840765891073
 21
948.8649436870856
 31
0.0
  0
LINE
  5
2B7F
330
2
100
AcDbEntity
  8
KIJUN
100
AcDbLine
 10
158.2840765891073
 20
948.8649436870856
 30
0.0
 11
151.8765455891248
 21
948.8344636871648
 31
0.0
  0
LINE
  5
2B80
330
2
100
AcDbEntity
  8
KIJUN
100
AcDbLine
 10
151.8765455891248
 20
948.8344636871648
 30
0.0
 11
149.5722575891109
 21
948.3786606871817
 31
0.0
  0
LINE
  5
2B81
330
2
100
AcDbEntity
  8
KIJUN
100
AcDbLine
 10
149.5722575891109
 20
948.3786606871817
 30
0.0
 11
147.931036589141
 21
947.2046726872017
 31
0.0
  0
LINE
  5
2B82
330
2
100
AcDbEntity
  8
KIJUN
100
AcDbLine
 10
147.931036589141
 20
947.2046726872017
 30
0.0
 11
147.3081015891125
 21
945.5664996871588
 31
0.0
  0
LINE
  5
2B83
330
2
100
AcDbEntity
  8
KIJUN
100
AcDbLine
 10
147.3081015891125
 20
945.5664996871588
 30
0.0
 11
147.4535165891343
 21
887.4025316870918
 31
0.0
  0
LINE
  5
2B84
330
2
100
AcDbEntity
  8
KIJUN
100
AcDbLine
 10
147.4535165891343
 20
887.4025316870918
 30
0.0
 11
148.084706589128
 21
885.7704546871486
 31
0.0
  0
LINE
  5
2B85
330
2
100
AcDbEntity
  8
KIJUN
100
AcDbLine
 10
148.084706589128
 20
885.7704546871486
 30
0.0
 11
149.7317695891092
 21
884.6122146871808
 31
0.0
  0
LINE
  5
2B86
330
2
100
AcDbEntity
  8
KIJUN
100
AcDbLine
 10
149.7317695891092
 20
884.6122146871808
 30
0.0
 11
152.0385975891236
 21
884.1785096871699
 31
0.0
  0
LINE
  5
2B87
330
2
100
AcDbEntity
  8
KIJUN
100
AcDbLine
 10
152.0385975891236
 20
884.1785096871699
 30
0.0
 11
158.4456205891024
 21
884.2094976871466
 31
0.0
  0
LINE
  5
2B88
330
2
100
AcDbEntity
  8
KIJUN
100
AcDbLine
 10
158.4456205891024
 20
884.2094976871466
 30
0.0
 11
160.750289589128
 21
884.6653006871289
 31
0.0
  0
LINE
  5
2B89
330
2
100
AcDbEntity
  8
KIJUN
100
AcDbLine
 10
160.750289589128
 20
884.6653006871289
 30
0.0
 11
162.3915105890969
 21
885.8392886871165
 31
0.0
  0
LINE
  5
2B8A
330
2
100
AcDbEntity
  8
KIJUN
100
AcDbLine
 10
162.3915105890969
 20
885.8392886871165
 30
0.0
 11
163.0145725891184
 21
887.4774616871528
 31
0.0
  0
LINE
  5
2B8B
330
2
100
AcDbEntity
  8
KIJUN
100
AcDbLine
 10
70.84483058908427
 20
1356.25092168709
 30
0.0
 11
74.88279558912381
 21
1355.836393687096
 31
0.0
  0
LINE
  5
2B8C
330
2
100
AcDbEntity
  8
KIJUN
100
AcDbLine
 10
74.88279558912381
 20
1355.836393687096
 30
0.0
 11
76.32411858910836
 21
1355.086712687184
 31
0.0
  0
LINE
  5
2B8D
330
2
100
AcDbEntity
  8
KIJUN
100
AcDbLine
 10
76.32411858910836
 20
1355.086712687184
 30
0.0
 11
77.2705225890877
 21
1353.411328687138
 31
0.0
  0
LINE
  5
2B8E
330
2
100
AcDbEntity
  8
KIJUN
100
AcDbLine
 10
77.2705225890877
 20
1353.411328687138
 30
0.0
 11
77.51677558911433
 21
1351.172953687086
 31
0.0
  0
LINE
  5
2B8F
330
2
100
AcDbEntity
  8
KIJUN
100
AcDbLine
 10
77.51677558911433
 20
1351.172953687086
 30
0.0
 11
73.84685658909984
 21
1299.968458687074
 31
0.0
  0
LINE
  5
2B90
330
2
100
AcDbEntity
  8
KIJUN
100
AcDbLine
 10
73.84685658909984
 20
1299.968458687074
 30
0.0
 11
73.28551658912966
 21
1297.812887687099
 31
0.0
  0
LINE
  5
2B91
330
2
100
AcDbEntity
  8
KIJUN
100
AcDbLine
 10
73.28551658912966
 20
1297.812887687099
 30
0.0
 11
72.11457658908239
 21
1296.354673687115
 31
0.0
  0
LINE
  5
2B92
330
2
100
AcDbEntity
  8
KIJUN
100
AcDbLine
 10
72.11457658908239
 20
1296.354673687115
 30
0.0
 11
70.58727458910198
 21
1295.909411687114
 31
0.0
  0
LINE
  5
2B93
330
2
100
AcDbEntity
  8
KIJUN
100
AcDbLine
 10
70.58727458910198
 20
1295.909411687114
 30
0.0
 11
66.54930958911336
 21
1296.323431687161
 31
0.0
  0
LINE
  5
2B94
330
2
100
AcDbEntity
  8
KIJUN
100
AcDbLine
 10
66.54930958911336
 20
1296.323431687161
 30
0.0
 11
65.1079865891279
 21
1297.073112687082
 31
0.0
  0
LINE
  5
2B95
330
2
100
AcDbEntity
  8
KIJUN
100
AcDbLine
 10
65.1079865891279
 20
1297.073112687082
 30
0.0
 11
64.16158258909035
 21
1298.748496687128
 31
0.0
  0
LINE
  5
2B96
330
2
100
AcDbEntity
  8
KIJUN
100
AcDbLine
 10
64.16158258909035
 20
1298.748496687128
 30
0.0
 11
63.91532958912193
 21
1300.986871687173
 31
0.0
  0
LINE
  5
2B97
330
2
100
AcDbEntity
  8
KIJUN
100
AcDbLine
 10
63.91532958912193
 20
1300.986871687173
 30
0.0
 11
67.58524858907822
 21
1352.191366687069
 31
0.0
  0
LINE
  5
2B98
330
2
100
AcDbEntity
  8
KIJUN
100
AcDbLine
 10
67.58524858907822
 20
1352.191366687069
 30
0.0
 11
68.14658858910661
 21
1354.347064687093
 31
0.0
  0
LINE
  5
2B99
330
2
100
AcDbEntity
  8
KIJUN
100
AcDbLine
 10
68.14658858910661
 20
1354.347064687093
 30
0.0
 11
69.31752858909567
 21
1355.80540568712
 31
0.0
  0
LINE
  5
2B9A
330
2
100
AcDbEntity
  8
KIJUN
100
AcDbLine
 10
69.31752858909567
 20
1355.80540568712
 30
0.0
 11
70.84483058908427
 21
1356.25092168709
 31
0.0
  0
LINE
  5
2B9B
330
2
100
AcDbEntity
  8
KIJUN
100
AcDbLine
 10
102.822795589097
 20
1257.228386687096
 30
0.0
 11
103.7233525890906
 21
1248.31844768709
 31
0.0
  0
LINE
  5
2B9C
330
2
100
AcDbEntity
  8
KIJUN
100
AcDbLine
 10
103.7233525890906
 20
1248.31844768709
 30
0.0
 11
108.8258315890762
 21
1243.994859687084
 31
0.0
  0
LINE
  5
2B9D
330
2
100
AcDbEntity
  8
KIJUN
100
AcDbLine
 10
108.8258315890762
 20
1243.994859687084
 30
0.0
 11
114.2282845890786
 21
1243.994859687084
 31
0.0
  0
LINE
  5
2B9E
330
2
100
AcDbEntity
  8
KIJUN
100
AcDbLine
 10
114.2282845890786
 20
1243.994859687084
 30
0.0
 11
118.3297495890792
 21
1245.828866687008
 31
0.0
  0
LINE
  5
2B9F
330
2
100
AcDbEntity
  8
KIJUN
100
AcDbLine
 10
118.3297495890792
 20
1245.828866687008
 30
0.0
 11
121.1312425891146
 21
1249.497896687063
 31
0.0
  0
LINE
  5
2BA0
330
2
100
AcDbEntity
  8
KIJUN
100
AcDbLine
 10
121.1312425891146
 20
1249.497896687063
 30
0.0
 11
121.5312925891194
 21
1257.883325687045
 31
0.0
  0
LINE
  5
2BA1
330
2
100
AcDbEntity
  8
KIJUN
100
AcDbLine
 10
121.5312925891194
 20
1257.883325687045
 30
0.0
 11
121.5312925891194
 21
1245.828866687008
 31
0.0
  0
LINE
  5
2BA2
330
2
100
AcDbEntity
  8
KIJUN
100
AcDbLine
 10
121.5312925891194
 20
1245.828866687008
 30
0.0
 11
119.3302555891196
 21
1239.277825687067
 31
0.0
  0
LINE
  5
2BA3
330
2
100
AcDbEntity
  8
KIJUN
100
AcDbLine
 10
119.3302555891196
 20
1239.277825687067
 30
0.0
 11
115.6288405891237
 21
1235.608922687048
 31
0.0
  0
LINE
  5
2BA4
330
2
100
AcDbEntity
  8
KIJUN
100
AcDbLine
 10
115.6288405891237
 20
1235.608922687048
 30
0.0
 11
109.7257535890812
 21
1235.608922687048
 31
0.0
  0
LINE
  5
2BA5
330
2
100
AcDbEntity
  8
KIJUN
100
AcDbLine
 10
109.7257535890812
 20
1235.608922687048
 30
0.0
 11
105.1237815890908
 21
1237.443437687014
 31
0.0
  0
LINE
  5
2BA6
330
2
100
AcDbEntity
  8
KIJUN
100
AcDbLine
 10
105.1237815890908
 20
1237.443437687014
 30
0.0
 11
103.3227945890958
 21
1242.815410687102
 31
0.0
  0
LINE
  5
2BA7
330
2
100
AcDbEntity
  8
KIJUN
100
AcDbLine
 10
103.3227945890958
 20
1242.815410687102
 30
0.0
 11
102.822795589097
 21
1257.228386687096
 31
0.0
  0
LINE
  5
2BA8
330
2
100
AcDbEntity
  8
KIJUN
100
AcDbLine
 10
61.83875258909302
 20
1341.439927687142
 30
0.0
 11
66.87785858910411
 21
1341.439927687142
 31
0.0
  0
LINE
  5
2BA9
330
2
100
AcDbEntity
  8
KIJUN
100
AcDbLine
 10
66.87785858910411
 20
1341.439927687142
 30
0.0
 11
68.36782258909716
 21
1340.955168687173
 31
0.0
  0
LINE
  5
2BAA
330
2
100
AcDbEntity
  8
KIJUN
100
AcDbLine
 10
68.36782258909716
 20
1340.955168687173
 30
0.0
 11
69.43043158908313
 21
1339.684279687078
 31
0.0
  0
LINE
  5
2BAB
330
2
100
AcDbEntity
  8
KIJUN
100
AcDbLine
 10
69.43043158908313
 20
1339.684279687078
 30
0.0
 11
69.83581558910282
 21
1337.90246968715
 31
0.0
  0
LINE
  5
2BAC
330
2
100
AcDbEntity
  8
KIJUN
100
AcDbLine
 10
69.83581558910282
 20
1337.90246968715
 30
0.0
 11
69.83581558910282
 21
1313.793424687138
 31
0.0
  0
LINE
  5
2BAD
330
2
100
AcDbEntity
  8
KIJUN
100
AcDbLine
 10
69.83581558910282
 20
1313.793424687138
 30
0.0
 11
69.43043158908313
 21
1312.011360687132
 31
0.0
  0
LINE
  5
2BAE
330
2
100
AcDbEntity
  8
KIJUN
100
AcDbLine
 10
69.43043158908313
 20
1312.011360687132
 30
0.0
 11
68.36782258909716
 21
1310.740598687074
 31
0.0
  0
LINE
  5
2BAF
330
2
100
AcDbEntity
  8
KIJUN
100
AcDbLine
 10
68.36782258909716
 20
1310.740598687074
 30
0.0
 11
66.87785858910411
 21
1310.255966687147
 31
0.0
  0
LINE
  5
2BB0
330
2
100
AcDbEntity
  8
KIJUN
100
AcDbLine
 10
66.87785858910411
 20
1310.255966687147
 30
0.0
 11
61.83875258909302
 21
1310.255966687147
 31
0.0
  0
LINE
  5
2BB1
330
2
100
AcDbEntity
  8
KIJUN
100
AcDbLine
 10
61.83875258909302
 20
1310.255966687147
 30
0.0
 11
60.34878858909905
 21
1310.740598687074
 31
0.0
  0
LINE
  5
2BB2
330
2
100
AcDbEntity
  8
KIJUN
100
AcDbLine
 10
60.34878858909905
 20
1310.740598687074
 30
0.0
 11
59.286179589114
 21
1312.011360687132
 31
0.0
  0
LINE
  5
2BB3
330
2
100
AcDbEntity
  8
KIJUN
100
AcDbLine
 10
59.286179589114
 20
1312.011360687132
 30
0.0
 11
58.88079558910158
 21
1313.793424687138
 31
0.0
  0
LINE
  5
2BB4
330
2
100
AcDbEntity
  8
KIJUN
100
AcDbLine
 10
58.88079558910158
 20
1313.793424687138
 30
0.0
 11
58.88079558910158
 21
1337.90246968715
 31
0.0
  0
LINE
  5
2BB5
330
2
100
AcDbEntity
  8
KIJUN
100
AcDbLine
 10
58.88079558910158
 20
1337.90246968715
 30
0.0
 11
59.286179589114
 21
1339.684279687078
 31
0.0
  0
LINE
  5
2BB6
330
2
100
AcDbEntity
  8
KIJUN
100
AcDbLine
 10
59.286179589114
 20
1339.684279687078
 30
0.0
 11
60.34878858909905
 21
1340.955168687173
 31
0.0
  0
LINE
  5
2BB7
330
2
100
AcDbEntity
  8
KIJUN
100
AcDbLine
 10
60.34878858909905
 20
1340.955168687173
 30
0.0
 11
61.83875258909302
 21
1341.439927687142
 31
0.0
  0
LINE
  5
2BB8
330
2
100
AcDbEntity
  8
KIJUN
100
AcDbLine
 10
150.8047925890778
 20
1355.742921687096
 30
0.0
 11
147.1168395890772
 21
1355.328393687109
 31
0.0
  0
LINE
  5
2BB9
330
2
100
AcDbEntity
  8
KIJUN
100
AcDbLine
 10
147.1168395890772
 20
1355.328393687109
 30
0.0
 11
145.8004845891255
 21
1354.578712687087
 31
0.0
  0
LINE
  5
2BBA
330
2
100
AcDbEntity
  8
KIJUN
100
AcDbLine
 10
145.8004845891255
 20
1354.578712687087
 30
0.0
 11
144.9362495891237
 21
1352.903328687157
 31
0.0
  0
LINE
  5
2BBB
330
2
100
AcDbEntity
  8
KIJUN
100
AcDbLine
 10
144.9362495891237
 20
1352.903328687157
 30
0.0
 11
144.7113325891032
 21
1350.664953687106
 31
0.0
  0
LINE
  5
2BBC
330
2
100
AcDbEntity
  8
KIJUN
100
AcDbLine
 10
144.7113325891032
 20
1350.664953687106
 30
0.0
 11
148.0627355891183
 21
1299.460458687087
 31
0.0
  0
LINE
  5
2BBD
330
2
100
AcDbEntity
  8
KIJUN
100
AcDbLine
 10
148.0627355891183
 20
1299.460458687087
 30
0.0
 11
148.5753075890879
 21
1297.30488768712
 31
0.0
  0
LINE
  5
2BBE
330
2
100
AcDbEntity
  8
KIJUN
100
AcDbLine
 10
148.5753075890879
 20
1297.30488768712
 30
0.0
 11
149.6447745890891
 21
1295.846673687135
 31
0.0
  0
LINE
  5
2BBF
330
2
100
AcDbEntity
  8
KIJUN
100
AcDbLine
 10
149.6447745890891
 20
1295.846673687135
 30
0.0
 11
151.0392345890923
 21
1295.401411687127
 31
0.0
  0
LINE
  5
2BC0
330
2
100
AcDbEntity
  8
KIJUN
100
AcDbLine
 10
151.0392345890923
 20
1295.401411687127
 30
0.0
 11
154.7273145890785
 21
1295.815431687183
 31
0.0
  0
LINE
  5
2BC1
330
2
100
AcDbEntity
  8
KIJUN
100
AcDbLine
 10
154.7273145890785
 20
1295.815431687183
 30
0.0
 11
156.0436695890894
 21
1296.565112687088
 31
0.0
  0
LINE
  5
2BC2
330
2
100
AcDbEntity
  8
KIJUN
100
AcDbLine
 10
156.0436695890894
 20
1296.565112687088
 30
0.0
 11
156.9077775891046
 21
1298.240496687133
 31
0.0
  0
LINE
  5
2BC3
330
2
100
AcDbEntity
  8
KIJUN
100
AcDbLine
 10
156.9077775891046
 20
1298.240496687133
 30
0.0
 11
157.1328215891108
 21
1300.478871687185
 31
0.0
  0
LINE
  5
2BC4
330
2
100
AcDbEntity
  8
KIJUN
100
AcDbLine
 10
157.1328215891108
 20
1300.478871687185
 30
0.0
 11
153.7812915891109
 21
1351.683366687089
 31
0.0
  0
LINE
  5
2BC5
330
2
100
AcDbEntity
  8
KIJUN
100
AcDbLine
 10
153.7812915891109
 20
1351.683366687089
 30
0.0
 11
153.2687195890821
 21
1353.839064687099
 31
0.0
  0
LINE
  5
2BC6
330
2
100
AcDbEntity
  8
KIJUN
100
AcDbLine
 10
153.2687195890821
 20
1353.839064687099
 30
0.0
 11
152.199379589123
 21
1355.297405687125
 31
0.0
  0
LINE
  5
2BC7
330
2
100
AcDbEntity
  8
KIJUN
100
AcDbLine
 10
152.199379589123
 20
1355.297405687125
 30
0.0
 11
150.8047925890778
 21
1355.742921687096
 31
0.0
  0
LINE
  5
2BC8
330
2
100
AcDbEntity
  8
KIJUN
100
AcDbLine
 10
159.0492515890937
 20
1340.931927687155
 30
0.0
 11
154.4472795891106
 21
1340.931927687155
 31
0.0
  0
LINE
  5
2BC9
330
2
100
AcDbEntity
  8
KIJUN
100
AcDbLine
 10
154.4472795891106
 20
1340.931927687155
 30
0.0
 11
153.0868555890765
 21
1340.447168687185
 31
0.0
  0
LINE
  5
2BCA
330
2
100
AcDbEntity
  8
KIJUN
100
AcDbLine
 10
153.0868555890765
 20
1340.447168687185
 30
0.0
 11
152.1164485891122
 21
1339.176279687084
 31
0.0
  0
LINE
  5
2BCB
330
2
100
AcDbEntity
  8
KIJUN
100
AcDbLine
 10
152.1164485891122
 20
1339.176279687084
 30
0.0
 11
151.7462435891129
 21
1337.394469687163
 31
0.0
  0
LINE
  5
2BCC
330
2
100
AcDbEntity
  8
KIJUN
100
AcDbLine
 10
151.7462435891129
 20
1337.394469687163
 30
0.0
 11
151.7462435891129
 21
1313.285424687151
 31
0.0
  0
LINE
  5
2BCD
330
2
100
AcDbEntity
  8
KIJUN
100
AcDbLine
 10
151.7462435891129
 20
1313.285424687151
 30
0.0
 11
152.1164485891122
 21
1311.503360687145
 31
0.0
  0
LINE
  5
2BCE
330
2
100
AcDbEntity
  8
KIJUN
100
AcDbLine
 10
152.1164485891122
 20
1311.503360687145
 30
0.0
 11
153.0868555890765
 21
1310.232598687094
 31
0.0
  0
LINE
  5
2BCF
330
2
100
AcDbEntity
  8
KIJUN
100
AcDbLine
 10
153.0868555890765
 20
1310.232598687094
 30
0.0
 11
154.4472795891106
 21
1309.74796668716
 31
0.0
  0
LINE
  5
2BD0
330
2
100
AcDbEntity
  8
KIJUN
100
AcDbLine
 10
154.4472795891106
 20
1309.74796668716
 30
0.0
 11
159.0492515890937
 21
1309.74796668716
 31
0.0
  0
LINE
  5
2BD1
330
2
100
AcDbEntity
  8
KIJUN
100
AcDbLine
 10
159.0492515890937
 20
1309.74796668716
 30
0.0
 11
160.4101835891251
 21
1310.232598687094
 31
0.0
  0
LINE
  5
2BD2
330
2
100
AcDbEntity
  8
KIJUN
100
AcDbLine
 10
160.4101835891251
 20
1310.232598687094
 30
0.0
 11
161.3805905890904
 21
1311.503360687145
 31
0.0
  0
LINE
  5
2BD3
330
2
100
AcDbEntity
  8
KIJUN
100
AcDbLine
 10
161.3805905890904
 20
1311.503360687145
 30
0.0
 11
161.7507955890905
 21
1313.285424687151
 31
0.0
  0
LINE
  5
2BD4
330
2
100
AcDbEntity
  8
KIJUN
100
AcDbLine
 10
161.7507955890905
 20
1313.285424687151
 30
0.0
 11
161.7507955890905
 21
1337.394469687163
 31
0.0
  0
LINE
  5
2BD5
330
2
100
AcDbEntity
  8
KIJUN
100
AcDbLine
 10
161.7507955890905
 20
1337.394469687163
 30
0.0
 11
161.3805905890904
 21
1339.176279687084
 31
0.0
  0
LINE
  5
2BD6
330
2
100
AcDbEntity
  8
KIJUN
100
AcDbLine
 10
161.3805905890904
 20
1339.176279687084
 30
0.0
 11
160.4101835891251
 21
1340.447168687185
 31
0.0
  0
LINE
  5
2BD7
330
2
100
AcDbEntity
  8
KIJUN
100
AcDbLine
 10
160.4101835891251
 20
1340.447168687185
 30
0.0
 11
159.0492515890937
 21
1340.931927687155
 31
0.0
  0
LINE
  5
2BD8
330
2
100
AcDbEntity
  8
KIJUN
100
AcDbLine
 10
613.2159993589725
 20
1383.023918687077
 30
0.0
 11
603.2181783590181
 21
1382.930700687045
 31
0.0
  0
LINE
  5
2BD9
330
2
100
AcDbEntity
  8
KIJUN
100
AcDbLine
 10
603.2181783590181
 20
1382.930700687045
 30
0.0
 11
593.2402963589971
 21
1382.896283687059
 31
0.0
  0
LINE
  5
2BDA
330
2
100
AcDbEntity
  8
KIJUN
100
AcDbLine
 10
593.2402963589971
 20
1382.896283687059
 30
0.0
 11
583.2424753589926
 21
1382.891457687046
 31
0.0
  0
LINE
  5
2BDB
330
2
100
AcDbEntity
  8
KIJUN
100
AcDbLine
 10
583.2424753589926
 20
1382.891457687046
 30
0.0
 11
573.5861573590205
 21
1382.925747687108
 31
0.0
  0
LINE
  5
2BDC
330
2
100
AcDbEntity
  8
KIJUN
100
AcDbLine
 10
573.5861573590205
 20
1382.925747687108
 30
0.0
 11
564.0888433590048
 21
1382.989628687139
 31
0.0
  0
LINE
  5
2BDD
330
2
100
AcDbEntity
  8
KIJUN
100
AcDbLine
 10
564.0888433590048
 20
1382.989628687139
 30
0.0
 11
554.432525358982
 21
1383.023918687077
 31
0.0
  0
LINE
  5
2BDE
330
2
100
AcDbEntity
  8
KIJUN
100
AcDbLine
 10
554.432525358982
 20
1383.023918687077
 30
0.0
 11
555.3238113590173
 21
1387.422690687122
 31
0.0
  0
LINE
  5
2BDF
330
2
100
AcDbEntity
  8
KIJUN
100
AcDbLine
 10
555.3238113590173
 20
1387.422690687122
 30
0.0
 11
555.7779633590221
 21
1392.587145687061
 31
0.0
  0
LINE
  5
2BE0
330
2
100
AcDbEntity
  8
KIJUN
100
AcDbLine
 10
555.7779633590221
 20
1392.587145687061
 30
0.0
 11
554.8799463589652
 21
1396.80887968711
 31
0.0
  0
LINE
  5
2BE1
330
2
100
AcDbEntity
  8
KIJUN
100
AcDbLine
 10
554.8799463589652
 20
1396.80887968711
 30
0.0
 11
551.6853883589842
 21
1400.476258687081
 31
0.0
  0
LINE
  5
2BE2
330
2
100
AcDbEntity
  8
KIJUN
100
AcDbLine
 10
551.6853883589842
 20
1400.476258687081
 30
0.0
 11
546.8602773589859
 21
1403.25984468713
 31
0.0
  0
LINE
  5
2BE3
330
2
100
AcDbEntity
  8
KIJUN
100
AcDbLine
 10
546.8602773589859
 20
1403.25984468713
 30
0.0
 11
540.5639983590203
 21
1404.364363687151
 31
0.0
  0
LINE
  5
2BE4
330
2
100
AcDbEntity
  8
KIJUN
100
AcDbLine
 10
540.5639983590203
 20
1404.364363687151
 30
0.0
 11
550.9806653589817
 21
1404.287782687099
 31
0.0
  0
LINE
  5
2BE5
330
2
100
AcDbEntity
  8
KIJUN
100
AcDbLine
 10
550.9806653589817
 20
1404.287782687099
 30
0.0
 11
561.4224783590239
 21
1404.2485396871
 31
0.0
  0
LINE
  5
2BE6
330
2
100
AcDbEntity
  8
KIJUN
100
AcDbLine
 10
561.4224783590239
 20
1404.2485396871
 30
0.0
 11
571.8809283589848
 21
1404.233934687117
 31
0.0
  0
LINE
  5
2BE7
330
2
100
AcDbEntity
  8
KIJUN
100
AcDbLine
 10
571.8809283589848
 20
1404.233934687117
 30
0.0
 11
582.3480143589745
 21
1404.231902687129
 31
0.0
  0
LINE
  5
2BE8
330
2
100
AcDbEntity
  8
KIJUN
100
AcDbLine
 10
582.3480143589745
 20
1404.231902687129
 30
0.0
 11
592.8176403590234
 21
1404.233934687117
 31
0.0
  0
LINE
  5
2BE9
330
2
100
AcDbEntity
  8
KIJUN
100
AcDbLine
 10
592.8176403590234
 20
1404.233934687117
 30
0.0
 11
603.295648359021
 21
1404.2485396871
 31
0.0
  0
LINE
  5
2BEA
330
2
100
AcDbEntity
  8
KIJUN
100
AcDbLine
 10
603.295648359021
 20
1404.2485396871
 30
0.0
 11
613.7905473590194
 21
1404.287782687099
 31
0.0
  0
LINE
  5
2BEB
330
2
100
AcDbEntity
  8
KIJUN
100
AcDbLine
 10
613.7905473590194
 20
1404.287782687099
 30
0.0
 11
624.3104653589885
 21
1404.364363687151
 31
0.0
  0
LINE
  5
2BEC
330
2
100
AcDbEntity
  8
KIJUN
100
AcDbLine
 10
624.3104653589885
 20
1404.364363687151
 30
0.0
 11
616.0094913590196
 21
1402.739525687119
 31
0.0
  0
LINE
  5
2BED
330
2
100
AcDbEntity
  8
KIJUN
100
AcDbLine
 10
616.0094913590196
 20
1402.739525687119
 30
0.0
 11
611.8242063590055
 21
1398.964323687041
 31
0.0
  0
LINE
  5
2BEE
330
2
100
AcDbEntity
  8
KIJUN
100
AcDbLine
 10
611.8242063590055
 20
1398.964323687041
 30
0.0
 11
609.5474773590153
 21
1394.688360687107
 31
0.0
  0
LINE
  5
2BEF
330
2
100
AcDbEntity
  8
KIJUN
100
AcDbLine
 10
609.5474773590153
 20
1394.688360687107
 30
0.0
 11
608.8483423590055
 21
1390.721642687103
 31
0.0
  0
LINE
  5
2BF0
330
2
100
AcDbEntity
  8
KIJUN
100
AcDbLine
 10
608.8483423590055
 20
1390.721642687103
 30
0.0
 11
610.038078359013
 21
1386.283754687104
 31
0.0
  0
LINE
  5
2BF1
330
2
100
AcDbEntity
  8
KIJUN
100
AcDbLine
 10
610.038078359013
 20
1386.283754687104
 30
0.0
 11
613.2159993589725
 21
1383.023918687077
 31
0.0
  0
LINE
  5
2BF6
330
2
100
AcDbEntity
  8
KIJUN
100
AcDbLine
 10
614.7280613589877
 20
1371.974918687143
 30
0.0
 11
550.5879813589895
 21
1371.974918687143
 31
0.0
  0
LINE
  5
2BF7
330
2
100
AcDbEntity
  8
KIJUN
100
AcDbLine
 10
550.5879813589895
 20
1371.974918687143
 30
0.0
 11
548.7906773590207
 21
1372.73196568712
 31
0.0
  0
LINE
  5
2BF8
330
2
100
AcDbEntity
  8
KIJUN
100
AcDbLine
 10
548.7906773590207
 20
1372.73196568712
 30
0.0
 11
547.5088663589818
 21
1374.716848687059
 31
0.0
  0
LINE
  5
2BF9
330
2
100
AcDbEntity
  8
KIJUN
100
AcDbLine
 10
547.5088663589818
 20
1374.716848687059
 30
0.0
 11
547.020043359013
 21
1377.499926687045
 31
0.0
  0
LINE
  5
2BFA
330
2
100
AcDbEntity
  8
KIJUN
100
AcDbLine
 10
547.020043359013
 20
1377.499926687045
 30
0.0
 11
547.5088663589818
 21
1380.283004687155
 31
0.0
  0
LINE
  5
2BFB
330
2
100
AcDbEntity
  8
KIJUN
100
AcDbLine
 10
547.5088663589818
 20
1380.283004687155
 30
0.0
 11
548.7906773590207
 21
1382.267887687094
 31
0.0
  0
LINE
  5
2BFC
330
2
100
AcDbEntity
  8
KIJUN
100
AcDbLine
 10
548.7906773590207
 20
1382.267887687094
 30
0.0
 11
550.5879813589895
 21
1383.024934687078
 31
0.0
  0
LINE
  5
2BFD
330
2
100
AcDbEntity
  8
KIJUN
100
AcDbLine
 10
550.5879813589895
 20
1383.024934687078
 30
0.0
 11
614.7280613589877
 21
1383.024934687078
 31
0.0
  0
LINE
  5
2BFE
330
2
100
AcDbEntity
  8
KIJUN
100
AcDbLine
 10
614.7280613589877
 20
1383.024934687078
 30
0.0
 11
616.5252383589725
 21
1382.267887687094
 31
0.0
  0
LINE
  5
2BFF
330
2
100
AcDbEntity
  8
KIJUN
100
AcDbLine
 10
616.5252383589725
 20
1382.267887687094
 30
0.0
 11
617.8070493590098
 21
1380.283004687155
 31
0.0
  0
LINE
  5
2C00
330
2
100
AcDbEntity
  8
KIJUN
100
AcDbLine
 10
617.8070493590098
 20
1380.283004687155
 30
0.0
 11
618.2959993590234
 21
1377.499926687045
 31
0.0
  0
LINE
  5
2C01
330
2
100
AcDbEntity
  8
KIJUN
100
AcDbLine
 10
618.2959993590234
 20
1377.499926687045
 30
0.0
 11
617.8070493590098
 21
1374.716848687059
 31
0.0
  0
LINE
  5
2C02
330
2
100
AcDbEntity
  8
KIJUN
100
AcDbLine
 10
617.8070493590098
 20
1374.716848687059
 30
0.0
 11
616.5252383589725
 21
1372.73196568712
 31
0.0
  0
LINE
  5
2C03
330
2
100
AcDbEntity
  8
KIJUN
100
AcDbLine
 10
616.5252383589725
 20
1372.73196568712
 30
0.0
 11
614.7280613589877
 21
1371.974918687143
 31
0.0
  0
LINE
  5
2C04
330
2
100
AcDbEntity
  8
KIJUN
100
AcDbLine
 10
574.9774423589892
 20
1372.912940687051
 30
0.0
 11
565.7619413589677
 21
1373.015429687099
 31
0.0
  0
LINE
  5
2C05
330
2
100
AcDbEntity
  8
KIJUN
100
AcDbLine
 10
565.7619413589677
 20
1373.015429687099
 30
0.0
 11
560.303989359008
 21
1373.117918687133
 31
0.0
  0
LINE
  5
2C06
330
2
100
AcDbEntity
  8
KIJUN
100
AcDbLine
 10
560.303989359008
 20
1373.117918687133
 30
0.0
 11
550.8200103589892
 21
1372.093917687112
 31
0.0
  0
LINE
  5
2C07
330
2
100
AcDbEntity
  8
KIJUN
100
AcDbLine
 10
550.8200103589892
 20
1372.093917687112
 30
0.0
 11
546.9730533589959
 21
1367.27985568705
 31
0.0
  0
LINE
  5
2C08
330
2
100
AcDbEntity
  8
KIJUN
100
AcDbLine
 10
546.9730533589959
 20
1367.27985568705
 30
0.0
 11
544.0205573589969
 21
1362.670898687118
 31
0.0
  0
LINE
  5
2C09
330
2
100
AcDbEntity
  8
KIJUN
100
AcDbLine
 10
544.0205573589969
 20
1362.670898687118
 30
0.0
 11
542.3205353589842
 21
1358.471897687147
 31
0.0
  0
LINE
  5
2C0A
330
2
100
AcDbEntity
  8
KIJUN
100
AcDbLine
 10
542.3205353589842
 20
1358.471897687147
 30
0.0
 11
540.3520353589897
 21
1354.272388687097
 31
0.0
  0
LINE
  5
2C0B
330
2
100
AcDbEntity
  8
KIJUN
100
AcDbLine
 10
540.3520353589897
 20
1354.272388687097
 30
0.0
 11
538.562478358986
 21
1348.639430687146
 31
0.0
  0
LINE
  5
2C0C
330
2
100
AcDbEntity
  8
KIJUN
100
AcDbLine
 10
538.562478358986
 20
1348.639430687146
 30
0.0
 11
537.7575523589662
 21
1341.469899687125
 31
0.0
  0
LINE
  5
2C0D
330
2
100
AcDbEntity
  8
KIJUN
100
AcDbLine
 10
537.7575523589662
 20
1341.469899687125
 30
0.0
 11
536.9519913589652
 21
1335.324877687069
 31
0.0
  0
LINE
  5
2C0E
330
2
100
AcDbEntity
  8
KIJUN
100
AcDbLine
 10
536.9519913589652
 20
1335.324877687069
 30
0.0
 11
537.3100043589988
 21
1328.667410687153
 31
0.0
  0
LINE
  5
2C0F
330
2
100
AcDbEntity
  8
KIJUN
100
AcDbLine
 10
537.3100043589988
 20
1328.667410687153
 30
0.0
 11
539.3680393589861
 21
1320.678856687077
 31
0.0
  0
LINE
  5
2C10
330
2
100
AcDbEntity
  8
KIJUN
100
AcDbLine
 10
539.3680393589861
 20
1320.678856687077
 30
0.0
 11
541.6940443590251
 21
1313.611941687147
 31
0.0
  0
LINE
  5
2C11
330
2
100
AcDbEntity
  8
KIJUN
100
AcDbLine
 10
541.6940443590251
 20
1313.611941687147
 30
0.0
 11
547.1519963589867
 21
1304.803475687056
 31
0.0
  0
LINE
  5
2C12
330
2
100
AcDbEntity
  8
KIJUN
100
AcDbLine
 10
547.1519963589867
 20
1304.803475687056
 30
0.0
 11
552.6989753590073
 21
1298.248878687083
 31
0.0
  0
LINE
  5
2C13
330
2
100
AcDbEntity
  8
KIJUN
100
AcDbLine
 10
552.6989753590073
 20
1298.248878687083
 30
0.0
 11
560.6620023589835
 21
1291.488922687111
 31
0.0
  0
LINE
  5
2C14
330
2
100
AcDbEntity
  8
KIJUN
100
AcDbLine
 10
560.6620023589835
 20
1291.488922687111
 30
0.0
 11
566.4774593589804
 21
1285.446389687105
 31
0.0
  0
LINE
  5
2C15
330
2
100
AcDbEntity
  8
KIJUN
100
AcDbLine
 10
566.4774593589804
 20
1285.446389687105
 30
0.0
 11
570.6825563590005
 21
1278.788922687063
 31
0.0
  0
LINE
  5
2C16
330
2
100
AcDbEntity
  8
KIJUN
100
AcDbLine
 10
570.6825563590005
 20
1278.788922687063
 30
0.0
 11
571.7564683590067
 21
1270.799860687049
 31
0.0
  0
LINE
  5
2C17
330
2
100
AcDbEntity
  8
KIJUN
100
AcDbLine
 10
571.7564683590067
 20
1270.799860687049
 30
0.0
 11
571.7564683590067
 21
1264.757454687091
 31
0.0
  0
LINE
  5
2C18
330
2
100
AcDbEntity
  8
KIJUN
100
AcDbLine
 10
571.7564683590067
 20
1264.757454687091
 30
0.0
 11
569.1614773589876
 21
1259.840903687103
 31
0.0
  0
LINE
  5
2C19
330
2
100
AcDbEntity
  8
KIJUN
100
AcDbLine
 10
569.1614773589876
 20
1259.840903687103
 30
0.0
 11
565.9405033590132
 21
1257.485434687146
 31
0.0
  0
LINE
  5
2C1A
330
2
100
AcDbEntity
  8
KIJUN
100
AcDbLine
 10
565.9405033590132
 20
1257.485434687146
 30
0.0
 11
565.9405033590132
 21
1250.725859687061
 31
0.0
  0
LINE
  5
2C1B
330
2
100
AcDbEntity
  8
KIJUN
100
AcDbLine
 10
565.9405033590132
 20
1250.725859687061
 30
0.0
 11
568.6250293590178
 21
1245.911924687056
 31
0.0
  0
LINE
  5
2C1C
330
2
100
AcDbEntity
  8
KIJUN
100
AcDbLine
 10
568.6250293590178
 20
1245.911924687056
 30
0.0
 11
575.5140173590093
 21
1243.453966687049
 31
0.0
  0
LINE
  5
2C1D
330
2
100
AcDbEntity
  8
KIJUN
100
AcDbLine
 10
575.5140173590093
 20
1243.453966687049
 30
0.0
 11
579.1825393590166
 21
1245.297371687145
 31
0.0
  0
LINE
  5
2C1E
330
2
100
AcDbEntity
  8
KIJUN
100
AcDbLine
 10
579.1825393590166
 20
1245.297371687145
 30
0.0
 11
583.3875093589925
 21
1252.569391687097
 31
0.0
  0
LINE
  5
2C1F
330
2
100
AcDbEntity
  8
KIJUN
100
AcDbLine
 10
583.3875093589925
 20
1252.569391687097
 30
0.0
 11
584.8190533590209
 21
1258.407454687063
 31
0.0
  0
LINE
  5
2C20
330
2
100
AcDbEntity
  8
KIJUN
100
AcDbLine
 10
584.8190533590209
 20
1258.407454687063
 30
0.0
 11
586.0715273590081
 21
1264.757454687091
 31
0.0
  0
LINE
  5
2C21
330
2
100
AcDbEntity
  8
KIJUN
100
AcDbLine
 10
586.0715273590081
 20
1264.757454687091
 30
0.0
 11
584.1035353590018
 21
1273.46292368707
 31
0.0
  0
LINE
  5
2C22
330
2
100
AcDbEntity
  8
KIJUN
100
AcDbLine
 10
584.1035353590018
 20
1273.46292368707
 30
0.0
 11
580.2559433590253
 21
1281.75894468705
 31
0.0
  0
LINE
  5
2C23
330
2
100
AcDbEntity
  8
KIJUN
100
AcDbLine
 10
580.2559433590253
 20
1281.75894468705
 30
0.0
 11
572.2930433589704
 21
1289.133453687153
 31
0.0
  0
LINE
  5
2C24
330
2
100
AcDbEntity
  8
KIJUN
100
AcDbLine
 10
572.2930433589704
 20
1289.133453687153
 30
0.0
 11
565.9405033590132
 21
1293.332454687139
 31
0.0
  0
LINE
  5
2C25
330
2
100
AcDbEntity
  8
KIJUN
100
AcDbLine
 10
565.9405033590132
 20
1293.332454687139
 30
0.0
 11
572.2930433589704
 21
1291.488922687111
 31
0.0
  0
LINE
  5
2C26
330
2
100
AcDbEntity
  8
KIJUN
100
AcDbLine
 10
572.2930433589704
 20
1291.488922687111
 30
0.0
 11
577.5720523589975
 21
1293.332454687139
 31
0.0
  0
LINE
  5
2C27
330
2
100
AcDbEntity
  8
KIJUN
100
AcDbLine
 10
577.5720523589975
 20
1293.332454687139
 30
0.0
 11
580.2559433590253
 21
1298.248878687083
 31
0.0
  0
LINE
  5
2C28
330
2
100
AcDbEntity
  8
KIJUN
100
AcDbLine
 10
580.2559433590253
 20
1298.248878687083
 30
0.0
 11
578.6454563589991
 21
1304.905964687105
 31
0.0
  0
LINE
  5
2C29
330
2
100
AcDbEntity
  8
KIJUN
100
AcDbLine
 10
578.6454563589991
 20
1304.905964687105
 30
0.0
 11
573.9035303589893
 21
1303.062432687085
 31
0.0
  0
LINE
  5
2C2A
330
2
100
AcDbEntity
  8
KIJUN
100
AcDbLine
 10
573.9035303589893
 20
1303.062432687085
 30
0.0
 11
566.4774593589804
 21
1300.092410687105
 31
0.0
  0
LINE
  5
2C2B
330
2
100
AcDbEntity
  8
KIJUN
100
AcDbLine
 10
566.4774593589804
 20
1300.092410687105
 30
0.0
 11
559.5884713589889
 21
1300.706963687125
 31
0.0
  0
LINE
  5
2C2C
330
2
100
AcDbEntity
  8
KIJUN
100
AcDbLine
 10
559.5884713589889
 20
1300.706963687125
 30
0.0
 11
552.1620193589756
 21
1304.291411687083
 31
0.0
  0
LINE
  5
2C2D
330
2
100
AcDbEntity
  8
KIJUN
100
AcDbLine
 10
552.1620193589756
 20
1304.291411687083
 30
0.0
 11
547.3309393589775
 21
1309.617410687084
 31
0.0
  0
LINE
  5
2C2E
330
2
100
AcDbEntity
  8
KIJUN
100
AcDbLine
 10
547.3309393589775
 20
1309.617410687084
 30
0.0
 11
543.4834743589785
 21
1316.274877687126
 31
0.0
  0
LINE
  5
2C2F
330
2
100
AcDbEntity
  8
KIJUN
100
AcDbLine
 10
543.4834743589785
 20
1316.274877687126
 30
0.0
 11
540.4414433589895
 21
1326.00447468705
 31
0.0
  0
LINE
  5
2C30
330
2
100
AcDbEntity
  8
KIJUN
100
AcDbLine
 10
540.4414433589895
 20
1326.00447468705
 30
0.0
 11
539.636517358977
 21
1336.144408687071
 31
0.0
  0
LINE
  5
2C31
330
2
100
AcDbEntity
  8
KIJUN
100
AcDbLine
 10
539.636517358977
 20
1336.144408687071
 30
0.0
 11
542.1414653590086
 21
1348.74191968707
 31
0.0
  0
LINE
  5
2C32
330
2
100
AcDbEntity
  8
KIJUN
100
AcDbLine
 10
542.1414653590086
 20
1348.74191968707
 30
0.0
 11
547.4204743589775
 21
1357.242918687139
 31
0.0
  0
LINE
  5
2C33
330
2
100
AcDbEntity
  8
KIJUN
100
AcDbLine
 10
547.4204743589775
 20
1357.242918687139
 30
0.0
 11
551.1780233589711
 21
1362.363939687037
 31
0.0
  0
LINE
  5
2C34
330
2
100
AcDbEntity
  8
KIJUN
100
AcDbLine
 10
551.1780233589711
 20
1362.363939687037
 30
0.0
 11
557.5304363590007
 21
1366.972896687085
 31
0.0
  0
LINE
  5
2C35
330
2
100
AcDbEntity
  8
KIJUN
100
AcDbLine
 10
557.5304363590007
 20
1366.972896687085
 30
0.0
 11
564.8669723590178
 21
1370.45485568711
 31
0.0
  0
LINE
  5
2C36
330
2
100
AcDbEntity
  8
KIJUN
100
AcDbLine
 10
564.8669723590178
 20
1370.45485568711
 30
0.0
 11
574.9774423589892
 21
1372.912940687051
 31
0.0
  0
LINE
  5
2C37
330
2
100
AcDbEntity
  8
KIJUN
100
AcDbLine
 10
573.3575573590183
 20
1372.384874687082
 30
0.0
 11
564.8579553589711
 21
1370.54146968711
 31
0.0
  0
LINE
  5
2C38
330
2
100
AcDbEntity
  8
KIJUN
100
AcDbLine
 10
564.8579553589711
 20
1370.54146968711
 30
0.0
 11
557.5210383590006
 21
1366.854405687054
 31
0.0
  0
LINE
  5
2C39
330
2
100
AcDbEntity
  8
KIJUN
100
AcDbLine
 10
557.5210383590006
 20
1366.854405687054
 30
0.0
 11
552.3314373589784
 21
1363.781386687088
 31
0.0
  0
LINE
  5
2C3A
330
2
100
AcDbEntity
  8
KIJUN
100
AcDbLine
 10
552.3314373589784
 20
1363.781386687088
 30
0.0
 11
547.4104413589862
 21
1357.12442768711
 31
0.0
  0
LINE
  5
2C3B
330
2
100
AcDbEntity
  8
KIJUN
100
AcDbLine
 10
547.4104413589862
 20
1357.12442768711
 30
0.0
 11
542.6685153589683
 21
1349.852407687041
 31
0.0
  0
LINE
  5
2C3C
330
2
100
AcDbEntity
  8
KIJUN
100
AcDbLine
 10
542.6685153589683
 20
1349.852407687041
 30
0.0
 11
539.9844973590129
 21
1342.580387687094
 31
0.0
  0
LINE
  5
2C3D
330
2
100
AcDbEntity
  8
KIJUN
100
AcDbLine
 10
539.9844973590129
 20
1342.580387687094
 30
0.0
 11
538.9999933590274
 21
1333.46547068711
 31
0.0
  0
LINE
  5
2C3E
330
2
100
AcDbEntity
  8
KIJUN
100
AcDbLine
 10
538.9999933590274
 20
1333.46547068711
 30
0.0
 11
539.9844973590129
 21
1324.861855687074
 31
0.0
  0
LINE
  5
2C3F
330
2
100
AcDbEntity
  8
KIJUN
100
AcDbLine
 10
539.9844973590129
 20
1324.861855687074
 30
0.0
 11
541.0580283590075
 21
1317.589962687054
 31
0.0
  0
LINE
  5
2C40
330
2
100
AcDbEntity
  8
KIJUN
100
AcDbLine
 10
541.0580283590075
 20
1317.589962687054
 30
0.0
 11
545.7999543590244
 21
1310.318450687047
 31
0.0
  0
LINE
  5
2C41
330
2
100
AcDbEntity
  8
KIJUN
100
AcDbLine
 10
545.7999543590244
 20
1310.318450687047
 30
0.0
 11
550.6315423590117
 21
1304.787473687074
 31
0.0
  0
LINE
  5
2C42
330
2
100
AcDbEntity
  8
KIJUN
100
AcDbLine
 10
550.6315423590117
 20
1304.787473687074
 30
0.0
 11
555.3734683590205
 21
1301.714962687047
 31
0.0
  0
LINE
  5
2C43
330
2
100
AcDbEntity
  8
KIJUN
100
AcDbLine
 10
555.3734683590205
 20
1301.714962687047
 30
0.0
 11
562.2629643590093
 21
1299.359366687054
 31
0.0
  0
LINE
  5
2C44
330
2
100
AcDbEntity
  8
KIJUN
100
AcDbLine
 10
562.2629643590093
 20
1299.359366687054
 30
0.0
 11
569.6895433590166
 21
1300.588472687089
 31
0.0
  0
LINE
  5
2C45
330
2
100
AcDbEntity
  8
KIJUN
100
AcDbLine
 10
569.6895433590166
 20
1300.588472687089
 30
0.0
 11
576.5790393590045
 21
1303.558367687148
 31
0.0
  0
LINE
  5
2C46
330
2
100
AcDbEntity
  8
KIJUN
100
AcDbLine
 10
576.5790393590045
 20
1303.558367687148
 30
0.0
 11
580.7840093589816
 21
1308.474918687135
 31
0.0
  0
LINE
  5
2C47
330
2
100
AcDbEntity
  8
KIJUN
100
AcDbLine
 10
580.7840093589816
 20
1308.474918687135
 30
0.0
 11
583.3784923590042
 21
1313.288472687136
 31
0.0
  0
LINE
  5
2C48
330
2
100
AcDbEntity
  8
KIJUN
100
AcDbLine
 10
583.3784923590042
 20
1313.288472687136
 30
0.0
 11
585.5260623589834
 21
1318.818941687055
 31
0.0
  0
LINE
  5
2C49
330
2
100
AcDbEntity
  8
KIJUN
100
AcDbLine
 10
585.5260623589834
 20
1318.818941687055
 30
0.0
 11
587.1365493590032
 21
1327.319940687115
 31
0.0
  0
LINE
  5
2C4A
330
2
100
AcDbEntity
  8
KIJUN
100
AcDbLine
 10
587.1365493590032
 20
1327.319940687115
 30
0.0
 11
586.063018359016
 21
1335.820939687068
 31
0.0
  0
LINE
  5
2C4B
330
2
100
AcDbEntity
  8
KIJUN
100
AcDbLine
 10
586.063018359016
 20
1335.820939687068
 30
0.0
 11
583.3819213590081
 21
1339.868429687159
 31
0.0
  0
LINE
  5
2C4C
330
2
100
AcDbEntity
  8
KIJUN
100
AcDbLine
 10
583.3819213590081
 20
1339.868429687159
 30
0.0
 11
580.6613273589732
 21
1342.937257687084
 31
0.0
  0
LINE
  5
2C4D
330
2
100
AcDbEntity
  8
KIJUN
100
AcDbLine
 10
580.6613273589732
 20
1342.937257687084
 30
0.0
 11
578.0999913589744
 21
1346.165470687157
 31
0.0
  0
LINE
  5
2C4E
330
2
100
AcDbEntity
  8
KIJUN
100
AcDbLine
 10
578.0999913589744
 20
1346.165470687157
 30
0.0
 11
573.8514603589695
 21
1347.690232687144
 31
0.0
  0
LINE
  5
2C4F
330
2
100
AcDbEntity
  8
KIJUN
100
AcDbLine
 10
573.8514603589695
 20
1347.690232687144
 30
0.0
 11
570.0605103589882
 21
1348.122667687081
 31
0.0
  0
LINE
  5
2C50
330
2
100
AcDbEntity
  8
KIJUN
100
AcDbLine
 10
570.0605103589882
 20
1348.122667687081
 30
0.0
 11
567.5419733589847
 21
1346.779896687128
 31
0.0
  0
LINE
  5
2C51
330
2
100
AcDbEntity
  8
KIJUN
100
AcDbLine
 10
567.5419733589847
 20
1346.779896687128
 30
0.0
 11
564.0062933590129
 21
1346.374004687061
 31
0.0
  0
LINE
  5
2C52
330
2
100
AcDbEntity
  8
KIJUN
100
AcDbLine
 10
564.0062933590129
 20
1346.374004687061
 30
0.0
 11
561.2658873589721
 21
1344.761866687063
 31
0.0
  0
LINE
  5
2C53
330
2
100
AcDbEntity
  8
KIJUN
100
AcDbLine
 10
561.2658873589721
 20
1344.761866687063
 30
0.0
 11
558.5055423589985
 21
1343.194940687122
 31
0.0
  0
LINE
  5
2C54
330
2
100
AcDbEntity
  8
KIJUN
100
AcDbLine
 10
558.5055423589985
 20
1343.194940687122
 30
0.0
 11
555.3734683590205
 21
1335.206386687039
 31
0.0
  0
LINE
  5
2C55
330
2
100
AcDbEntity
  8
KIJUN
100
AcDbLine
 10
555.3734683590205
 20
1335.206386687039
 30
0.0
 11
555.9105513589789
 21
1326.090961687117
 31
0.0
  0
LINE
  5
2C56
330
2
100
AcDbEntity
  8
KIJUN
100
AcDbLine
 10
555.9105513589789
 20
1326.090961687117
 30
0.0
 11
560.1160293590123
 21
1320.66298168713
 31
0.0
  0
LINE
  5
2C57
330
2
100
AcDbEntity
  8
KIJUN
100
AcDbLine
 10
560.1160293590123
 20
1320.66298168713
 30
0.0
 11
568.6155043589656
 21
1318.818941687055
 31
0.0
  0
LINE
  5
2C58
330
2
100
AcDbEntity
  8
KIJUN
100
AcDbLine
 10
568.6155043589656
 20
1318.818941687055
 30
0.0
 11
576.5790393590045
 21
1322.506386687115
 31
0.0
  0
LINE
  5
2C59
330
2
100
AcDbEntity
  8
KIJUN
100
AcDbLine
 10
576.5790393590045
 20
1322.506386687115
 30
0.0
 11
573.3575573590183
 21
1316.36085668712
 31
0.0
  0
LINE
  5
2C5A
330
2
100
AcDbEntity
  8
KIJUN
100
AcDbLine
 10
573.3575573590183
 20
1316.36085668712
 30
0.0
 11
567.5419733589847
 21
1313.288472687136
 31
0.0
  0
LINE
  5
2C5B
330
2
100
AcDbEntity
  8
KIJUN
100
AcDbLine
 10
567.5419733589847
 20
1313.288472687136
 30
0.0
 11
561.7265163589741
 21
1313.288472687136
 31
0.0
  0
LINE
  5
2C5C
330
2
100
AcDbEntity
  8
KIJUN
100
AcDbLine
 10
561.7265163589741
 20
1313.288472687136
 30
0.0
 11
555.3734683590205
 21
1316.36085668712
 31
0.0
  0
LINE
  5
2C5D
330
2
100
AcDbEntity
  8
KIJUN
100
AcDbLine
 10
555.3734683590205
 20
1316.36085668712
 30
0.0
 11
551.1684983589852
 21
1321.891960687137
 31
0.0
  0
LINE
  5
2C5E
330
2
100
AcDbEntity
  8
KIJUN
100
AcDbLine
 10
551.1684983589852
 20
1321.891960687137
 30
0.0
 11
549.02105535899
 21
1331.621430687136
 31
0.0
  0
LINE
  5
2C5F
330
2
100
AcDbEntity
  8
KIJUN
100
AcDbLine
 10
549.02105535899
 20
1331.621430687136
 30
0.0
 11
550.0949673589898
 21
1341.965961687115
 31
0.0
  0
LINE
  5
2C60
330
2
100
AcDbEntity
  8
KIJUN
100
AcDbLine
 10
550.0949673589898
 20
1341.965961687115
 30
0.0
 11
553.7629813590005
 21
1349.237981687062
 31
0.0
  0
LINE
  5
2C61
330
2
100
AcDbEntity
  8
KIJUN
100
AcDbLine
 10
553.7629813590005
 20
1349.237981687062
 30
0.0
 11
558.326472359015
 21
1355.075917687108
 31
0.0
  0
LINE
  5
2C62
330
2
100
AcDbEntity
  8
KIJUN
100
AcDbLine
 10
558.326472359015
 20
1355.075917687108
 30
0.0
 11
565.3945303589909
 21
1359.582385687108
 31
0.0
  0
LINE
  5
2C63
330
2
100
AcDbEntity
  8
KIJUN
100
AcDbLine
 10
565.3945303589909
 20
1359.582385687108
 30
0.0
 11
576.2210263589708
 21
1362.757385687053
 31
0.0
  0
LINE
  5
2C64
330
2
100
AcDbEntity
  8
KIJUN
100
AcDbLine
 10
576.2210263589708
 20
1362.757385687053
 30
0.0
 11
589.6420053589731
 21
1361.835365687128
 31
0.0
  0
LINE
  5
2C65
330
2
100
AcDbEntity
  8
KIJUN
100
AcDbLine
 10
589.6420053589731
 20
1361.835365687128
 30
0.0
 11
600.8260063589882
 21
1355.895448687102
 31
0.0
  0
LINE
  5
2C66
330
2
100
AcDbEntity
  8
KIJUN
100
AcDbLine
 10
600.8260063589882
 20
1355.895448687102
 30
0.0
 11
608.9679763590225
 21
1346.984874687108
 31
0.0
  0
LINE
  5
2C67
330
2
100
AcDbEntity
  8
KIJUN
100
AcDbLine
 10
608.9679763590225
 20
1346.984874687108
 30
0.0
 11
614.9625033590105
 21
1338.278897687074
 31
0.0
  0
LINE
  5
2C68
330
2
100
AcDbEntity
  8
KIJUN
100
AcDbLine
 10
614.9625033590105
 20
1338.278897687074
 30
0.0
 11
618.6310253590159
 21
1327.831877687054
 31
0.0
  0
LINE
  5
2C69
330
2
100
AcDbEntity
  8
KIJUN
100
AcDbLine
 10
618.6310253590159
 20
1327.831877687054
 30
0.0
 11
620.0624423589957
 21
1320.764962687122
 31
0.0
  0
LINE
  5
2C6A
330
2
100
AcDbEntity
  8
KIJUN
100
AcDbLine
 10
620.0624423589957
 20
1320.764962687122
 30
0.0
 11
620.957030358983
 21
1313.800409687073
 31
0.0
  0
LINE
  5
2C6B
330
2
100
AcDbEntity
  8
KIJUN
100
AcDbLine
 10
620.957030358983
 20
1313.800409687073
 30
0.0
 11
622.3889553590238
 21
1308.576899687128
 31
0.0
  0
LINE
  5
2C6C
330
2
100
AcDbEntity
  8
KIJUN
100
AcDbLine
 10
622.3889553590238
 20
1308.576899687128
 30
0.0
 11
622.3889553590238
 21
1299.768941687102
 31
0.0
  0
LINE
  5
2C6D
330
2
100
AcDbEntity
  8
KIJUN
100
AcDbLine
 10
622.3889553590238
 20
1299.768941687102
 30
0.0
 11
622.3889553590238
 21
1291.165453687101
 31
0.0
  0
LINE
  5
2C6E
330
2
100
AcDbEntity
  8
KIJUN
100
AcDbLine
 10
622.3889553590238
 20
1291.165453687101
 30
0.0
 11
621.6730563590004
 21
1281.537964687089
 31
0.0
  0
LINE
  5
2C6F
330
2
100
AcDbEntity
  8
KIJUN
100
AcDbLine
 10
621.6730563590004
 20
1281.537964687089
 30
0.0
 11
620.8674953589984
 21
1270.066943687157
 31
0.0
  0
LINE
  5
2C70
330
2
100
AcDbEntity
  8
KIJUN
100
AcDbLine
 10
620.8674953589984
 20
1270.066943687157
 30
0.0
 11
619.3465433590222
 21
1260.746921687148
 31
0.0
  0
LINE
  5
2C71
330
2
100
AcDbEntity
  8
KIJUN
100
AcDbLine
 10
619.3465433590222
 20
1260.746921687148
 30
0.0
 11
617.2890163589813
 21
1250.197412687086
 31
0.0
  0
LINE
  5
2C72
330
2
100
AcDbEntity
  8
KIJUN
100
AcDbLine
 10
617.2890163589813
 20
1250.197412687086
 30
0.0
 11
614.1574503590068
 21
1238.828880687093
 31
0.0
  0
LINE
  5
2C73
330
2
100
AcDbEntity
  8
KIJUN
100
AcDbLine
 10
614.1574503590068
 20
1238.828880687093
 30
0.0
 11
612.0100073590124
 21
1226.293086335269
 31
0.0
  0
LINE
  5
2C74
330
2
100
AcDbEntity
  8
KIJUN
100
AcDbLine
 10
612.0100073590124
 20
1226.293086335269
 30
0.0
 11
608.2519503590132
 21
1206.683452687039
 31
0.0
  0
LINE
  5
2C75
330
2
100
AcDbEntity
  8
KIJUN
100
AcDbLine
 10
608.2519503590132
 20
1206.683452687039
 30
0.0
 11
605.1205113590161
 21
1196.338921687066
 31
0.0
  0
LINE
  5
2C76
330
2
100
AcDbEntity
  8
KIJUN
100
AcDbLine
 10
605.1205113590161
 20
1196.338921687066
 30
0.0
 11
601.4519893590098
 21
1185.994517687142
 31
0.0
  0
LINE
  5
2C77
330
2
100
AcDbEntity
  8
KIJUN
100
AcDbLine
 10
601.4519893590098
 20
1185.994517687142
 30
0.0
 11
597.6944403590136
 21
1174.421007687053
 31
0.0
  0
LINE
  5
2C78
330
2
100
AcDbEntity
  8
KIJUN
100
AcDbLine
 10
597.6944403590136
 20
1174.421007687053
 30
0.0
 11
593.9365103589993
 21
1163.359434687127
 31
0.0
  0
LINE
  5
2C79
330
2
100
AcDbEntity
  8
KIJUN
100
AcDbLine
 10
593.9365103589993
 20
1163.359434687127
 30
0.0
 11
590.8049443590183
 21
1151.786432687093
 31
0.0
  0
LINE
  5
2C7A
330
2
100
AcDbEntity
  8
KIJUN
100
AcDbLine
 10
590.8049443590183
 20
1151.786432687093
 30
0.0
 11
588.7470363590231
 21
1142.056454687141
 31
0.0
  0
LINE
  5
2C7B
330
2
100
AcDbEntity
  8
KIJUN
100
AcDbLine
 10
588.7470363590231
 20
1142.056454687141
 30
0.0
 11
586.5100583589786
 21
1131.711923687051
 31
0.0
  0
LINE
  5
2C7C
330
2
100
AcDbEntity
  8
KIJUN
100
AcDbLine
 10
586.5100583589786
 20
1131.711923687051
 30
0.0
 11
584.9889793590158
 21
1119.626476687141
 31
0.0
  0
LINE
  5
2C7D
330
2
100
AcDbEntity
  8
KIJUN
100
AcDbLine
 10
584.9889793590158
 20
1119.626476687141
 30
0.0
 11
583.7365053589786
 21
1108.770008687128
 31
0.0
  0
LINE
  5
2C7E
330
2
100
AcDbEntity
  8
KIJUN
100
AcDbLine
 10
583.7365053589786
 20
1108.770008687128
 30
0.0
 11
582.0364833589677
 21
1096.069500687135
 31
0.0
  0
LINE
  5
2C7F
330
2
100
AcDbEntity
  8
KIJUN
100
AcDbLine
 10
582.0364833589677
 20
1096.069500687135
 30
0.0
 11
581.3209653590132
 21
1084.291520687127
 31
0.0
  0
LINE
  5
2C80
330
2
100
AcDbEntity
  8
KIJUN
100
AcDbLine
 10
581.3209653590132
 20
1084.291520687127
 30
0.0
 11
580.9629523589877
 21
1070.464522687072
 31
0.0
  0
LINE
  5
2C81
330
2
100
AcDbEntity
  8
KIJUN
100
AcDbLine
 10
580.9629523589877
 20
1070.464522687072
 30
0.0
 11
581.3209653590132
 21
1058.173970687139
 31
0.0
  0
LINE
  5
2C82
330
2
100
AcDbEntity
  8
KIJUN
100
AcDbLine
 10
581.3209653590132
 20
1058.173970687139
 30
0.0
 11
582.3944963590096
 21
1043.527949687147
 31
0.0
  0
LINE
  5
2C83
330
2
100
AcDbEntity
  8
KIJUN
100
AcDbLine
 10
582.3944963590096
 20
1043.527949687147
 30
0.0
 11
582.931452358975
 21
1032.568992687078
 31
0.0
  0
LINE
  5
2C84
330
2
100
AcDbEntity
  8
KIJUN
100
AcDbLine
 10
582.931452358975
 20
1032.568992687078
 30
0.0
 11
584.8100363589741
 21
1019.356928687057
 31
0.0
  0
LINE
  5
2C85
330
2
100
AcDbEntity
  8
KIJUN
100
AcDbLine
 10
584.8100363589741
 20
1019.356928687057
 30
0.0
 11
586.420523358994
 21
1010.036525687038
 31
0.0
  0
LINE
  5
2C86
330
2
100
AcDbEntity
  8
KIJUN
100
AcDbLine
 10
586.420523358994
 20
1010.036525687038
 30
0.0
 11
588.0315183590113
 21
1000.921481687119
 31
0.0
  0
LINE
  5
2C87
330
2
100
AcDbEntity
  8
KIJUN
100
AcDbLine
 10
588.0315183590113
 20
1000.921481687119
 30
0.0
 11
590.0890453590013
 21
993.7519506870986
 31
0.0
  0
LINE
  5
2C88
330
2
100
AcDbEntity
  8
KIJUN
100
AcDbLine
 10
590.0890453590013
 20
993.7519506870986
 30
0.0
 11
601.0049493589798
 21
962.3089096870636
 31
0.0
  0
LINE
  5
2C89
330
2
100
AcDbEntity
  8
KIJUN
100
AcDbLine
 10
601.0049493589798
 20
962.3089096870636
 30
0.0
 11
598.1414803589772
 21
964.3569116871177
 31
0.0
  0
LINE
  5
2C8A
330
2
100
AcDbEntity
  8
KIJUN
100
AcDbLine
 10
598.1414803589772
 20
964.3569116871177
 30
0.0
 11
602.2575503590172
 21
962.7184846871116
 31
0.0
  0
LINE
  5
2C8B
330
2
100
AcDbEntity
  8
KIJUN
100
AcDbLine
 10
602.2575503590172
 20
962.7184846871116
 30
0.0
 11
601.094484358979
 21
972.6534406870364
 31
0.0
  0
LINE
  5
2C8C
330
2
100
AcDbEntity
  8
KIJUN
100
AcDbLine
 10
601.094484358979
 20
972.6534406870364
 30
0.0
 11
605.2100463590153
 21
979.5155046870446
 31
0.0
  0
LINE
  5
2C8D
330
2
100
AcDbEntity
  8
KIJUN
100
AcDbLine
 10
605.2100463590153
 20
979.5155046870446
 30
0.0
 11
610.8469413589749
 21
984.4314206870427
 31
0.0
  0
LINE
  5
2C8E
330
2
100
AcDbEntity
  8
KIJUN
100
AcDbLine
 10
610.8469413589749
 20
984.4314206870427
 30
0.0
 11
603.1520113590207
 21
1010.95841868703
 31
0.0
  0
LINE
  5
2C8F
330
2
100
AcDbEntity
  8
KIJUN
100
AcDbLine
 10
603.1520113590207
 20
1010.95841868703
 30
0.0
 11
600.4679933590126
 21
1024.375460687146
 31
0.0
  0
LINE
  5
2C90
330
2
100
AcDbEntity
  8
KIJUN
100
AcDbLine
 10
600.4679933590126
 20
1024.375460687146
 30
0.0
 11
598.7679713590008
 21
1037.485416687139
 31
0.0
  0
LINE
  5
2C91
330
2
100
AcDbEntity
  8
KIJUN
100
AcDbLine
 10
598.7679713590008
 20
1037.485416687139
 30
0.0
 11
597.6944403590136
 21
1052.028948687091
 31
0.0
  0
LINE
  5
2C92
330
2
100
AcDbEntity
  8
KIJUN
100
AcDbLine
 10
597.6944403590136
 20
1052.028948687091
 30
0.0
 11
597.0679493589963
 21
1072.000968687085
 31
0.0
  0
LINE
  5
2C93
330
2
100
AcDbEntity
  8
KIJUN
100
AcDbLine
 10
597.0679493589963
 20
1072.000968687085
 30
0.0
 11
597.6944403590136
 21
1090.641520687032
 31
0.0
  0
LINE
  5
2C94
330
2
100
AcDbEntity
  8
KIJUN
100
AcDbLine
 10
597.6944403590136
 20
1090.641520687032
 30
0.0
 11
599.3050543590192
 21
1109.794009687039
 31
0.0
  0
LINE
  5
2C95
330
2
100
AcDbEntity
  8
KIJUN
100
AcDbLine
 10
599.3050543590192
 20
1109.794009687039
 30
0.0
 11
604.1365153590207
 21
1139.085924687106
 31
0.0
  0
LINE
  5
2C96
330
2
100
AcDbEntity
  8
KIJUN
100
AcDbLine
 10
604.1365153590207
 20
1139.085924687106
 30
0.0
 11
611.115038359004
 21
1164.178965687121
 31
0.0
  0
LINE
  5
2C97
330
2
100
AcDbEntity
  8
KIJUN
100
AcDbLine
 10
611.115038359004
 20
1164.178965687121
 30
0.0
 11
622.0309423589846
 21
1196.338921687066
 31
0.0
  0
LINE
  5
2C98
330
2
100
AcDbEntity
  8
KIJUN
100
AcDbLine
 10
622.0309423589846
 20
1196.338921687066
 30
0.0
 11
629.9939693589744
 21
1228.751044335274
 31
0.0
  0
LINE
  5
2C99
330
2
100
AcDbEntity
  8
KIJUN
100
AcDbLine
 10
629.9939693589744
 20
1228.751044335274
 30
0.0
 11
635.2729783589943
 21
1251.836474687081
 31
0.0
  0
LINE
  5
2C9A
330
2
100
AcDbEntity
  8
KIJUN
100
AcDbLine
 10
635.2729783589943
 20
1251.836474687081
 30
0.0
 11
641.6255183590151
 21
1291.165453687101
 31
0.0
  0
LINE
  5
2C9B
330
2
100
AcDbEntity
  8
KIJUN
100
AcDbLine
 10
641.6255183590151
 20
1291.165453687101
 30
0.0
 11
642.3410363589623
 21
1314.722429687123
 31
0.0
  0
LINE
  5
2C9C
330
2
100
AcDbEntity
  8
KIJUN
100
AcDbLine
 10
642.3410363589623
 20
1314.722429687123
 30
0.0
 11
638.5834873589678
 21
1335.718450687137
 31
0.0
  0
LINE
  5
2C9D
330
2
100
AcDbEntity
  8
KIJUN
100
AcDbLine
 10
638.5834873589678
 20
1335.718450687137
 30
0.0
 11
632.7675223589663
 21
1347.90638668708
 31
0.0
  0
LINE
  5
2C9E
330
2
100
AcDbEntity
  8
KIJUN
100
AcDbLine
 10
632.7675223589663
 20
1347.90638668708
 30
0.0
 11
626.7729953589856
 21
1359.377407687137
 31
0.0
  0
LINE
  5
2C9F
330
2
100
AcDbEntity
  8
KIJUN
100
AcDbLine
 10
626.7729953589856
 20
1359.377407687137
 30
0.0
 11
613.5309593589822
 21
1372.282385687149
 31
0.0
  0
LINE
  5
2CA0
330
2
100
AcDbEntity
  8
KIJUN
100
AcDbLine
 10
613.5309593589822
 20
1372.282385687149
 30
0.0
 11
573.3575573590183
 21
1372.384874687082
 31
0.0
  0
LINE
  5
2CA1
330
2
100
AcDbEntity
  8
KIJUN
100
AcDbLine
 10
623.9764553590044
 20
1404.486918687059
 30
0.0
 11
540.3195233590135
 21
1404.486918687059
 31
0.0
  0
LINE
  5
2CA2
330
2
100
AcDbEntity
  8
KIJUN
100
AcDbLine
 10
540.3195233590135
 20
1404.486918687059
 30
0.0
 11
537.6155663590084
 21
1405.519428687077
 31
0.0
  0
LINE
  5
2CA3
330
2
100
AcDbEntity
  8
KIJUN
100
AcDbLine
 10
537.6155663590084
 20
1405.519428687077
 30
0.0
 11
535.6870713589865
 21
1408.226052687061
 31
0.0
  0
LINE
  5
2CA4
330
2
100
AcDbEntity
  8
KIJUN
100
AcDbLine
 10
535.6870713589865
 20
1408.226052687061
 30
0.0
 11
534.9514873589909
 21
1412.020939687109
 31
0.0
  0
LINE
  5
2CA5
330
2
100
AcDbEntity
  8
KIJUN
100
AcDbLine
 10
534.9514873589909
 20
1412.020939687109
 30
0.0
 11
535.6870713589865
 21
1415.816080687126
 31
0.0
  0
LINE
  5
2CA6
330
2
100
AcDbEntity
  8
KIJUN
100
AcDbLine
 10
535.6870713589865
 20
1415.816080687126
 30
0.0
 11
537.6155663590084
 21
1418.52295868708
 31
0.0
  0
LINE
  5
2CA7
330
2
100
AcDbEntity
  8
KIJUN
100
AcDbLine
 10
537.6155663590084
 20
1418.52295868708
 30
0.0
 11
540.3195233590135
 21
1419.555468687105
 31
0.0
  0
LINE
  5
2CA8
330
2
100
AcDbEntity
  8
KIJUN
100
AcDbLine
 10
540.3195233590135
 20
1419.555468687105
 30
0.0
 11
623.9764553590044
 21
1419.555468687105
 31
0.0
  0
LINE
  5
2CA9
330
2
100
AcDbEntity
  8
KIJUN
100
AcDbLine
 10
623.9764553590044
 20
1419.555468687105
 30
0.0
 11
626.6805393589943
 21
1418.52295868708
 31
0.0
  0
LINE
  5
2CAA
330
2
100
AcDbEntity
  8
KIJUN
100
AcDbLine
 10
626.6805393589943
 20
1418.52295868708
 30
0.0
 11
628.6092883589786
 21
1415.816080687126
 31
0.0
  0
LINE
  5
2CAB
330
2
100
AcDbEntity
  8
KIJUN
100
AcDbLine
 10
628.6092883589786
 20
1415.816080687126
 30
0.0
 11
629.3449993590152
 21
1412.020939687109
 31
0.0
  0
LINE
  5
2CAC
330
2
100
AcDbEntity
  8
KIJUN
100
AcDbLine
 10
629.3449993590152
 20
1412.020939687109
 30
0.0
 11
628.6092883589786
 21
1408.226052687061
 31
0.0
  0
LINE
  5
2CAD
330
2
100
AcDbEntity
  8
KIJUN
100
AcDbLine
 10
628.6092883589786
 20
1408.226052687061
 30
0.0
 11
626.6805393589943
 21
1405.519428687077
 31
0.0
  0
LINE
  5
2CAE
330
2
100
AcDbEntity
  8
KIJUN
100
AcDbLine
 10
626.6805393589943
 20
1405.519428687077
 30
0.0
 11
623.9764553590044
 21
1404.486918687059
 31
0.0
  0
LINE
  5
2CAF
330
2
100
AcDbEntity
  8
KIJUN
100
AcDbLine
 10
562.7969993589772
 20
1372.99091868711
 30
0.0
 11
561.0074423589735
 21
1360.810856687053
 31
0.0
  0
LINE
  5
2CB0
330
2
100
AcDbEntity
  8
KIJUN
100
AcDbLine
 10
561.0074423589735
 20
1360.810856687053
 30
0.0
 11
554.4759593590184
 21
1356.416402687081
 31
0.0
  0
LINE
  5
2CB1
330
2
100
AcDbEntity
  8
KIJUN
100
AcDbLine
 10
554.4759593590184
 20
1356.416402687081
 30
0.0
 11
548.6605023590141
 21
1346.245480687097
 31
0.0
  0
LINE
  5
2CB2
330
2
100
AcDbEntity
  8
KIJUN
100
AcDbLine
 10
548.6605023590141
 20
1346.245480687097
 30
0.0
 11
548.6605023590141
 21
1332.056405687132
 31
0.0
  0
LINE
  5
2CB3
330
2
100
AcDbEntity
  8
KIJUN
100
AcDbLine
 10
548.6605023590141
 20
1332.056405687132
 30
0.0
 11
549.4655553590177
 21
1317.490902687126
 31
0.0
  0
LINE
  5
2CB4
330
2
100
AcDbEntity
  8
KIJUN
100
AcDbLine
 10
549.4655553590177
 20
1317.490902687126
 30
0.0
 11
553.3130203589721
 21
1306.064458687042
 31
0.0
  0
LINE
  5
2CB5
330
2
100
AcDbEntity
  8
KIJUN
100
AcDbLine
 10
553.3130203589721
 20
1306.064458687042
 30
0.0
 11
557.0709503589791
 21
1294.51241168706
 31
0.0
  0
LINE
  5
2CB6
330
2
100
AcDbEntity
  8
KIJUN
100
AcDbLine
 10
557.0709503589791
 20
1294.51241168706
 30
0.0
 11
567.3599823589952
 21
1283.336919687144
 31
0.0
  0
LINE
  5
2CB7
330
2
100
AcDbEntity
  8
KIJUN
100
AcDbLine
 10
567.3599823589952
 20
1283.336919687144
 30
0.0
 11
570.2463113589951
 21
1277.625983687127
 31
0.0
  0
LINE
  5
2CB8
330
2
100
AcDbEntity
  8
KIJUN
100
AcDbLine
 10
570.2463113589951
 20
1277.625983687127
 30
0.0
 11
572.1386113590101
 21
1270.88253768709
 31
0.0
  0
LINE
  5
2CB9
330
2
100
AcDbEntity
  8
KIJUN
100
AcDbLine
 10
572.1386113590101
 20
1270.88253768709
 30
0.0
 11
572.8180613589988
 21
1264.75288268705
 31
0.0
  0
LINE
  5
2CBA
330
2
100
AcDbEntity
  8
KIJUN
100
AcDbLine
 10
572.8180613589988
 20
1264.75288268705
 30
0.0
 11
571.2505003590172
 21
1261.409226687052
 31
0.0
  0
LINE
  5
2CBB
330
2
100
AcDbEntity
  8
KIJUN
100
AcDbLine
 10
571.2505003590172
 20
1261.409226687052
 30
0.0
 11
569.1063593589847
 21
1258.930567687088
 31
0.0
  0
LINE
  5
2CBC
330
2
100
AcDbEntity
  8
KIJUN
100
AcDbLine
 10
569.1063593589847
 20
1258.930567687088
 30
0.0
 11
565.3914823589989
 21
1257.344972687062
 31
0.0
  0
LINE
  5
2CBD
330
2
100
AcDbEntity
  8
KIJUN
100
AcDbLine
 10
565.3914823589989
 20
1257.344972687062
 30
0.0
 11
565.72968335902
 21
1253.20566168707
 31
0.0
  0
LINE
  5
2CBE
330
2
100
AcDbEntity
  8
KIJUN
100
AcDbLine
 10
565.72968335902
 20
1253.20566168707
 30
0.0
 11
566.3062633590065
 21
1249.094417687115
 31
0.0
  0
LINE
  5
2CBF
330
2
100
AcDbEntity
  8
KIJUN
100
AcDbLine
 10
566.3062633590065
 20
1249.094417687115
 30
0.0
 11
568.6124563589742
 21
1245.79241768714
 31
0.0
  0
LINE
  5
2CC0
330
2
100
AcDbEntity
  8
KIJUN
100
AcDbLine
 10
568.6124563589742
 20
1245.79241768714
 30
0.0
 11
572.523040358978
 21
1243.904435687082
 31
0.0
  0
LINE
  5
2CC1
330
2
100
AcDbEntity
  8
KIJUN
100
AcDbLine
 10
572.523040358978
 20
1243.904435687082
 30
0.0
 11
575.9760433589677
 21
1243.913833687142
 31
0.0
  0
LINE
  5
2CC2
330
2
100
AcDbEntity
  8
KIJUN
100
AcDbLine
 10
575.9760433589677
 20
1243.913833687142
 30
0.0
 11
579.1704743589775
 21
1245.290386687085
 31
0.0
  0
LINE
  5
2CC3
330
2
100
AcDbEntity
  8
KIJUN
100
AcDbLine
 10
579.1825393590166
 20
1245.297371687145
 30
0.0
 11
575.2334743589785
 21
1228.731613335273
 31
0.0
  0
LINE
  5
2CC4
330
2
100
AcDbEntity
  8
KIJUN
100
AcDbLine
 10
575.2334743589785
 20
1228.731613335273
 30
0.0
 11
569.6864953590242
 21
1204.775531687048
 31
0.0
  0
LINE
  5
2CC5
330
2
100
AcDbEntity
  8
KIJUN
100
AcDbLine
 10
569.6864953590242
 20
1204.775531687048
 30
0.0
 11
562.4389863590007
 21
1183.428990687107
 31
0.0
  0
LINE
  5
2CC6
330
2
100
AcDbEntity
  8
KIJUN
100
AcDbLine
 10
562.4389863590007
 20
1183.428990687107
 30
0.0
 11
555.4599553590136
 21
1164.217446687102
 31
0.0
  0
LINE
  5
2CC7
330
2
100
AcDbEntity
  8
KIJUN
100
AcDbLine
 10
555.4599553590136
 20
1164.217446687102
 30
0.0
 11
548.3024893589784
 21
1139.98343368705
 31
0.0
  0
LINE
  5
2CC8
330
2
100
AcDbEntity
  8
KIJUN
100
AcDbLine
 10
548.3024893589784
 20
1139.98343368705
 30
0.0
 11
542.039484359016
 21
1112.986408687104
 31
0.0
  0
LINE
  5
2CC9
330
2
100
AcDbEntity
  8
KIJUN
100
AcDbLine
 10
542.039484359016
 20
1112.986408687104
 30
0.0
 11
541.4129933589987
 21
1081.218501687044
 31
0.0
  0
LINE
  5
2CCA
330
2
100
AcDbEntity
  8
KIJUN
100
AcDbLine
 10
541.4129933589987
 20
1081.218501687044
 30
0.0
 11
531.4814663590126
 21
1050.077974687085
 31
0.0
  0
LINE
  5
2CCB
330
2
100
AcDbEntity
  8
KIJUN
100
AcDbLine
 10
531.4814663590126
 20
1050.077974687085
 30
0.0
 11
529.781444359008
 21
1021.197920687143
 31
0.0
  0
LINE
  5
2CCC
330
2
100
AcDbEntity
  8
KIJUN
100
AcDbLine
 10
529.781444359008
 20
1021.197920687143
 30
0.0
 11
529.781444359008
 21
992.1925176870445
 31
0.0
  0
LINE
  5
2CCD
330
2
100
AcDbEntity
  8
KIJUN
100
AcDbLine
 10
529.781444359008
 20
992.1925176870445
 30
0.0
 11
531.4814663590126
 21
963.4374316871346
 31
0.0
  0
LINE
  5
2CCE
330
2
100
AcDbEntity
  8
KIJUN
100
AcDbLine
 10
531.4814663590126
 20
963.4374316871346
 30
0.0
 11
535.149988358968
 21
937.9480236870318
 31
0.0
  0
LINE
  5
2CCF
330
2
100
AcDbEntity
  8
KIJUN
100
AcDbLine
 10
535.149988358968
 20
937.9480236870318
 30
0.0
 11
541.2340503590006
 21
913.4624236870607
 31
0.0
  0
LINE
  5
2CD0
330
2
100
AcDbEntity
  8
KIJUN
100
AcDbLine
 10
541.2340503590006
 20
913.4624236870607
 30
0.0
 11
549.1969503589911
 21
892.7440246871215
 31
0.0
  0
LINE
  5
2CD1
330
2
100
AcDbEntity
  8
KIJUN
100
AcDbLine
 10
549.1969503589911
 20
892.7440246871215
 30
0.0
 11
556.2655163590219
 21
883.3264666871345
 31
0.0
  0
LINE
  5
2CD2
330
2
100
AcDbEntity
  8
KIJUN
100
AcDbLine
 10
556.2655163590219
 20
883.3264666871345
 30
0.0
 11
552.5969943590147
 21
883.0755146870746
 31
0.0
  0
LINE
  5
2CD3
330
2
100
AcDbEntity
  8
KIJUN
100
AcDbLine
 10
552.5969943590147
 20
883.0755146870746
 30
0.0
 11
621.5804733590161
 21
866.6264746871407
 31
0.0
  0
LINE
  5
2CD4
330
2
100
AcDbEntity
  8
KIJUN
100
AcDbLine
 10
621.5804733590161
 20
866.6264746871407
 30
0.0
 11
628.7384473589894
 21
901.5334406870998
 31
0.0
  0
LINE
  5
2CD5
330
2
100
AcDbEntity
  8
KIJUN
100
AcDbLine
 10
628.7384473589894
 20
901.5334406870998
 30
0.0
 11
627.8352233590243
 21
907.9245886870866
 31
0.0
  0
LINE
  5
2CD6
330
2
100
AcDbEntity
  8
KIJUN
100
AcDbLine
 10
627.8352233590243
 20
907.9245886870866
 30
0.0
 11
626.578050358997
 21
915.0654176870835
 31
0.0
  0
LINE
  5
2CD7
330
2
100
AcDbEntity
  8
KIJUN
100
AcDbLine
 10
626.578050358997
 20
915.0654176870835
 30
0.0
 11
625.0141723589962
 21
922.8558516870787
 31
0.0
  0
LINE
  5
2CD8
330
2
100
AcDbEntity
  8
KIJUN
100
AcDbLine
 10
625.0141723589962
 20
922.8558516870787
 30
0.0
 11
623.1910873590135
 21
931.1956876871064
 31
0.0
  0
LINE
  5
2CD9
330
2
100
AcDbEntity
  8
KIJUN
100
AcDbLine
 10
623.1910873590135
 20
931.1956876871064
 30
0.0
 11
621.1560393590165
 21
939.9848496871154
 31
0.0
  0
LINE
  5
2CDA
330
2
100
AcDbEntity
  8
KIJUN
100
AcDbLine
 10
621.1560393590165
 20
939.9848496871154
 30
0.0
 11
618.9562723589891
 21
949.1231346870426
 31
0.0
  0
LINE
  5
2CDB
330
2
100
AcDbEntity
  8
KIJUN
100
AcDbLine
 10
618.9562723589891
 20
949.1231346870426
 30
0.0
 11
616.6391573590202
 21
958.5105936871205
 31
0.0
  0
LINE
  5
2CDC
330
2
100
AcDbEntity
  8
KIJUN
100
AcDbLine
 10
616.6391573590202
 20
958.5105936871205
 30
0.0
 11
614.2520653589785
 21
968.0467696870719
 31
0.0
  0
LINE
  5
2CDD
330
2
100
AcDbEntity
  8
KIJUN
100
AcDbLine
 10
614.2520653589785
 20
968.0467696870719
 30
0.0
 11
611.8422403589833
 21
977.6318406870505
 31
0.0
  0
LINE
  5
2CDE
330
2
100
AcDbEntity
  8
KIJUN
100
AcDbLine
 10
611.8422403589833
 20
977.6318406870505
 30
0.0
 11
609.4569263589704
 21
987.1654766870724
 31
0.0
  0
LINE
  5
2CDF
330
2
100
AcDbEntity
  8
KIJUN
100
AcDbLine
 10
609.4569263589704
 20
987.1654766870724
 30
0.0
 11
607.1436213590253
 21
996.5476016870766
 31
0.0
  0
LINE
  5
2CE0
330
2
100
AcDbEntity
  8
KIJUN
100
AcDbLine
 10
607.1436213590253
 20
996.5476016870766
 30
0.0
 11
604.9494423589679
 21
1005.678012687112
 31
0.0
  0
LINE
  5
2CE1
330
2
100
AcDbEntity
  8
KIJUN
100
AcDbLine
 10
604.9494423589679
 20
1005.678012687112
 30
0.0
 11
602.9218873589683
 21
1014.456760687072
 31
0.0
  0
LINE
  5
2CE2
330
2
100
AcDbEntity
  8
KIJUN
100
AcDbLine
 10
602.9218873589683
 20
1014.456760687072
 30
0.0
 11
601.1080733590183
 21
1022.783515687051
 31
0.0
  0
LINE
  5
2CE3
330
2
100
AcDbEntity
  8
KIJUN
100
AcDbLine
 10
601.1080733590183
 20
1022.783515687051
 30
0.0
 11
599.5554983590158
 21
1030.558201687143
 31
0.0
  0
LINE
  5
2CE4
330
2
100
AcDbEntity
  8
KIJUN
100
AcDbLine
 10
599.5554983590158
 20
1030.558201687143
 30
0.0
 11
598.311279359001
 21
1037.680742687083
 31
0.0
  0
LINE
  5
2CE5
330
2
100
AcDbEntity
  8
KIJUN
100
AcDbLine
 10
598.311279359001
 20
1037.680742687083
 30
0.0
 11
597.4230413590234
 21
1044.050935687128
 31
0.0
  0
LINE
  5
2CE6
330
2
100
AcDbEntity
  8
KIJUN
100
AcDbLine
 10
597.4230413590234
 20
1044.050935687128
 30
0.0
 11
596.9902253590093
 21
1053.738368687112
 31
0.0
  0
LINE
  5
2CE7
330
2
100
AcDbEntity
  8
KIJUN
100
AcDbLine
 10
596.9902253590093
 20
1053.738368687112
 30
0.0
 11
596.3126803589743
 21
1063.237460687096
 31
0.0
  0
LINE
  5
2CE8
330
2
100
AcDbEntity
  8
KIJUN
100
AcDbLine
 10
596.3126803589743
 20
1063.237460687096
 30
0.0
 11
595.5160093589851
 21
1072.585803687101
 31
0.0
  0
LINE
  5
2CE9
330
2
100
AcDbEntity
  8
KIJUN
100
AcDbLine
 10
595.5160093589851
 20
1072.585803687101
 30
0.0
 11
594.7258153589838
 21
1081.821243687105
 31
0.0
  0
LINE
  5
2CEA
330
2
100
AcDbEntity
  8
KIJUN
100
AcDbLine
 10
594.7258153589838
 20
1081.821243687105
 30
0.0
 11
594.0677013589932
 21
1090.981245687117
 31
0.0
  0
LINE
  5
2CEB
330
2
100
AcDbEntity
  8
KIJUN
100
AcDbLine
 10
594.0677013589932
 20
1090.981245687117
 30
0.0
 11
593.6672703589914
 21
1100.103655687099
 31
0.0
  0
LINE
  5
2CEC
330
2
100
AcDbEntity
  8
KIJUN
100
AcDbLine
 10
593.6672703589914
 20
1100.103655687099
 30
0.0
 11
593.6501253590153
 21
1109.22606568708
 31
0.0
  0
LINE
  5
2CED
330
2
100
AcDbEntity
  8
KIJUN
100
AcDbLine
 10
593.6501253590153
 20
1109.22606568708
 30
0.0
 11
594.1418693589851
 21
1118.386194687127
 31
0.0
  0
LINE
  5
2CEE
330
2
100
AcDbEntity
  8
KIJUN
100
AcDbLine
 10
594.1418693589851
 20
1118.386194687127
 30
0.0
 11
595.2681053589661
 21
1127.621634687139
 31
0.0
  0
LINE
  5
2CEF
330
2
100
AcDbEntity
  8
KIJUN
100
AcDbLine
 10
595.2681053589661
 20
1127.621634687139
 30
0.0
 11
597.1544363589968
 21
1136.969977687151
 31
0.0
  0
LINE
  5
2CF0
330
2
100
AcDbEntity
  8
KIJUN
100
AcDbLine
 10
597.1544363589968
 20
1136.969977687151
 30
0.0
 11
626.3225263590179
 21
1220.444609335232
 31
0.0
  0
LINE
  5
2CF1
330
2
100
AcDbEntity
  8
KIJUN
100
AcDbLine
 10
626.3225263590179
 20
1220.444609335232
 30
0.0
 11
629.0309283590154
 21
1228.67916233519
 31
0.0
  0
LINE
  5
2CF2
330
2
100
AcDbEntity
  8
KIJUN
100
AcDbLine
 10
629.0309283590154
 20
1228.67916233519
 30
0.0
 11
630.4716163590178
 21
1240.745564687047
 31
0.0
  0
LINE
  5
2CF3
330
2
100
AcDbEntity
  8
KIJUN
100
AcDbLine
 10
630.4716163590178
 20
1240.745564687047
 30
0.0
 11
631.0860423589961
 21
1249.538028687132
 31
0.0
  0
LINE
  5
2CF4
330
2
100
AcDbEntity
  8
KIJUN
100
AcDbLine
 10
631.0860423589961
 20
1249.538028687132
 30
0.0
 11
631.3152773589804
 21
1258.826935687126
 31
0.0
  0
LINE
  5
2CF5
330
2
100
AcDbEntity
  8
KIJUN
100
AcDbLine
 10
631.3152773589804
 20
1258.826935687126
 30
0.0
 11
631.6009003589983
 21
1268.75731968711
 31
0.0
  0
LINE
  5
2CF6
330
2
100
AcDbEntity
  8
KIJUN
100
AcDbLine
 10
631.6009003589983
 20
1268.75731968711
 30
0.0
 11
632.3842363589842
 21
1279.473960687153
 31
0.0
  0
LINE
  5
2CF7
330
2
100
AcDbEntity
  8
KIJUN
100
AcDbLine
 10
632.3842363589842
 20
1279.473960687153
 30
0.0
 11
634.1064833590102
 21
1291.121892687147
 31
0.0
  0
LINE
  5
2CF8
330
2
100
AcDbEntity
  8
KIJUN
100
AcDbLine
 10
634.1064833590102
 20
1291.121892687147
 30
0.0
 11
628.4432993589848
 21
1305.668599687134
 31
0.0
  0
LINE
  5
2CF9
330
2
100
AcDbEntity
  8
KIJUN
100
AcDbLine
 10
628.4432993589848
 20
1305.668599687134
 30
0.0
 11
623.9240043589711
 21
1317.681148687081
 31
0.0
  0
LINE
  5
2CFA
330
2
100
AcDbEntity
  8
KIJUN
100
AcDbLine
 10
623.9240043589711
 20
1317.681148687081
 30
0.0
 11
620.3611463589891
 21
1327.442749687108
 31
0.0
  0
LINE
  5
2CFB
330
2
100
AcDbEntity
  8
KIJUN
100
AcDbLine
 10
620.3611463589891
 20
1327.442749687108
 30
0.0
 11
617.5679083589679
 21
1335.236612687116
 31
0.0
  0
LINE
  5
2CFC
330
2
100
AcDbEntity
  8
KIJUN
100
AcDbLine
 10
617.5679083589679
 20
1335.236612687116
 30
0.0
 11
615.3569653590206
 21
1341.346201687072
 31
0.0
  0
LINE
  5
2CFD
330
2
100
AcDbEntity
  8
KIJUN
100
AcDbLine
 10
615.3569653590206
 20
1341.346201687072
 30
0.0
 11
613.5409923589736
 21
1346.054472687111
 31
0.0
  0
LINE
  5
2CFE
330
2
100
AcDbEntity
  8
KIJUN
100
AcDbLine
 10
613.5409923589736
 20
1346.054472687111
 30
0.0
 11
611.9330453589987
 21
1349.644889687139
 31
0.0
  0
LINE
  5
2CFF
330
2
100
AcDbEntity
  8
KIJUN
100
AcDbLine
 10
611.9330453589987
 20
1349.644889687139
 30
0.0
 11
610.3459263589797
 21
1352.400662687115
 31
0.0
  0
LINE
  5
2D00
330
2
100
AcDbEntity
  8
KIJUN
100
AcDbLine
 10
610.3459263589797
 20
1352.400662687115
 30
0.0
 11
608.5923103590153
 21
1354.605001687088
 31
0.0
  0
LINE
  5
2D01
330
2
100
AcDbEntity
  8
KIJUN
100
AcDbLine
 10
608.5923103590153
 20
1354.605001687088
 30
0.0
 11
606.4851263589631
 21
1356.54124368707
 31
0.0
  0
LINE
  5
2D02
330
2
100
AcDbEntity
  8
KIJUN
100
AcDbLine
 10
606.4851263589631
 20
1356.54124368707
 30
0.0
 11
603.8371763589789
 21
1358.492471687061
 31
0.0
  0
LINE
  5
2D03
330
2
100
AcDbEntity
  8
KIJUN
100
AcDbLine
 10
603.8371763589789
 20
1358.492471687061
 30
0.0
 11
600.4613893589671
 21
1360.742149687119
 31
0.0
  0
LINE
  5
2D04
330
2
100
AcDbEntity
  8
KIJUN
100
AcDbLine
 10
600.4613893589671
 20
1360.742149687119
 30
0.0
 11
596.1704403589878
 21
1363.573360687123
 31
0.0
  0
LINE
  5
2D05
330
2
100
AcDbEntity
  8
KIJUN
100
AcDbLine
 10
596.1704403589878
 20
1363.573360687123
 30
0.0
 11
596.3490023589742
 21
1373.116394687075
 31
0.0
  0
LINE
  5
2D06
330
2
100
AcDbEntity
  8
KIJUN
100
AcDbLine
 10
596.3490023589742
 20
1373.116394687075
 30
0.0
 11
562.7969993589772
 21
1372.99091868711
 31
0.0
  0
LINE
  5
2D07
330
2
100
AcDbEntity
  8
KIJUN
100
AcDbLine
 10
532.4427413589923
 20
782.5364276788582
 30
0.0
 11
544.2138513589937
 21
790.9080586871377
 31
0.0
  0
LINE
  5
2D08
330
2
100
AcDbEntity
  8
KIJUN
100
AcDbLine
 10
544.2138513589937
 20
790.9080586871377
 30
0.0
 11
553.3299113589658
 21
796.6509986871337
 31
0.0
  0
LINE
  5
2D09
330
2
100
AcDbEntity
  8
KIJUN
100
AcDbLine
 10
553.3299113589658
 20
796.6509986871337
 30
0.0
 11
562.4513053590102
 21
801.4571866870776
 31
0.0
  0
LINE
  5
2D0A
330
2
100
AcDbEntity
  8
KIJUN
100
AcDbLine
 10
562.4513053590102
 20
801.4571866870776
 30
0.0
 11
571.5853993590257
 21
805.1319316871108
 31
0.0
  0
LINE
  5
2D0B
330
2
100
AcDbEntity
  8
KIJUN
100
AcDbLine
 10
571.5853993590257
 20
805.1319316871108
 30
0.0
 11
580.7395593590157
 21
807.4804156871195
 31
0.0
  0
LINE
  5
2D0C
330
2
100
AcDbEntity
  8
KIJUN
100
AcDbLine
 10
580.7395593590157
 20
807.4804156871195
 30
0.0
 11
589.9210243590099
 21
808.3074396871186
 31
0.0
  0
LINE
  5
2D0D
330
2
100
AcDbEntity
  8
KIJUN
100
AcDbLine
 10
589.9210243590099
 20
808.3074396871186
 30
0.0
 11
599.0806453589952
 21
807.4828286871365
 31
0.0
  0
LINE
  5
2D0E
330
2
100
AcDbEntity
  8
KIJUN
100
AcDbLine
 10
599.0806453589952
 20
807.4828286871365
 30
0.0
 11
608.2242643589892
 21
805.1359956870967
 31
0.0
  0
LINE
  5
2D0F
330
2
100
AcDbEntity
  8
KIJUN
100
AcDbLine
 10
608.2242643589892
 20
805.1359956870967
 30
0.0
 11
617.3593743590005
 21
801.4617586871198
 31
0.0
  0
LINE
  5
2D10
330
2
100
AcDbEntity
  8
KIJUN
100
AcDbLine
 10
617.3593743590005
 20
801.4617586871198
 30
0.0
 11
626.4935953589932
 21
796.6549356870846
 31
0.0
  0
LINE
  5
2D11
330
2
100
AcDbEntity
  8
KIJUN
100
AcDbLine
 10
626.4935953589932
 20
796.6549356870846
 30
0.0
 11
635.6344203589809
 21
790.9105986870809
 31
0.0
  0
LINE
  5
2D12
330
2
100
AcDbEntity
  8
KIJUN
100
AcDbLine
 10
635.6344203589809
 20
790.9105986870809
 30
0.0
 11
647.4427413589922
 21
782.5433613671338
 31
0.0
  0
LINE
  5
2D6E
330
2
100
AcDbEntity
  8
KIJUN
100
AcDbLine
 10
619.4389993590206
 20
846.8934686870875
 30
0.0
 11
609.4411783590079
 21
846.9866866871036
 31
0.0
  0
LINE
  5
2D6F
330
2
100
AcDbEntity
  8
KIJUN
100
AcDbLine
 10
609.4411783590079
 20
846.9866866871036
 30
0.0
 11
599.4632963589951
 21
847.0211036870919
 31
0.0
  0
LINE
  5
2D70
330
2
100
AcDbEntity
  8
KIJUN
100
AcDbLine
 10
599.4632963589951
 20
847.0211036870919
 30
0.0
 11
589.4654753589833
 21
847.0259296871036
 31
0.0
  0
LINE
  5
2D71
330
2
100
AcDbEntity
  8
KIJUN
100
AcDbLine
 10
589.4654753589833
 20
847.0259296871036
 30
0.0
 11
579.8091573590176
 21
846.9916396870484
 31
0.0
  0
LINE
  5
2D72
330
2
100
AcDbEntity
  8
KIJUN
100
AcDbLine
 10
579.8091573590176
 20
846.9916396870484
 30
0.0
 11
570.3118433590037
 21
846.9277586871417
 31
0.0
  0
LINE
  5
2D73
330
2
100
AcDbEntity
  8
KIJUN
100
AcDbLine
 10
570.3118433590037
 20
846.9277586871417
 30
0.0
 11
560.655525358988
 21
846.8934686870875
 31
0.0
  0
LINE
  5
2D74
330
2
100
AcDbEntity
  8
KIJUN
100
AcDbLine
 10
560.655525358988
 20
846.8934686870875
 30
0.0
 11
561.5468113590081
 21
842.4946966870436
 31
0.0
  0
LINE
  5
2D75
330
2
100
AcDbEntity
  8
KIJUN
100
AcDbLine
 10
561.5468113590081
 20
842.4946966870436
 30
0.0
 11
562.0009633590201
 21
837.3302416871036
 31
0.0
  0
LINE
  5
2D76
330
2
100
AcDbEntity
  8
KIJUN
100
AcDbLine
 10
562.0009633590201
 20
837.3302416871036
 30
0.0
 11
561.1029463590206
 21
833.1085076870467
 31
0.0
  0
LINE
  5
2D77
330
2
100
AcDbEntity
  8
KIJUN
100
AcDbLine
 10
561.1029463590206
 20
833.1085076870467
 30
0.0
 11
557.9083883589674
 21
829.4411286870765
 31
0.0
  0
LINE
  5
2D78
330
2
100
AcDbEntity
  8
KIJUN
100
AcDbLine
 10
557.9083883589674
 20
829.4411286870765
 30
0.0
 11
553.083277358983
 21
826.6575426870357
 31
0.0
  0
LINE
  5
2D79
330
2
100
AcDbEntity
  8
KIJUN
100
AcDbLine
 10
553.083277358983
 20
826.6575426870357
 30
0.0
 11
546.7869983590111
 21
825.5530236871226
 31
0.0
  0
LINE
  5
2D7A
330
2
100
AcDbEntity
  8
KIJUN
100
AcDbLine
 10
546.7869983590111
 20
825.5530236871226
 30
0.0
 11
557.2036653589724
 21
825.6296046870575
 31
0.0
  0
LINE
  5
2D7B
330
2
100
AcDbEntity
  8
KIJUN
100
AcDbLine
 10
557.2036653589724
 20
825.6296046870575
 30
0.0
 11
567.6454783590201
 21
825.6688476870577
 31
0.0
  0
LINE
  5
2D7C
330
2
100
AcDbEntity
  8
KIJUN
100
AcDbLine
 10
567.6454783590201
 20
825.6688476870577
 30
0.0
 11
578.1039283589765
 21
825.6834526870315
 31
0.0
  0
LINE
  5
2D7D
330
2
100
AcDbEntity
  8
KIJUN
100
AcDbLine
 10
578.1039283589765
 20
825.6834526870315
 30
0.0
 11
588.5710143589725
 21
825.6854846870364
 31
0.0
  0
LINE
  5
2D7E
330
2
100
AcDbEntity
  8
KIJUN
100
AcDbLine
 10
588.5710143589725
 20
825.6854846870364
 30
0.0
 11
599.0406403590208
 21
825.6834526870315
 31
0.0
  0
LINE
  5
2D7F
330
2
100
AcDbEntity
  8
KIJUN
100
AcDbLine
 10
599.0406403590208
 20
825.6834526870315
 30
0.0
 11
609.5186483590127
 21
825.6688476870577
 31
0.0
  0
LINE
  5
2D80
330
2
100
AcDbEntity
  8
KIJUN
100
AcDbLine
 10
609.5186483590127
 20
825.6688476870577
 30
0.0
 11
620.0135473590174
 21
825.6296046870575
 31
0.0
  0
LINE
  5
2D81
330
2
100
AcDbEntity
  8
KIJUN
100
AcDbLine
 10
620.0135473590174
 20
825.6296046870575
 30
0.0
 11
630.5334653589929
 21
825.5530236871226
 31
0.0
  0
LINE
  5
2D82
330
2
100
AcDbEntity
  8
KIJUN
100
AcDbLine
 10
630.5334653589929
 20
825.5530236871226
 30
0.0
 11
622.2324913590177
 21
827.1778616870319
 31
0.0
  0
LINE
  5
2D83
330
2
100
AcDbEntity
  8
KIJUN
100
AcDbLine
 10
622.2324913590177
 20
827.1778616870319
 30
0.0
 11
618.0472063589962
 21
830.9530636871226
 31
0.0
  0
LINE
  5
2D84
330
2
100
AcDbEntity
  8
KIJUN
100
AcDbLine
 10
618.0472063589962
 20
830.9530636871226
 30
0.0
 11
615.7704773590134
 21
835.2290266870495
 31
0.0
  0
LINE
  5
2D85
330
2
100
AcDbEntity
  8
KIJUN
100
AcDbLine
 10
615.7704773590134
 20
835.2290266870495
 30
0.0
 11
615.0713423590035
 21
839.1957446870605
 31
0.0
  0
LINE
  5
2D86
330
2
100
AcDbEntity
  8
KIJUN
100
AcDbLine
 10
615.0713423590035
 20
839.1957446870605
 30
0.0
 11
616.2610783589956
 21
843.6336326870536
 31
0.0
  0
LINE
  5
2D87
330
2
100
AcDbEntity
  8
KIJUN
100
AcDbLine
 10
616.2610783589956
 20
843.6336326870536
 30
0.0
 11
619.4389993590206
 21
846.8934686870875
 31
0.0
  0
LINE
  5
2D88
330
2
100
AcDbEntity
  8
KIJUN
100
AcDbLine
 10
537.4427413589923
 20
809.5554686871055
 30
0.0
 11
642.4427413589922
 21
809.5554686871055
 31
0.0
  0
LINE
  5
2D9C
330
2
100
AcDbEntity
  8
KIJUN
100
AcDbLine
 10
630.3264553590237
 20
825.4304686870987
 30
0.0
 11
546.6695233589756
 21
825.4304686870987
 31
0.0
  0
LINE
  5
2D9D
330
2
100
AcDbEntity
  8
KIJUN
100
AcDbLine
 10
546.6695233589756
 20
825.4304686870987
 30
0.0
 11
543.9655663589705
 21
824.3979586870796
 31
0.0
  0
LINE
  5
2D9E
330
2
100
AcDbEntity
  8
KIJUN
100
AcDbLine
 10
543.9655663589705
 20
824.3979586870796
 30
0.0
 11
542.0370713590067
 21
821.6913346871029
 31
0.0
  0
LINE
  5
2D9F
330
2
100
AcDbEntity
  8
KIJUN
100
AcDbLine
 10
542.0370713590067
 20
821.6913346871029
 30
0.0
 11
541.3014873590121
 21
817.8964476870405
 31
0.0
  0
LINE
  5
2DA0
330
2
100
AcDbEntity
  8
KIJUN
100
AcDbLine
 10
541.3014873590121
 20
817.8964476870405
 30
0.0
 11
542.0370713590067
 21
814.1013066871476
 31
0.0
  0
LINE
  5
2DA1
330
2
100
AcDbEntity
  8
KIJUN
100
AcDbLine
 10
542.0370713590067
 20
814.1013066871476
 30
0.0
 11
543.9655663589705
 21
811.3944286870776
 31
0.0
  0
LINE
  5
2DA2
330
2
100
AcDbEntity
  8
KIJUN
100
AcDbLine
 10
543.9655663589705
 20
811.3944286870776
 30
0.0
 11
546.6695233589756
 21
810.3619186870586
 31
0.0
  0
LINE
  5
2DA3
330
2
100
AcDbEntity
  8
KIJUN
100
AcDbLine
 10
546.6695233589756
 20
810.3619186870586
 30
0.0
 11
630.3264553590237
 21
810.3619186870586
 31
0.0
  0
LINE
  5
2DA4
330
2
100
AcDbEntity
  8
KIJUN
100
AcDbLine
 10
630.3264553590237
 20
810.3619186870586
 30
0.0
 11
633.0305393590137
 21
811.3944286870776
 31
0.0
  0
LINE
  5
2DA5
330
2
100
AcDbEntity
  8
KIJUN
100
AcDbLine
 10
633.0305393590137
 20
811.3944286870776
 30
0.0
 11
634.9592883590133
 21
814.1013066871476
 31
0.0
  0
LINE
  5
2DA6
330
2
100
AcDbEntity
  8
KIJUN
100
AcDbLine
 10
634.9592883590133
 20
814.1013066871476
 30
0.0
 11
635.6949993589855
 21
817.8964476870405
 31
0.0
  0
LINE
  5
2DA7
330
2
100
AcDbEntity
  8
KIJUN
100
AcDbLine
 10
635.6949993589855
 20
817.8964476870405
 30
0.0
 11
634.9592883590133
 21
821.6913346871029
 31
0.0
  0
LINE
  5
2DA8
330
2
100
AcDbEntity
  8
KIJUN
100
AcDbLine
 10
634.9592883590133
 20
821.6913346871029
 30
0.0
 11
633.0305393590137
 21
824.3979586870796
 31
0.0
  0
LINE
  5
2DA9
330
2
100
AcDbEntity
  8
KIJUN
100
AcDbLine
 10
633.0305393590137
 20
824.3979586870796
 30
0.0
 11
630.3264553590237
 21
825.4304686870987
 31
0.0
  0
LINE
  5
2DAA
330
2
100
AcDbEntity
  8
KIJUN
100
AcDbLine
 10
537.650999358991
 20
1118.41946868707
 30
0.0
 11
542.6680073589781
 21
1117.575934687042
 31
0.0
  0
LINE
  5
2DAB
330
2
100
AcDbEntity
  8
KIJUN
100
AcDbLine
 10
542.6680073589781
 20
1117.575934687042
 30
0.0
 11
545.9344473589866
 21
1116.130420687079
 31
0.0
  0
LINE
  5
2DAC
330
2
100
AcDbEntity
  8
KIJUN
100
AcDbLine
 10
545.9344473589866
 20
1116.130420687079
 30
0.0
 11
549.0845553590019
 21
1113.961514687102
 31
0.0
  0
LINE
  5
2DAD
330
2
100
AcDbEntity
  8
KIJUN
100
AcDbLine
 10
549.0845553590019
 20
1113.961514687102
 30
0.0
 11
551.6514793589862
 21
1110.226444687085
 31
0.0
  0
LINE
  5
2DAE
330
2
100
AcDbEntity
  8
KIJUN
100
AcDbLine
 10
551.6514793589862
 20
1110.226444687085
 30
0.0
 11
553.4015393590128
 21
1105.407429687077
 31
0.0
  0
LINE
  5
2DAF
330
2
100
AcDbEntity
  8
KIJUN
100
AcDbLine
 10
553.4015393590128
 20
1105.407429687077
 30
0.0
 11
554.1014363589987
 21
1099.744499687144
 31
0.0
  0
LINE
  5
2DB0
330
2
100
AcDbEntity
  8
KIJUN
100
AcDbLine
 10
554.1014363589987
 20
1099.744499687144
 30
0.0
 11
553.7515513589945
 21
1093.479462687118
 31
0.0
  0
LINE
  5
2DB1
330
2
100
AcDbEntity
  8
KIJUN
100
AcDbLine
 10
553.7515513589945
 20
1093.479462687118
 30
0.0
 11
553.0515273589818
 21
1087.575994687069
 31
0.0
  0
LINE
  5
2DB2
330
2
100
AcDbEntity
  8
KIJUN
100
AcDbLine
 10
553.0515273589818
 20
1087.575994687069
 30
0.0
 11
552.0014913589733
 21
1080.105981687087
 31
0.0
  0
LINE
  5
2DB3
330
2
100
AcDbEntity
  8
KIJUN
100
AcDbLine
 10
552.0014913589733
 20
1080.105981687087
 30
0.0
 11
549.7844523589787
 21
1073.358979687111
 31
0.0
  0
LINE
  5
2DB4
330
2
100
AcDbEntity
  8
KIJUN
100
AcDbLine
 10
549.7844523589787
 20
1073.358979687111
 30
0.0
 11
548.0345193589941
 21
1068.901025687129
 31
0.0
  0
LINE
  5
2DB5
330
2
100
AcDbEntity
  8
KIJUN
100
AcDbLine
 10
548.0345193589941
 20
1068.901025687129
 30
0.0
 11
555.8514963589744
 21
1084.202493687133
 31
0.0
  0
LINE
  5
2DB6
330
2
100
AcDbEntity
  8
KIJUN
100
AcDbLine
 10
555.8514963589744
 20
1084.202493687133
 30
0.0
 11
558.4180393589962
 21
1095.286926687057
 31
0.0
  0
LINE
  5
2DB7
330
2
100
AcDbEntity
  8
KIJUN
100
AcDbLine
 10
558.4180393589962
 20
1095.286926687057
 30
0.0
 11
560.1679723589817
 21
1106.852943687039
 31
0.0
  0
LINE
  5
2DB8
330
2
100
AcDbEntity
  8
KIJUN
100
AcDbLine
 10
560.1679723589817
 20
1106.852943687039
 30
0.0
 11
560.1679723589817
 21
1113.961514687102
 31
0.0
  0
LINE
  5
2DB9
330
2
100
AcDbEntity
  8
KIJUN
100
AcDbLine
 10
560.1679723589817
 20
1113.961514687102
 30
0.0
 11
557.7180153589774
 21
1119.865490687089
 31
0.0
  0
LINE
  5
2DBA
330
2
100
AcDbEntity
  8
KIJUN
100
AcDbLine
 10
557.7180153589774
 20
1119.865490687089
 30
0.0
 11
554.4514483589849
 21
1123.600433687063
 31
0.0
  0
LINE
  5
2DBB
330
2
100
AcDbEntity
  8
KIJUN
100
AcDbLine
 10
554.4514483589849
 20
1123.600433687063
 30
0.0
 11
550.4844763590048
 21
1124.68450568709
 31
0.0
  0
LINE
  5
2DBC
330
2
100
AcDbEntity
  8
KIJUN
100
AcDbLine
 10
550.4844763590048
 20
1124.68450568709
 30
0.0
 11
546.2844593589673
 21
1125.407516687099
 31
0.0
  0
LINE
  5
2DBD
330
2
100
AcDbEntity
  8
KIJUN
100
AcDbLine
 10
546.2844593589673
 20
1125.407516687099
 30
0.0
 11
541.2674513589848
 21
1124.322936687118
 31
0.0
  0
LINE
  5
2DBE
330
2
100
AcDbEntity
  8
KIJUN
100
AcDbLine
 10
541.2674513589848
 20
1124.322936687118
 30
0.0
 11
538.3510233590181
 21
1121.672446687089
 31
0.0
  0
LINE
  5
2DBF
330
2
100
AcDbEntity
  8
KIJUN
100
AcDbLine
 10
538.3510233590181
 20
1121.672446687089
 30
0.0
 11
537.650999358991
 21
1118.41946868707
 31
0.0
  0
LINE
  5
2DC0
330
2
100
AcDbEntity
  8
KIJUN
100
AcDbLine
 10
519.6905323590157
 20
986.6275046871036
 30
0.0
 11
521.217961358988
 21
998.2554976870405
 31
0.0
  0
LINE
  5
2DC1
330
2
100
AcDbEntity
  8
KIJUN
100
AcDbLine
 10
521.217961358988
 20
998.2554976870405
 30
0.0
 11
522.3090183590151
 21
1006.701505687082
 31
0.0
  0
LINE
  5
2DC2
330
2
100
AcDbEntity
  8
KIJUN
100
AcDbLine
 10
522.3090183590151
 20
1006.701505687082
 30
0.0
 11
525.5820623590146
 21
1015.391988687067
 31
0.0
  0
LINE
  5
2DC3
330
2
100
AcDbEntity
  8
KIJUN
100
AcDbLine
 10
525.5820623590146
 20
1015.391988687067
 30
0.0
 11
528.6370473589962
 21
1025.306497687126
 31
0.0
  0
LINE
  5
2DC4
330
2
100
AcDbEntity
  8
KIJUN
100
AcDbLine
 10
528.6370473589962
 20
1025.306497687126
 30
0.0
 11
534.4194843590206
 21
1039.382415687137
 31
0.0
  0
LINE
  5
2DC5
330
2
100
AcDbEntity
  8
KIJUN
100
AcDbLine
 10
534.4194843590206
 20
1039.382415687137
 30
0.0
 11
539.5474903589823
 21
1051.377946687086
 31
0.0
  0
LINE
  5
2DC6
330
2
100
AcDbEntity
  8
KIJUN
100
AcDbLine
 10
539.5474903589823
 20
1051.377946687086
 30
0.0
 11
545.2209613589706
 21
1063.128494687054
 31
0.0
  0
LINE
  5
2DC7
330
2
100
AcDbEntity
  8
KIJUN
100
AcDbLine
 10
545.2209613589706
 20
1063.128494687054
 30
0.0
 11
552.4219883590234
 21
1077.082492687137
 31
0.0
  0
LINE
  5
2DC8
330
2
100
AcDbEntity
  8
KIJUN
100
AcDbLine
 10
552.4219883590234
 20
1077.082492687137
 30
0.0
 11
557.0040213590231
 21
1089.812464687051
 31
0.0
  0
LINE
  5
2DC9
330
2
100
AcDbEntity
  8
KIJUN
100
AcDbLine
 10
557.0040213590231
 20
1089.812464687051
 30
0.0
 11
559.6230153590207
 21
1102.052470687074
 31
0.0
  0
LINE
  5
2DCA
330
2
100
AcDbEntity
  8
KIJUN
100
AcDbLine
 10
559.6230153590207
 20
1102.052470687074
 30
0.0
 11
560.6044713590285
 21
1109.029469687057
 31
0.0
  0
LINE
  5
2DCB
330
2
100
AcDbEntity
  8
KIJUN
100
AcDbLine
 10
560.6044713590285
 20
1109.029469687057
 30
0.0
 11
559.0770423590051
 21
1116.006468687048
 31
0.0
  0
LINE
  5
2DCC
330
2
100
AcDbEntity
  8
KIJUN
100
AcDbLine
 10
559.0770423590051
 20
1116.006468687048
 30
0.0
 11
554.2764423589882
 21
1123.962510687075
 31
0.0
  0
LINE
  5
2DCD
330
2
100
AcDbEntity
  8
KIJUN
100
AcDbLine
 10
554.2764423589882
 20
1123.962510687075
 30
0.0
 11
546.7485173589778
 21
1125.920977687094
 31
0.0
  0
LINE
  5
2DCE
330
2
100
AcDbEntity
  8
KIJUN
100
AcDbLine
 10
546.7485173589778
 20
1125.920977687094
 30
0.0
 11
539.8745153589738
 21
1123.962510687075
 31
0.0
  0
LINE
  5
2DCF
330
2
100
AcDbEntity
  8
KIJUN
100
AcDbLine
 10
539.8745153589738
 20
1123.962510687075
 30
0.0
 11
537.9109683589889
 21
1118.943978687102
 31
0.0
  0
LINE
  5
2DD0
330
2
100
AcDbEntity
  8
KIJUN
100
AcDbLine
 10
537.9109683589889
 20
1118.943978687102
 30
0.0
 11
540.6385473590184
 21
1110.130940687095
 31
0.0
  0
LINE
  5
2DD1
330
2
100
AcDbEntity
  8
KIJUN
100
AcDbLine
 10
540.6385473590184
 20
1110.130940687095
 30
0.0
 11
540.9659533589705
 21
1098.992405687105
 31
0.0
  0
LINE
  5
2DD2
330
2
100
AcDbEntity
  8
KIJUN
100
AcDbLine
 10
540.9659533589705
 20
1098.992405687105
 30
0.0
 11
538.3474673590218
 21
1083.691953687094
 31
0.0
  0
LINE
  5
2DD3
330
2
100
AcDbEntity
  8
KIJUN
100
AcDbLine
 10
538.3474673590218
 20
1083.691953687094
 30
0.0
 11
536.0560063590213
 21
1073.043511687038
 31
0.0
  0
LINE
  5
2DD4
330
2
100
AcDbEntity
  8
KIJUN
100
AcDbLine
 10
536.0560063590213
 20
1073.043511687038
 30
0.0
 11
533.7650533590171
 21
1063.618460687061
 31
0.0
  0
LINE
  5
2DD5
330
2
100
AcDbEntity
  8
KIJUN
100
AcDbLine
 10
533.7650533590171
 20
1063.618460687061
 30
0.0
 11
531.3644993589881
 21
1054.315456687038
 31
0.0
  0
LINE
  5
2DD6
330
2
100
AcDbEntity
  8
KIJUN
100
AcDbLine
 10
531.3644993589881
 20
1054.315456687038
 30
0.0
 11
528.6370473589962
 21
1043.667014687098
 31
0.0
  0
LINE
  5
2DD7
330
2
100
AcDbEntity
  8
KIJUN
100
AcDbLine
 10
528.6370473589962
 20
1043.667014687098
 30
0.0
 11
525.9094683590205
 21
1034.364010687076
 31
0.0
  0
LINE
  5
2DD8
330
2
100
AcDbEntity
  8
KIJUN
100
AcDbLine
 10
525.9094683590205
 20
1034.364010687076
 30
0.0
 11
524.054506359001
 21
1025.795955687073
 31
0.0
  0
LINE
  5
2DD9
330
2
100
AcDbEntity
  8
KIJUN
100
AcDbLine
 10
524.054506359001
 20
1025.795955687073
 30
0.0
 11
522.4179843590067
 21
1018.818956687081
 31
0.0
  0
LINE
  5
2DDA
330
2
100
AcDbEntity
  8
KIJUN
100
AcDbLine
 10
522.4179843590067
 20
1018.818956687081
 30
0.0
 11
520.8905553589687
 21
1010.12847368709
 31
0.0
  0
LINE
  5
2DDB
330
2
100
AcDbEntity
  8
KIJUN
100
AcDbLine
 10
520.8905553589687
 20
1010.12847368709
 30
0.0
 11
520.4540563589874
 21
1004.25345368709
 31
0.0
  0
LINE
  5
2DDC
330
2
100
AcDbEntity
  8
KIJUN
100
AcDbLine
 10
520.4540563589874
 20
1004.25345368709
 30
0.0
 11
519.6905323590157
 21
986.6275046871036
 31
0.0
  0
LINE
  5
2DDD
330
2
100
AcDbEntity
  8
KIJUN
100
AcDbLine
 10
558.0979993590047
 20
859.3394686870764
 30
0.0
 11
551.2245053590062
 21
865.2149966871466
 31
0.0
  0
LINE
  5
2DDE
330
2
100
AcDbEntity
  8
KIJUN
100
AcDbLine
 10
551.2245053590062
 20
865.2149966871466
 30
0.0
 11
547.5149623590235
 21
871.7020296871215
 31
0.0
  0
LINE
  5
2DDF
330
2
100
AcDbEntity
  8
KIJUN
100
AcDbLine
 10
547.5149623590235
 20
871.7020296871215
 30
0.0
 11
541.4049923589958
 21
881.3719366870666
 31
0.0
  0
LINE
  5
2DE0
330
2
100
AcDbEntity
  8
KIJUN
100
AcDbLine
 10
541.4049923589958
 20
881.3719366870666
 30
0.0
 11
535.2950223589772
 21
895.5704096870995
 31
0.0
  0
LINE
  5
2DE1
330
2
100
AcDbEntity
  8
KIJUN
100
AcDbLine
 10
535.2950223589772
 20
895.5704096870995
 30
0.0
 11
529.6215513589898
 21
913.0739306871054
 31
0.0
  0
LINE
  5
2DE2
330
2
100
AcDbEntity
  8
KIJUN
100
AcDbLine
 10
529.6215513589898
 20
913.0739306871054
 30
0.0
 11
526.7850063589761
 21
930.4550236871246
 31
0.0
  0
LINE
  5
2DE3
330
2
100
AcDbEntity
  8
KIJUN
100
AcDbLine
 10
526.7850063589761
 20
930.4550236871246
 30
0.0
 11
525.1484843589836
 21
947.9584176870876
 31
0.0
  0
LINE
  5
2DE4
330
2
100
AcDbEntity
  8
KIJUN
100
AcDbLine
 10
525.1484843589836
 20
947.9584176870876
 30
0.0
 11
525.1484843589836
 21
961.3005296871365
 31
0.0
  0
LINE
  5
2DE5
330
2
100
AcDbEntity
  8
KIJUN
100
AcDbLine
 10
525.1484843589836
 20
961.3005296871365
 30
0.0
 11
526.1299403589849
 21
970.7254536870696
 31
0.0
  0
LINE
  5
2DE6
330
2
100
AcDbEntity
  8
KIJUN
100
AcDbLine
 10
526.1299403589849
 20
970.7254536870696
 30
0.0
 11
528.4215283589768
 21
979.1709536870575
 31
0.0
  0
LINE
  5
2DE7
330
2
100
AcDbEntity
  8
KIJUN
100
AcDbLine
 10
528.4215283589768
 20
979.1709536870575
 30
0.0
 11
531.694445358987
 21
988.3510216870435
 31
0.0
  0
LINE
  5
2DE8
330
2
100
AcDbEntity
  8
KIJUN
100
AcDbLine
 10
531.694445358987
 20
988.3510216870435
 30
0.0
 11
537.3680433590173
 21
998.5105136870869
 31
0.0
  0
LINE
  5
2DE9
330
2
100
AcDbEntity
  8
KIJUN
100
AcDbLine
 10
537.3680433590173
 20
998.5105136870869
 30
0.0
 11
542.3869563590018
 21
1007.690454687146
 31
0.0
  0
LINE
  5
2DEA
330
2
100
AcDbEntity
  8
KIJUN
100
AcDbLine
 10
542.3869563590018
 20
1007.690454687146
 30
0.0
 11
546.8600233590153
 21
1016.01390768705
 31
0.0
  0
LINE
  5
2DEB
330
2
100
AcDbEntity
  8
KIJUN
100
AcDbLine
 10
546.8600233590153
 20
1016.01390768705
 30
0.0
 11
552.6424603589815
 21
1028.621451687091
 31
0.0
  0
LINE
  5
2DEC
330
2
100
AcDbEntity
  8
KIJUN
100
AcDbLine
 10
552.6424603589815
 20
1028.621451687091
 30
0.0
 11
558.6434643590231
 21
1043.30950968712
 31
0.0
  0
LINE
  5
2DED
330
2
100
AcDbEntity
  8
KIJUN
100
AcDbLine
 10
558.6434643590231
 20
1043.30950968712
 30
0.0
 11
562.4619733589826
 21
1053.591429687028
 31
0.0
  0
LINE
  5
2DEE
330
2
100
AcDbEntity
  8
KIJUN
100
AcDbLine
 10
562.4619733589826
 20
1053.591429687028
 30
0.0
 11
564.9714933590051
 21
1061.547471687076
 31
0.0
  0
LINE
  5
2DEF
330
2
100
AcDbEntity
  8
KIJUN
100
AcDbLine
 10
564.9714933590051
 20
1061.547471687076
 30
0.0
 11
566.9355483589937
 21
1076.602940687083
 31
0.0
  0
LINE
  5
2DF0
330
2
100
AcDbEntity
  8
KIJUN
100
AcDbLine
 10
566.9355483589937
 20
1076.602940687083
 30
0.0
 11
567.6989453589816
 21
1085.660961687094
 31
0.0
  0
LINE
  5
2DF1
330
2
100
AcDbEntity
  8
KIJUN
100
AcDbLine
 10
567.6989453589816
 20
1085.660961687094
 30
0.0
 11
567.6989453589816
 21
1094.71847468705
 31
0.0
  0
LINE
  5
2DF2
330
2
100
AcDbEntity
  8
KIJUN
100
AcDbLine
 10
567.6989453589816
 20
1094.71847468705
 30
0.0
 11
566.717489358973
 21
1104.143525687033
 31
0.0
  0
LINE
  5
2DF3
330
2
100
AcDbEntity
  8
KIJUN
100
AcDbLine
 10
566.717489358973
 20
1104.143525687033
 30
0.0
 11
561.0440183589929
 21
1110.140973687137
 31
0.0
  0
LINE
  5
2DF4
330
2
100
AcDbEntity
  8
KIJUN
100
AcDbLine
 10
561.0440183589929
 20
1110.140973687137
 30
0.0
 11
559.7345213589927
 21
1099.124993687054
 31
0.0
  0
LINE
  5
2DF5
330
2
100
AcDbEntity
  8
KIJUN
100
AcDbLine
 10
559.7345213589927
 20
1099.124993687054
 30
0.0
 11
557.3344753590175
 21
1090.311955687047
 31
0.0
  0
LINE
  5
2DF6
330
2
100
AcDbEntity
  8
KIJUN
100
AcDbLine
 10
557.3344753590175
 20
1090.311955687047
 30
0.0
 11
554.0610503590126
 21
1081.621472687055
 31
0.0
  0
LINE
  5
2DF7
330
2
100
AcDbEntity
  8
KIJUN
100
AcDbLine
 10
554.0610503590126
 20
1081.621472687055
 30
0.0
 11
549.1514843590242
 21
1071.09495068704
 31
0.0
  0
LINE
  5
2DF8
330
2
100
AcDbEntity
  8
KIJUN
100
AcDbLine
 10
549.1514843590242
 20
1071.09495068704
 30
0.0
 11
543.0415143589974
 21
1060.078970687074
 31
0.0
  0
LINE
  5
2DF9
330
2
100
AcDbEntity
  8
KIJUN
100
AcDbLine
 10
543.0415143589974
 20
1060.078970687074
 30
0.0
 11
538.1319483590017
 21
1050.776474687106
 31
0.0
  0
LINE
  5
2DFA
330
2
100
AcDbEntity
  8
KIJUN
100
AcDbLine
 10
538.1319483590017
 20
1050.776474687106
 30
0.0
 11
534.0949993590223
 21
1040.739410687037
 31
0.0
  0
LINE
  5
2DFB
330
2
100
AcDbEntity
  8
KIJUN
100
AcDbLine
 10
534.0949993590223
 20
1040.739410687037
 30
0.0
 11
530.3854563589896
 21
1032.048927687045
 31
0.0
  0
LINE
  5
2DFC
330
2
100
AcDbEntity
  8
KIJUN
100
AcDbLine
 10
530.3854563589896
 20
1032.048927687045
 30
0.0
 11
527.1120313589675
 21
1022.379020687101
 31
0.0
  0
LINE
  5
2DFD
330
2
100
AcDbEntity
  8
KIJUN
100
AcDbLine
 10
527.1120313589675
 20
1022.379020687101
 30
0.0
 11
524.2754863590128
 21
1012.096973687151
 31
0.0
  0
LINE
  5
2DFE
330
2
100
AcDbEntity
  8
KIJUN
100
AcDbLine
 10
524.2754863590128
 20
1012.096973687151
 30
0.0
 11
520.3475033590124
 21
997.0420126870909
 31
0.0
  0
LINE
  5
2DFF
330
2
100
AcDbEntity
  8
KIJUN
100
AcDbLine
 10
520.3475033590124
 20
997.0420126870909
 30
0.0
 11
519.802038358994
 21
990.1874416870805
 31
0.0
  0
LINE
  5
2E00
330
2
100
AcDbEntity
  8
KIJUN
100
AcDbLine
 10
519.802038358994
 20
990.1874416870805
 30
0.0
 11
519.3655393590128
 21
984.6789436870995
 31
0.0
  0
LINE
  5
2E01
330
2
100
AcDbEntity
  8
KIJUN
100
AcDbLine
 10
519.3655393590128
 20
984.6789436870995
 30
0.0
 11
519.3655393590128
 21
979.1709536870575
 31
0.0
  0
LINE
  5
2E02
330
2
100
AcDbEntity
  8
KIJUN
100
AcDbLine
 10
519.3655393590128
 20
979.1709536870575
 30
0.0
 11
519.3655393590128
 21
972.3165096870966
 31
0.0
  0
LINE
  5
2E03
330
2
100
AcDbEntity
  8
KIJUN
100
AcDbLine
 10
519.3655393590128
 20
972.3165096870966
 30
0.0
 11
519.3655393590128
 21
964.9724806871409
 31
0.0
  0
LINE
  5
2E04
330
2
100
AcDbEntity
  8
KIJUN
100
AcDbLine
 10
519.3655393590128
 20
964.9724806871409
 30
0.0
 11
519.3655393590128
 21
957.9954816870396
 31
0.0
  0
LINE
  5
2E05
330
2
100
AcDbEntity
  8
KIJUN
100
AcDbLine
 10
519.3655393590128
 20
957.9954816870396
 30
0.0
 11
519.802038358994
 21
948.4480026870757
 31
0.0
  0
LINE
  5
2E06
330
2
100
AcDbEntity
  8
KIJUN
100
AcDbLine
 10
519.802038358994
 20
948.4480026870757
 30
0.0
 11
520.6750363590148
 21
939.6349646870685
 31
0.0
  0
LINE
  5
2E07
330
2
100
AcDbEntity
  8
KIJUN
100
AcDbLine
 10
520.6750363590148
 20
939.6349646870685
 30
0.0
 11
521.8750593589687
 21
931.8014776870496
 31
0.0
  0
LINE
  5
2E08
330
2
100
AcDbEntity
  8
KIJUN
100
AcDbLine
 10
521.8750593589687
 20
931.8014776870496
 30
0.0
 11
523.075463359008
 21
923.6004526871207
 31
0.0
  0
LINE
  5
2E09
330
2
100
AcDbEntity
  8
KIJUN
100
AcDbLine
 10
523.075463359008
 20
923.6004526871207
 30
0.0
 11
524.7119853589951
 21
914.4205116870676
 31
0.0
  0
LINE
  5
2E0A
330
2
100
AcDbEntity
  8
KIJUN
100
AcDbLine
 10
524.7119853589951
 20
914.4205116870676
 30
0.0
 11
526.7850063589761
 21
906.5865166871107
 31
0.0
  0
LINE
  5
2E0B
330
2
100
AcDbEntity
  8
KIJUN
100
AcDbLine
 10
526.7850063589761
 20
906.5865166871107
 30
0.0
 11
529.185052359015
 21
898.7530296870925
 31
0.0
  0
LINE
  5
2E0C
330
2
100
AcDbEntity
  8
KIJUN
100
AcDbLine
 10
529.185052359015
 20
898.7530296870925
 30
0.0
 11
532.8944683590065
 21
890.0624196870586
 31
0.0
  0
LINE
  5
2E0D
330
2
100
AcDbEntity
  8
KIJUN
100
AcDbLine
 10
532.8944683590065
 20
890.0624196870586
 30
0.0
 11
536.931544358977
 21
881.3719366870666
 31
0.0
  0
LINE
  5
2E0E
330
2
100
AcDbEntity
  8
KIJUN
100
AcDbLine
 10
536.931544358977
 20
881.3719366870666
 30
0.0
 11
540.2049693589845
 21
874.3949376870828
 31
0.0
  0
LINE
  5
2E0F
330
2
100
AcDbEntity
  8
KIJUN
100
AcDbLine
 10
540.2049693589845
 20
874.3949376870828
 30
0.0
 11
544.241537359016
 21
868.0299516870677
 31
0.0
  0
LINE
  5
2E10
330
2
100
AcDbEntity
  8
KIJUN
100
AcDbLine
 10
544.241537359016
 20
868.0299516870677
 30
0.0
 11
549.5879833590055
 21
862.0325036870806
 31
0.0
  0
LINE
  5
2E11
330
2
100
AcDbEntity
  8
KIJUN
100
AcDbLine
 10
549.5879833590055
 20
862.0325036870806
 30
0.0
 11
551.9880293589789
 21
858.8500106871315
 31
0.0
  0
LINE
  5
2E12
330
2
100
AcDbEntity
  8
KIJUN
100
AcDbLine
 10
551.9880293589789
 20
858.8500106871315
 30
0.0
 11
558.0979993590047
 21
859.3394686870764
 31
0.0
  0
LINE
  5
2E13
330
2
100
AcDbEntity
  8
KIJUN
100
AcDbLine
 10
538.2325323589879
 20
928.7494136871277
 30
0.0
 11
539.1055303590004
 21
935.1145266870757
 31
0.0
  0
LINE
  5
2E14
330
2
100
AcDbEntity
  8
KIJUN
100
AcDbLine
 10
539.1055303590004
 20
935.1145266870757
 30
0.0
 11
540.3055533590207
 21
940.6225166871104
 31
0.0
  0
LINE
  5
2E15
330
2
100
AcDbEntity
  8
KIJUN
100
AcDbLine
 10
540.3055533590207
 20
940.6225166871104
 30
0.0
 11
541.5059573589945
 21
946.6199646870977
 31
0.0
  0
LINE
  5
2E16
330
2
100
AcDbEntity
  8
KIJUN
100
AcDbLine
 10
541.5059573589945
 20
946.6199646870977
 30
0.0
 11
543.5789783589692
 21
953.1075056871436
 31
0.0
  0
LINE
  5
2E17
330
2
100
AcDbEntity
  8
KIJUN
100
AcDbLine
 10
543.5789783589692
 20
953.1075056871436
 30
0.0
 11
547.2885213590019
 21
960.4514076870495
 31
0.0
  0
LINE
  5
2E18
330
2
100
AcDbEntity
  8
KIJUN
100
AcDbLine
 10
547.2885213590019
 20
960.4514076870495
 30
0.0
 11
550.452472358976
 21
964.1234856871037
 31
0.0
  0
LINE
  5
2E19
330
2
100
AcDbEntity
  8
KIJUN
100
AcDbLine
 10
550.452472358976
 20
964.1234856871037
 30
0.0
 11
552.4165273590236
 21
967.7954366871226
 31
0.0
  0
LINE
  5
2E1A
330
2
100
AcDbEntity
  8
KIJUN
100
AcDbLine
 10
552.4165273590236
 20
967.7954366871226
 30
0.0
 11
556.0169773589627
 21
973.1815066871156
 31
0.0
  0
LINE
  5
2E1B
330
2
100
AcDbEntity
  8
KIJUN
100
AcDbLine
 10
556.0169773589627
 20
973.1815066871156
 30
0.0
 11
558.9624883589761
 21
979.1789546871099
 31
0.0
  0
LINE
  5
2E1C
330
2
100
AcDbEntity
  8
KIJUN
100
AcDbLine
 10
558.9624883589761
 20
979.1789546871099
 30
0.0
 11
562.5629383589743
 21
985.7889236871214
 31
0.0
  0
LINE
  5
2E1D
330
2
100
AcDbEntity
  8
KIJUN
100
AcDbLine
 10
562.5629383589743
 20
985.7889236871214
 30
0.0
 11
563.4359363589878
 21
989.8280316870396
 31
0.0
  0
LINE
  5
2E1E
330
2
100
AcDbEntity
  8
KIJUN
100
AcDbLine
 10
563.4359363589878
 20
989.8280316870396
 30
0.0
 11
565.5089573589706
 21
995.7034326870587
 31
0.0
  0
LINE
  5
2E1F
330
2
100
AcDbEntity
  8
KIJUN
100
AcDbLine
 10
565.5089573589706
 20
995.7034326870587
 30
0.0
 11
567.6909443589878
 21
1003.782029687117
 31
0.0
  0
LINE
  5
2E20
330
2
100
AcDbEntity
  8
KIJUN
100
AcDbLine
 10
567.6909443589878
 20
1003.782029687117
 30
0.0
 11
569.2185003590096
 21
1013.818966687149
 31
0.0
  0
LINE
  5
2E21
330
2
100
AcDbEntity
  8
KIJUN
100
AcDbLine
 10
569.2185003590096
 20
1013.818966687149
 30
0.0
 11
570.3095573589719
 21
1025.814497687107
 31
0.0
  0
LINE
  5
2E22
330
2
100
AcDbEntity
  8
KIJUN
100
AcDbLine
 10
570.3095573589719
 20
1025.814497687107
 30
0.0
 11
570.3095573589719
 21
1037.564918687141
 31
0.0
  0
LINE
  5
2E23
330
2
100
AcDbEntity
  8
KIJUN
100
AcDbLine
 10
570.3095573589719
 20
1037.564918687141
 30
0.0
 11
570.3095573589719
 21
1046.255528687058
 31
0.0
  0
LINE
  5
2E24
330
2
100
AcDbEntity
  8
KIJUN
100
AcDbLine
 10
570.3095573589719
 20
1046.255528687058
 30
0.0
 11
569.4369403589702
 21
1052.008501687105
 31
0.0
  0
LINE
  5
2E25
330
2
100
AcDbEntity
  8
KIJUN
100
AcDbLine
 10
569.4369403589702
 20
1052.008501687105
 30
0.0
 11
568.5639423590085
 21
1057.760966687094
 31
0.0
  0
LINE
  5
2E26
330
2
100
AcDbEntity
  8
KIJUN
100
AcDbLine
 10
568.5639423590085
 20
1057.760966687094
 30
0.0
 11
566.7089803589891
 21
1066.941415687086
 31
0.0
  0
LINE
  5
2E27
330
2
100
AcDbEntity
  8
KIJUN
100
AcDbLine
 10
566.7089803589891
 20
1066.941415687086
 30
0.0
 11
563.3269703590098
 21
1057.638919687127
 31
0.0
  0
LINE
  5
2E28
330
2
100
AcDbEntity
  8
KIJUN
100
AcDbLine
 10
563.3269703590098
 20
1057.638919687127
 30
0.0
 11
559.6175543590192
 21
1049.315466687108
 31
0.0
  0
LINE
  5
2E29
330
2
100
AcDbEntity
  8
KIJUN
100
AcDbLine
 10
559.6175543590192
 20
1049.315466687108
 30
0.0
 11
558.7445563589902
 21
1042.950480687085
 31
0.0
  0
LINE
  5
2E2A
330
2
100
AcDbEntity
  8
KIJUN
100
AcDbLine
 10
558.7445563589902
 20
1042.950480687085
 30
0.0
 11
553.6165503589767
 21
1036.463447687109
 31
0.0
  0
LINE
  5
2E2B
330
2
100
AcDbEntity
  8
KIJUN
100
AcDbLine
 10
553.6165503589767
 20
1036.463447687109
 30
0.0
 11
550.5614383590194
 21
1028.13999468709
 31
0.0
  0
LINE
  5
2E2C
330
2
100
AcDbEntity
  8
KIJUN
100
AcDbLine
 10
550.5614383590194
 20
1028.13999468709
 30
0.0
 11
546.0884983589834
 21
1018.10293068713
 31
0.0
  0
LINE
  5
2E2D
330
2
100
AcDbEntity
  8
KIJUN
100
AcDbLine
 10
546.0884983589834
 20
1018.10293068713
 30
0.0
 11
541.5059573589945
 21
1009.779477687112
 31
0.0
  0
LINE
  5
2E2E
330
2
100
AcDbEntity
  8
KIJUN
100
AcDbLine
 10
541.5059573589945
 20
1009.779477687112
 30
0.0
 11
540.742052359002
 21
1005.250911687131
 31
0.0
  0
LINE
  5
2E2F
330
2
100
AcDbEntity
  8
KIJUN
100
AcDbLine
 10
540.742052359002
 20
1005.250911687131
 30
0.0
 11
540.0874943589991
 21
1006.107526687092
 31
0.0
  0
LINE
  5
2E30
330
2
100
AcDbEntity
  8
KIJUN
100
AcDbLine
 10
540.0874943589991
 20
1006.107526687092
 30
0.0
 11
537.3600423590217
 21
1000.721964687039
 31
0.0
  0
LINE
  5
2E31
330
2
100
AcDbEntity
  8
KIJUN
100
AcDbLine
 10
537.3600423590217
 20
1000.721964687039
 30
0.0
 11
534.9594883589865
 21
994.8464366870855
 31
0.0
  0
LINE
  5
2E32
330
2
100
AcDbEntity
  8
KIJUN
100
AcDbLine
 10
534.9594883589865
 20
994.8464366870855
 30
0.0
 11
531.7955373590206
 21
988.4814506870707
 31
0.0
  0
LINE
  5
2E33
330
2
100
AcDbEntity
  8
KIJUN
100
AcDbLine
 10
531.7955373590206
 20
988.4814506870707
 30
0.0
 11
527.6494953590048
 21
979.6684126870628
 31
0.0
  0
LINE
  5
2E34
330
2
100
AcDbEntity
  8
KIJUN
100
AcDbLine
 10
527.6494953590048
 20
979.6684126870628
 30
0.0
 11
526.4494723589863
 21
971.8349256870446
 31
0.0
  0
LINE
  5
2E35
330
2
100
AcDbEntity
  8
KIJUN
100
AcDbLine
 10
526.4494723589863
 20
971.8349256870446
 30
0.0
 11
524.8129503589929
 21
964.4910236871314
 31
0.0
  0
LINE
  5
2E36
330
2
100
AcDbEntity
  8
KIJUN
100
AcDbLine
 10
524.8129503589929
 20
964.4910236871314
 30
0.0
 11
524.0490453590085
 21
953.1075056871436
 31
0.0
  0
LINE
  5
2E37
330
2
100
AcDbEntity
  8
KIJUN
100
AcDbLine
 10
524.0490453590085
 20
953.1075056871436
 30
0.0
 11
524.8129503589929
 21
943.9274376870407
 31
0.0
  0
LINE
  5
2E38
330
2
100
AcDbEntity
  8
KIJUN
100
AcDbLine
 10
524.8129503589929
 20
943.9274376870407
 30
0.0
 11
525.2489413589768
 21
936.0934426870757
 31
0.0
  0
LINE
  5
2E39
330
2
100
AcDbEntity
  8
KIJUN
100
AcDbLine
 10
525.2489413589768
 20
936.0934426870757
 30
0.0
 11
526.8859713589676
 21
926.9135016871397
 31
0.0
  0
LINE
  5
2E3A
330
2
100
AcDbEntity
  8
KIJUN
100
AcDbLine
 10
526.8859713589676
 20
926.9135016871397
 30
0.0
 11
528.085994358987
 21
918.1004636871316
 31
0.0
  0
LINE
  5
2E3B
330
2
100
AcDbEntity
  8
KIJUN
100
AcDbLine
 10
528.085994358987
 20
918.1004636871316
 30
0.0
 11
530.486548359015
 21
908.9205226870786
 31
0.0
  0
LINE
  5
2E3C
330
2
100
AcDbEntity
  8
KIJUN
100
AcDbLine
 10
530.486548359015
 20
908.9205226870786
 30
0.0
 11
533.432059359014
 21
897.9039076871215
 31
0.0
  0
LINE
  5
2E3D
330
2
100
AcDbEntity
  8
KIJUN
100
AcDbLine
 10
533.432059359014
 20
897.9039076871215
 30
0.0
 11
538.2325323589879
 21
887.3775126870336
 31
0.0
  0
LINE
  5
2E3E
330
2
100
AcDbEntity
  8
KIJUN
100
AcDbLine
 10
538.2325323589879
 20
887.3775126870336
 30
0.0
 11
541.9424563589767
 21
879.5440256871396
 31
0.0
  0
LINE
  5
2E3F
330
2
100
AcDbEntity
  8
KIJUN
100
AcDbLine
 10
541.9424563589767
 20
879.5440256871396
 30
0.0
 11
545.9790243590008
 21
871.7100306870657
 31
0.0
  0
LINE
  5
2E40
330
2
100
AcDbEntity
  8
KIJUN
100
AcDbLine
 10
545.9790243590008
 20
871.7100306870657
 30
0.0
 11
550.8889713590082
 21
866.2019136870899
 31
0.0
  0
LINE
  5
2E41
330
2
100
AcDbEntity
  8
KIJUN
100
AcDbLine
 10
550.8889713590082
 20
866.2019136870899
 30
0.0
 11
556.2350363589843
 21
860.3270206871266
 31
0.0
  0
LINE
  5
2E42
330
2
100
AcDbEntity
  8
KIJUN
100
AcDbLine
 10
556.2350363589843
 20
860.3270206871266
 30
0.0
 11
558.1989643589881
 21
858.0010156870944
 31
0.0
  0
LINE
  5
2E43
330
2
100
AcDbEntity
  8
KIJUN
100
AcDbLine
 10
558.1989643589881
 20
858.0010156870944
 30
0.0
 11
577.4014913590048
 21
858.0010156870944
 31
0.0
  0
LINE
  5
2E44
330
2
100
AcDbEntity
  8
KIJUN
100
AcDbLine
 10
577.4014913590048
 20
858.0010156870944
 30
0.0
 11
563.5450293590159
 21
864.8554596870477
 31
0.0
  0
LINE
  5
2E45
330
2
100
AcDbEntity
  8
KIJUN
100
AcDbLine
 10
563.5450293590159
 20
864.8554596870477
 30
0.0
 11
552.0889943589694
 21
875.0149516871115
 31
0.0
  0
LINE
  5
2E46
330
2
100
AcDbEntity
  8
KIJUN
100
AcDbLine
 10
552.0889943589694
 20
875.0149516871115
 30
0.0
 11
545.6519993590021
 21
885.5414736871265
 31
0.0
  0
LINE
  5
2E47
330
2
100
AcDbEntity
  8
KIJUN
100
AcDbLine
 10
545.6519993590021
 20
885.5414736871265
 30
0.0
 11
540.3055533590207
 21
901.2089556871014
 31
0.0
  0
LINE
  5
2E48
330
2
100
AcDbEntity
  8
KIJUN
100
AcDbLine
 10
540.3055533590207
 20
901.2089556871014
 30
0.0
 11
538.66903135902
 21
914.9179706870654
 31
0.0
  0
LINE
  5
2E49
330
2
100
AcDbEntity
  8
KIJUN
100
AcDbLine
 10
538.66903135902
 20
914.9179706870654
 30
0.0
 11
538.2325323589879
 21
928.7494136871277
 31
0.0
  0
LINE
  5
2E4A
330
2
100
AcDbEntity
  8
KIJUN
100
AcDbLine
 10
588.8755603589864
 20
911.8624776871456
 30
0.0
 11
590.8514263589944
 21
915.1037716871314
 31
0.0
  0
LINE
  5
2E4B
330
2
100
AcDbEntity
  8
KIJUN
100
AcDbLine
 10
590.8514263589944
 20
915.1037716871314
 30
0.0
 11
594.2820773589822
 21
916.8219546871137
 31
0.0
  0
LINE
  5
2E4C
330
2
100
AcDbEntity
  8
KIJUN
100
AcDbLine
 10
594.2820773589822
 20
916.8219546871137
 30
0.0
 11
599.0219713589953
 21
917.8599256871335
 31
0.0
  0
LINE
  5
2E4D
330
2
100
AcDbEntity
  8
KIJUN
100
AcDbLine
 10
599.0219713589953
 20
917.8599256871335
 30
0.0
 11
603.5681903589988
 21
917.0076286871356
 31
0.0
  0
LINE
  5
2E4E
330
2
100
AcDbEntity
  8
KIJUN
100
AcDbLine
 10
603.5681903589988
 20
917.0076286871356
 30
0.0
 11
608.4052393589849
 21
914.6320936870788
 31
0.0
  0
LINE
  5
2E4F
330
2
100
AcDbEntity
  8
KIJUN
100
AcDbLine
 10
608.4052393589849
 20
914.6320936870788
 30
0.0
 11
612.4420613589876
 21
911.0054816870498
 31
0.0
  0
LINE
  5
2E50
330
2
100
AcDbEntity
  8
KIJUN
100
AcDbLine
 10
612.4420613589876
 20
911.0054816870498
 30
0.0
 11
613.8846543589956
 21
906.3858566870935
 31
0.0
  0
LINE
  5
2E51
330
2
100
AcDbEntity
  8
KIJUN
100
AcDbLine
 10
613.8846543589956
 20
906.3858566870935
 30
0.0
 11
614.5999183589786
 21
901.7935366871336
 31
0.0
  0
LINE
  5
2E52
330
2
100
AcDbEntity
  8
KIJUN
100
AcDbLine
 10
614.5999183589786
 20
901.7935366871336
 30
0.0
 11
614.0784563590035
 21
897.1739116870685
 31
0.0
  0
LINE
  5
2E53
330
2
100
AcDbEntity
  8
KIJUN
100
AcDbLine
 10
614.0784563590035
 20
897.1739116870685
 30
0.0
 11
612.3045203589766
 21
892.0559386870396
 31
0.0
  0
LINE
  5
2E54
330
2
100
AcDbEntity
  8
KIJUN
100
AcDbLine
 10
612.3045203589766
 20
892.0559386870396
 30
0.0
 11
610.215497358998
 21
888.2977546870556
 31
0.0
  0
LINE
  5
2E55
330
2
100
AcDbEntity
  8
KIJUN
100
AcDbLine
 10
610.215497358998
 20
888.2977546870556
 30
0.0
 11
606.7684633590146
 21
885.3009356871284
 31
0.0
  0
LINE
  5
2E56
330
2
100
AcDbEntity
  8
KIJUN
100
AcDbLine
 10
606.7684633590146
 20
885.3009356871284
 30
0.0
 11
601.5194263589713
 21
883.5874516871214
 31
0.0
  0
LINE
  5
2E57
330
2
100
AcDbEntity
  8
KIJUN
100
AcDbLine
 10
601.5194263589713
 20
883.5874516871214
 30
0.0
 11
595.8338903590096
 21
883.0979936870527
 31
0.0
  0
LINE
  5
2E58
330
2
100
AcDbEntity
  8
KIJUN
100
AcDbLine
 10
595.8338903590096
 20
883.0979936870527
 30
0.0
 11
590.0754563590139
 21
883.8324346871177
 31
0.0
  0
LINE
  5
2E59
330
2
100
AcDbEntity
  8
KIJUN
100
AcDbLine
 10
590.0754563590139
 20
883.8324346871177
 30
0.0
 11
585.8040653590127
 21
885.9495246871174
 31
0.0
  0
LINE
  5
2E5A
330
2
100
AcDbEntity
  8
KIJUN
100
AcDbLine
 10
585.8040653590127
 20
885.9495246871174
 30
0.0
 11
582.3086443589894
 21
888.2840386871416
 31
0.0
  0
LINE
  5
2E5B
330
2
100
AcDbEntity
  8
KIJUN
100
AcDbLine
 10
582.3086443589894
 20
888.2840386871416
 30
0.0
 11
578.8374803589735
 21
890.3194676871017
 31
0.0
  0
LINE
  5
2E5C
330
2
100
AcDbEntity
  8
KIJUN
100
AcDbLine
 10
578.8374803589735
 20
890.3194676871017
 30
0.0
 11
575.3057373590101
 21
894.8528596870914
 31
0.0
  0
LINE
  5
2E5D
330
2
100
AcDbEntity
  8
KIJUN
100
AcDbLine
 10
575.3057373590101
 20
894.8528596870914
 30
0.0
 11
572.6952523590065
 21
899.5767516871229
 31
0.0
  0
LINE
  5
2E5E
330
2
100
AcDbEntity
  8
KIJUN
100
AcDbLine
 10
572.6952523590065
 20
899.5767516871229
 30
0.0
 11
570.5455233589931
 21
905.4974916871305
 31
0.0
  0
LINE
  5
2E5F
330
2
100
AcDbEntity
  8
KIJUN
100
AcDbLine
 10
570.5455233589931
 20
905.4974916871305
 30
0.0
 11
569.846515359019
 21
911.1596596870395
 31
0.0
  0
LINE
  5
2E60
330
2
100
AcDbEntity
  8
KIJUN
100
AcDbLine
 10
569.846515359019
 20
911.1596596870395
 30
0.0
 11
570.4082363590033
 21
916.6042766871127
 31
0.0
  0
LINE
  5
2E61
330
2
100
AcDbEntity
  8
KIJUN
100
AcDbLine
 10
570.4082363590033
 20
916.6042766871127
 30
0.0
 11
571.3095553589631
 21
922.5114276871416
 31
0.0
  0
LINE
  5
2E62
330
2
100
AcDbEntity
  8
KIJUN
100
AcDbLine
 10
571.3095553589631
 20
922.5114276871416
 30
0.0
 11
573.4552203589893
 21
927.37120968709
 31
0.0
  0
LINE
  5
2E63
330
2
100
AcDbEntity
  8
KIJUN
100
AcDbLine
 10
573.4552203589893
 20
927.37120968709
 30
0.0
 11
576.0372573590188
 21
931.9317796870407
 31
0.0
  0
LINE
  5
2E64
330
2
100
AcDbEntity
  8
KIJUN
100
AcDbLine
 10
576.0372573590188
 20
931.9317796870407
 30
0.0
 11
579.4920383589754
 21
936.2204426871127
 31
0.0
  0
LINE
  5
2E65
330
2
100
AcDbEntity
  8
KIJUN
100
AcDbLine
 10
579.4920383589754
 20
936.2204426871127
 30
0.0
 11
583.8966523590235
 21
939.4934866871066
 31
0.0
  0
LINE
  5
2E66
330
2
100
AcDbEntity
  8
KIJUN
100
AcDbLine
 10
583.8966523590235
 20
939.4934866871066
 30
0.0
 11
588.9803353589996
 21
942.1681066871046
 31
0.0
  0
LINE
  5
2E67
330
2
100
AcDbEntity
  8
KIJUN
100
AcDbLine
 10
588.9803353589996
 20
942.1681066871046
 30
0.0
 11
594.9850223590077
 21
944.5435146871195
 31
0.0
  0
LINE
  5
2E68
330
2
100
AcDbEntity
  8
KIJUN
100
AcDbLine
 10
594.9850223590077
 20
944.5435146871195
 30
0.0
 11
600.0928353590037
 21
945.2507776871085
 31
0.0
  0
LINE
  5
2E69
330
2
100
AcDbEntity
  8
KIJUN
100
AcDbLine
 10
600.0928353590037
 20
945.2507776871085
 30
0.0
 11
605.5885063589779
 21
945.0605316870447
 31
0.0
  0
LINE
  5
2E6A
330
2
100
AcDbEntity
  8
KIJUN
100
AcDbLine
 10
605.5885063589779
 20
945.0605316870447
 30
0.0
 11
612.4420613589876
 21
944.5435146871195
 31
0.0
  0
LINE
  5
2E6B
330
2
100
AcDbEntity
  8
KIJUN
100
AcDbLine
 10
612.4420613589876
 20
944.5435146871195
 30
0.0
 11
618.8346063589754
 21
941.7192886870566
 31
0.0
  0
LINE
  5
2E6C
330
2
100
AcDbEntity
  8
KIJUN
100
AcDbLine
 10
618.8346063589754
 20
941.7192886870566
 30
0.0
 11
624.669748359
 21
938.6772576870667
 31
0.0
  0
LINE
  5
2E6D
330
2
100
AcDbEntity
  8
KIJUN
100
AcDbLine
 10
624.669748359
 20
938.6772576870667
 30
0.0
 11
629.2440343589673
 21
935.1184636871279
 31
0.0
  0
LINE
  5
2E6E
330
2
100
AcDbEntity
  8
KIJUN
100
AcDbLine
 10
629.2440343589673
 20
935.1184636871279
 30
0.0
 11
633.4022683590123
 21
930.0139526870426
 31
0.0
  0
LINE
  5
2E6F
330
2
100
AcDbEntity
  8
KIJUN
100
AcDbLine
 10
633.4022683590123
 20
930.0139526870426
 30
0.0
 11
636.8330463589849
 21
924.6374076871386
 31
0.0
  0
LINE
  5
2E70
330
2
100
AcDbEntity
  8
KIJUN
100
AcDbLine
 10
636.8330463589849
 20
924.6374076871386
 30
0.0
 11
639.3909533589797
 21
919.2065066870945
 31
0.0
  0
LINE
  5
2E71
330
2
100
AcDbEntity
  8
KIJUN
100
AcDbLine
 10
639.3909533589797
 20
919.2065066870945
 30
0.0
 11
640.9427663590007
 21
914.0655466871416
 31
0.0
  0
LINE
  5
2E72
330
2
100
AcDbEntity
  8
KIJUN
100
AcDbLine
 10
640.9427663590007
 20
914.0655466871416
 30
0.0
 11
641.912538358982
 21
908.2719336870816
 31
0.0
  0
LINE
  5
2E73
330
2
100
AcDbEntity
  8
KIJUN
100
AcDbLine
 10
641.912538358982
 20
908.2719336870816
 30
0.0
 11
642.6639973589739
 21
902.3149986870656
 31
0.0
  0
LINE
  5
2E74
330
2
100
AcDbEntity
  8
KIJUN
100
AcDbLine
 10
642.6639973589739
 20
902.3149986870656
 30
0.0
 11
642.4580033590067
 21
896.0724406871477
 31
0.0
  0
LINE
  5
2E75
330
2
100
AcDbEntity
  8
KIJUN
100
AcDbLine
 10
642.4580033590067
 20
896.0724406871477
 30
0.0
 11
642.0338233589767
 21
889.6668146871187
 31
0.0
  0
LINE
  5
2E76
330
2
100
AcDbEntity
  8
KIJUN
100
AcDbLine
 10
642.0338233589767
 20
889.6668146871187
 30
0.0
 11
641.0274753589732
 21
884.3220196871138
 31
0.0
  0
LINE
  5
2E77
330
2
100
AcDbEntity
  8
KIJUN
100
AcDbLine
 10
641.0274753589732
 20
884.3220196871138
 30
0.0
 11
637.4754123590068
 21
875.1053756871066
 31
0.0
  0
LINE
  5
2E78
330
2
100
AcDbEntity
  8
KIJUN
100
AcDbLine
 10
637.4754123590068
 20
875.1053756871066
 30
0.0
 11
633.2689183589731
 21
867.2218506871304
 31
0.0
  0
LINE
  5
2E79
330
2
100
AcDbEntity
  8
KIJUN
100
AcDbLine
 10
633.2689183589731
 20
867.2218506871304
 30
0.0
 11
627.6075123589736
 21
860.9429706870455
 31
0.0
  0
LINE
  5
2E7A
330
2
100
AcDbEntity
  8
KIJUN
100
AcDbLine
 10
627.6075123589736
 20
860.9429706870455
 30
0.0
 11
621.7239833589677
 21
858.9484356870698
 31
0.0
  0
LINE
  5
2E7B
330
2
100
AcDbEntity
  8
KIJUN
100
AcDbLine
 10
621.7239833589677
 20
858.9484356870698
 30
0.0
 11
615.2342833590132
 21
858.1233166871415
 31
0.0
  0
LINE
  5
2E7C
330
2
100
AcDbEntity
  8
KIJUN
100
AcDbLine
 10
615.2342833590132
 20
858.1233166871415
 30
0.0
 11
608.8414843589974
 21
857.7604776870966
 31
0.0
  0
LINE
  5
2E7D
330
2
100
AcDbEntity
  8
KIJUN
100
AcDbLine
 10
608.8414843589974
 20
857.7604776870966
 30
0.0
 11
598.9613923589971
 21
858.2183126870759
 31
0.0
  0
LINE
  5
2E7E
330
2
100
AcDbEntity
  8
KIJUN
100
AcDbLine
 10
598.9613923589971
 20
858.2183126870759
 30
0.0
 11
589.0814273589761
 21
858.6490966871526
 31
0.0
  0
LINE
  5
2E7F
330
2
100
AcDbEntity
  8
KIJUN
100
AcDbLine
 10
589.0814273589761
 20
858.6490966871526
 30
0.0
 11
579.0560473589906
 21
859.1069316871317
 31
0.0
  0
LINE
  5
2E80
330
2
100
AcDbEntity
  8
KIJUN
100
AcDbLine
 10
579.0560473589906
 20
859.1069316871317
 30
0.0
 11
572.3802923589877
 21
861.6819836870366
 31
0.0
  0
LINE
  5
2E81
330
2
100
AcDbEntity
  8
KIJUN
100
AcDbLine
 10
572.3802923589877
 20
861.6819836870366
 30
0.0
 11
566.3108353589962
 21
864.6922646871335
 31
0.0
  0
LINE
  5
2E82
330
2
100
AcDbEntity
  8
KIJUN
100
AcDbLine
 10
566.3108353589962
 20
864.6922646871335
 30
0.0
 11
559.8535203589766
 21
869.1439956870835
 31
0.0
  0
LINE
  5
2E83
330
2
100
AcDbEntity
  8
KIJUN
100
AcDbLine
 10
559.8535203589766
 20
869.1439956870835
 30
0.0
 11
554.2121803590029
 21
874.5025066871116
 31
0.0
  0
LINE
  5
2E84
330
2
100
AcDbEntity
  8
KIJUN
100
AcDbLine
 10
554.2121803590029
 20
874.5025066871116
 30
0.0
 11
549.7105383590208
 21
880.1058736871009
 31
0.0
  0
LINE
  5
2E85
330
2
100
AcDbEntity
  8
KIJUN
100
AcDbLine
 10
549.7105383590208
 20
880.1058736871009
 30
0.0
 11
545.66952535899
 21
886.7699446870636
 31
0.0
  0
LINE
  5
2E86
330
2
100
AcDbEntity
  8
KIJUN
100
AcDbLine
 10
545.66952535899
 20
886.7699446870636
 30
0.0
 11
542.8935593589743
 21
893.8555286870787
 31
0.0
  0
LINE
  5
2E87
330
2
100
AcDbEntity
  8
KIJUN
100
AcDbLine
 10
542.8935593589743
 20
893.8555286870787
 30
0.0
 11
540.9174393590041
 21
901.1045616871076
 31
0.0
  0
LINE
  5
2E88
330
2
100
AcDbEntity
  8
KIJUN
100
AcDbLine
 10
540.9174393590041
 20
901.1045616871076
 30
0.0
 11
539.450462358994
 21
909.1694426871427
 31
0.0
  0
LINE
  5
2E89
330
2
100
AcDbEntity
  8
KIJUN
100
AcDbLine
 10
539.450462358994
 20
909.1694426871427
 30
0.0
 11
538.6504893589866
 21
917.8962476870676
 31
0.0
  0
LINE
  5
2E8A
330
2
100
AcDbEntity
  8
KIJUN
100
AcDbLine
 10
538.6504893589866
 20
917.8962476870676
 30
0.0
 11
538.6504893589866
 21
926.8407306871109
 31
0.0
  0
LINE
  5
2E8B
330
2
100
AcDbEntity
  8
KIJUN
100
AcDbLine
 10
538.6504893589866
 20
926.8407306871109
 30
0.0
 11
539.450462358994
 21
936.2204426871127
 31
0.0
  0
LINE
  5
2E8C
330
2
100
AcDbEntity
  8
KIJUN
100
AcDbLine
 10
539.450462358994
 20
936.2204426871127
 30
0.0
 11
541.1598823590132
 21
944.8202476871173
 31
0.0
  0
LINE
  5
2E8D
330
2
100
AcDbEntity
  8
KIJUN
100
AcDbLine
 10
541.1598823590132
 20
944.8202476871173
 30
0.0
 11
544.1057743589675
 21
952.9576456871096
 31
0.0
  0
LINE
  5
2E8E
330
2
100
AcDbEntity
  8
KIJUN
100
AcDbLine
 10
544.1057743589675
 20
952.9576456871096
 30
0.0
 11
547.6334533590037
 21
960.5784076870717
 31
0.0
  0
LINE
  5
2E8F
330
2
100
AcDbEntity
  8
KIJUN
100
AcDbLine
 10
547.6334533590037
 20
960.5784076870717
 30
0.0
 11
550.6884383589843
 21
965.1980326870347
 31
0.0
  0
LINE
  5
2E90
330
2
100
AcDbEntity
  8
KIJUN
100
AcDbLine
 10
550.6884383589843
 20
965.1980326870347
 30
0.0
 11
551.8522663589878
 21
968.9742506871139
 31
0.0
  0
LINE
  5
2E91
330
2
100
AcDbEntity
  8
KIJUN
100
AcDbLine
 10
551.8522663589878
 20
968.9742506871139
 30
0.0
 11
554.8344803589911
 21
973.6754096870667
 31
0.0
  0
LINE
  5
2E92
330
2
100
AcDbEntity
  8
KIJUN
100
AcDbLine
 10
554.8344803589911
 20
973.6754096870667
 30
0.0
 11
555.8488293589874
 21
981.9172016870524
 31
0.0
  0
LINE
  5
2E93
330
2
100
AcDbEntity
  8
KIJUN
100
AcDbLine
 10
555.8488293589874
 20
981.9172016870524
 30
0.0
 11
561.2757933589786
 21
990.4852566870635
 31
0.0
  0
LINE
  5
2E94
330
2
100
AcDbEntity
  8
KIJUN
100
AcDbLine
 10
561.2757933589786
 20
990.4852566870635
 30
0.0
 11
565.1994583590179
 21
997.9109466870527
 31
0.0
  0
LINE
  5
2E95
330
2
100
AcDbEntity
  8
KIJUN
100
AcDbLine
 10
565.1994583590179
 20
997.9109466870527
 30
0.0
 11
569.4545933590035
 21
991.7682106870877
 31
0.0
  0
LINE
  5
2E96
330
2
100
AcDbEntity
  8
KIJUN
100
AcDbLine
 10
569.4545933590035
 20
991.7682106870877
 30
0.0
 11
573.7096013590019
 21
984.6733556870557
 31
0.0
  0
LINE
  5
2E97
330
2
100
AcDbEntity
  8
KIJUN
100
AcDbLine
 10
573.7096013590019
 20
984.6733556870557
 30
0.0
 11
576.0010623590099
 21
977.4699156871086
 31
0.0
  0
LINE
  5
2E98
330
2
100
AcDbEntity
  8
KIJUN
100
AcDbLine
 10
576.0010623590099
 20
977.4699156871086
 30
0.0
 11
576.6192983590066
 21
972.8774686871135
 31
0.0
  0
LINE
  5
2E99
330
2
100
AcDbEntity
  8
KIJUN
100
AcDbLine
 10
576.6192983590066
 20
972.8774686871135
 30
0.0
 11
576.3646633589709
 21
967.5778856870406
 31
0.0
  0
LINE
  5
2E9A
330
2
100
AcDbEntity
  8
KIJUN
100
AcDbLine
 10
576.3646633589709
 20
967.5778856870406
 30
0.0
 11
575.0189713590201
 21
962.1694636870985
 31
0.0
  0
LINE
  5
2E9B
330
2
100
AcDbEntity
  8
KIJUN
100
AcDbLine
 10
575.0189713590201
 20
962.1694636870985
 30
0.0
 11
564.4355533589672
 21
943.5644716870616
 31
0.0
  0
LINE
  5
2E9C
330
2
100
AcDbEntity
  8
KIJUN
100
AcDbLine
 10
564.4355533589672
 20
943.5644716870616
 30
0.0
 11
566.8764933589812
 21
947.2138166870445
 31
0.0
  0
LINE
  5
2E9D
330
2
100
AcDbEntity
  8
KIJUN
100
AcDbLine
 10
566.8764933589812
 20
947.2138166870445
 30
0.0
 11
572.6147343590104
 21
950.3192206871126
 31
0.0
  0
LINE
  5
2E9E
330
2
100
AcDbEntity
  8
KIJUN
100
AcDbLine
 10
572.6147343590104
 20
950.3192206871126
 30
0.0
 11
581.2380343590096
 21
948.0934186870536
 31
0.0
  0
LINE
  5
2E9F
330
2
100
AcDbEntity
  8
KIJUN
100
AcDbLine
 10
581.2380343590096
 20
948.0934186870536
 30
0.0
 11
582.3249003590066
 21
946.7469646871277
 31
0.0
  0
LINE
  5
2EA0
330
2
100
AcDbEntity
  8
KIJUN
100
AcDbLine
 10
582.3249003590066
 20
946.7469646871277
 30
0.0
 11
583.3877633590212
 21
945.4005106870845
 31
0.0
  0
LINE
  5
2EA1
330
2
100
AcDbEntity
  8
KIJUN
100
AcDbLine
 10
583.3877633590212
 20
945.4005106870845
 30
0.0
 11
584.4019853589755
 21
944.0539296871238
 31
0.0
  0
LINE
  5
2EA2
330
2
100
AcDbEntity
  8
KIJUN
100
AcDbLine
 10
584.4019853589755
 20
944.0539296871238
 30
0.0
 11
580.0740793590133
 21
942.3493356871286
 31
0.0
  0
LINE
  5
2EA3
330
2
100
AcDbEntity
  8
KIJUN
100
AcDbLine
 10
580.0740793590133
 20
942.3493356871286
 30
0.0
 11
576.1826723589814
 21
939.8017156871459
 31
0.0
  0
LINE
  5
2EA4
330
2
100
AcDbEntity
  8
KIJUN
100
AcDbLine
 10
576.1826723589814
 20
939.8017156871459
 30
0.0
 11
572.945950358979
 21
936.2204426871127
 31
0.0
  0
LINE
  5
2EA5
330
2
100
AcDbEntity
  8
KIJUN
100
AcDbLine
 10
572.945950358979
 20
936.2204426871127
 30
0.0
 11
566.3994813589718
 21
926.1835056870866
 31
0.0
  0
LINE
  5
2EA6
330
2
100
AcDbEntity
  8
KIJUN
100
AcDbLine
 10
566.3994813589718
 20
926.1835056870866
 30
0.0
 11
564.8276023589691
 21
920.3079776871335
 31
0.0
  0
LINE
  5
2EA7
330
2
100
AcDbEntity
  8
KIJUN
100
AcDbLine
 10
564.8276023589691
 20
920.3079776871335
 30
0.0
 11
564.1528513590205
 21
915.4934076871237
 31
0.0
  0
LINE
  5
2EA8
330
2
100
AcDbEntity
  8
KIJUN
100
AcDbLine
 10
564.1528513590205
 20
915.4934076871237
 30
0.0
 11
564.545027359008
 21
911.4949396871189
 31
0.0
  0
LINE
  5
2EA9
330
2
100
AcDbEntity
  8
KIJUN
100
AcDbLine
 10
564.545027359008
 20
911.4949396871189
 30
0.0
 11
564.7549583589908
 21
906.6940856871397
 31
0.0
  0
LINE
  5
2EAA
330
2
100
AcDbEntity
  8
KIJUN
100
AcDbLine
 10
564.7549583589908
 20
906.6940856871397
 30
0.0
 11
565.7167293589712
 21
902.4644776870726
 31
0.0
  0
LINE
  5
2EAB
330
2
100
AcDbEntity
  8
KIJUN
100
AcDbLine
 10
565.7167293589712
 20
902.4644776870726
 30
0.0
 11
567.6000123589959
 21
898.6429206871276
 31
0.0
  0
LINE
  5
2EAC
330
2
100
AcDbEntity
  8
KIJUN
100
AcDbLine
 10
567.6000123589959
 20
898.6429206871276
 30
0.0
 11
569.0706723589731
 21
894.7395756870927
 31
0.0
  0
LINE
  5
2EAD
330
2
100
AcDbEntity
  8
KIJUN
100
AcDbLine
 10
569.0706723589731
 20
894.7395756870927
 30
0.0
 11
571.0749863589702
 21
891.2444086870918
 31
0.0
  0
LINE
  5
2EAE
330
2
100
AcDbEntity
  8
KIJUN
100
AcDbLine
 10
571.0749863589702
 20
891.2444086870918
 30
0.0
 11
573.9280413589634
 21
887.9939706871175
 31
0.0
  0
LINE
  5
2EAF
330
2
100
AcDbEntity
  8
KIJUN
100
AcDbLine
 10
573.9280413589634
 20
887.9939706871175
 30
0.0
 11
577.4959793589999
 21
884.3444986870986
 31
0.0
  0
LINE
  5
2EB0
330
2
100
AcDbEntity
  8
KIJUN
100
AcDbLine
 10
577.4959793589999
 20
884.3444986870986
 30
0.0
 11
580.9428863590049
 21
881.8918746870577
 31
0.0
  0
LINE
  5
2EB1
330
2
100
AcDbEntity
  8
KIJUN
100
AcDbLine
 10
580.9428863590049
 20
881.8918746870577
 30
0.0
 11
585.1655093590128
 21
879.7929456870866
 31
0.0
  0
LINE
  5
2EB2
330
2
100
AcDbEntity
  8
KIJUN
100
AcDbLine
 10
585.1655093590128
 20
879.7929456870866
 30
0.0
 11
590.1036503589751
 21
878.8862926870447
 31
0.0
  0
LINE
  5
2EB3
330
2
100
AcDbEntity
  8
KIJUN
100
AcDbLine
 10
590.1036503589751
 20
878.8862926870447
 30
0.0
 11
595.2113363589863
 21
878.7413856870797
 31
0.0
  0
LINE
  5
2EB4
330
2
100
AcDbEntity
  8
KIJUN
100
AcDbLine
 10
595.2113363589863
 20
878.7413856870797
 30
0.0
 11
600.6584933589951
 21
878.8140296870714
 31
0.0
  0
LINE
  5
2EB5
330
2
100
AcDbEntity
  8
KIJUN
100
AcDbLine
 10
600.6584933589951
 20
878.8140296870714
 30
0.0
 11
606.2956423589834
 21
880.6589586871078
 31
0.0
  0
LINE
  5
2EB6
330
2
100
AcDbEntity
  8
KIJUN
100
AcDbLine
 10
606.2956423589834
 20
880.6589586871078
 30
0.0
 11
611.1328183590134
 21
883.2111506871326
 31
0.0
  0
LINE
  5
2EB7
330
2
100
AcDbEntity
  8
KIJUN
100
AcDbLine
 10
611.1328183590134
 20
883.2111506871326
 30
0.0
 11
615.3879533589982
 21
887.5045126870634
 31
0.0
  0
LINE
  5
2EB8
330
2
100
AcDbEntity
  8
KIJUN
100
AcDbLine
 10
615.3879533589982
 20
887.5045126870634
 30
0.0
 11
617.7477403589704
 21
892.1420446870788
 31
0.0
  0
LINE
  5
2EB9
330
2
100
AcDbEntity
  8
KIJUN
100
AcDbLine
 10
617.7477403589704
 20
892.1420446870788
 30
0.0
 11
618.9923403590049
 21
897.1876276870926
 31
0.0
  0
LINE
  5
2EBA
330
2
100
AcDbEntity
  8
KIJUN
100
AcDbLine
 10
618.9923403590049
 20
897.1876276870926
 30
0.0
 11
620.1885533590078
 21
901.8254136870766
 31
0.0
  0
LINE
  5
2EBB
330
2
100
AcDbEntity
  8
KIJUN
100
AcDbLine
 10
620.1885533590078
 20
901.8254136870766
 30
0.0
 11
618.7095113590161
 21
908.4804676871085
 31
0.0
  0
LINE
  5
2EBC
330
2
100
AcDbEntity
  8
KIJUN
100
AcDbLine
 10
618.7095113590161
 20
908.4804676871085
 30
0.0
 11
616.1392853590126
 21
914.1018686870765
 31
0.0
  0
LINE
  5
2EBD
330
2
100
AcDbEntity
  8
KIJUN
100
AcDbLine
 10
616.1392853590126
 20
914.1018686870765
 30
0.0
 11
611.678029359003
 21
919.2065066870945
 31
0.0
  0
LINE
  5
2EBE
330
2
100
AcDbEntity
  8
KIJUN
100
AcDbLine
 10
611.678029359003
 20
919.2065066870945
 30
0.0
 11
606.3684133590115
 21
921.1377956871466
 31
0.0
  0
LINE
  5
2EBF
330
2
100
AcDbEntity
  8
KIJUN
100
AcDbLine
 10
606.3684133590115
 20
921.1377956871466
 30
0.0
 11
600.2584433589994
 21
921.2738126871066
 31
0.0
  0
LINE
  5
2EC0
330
2
100
AcDbEntity
  8
KIJUN
100
AcDbLine
 10
600.2584433589994
 20
921.2738126871066
 30
0.0
 11
593.3485003590152
 21
919.2065066870945
 31
0.0
  0
LINE
  5
2EC1
330
2
100
AcDbEntity
  8
KIJUN
100
AcDbLine
 10
593.3485003590152
 20
919.2065066870945
 30
0.0
 11
588.8755603589864
 21
911.8624776871456
 31
0.0
  0
LINE
  5
2EC2
330
2
100
AcDbEntity
  8
KIJUN
100
AcDbLine
 10
612.4539993589827
 20
973.8934686870875
 30
0.0
 11
616.1635423590163
 21
972.9144256871395
 31
0.0
  0
LINE
  5
2EC3
330
2
100
AcDbEntity
  8
KIJUN
100
AcDbLine
 10
616.1635423590163
 20
972.9144256871395
 30
0.0
 11
618.6730623589731
 21
973.4040106871347
 31
0.0
  0
LINE
  5
2EC4
330
2
100
AcDbEntity
  8
KIJUN
100
AcDbLine
 10
618.6730623589731
 20
973.4040106871347
 30
0.0
 11
616.1635423590163
 21
969.2419666870796
 31
0.0
  0
LINE
  5
2EC5
330
2
100
AcDbEntity
  8
KIJUN
100
AcDbLine
 10
616.1635423590163
 20
969.2419666870796
 30
0.0
 11
614.5270203590163
 21
965.2029856870885
 31
0.0
  0
LINE
  5
2EC6
330
2
100
AcDbEntity
  8
KIJUN
100
AcDbLine
 10
614.5270203590163
 20
965.2029856870885
 30
0.0
 11
614.5270203590163
 21
961.0414496870896
 31
0.0
  0
LINE
  5
2EC7
330
2
100
AcDbEntity
  8
KIJUN
100
AcDbLine
 10
614.5270203590163
 20
961.0414496870896
 30
0.0
 11
615.4000183589864
 21
956.8794056871437
 31
0.0
  0
LINE
  5
2EC8
330
2
100
AcDbEntity
  8
KIJUN
100
AcDbLine
 10
615.4000183589864
 20
956.8794056871437
 30
0.0
 11
616.6000413589984
 21
953.6969126870845
 31
0.0
  0
LINE
  5
2EC9
330
2
100
AcDbEntity
  8
KIJUN
100
AcDbLine
 10
616.6000413589984
 20
953.6969126870845
 30
0.0
 11
619.8729583590078
 21
948.1889226870425
 31
0.0
  0
LINE
  5
2ECA
330
2
100
AcDbEntity
  8
KIJUN
100
AcDbLine
 10
619.8729583590078
 20
948.1889226870425
 30
0.0
 11
622.710011359018
 21
944.5169716871415
 31
0.0
  0
LINE
  5
2ECB
330
2
100
AcDbEntity
  8
KIJUN
100
AcDbLine
 10
622.710011359018
 20
944.5169716871415
 30
0.0
 11
625.9830553590194
 21
940.3554356871346
 31
0.0
  0
LINE
  5
2ECC
330
2
100
AcDbEntity
  8
KIJUN
100
AcDbLine
 10
625.9830553590194
 20
940.3554356871346
 30
0.0
 11
628.8199813589939
 21
937.1729426870755
 31
0.0
  0
LINE
  5
2ECD
330
2
100
AcDbEntity
  8
KIJUN
100
AcDbLine
 10
628.8199813589939
 20
937.1729426870755
 30
0.0
 11
630.8930023590258
 21
934.3574796870916
 31
0.0
  0
LINE
  5
2ECE
330
2
100
AcDbEntity
  8
KIJUN
100
AcDbLine
 10
630.8930023590258
 20
934.3574796870916
 30
0.0
 11
623.1465103589983
 21
941.3344786870757
 31
0.0
  0
LINE
  5
2ECF
330
2
100
AcDbEntity
  8
KIJUN
100
AcDbLine
 10
623.1465103589983
 20
941.3344786870757
 30
0.0
 11
618.2364363590071
 21
945.3739676871146
 31
0.0
  0
LINE
  5
2ED0
330
2
100
AcDbEntity
  8
KIJUN
100
AcDbLine
 10
618.2364363590071
 20
945.3739676871146
 30
0.0
 11
613.7634963589847
 21
950.5144196871356
 31
0.0
  0
LINE
  5
2ED1
330
2
100
AcDbEntity
  8
KIJUN
100
AcDbLine
 10
613.7634963589847
 20
950.5144196871356
 30
0.0
 11
610.9264433589754
 21
957.3689906871395
 31
0.0
  0
LINE
  5
2ED2
330
2
100
AcDbEntity
  8
KIJUN
100
AcDbLine
 10
610.9264433589754
 20
957.3689906871395
 30
0.0
 11
609.2900483590105
 21
965.2029856870885
 31
0.0
  0
LINE
  5
2ED3
330
2
100
AcDbEntity
  8
KIJUN
100
AcDbLine
 10
609.2900483590105
 20
965.2029856870885
 30
0.0
 11
610.0534453590129
 21
970.7109756871316
 31
0.0
  0
LINE
  5
2ED4
330
2
100
AcDbEntity
  8
KIJUN
100
AcDbLine
 10
610.0534453590129
 20
970.7109756871316
 30
0.0
 11
612.4539993589827
 21
973.8934686870875
 31
0.0
  0
LINE
  5
2ED5
330
2
100
AcDbEntity
  8
KIJUN
100
AcDbLine
 10
601.7859993590067
 20
974.2744686870446
 30
0.0
 11
599.8219443590182
 21
976.5999656871377
 31
0.0
  0
LINE
  5
2ED6
330
2
100
AcDbEntity
  8
KIJUN
100
AcDbLine
 10
599.8219443590182
 20
976.5999656871377
 30
0.0
 11
595.6760293589817
 21
976.5999656871377
 31
0.0
  0
LINE
  5
2ED7
330
2
100
AcDbEntity
  8
KIJUN
100
AcDbLine
 10
595.6760293589817
 20
976.5999656871377
 30
0.0
 11
592.0754523589898
 21
972.8054596871025
 31
0.0
  0
LINE
  5
2ED8
330
2
100
AcDbEntity
  8
KIJUN
100
AcDbLine
 10
592.0754523589898
 20
972.8054596871025
 30
0.0
 11
592.0754523589898
 21
968.2770206870577
 31
0.0
  0
LINE
  5
2ED9
330
2
100
AcDbEntity
  8
KIJUN
100
AcDbLine
 10
592.0754523589898
 20
968.2770206870577
 30
0.0
 11
593.2759833590065
 21
962.2789376870887
 31
0.0
  0
LINE
  5
2EDA
330
2
100
AcDbEntity
  8
KIJUN
100
AcDbLine
 10
593.2759833590065
 20
962.2789376870887
 30
0.0
 11
595.6760293589817
 21
958.6069866870776
 31
0.0
  0
LINE
  5
2EDB
330
2
100
AcDbEntity
  8
KIJUN
100
AcDbLine
 10
595.6760293589817
 20
958.6069866870776
 30
0.0
 11
597.7490503590209
 21
954.9349086871329
 31
0.0
  0
LINE
  5
2EDC
330
2
100
AcDbEntity
  8
KIJUN
100
AcDbLine
 10
597.7490503590209
 20
954.9349086871329
 30
0.0
 11
601.7859993590067
 21
950.7734996870585
 31
0.0
  0
LINE
  5
2EDD
330
2
100
AcDbEntity
  8
KIJUN
100
AcDbLine
 10
601.7859993590067
 20
950.7734996870585
 30
0.0
 11
604.6225443590268
 21
948.0804646870556
 31
0.0
  0
LINE
  5
2EDE
330
2
100
AcDbEntity
  8
KIJUN
100
AcDbLine
 10
604.6225443590268
 20
948.0804646870556
 30
0.0
 11
609.9689903590091
 21
944.8979716871058
 31
0.0
  0
LINE
  5
2EDF
330
2
100
AcDbEntity
  8
KIJUN
100
AcDbLine
 10
609.9689903590091
 20
944.8979716871058
 30
0.0
 11
614.4420573590145
 21
943.0619326870756
 31
0.0
  0
LINE
  5
2EE0
330
2
100
AcDbEntity
  8
KIJUN
100
AcDbLine
 10
614.4420573590145
 20
943.0619326870756
 30
0.0
 11
619.3520043589709
 21
941.2260206870946
 31
0.0
  0
LINE
  5
2EE1
330
2
100
AcDbEntity
  8
KIJUN
100
AcDbLine
 10
619.3520043589709
 20
941.2260206870946
 30
0.0
 11
622.1885493589773
 21
939.7570116871456
 31
0.0
  0
LINE
  5
2EE2
330
2
100
AcDbEntity
  8
KIJUN
100
AcDbLine
 10
622.1885493589773
 20
939.7570116871456
 30
0.0
 11
614.4420573590145
 21
945.2650016870707
 31
0.0
  0
LINE
  5
2EE3
330
2
100
AcDbEntity
  8
KIJUN
100
AcDbLine
 10
614.4420573590145
 20
945.2650016870707
 30
0.0
 11
608.7684593590005
 21
950.7734996870585
 31
0.0
  0
LINE
  5
2EE4
330
2
100
AcDbEntity
  8
KIJUN
100
AcDbLine
 10
608.7684593590005
 20
950.7734996870585
 30
0.0
 11
605.495542358983
 21
956.7709476870465
 31
0.0
  0
LINE
  5
2EE5
330
2
100
AcDbEntity
  8
KIJUN
100
AcDbLine
 10
605.495542358983
 20
956.7709476870465
 30
0.0
 11
603.422521359001
 21
961.7894796871356
 31
0.0
  0
LINE
  5
2EE6
330
2
100
AcDbEntity
  8
KIJUN
100
AcDbLine
 10
603.422521359001
 20
961.7894796871356
 30
0.0
 11
602.6589973589628
 21
966.9304396870966
 31
0.0
  0
LINE
  5
2EE7
330
2
100
AcDbEntity
  8
KIJUN
100
AcDbLine
 10
602.6589973589628
 20
966.9304396870966
 30
0.0
 11
601.7859993590067
 21
974.2744686870446
 31
0.0
  0
LINE
  5
2EE8
330
2
100
AcDbEntity
  8
KIJUN
100
AcDbLine
 10
627.5669993590021
 20
936.5554686870988
 30
0.0
 11
619.8205073589819
 21
943.8994976870544
 31
0.0
  0
LINE
  5
2EE9
330
2
100
AcDbEntity
  8
KIJUN
100
AcDbLine
 10
619.8205073589819
 20
943.8994976870544
 30
0.0
 11
615.674465358967
 21
948.0614146870747
 31
0.0
  0
LINE
  5
2EEA
330
2
100
AcDbEntity
  8
KIJUN
100
AcDbLine
 10
615.674465358967
 20
948.0614146870747
 30
0.0
 11
611.6375163589877
 21
955.4054436871396
 31
0.0
  0
LINE
  5
2EEB
330
2
100
AcDbEntity
  8
KIJUN
100
AcDbLine
 10
611.6375163589877
 20
955.4054436871396
 30
0.0
 11
609.5644953590066
 21
962.7494726870887
 31
0.0
  0
LINE
  5
2EEC
330
2
100
AcDbEntity
  8
KIJUN
100
AcDbLine
 10
609.5644953590066
 20
962.7494726870887
 30
0.0
 11
610.0009943589879
 21
969.1144586871105
 31
0.0
  0
LINE
  5
2EED
330
2
100
AcDbEntity
  8
KIJUN
100
AcDbLine
 10
610.0009943589879
 20
969.1144586871105
 30
0.0
 11
612.0740153590207
 21
974.2554186870647
 31
0.0
  0
LINE
  5
2EEE
330
2
100
AcDbEntity
  8
KIJUN
100
AcDbLine
 10
612.0740153590207
 20
974.2554186870647
 30
0.0
 11
615.3470593590149
 21
973.2759946871105
 31
0.0
  0
LINE
  5
2EEF
330
2
100
AcDbEntity
  8
KIJUN
100
AcDbLine
 10
615.3470593590149
 20
973.2759946871105
 30
0.0
 11
618.6204843590225
 21
973.7654526870567
 31
0.0
  0
LINE
  5
2EF0
330
2
100
AcDbEntity
  8
KIJUN
100
AcDbLine
 10
618.6204843590225
 20
973.7654526870567
 30
0.0
 11
620.5845393590185
 21
977.9274966871257
 31
0.0
  0
LINE
  5
2EF1
330
2
100
AcDbEntity
  8
KIJUN
100
AcDbLine
 10
620.5845393590185
 20
977.9274966871257
 30
0.0
 11
619.8205073589819
 21
982.0889056870756
 31
0.0
  0
LINE
  5
2EF2
330
2
100
AcDbEntity
  8
KIJUN
100
AcDbLine
 10
619.8205073589819
 20
982.0889056870756
 30
0.0
 11
616.9839623589699
 21
984.2924826871335
 31
0.0
  0
LINE
  5
2EF3
330
2
100
AcDbEntity
  8
KIJUN
100
AcDbLine
 10
616.9839623589699
 20
984.2924826871335
 30
0.0
 11
613.7105373590205
 21
984.7819406870785
 31
0.0
  0
LINE
  5
2EF4
330
2
100
AcDbEntity
  8
KIJUN
100
AcDbLine
 10
613.7105373590205
 20
984.7819406870785
 30
0.0
 11
610.0009943589879
 21
984.2924826871335
 31
0.0
  0
LINE
  5
2EF5
330
2
100
AcDbEntity
  8
KIJUN
100
AcDbLine
 10
610.0009943589879
 20
984.2924826871335
 30
0.0
 11
606.2914513590125
 21
982.0889056870756
 31
0.0
  0
LINE
  5
2EF6
330
2
100
AcDbEntity
  8
KIJUN
100
AcDbLine
 10
606.2914513590125
 20
982.0889056870756
 30
0.0
 11
603.8910243590111
 21
978.4169546870716
 31
0.0
  0
LINE
  5
2EF7
330
2
100
AcDbEntity
  8
KIJUN
100
AcDbLine
 10
603.8910243590111
 20
978.4169546870716
 30
0.0
 11
602.2545023590249
 21
973.7654526870567
 31
0.0
  0
LINE
  5
2EF8
330
2
100
AcDbEntity
  8
KIJUN
100
AcDbLine
 10
602.2545023590249
 20
973.7654526870567
 30
0.0
 11
601.8180033589791
 21
969.1144586871105
 31
0.0
  0
LINE
  5
2EF9
330
2
100
AcDbEntity
  8
KIJUN
100
AcDbLine
 10
601.8180033589791
 20
969.1144586871105
 30
0.0
 11
603.1275003589883
 21
963.6064686870694
 31
0.0
  0
LINE
  5
2EFA
330
2
100
AcDbEntity
  8
KIJUN
100
AcDbLine
 10
603.1275003589883
 20
963.6064686870694
 30
0.0
 11
604.3275233590005
 21
958.0984786871436
 31
0.0
  0
LINE
  5
2EFB
330
2
100
AcDbEntity
  8
KIJUN
100
AcDbLine
 10
604.3275233590005
 20
958.0984786871436
 30
0.0
 11
607.9279733590059
 21
952.5899806870466
 31
0.0
  0
LINE
  5
2EFC
330
2
100
AcDbEntity
  8
KIJUN
100
AcDbLine
 10
607.9279733590059
 20
952.5899806870466
 30
0.0
 11
612.4015483590177
 21
947.0819906871206
 31
0.0
  0
LINE
  5
2EFD
330
2
100
AcDbEntity
  8
KIJUN
100
AcDbLine
 10
612.4015483590177
 20
947.0819906871206
 30
0.0
 11
616.9839623589699
 21
943.8994976870544
 31
0.0
  0
LINE
  5
2EFE
330
2
100
AcDbEntity
  8
KIJUN
100
AcDbLine
 10
616.9839623589699
 20
943.8994976870544
 30
0.0
 11
627.5669993590021
 21
936.5554686870988
 31
0.0
  0
LINE
  5
2EFF
330
2
100
AcDbEntity
  8
KIJUN
100
AcDbLine
 10
564.1939993589743
 20
944.1754686870359
 30
0.0
 11
557.3870533589782
 21
932.3350046871295
 31
0.0
  0
LINE
  5
2F00
330
2
100
AcDbEntity
  8
KIJUN
100
AcDbLine
 10
557.3870533589782
 20
932.3350046871295
 30
0.0
 11
555.7369423589956
 21
922.885442687048
 31
0.0
  0
LINE
  5
2F01
330
2
100
AcDbEntity
  8
KIJUN
100
AcDbLine
 10
555.7369423589956
 20
922.885442687048
 30
0.0
 11
555.1179443589693
 21
909.6789666870703
 31
0.0
  0
LINE
  5
2F02
330
2
100
AcDbEntity
  8
KIJUN
100
AcDbLine
 10
555.1179443589693
 20
909.6789666870703
 30
0.0
 11
557.3870533589782
 21
895.2200166870996
 31
0.0
  0
LINE
  5
2F03
330
2
100
AcDbEntity
  8
KIJUN
100
AcDbLine
 10
557.3870533589782
 20
895.2200166870996
 30
0.0
 11
562.4405103589864
 21
885.8845006870497
 31
0.0
  0
LINE
  5
2F04
330
2
100
AcDbEntity
  8
KIJUN
100
AcDbLine
 10
562.4405103589864
 20
885.8845006870497
 30
0.0
 11
573.7855473590074
 21
874.6135046870277
 31
0.0
  0
LINE
  5
2F05
330
2
100
AcDbEntity
  8
KIJUN
100
AcDbLine
 10
573.7855473590074
 20
874.6135046870277
 30
0.0
 11
587.3990583589814
 21
868.9209836871325
 31
0.0
  0
LINE
  5
2F06
330
2
100
AcDbEntity
  8
KIJUN
100
AcDbLine
 10
587.3990583589814
 20
868.9209836871325
 30
0.0
 11
603.1785543589989
 21
868.2379776870316
 31
0.0
  0
LINE
  5
2F07
330
2
100
AcDbEntity
  8
KIJUN
100
AcDbLine
 10
603.1785543589989
 20
868.2379776870316
 30
0.0
 11
616.7924463589919
 21
871.9950186870946
 31
0.0
  0
LINE
  5
2F08
330
2
100
AcDbEntity
  8
KIJUN
100
AcDbLine
 10
616.7924463589919
 20
871.9950186870946
 30
0.0
 11
626.383994358975
 21
881.4444536871256
 31
0.0
  0
LINE
  5
2F09
330
2
100
AcDbEntity
  8
KIJUN
100
AcDbLine
 10
626.383994358975
 20
881.4444536871256
 30
0.0
 11
631.5404483589783
 21
893.3984556871246
 31
0.0
  0
LINE
  5
2F0A
330
2
100
AcDbEntity
  8
KIJUN
100
AcDbLine
 10
631.5404483589783
 20
893.3984556871246
 30
0.0
 11
631.5404483589783
 21
905.3529656870614
 31
0.0
  0
LINE
  5
2F0B
330
2
100
AcDbEntity
  8
KIJUN
100
AcDbLine
 10
631.5404483589783
 20
905.3529656870614
 30
0.0
 11
627.5184853589865
 21
917.8759276871229
 31
0.0
  0
LINE
  5
2F0C
330
2
100
AcDbEntity
  8
KIJUN
100
AcDbLine
 10
627.5184853589865
 20
917.8759276871229
 30
0.0
 11
618.4425573589663
 21
927.2119516871116
 31
0.0
  0
LINE
  5
2F0D
330
2
100
AcDbEntity
  8
KIJUN
100
AcDbLine
 10
618.4425573589663
 20
927.2119516871116
 30
0.0
 11
607.7165183589726
 21
931.0829116870465
 31
0.0
  0
LINE
  5
2F0E
330
2
100
AcDbEntity
  8
KIJUN
100
AcDbLine
 10
607.7165183589726
 20
931.0829116870465
 30
0.0
 11
596.9904793589861
 21
930.3995246870426
 31
0.0
  0
LINE
  5
2F0F
330
2
100
AcDbEntity
  8
KIJUN
100
AcDbLine
 10
596.9904793589861
 20
930.3995246870426
 30
0.0
 11
589.0495503589812
 21
925.9594776871336
 31
0.0
  0
LINE
  5
2F10
330
2
100
AcDbEntity
  8
KIJUN
100
AcDbLine
 10
589.0495503589812
 20
925.9594776871336
 30
0.0
 11
584.5114593590145
 21
918.4455226870504
 31
0.0
  0
LINE
  5
2F11
330
2
100
AcDbEntity
  8
KIJUN
100
AcDbLine
 10
584.5114593590145
 20
918.4455226870504
 30
0.0
 11
583.3769683590047
 21
909.1100066871176
 31
0.0
  0
LINE
  5
2F12
330
2
100
AcDbEntity
  8
KIJUN
100
AcDbLine
 10
583.3769683590047
 20
909.1100066871176
 30
0.0
 11
586.7804413589732
 21
901.4820056871347
 31
0.0
  0
LINE
  5
2F13
330
2
100
AcDbEntity
  8
KIJUN
100
AcDbLine
 10
586.7804413589732
 20
901.4820056871347
 30
0.0
 11
593.5870063590158
 21
898.9769306871266
 31
0.0
  0
LINE
  5
2F14
330
2
100
AcDbEntity
  8
KIJUN
100
AcDbLine
 10
593.5870063590158
 20
898.9769306871266
 30
0.0
 11
587.3990583589814
 21
902.8480176870898
 31
0.0
  0
LINE
  5
2F15
330
2
100
AcDbEntity
  8
KIJUN
100
AcDbLine
 10
587.3990583589814
 20
902.8480176870898
 30
0.0
 11
587.3990583589814
 21
907.8574056870957
 31
0.0
  0
LINE
  5
2F16
330
2
100
AcDbEntity
  8
KIJUN
100
AcDbLine
 10
587.3990583589814
 20
907.8574056870957
 30
0.0
 11
589.0495503589812
 21
913.4360076871258
 31
0.0
  0
LINE
  5
2F17
330
2
100
AcDbEntity
  8
KIJUN
100
AcDbLine
 10
620.9510613589849
 20
857.9424686871446
 30
0.0
 11
556.8109813589812
 21
857.9424686871446
 31
0.0
  0
LINE
  5
2F18
330
2
100
AcDbEntity
  8
KIJUN
100
AcDbLine
 10
556.8109813589812
 20
857.9424686871446
 30
0.0
 11
555.0136773590168
 21
857.1854216870436
 31
0.0
  0
LINE
  5
2F19
330
2
100
AcDbEntity
  8
KIJUN
100
AcDbLine
 10
555.0136773590168
 20
857.1854216870436
 30
0.0
 11
553.7318663589743
 21
855.2005386871046
 31
0.0
  0
LINE
  5
2F1A
330
2
100
AcDbEntity
  8
KIJUN
100
AcDbLine
 10
553.7318663589743
 20
855.2005386871046
 30
0.0
 11
553.2430433590101
 21
852.4174606871115
 31
0.0
  0
LINE
  5
2F1B
330
2
100
AcDbEntity
  8
KIJUN
100
AcDbLine
 10
553.2430433590101
 20
852.4174606871115
 30
0.0
 11
553.7318663589743
 21
849.6343826871189
 31
0.0
  0
LINE
  5
2F1C
330
2
100
AcDbEntity
  8
KIJUN
100
AcDbLine
 10
553.7318663589743
 20
849.6343826871189
 30
0.0
 11
555.0136773590168
 21
847.6494996870705
 31
0.0
  0
LINE
  5
2F1D
330
2
100
AcDbEntity
  8
KIJUN
100
AcDbLine
 10
555.0136773590168
 20
847.6494996870705
 30
0.0
 11
556.8109813589812
 21
846.8924526870926
 31
0.0
  0
LINE
  5
2F1E
330
2
100
AcDbEntity
  8
KIJUN
100
AcDbLine
 10
556.8109813589812
 20
846.8924526870926
 30
0.0
 11
620.9510613589849
 21
846.8924526870926
 31
0.0
  0
LINE
  5
2F1F
330
2
100
AcDbEntity
  8
KIJUN
100
AcDbLine
 10
620.9510613589849
 20
846.8924526870926
 30
0.0
 11
622.7482383589707
 21
847.6494996870705
 31
0.0
  0
LINE
  5
2F20
330
2
100
AcDbEntity
  8
KIJUN
100
AcDbLine
 10
622.7482383589707
 20
847.6494996870705
 30
0.0
 11
624.0300493590161
 21
849.6343826871189
 31
0.0
  0
LINE
  5
2F21
330
2
100
AcDbEntity
  8
KIJUN
100
AcDbLine
 10
624.0300493590161
 20
849.6343826871189
 30
0.0
 11
624.5189993590151
 21
852.4174606871115
 31
0.0
  0
LINE
  5
2F22
330
2
100
AcDbEntity
  8
KIJUN
100
AcDbLine
 10
624.5189993590151
 20
852.4174606871115
 30
0.0
 11
624.0300493590161
 21
855.2005386871046
 31
0.0
  0
LINE
  5
2F23
330
2
100
AcDbEntity
  8
KIJUN
100
AcDbLine
 10
624.0300493590161
 20
855.2005386871046
 30
0.0
 11
622.7482383589707
 21
857.1854216870436
 31
0.0
  0
LINE
  5
2F24
330
2
100
AcDbEntity
  8
KIJUN
100
AcDbLine
 10
622.7482383589707
 20
857.1854216870436
 30
0.0
 11
620.9510613589849
 21
857.9424686871446
 31
0.0
  0
LINE
  5
2F25
330
2
100
AcDbEntity
  8
KIJUN
100
AcDbLine
 10
557.3359993590178
 20
858.8314686870827
 30
0.0
 11
575.6655283590129
 21
858.8314686870827
 31
0.0
  0
LINE
  5
2F26
330
2
100
AcDbEntity
  8
KIJUN
100
AcDbLine
 10
549.3610343589803
 20
1302.182449687063
 30
0.0
 11
555.802982359009
 21
1292.759430687076
 31
0.0
  0
LINE
  5
2F27
330
2
100
AcDbEntity
  8
KIJUN
100
AcDbLine
 10
555.802982359009
 20
1292.759430687076
 30
0.0
 11
560.0079523589861
 21
1287.945876687075
 31
0.0
  0
LINE
  5
2F28
330
2
100
AcDbEntity
  8
KIJUN
100
AcDbLine
 10
560.0079523589861
 20
1287.945876687075
 30
0.0
 11
562.6924783589897
 21
1282.415407687049
 31
0.0
  0
LINE
  5
2F29
330
2
100
AcDbEntity
  8
KIJUN
100
AcDbLine
 10
562.6924783589897
 20
1282.415407687049
 30
0.0
 11
564.7500053589806
 21
1275.757940687118
 31
0.0
  0
LINE
  5
2F2A
330
2
100
AcDbEntity
  8
KIJUN
100
AcDbLine
 10
564.7500053589806
 20
1275.757940687118
 30
0.0
 11
565.8240443589634
 21
1268.485920687055
 31
0.0
  0
LINE
  5
2F2B
330
2
100
AcDbEntity
  8
KIJUN
100
AcDbLine
 10
565.8240443589634
 20
1268.485920687055
 30
0.0
 11
563.7660093589849
 21
1262.955451687152
 31
0.0
  0
LINE
  5
2F2C
330
2
100
AcDbEntity
  8
KIJUN
100
AcDbLine
 10
563.7660093589849
 20
1262.955451687152
 30
0.0
 11
560.0079523589861
 21
1257.526963687103
 31
0.0
  0
LINE
  5
2F2D
330
2
100
AcDbEntity
  8
KIJUN
100
AcDbLine
 10
560.0079523589861
 20
1257.526963687103
 30
0.0
 11
556.3395573590219
 21
1254.454452687083
 31
0.0
  0
LINE
  5
2F2E
330
2
100
AcDbEntity
  8
KIJUN
100
AcDbLine
 10
556.3395573590219
 20
1254.454452687083
 30
0.0
 11
558.2185223589744
 21
1245.134430687076
 31
0.0
  0
LINE
  5
2F2F
330
2
100
AcDbEntity
  8
KIJUN
100
AcDbLine
 10
558.2185223589744
 20
1245.134430687076
 30
0.0
 11
561.618439359006
 21
1239.193878687055
 31
0.0
  0
LINE
  5
2F30
330
2
100
AcDbEntity
  8
KIJUN
100
AcDbLine
 10
561.618439359006
 20
1239.193878687055
 30
0.0
 11
567.9709793590205
 21
1235.608922687048
 31
0.0
  0
LINE
  5
2F31
330
2
100
AcDbEntity
  8
KIJUN
100
AcDbLine
 10
567.9709793590205
 20
1235.608922687048
 30
0.0
 11
573.786944359022
 21
1236.22347568707
 31
0.0
  0
LINE
  5
2F32
330
2
100
AcDbEntity
  8
KIJUN
100
AcDbLine
 10
573.786944359022
 20
1236.22347568707
 30
0.0
 11
575.9340063589974
 21
1239.193878687055
 31
0.0
  0
LINE
  5
2F33
330
2
100
AcDbEntity
  8
KIJUN
100
AcDbLine
 10
575.9340063589974
 20
1239.193878687055
 30
0.0
 11
577.9920413589912
 21
1243.495368687095
 31
0.0
  0
LINE
  5
2F34
330
2
100
AcDbEntity
  8
KIJUN
100
AcDbLine
 10
577.9920413589912
 20
1243.495368687095
 30
0.0
 11
573.2499883589903
 21
1244.109921687102
 31
0.0
  0
LINE
  5
2F35
330
2
100
AcDbEntity
  8
KIJUN
100
AcDbLine
 10
573.2499883589903
 20
1244.109921687102
 30
0.0
 11
567.4345313589924
 21
1246.56787968711
 31
0.0
  0
LINE
  5
2F36
330
2
100
AcDbEntity
  8
KIJUN
100
AcDbLine
 10
567.4345313589924
 20
1246.56787968711
 30
0.0
 11
565.8240443589634
 21
1250.152962687056
 31
0.0
  0
LINE
  5
2F37
330
2
100
AcDbEntity
  8
KIJUN
100
AcDbLine
 10
565.8240443589634
 20
1250.152962687056
 30
0.0
 11
565.2869613590133
 21
1256.297857687061
 31
0.0
  0
LINE
  5
2F38
330
2
100
AcDbEntity
  8
KIJUN
100
AcDbLine
 10
565.2869613590133
 20
1256.297857687061
 30
0.0
 11
569.5814663589821
 21
1260.497366687103
 31
0.0
  0
LINE
  5
2F39
330
2
100
AcDbEntity
  8
KIJUN
100
AcDbLine
 10
569.5814663589821
 20
1260.497366687103
 30
0.0
 11
571.6395013589767
 21
1266.027962687056
 31
0.0
  0
LINE
  5
2F3A
330
2
100
AcDbEntity
  8
KIJUN
100
AcDbLine
 10
571.6395013589767
 20
1266.027962687056
 30
0.0
 11
571.1025453589956
 21
1273.299855687076
 31
0.0
  0
LINE
  5
2F3B
330
2
100
AcDbEntity
  8
KIJUN
100
AcDbLine
 10
571.1025453589956
 20
1273.299855687076
 30
0.0
 11
570.1185493590005
 21
1279.956941687103
 31
0.0
  0
LINE
  5
2F3C
330
2
100
AcDbEntity
  8
KIJUN
100
AcDbLine
 10
570.1185493590005
 20
1279.956941687103
 30
0.0
 11
565.9134523589787
 21
1287.126472687125
 31
0.0
  0
LINE
  5
2F3D
330
2
100
AcDbEntity
  8
KIJUN
100
AcDbLine
 10
565.9134523589787
 20
1287.126472687125
 30
0.0
 11
558.3974653590316
 21
1293.988409687084
 31
0.0
  0
LINE
  5
2F3E
330
2
100
AcDbEntity
  8
KIJUN
100
AcDbLine
 10
558.3974653590316
 20
1293.988409687084
 30
0.0
 11
549.3610343589803
 21
1302.182449687063
 31
0.0
  0
LINE
  5
2F3F
330
2
100
AcDbEntity
  8
KIJUN
100
AcDbLine
 10
53.83979658912221
 20
319.5554686871056
 30
0.0
 11
168.8397965891222
 21
319.5554686871056
 31
0.0
  0
LINE
  5
2F53
330
2
100
AcDbEntity
  8
KIJUN
100
AcDbLine
 10
532.4427413589922
 20
319.5554686871056
 30
0.0
 11
647.4427413589924
 21
319.5554686871056
 31
0.0
  0
LINE
  5
2F54
330
2
100
AcDbEntity
  8
KIJUN
  6
CENTER
100
AcDbLine
 10
111.3397965891222
 20
251.0501950163603
 30
0.0
 11
111.3397965891222
 21
1459.082180442949
 31
0.0
  0
LINE
  5
2F57
330
2
100
AcDbEntity
  8
KIJUN
100
AcDbLine
 10
53.83979658912221
 20
319.5554686871056
 30
0.0
 11
53.83979658912221
 21
802.5554686871055
 31
0.0
  0
LINE
  5
2F58
330
2
100
AcDbEntity
  8
KIJUN
100
AcDbLine
 10
168.8397965891222
 20
319.5554686871056
 30
0.0
 11
168.8397965891222
 21
802.5554686871055
 31
0.0
  0
ARC
  5
2F5D
330
2
100
AcDbEntity
  8
KIJUN
100
AcDbCircle
 10
60.83979658912221
 20
802.5554686871055
 30
0.0
 40
7.0
100
AcDbArc
 50
90.0
 51
180.0
  0
ARC
  5
2F5E
330
2
100
AcDbEntity
  8
KIJUN
100
AcDbCircle
 10
161.8397965891222
 20
802.5554686871055
 30
0.0
 40
7.0
100
AcDbArc
 50
0.0
 51
90.0
  0
DIMENSION
  5
2F6B
330
2
100
AcDbEntity
  8
SUNPOU
100
AcDbDimension
  2
*D2
 10
168.8397965891222
 20
186.8908197926262
 30
0.0
 11
111.3397965891222
 21
206.8908197926262
 31
0.0
 70
    32
 71
     5
 42
114.9999999999999
  3
STANDARD$0
100
AcDbAlignedDimension
 13
53.83979658912233
 23
319.5554686871056
 33
0.0
 14
168.8397965891222
 24
319.5554686871056
 34
0.0
100
AcDbRotatedDimension
1001
ACAD
1000
DSTYLE
1002
{
1070
    41
1040
3.0
1070
    42
1040
3.0
1070
    44
1040
0.0
1070
    77
1070
     1
1070
   140
1040
10.0
1070
   146
1040
0.064286
1070
   147
1040
5.0
1070
   176
1070
    60
1070
   177
1070
    70
1070
   178
1070
    60
1070
   271
1070
     0
1070
   272
1070
     0
1070
   340
1005
1C
1070
   342
1005
109
1002
}
  0
DIMENSION
  5
2F99
330
2
100
AcDbEntity
  8
SUNPOU
100
AcDbDimension
  2
*D4
 10
-132.2850455875433
 20
319.5554686871057
 30
0.0
 11
-152.2850455875433
 21
869.5554686871057
 31
0.0
 70
    32
 71
     5
 42
1100.0
  3
STANDARD$0
100
AcDbAlignedDimension
 13
67.67579958913017
 23
1419.555468687106
 33
0.0
 14
53.83979658912233
 24
319.5554686871056
 34
0.0
 50
90.0
100
AcDbRotatedDimension
1001
ACAD
1000
DSTYLE
1002
{
1070
    41
1040
3.0
1070
    42
1040
3.0
1070
    44
1040
0.0
1070
    77
1070
     1
1070
   140
1040
10.0
1070
   146
1040
0.064286
1070
   147
1040
5.0
1070
   176
1070
    60
1070
   177
1070
    70
1070
   178
1070
    60
1070
   271
1070
     0
1070
   272
1070
     0
1070
   340
1005
1C
1070
   342
1005
109
1002
}
  0
LINE
  5
2FA8
330
2
100
AcDbEntity
  8
KIJUN
100
AcDbLine
 10
532.4427413589922
 20
319.5554686871056
 30
0.0
 11
532.4427413589924
 21
804.5554686871057
 31
0.0
  0
LINE
  5
2FA9
330
2
100
AcDbEntity
  8
KIJUN
100
AcDbLine
 10
647.4427413589924
 20
319.5554686871056
 30
0.0
 11
647.4427413589924
 21
804.5554686871055
 31
0.0
  0
ARC
  5
2FAA
330
2
100
AcDbEntity
  8
KIJUN
100
AcDbCircle
 10
537.4427413589923
 20
804.5554686871055
 30
0.0
 40
5.0
100
AcDbArc
 50
90.0
 51
180.0
  0
ARC
  5
2FAB
330
2
100
AcDbEntity
  8
KIJUN
100
AcDbCircle
 10
642.4427413589922
 20
804.5554686871055
 30
0.0
 40
5.0
100
AcDbArc
 50
0.0
 51
90.0
  0
DIMENSION
  5
2FAC
330
2
100
AcDbEntity
  8
SUNPOU
100
AcDbDimension
  2
*D5
 10
647.4427413589924
 20
187.2293024889882
 30
0.0
 11
589.9427413589923
 21
207.2293024889882
 31
0.0
 70
    32
 71
     5
 42
115.0000000000002
  3
STANDARD$0
100
AcDbAlignedDimension
 13
532.4427413589922
 23
319.5554686871056
 33
0.0
 14
647.4427413589924
 24
319.5554686871056
 34
0.0
100
AcDbRotatedDimension
1001
ACAD
1000
DSTYLE
1002
{
1070
    41
1040
3.0
1070
    42
1040
3.0
1070
    44
1040
0.0
1070
    77
1070
     1
1070
   140
1040
10.0
1070
   146
1040
0.064286
1070
   147
1040
5.0
1070
   176
1070
    60
1070
   177
1070
    70
1070
   178
1070
    60
1070
   271
1070
     0
1070
   272
1070
     0
1070
   340
1005
1C
1070
   342
1005
109
1002
}
  0
DIMENSION
  5
2FB9
330
2
100
AcDbEntity
  8
SUNPOU
100
AcDbDimension
  2
*D6
 10
355.1098165596432
 20
1419.555468687106
 30
0.0
 11
335.1098165596429
 21
869.5554686871057
 31
0.0
 70
    32
 71
     5
 42
1100.0
  3
STANDARD$0
100
AcDbAlignedDimension
 13
532.4427413589922
 23
319.5554686871056
 33
0.0
 14
540.3195233590135
 24
1419.555468687105
 34
0.0
 50
90.0
100
AcDbRotatedDimension
1001
ACAD
1000
DSTYLE
1002
{
1070
    41
1040
3.0
1070
    42
1040
3.0
1070
    44
1040
0.0
1070
    77
1070
     1
1070
   140
1040
10.0
1070
   146
1040
0.064286
1070
   147
1040
5.0
1070
   176
1070
    60
1070
   177
1070
    70
1070
   178
1070
    60
1070
   271
1070
     0
1070
   272
1070
     0
1070
   340
1005
1C
1070
   342
1005
109
1002
}
  0
TEXT
  5
2FFC
330
2
100
AcDbEntity
  8
HOJO
100
AcDbText
 10
6.921345929488722
 20
-34.68936219258547
 30
0.0
 40
20.0
  1
※ 形状・寸法は製品特性や、生産ロットにより誤差があるものがあります。
  7
SUNPOU
100
AcDbText
  0
DIMENSION
  5
2FFD
330
2
100
AcDbEntity
  8
SUNPOU
100
AcDbDimension
  2
*D8
 10
-53.49419222465269
 20
319.5554686871056
 30
0.0
 11
-73.49419222465273
 21
564.5554686871055
 31
0.0
 70
    32
 71
     5
 42
489.9999999999998
  3
STANDARD$0
100
AcDbAlignedDimension
 13
60.83979658912221
 23
809.5554686871055
 33
0.0
 14
53.83979658912221
 24
319.5554686871056
 34
0.0
 50
90.0
100
AcDbRotatedDimension
1001
ACAD
1000
DSTYLE
1002
{
1070
    41
1040
3.0
1070
    42
1040
3.0
1070
    44
1040
0.0
1070
    77
1070
     1
1070
   140
1040
10.0
1070
   146
1040
0.064286
1070
   147
1040
5.0
1070
   176
1070
    60
1070
   177
1070
    70
1070
   178
1070
    60
1070
   271
1070
     0
1070
   272
1070
     0
1070
   340
1005
1C
1070
   342
1005
109
1002
}
  0
DIMENSION
  5
3025
330
2
100
AcDbEntity
  8
SUNPOU
100
AcDbDimension
  2
*D9
 10
425.1087525452172
 20
319.5554686871056
 30
0.0
 11
405.1087525452173
 21
564.5554686871057
 31
0.0
 70
    32
 71
     5
 42
489.9999999999998
  3
STANDARD$0
100
AcDbAlignedDimension
 13
537.4427413589923
 23
809.5554686871055
 33
0.0
 14
532.4427413589922
 24
319.5554686871056
 34
0.0
 50
90.0
100
AcDbRotatedDimension
1001
ACAD
1000
DSTYLE
1002
{
1070
    41
1040
3.0
1070
    42
1040
3.0
1070
    44
1040
0.0
1070
    77
1070
     1
1070
   140
1040
10.0
1070
   146
1040
0.064286
1070
   147
1040
5.0
1070
   176
1070
    60
1070
   177
1070
    70
1070
   178
1070
    60
1070
   271
1070
     0
1070
   272
1070
     0
1070
   340
1005
1C
1070
   342
1005
109
1002
}
  0
ENDSEC
  0
SECTION
  2
OBJECTS
  0
DICTIONARY
  5
1A
330
0
100
AcDbDictionary
281
     1
  3
ACAD_COLOR
350
2FEF
  3
ACAD_GROUP
350
18
  3
ACAD_LAYOUT
350
58
  3
ACAD_MATERIAL
350
2FEE
  3
ACAD_MLINESTYLE
350
19
  3
ACAD_PLOTSETTINGS
350
59
  3
ACAD_PLOTSTYLENAME
350
56
  3
ACAD_TABLESTYLE
350
2FF0
  3
ACDBHEADERROUNDTRIPXREC
350
30A2
  3
AcDbVariableDictionary
350
3090
  0
DICTIONARY
  5
2FEF
102
{ACAD_REACTORS
330
1A
102
}
330
1A
100
AcDbDictionary
281
     1
  0
DICTIONARY
  5
18
102
{ACAD_REACTORS
330
1A
102
}
330
1A
100
AcDbDictionary
281
     1
  3
*A1
350
3A0
  3
*A2
350
3A1
  3
*A3
350
ACC
  3
*A4
350
2120
  3
*A5
350
2765
  3
*A6
350
2766
  0
DICTIONARY
  5
58
102
{ACAD_REACTORS
330
1A
102
}
330
1A
100
AcDbDictionary
281
     1
  3
Model
350
5A
  3
ﾚｲｱｳﾄ1
350
5B
  0
DICTIONARY
  5
2FEE
102
{ACAD_REACTORS
330
1A
102
}
330
1A
100
AcDbDictionary
281
     1
  0
DICTIONARY
  5
19
102
{ACAD_REACTORS
330
1A
102
}
330
1A
100
AcDbDictionary
281
     1
  3
STANDARD
350
1D
  0
DICTIONARY
  5
59
102
{ACAD_REACTORS
330
1A
102
}
330
1A
100
AcDbDictionary
281
     1
  0
ACDBDICTIONARYWDFLT
  5
56
102
{ACAD_REACTORS
330
1A
102
}
330
1A
100
AcDbDictionary
281
     1
  3
Normal
350
57
100
AcDbDictionaryWithDefault
340
57
  0
DICTIONARY
  5
2FF0
102
{ACAD_REACTORS
330
1A
102
}
330
1A
100
AcDbDictionary
281
     1
  3
Standard
350
2FF1
  0
DICTIONARY
  5
30A2
102
{ACAD_REACTORS
330
1A
102
}
330
1A
100
AcDbDictionary
281
     1
  0
DICTIONARY
  5
3090
102
{ACAD_REACTORS
330
1A
102
}
330
1A
100
AcDbDictionary
281
     1
  3
CTABLESTYLE
350
3091
  3
DIMASSOC
350
3092
  3
PROJECTNAME
350
3093
  0
GROUP
  5
3A0
102
{ACAD_REACTORS
330
18
102
}
330
18
100
AcDbGroup
300

 70
     1
 71
     1
  0
GROUP
  5
3A1
102
{ACAD_REACTORS
330
18
102
}
330
18
100
AcDbGroup
300

 70
     1
 71
     1
  0
GROUP
  5
ACC
102
{ACAD_REACTORS
330
18
102
}
330
18
100
AcDbGroup
300

 70
     1
 71
     1
  0
GROUP
  5
2120
102
{ACAD_REACTORS
330
18
102
}
330
18
100
AcDbGroup
300

 70
     1
 71
     1
  0
GROUP
  5
2765
102
{ACAD_REACTORS
330
18
102
}
330
18
100
AcDbGroup
300

 70
     1
 71
     1
  0
GROUP
  5
2766
102
{ACAD_REACTORS
330
18
102
}
330
18
100
AcDbGroup
300

 70
     1
 71
     1
  0
LAYOUT
  5
5A
102
{ACAD_XDICTIONARY
360
30A3
102
}
102
{ACAD_REACTORS
330
58
102
}
330
58
100
AcDbPlotSettings
  1

  2
なし
  4

  6

 40
0.0
 41
0.0
 42
0.0
 43
0.0
 44
0.0
 45
0.0
 46
0.0
 47
0.0
 48
0.0
 49
0.0
140
0.0
141
0.0
142
1.0
143
1.0
 70
  1712
 72
     0
 73
     0
 74
     0
  7
monochrome.ctb
 75
     0
147
1.0
148
0.0
149
0.0
100
AcDbLayout
  1
Model
 70
     1
 71
     0
 10
0.0
 20
0.0
 11
12.0
 21
9.0
 12
0.0
 22
0.0
 32
0.0
 14
0.0
 24
0.0
 34
0.0
 15
0.0
 25
0.0
 35
0.0
146
0.0
 13
0.0
 23
0.0
 33
0.0
 16
1.0
 26
0.0
 36
0.0
 17
0.0
 27
1.0
 37
0.0
 76
     0
330
2
  0
LAYOUT
  5
5B
102
{ACAD_XDICTIONARY
360
30A5
102
}
102
{ACAD_REACTORS
330
58
102
}
330
58
100
AcDbPlotSettings
  1

  2
なし
  4

  6

 40
0.0
 41
0.0
 42
0.0
 43
0.0
 44
0.0
 45
0.0
 46
0.0
 47
0.0
 48
0.0
 49
0.0
140
0.0
141
0.0
142
1.0
143
1.0
 70
   688
 72
     0
 73
     0
 74
     5
  7
monochrome.ctb
 75
    16
147
1.0
148
0.0
149
0.0
100
AcDbLayout
  1
ﾚｲｱｳﾄ1
 70
     1
 71
     1
 10
0.0
 20
0.0
 11
12.0
 21
9.0
 12
0.0
 22
0.0
 32
0.0
 14
1.000000000000000E+20
 24
1.000000000000000E+20
 34
1.000000000000000E+20
 15
-1.000000000000000E+20
 25
-1.000000000000000E+20
 35
-1.000000000000000E+20
146
0.0
 13
0.0
 23
0.0
 33
0.0
 16
1.0
 26
0.0
 36
0.0
 17
0.0
 27
1.0
 37
0.0
 76
     0
330
7
  0
MLINESTYLE
  5
1D
102
{ACAD_REACTORS
330
19
102
}
330
19
100
AcDbMlineStyle
  2
STANDARD
 70
     0
  3

 62
   256
 51
90.0
 52
90.0
 71
     2
 49
0.5
 62
   256
  6
BYLAYER
 49
-0.5
 62
   256
  6
BYLAYER
  0
ACDBPLACEHOLDER
  5
57
102
{ACAD_REACTORS
330
56
102
}
330
56
  0
TABLESTYLE
  5
2FF1
102
{ACAD_REACTORS
330
2FF0
102
}
330
2FF0
100
AcDbTableStyle
  3
Standard
 70
     0
 71
     0
 40
0.06
 41
0.06
280
     0
281
     0
  7
STANDARD
140
0.18
170
     2
 62
     0
 63
     7
283
     0
274
    -2
284
     1
 64
     0
275
    -2
285
     1
 65
     0
276
    -2
286
     1
 66
     0
277
    -2
287
     1
 67
     0
278
    -2
288
     1
 68
     0
279
    -2
289
     1
 69
     0
  7
STANDARD
140
0.25
170
     5
 62
     0
 63
     7
283
     0
274
    -2
284
     1
 64
     0
275
    -2
285
     1
 65
     0
276
    -2
286
     1
 66
     0
277
    -2
287
     1
 67
     0
278
    -2
288
     1
 68
     0
279
    -2
289
     1
 69
     0
  7
STANDARD
140
0.18
170
     5
 62
     0
 63
     7
283
     0
274
    -2
284
     1
 64
     0
275
    -2
285
     1
 65
     0
276
    -2
286
     1
 66
     0
277
    -2
287
     1
 67
     0
278
    -2
288
     1
 68
     0
279
    -2
289
     1
 69
     0
  0
DICTIONARYVAR
  5
3091
102
{ACAD_REACTORS
330
3090
102
}
330
3090
100
DictionaryVariables
280
     0
  1
STANDARD
  0
DICTIONARYVAR
  5
3092
102
{ACAD_REACTORS
330
3090
102
}
330
3090
100
DictionaryVariables
280
     0
  1
1
  0
DICTIONARYVAR
  5
3093
102
{ACAD_REACTORS
330
3090
102
}
330
3090
100
DictionaryVariables
280
     0
  1

  0
DICTIONARY
  5
30A3
330
5A
100
AcDbDictionary
280
     1
281
     1
  3
ACAD_XREC_ROUNDTRIP
360
30A4
  0
DICTIONARY
  5
30A5
330
5B
100
AcDbDictionary
280
     1
281
     1
  3
ACAD_XREC_ROUNDTRIP
360
30A6
  0
XRECORD
  5
30A4
102
{ACAD_REACTORS
330
30A3
102
}
330
30A3
100
AcDbXrecord
280
     1
102
SHADEPLOT
 70
     0
102
SHADEPLOTRESLEVEL
 70
     2
102
SHADEPLOTCUSTOMDPI
 70
   300
  0
XRECORD
  5
30A6
102
{ACAD_REACTORS
330
30A5
102
}
330
30A5
100
AcDbXrecord
280
     1
102
SHADEPLOT
 70
     0
102
SHADEPLOTRESLEVEL
 70
     2
102
SHADEPLOTCUSTOMDPI
 70
   300
  0
ENDSEC
  0
EOF
