  0
SECTION
  2
HEADER
  9
$ACADVER
  1
AC1015
  9
$ACADMAINTVER
 70
    20
  9
$DWGCODEPAGE
  3
ANSI_932
  9
$INSBASE
 10
922.019522
 20
-675.4306699999999
 30
0.0
  9
$EXTMIN
 10
-0.0019671437285069
 20
-35.73194495495022
 30
-0.0000000349181948
  9
$EXTMAX
 10
819.1904818800503
 20
403.104222582717
 30
0.0000000814935746
  9
$LIMMIN
 10
0.0
 20
0.0
  9
$LIMMAX
 10
420.0
 20
297.0
  9
$ORTHOMODE
 70
     0
  9
$REGENMODE
 70
     1
  9
$FILLMODE
 70
     1
  9
$QTEXTMODE
 70
     0
  9
$MIRRTEXT
 70
     1
  9
$LTSCALE
 40
50.0
  9
$ATTMODE
 70
     1
  9
$TEXTSIZE
 40
30.0
  9
$TRACEWID
 40
0.05
  9
$TEXTSTYLE
  7
SUNPOU
  9
$CLAYER
  8
0
  9
$CELTYPE
  6
BYLAYER
  9
$CECOLOR
 62
   256
  9
$CELTSCALE
 40
1.0
  9
$DISPSILH
 70
     0
  9
$DIMSCALE
 40
1.0
  9
$DIMASZ
 40
3.0
  9
$DIMEXO
 40
3.0
  9
$DIMDLI
 40
0.38
  9
$DIMRND
 40
0.0
  9
$DIMDLE
 40
0.0
  9
$DIMEXE
 40
0.0
  9
$DIMTP
 40
0.0
  9
$DIMTM
 40
0.0
  9
$DIMTXT
 40
10.0
  9
$DIMCEN
 40
0.0
  9
$DIMTSZ
 40
0.0
  9
$DIMTOL
 70
     0
  9
$DIMLIM
 70
     0
  9
$DIMTIH
 70
     0
  9
$DIMTOH
 70
     0
  9
$DIMSE1
 70
     0
  9
$DIMSE2
 70
     0
  9
$DIMTAD
 70
     1
  9
$DIMZIN
 70
     0
  9
$DIMBLK
  1
Dot
  9
$DIMASO
 70
     1
  9
$DIMSHO
 70
     1
  9
$DIMPOST
  1

  9
$DIMAPOST
  1

  9
$DIMALT
 70
     0
  9
$DIMALTD
 70
     2
  9
$DIMALTF
 40
25.4
  9
$DIMLFAC
 40
1.0
  9
$DIMTOFL
 70
     0
  9
$DIMTVP
 40
0.0
  9
$DIMTIX
 70
     0
  9
$DIMSOXD
 70
     0
  9
$DIMSAH
 70
     0
  9
$DIMBLK1
  1

  9
$DIMBLK2
  1

  9
$DIMSTYLE
  2
STANDARD
  9
$DIMCLRD
 70
    60
  9
$DIMCLRE
 70
    70
  9
$DIMCLRT
 70
    60
  9
$DIMTFAC
 40
0.064286
  9
$DIMGAP
 40
5.0
  9
$DIMJUST
 70
     0
  9
$DIMSD1
 70
     0
  9
$DIMSD2
 70
     0
  9
$DIMTOLJ
 70
     1
  9
$DIMTZIN
 70
     0
  9
$DIMALTZ
 70
     0
  9
$DIMALTTZ
 70
     0
  9
$DIMUPT
 70
     0
  9
$DIMDEC
 70
     0
  9
$DIMTDEC
 70
     0
  9
$DIMALTU
 70
     2
  9
$DIMALTTD
 70
     2
  9
$DIMTXSTY
  7
SUNPOU
  9
$DIMAUNIT
 70
     0
  9
$DIMADEC
 70
     0
  9
$DIMALTRND
 40
0.0
  9
$DIMAZIN
 70
     0
  9
$DIMDSEP
 70
    46
  9
$DIMATFIT
 70
     3
  9
$DIMFRAC
 70
     0
  9
$DIMLDRBLK
  1

  9
$DIMLUNIT
 70
     2
  9
$DIMLWD
 70
    -2
  9
$DIMLWE
 70
    -2
  9
$DIMTMOVE
 70
     0
  9
$LUNITS
 70
     2
  9
$LUPREC
 70
     5
  9
$SKETCHINC
 40
0.1
  9
$FILLETRAD
 40
0.0
  9
$AUNITS
 70
     0
  9
$AUPREC
 70
     0
  9
$MENU
  1
acad
  9
$ELEVATION
 40
0.0
  9
$PELEVATION
 40
0.0
  9
$THICKNESS
 40
0.0
  9
$LIMCHECK
 70
     0
  9
$CHAMFERA
 40
0.0
  9
$CHAMFERB
 40
0.0
  9
$CHAMFERC
 40
0.0
  9
$CHAMFERD
 40
0.0
  9
$SKPOLY
 70
     0
  9
$TDCREATE
 40
2450623.654673033
  9
$TDUCREATE
 40
2450623.279673032
  9
$TDUPDATE
 40
2454580.605818160
  9
$TDUUPDATE
 40
2454580.230818160
  9
$TDINDWG
 40
0.0814532407
  9
$TDUSRTIMER
 40
0.0814530671
  9
$USRTIMER
 70
     1
  9
$ANGBASE
 50
0.0
  9
$ANGDIR
 70
     0
  9
$PDMODE
 70
     0
  9
$PDSIZE
 40
0.0
  9
$PLINEWID
 40
0.0
  9
$SPLFRAME
 70
     0
  9
$SPLINETYPE
 70
     6
  9
$SPLINESEGS
 70
     8
  9
$HANDSEED
  5
278C
  9
$SURFTAB1
 70
     6
  9
$SURFTAB2
 70
     6
  9
$SURFTYPE
 70
     6
  9
$SURFU
 70
     6
  9
$SURFV
 70
     6
  9
$UCSBASE
  2

  9
$UCSNAME
  2

  9
$UCSORG
 10
0.0
 20
0.0
 30
0.0
  9
$UCSXDIR
 10
1.0
 20
0.0
 30
0.0
  9
$UCSYDIR
 10
0.0
 20
1.0
 30
0.0
  9
$UCSORTHOREF
  2

  9
$UCSORTHOVIEW
 70
     0
  9
$UCSORGTOP
 10
0.0
 20
0.0
 30
0.0
  9
$UCSORGBOTTOM
 10
0.0
 20
0.0
 30
0.0
  9
$UCSORGLEFT
 10
0.0
 20
0.0
 30
0.0
  9
$UCSORGRIGHT
 10
0.0
 20
0.0
 30
0.0
  9
$UCSORGFRONT
 10
0.0
 20
0.0
 30
0.0
  9
$UCSORGBACK
 10
0.0
 20
0.0
 30
0.0
  9
$PUCSBASE
  2

  9
$PUCSNAME
  2

  9
$PUCSORG
 10
0.0
 20
0.0
 30
0.0
  9
$PUCSXDIR
 10
1.0
 20
0.0
 30
0.0
  9
$PUCSYDIR
 10
0.0
 20
1.0
 30
0.0
  9
$PUCSORTHOREF
  2

  9
$PUCSORTHOVIEW
 70
     0
  9
$PUCSORGTOP
 10
0.0
 20
0.0
 30
0.0
  9
$PUCSORGBOTTOM
 10
0.0
 20
0.0
 30
0.0
  9
$PUCSORGLEFT
 10
0.0
 20
0.0
 30
0.0
  9
$PUCSORGRIGHT
 10
0.0
 20
0.0
 30
0.0
  9
$PUCSORGFRONT
 10
0.0
 20
0.0
 30
0.0
  9
$PUCSORGBACK
 10
0.0
 20
0.0
 30
0.0
  9
$USERI1
 70
     0
  9
$USERI2
 70
     0
  9
$USERI3
 70
     0
  9
$USERI4
 70
     0
  9
$USERI5
 70
     0
  9
$USERR1
 40
0.0
  9
$USERR2
 40
0.0
  9
$USERR3
 40
0.0
  9
$USERR4
 40
0.0
  9
$USERR5
 40
0.0
  9
$WORLDVIEW
 70
     1
  9
$SHADEDGE
 70
     3
  9
$SHADEDIF
 70
    70
  9
$TILEMODE
 70
     1
  9
$MAXACTVP
 70
    16
  9
$PINSBASE
 10
0.0
 20
0.0
 30
0.0
  9
$PLIMCHECK
 70
     0
  9
$PEXTMIN
 10
1.000000000000000E+20
 20
1.000000000000000E+20
 30
1.000000000000000E+20
  9
$PEXTMAX
 10
-1.000000000000000E+20
 20
-1.000000000000000E+20
 30
-1.000000000000000E+20
  9
$PLIMMIN
 10
0.0
 20
0.0
  9
$PLIMMAX
 10
12.0
 20
9.0
  9
$UNITMODE
 70
     0
  9
$VISRETAIN
 70
     0
  9
$PLINEGEN
 70
     0
  9
$PSLTSCALE
 70
     1
  9
$TREEDEPTH
 70
  3020
  9
$CMLSTYLE
  2
STANDARD
  9
$CMLJUST
 70
     0
  9
$CMLSCALE
 40
1.0
  9
$PROXYGRAPHICS
 70
     1
  9
$MEASUREMENT
 70
     0
  9
$CELWEIGHT
370
    -1
  9
$ENDCAPS
280
     0
  9
$JOINSTYLE
280
     0
  9
$LWDISPLAY
290
     0
  9
$INSUNITS
 70
     0
  9
$HYPERLINKBASE
  1

  9
$STYLESHEET
  1

  9
$XEDIT
290
     1
  9
$CEPSNTYPE
380
     0
  9
$PSTYLEMODE
290
     1
  9
$FINGERPRINTGUID
  2
{FB88A696-E29C-4009-92AF-A3599A8169D5}
  9
$VERSIONGUID
  2
{5600B5C0-EAA6-4E65-B1B0-DB3C4E8C8620}
  9
$EXTNAMES
290
     1
  9
$PSVPSCALE
 40
0.0
  9
$OLESTARTUP
290
     0
  0
ENDSEC
  0
SECTION
  2
CLASSES
  0
CLASS
  1
DICTIONARYVAR
  2
AcDbDictionaryVar
  3
ObjectDBX Classes
 90
        0
280
     0
281
     0
  0
CLASS
  1
ACDBDICTIONARYWDFLT
  2
AcDbDictionaryWithDefault
  3
ObjectDBX Classes
 90
        0
280
     0
281
     0
  0
CLASS
  1
ACDBPLACEHOLDER
  2
AcDbPlaceHolder
  3
ObjectDBX Classes
 90
        0
280
     0
281
     0
  0
CLASS
  1
LAYOUT
  2
AcDbLayout
  3
ObjectDBX Classes
 90
        0
280
     0
281
     0
  0
CLASS
  1
TABLESTYLE
  2
AcDbTableStyle
  3
ObjectDBX Classes
 90
     2047
280
     0
281
     0
  0
ENDSEC
  0
SECTION
  2
TABLES
  0
TABLE
  2
VPORT
  5
12
330
0
100
AcDbSymbolTable
 70
     3
  0
VPORT
  5
2786
330
12
100
AcDbSymbolTableRecord
100
AcDbViewportTableRecord
  2
*Active
 70
     0
 10
0.0
 20
0.0
 11
1.0
 21
1.0
 12
409.5942573681607
 22
183.6861388138834
 13
0.0
 23
0.0
 14
1.0
 24
1.0
 15
0.0
 25
0.0
 16
0.0
 26
0.0
 36
1.0
 17
0.0
 27
0.0
 37
0.0
 40
537.6638676657541
 41
1.531210191082802
 42
50.0
 43
0.0
 44
0.0
 50
0.0
 51
0.0
 71
     0
 72
 20000
 73
     1
 74
     1
 75
     0
 76
     0
 77
     0
 78
     0
281
     0
 65
     1
110
0.0
120
0.0
130
0.0
111
1.0
121
0.0
131
0.0
112
0.0
122
1.0
132
0.0
 79
     0
146
0.0
  0
ENDTAB
  0
TABLE
  2
LTYPE
  5
D
330
0
100
AcDbSymbolTable
 70
     2
  0
LTYPE
  5
E
330
D
100
AcDbSymbolTableRecord
100
AcDbLinetypeTableRecord
  2
BYBLOCK
 70
     0
  3

 72
    65
 73
     0
 40
0.0
  0
LTYPE
  5
F
330
D
100
AcDbSymbolTableRecord
100
AcDbLinetypeTableRecord
  2
BYLAYER
 70
     0
  3

 72
    65
 73
     0
 40
0.0
  0
LTYPE
  5
5
330
D
100
AcDbSymbolTableRecord
100
AcDbLinetypeTableRecord
  2
CONTINUOUS
 70
     0
  3
Solid line
 72
    65
 73
     0
 40
0.0
  0
ENDTAB
  0
TABLE
  2
LAYER
  5
A
330
0
100
AcDbSymbolTable
 70
     6
  0
LAYER
  5
4
330
A
100
AcDbSymbolTableRecord
100
AcDbLayerTableRecord
  2
0
 70
     0
 62
     7
  6
CONTINUOUS
370
    -3
390
57
  0
LAYER
  5
25
330
A
100
AcDbSymbolTableRecord
100
AcDbLayerTableRecord
  2
KIJUN
 70
     0
 62
     7
  6
CONTINUOUS
370
    -3
390
57
  0
LAYER
  5
22
330
A
100
AcDbSymbolTableRecord
100
AcDbLayerTableRecord
  2
HOJO
 70
     0
 62
     3
  6
CONTINUOUS
370
    -3
390
57
  0
LAYER
  5
1B
330
A
100
AcDbSymbolTableRecord
100
AcDbLayerTableRecord
  2
WAKU
 70
     0
 62
     1
  6
CONTINUOUS
370
    -3
390
57
  0
LAYER
  5
31
330
A
100
AcDbSymbolTableRecord
100
AcDbLayerTableRecord
  2
DEFPOINTS
 70
     0
 62
     7
  6
CONTINUOUS
290
     0
370
    -3
390
57
  0
LAYER
  5
28
330
A
100
AcDbSymbolTableRecord
100
AcDbLayerTableRecord
  2
SUNPOU
 70
     0
 62
    70
  6
CONTINUOUS
370
    -3
390
57
  0
ENDTAB
  0
TABLE
  2
STYLE
  5
B
330
0
100
AcDbSymbolTable
 70
     3
  0
STYLE
  5
C
330
B
100
AcDbSymbolTableRecord
100
AcDbTextStyleTableRecord
  2
STANDARD
 70
     0
 40
0.0
 41
1.0
 50
0.0
 71
     0
 42
0.2
  3
txt
  4

  0
STYLE
  5
1C
330
B
100
AcDbSymbolTableRecord
100
AcDbTextStyleTableRecord
  2
SUNPOU
 70
     0
 40
0.0
 41
1.0
 50
0.0
 71
     0
 42
30.0
  3
txt
  4
bigfont
  0
STYLE
  5
1AD
330
B
100
AcDbSymbolTableRecord
100
AcDbTextStyleTableRecord
  2
LIFE
 70
     0
 40
0.0
 41
0.7
 50
0.0
 71
     0
 42
10.0
  3
romans
  4
extfont
  0
ENDTAB
  0
TABLE
  2
VIEW
  5
10
330
0
100
AcDbSymbolTable
 70
     0
  0
ENDTAB
  0
TABLE
  2
UCS
  5
11
330
0
100
AcDbSymbolTable
 70
     0
  0
ENDTAB
  0
TABLE
  2
APPID
  5
14
330
0
100
AcDbSymbolTable
 70
     1
  0
APPID
  5
15
330
14
100
AcDbSymbolTableRecord
100
AcDbRegAppTableRecord
  2
ACAD
 70
     0
  0
ENDTAB
  0
TABLE
  2
DIMSTYLE
  5
16
330
0
100
AcDbSymbolTable
 70
     2
100
AcDbDimStyleTable
 71
     1
340
1E
  0
DIMSTYLE
105
1E
330
16
100
AcDbSymbolTableRecord
100
AcDbDimStyleTableRecord
  2
STANDARD
 70
     0
340
C
  0
DIMSTYLE
105
1AE
102
{ACAD_REACTORS
330
26D0
330
26DD
330
26EA
330
2729
102
}
330
16
100
AcDbSymbolTableRecord
100
AcDbDimStyleTableRecord
  2
STANDARD$0
 70
     0
 40
2.0
 41
1.0
 42
2.0
 43
0.0
 44
1.0
 73
     0
 74
     0
 77
     3
 78
     9
140
4.5
141
0.0
147
1.0
172
     1
173
     1
178
     3
271
     2
340
1AD
341
109
343
109
344
109
  0
ENDTAB
  0
TABLE
  2
BLOCK_RECORD
  5
1
330
0
100
AcDbSymbolTable
 70
    32
  0
BLOCK_RECORD
  5
2
330
1
100
AcDbSymbolTableRecord
100
AcDbBlockTableRecord
  2
*MODEL_SPACE
340
5A
  0
BLOCK_RECORD
  5
7
330
1
100
AcDbSymbolTableRecord
100
AcDbBlockTableRecord
  2
*PAPER_SPACE
340
5B
  0
BLOCK_RECORD
  5
109
330
1
100
AcDbSymbolTableRecord
100
AcDbBlockTableRecord
  2
_Dot
340
0
102
{BLKREFS
331
AAB
331
AAC
331
AB4
331
AB5
331
ABD
331
ABE
331
AEC
331
AED
331
AE0
331
AE1
331
AF8
331
AF9
331
20E2
331
20E3
331
20EB
331
20EC
331
20F5
331
20F6
331
20FE
331
20FF
331
210C
331
210D
331
2116
331
2117
331
2126
331
2127
331
2133
331
2134
331
2140
331
2141
331
214D
331
214E
331
2166
331
2167
331
2197
331
2198
331
21AF
331
21B0
331
21A3
331
21A4
331
239E
331
239F
331
23A7
331
23A8
331
23B0
331
23B1
331
26C8
331
26C9
331
271E
331
271F
331
2744
331
2745
331
274D
331
274E
331
2756
331
2757
331
275F
331
2760
102
}
  0
BLOCK_RECORD
  5
26D1
330
1
100
AcDbSymbolTableRecord
100
AcDbBlockTableRecord
  2
*D26
340
0
  0
BLOCK_RECORD
  5
26DE
330
1
100
AcDbSymbolTableRecord
100
AcDbBlockTableRecord
  2
*D27
340
0
  0
BLOCK_RECORD
  5
26EB
330
1
100
AcDbSymbolTableRecord
100
AcDbBlockTableRecord
  2
*D28
340
0
  0
BLOCK_RECORD
  5
272A
330
1
100
AcDbSymbolTableRecord
100
AcDbBlockTableRecord
  2
*D30
340
0
  0
ENDTAB
  0
ENDSEC
  0
SECTION
  2
BLOCKS
  0
BLOCK
  5
3
330
2
100
AcDbEntity
  8
0
100
AcDbBlockBegin
  2
*MODEL_SPACE
 70
     0
 10
0.0
 20
0.0
 30
0.0
  3
*MODEL_SPACE
  1

  0
ENDBLK
  5
6
330
2
100
AcDbEntity
  8
0
100
AcDbBlockEnd
  0
BLOCK
  5
8
330
7
100
AcDbEntity
 67
     1
  8
0
100
AcDbBlockBegin
  2
*PAPER_SPACE
 70
     0
 10
0.0
 20
0.0
 30
0.0
  3
*PAPER_SPACE
  1

  0
ENDBLK
  5
9
330
7
100
AcDbEntity
 67
     1
  8
0
100
AcDbBlockEnd
  0
BLOCK
  5
10C
330
109
100
AcDbEntity
  8
0
100
AcDbBlockBegin
  2
_Dot
 70
     0
 10
0.0
 20
0.0
 30
0.0
  3
_Dot
  1

  0
LWPOLYLINE
  5
10A
330
109
100
AcDbEntity
  8
0
  6
ByBlock
 62
     0
100
AcDbPolyline
 90
        2
 70
     1
 43
0.5
 10
-0.25
 20
0.0
 42
1.0
 10
0.25
 20
0.0
 42
1.0
  0
LINE
  5
10B
330
109
100
AcDbEntity
  8
0
  6
ByBlock
 62
     0
370
    -2
100
AcDbLine
 10
-0.5
 20
0.0
 30
0.0
 11
-1.0
 21
0.0
 31
0.0
  0
ENDBLK
  5
10D
330
109
100
AcDbEntity
  8
0
100
AcDbBlockEnd
  0
BLOCK
  5
26DB
330
26D1
100
AcDbEntity
  8
0
100
AcDbBlockBegin
  2
*D26
 70
     1
 10
0.0
 20
0.0
 30
0.0
  3
*D26
  1

  0
LINE
  5
2753
330
26D1
100
AcDbEntity
  8
SUNPOU
 62
    70
370
    -2
100
AcDbLine
 10
366.7763742882579
 20
234.0320265030626
 30
0.0
 11
366.7763742882579
 21
150.2751078591172
 31
0.0
  0
LINE
  5
2754
330
26D1
100
AcDbEntity
  8
SUNPOU
 62
    70
370
    -2
100
AcDbLine
 10
526.7763742882578
 20
234.0320265030626
 30
0.0
 11
526.7763742882578
 21
150.2751078591172
 31
0.0
  0
LINE
  5
2755
330
26D1
100
AcDbEntity
  8
SUNPOU
 62
    60
370
    -2
100
AcDbLine
 10
372.7763742882579
 20
150.2751078591172
 30
0.0
 11
520.7763742882579
 21
150.2751078591172
 31
0.0
  0
INSERT
  5
2756
330
26D1
100
AcDbEntity
  8
SUNPOU
 62
    60
370
    -2
100
AcDbBlockReference
  2
_Dot
 10
366.7763742882579
 20
150.2751078591172
 30
0.0
 41
6.0
 42
6.0
 43
6.0
 50
180.0
  0
INSERT
  5
2757
330
26D1
100
AcDbEntity
  8
SUNPOU
 62
    60
370
    -2
100
AcDbBlockReference
  2
_Dot
 10
526.7763742882578
 20
150.2751078591172
 30
0.0
 41
6.0
 42
6.0
 43
6.0
  0
MTEXT
  5
2758
330
26D1
100
AcDbEntity
  8
SUNPOU
 62
    60
100
AcDbMText
 10
446.7763742882579
 20
170.2751078591172
 30
0.0
 40
20.0
 41
0.0
 71
     5
 72
     1
  1
\A1;160
  7
SUNPOU
 73
     1
 44
1.0
1001
ACAD
1000
MTEXTBEGIN
1070
    73
1070
     1
1070
    44
1040
1.0
1070
    74
1070
     0
1000
MTEXTEND
  0
POINT
  5
2759
330
26D1
100
AcDbEntity
  8
DEFPOINTS
 62
     0
100
AcDbPoint
 10
366.7763742882579
 20
240.0320265030627
 30
0.0
  0
POINT
  5
275A
330
26D1
100
AcDbEntity
  8
DEFPOINTS
 62
     0
100
AcDbPoint
 10
526.7763742882578
 20
240.0320265030627
 30
0.0
  0
POINT
  5
275B
330
26D1
100
AcDbEntity
  8
DEFPOINTS
 62
     0
100
AcDbPoint
 10
526.7763742882578
 20
150.2751078591172
 30
0.0
  0
ENDBLK
  5
26DC
330
26D1
100
AcDbEntity
  8
0
100
AcDbBlockEnd
  0
BLOCK
  5
26E8
330
26DE
100
AcDbEntity
  8
0
100
AcDbBlockBegin
  2
*D27
 70
     1
 10
0.0
 20
0.0
 30
0.0
  3
*D27
  1

  0
LINE
  5
274A
330
26DE
100
AcDbEntity
  8
SUNPOU
 62
    70
370
    -2
100
AcDbLine
 10
172.3758181746723
 20
400.0825471030735
 30
0.0
 11
280.9797337294659
 21
400.0825471030735
 31
0.0
  0
LINE
  5
274B
330
26DE
100
AcDbEntity
  8
SUNPOU
 62
    70
370
    -2
100
AcDbLine
 10
202.2571744413515
 20
240.0320265030627
 30
0.0
 11
280.9797337294658
 21
240.0320265030627
 31
0.0
  0
LINE
  5
274C
330
26DE
100
AcDbEntity
  8
SUNPOU
 62
    60
370
    -2
100
AcDbLine
 10
280.9797337294659
 20
394.0825471030735
 30
0.0
 11
280.9797337294658
 21
246.0320265030627
 31
0.0
  0
INSERT
  5
274D
330
26DE
100
AcDbEntity
  8
SUNPOU
 62
    60
370
    -2
100
AcDbBlockReference
  2
_Dot
 10
280.9797337294659
 20
400.0825471030735
 30
0.0
 41
6.0
 42
6.0
 43
6.0
 50
90.0
  0
INSERT
  5
274E
330
26DE
100
AcDbEntity
  8
SUNPOU
 62
    60
370
    -2
100
AcDbBlockReference
  2
_Dot
 10
280.9797337294658
 20
240.0320265030627
 30
0.0
 41
6.0
 42
6.0
 43
6.0
 50
270.0
  0
MTEXT
  5
274F
330
26DE
100
AcDbEntity
  8
SUNPOU
 62
    60
100
AcDbMText
 10
260.9797337294657
 20
320.0572868030681
 30
0.0
 40
20.0
 41
0.0
 71
     5
 72
     1
  1
\A1;160
  7
SUNPOU
 11
0.0000000000000001
 21
1.0
 31
0.0
 73
     1
 44
1.0
1001
ACAD
1000
MTEXTBEGIN
1070
    73
1070
     1
1070
    44
1040
1.0
1070
    74
1070
     0
1000
MTEXTEND
  0
POINT
  5
2750
330
26DE
100
AcDbEntity
  8
DEFPOINTS
 62
     0
100
AcDbPoint
 10
166.3758181746723
 20
400.0825471030735
 30
0.0
  0
POINT
  5
2751
330
26DE
100
AcDbEntity
  8
DEFPOINTS
 62
     0
100
AcDbPoint
 10
196.2571744413515
 20
240.0320265030627
 30
0.0
  0
POINT
  5
2752
330
26DE
100
AcDbEntity
  8
DEFPOINTS
 62
     0
100
AcDbPoint
 10
280.9797337294658
 20
240.0320265030627
 30
0.0
  0
ENDBLK
  5
26E9
330
26DE
100
AcDbEntity
  8
0
100
AcDbBlockEnd
  0
BLOCK
  5
26F5
330
26EB
100
AcDbEntity
  8
0
100
AcDbBlockBegin
  2
*D28
 70
     1
 10
0.0
 20
0.0
 30
0.0
  3
*D28
  1

  0
LINE
  5
275C
330
26EB
100
AcDbEntity
  8
SUNPOU
 62
    70
370
    -2
100
AcDbLine
 10
532.7763742882579
 20
240.0320265030627
 30
0.0
 11
626.6107717216799
 21
240.0320265030626
 31
0.0
  0
LINE
  5
275D
330
26EB
100
AcDbEntity
  8
SUNPOU
 62
    70
370
    -2
100
AcDbLine
 10
503.3416148936648
 20
400.0320265030626
 30
0.0
 11
626.61077172168
 21
400.0320265030626
 31
0.0
  0
LINE
  5
275E
330
26EB
100
AcDbEntity
  8
SUNPOU
 62
    60
370
    -2
100
AcDbLine
 10
626.6107717216799
 20
246.0320265030626
 30
0.0
 11
626.61077172168
 21
394.0320265030626
 31
0.0
  0
INSERT
  5
275F
330
26EB
100
AcDbEntity
  8
SUNPOU
 62
    60
370
    -2
100
AcDbBlockReference
  2
_Dot
 10
626.6107717216799
 20
240.0320265030626
 30
0.0
 41
6.0
 42
6.0
 43
6.0
 50
270.0
  0
INSERT
  5
2760
330
26EB
100
AcDbEntity
  8
SUNPOU
 62
    60
370
    -2
100
AcDbBlockReference
  2
_Dot
 10
626.61077172168
 20
400.0320265030626
 30
0.0
 41
6.0
 42
6.0
 43
6.0
 50
90.0
  0
MTEXT
  5
2761
330
26EB
100
AcDbEntity
  8
SUNPOU
 62
    60
100
AcDbMText
 10
606.6107717216799
 20
320.0320265030627
 30
0.0
 40
20.0
 41
0.0
 71
     5
 72
     1
  1
\A1;160
  7
SUNPOU
 11
0.0000000000000001
 21
1.0
 31
0.0
 73
     1
 44
1.0
1001
ACAD
1000
MTEXTBEGIN
1070
    73
1070
     1
1070
    44
1040
1.0
1070
    74
1070
     0
1000
MTEXTEND
  0
POINT
  5
2762
330
26EB
100
AcDbEntity
  8
DEFPOINTS
 62
     0
100
AcDbPoint
 10
526.7763742882578
 20
240.0320265030627
 30
0.0
  0
POINT
  5
2763
330
26EB
100
AcDbEntity
  8
DEFPOINTS
 62
     0
100
AcDbPoint
 10
497.3416148936649
 20
400.0320265030626
 30
0.0
  0
POINT
  5
2764
330
26EB
100
AcDbEntity
  8
DEFPOINTS
 62
     0
100
AcDbPoint
 10
626.61077172168
 20
400.0320265030626
 30
0.0
  0
ENDBLK
  5
26F6
330
26EB
100
AcDbEntity
  8
0
100
AcDbBlockEnd
  0
BLOCK
  5
2734
330
272A
100
AcDbEntity
  8
0
100
AcDbBlockBegin
  2
*D30
 70
     1
 10
0.0
 20
0.0
 30
0.0
  3
*D30
  1

  0
LINE
  5
2741
330
272A
100
AcDbEntity
  8
SUNPOU
 62
    70
370
    -2
100
AcDbLine
 10
36.56472655467837
 20
234.0320265030627
 30
0.0
 11
36.56472655467837
 21
149.5682735703267
 31
0.0
  0
LINE
  5
2742
330
272A
100
AcDbEntity
  8
SUNPOU
 62
    70
370
    -2
100
AcDbLine
 10
196.5647265546783
 20
234.0320265030626
 30
0.0
 11
196.5647265546783
 21
149.5682735703267
 31
0.0
  0
LINE
  5
2743
330
272A
100
AcDbEntity
  8
SUNPOU
 62
    60
370
    -2
100
AcDbLine
 10
42.56472655467836
 20
149.5682735703267
 30
0.0
 11
190.5647265546783
 21
149.5682735703267
 31
0.0
  0
INSERT
  5
2744
330
272A
100
AcDbEntity
  8
SUNPOU
 62
    60
370
    -2
100
AcDbBlockReference
  2
_Dot
 10
36.56472655467837
 20
149.5682735703267
 30
0.0
 41
6.0
 42
6.0
 43
6.0
 50
180.0
  0
INSERT
  5
2745
330
272A
100
AcDbEntity
  8
SUNPOU
 62
    60
370
    -2
100
AcDbBlockReference
  2
_Dot
 10
196.5647265546783
 20
149.5682735703267
 30
0.0
 41
6.0
 42
6.0
 43
6.0
  0
MTEXT
  5
2746
330
272A
100
AcDbEntity
  8
SUNPOU
 62
    60
100
AcDbMText
 10
116.5647265546783
 20
169.5682735703267
 30
0.0
 40
20.0
 41
0.0
 71
     5
 72
     1
  1
\A1;160
  7
SUNPOU
 73
     1
 44
1.0
1001
ACAD
1000
MTEXTBEGIN
1070
    73
1070
     1
1070
    44
1040
1.0
1070
    74
1070
     0
1000
MTEXTEND
  0
POINT
  5
2747
330
272A
100
AcDbEntity
  8
DEFPOINTS
 62
     0
100
AcDbPoint
 10
36.56472655467837
 20
240.0320265030627
 30
0.0
  0
POINT
  5
2748
330
272A
100
AcDbEntity
  8
DEFPOINTS
 62
     0
100
AcDbPoint
 10
196.5647265546783
 20
240.0320265030626
 30
0.0
  0
POINT
  5
2749
330
272A
100
AcDbEntity
  8
DEFPOINTS
 62
     0
100
AcDbPoint
 10
196.5647265546783
 20
149.5682735703267
 30
0.0
  0
ENDBLK
  5
2735
330
272A
100
AcDbEntity
  8
0
100
AcDbBlockEnd
  0
ENDSEC
  0
SECTION
  2
ENTITIES
  0
LINE
  5
1F
330
2
100
AcDbEntity
  8
WAKU
100
AcDbLine
 10
0.0
 20
70.0
 30
0.0
 11
610.6489978526152
 21
70.0
 31
0.0
  0
LINE
  5
20
330
2
100
AcDbEntity
  8
WAKU
100
AcDbLine
 10
0.0
 20
0.0
 30
0.0
 11
610.6489978526152
 21
0.0
 31
0.0
  0
TEXT
  5
21
330
2
100
AcDbEntity
  8
HOJO
100
AcDbText
 10
48.26983000000012
 20
11.83313000000009
 30
0.0
 40
45.0
  1
B-2
  7
SUNPOU
100
AcDbText
  0
TEXT
  5
4A3
330
2
100
AcDbEntity
  8
HOJO
100
AcDbText
 10
225.60543919488
 20
20.97829970797568
 30
0.0
 40
35.0
  1
160x160x160
  7
SUNPOU
100
AcDbText
  0
LINE
  5
23B6
102
{ACAD_REACTORS
330
2765
102
}
330
2
100
AcDbEntity
  8
KIJUN
  6
Continuous
100
AcDbLine
 10
179.8479781746787
 20
315.553846503067
 30
0.0
 11
174.0563743146788
 21
317.6748049230669
 31
0.0
  0
LINE
  5
23B7
102
{ACAD_REACTORS
330
2765
102
}
330
2
100
AcDbEntity
  8
KIJUN
  6
Continuous
100
AcDbLine
 10
174.0563743146788
 20
317.6748049230669
 30
0.0
 11
166.0927732746779
 21
318.6389711430678
 31
0.0
  0
LINE
  5
23B8
102
{ACAD_REACTORS
330
2765
102
}
330
2
100
AcDbEntity
  8
KIJUN
  6
Continuous
100
AcDbLine
 10
166.0927732746779
 20
318.6389711430678
 30
0.0
 11
162.0780695946746
 21
316.5953481030733
 31
0.0
  0
LINE
  5
23B9
102
{ACAD_REACTORS
330
2765
102
}
330
2
100
AcDbEntity
  8
KIJUN
  6
Continuous
100
AcDbLine
 10
166.3758181746723
 20
400.0825471030735
 30
0.0
 11
166.3758181746723
 21
369.9448426230715
 31
0.0
  0
LINE
  5
23BA
102
{ACAD_REACTORS
330
2765
102
}
330
2
100
AcDbEntity
  8
KIJUN
  6
Continuous
100
AcDbLine
 10
166.3758181746723
 20
369.9448426230715
 30
0.0
 11
166.3758181746723
 21
359.7335930430703
 31
0.0
  0
LINE
  5
23BB
102
{ACAD_REACTORS
330
2765
102
}
330
2
100
AcDbEntity
  8
KIJUN
  6
Continuous
100
AcDbLine
 10
166.3758181746723
 20
359.7335930430703
 30
0.0
 11
167.956335714683
 21
343.264654683064
 31
0.0
  0
LINE
  5
23BC
102
{ACAD_REACTORS
330
2765
102
}
330
2
100
AcDbEntity
  8
KIJUN
  6
Continuous
100
AcDbLine
 10
167.956335714683
 20
343.264654683064
 30
0.0
 11
168.877883274683
 21
331.6265220030687
 31
0.0
  0
LINE
  5
23BD
102
{ACAD_REACTORS
330
2765
102
}
330
2
100
AcDbEntity
  8
KIJUN
  6
Continuous
100
AcDbLine
 10
168.877883274683
 20
331.6265220030687
 30
0.0
 11
173.4873050946753
 21
322.0742424030698
 31
0.0
  0
LINE
  5
23BE
102
{ACAD_REACTORS
330
2765
102
}
330
2
100
AcDbEntity
  8
KIJUN
  6
Continuous
100
AcDbLine
 10
173.4873050946753
 20
322.0742424030698
 30
0.0
 11
181.7844716346819
 21
314.6083340430653
 31
0.0
  0
LINE
  5
23BF
102
{ACAD_REACTORS
330
2765
102
}
330
2
100
AcDbEntity
  8
KIJUN
  6
Continuous
100
AcDbLine
 10
181.7844716346819
 20
314.6083340430653
 30
0.0
 11
189.0274416546826
 21
306.9225963030642
 31
0.0
  0
LINE
  5
23C0
102
{ACAD_REACTORS
330
2765
102
}
330
2
100
AcDbEntity
  8
KIJUN
  6
Continuous
100
AcDbLine
 10
189.0274416546826
 20
306.9225963030642
 30
0.0
 11
193.1100242946811
 21
297.2607258630728
 31
0.0
  0
LINE
  5
23C1
102
{ACAD_REACTORS
330
2765
102
}
330
2
100
AcDbEntity
  8
KIJUN
  6
Continuous
100
AcDbLine
 10
193.1100242946811
 20
297.2607258630728
 30
0.0
 11
193.7684761146793
 21
288.9165363030654
 31
0.0
  0
LINE
  5
23C2
102
{ACAD_REACTORS
330
2765
102
}
330
2
100
AcDbEntity
  8
KIJUN
  6
Continuous
100
AcDbLine
 10
193.7684761146793
 20
288.9165363030654
 30
0.0
 11
192.1879585746837
 21
282.7680497430624
 31
0.0
  0
LINE
  5
23C3
102
{ACAD_REACTORS
330
2765
102
}
330
2
100
AcDbEntity
  8
KIJUN
  6
Continuous
100
AcDbLine
 10
192.1879585746837
 20
282.7680497430624
 30
0.0
 11
188.6322151146787
 21
275.1924210030661
 31
0.0
  0
LINE
  5
23C4
102
{ACAD_REACTORS
330
2765
102
}
330
2
100
AcDbEntity
  8
KIJUN
  6
Continuous
100
AcDbLine
 10
188.6322151146787
 20
275.1924210030661
 30
0.0
 11
181.2576324546812
 21
269.0439344430628
 31
0.0
  0
LINE
  5
23C5
102
{ACAD_REACTORS
330
2765
102
}
330
2
100
AcDbEntity
  8
KIJUN
  6
Continuous
100
AcDbLine
 10
181.2576324546812
 20
269.0439344430628
 30
0.0
 11
171.9073057146843
 21
266.4087022230638
 31
0.0
  0
LINE
  5
23C6
102
{ACAD_REACTORS
330
2765
102
}
330
2
100
AcDbEntity
  8
KIJUN
  6
Continuous
100
AcDbLine
 10
171.9073057146843
 20
266.4087022230638
 30
0.0
 11
160.9764614346772
 21
267.5068128030639
 31
0.0
  0
LINE
  5
23C7
102
{ACAD_REACTORS
330
2765
102
}
330
2
100
AcDbEntity
  8
KIJUN
  6
Continuous
100
AcDbLine
 10
160.9764614346772
 20
267.5068128030639
 30
0.0
 11
150.1772297946743
 21
270.4709470830644
 31
0.0
  0
LINE
  5
23C8
102
{ACAD_REACTORS
330
2765
102
}
330
2
100
AcDbEntity
  8
KIJUN
  6
Continuous
100
AcDbLine
 10
150.1772297946743
 20
270.4709470830644
 30
0.0
 11
141.4852253346766
 21
278.8155252630691
 31
0.0
  0
LINE
  5
23C9
102
{ACAD_REACTORS
330
2765
102
}
330
2
100
AcDbEntity
  8
KIJUN
  6
Continuous
100
AcDbLine
 10
141.4852253346766
 20
278.8155252630691
 30
0.0
 11
138.4564505946864
 21
288.0383846430627
 31
0.0
  0
LINE
  5
23CA
102
{ACAD_REACTORS
330
2765
102
}
330
2
100
AcDbEntity
  8
KIJUN
  6
Continuous
100
AcDbLine
 10
138.4564505946864
 20
288.0383846430627
 30
0.0
 11
136.2174812346854
 21
297.7002550830762
 31
0.0
  0
LINE
  5
23CB
102
{ACAD_REACTORS
330
2765
102
}
330
2
100
AcDbEntity
  8
KIJUN
  6
Continuous
100
AcDbLine
 10
136.2174812346854
 20
297.7002550830762
 30
0.0
 11
135.0323197746861
 21
315.5967242430663
 31
0.0
  0
LINE
  5
23CC
102
{ACAD_REACTORS
330
2765
102
}
330
2
100
AcDbEntity
  8
KIJUN
  6
Continuous
100
AcDbLine
 10
135.0323197746861
 20
315.5967242430663
 30
0.0
 11
136.7443204146791
 21
342.4960938630679
 31
0.0
  0
LINE
  5
23CD
102
{ACAD_REACTORS
330
2765
102
}
330
2
100
AcDbEntity
  8
KIJUN
  6
Continuous
100
AcDbLine
 10
136.7443204146791
 20
342.4960938630679
 30
0.0
 11
137.1395469546755
 21
366.5411791230686
 31
0.0
  0
LINE
  5
23CE
102
{ACAD_REACTORS
330
2765
102
}
330
2
100
AcDbEntity
  8
KIJUN
  6
Continuous
100
AcDbLine
 10
137.1395469546755
 20
366.5411791230686
 30
0.0
 11
137.1395469546755
 21
391.574006883066
 31
0.0
  0
LINE
  5
23D0
102
{ACAD_REACTORS
330
2765
102
}
330
2
100
AcDbEntity
  8
KIJUN
  6
Continuous
100
AcDbLine
 10
168.7075381746799
 20
342.1095465030634
 30
0.0
 11
164.2064117946802
 21
346.728813363064
 31
0.0
  0
LINE
  5
23D1
102
{ACAD_REACTORS
330
2765
102
}
330
2
100
AcDbEntity
  8
KIJUN
  6
Continuous
100
AcDbLine
 10
164.2064117946802
 20
346.728813363064
 30
0.0
 11
158.4988793946802
 21
349.05988566306
 31
0.0
  0
LINE
  5
23D2
102
{ACAD_REACTORS
330
2765
102
}
330
2
100
AcDbEntity
  8
KIJUN
  6
Continuous
100
AcDbLine
 10
158.4988793946802
 20
349.05988566306
 30
0.0
 11
152.616079374673
 21
350.2083873030647
 31
0.0
  0
LINE
  5
23D4
102
{ACAD_REACTORS
330
2765
102
}
330
2
100
AcDbEntity
  8
KIJUN
  6
Continuous
100
AcDbLine
 10
196.5647265546784
 20
251.8232754630694
 30
0.0
 11
195.2816328546769
 21
259.9219867230636
 31
0.0
  0
LINE
  5
23D5
102
{ACAD_REACTORS
330
2765
102
}
330
2
100
AcDbEntity
  8
KIJUN
  6
Continuous
100
AcDbLine
 10
195.2816328546769
 20
259.9219867230636
 30
0.0
 11
191.1353165346836
 21
265.4754960630646
 31
0.0
  0
LINE
  5
23D6
102
{ACAD_REACTORS
330
2765
102
}
330
2
100
AcDbEntity
  8
KIJUN
  6
Continuous
100
AcDbLine
 10
191.1353165346836
 20
265.4754960630646
 30
0.0
 11
184.4221651146836
 21
268.1361181230727
 31
0.0
  0
LINE
  5
23D7
102
{ACAD_REACTORS
330
2765
102
}
330
2
100
AcDbEntity
  8
KIJUN
  6
Continuous
100
AcDbLine
 10
184.4221651146836
 20
268.1361181230727
 30
0.0
 11
173.3654079546793
 21
268.5992236230716
 31
0.0
  0
LINE
  5
23D8
102
{ACAD_REACTORS
330
2765
102
}
330
2
100
AcDbEntity
  8
KIJUN
  6
Continuous
100
AcDbLine
 10
173.3654079546793
 20
268.5992236230716
 30
0.0
 11
161.5185863346803
 21
268.1361181230727
 31
0.0
  0
LINE
  5
23D9
102
{ACAD_REACTORS
330
2765
102
}
330
2
100
AcDbEntity
  8
KIJUN
  6
Continuous
100
AcDbLine
 10
161.5185863346803
 20
268.1361181230727
 30
0.0
 11
151.0539565146857
 21
266.6321587230718
 31
0.0
  0
LINE
  5
23DA
102
{ACAD_REACTORS
330
2765
102
}
330
2
100
AcDbEntity
  8
KIJUN
  6
Continuous
100
AcDbLine
 10
151.0539565146857
 20
266.6321587230718
 30
0.0
 11
145.0317714546775
 21
262.0043422230712
 31
0.0
  0
LINE
  5
23DB
102
{ACAD_REACTORS
330
2765
102
}
330
2
100
AcDbEntity
  8
KIJUN
  6
Continuous
100
AcDbLine
 10
145.0317714546775
 20
262.0043422230712
 30
0.0
 11
142.4649363546778
 21
255.4095903630635
 31
0.0
  0
LINE
  5
23DC
102
{ACAD_REACTORS
330
2765
102
}
330
2
100
AcDbEntity
  8
KIJUN
  6
Continuous
100
AcDbLine
 10
142.4649363546778
 20
255.4095903630635
 30
0.0
 11
140.6881657146809
 21
247.1954589630691
 31
0.0
  0
LINE
  5
23DD
102
{ACAD_REACTORS
330
2765
102
}
330
2
100
AcDbEntity
  8
KIJUN
  6
Continuous
100
AcDbLine
 10
140.6881657146809
 20
247.1954589630691
 30
0.0
 11
140.6881657146809
 21
240.0320265030627
 31
0.0
  0
LINE
  5
23DF
102
{ACAD_REACTORS
330
2765
102
}
330
2
100
AcDbEntity
  8
KIJUN
  6
Continuous
100
AcDbLine
 10
185.2886581746816
 20
241.7160465030678
 30
0.0
 11
184.400272854679
 21
249.35178180307
 31
0.0
  0
LINE
  5
23E0
102
{ACAD_REACTORS
330
2765
102
}
330
2
100
AcDbEntity
  8
KIJUN
  6
Continuous
100
AcDbLine
 10
184.400272854679
 20
249.35178180307
 30
0.0
 11
180.9450524346846
 21
254.4425742630624
 31
0.0
  0
LINE
  5
23E1
102
{ACAD_REACTORS
330
2765
102
}
330
2
100
AcDbEntity
  8
KIJUN
  6
Continuous
100
AcDbLine
 10
180.9450524346846
 20
254.4425742630624
 30
0.0
 11
176.2060906146771
 21
257.4506226030639
 31
0.0
  0
LINE
  5
23E2
102
{ACAD_REACTORS
330
2765
102
}
330
2
100
AcDbEntity
  8
KIJUN
  6
Continuous
100
AcDbLine
 10
176.2060906146771
 20
257.4506226030639
 30
0.0
 11
169.2956497746736
 21
257.4506226030639
 31
0.0
  0
LINE
  5
23E3
102
{ACAD_REACTORS
330
2765
102
}
330
2
100
AcDbEntity
  8
KIJUN
  6
Continuous
100
AcDbLine
 10
169.2956497746736
 20
257.4506226030639
 30
0.0
 11
163.1750143146737
 21
255.9465336630631
 31
0.0
  0
LINE
  5
23E4
102
{ACAD_REACTORS
330
2765
102
}
330
2
100
AcDbEntity
  8
KIJUN
  6
Continuous
100
AcDbLine
 10
163.1750143146737
 20
255.9465336630631
 30
0.0
 11
157.5477967146778
 21
250.8562593630681
 31
0.0
  0
LINE
  5
23E5
102
{ACAD_REACTORS
330
2765
102
}
330
2
100
AcDbEntity
  8
KIJUN
  6
Continuous
100
AcDbLine
 10
157.5477967146778
 20
250.8562593630681
 30
0.0
 11
155.8693469346808
 21
244.7240948430621
 31
0.0
  0
LINE
  5
23E6
102
{ACAD_REACTORS
330
2765
102
}
330
2
100
AcDbEntity
  8
KIJUN
  6
Continuous
100
AcDbLine
 10
155.8693469346808
 20
244.7240948430621
 30
0.0
 11
155.3756699946775
 21
241.1377799430677
 31
0.0
  0
LINE
  5
23E7
102
{ACAD_REACTORS
330
2765
102
}
330
2
100
AcDbEntity
  8
KIJUN
  6
Continuous
100
AcDbLine
 10
155.3756699946775
 20
241.1377799430677
 30
0.0
 11
185.2886581746816
 21
241.7160465030678
 31
0.0
  0
LINE
  5
23E8
102
{ACAD_REACTORS
330
2765
102
}
330
2
100
AcDbEntity
  8
KIJUN
  6
Continuous
100
AcDbLine
 10
150.0537781746793
 20
278.3758665030668
 30
0.0
 11
156.4049948346806
 21
282.643691343072
 31
0.0
  0
LINE
  5
23E9
102
{ACAD_REACTORS
330
2765
102
}
330
2
100
AcDbEntity
  8
KIJUN
  6
Continuous
100
AcDbLine
 10
156.4049948346806
 20
282.643691343072
 30
0.0
 11
164.1381442146798
 21
283.6722389430645
 31
0.0
  0
LINE
  5
23EA
102
{ACAD_REACTORS
330
2765
102
}
330
2
100
AcDbEntity
  8
KIJUN
  6
Continuous
100
AcDbLine
 10
164.1381442146798
 20
283.6722389430645
 30
0.0
 11
171.6742632546743
 21
281.8468908030604
 31
0.0
  0
LINE
  5
23EB
102
{ACAD_REACTORS
330
2765
102
}
330
2
100
AcDbEntity
  8
KIJUN
  6
Continuous
100
AcDbLine
 10
150.0537781746793
 20
290.0344665030675
 30
0.0
 11
155.977124214683
 21
291.2556400830649
 31
0.0
  0
LINE
  5
23EC
102
{ACAD_REACTORS
330
2765
102
}
330
2
100
AcDbEntity
  8
KIJUN
  6
Continuous
100
AcDbLine
 10
155.977124214683
 20
291.2556400830649
 30
0.0
 11
161.8346639346737
 21
290.8570455030706
 31
0.0
  0
LINE
  5
23ED
102
{ACAD_REACTORS
330
2765
102
}
330
2
100
AcDbEntity
  8
KIJUN
  6
Continuous
100
AcDbLine
 10
161.8346639346737
 20
290.8570455030706
 30
0.0
 11
167.8236867546836
 21
288.9930944430675
 31
0.0
  0
LINE
  5
23EE
102
{ACAD_REACTORS
330
2765
102
}
330
2
100
AcDbEntity
  8
KIJUN
  6
Continuous
100
AcDbLine
 10
145.2607981746789
 20
296.122846503064
 30
0.0
 11
152.8443288546862
 21
299.4608332230687
 31
0.0
  0
LINE
  5
23EF
102
{ACAD_REACTORS
330
2765
102
}
330
2
100
AcDbEntity
  8
KIJUN
  6
Continuous
100
AcDbLine
 10
152.8443288546862
 20
299.4608332230687
 30
0.0
 11
161.7658781946832
 21
300.0736869630739
 31
0.0
  0
LINE
  5
23F0
102
{ACAD_REACTORS
330
2765
102
}
330
2
100
AcDbEntity
  8
KIJUN
  6
Continuous
100
AcDbLine
 10
161.7658781946832
 20
300.0736869630739
 30
0.0
 11
168.1643769546826
 21
294.6188871030703
 31
0.0
  0
LINE
  5
23F1
102
{ACAD_REACTORS
330
2765
102
}
330
2
100
AcDbEntity
  8
KIJUN
  6
Continuous
100
AcDbLine
 10
168.7075381746799
 20
334.9848465030705
 30
0.0
 11
165.310740294678
 21
339.0942439230698
 31
0.0
  0
LINE
  5
23F2
102
{ACAD_REACTORS
330
2765
102
}
330
2
100
AcDbEntity
  8
KIJUN
  6
Continuous
100
AcDbLine
 10
165.310740294678
 20
339.0942439230698
 30
0.0
 11
160.3563534546799
 21
340.7866840230613
 31
0.0
  0
LINE
  5
23F3
102
{ACAD_REACTORS
330
2765
102
}
330
2
100
AcDbEntity
  8
KIJUN
  6
Continuous
100
AcDbLine
 10
160.3563534546799
 20
340.7866840230613
 30
0.0
 11
155.1823963146753
 21
341.1166224030717
 31
0.0
  0
LINE
  5
23F4
102
{ACAD_REACTORS
330
2765
102
}
330
2
100
AcDbEntity
  8
KIJUN
  6
Continuous
100
AcDbLine
 10
169.0961581746737
 20
327.7306065030693
 30
0.0
 11
164.1964372146801
 21
330.9573183630669
 31
0.0
  0
LINE
  5
23F5
102
{ACAD_REACTORS
330
2765
102
}
330
2
100
AcDbEntity
  8
KIJUN
  6
Continuous
100
AcDbLine
 10
164.1964372146801
 20
330.9573183630669
 30
0.0
 11
158.9898359946824
 21
332.1014156430649
 31
0.0
  0
LINE
  5
23F6
102
{ACAD_REACTORS
330
2765
102
}
330
2
100
AcDbEntity
  8
KIJUN
  6
Continuous
100
AcDbLine
 10
158.9898359946824
 20
332.1014156430649
 30
0.0
 11
153.4978581546802
 21
330.8543340630615
 31
0.0
  0
LINE
  5
23F7
102
{ACAD_REACTORS
330
2765
102
}
330
2
100
AcDbEntity
  8
KIJUN
  6
Continuous
100
AcDbLine
 10
173.7595981746738
 20
322.160386503066
 30
0.0
 11
167.7447968946794
 21
324.5342070030622
 31
0.0
  0
LINE
  5
23F8
102
{ACAD_REACTORS
330
2765
102
}
330
2
100
AcDbEntity
  8
KIJUN
  6
Continuous
100
AcDbLine
 10
167.7447968946794
 20
324.5342070030622
 30
0.0
 11
161.6424265746807
 21
325.185534123068
 31
0.0
  0
LINE
  5
23F9
102
{ACAD_REACTORS
330
2765
102
}
330
2
100
AcDbEntity
  8
KIJUN
  6
Continuous
100
AcDbLine
 10
161.6424265746807
 20
325.185534123068
 30
0.0
 11
156.48336653468
 21
325.1684348430674
 31
0.0
  0
LINE
  5
23FA
102
{ACAD_REACTORS
330
2765
102
}
330
2
100
AcDbEntity
  8
KIJUN
  6
Continuous
100
AcDbLine
 10
165.5985781746849
 20
368.665246503067
 30
0.0
 11
159.3682223346777
 21
370.5549760230617
 31
0.0
  0
LINE
  5
23FB
102
{ACAD_REACTORS
330
2765
102
}
330
2
100
AcDbEntity
  8
KIJUN
  6
Continuous
100
AcDbLine
 10
159.3682223346777
 20
370.5549760230617
 30
0.0
 11
153.7959296946856
 21
370.5162435630632
 31
0.0
  0
LINE
  5
23FC
102
{ACAD_REACTORS
330
2765
102
}
330
2
100
AcDbEntity
  8
KIJUN
  6
Continuous
100
AcDbLine
 10
153.7959296946856
 20
370.5162435630632
 30
0.0
 11
147.8286695946728
 21
367.6238744430678
 31
0.0
  0
LINE
  5
23FD
102
{ACAD_REACTORS
330
2765
102
}
330
2
100
AcDbEntity
  8
KIJUN
  6
Continuous
100
AcDbLine
 10
165.9871981746787
 20
357.3952665030751
 30
0.0
 11
161.1497859546718
 21
360.9861153030684
 31
0.0
  0
LINE
  5
23FE
102
{ACAD_REACTORS
330
2765
102
}
330
2
100
AcDbEntity
  8
KIJUN
  6
Continuous
100
AcDbLine
 10
161.1497859546718
 20
360.9861153030684
 30
0.0
 11
154.2722482746826
 21
363.2143328430659
 31
0.0
  0
LINE
  5
23FF
102
{ACAD_REACTORS
330
2765
102
}
330
2
100
AcDbEntity
  8
KIJUN
  6
Continuous
100
AcDbLine
 10
154.2722482746826
 20
363.2143328430659
 30
0.0
 11
149.1056749146767
 21
362.0230830030682
 31
0.0
  0
LINE
  5
2400
102
{ACAD_REACTORS
330
2765
102
}
330
2
100
AcDbEntity
  8
KIJUN
  6
Continuous
100
AcDbLine
 10
167.2825981746828
 20
351.3068865030631
 30
0.0
 11
163.6224454746802
 21
354.5806213830679
 31
0.0
  0
LINE
  5
2401
102
{ACAD_REACTORS
330
2765
102
}
330
2
100
AcDbEntity
  8
KIJUN
  6
Continuous
100
AcDbLine
 10
163.6224454746802
 20
354.5806213830679
 30
0.0
 11
158.5364459946775
 21
356.5947093030685
 31
0.0
  0
LINE
  5
2402
102
{ACAD_REACTORS
330
2765
102
}
330
2
100
AcDbEntity
  8
KIJUN
  6
Continuous
100
AcDbLine
 10
158.5364459946775
 20
356.5947093030685
 30
0.0
 11
154.3501018146774
 21
356.397678963071
 31
0.0
  0
LINE
  5
2403
102
{ACAD_REACTORS
330
2765
102
}
330
2
100
AcDbEntity
  8
KIJUN
  6
Continuous
100
AcDbLine
 10
165.9871981746787
 20
377.8625865030667
 30
0.0
 11
161.5411262946816
 21
380.3650402230683
 31
0.0
  0
LINE
  5
2404
102
{ACAD_REACTORS
330
2765
102
}
330
2
100
AcDbEntity
  8
KIJUN
  6
Continuous
100
AcDbLine
 10
161.5411262946816
 20
380.3650402230683
 30
0.0
 11
157.0070967546826
 21
381.0679242630718
 31
0.0
  0
LINE
  5
2405
102
{ACAD_REACTORS
330
2765
102
}
330
2
100
AcDbEntity
  8
KIJUN
  6
Continuous
100
AcDbLine
 10
157.0070967546826
 20
381.0679242630718
 30
0.0
 11
152.5608953346784
 21
378.7882793430676
 31
0.0
  0
LINE
  5
2406
102
{ACAD_REACTORS
330
2765
102
}
330
2
100
AcDbEntity
  8
KIJUN
  6
Continuous
100
AcDbLine
 10
166.8939781746744
 20
385.505446503062
 30
0.0
 11
162.3857270946816
 21
386.5637883030688
 31
0.0
  0
LINE
  5
2407
102
{ACAD_REACTORS
330
2765
102
}
330
2
100
AcDbEntity
  8
KIJUN
  6
Continuous
100
AcDbLine
 10
162.3857270946816
 20
386.5637883030688
 30
0.0
 11
157.8115401546843
 21
386.9537037030709
 31
0.0
  0
LINE
  5
2408
102
{ACAD_REACTORS
330
2765
102
}
330
2
100
AcDbEntity
  8
KIJUN
  6
Continuous
100
AcDbLine
 10
157.8115401546843
 20
386.9537037030709
 30
0.0
 11
154.7508985746749
 21
387.0094059030703
 31
0.0
  0
LINE
  5
2409
102
{ACAD_REACTORS
330
2765
102
}
330
2
100
AcDbEntity
  8
KIJUN
  6
Continuous
100
AcDbLine
 10
117.9278581746803
 20
333.9485265030667
 30
0.0
 11
124.7104430346824
 21
335.9324316030683
 31
0.0
  0
LINE
  5
240A
102
{ACAD_REACTORS
330
2765
102
}
330
2
100
AcDbEntity
  8
KIJUN
  6
Continuous
100
AcDbLine
 10
124.7104430346824
 20
335.9324316030683
 30
0.0
 11
131.3834370546765
 21
336.090988563073
 31
0.0
  0
LINE
  5
240B
102
{ACAD_REACTORS
330
2765
102
}
330
2
100
AcDbEntity
  8
KIJUN
  6
Continuous
100
AcDbLine
 10
131.3834370546765
 20
336.090988563073
 30
0.0
 11
136.9815081546828
 21
331.9814616030667
 31
0.0
  0
LINE
  5
240C
102
{ACAD_REACTORS
330
2765
102
}
330
2
100
AcDbEntity
  8
KIJUN
  6
Continuous
100
AcDbLine
 10
96.68329817467885
 20
330.8395665030714
 30
0.0
 11
100.8296144946791
 21
332.7978226830733
 31
0.0
  0
LINE
  5
240D
102
{ACAD_REACTORS
330
2765
102
}
330
2
100
AcDbEntity
  8
KIJUN
  6
Continuous
100
AcDbLine
 10
100.8296144946791
 20
332.7978226830733
 30
0.0
 11
104.9759308146799
 21
333.0848833230698
 31
0.0
  0
LINE
  5
240E
102
{ACAD_REACTORS
330
2765
102
}
330
2
100
AcDbEntity
  8
KIJUN
  6
Continuous
100
AcDbLine
 10
104.9759308146799
 20
333.0848833230698
 30
0.0
 11
109.7148926346874
 21
332.3435259030651
 31
0.0
  0
LINE
  5
240F
102
{ACAD_REACTORS
330
2765
102
}
330
2
100
AcDbEntity
  8
KIJUN
  6
Continuous
100
AcDbLine
 10
92.6491446708925
 20
400.0825471030735
 30
0.0
 11
94.06801511467961
 21
374.7673577430671
 31
0.0
  0
LINE
  5
2410
102
{ACAD_REACTORS
330
2765
102
}
330
2
100
AcDbEntity
  8
KIJUN
  6
Continuous
100
AcDbLine
 10
94.06801511467961
 20
374.7673577430671
 30
0.0
 11
94.85756141467732
 21
360.5368705830638
 31
0.0
  0
LINE
  5
2411
102
{ACAD_REACTORS
330
2765
102
}
330
2
100
AcDbEntity
  8
KIJUN
  6
Continuous
100
AcDbLine
 10
94.85756141467732
 20
360.5368705830638
 30
0.0
 11
94.85756141467732
 21
350.8182616230637
 31
0.0
  0
LINE
  5
2412
102
{ACAD_REACTORS
330
2765
102
}
330
2
100
AcDbEntity
  8
KIJUN
  6
Continuous
100
AcDbLine
 10
94.85756141467732
 20
350.8182616230637
 30
0.0
 11
94.85756141467732
 21
340.637194863068
 31
0.0
  0
LINE
  5
2413
102
{ACAD_REACTORS
330
2765
102
}
330
2
100
AcDbEntity
  8
KIJUN
  6
Continuous
100
AcDbLine
 10
94.85756141467732
 20
340.637194863068
 30
0.0
 11
94.85756141467732
 21
330.3403193430679
 31
0.0
  0
LINE
  5
2414
102
{ACAD_REACTORS
330
2765
102
}
330
2
100
AcDbEntity
  8
KIJUN
  6
Continuous
100
AcDbLine
 10
94.85756141467732
 20
330.3403193430679
 30
0.0
 11
94.06801511467961
 21
320.7375191430733
 31
0.0
  0
LINE
  5
2415
102
{ACAD_REACTORS
330
2765
102
}
330
2
100
AcDbEntity
  8
KIJUN
  6
Continuous
100
AcDbLine
 10
94.06801511467961
 20
320.7375191430733
 30
0.0
 11
93.17962979467734
 21
311.4820156830642
 31
0.0
  0
LINE
  5
2416
102
{ACAD_REACTORS
330
2765
102
}
330
2
100
AcDbEntity
  8
KIJUN
  6
Continuous
100
AcDbLine
 10
93.17962979467734
 20
311.4820156830642
 30
0.0
 11
90.51382613467376
 21
303.383174883063
 31
0.0
  0
LINE
  5
2417
102
{ACAD_REACTORS
330
2765
102
}
330
2
100
AcDbEntity
  8
KIJUN
  6
Continuous
100
AcDbLine
 10
90.51382613467376
 20
303.383174883063
 30
0.0
 11
87.55228265468259
 21
295.7470509630705
 31
0.0
  0
LINE
  5
2418
102
{ACAD_REACTORS
330
2765
102
}
330
2
100
AcDbEntity
  8
KIJUN
  6
Continuous
100
AcDbLine
 10
87.55228265468259
 20
295.7470509630705
 30
0.0
 11
86.26905941468157
 21
290.5409679030629
 31
0.0
  0
LINE
  5
2419
102
{ACAD_REACTORS
330
2765
102
}
330
2
100
AcDbEntity
  8
KIJUN
  6
Continuous
100
AcDbLine
 10
86.26905941468157
 20
290.5409679030629
 30
0.0
 11
84.88699715467646
 21
281.8637310030695
 31
0.0
  0
LINE
  5
241A
102
{ACAD_REACTORS
330
2765
102
}
330
2
100
AcDbEntity
  8
KIJUN
  6
Continuous
100
AcDbLine
 10
84.88699715467646
 20
281.8637310030695
 30
0.0
 11
85.77538247467874
 21
274.8063918030662
 31
0.0
  0
LINE
  5
241B
102
{ACAD_REACTORS
330
2765
102
}
330
2
100
AcDbEntity
  8
KIJUN
  6
Continuous
100
AcDbLine
 10
85.77538247467874
 20
274.8063918030662
 30
0.0
 11
88.83537635468384
 21
267.6332438430657
 31
0.0
  0
LINE
  5
241C
102
{ACAD_REACTORS
330
2765
102
}
330
2
100
AcDbEntity
  8
KIJUN
  6
Continuous
100
AcDbLine
 10
88.83537635468384
 20
267.6332438430657
 30
0.0
 11
94.85756141467732
 21
263.5838234430726
 31
0.0
  0
LINE
  5
241D
102
{ACAD_REACTORS
330
2765
102
}
330
2
100
AcDbEntity
  8
KIJUN
  6
Continuous
100
AcDbLine
 10
94.85756141467732
 20
263.5838234430726
 30
0.0
 11
104.4338059146844
 21
262.5424513830662
 31
0.0
  0
LINE
  5
241E
102
{ACAD_REACTORS
330
2765
102
}
330
2
100
AcDbEntity
  8
KIJUN
  6
Continuous
100
AcDbLine
 10
104.4338059146844
 20
262.5424513830662
 30
0.0
 11
115.2932736546777
 21
261.9640552830737
 31
0.0
  0
LINE
  5
241F
102
{ACAD_REACTORS
330
2765
102
}
330
2
100
AcDbEntity
  8
KIJUN
  6
Continuous
100
AcDbLine
 10
115.2932736546777
 20
261.9640552830737
 30
0.0
 11
124.7705495946809
 21
261.9640552830737
 31
0.0
  0
LINE
  5
2420
102
{ACAD_REACTORS
330
2765
102
}
330
2
100
AcDbEntity
  8
KIJUN
  6
Continuous
100
AcDbLine
 10
124.7705495946809
 20
261.9640552830737
 30
0.0
 11
131.6809904346844
 21
263.0055568830726
 31
0.0
  0
LINE
  5
2421
102
{ACAD_REACTORS
330
2765
102
}
330
2
100
AcDbEntity
  8
KIJUN
  6
Continuous
100
AcDbLine
 10
131.6809904346844
 20
263.0055568830726
 30
0.0
 11
139.0852377546757
 21
264.5095162830661
 31
0.0
  0
LINE
  5
2422
102
{ACAD_REACTORS
330
2765
102
}
330
2
100
AcDbEntity
  8
KIJUN
  6
Continuous
100
AcDbLine
 10
139.0852377546757
 20
264.5095162830661
 30
0.0
 11
143.0341351146733
 21
268.6746159030649
 31
0.0
  0
LINE
  5
2423
102
{ACAD_REACTORS
330
2765
102
}
330
2
100
AcDbEntity
  8
KIJUN
  6
Continuous
100
AcDbLine
 10
143.0341351146733
 20
268.6746159030649
 30
0.0
 11
145.2062618346813
 21
276.7729385430687
 31
0.0
  0
LINE
  5
2424
102
{ACAD_REACTORS
330
2765
102
}
330
2
100
AcDbEntity
  8
KIJUN
  6
Continuous
100
AcDbLine
 10
145.2062618346813
 20
276.7729385430687
 30
0.0
 11
145.60097021468
 21
283.9460865030628
 31
0.0
  0
LINE
  5
2425
102
{ACAD_REACTORS
330
2765
102
}
330
2
100
AcDbEntity
  8
KIJUN
  6
Continuous
100
AcDbLine
 10
145.60097021468
 20
283.9460865030628
 30
0.0
 11
144.3178765146788
 21
292.1607360630619
 31
0.0
  0
LINE
  5
2426
102
{ACAD_REACTORS
330
2765
102
}
330
2
100
AcDbEntity
  8
KIJUN
  6
Continuous
100
AcDbLine
 10
144.3178765146788
 20
292.1607360630619
 30
0.0
 11
141.2573644746837
 21
301.7634067230642
 31
0.0
  0
LINE
  5
2427
102
{ACAD_REACTORS
330
2765
102
}
330
2
100
AcDbEntity
  8
KIJUN
  6
Continuous
100
AcDbLine
 10
141.2573644746837
 20
301.7634067230642
 30
0.0
 11
137.8020145146825
 21
312.5229991230658
 31
0.0
  0
LINE
  5
2428
102
{ACAD_REACTORS
330
2765
102
}
330
2
100
AcDbEntity
  8
KIJUN
  6
Continuous
100
AcDbLine
 10
137.8020145146825
 20
312.5229991230658
 30
0.0
 11
136.9136291946799
 21
325.2495268830685
 31
0.0
  0
LINE
  5
2429
102
{ACAD_REACTORS
330
2765
102
}
330
2
100
AcDbEntity
  8
KIJUN
  6
Continuous
100
AcDbLine
 10
136.9136291946799
 20
325.2495268830685
 30
0.0
 11
136.0247257146807
 21
340.637194863068
 31
0.0
  0
LINE
  5
242A
102
{ACAD_REACTORS
330
2765
102
}
330
2
100
AcDbEntity
  8
KIJUN
  6
Continuous
100
AcDbLine
 10
136.0247257146807
 20
340.637194863068
 30
0.0
 11
136.5184026546762
 21
359.9586040230637
 31
0.0
  0
LINE
  5
242B
102
{ACAD_REACTORS
330
2765
102
}
330
2
100
AcDbEntity
  8
KIJUN
  6
Continuous
100
AcDbLine
 10
136.5184026546762
 20
359.9586040230637
 30
0.0
 11
137.6435048033592
 21
400.0825471030735
 31
0.0
  0
LINE
  5
242D
102
{ACAD_REACTORS
330
2765
102
}
330
2
100
AcDbEntity
  8
KIJUN
  6
Continuous
100
AcDbLine
 10
64.94599817468088
 20
400.0825471030735
 30
0.0
 11
64.94599817468088
 21
369.42668262307
 31
0.0
  0
LINE
  5
242E
102
{ACAD_REACTORS
330
2765
102
}
330
2
100
AcDbEntity
  8
KIJUN
  6
Continuous
100
AcDbLine
 10
64.94599817468088
 20
369.42668262307
 30
0.0
 11
64.94599817468088
 21
359.2154330430617
 31
0.0
  0
LINE
  5
242F
102
{ACAD_REACTORS
330
2765
102
}
330
2
100
AcDbEntity
  8
KIJUN
  6
Continuous
100
AcDbLine
 10
64.94599817468088
 20
359.2154330430617
 30
0.0
 11
63.36548063468558
 21
342.7464946830618
 31
0.0
  0
LINE
  5
2430
102
{ACAD_REACTORS
330
2765
102
}
330
2
100
AcDbEntity
  8
KIJUN
  6
Continuous
100
AcDbLine
 10
63.36548063468558
 20
342.7464946830618
 30
0.0
 11
61.52186735468058
 21
327.7045689630635
 31
0.0
  0
LINE
  5
2431
102
{ACAD_REACTORS
330
2765
102
}
330
2
100
AcDbEntity
  8
KIJUN
  6
Continuous
100
AcDbLine
 10
61.52186735468058
 20
327.7045689630635
 30
0.0
 11
56.78096243468326
 21
319.9092403830694
 31
0.0
  0
LINE
  5
2432
102
{ACAD_REACTORS
330
2765
102
}
330
2
100
AcDbEntity
  8
KIJUN
  6
Continuous
100
AcDbLine
 10
56.78096243468326
 20
319.9092403830694
 30
0.0
 11
49.40586161468127
 21
314.529314643069
 31
0.0
  0
LINE
  5
2433
102
{ACAD_REACTORS
330
2765
102
}
330
2
100
AcDbEntity
  8
KIJUN
  6
Continuous
100
AcDbLine
 10
49.40586161468127
 20
314.529314643069
 30
0.0
 11
42.29437469468575
 21
306.4044363030703
 31
0.0
  0
LINE
  5
2434
102
{ACAD_REACTORS
330
2765
102
}
330
2
100
AcDbEntity
  8
KIJUN
  6
Continuous
100
AcDbLine
 10
42.29437469468575
 20
306.4044363030703
 30
0.0
 11
38.21179205468002
 21
296.7425658630713
 31
0.0
  0
LINE
  5
2435
102
{ACAD_REACTORS
330
2765
102
}
330
2
100
AcDbEntity
  8
KIJUN
  6
Continuous
100
AcDbLine
 10
38.21179205468002
 20
296.7425658630713
 30
0.0
 11
39.00185651467495
 21
289.3862483430599
 31
0.0
  0
LINE
  5
2436
102
{ACAD_REACTORS
330
2765
102
}
330
2
100
AcDbEntity
  8
KIJUN
  6
Continuous
100
AcDbLine
 10
39.00185651467495
 20
289.3862483430599
 30
0.0
 11
39.13385777467738
 21
282.249889743061
 31
0.0
  0
LINE
  5
2437
102
{ACAD_REACTORS
330
2765
102
}
330
2
100
AcDbEntity
  8
KIJUN
  6
Continuous
100
AcDbLine
 10
39.13385777467738
 20
282.249889743061
 30
0.0
 11
42.95282651467641
 21
273.6858708030716
 31
0.0
  0
LINE
  5
2438
102
{ACAD_REACTORS
330
2765
102
}
330
2
100
AcDbEntity
  8
KIJUN
  6
Continuous
100
AcDbLine
 10
42.95282651467641
 20
273.6858708030716
 30
0.0
 11
48.61579715468611
 21
268.5257744430614
 31
0.0
  0
LINE
  5
2439
102
{ACAD_REACTORS
330
2765
102
}
330
2
100
AcDbEntity
  8
KIJUN
  6
Continuous
100
AcDbLine
 10
48.61579715468611
 20
268.5257744430614
 30
0.0
 11
59.41451063468412
 21
265.8905422230621
 31
0.0
  0
LINE
  5
243A
102
{ACAD_REACTORS
330
2765
102
}
330
2
100
AcDbEntity
  8
KIJUN
  6
Continuous
100
AcDbLine
 10
59.41451063468412
 20
265.8905422230621
 30
0.0
 11
70.34535491467659
 21
266.9886528030624
 31
0.0
  0
LINE
  5
243B
102
{ACAD_REACTORS
330
2765
102
}
330
2
100
AcDbEntity
  8
KIJUN
  6
Continuous
100
AcDbLine
 10
70.34535491467659
 20
266.9886528030624
 30
0.0
 11
81.14458655467911
 21
269.952787083063
 31
0.0
  0
LINE
  5
243C
102
{ACAD_REACTORS
330
2765
102
}
330
2
100
AcDbEntity
  8
KIJUN
  6
Continuous
100
AcDbLine
 10
81.14458655467911
 20
269.952787083063
 30
0.0
 11
89.8365910146772
 21
278.2973652630674
 31
0.0
  0
LINE
  5
243D
102
{ACAD_REACTORS
330
2765
102
}
330
2
100
AcDbEntity
  8
KIJUN
  6
Continuous
100
AcDbLine
 10
89.8365910146772
 20
278.2973652630674
 30
0.0
 11
92.86549529468107
 21
287.5202246430676
 31
0.0
  0
LINE
  5
243E
102
{ACAD_REACTORS
330
2765
102
}
330
2
100
AcDbEntity
  8
KIJUN
  6
Continuous
100
AcDbLine
 10
92.86549529468107
 20
287.5202246430676
 30
0.0
 11
95.10433511468319
 21
297.1820950830747
 31
0.0
  0
LINE
  5
243F
102
{ACAD_REACTORS
330
2765
102
}
330
2
100
AcDbEntity
  8
KIJUN
  6
Continuous
100
AcDbLine
 10
95.10433511468319
 20
297.1820950830747
 30
0.0
 11
96.28962611468182
 21
315.078564243065
 31
0.0
  0
LINE
  5
2440
102
{ACAD_REACTORS
330
2765
102
}
330
2
100
AcDbEntity
  8
KIJUN
  6
Continuous
100
AcDbLine
 10
96.28962611468182
 20
315.078564243065
 30
0.0
 11
94.57749593468179
 21
341.9779338630665
 31
0.0
  0
LINE
  5
2441
102
{ACAD_REACTORS
330
2765
102
}
330
2
100
AcDbEntity
  8
KIJUN
  6
Continuous
100
AcDbLine
 10
94.57749593468179
 20
341.9779338630665
 30
0.0
 11
94.97272247467822
 21
364.4857679430757
 31
0.0
  0
LINE
  5
2442
102
{ACAD_REACTORS
330
2765
102
}
330
2
100
AcDbEntity
  8
KIJUN
  6
Continuous
100
AcDbLine
 10
94.97272247467822
 20
364.4857679430757
 30
0.0
 11
92.73388265467701
 21
391.0558468830717
 31
0.0
  0
LINE
  5
2444
102
{ACAD_REACTORS
330
2765
102
}
330
2
100
AcDbEntity
  8
KIJUN
  6
Continuous
100
AcDbLine
 10
94.48111817467951
 20
337.4461065030632
 30
0.0
 11
87.71317133468301
 21
338.405997903064
 31
0.0
  0
LINE
  5
2445
102
{ACAD_REACTORS
330
2765
102
}
330
2
100
AcDbEntity
  8
KIJUN
  6
Continuous
100
AcDbLine
 10
87.71317133468301
 20
338.405997903064
 30
0.0
 11
81.20832023468096
 21
335.869216083071
 31
0.0
  0
LINE
  5
2446
102
{ACAD_REACTORS
330
2765
102
}
330
2
100
AcDbEntity
  8
KIJUN
  6
Continuous
100
AcDbLine
 10
81.20832023468096
 20
335.869216083071
 30
0.0
 11
77.59959491468499
 21
329.3472657030693
 31
0.0
  0
LINE
  5
2447
102
{ACAD_REACTORS
330
2765
102
}
330
2
100
AcDbEntity
  8
KIJUN
  6
Continuous
100
AcDbLine
 10
73.63385735467841
 20
334.8961116030655
 30
0.0
 11
74.48972813467958
 21
331.4594154030705
 31
0.0
  0
LINE
  5
2448
102
{ACAD_REACTORS
330
2765
102
}
330
2
100
AcDbEntity
  8
KIJUN
  6
Continuous
100
AcDbLine
 10
74.48972813467958
 20
331.4594154030705
 30
0.0
 11
75.14792087467913
 21
328.1512228830675
 31
0.0
  0
LINE
  5
2449
102
{ACAD_REACTORS
330
2765
102
}
330
2
100
AcDbEntity
  8
KIJUN
  6
Continuous
100
AcDbLine
 10
75.14792087467913
 20
328.1512228830675
 30
0.0
 11
75.41127569468722
 21
324.7145266830653
 31
0.0
  0
LINE
  5
244A
102
{ACAD_REACTORS
330
2765
102
}
330
2
100
AcDbEntity
  8
KIJUN
  6
Continuous
100
AcDbLine
 10
68.94593429467978
 20
283.4407509630678
 30
0.0
 11
72.06499841468167
 21
283.6464604830648
 31
0.0
  0
LINE
  5
244B
102
{ACAD_REACTORS
330
2765
102
}
330
2
100
AcDbEntity
  8
KIJUN
  6
Continuous
100
AcDbLine
 10
72.06499841468167
 20
283.6464604830648
 30
0.0
 11
77.04866129467586
 21
283.8520404630703
 31
0.0
  0
LINE
  5
244C
102
{ACAD_REACTORS
330
2765
102
}
330
2
100
AcDbEntity
  8
KIJUN
  6
Continuous
100
AcDbLine
 10
77.04866129467586
 20
283.8520404630703
 30
0.0
 11
78.5221787946798
 21
283.4407509630678
 31
0.0
  0
LINE
  5
244D
102
{ACAD_REACTORS
330
2765
102
}
330
2
100
AcDbEntity
  8
KIJUN
  6
Continuous
100
AcDbLine
 10
83.21113817468745
 20
280.3189665030652
 30
0.0
 11
78.17267987468222
 21
280.8888129630727
 31
0.0
  0
LINE
  5
244E
102
{ACAD_REACTORS
330
2765
102
}
330
2
100
AcDbEntity
  8
KIJUN
  6
Continuous
100
AcDbLine
 10
78.17267987468222
 20
280.8888129630727
 30
0.0
 11
73.04652299468125
 21
279.0933885630689
 31
0.0
  0
LINE
  5
244F
102
{ACAD_REACTORS
330
2765
102
}
330
2
100
AcDbEntity
  8
KIJUN
  6
Continuous
100
AcDbLine
 10
73.04652299468125
 20
279.0933885630689
 30
0.0
 11
69.78483533468033
 21
274.187320143064
 31
0.0
  0
LINE
  5
2456
102
{ACAD_REACTORS
330
2765
102
}
330
2
100
AcDbEntity
  8
KIJUN
  6
Continuous
100
AcDbLine
 10
36.56472655467837
 20
255.3826664110364
 30
0.0
 11
44.66534531467437
 21
265.0724971230642
 31
0.0
  0
LINE
  5
2457
102
{ACAD_REACTORS
330
2765
102
}
330
2
100
AcDbEntity
  8
KIJUN
  6
Continuous
100
AcDbLine
 10
44.66534531467437
 20
265.0724971230642
 30
0.0
 11
50.78585123468247
 21
267.6179581230713
 31
0.0
  0
LINE
  5
2458
102
{ACAD_REACTORS
330
2765
102
}
330
2
100
AcDbEntity
  8
KIJUN
  6
Continuous
100
AcDbLine
 10
50.78585123468247
 20
267.6179581230713
 30
0.0
 11
62.92893083468197
 21
268.6593301830701
 31
0.0
  0
LINE
  5
2459
102
{ACAD_REACTORS
330
2765
102
}
330
2
100
AcDbEntity
  8
KIJUN
  6
Continuous
100
AcDbLine
 10
62.92893083468197
 20
268.6593301830701
 30
0.0
 11
73.68943001467846
 21
267.6179581230713
 31
0.0
  0
LINE
  5
245A
102
{ACAD_REACTORS
330
2765
102
}
330
2
100
AcDbEntity
  8
KIJUN
  6
Continuous
100
AcDbLine
 10
73.68943001467846
 20
267.6179581230713
 30
0.0
 11
84.15418937467984
 21
266.1139987230701
 31
0.0
  0
LINE
  5
245B
102
{ACAD_REACTORS
330
2765
102
}
330
2
100
AcDbEntity
  8
KIJUN
  6
Continuous
100
AcDbLine
 10
84.15418937467984
 20
266.1139987230701
 30
0.0
 11
90.1762448946738
 21
261.48618222307
 31
0.0
  0
LINE
  5
245C
102
{ACAD_REACTORS
330
2765
102
}
330
2
100
AcDbEntity
  8
KIJUN
  6
Continuous
100
AcDbLine
 10
90.1762448946738
 20
261.48618222307
 30
0.0
 11
92.74307999468101
 21
254.8914303630622
 31
0.0
  0
LINE
  5
245D
102
{ACAD_REACTORS
330
2765
102
}
330
2
100
AcDbEntity
  8
KIJUN
  6
Continuous
100
AcDbLine
 10
92.74307999468101
 20
254.8914303630622
 30
0.0
 11
94.51985063467805
 21
246.6772989630674
 31
0.0
  0
LINE
  5
245E
102
{ACAD_REACTORS
330
2765
102
}
330
2
100
AcDbEntity
  8
KIJUN
  6
Continuous
100
AcDbLine
 10
94.51985063467805
 20
246.6772989630674
 30
0.0
 11
94.51985063467805
 21
240.0825471030735
 31
0.0
  0
LINE
  5
2460
102
{ACAD_REACTORS
330
2765
102
}
330
2
100
AcDbEntity
  8
KIJUN
  6
Continuous
100
AcDbLine
 10
49.91935817467743
 20
241.0683465030654
 30
0.0
 11
50.80774349467947
 21
248.7040818030678
 31
0.0
  0
LINE
  5
2461
102
{ACAD_REACTORS
330
2765
102
}
330
2
100
AcDbEntity
  8
KIJUN
  6
Continuous
100
AcDbLine
 10
50.80774349467947
 20
248.7040818030678
 30
0.0
 11
54.26309345468098
 21
253.7948742630683
 31
0.0
  0
LINE
  5
2462
102
{ACAD_REACTORS
330
2765
102
}
330
2
100
AcDbEntity
  8
KIJUN
  6
Continuous
100
AcDbLine
 10
54.26309345468098
 20
253.7948742630683
 30
0.0
 11
59.00192573468166
 21
256.8029226030699
 31
0.0
  0
LINE
  5
2463
102
{ACAD_REACTORS
330
2765
102
}
330
2
100
AcDbEntity
  8
KIJUN
  6
Continuous
100
AcDbLine
 10
59.00192573468166
 20
256.8029226030699
 30
0.0
 11
65.91249611468447
 21
256.8029226030699
 31
0.0
  0
LINE
  5
2464
102
{ACAD_REACTORS
330
2765
102
}
330
2
100
AcDbEntity
  8
KIJUN
  6
Continuous
100
AcDbLine
 10
65.91249611468447
 20
256.8029226030699
 30
0.0
 11
72.03300203467779
 21
255.2988336630692
 31
0.0
  0
LINE
  5
2465
102
{ACAD_REACTORS
330
2765
102
}
330
2
100
AcDbEntity
  8
KIJUN
  6
Continuous
100
AcDbLine
 10
72.03300203467779
 20
255.2988336630692
 30
0.0
 11
77.66034917468005
 21
250.2085593630668
 31
0.0
  0
LINE
  5
2466
102
{ACAD_REACTORS
330
2765
102
}
330
2
100
AcDbEntity
  8
KIJUN
  6
Continuous
100
AcDbLine
 10
77.66034917468005
 20
250.2085593630668
 30
0.0
 11
79.33866941467773
 21
244.0763948430671
 31
0.0
  0
LINE
  5
2467
102
{ACAD_REACTORS
330
2765
102
}
330
2
100
AcDbEntity
  8
KIJUN
  6
Continuous
100
AcDbLine
 10
79.33866941467773
 20
244.0763948430671
 30
0.0
 11
79.83234635468102
 21
240.4900799430657
 31
0.0
  0
LINE
  5
2468
102
{ACAD_REACTORS
330
2765
102
}
330
2
100
AcDbEntity
  8
KIJUN
  6
Continuous
100
AcDbLine
 10
79.83234635468102
 20
240.4900799430657
 30
0.0
 11
49.91935817467743
 21
241.0683465030654
 31
0.0
  0
LINE
  5
2469
102
{ACAD_REACTORS
330
2765
102
}
330
2
100
AcDbEntity
  8
KIJUN
  6
Continuous
100
AcDbLine
 10
88.91089817468355
 20
301.3044465030739
 30
0.0
 11
79.76252429467376
 21
306.0994991430628
 31
0.0
  0
LINE
  5
246A
102
{ACAD_REACTORS
330
2765
102
}
330
2
100
AcDbEntity
  8
KIJUN
  6
Continuous
100
AcDbLine
 10
79.76252429467376
 20
306.0994991430628
 30
0.0
 11
67.32344579468054
 21
307.732091763069
 31
0.0
  0
LINE
  5
246B
102
{ACAD_REACTORS
330
2765
102
}
330
2
100
AcDbEntity
  8
KIJUN
  6
Continuous
100
AcDbLine
 10
67.32344579468054
 20
307.732091763069
 30
0.0
 11
59.88629531468223
 21
302.3459481030716
 31
0.0
  0
LINE
  5
246C
102
{ACAD_REACTORS
330
2765
102
}
330
2
100
AcDbEntity
  8
KIJUN
  6
Continuous
100
AcDbLine
 10
84.89515817467827
 20
292.107106503066
 30
0.0
 11
79.17285821468112
 21
296.7993043830725
 31
0.0
  0
LINE
  5
246D
102
{ACAD_REACTORS
330
2765
102
}
330
2
100
AcDbEntity
  8
KIJUN
  6
Continuous
100
AcDbLine
 10
79.17285821468112
 20
296.7993043830725
 30
0.0
 11
71.43232505467563
 21
295.860916623063
 31
0.0
  0
LINE
  5
246E
102
{ACAD_REACTORS
330
2765
102
}
330
2
100
AcDbEntity
  8
KIJUN
  6
Continuous
100
AcDbLine
 10
71.43232505467563
 20
295.860916623063
 30
0.0
 11
65.44679981468425
 21
291.0657344430742
 31
0.0
  0
LINE
  5
246F
102
{ACAD_REACTORS
330
2765
102
}
330
2
100
AcDbEntity
  8
KIJUN
  6
Continuous
100
AcDbLine
 10
62.87335817468193
 20
330.8395665030714
 30
0.0
 11
69.17690411467856
 21
329.365530843063
 31
0.0
  0
LINE
  5
2470
102
{ACAD_REACTORS
330
2765
102
}
330
2
100
AcDbEntity
  8
KIJUN
  6
Continuous
100
AcDbLine
 10
69.17690411467856
 20
329.365530843063
 30
0.0
 11
72.95752901467699
 21
323.5978918830717
 31
0.0
  0
LINE
  5
2471
102
{ACAD_REACTORS
330
2765
102
}
330
2
100
AcDbEntity
  8
KIJUN
  6
Continuous
100
AcDbLine
 10
72.95752901467699
 20
323.5978918830717
 30
0.0
 11
74.91759875468415
 21
316.0306832430692
 31
0.0
  0
LINE
  5
2472
102
{ACAD_REACTORS
330
2765
102
}
330
2
100
AcDbEntity
  8
KIJUN
  6
Continuous
100
AcDbLine
 10
39.94477817467532
 20
288.998146503071
 30
0.0
 11
45.61215317467667
 21
289.9836868230646
 31
0.0
  0
LINE
  5
2473
102
{ACAD_REACTORS
330
2765
102
}
330
2
100
AcDbEntity
  8
KIJUN
  6
Continuous
100
AcDbLine
 10
45.61215317467667
 20
289.9836868230646
 30
0.0
 11
50.73118535468529
 21
288.5525289030697
 31
0.0
  0
LINE
  5
2474
102
{ACAD_REACTORS
330
2765
102
}
330
2
100
AcDbEntity
  8
KIJUN
  6
Continuous
100
AcDbLine
 10
50.73118535468529
 20
288.5525289030697
 30
0.0
 11
55.54320773467566
 21
284.3704595430629
 31
0.0
  0
LINE
  5
2475
102
{ACAD_REACTORS
330
2765
102
}
330
2
100
AcDbEntity
  8
KIJUN
  6
Continuous
100
AcDbLine
 10
45.1263781746843
 20
277.7281665030645
 30
0.0
 11
52.17231785467948
 21
281.7818617230728
 31
0.0
  0
LINE
  5
2476
102
{ACAD_REACTORS
330
2765
102
}
330
2
100
AcDbEntity
  8
KIJUN
  6
Continuous
100
AcDbLine
 10
52.17231785467948
 20
281.7818617230728
 30
0.0
 11
59.50337507468112
 21
283.0073101230703
 31
0.0
  0
LINE
  5
2477
102
{ACAD_REACTORS
330
2765
102
}
330
2
100
AcDbEntity
  8
KIJUN
  6
Continuous
100
AcDbLine
 10
59.50337507468112
 20
283.0073101230703
 30
0.0
 11
67.14157163468553
 21
280.2736275030714
 31
0.0
  0
LINE
  5
2478
102
{ACAD_REACTORS
330
2765
102
}
330
2
100
AcDbEntity
  8
KIJUN
  6
Continuous
100
AcDbLine
 10
69.78483533468033
 20
274.187320143064
 30
0.0
 11
70.17967325467839
 21
273.1458185430652
 31
0.0
  0
LINE
  5
2479
102
{ACAD_REACTORS
330
2765
102
}
330
2
100
AcDbEntity
  8
KIJUN
  6
Continuous
100
AcDbLine
 10
57.69175817468021
 20
271.6397865030672
 30
0.0
 11
60.78504383468271
 21
276.2933814630744
 31
0.0
  0
LINE
  5
247A
102
{ACAD_REACTORS
330
2765
102
}
330
2
100
AcDbEntity
  8
KIJUN
  6
Continuous
100
AcDbLine
 10
60.78504383468271
 20
276.2933814630744
 30
0.0
 11
64.66813487468176
 21
280.4841300030659
 31
0.0
  0
LINE
  5
247B
102
{ACAD_REACTORS
330
2765
102
}
330
2
100
AcDbEntity
  8
KIJUN
  6
Continuous
100
AcDbLine
 10
64.66813487468176
 20
280.4841300030659
 30
0.0
 11
68.94593429467978
 21
283.4407509630678
 31
0.0
  0
LINE
  5
247C
102
{ACAD_REACTORS
330
2765
102
}
330
2
100
AcDbEntity
  8
KIJUN
  6
Continuous
100
AcDbLine
 10
60.24019859467898
 20
318.6072338430625
 30
0.0
 11
63.73959215468085
 21
311.3228110230705
 31
0.0
  0
LINE
  5
247D
102
{ACAD_REACTORS
330
2765
102
}
330
2
100
AcDbEntity
  8
KIJUN
  6
Continuous
100
AcDbLine
 10
63.73959215468085
 20
311.3228110230705
 30
0.0
 11
64.27705361467838
 21
303.4470381030645
 31
0.0
  0
LINE
  5
247E
102
{ACAD_REACTORS
330
2765
102
}
330
2
100
AcDbEntity
  8
KIJUN
  6
Continuous
100
AcDbLine
 10
64.27705361467838
 20
303.4470381030645
 30
0.0
 11
61.12871345468056
 21
296.1626152830724
 31
0.0
  0
LINE
  5
247F
102
{ACAD_REACTORS
330
2765
102
}
330
2
100
AcDbEntity
  8
KIJUN
  6
Continuous
100
AcDbLine
 10
48.10579817467896
 20
312.9630465030737
 30
0.0
 11
53.05293077467786
 21
306.5868286230621
 31
0.0
  0
LINE
  5
2480
102
{ACAD_REACTORS
330
2765
102
}
330
2
100
AcDbEntity
  8
KIJUN
  6
Continuous
100
AcDbLine
 10
53.05293077467786
 20
306.5868286230621
 30
0.0
 11
54.90677771467426
 21
298.513766283068
 31
0.0
  0
LINE
  5
2481
102
{ACAD_REACTORS
330
2765
102
}
330
2
100
AcDbEntity
  8
KIJUN
  6
Continuous
100
AcDbLine
 10
54.90677771467426
 20
298.513766283068
 30
0.0
 11
53.73314531468122
 21
290.0554519830688
 31
0.0
  0
LINE
  5
2482
102
{ACAD_REACTORS
330
2765
102
}
330
2
100
AcDbEntity
  8
KIJUN
  6
Continuous
100
AcDbLine
 10
60.28255817468084
 20
325.7875065030635
 30
0.0
 11
66.24619115468249
 21
321.3139721430675
 31
0.0
  0
LINE
  5
2483
102
{ACAD_REACTORS
330
2765
102
}
330
2
100
AcDbEntity
  8
KIJUN
  6
Continuous
100
AcDbLine
 10
66.24619115468249
 20
321.3139721430675
 30
0.0
 11
67.31735741468265
 21
313.138184583067
 31
0.0
  0
LINE
  5
2484
102
{ACAD_REACTORS
330
2765
102
}
330
2
100
AcDbEntity
  8
KIJUN
  6
Continuous
100
AcDbLine
 10
67.31735741468265
 20
313.138184583067
 30
0.0
 11
65.51467877467189
 21
304.268062623069
 31
0.0
  0
LINE
  5
2485
102
{ACAD_REACTORS
330
2765
102
}
330
2
100
AcDbEntity
  8
KIJUN
  6
Continuous
100
AcDbLine
 10
53.73314531468122
 20
290.0554519830688
 30
0.0
 11
51.76944845468597
 21
296.7271506030698
 31
0.0
  0
LINE
  5
2486
102
{ACAD_REACTORS
330
2765
102
}
330
2
100
AcDbEntity
  8
KIJUN
  6
Continuous
100
AcDbLine
 10
51.76944845468597
 20
296.7271506030698
 30
0.0
 11
47.37091775467843
 21
301.7792106030642
 31
0.0
  0
LINE
  5
2487
102
{ACAD_REACTORS
330
2765
102
}
330
2
100
AcDbEntity
  8
KIJUN
  6
Continuous
100
AcDbLine
 10
47.37091775467843
 20
301.7792106030642
 30
0.0
 11
41.59006571468194
 21
304.2859391430722
 31
0.0
  0
LINE
  5
2488
102
{ACAD_REACTORS
330
2765
102
}
330
2
100
AcDbEntity
  8
KIJUN
  6
Continuous
100
AcDbLine
 10
65.44679981468425
 20
291.0657344430742
 30
0.0
 11
65.56740155467924
 21
290.418682143069
 31
0.0
  0
LINE
  5
2489
102
{ACAD_REACTORS
330
2765
102
}
330
2
100
AcDbEntity
  8
KIJUN
  6
Continuous
100
AcDbLine
 10
65.56740155467924
 20
290.418682143069
 30
0.0
 11
65.88555179468404
 21
289.82305722307
 31
0.0
  0
LINE
  5
248A
102
{ACAD_REACTORS
330
2765
102
}
330
2
100
AcDbEntity
  8
KIJUN
  6
Continuous
100
AcDbLine
 10
65.88555179468404
 20
289.82305722307
 30
0.0
 11
66.33531467467832
 21
289.5617750430661
 31
0.0
  0
LINE
  5
248B
102
{ACAD_REACTORS
330
2765
102
}
330
2
100
AcDbEntity
  8
KIJUN
  6
Continuous
100
AcDbLine
 10
56.78497817468451
 20
318.144646503068
 30
0.0
 11
57.87816623468097
 21
318.2646005430738
 31
0.0
  0
LINE
  5
248C
102
{ACAD_REACTORS
330
2765
102
}
330
2
100
AcDbEntity
  8
KIJUN
  6
Continuous
100
AcDbLine
 10
57.87816623468097
 20
318.2646005430738
 30
0.0
 11
59.14701053468252
 21
318.4872798030642
 31
0.0
  0
LINE
  5
248D
102
{ACAD_REACTORS
330
2765
102
}
330
2
100
AcDbEntity
  8
KIJUN
  6
Continuous
100
AcDbLine
 10
59.14701053468252
 20
318.4872798030642
 30
0.0
 11
60.24019859467898
 21
318.6072338430625
 31
0.0
  0
LINE
  5
248E
102
{ACAD_REACTORS
330
2765
102
}
330
2
100
AcDbEntity
  8
KIJUN
  6
Continuous
100
AcDbLine
 10
108.3418981746792
 20
294.6979065030669
 30
0.0
 11
98.61953255468371
 21
296.2661177430594
 31
0.0
  0
LINE
  5
248F
102
{ACAD_REACTORS
330
2765
102
}
330
2
100
AcDbEntity
  8
KIJUN
  6
Continuous
100
AcDbLine
 10
98.61953255468371
 20
296.2661177430594
 30
0.0
 11
89.66495051468109
 21
292.204002423066
 31
0.0
  0
LINE
  5
2490
102
{ACAD_REACTORS
330
2765
102
}
330
2
100
AcDbEntity
  8
KIJUN
  6
Continuous
100
AcDbLine
 10
89.66495051468109
 20
292.204002423066
 30
0.0
 11
84.54993407468078
 21
282.897071583066
 31
0.0
  0
LINE
  5
2491
102
{ACAD_REACTORS
330
2765
102
}
330
2
100
AcDbEntity
  8
KIJUN
  6
Continuous
100
AcDbLine
 10
109.7668381746766
 20
284.9824065030655
 30
0.0
 11
114.3484088946725
 21
286.0277943030737
 31
0.0
  0
LINE
  5
2492
102
{ACAD_REACTORS
330
2765
102
}
330
2
100
AcDbEntity
  8
KIJUN
  6
Continuous
100
AcDbLine
 10
114.3484088946725
 20
286.0277943030737
 30
0.0
 11
118.3813777146774
 21
285.7877566830698
 31
0.0
  0
LINE
  5
2493
102
{ACAD_REACTORS
330
2765
102
}
330
2
100
AcDbEntity
  8
KIJUN
  6
Continuous
100
AcDbLine
 10
118.3813777146774
 20
285.7877566830698
 30
0.0
 11
122.6994640746809
 21
285.4449938430676
 31
0.0
  0
LINE
  5
2494
102
{ACAD_REACTORS
330
2765
102
}
330
2
100
AcDbEntity
  8
KIJUN
  6
Continuous
100
AcDbLine
 10
144.7426381746772
 20
280.3189665030652
 30
0.0
 11
142.4940828546816
 21
285.4781560830657
 31
0.0
  0
LINE
  5
2495
102
{ACAD_REACTORS
330
2765
102
}
330
2
100
AcDbEntity
  8
KIJUN
  6
Continuous
100
AcDbLine
 10
142.4940828546816
 20
285.4781560830657
 30
0.0
 11
137.810175534677
 21
289.1204322630649
 31
0.0
  0
LINE
  5
2496
102
{ACAD_REACTORS
330
2765
102
}
330
2
100
AcDbEntity
  8
KIJUN
  6
Continuous
100
AcDbLine
 10
137.810175534677
 20
289.1204322630649
 30
0.0
 11
132.5995585746782
 21
290.5001628030673
 31
0.0
  0
LINE
  5
2497
102
{ACAD_REACTORS
330
2765
102
}
330
2
100
AcDbEntity
  8
KIJUN
  6
Continuous
100
AcDbLine
 10
106.6578781746814
 20
286.4073465030701
 30
0.0
 11
99.35985365468582
 21
288.2499234630664
 31
0.0
  0
LINE
  5
2498
102
{ACAD_REACTORS
330
2765
102
}
330
2
100
AcDbEntity
  8
KIJUN
  6
Continuous
100
AcDbLine
 10
99.35985365468582
 20
288.2499234630664
 30
0.0
 11
92.82935363467641
 21
286.2617435430715
 31
0.0
  0
LINE
  5
2499
102
{ACAD_REACTORS
330
2765
102
}
330
2
100
AcDbEntity
  8
KIJUN
  6
Continuous
100
AcDbLine
 10
92.82935363467641
 20
286.2617435430715
 30
0.0
 11
86.71584287467657
 21
281.3165540430632
 31
0.0
  0
LINE
  5
249A
102
{ACAD_REACTORS
330
2765
102
}
330
2
100
AcDbEntity
  8
KIJUN
  6
Continuous
100
AcDbLine
 10
91.39055285468499
 20
240.0320265030627
 30
0.0
 11
91.39055285468499
 21
246.626907903063
 31
0.0
  0
LINE
  5
249B
102
{ACAD_REACTORS
330
2765
102
}
330
2
100
AcDbEntity
  8
KIJUN
  6
Continuous
100
AcDbLine
 10
91.39055285468499
 20
246.626907903063
 30
0.0
 11
91.39055285468499
 21
252.7585542630718
 31
0.0
  0
LINE
  5
249C
102
{ACAD_REACTORS
330
2765
102
}
330
2
100
AcDbEntity
  8
KIJUN
  6
Continuous
100
AcDbLine
 10
91.39055285468499
 20
252.7585542630718
 30
0.0
 11
94.05583835468361
 21
258.8903301630657
 31
0.0
  0
LINE
  5
249D
102
{ACAD_REACTORS
330
2765
102
}
330
2
100
AcDbEntity
  8
KIJUN
  6
Continuous
100
AcDbLine
 10
94.05583835468361
 20
258.8903301630657
 30
0.0
 11
99.18950855468256
 21
262.4771632230645
 31
0.0
  0
LINE
  5
249E
102
{ACAD_REACTORS
330
2765
102
}
330
2
100
AcDbEntity
  8
KIJUN
  6
Continuous
100
AcDbLine
 10
99.18950855468256
 20
262.4771632230645
 30
0.0
 11
107.8773677346803
 21
265.0224946830654
 31
0.0
  0
LINE
  5
249F
102
{ACAD_REACTORS
330
2765
102
}
330
2
100
AcDbEntity
  8
KIJUN
  6
Continuous
100
AcDbLine
 10
107.8773677346803
 20
265.0224946830654
 30
0.0
 11
118.2430289946783
 21
265.4850820230745
 31
0.0
  0
LINE
  5
24A0
102
{ACAD_REACTORS
330
2765
102
}
330
2
100
AcDbEntity
  8
KIJUN
  6
Continuous
100
AcDbLine
 10
118.2430289946783
 20
265.4850820230745
 30
0.0
 11
128.7077883546872
 21
265.0224946830654
 31
0.0
  0
LINE
  5
24A1
102
{ACAD_REACTORS
330
2765
102
}
330
2
100
AcDbEntity
  8
KIJUN
  6
Continuous
100
AcDbLine
 10
128.7077883546872
 20
265.0224946830654
 30
0.0
 11
135.2230026546795
 21
261.8987671230657
 31
0.0
  0
LINE
  5
24A2
102
{ACAD_REACTORS
330
2765
102
}
330
2
100
AcDbEntity
  8
KIJUN
  6
Continuous
100
AcDbLine
 10
135.2230026546795
 20
261.8987671230657
 30
0.0
 11
139.0734496146854
 21
257.849346723065
 31
0.0
  0
LINE
  5
24A3
102
{ACAD_REACTORS
330
2765
102
}
330
2
100
AcDbEntity
  8
KIJUN
  6
Continuous
100
AcDbLine
 10
139.0734496146854
 20
257.849346723065
 30
0.0
 11
139.9619644746794
 21
252.7585542630718
 31
0.0
  0
LINE
  5
24A4
102
{ACAD_REACTORS
330
2765
102
}
330
2
100
AcDbEntity
  8
KIJUN
  6
Continuous
100
AcDbLine
 10
139.9619644746794
 20
252.7585542630718
 30
0.0
 11
140.3566728546789
 21
247.2051744630702
 31
0.0
  0
LINE
  5
24A5
102
{ACAD_REACTORS
330
2765
102
}
330
2
100
AcDbEntity
  8
KIJUN
  6
Continuous
100
AcDbLine
 10
140.3566728546789
 20
247.2051744630702
 30
0.0
 11
140.8843810352039
 21
240.0320265030627
 31
0.0
  0
LINE
  5
24A7
102
{ACAD_REACTORS
330
2765
102
}
330
2
100
AcDbEntity
  8
KIJUN
  6
Continuous
100
AcDbLine
 10
102.6421381746834
 20
240.5501865030641
 30
0.0
 11
103.5305234946854
 21
245.1780030030716
 31
0.0
  0
LINE
  5
24A8
102
{ACAD_REACTORS
330
2765
102
}
330
2
100
AcDbEntity
  8
KIJUN
  6
Continuous
100
AcDbLine
 10
103.5305234946854
 20
245.1780030030716
 30
0.0
 11
105.7026502146784
 21
249.8056899630651
 31
0.0
  0
LINE
  5
24A9
102
{ACAD_REACTORS
330
2765
102
}
330
2
100
AcDbEntity
  8
KIJUN
  6
Continuous
100
AcDbLine
 10
105.7026502146784
 20
249.8056899630651
 30
0.0
 11
110.934770814677
 21
251.7727548630651
 31
0.0
  0
LINE
  5
24AA
102
{ACAD_REACTORS
330
2765
102
}
330
2
100
AcDbEntity
  8
KIJUN
  6
Continuous
100
AcDbLine
 10
110.934770814677
 20
251.7727548630651
 30
0.0
 11
116.9568263346782
 21
252.814126923065
 31
0.0
  0
LINE
  5
24AB
102
{ACAD_REACTORS
330
2765
102
}
330
2
100
AcDbEntity
  8
KIJUN
  6
Continuous
100
AcDbLine
 10
116.9568263346782
 20
252.814126923065
 30
0.0
 11
123.8673967146737
 21
251.7727548630651
 31
0.0
  0
LINE
  5
24AC
102
{ACAD_REACTORS
330
2765
102
}
330
2
100
AcDbEntity
  8
KIJUN
  6
Continuous
100
AcDbLine
 10
123.8673967146737
 20
251.7727548630651
 30
0.0
 11
129.0999059346777
 21
249.2272938630652
 31
0.0
  0
LINE
  5
24AD
102
{ACAD_REACTORS
330
2765
102
}
330
2
100
AcDbEntity
  8
KIJUN
  6
Continuous
100
AcDbLine
 10
129.0999059346777
 20
249.2272938630652
 30
0.0
 11
132.159899814683
 21
245.6409789630637
 31
0.0
  0
LINE
  5
24AE
102
{ACAD_REACTORS
330
2765
102
}
330
2
100
AcDbEntity
  8
KIJUN
  6
Continuous
100
AcDbLine
 10
132.159899814683
 20
245.6409789630637
 30
0.0
 11
133.048803294675
 21
240.5501865030641
 31
0.0
  0
LINE
  5
24B0
102
{ACAD_REACTORS
330
2765
102
}
330
2
100
AcDbEntity
  8
KIJUN
  6
Continuous
100
AcDbLine
 10
126.9956581746799
 20
266.0695665030646
 30
0.0
 11
122.7945464346828
 21
270.1061624430652
 31
0.0
  0
LINE
  5
24B1
102
{ACAD_REACTORS
330
2765
102
}
330
2
100
AcDbEntity
  8
KIJUN
  6
Continuous
100
AcDbLine
 10
122.7945464346828
 20
270.1061624430652
 30
0.0
 11
117.5402744946809
 21
271.9829379630676
 31
0.0
  0
LINE
  5
24B2
102
{ACAD_REACTORS
330
2765
102
}
330
2
100
AcDbEntity
  8
KIJUN
  6
Continuous
100
AcDbLine
 10
117.5402744946809
 20
271.9829379630676
 30
0.0
 11
111.8910350946817
 21
271.6229463030661
 31
0.0
  0
LINE
  5
24B3
102
{ACAD_REACTORS
330
2765
102
}
330
2
100
AcDbEntity
  8
KIJUN
  6
Continuous
100
AcDbLine
 10
106.6578781746814
 20
280.9666665030675
 30
0.0
 11
101.3779573146798
 21
281.1168033630722
 31
0.0
  0
LINE
  5
24B4
102
{ACAD_REACTORS
330
2765
102
}
330
2
100
AcDbEntity
  8
KIJUN
  6
Continuous
100
AcDbLine
 10
101.3779573146798
 20
281.1168033630722
 30
0.0
 11
96.47124119468571
 21
279.8527520430673
 31
0.0
  0
LINE
  5
24B5
102
{ACAD_REACTORS
330
2765
102
}
330
2
100
AcDbEntity
  8
KIJUN
  6
Continuous
100
AcDbLine
 10
96.47124119468571
 20
279.8527520430673
 30
0.0
 11
91.45480469467656
 21
277.3803516030735
 31
0.0
  0
LINE
  5
24B6
102
{ACAD_REACTORS
330
2765
102
}
330
2
100
AcDbEntity
  8
KIJUN
  6
Continuous
100
AcDbLine
 10
86.71584287467657
 20
281.3165540430632
 30
0.0
 11
86.96080301467668
 21
279.8296939230618
 31
0.0
  0
LINE
  5
24B7
102
{ACAD_REACTORS
330
2765
102
}
330
2
100
AcDbEntity
  8
KIJUN
  6
Continuous
100
AcDbLine
 10
86.96080301467668
 20
279.8296939230618
 30
0.0
 11
87.49113977467436
 21
278.4455590230678
 31
0.0
  0
LINE
  5
24B8
102
{ACAD_REACTORS
330
2765
102
}
330
2
100
AcDbEntity
  8
KIJUN
  6
Continuous
100
AcDbLine
 10
87.49113977467436
 20
278.4455590230678
 30
0.0
 11
87.99958427468231
 21
277.2671336430696
 31
0.0
  0
LINE
  5
24B9
102
{ACAD_REACTORS
330
2765
102
}
330
2
100
AcDbEntity
  8
KIJUN
  6
Continuous
100
AcDbLine
 10
91.45480469467656
 20
277.3803516030735
 30
0.0
 11
90.62484191468184
 21
273.6393659430691
 31
0.0
  0
LINE
  5
24BA
102
{ACAD_REACTORS
330
2765
102
}
330
2
100
AcDbEntity
  8
KIJUN
  6
Continuous
100
AcDbLine
 10
90.62484191468184
 20
273.6393659430691
 30
0.0
 11
90.01406081468031
 21
270.2841504030652
 31
0.0
  0
LINE
  5
24BB
102
{ACAD_REACTORS
330
2765
102
}
330
2
100
AcDbEntity
  8
KIJUN
  6
Continuous
100
AcDbLine
 10
90.01406081468031
 20
270.2841504030652
 30
0.0
 11
89.77635491467209
 21
266.6203705830662
 31
0.0
  0
LINE
  5
24BC
102
{ACAD_REACTORS
330
2765
102
}
330
2
100
AcDbEntity
  8
KIJUN
  6
Continuous
100
AcDbLine
 10
95.3878981746825
 20
264.5150865030668
 30
0.0
 11
111.8747130546774
 21
277.3574230230665
 31
0.0
  0
LINE
  5
24C1
102
{ACAD_REACTORS
330
2765
102
}
330
2
100
AcDbEntity
  8
KIJUN
  6
Continuous
100
AcDbLine
 10
142.5404581746777
 20
269.6966865030686
 30
0.0
 11
138.6099554946809
 21
279.1624333830728
 31
0.0
  0
LINE
  5
24C2
102
{ACAD_REACTORS
330
2765
102
}
330
2
100
AcDbEntity
  8
KIJUN
  6
Continuous
100
AcDbLine
 10
138.6099554946809
 20
279.1624333830728
 30
0.0
 11
130.9058230746786
 21
283.4090136630625
 31
0.0
  0
LINE
  5
24C3
102
{ACAD_REACTORS
330
2765
102
}
330
2
100
AcDbEntity
  8
KIJUN
  6
Continuous
100
AcDbLine
 10
130.9058230746786
 20
283.4090136630625
 30
0.0
 11
121.7100375546783
 21
284.390279163064
 31
0.0
  0
LINE
  5
24C4
102
{ACAD_REACTORS
330
2765
102
}
330
2
100
AcDbEntity
  8
KIJUN
  6
Continuous
100
AcDbLine
 10
137.8770181746777
 20
265.0332465030683
 30
0.0
 11
133.1748457146789
 21
272.2620966630752
 31
0.0
  0
LINE
  5
24C5
102
{ACAD_REACTORS
330
2765
102
}
330
2
100
AcDbEntity
  8
KIJUN
  6
Continuous
100
AcDbLine
 10
133.1748457146789
 20
272.2620966630752
 30
0.0
 11
125.4014093946816
 21
276.199983123071
 31
0.0
  0
LINE
  5
24C6
102
{ACAD_REACTORS
330
2765
102
}
330
2
100
AcDbEntity
  8
KIJUN
  6
Continuous
100
AcDbLine
 10
125.4014093946816
 20
276.199983123071
 30
0.0
 11
117.5402744946809
 21
276.2558148630701
 31
0.0
  0
LINE
  5
24C7
102
{ACAD_REACTORS
330
2765
102
}
330
2
100
AcDbEntity
  8
KIJUN
  6
Continuous
100
AcDbLine
 10
115.7256781746805
 20
325.2693465030611
 30
0.0
 11
122.4241915746754
 21
328.2347761830692
 31
0.0
  0
LINE
  5
24C8
102
{ACAD_REACTORS
330
2765
102
}
330
2
100
AcDbEntity
  8
KIJUN
  6
Continuous
100
AcDbLine
 10
122.4241915746754
 20
328.2347761830692
 30
0.0
 11
129.6271337346766
 21
328.3205316630605
 31
0.0
  0
LINE
  5
24C9
102
{ACAD_REACTORS
330
2765
102
}
330
2
100
AcDbEntity
  8
KIJUN
  6
Continuous
100
AcDbLine
 10
129.6271337346766
 20
328.3205316630605
 30
0.0
 11
136.0624218546772
 21
324.8067591630674
 31
0.0
  0
LINE
  5
24CA
102
{ACAD_REACTORS
330
2765
102
}
330
2
100
AcDbEntity
  8
KIJUN
  6
Continuous
100
AcDbLine
 10
111.8394781746756
 20
292.107106503066
 30
0.0
 11
118.3844866746763
 21
292.2313353630648
 31
0.0
  0
LINE
  5
24CB
102
{ACAD_REACTORS
330
2765
102
}
330
2
100
AcDbEntity
  8
KIJUN
  6
Continuous
100
AcDbLine
 10
118.3844866746763
 20
292.2313353630648
 30
0.0
 11
125.8946977146793
 21
291.0957877230662
 31
0.0
  0
LINE
  5
24CC
102
{ACAD_REACTORS
330
2765
102
}
330
2
100
AcDbEntity
  8
KIJUN
  6
Continuous
100
AcDbLine
 10
125.8946977146793
 20
291.0957877230662
 30
0.0
 11
130.3994512146823
 21
286.4379179430738
 31
0.0
  0
LINE
  5
24CD
102
{ACAD_REACTORS
330
2765
102
}
330
2
100
AcDbEntity
  8
KIJUN
  6
Continuous
100
AcDbLine
 10
110.155458174685
 20
317.6264865030739
 30
0.0
 11
114.9854866146782
 21
318.3678439230703
 31
0.0
  0
LINE
  5
24CE
102
{ACAD_REACTORS
330
2765
102
}
330
2
100
AcDbEntity
  8
KIJUN
  6
Continuous
100
AcDbLine
 10
114.9854866146782
 20
318.3678439230703
 30
0.0
 11
120.4299232746762
 21
318.0807832830674
 31
0.0
  0
LINE
  5
24CF
102
{ACAD_REACTORS
330
2765
102
}
330
2
100
AcDbEntity
  8
KIJUN
  6
Continuous
100
AcDbLine
 10
120.4299232746762
 20
318.0807832830674
 30
0.0
 11
124.47014633468
 21
316.1225271030656
 31
0.0
  0
LINE
  5
24D0
102
{ACAD_REACTORS
330
2765
102
}
330
2
100
AcDbEntity
  8
KIJUN
  6
Continuous
100
AcDbLine
 10
112.6167181746782
 20
307.9109865030655
 30
0.0
 11
124.7597977746777
 21
305.9439216030645
 31
0.0
  0
LINE
  5
24D1
102
{ACAD_REACTORS
330
2765
102
}
330
2
100
AcDbEntity
  8
KIJUN
  6
Continuous
100
AcDbLine
 10
113.1348781746796
 20
297.677326503062
 30
0.0
 11
120.1186386546799
 21
298.2256693230697
 31
0.0
  0
LINE
  5
24D2
102
{ACAD_REACTORS
330
2765
102
}
330
2
100
AcDbEntity
  8
KIJUN
  6
Continuous
100
AcDbLine
 10
120.1186386546799
 20
298.2256693230697
 30
0.0
 11
128.1992143146799
 21
297.3602125830744
 31
0.0
  0
LINE
  5
24D3
102
{ACAD_REACTORS
330
2765
102
}
330
2
100
AcDbEntity
  8
KIJUN
  6
Continuous
100
AcDbLine
 10
128.1992143146799
 20
297.3602125830744
 30
0.0
 11
133.4716218546762
 21
293.0496395430687
 31
0.0
  0
LINE
  5
24D4
102
{ACAD_REACTORS
330
2765
102
}
330
2
100
AcDbEntity
  8
KIJUN
  6
Continuous
100
AcDbLine
 10
111.4508581746745
 20
312.444886503072
 30
0.0
 11
104.9900506746808
 21
313.4133275430654
 31
0.0
  0
LINE
  5
24D5
102
{ACAD_REACTORS
330
2765
102
}
330
2
100
AcDbEntity
  8
KIJUN
  6
Continuous
100
AcDbLine
 10
104.9900506746808
 20
313.4133275430654
 30
0.0
 11
99.64808015467566
 21
311.8620860430733
 31
0.0
  0
LINE
  5
24D6
102
{ACAD_REACTORS
330
2765
102
}
330
2
100
AcDbEntity
  8
KIJUN
  6
Continuous
100
AcDbLine
 10
99.64808015467566
 20
311.8620860430733
 30
0.0
 11
94.56933491467998
 21
307.3540940430643
 31
0.0
  0
LINE
  5
24D7
102
{ACAD_REACTORS
330
2765
102
}
330
2
100
AcDbEntity
  8
KIJUN
  6
Continuous
100
AcDbLine
 10
107.5646581746841
 20
303.7657065030666
 30
0.0
 11
99.88267709468528
 21
305.7239626830683
 31
0.0
  0
LINE
  5
24D8
102
{ACAD_REACTORS
330
2765
102
}
330
2
100
AcDbEntity
  8
KIJUN
  6
Continuous
100
AcDbLine
 10
99.88267709468528
 20
305.7239626830683
 30
0.0
 11
93.49493015468192
 21
304.2369730230598
 31
0.0
  0
LINE
  5
24D9
102
{ACAD_REACTORS
330
2765
102
}
330
2
100
AcDbEntity
  8
KIJUN
  6
Continuous
100
AcDbLine
 10
93.49493015468192
 20
304.2369730230598
 30
0.0
 11
88.51113773468091
 21
297.6340601430725
 31
0.0
  0
LINE
  5
24DA
102
{ACAD_REACTORS
330
2765
102
}
330
2
100
AcDbEntity
  8
KIJUN
  6
Continuous
100
AcDbLine
 10
90.59491817468165
 20
310.3722465030655
 30
0.0
 11
85.30424549467671
 21
314.3487358830673
 31
0.0
  0
LINE
  5
24DB
102
{ACAD_REACTORS
330
2765
102
}
330
2
100
AcDbEntity
  8
KIJUN
  6
Continuous
100
AcDbLine
 10
85.30424549467671
 20
314.3487358830673
 30
0.0
 11
77.75374751467575
 21
315.1114674030645
 31
0.0
  0
LINE
  5
24DC
102
{ACAD_REACTORS
330
2765
102
}
330
2
100
AcDbEntity
  8
KIJUN
  6
Continuous
100
AcDbLine
 10
77.75374751467575
 20
315.1114674030645
 30
0.0
 11
71.54139773467886
 21
312.9177075030652
 31
0.0
  0
LINE
  5
24DD
102
{ACAD_REACTORS
330
2765
102
}
330
2
100
AcDbEntity
  8
KIJUN
  6
Continuous
100
AcDbLine
 10
92.79709817467391
 20
325.2693465030611
 30
0.0
 11
87.12596651467697
 21
327.2533811430699
 31
0.0
  0
LINE
  5
24DE
102
{ACAD_REACTORS
330
2765
102
}
330
2
100
AcDbEntity
  8
KIJUN
  6
Continuous
100
AcDbLine
 10
87.12596651467697
 20
327.2533811430699
 30
0.0
 11
80.53341683467966
 21
327.1033738230649
 31
0.0
  0
LINE
  5
24DF
102
{ACAD_REACTORS
330
2765
102
}
330
2
100
AcDbEntity
  8
KIJUN
  6
Continuous
100
AcDbLine
 10
80.53341683467966
 20
327.1033738230649
 30
0.0
 11
75.91557491467938
 21
323.3022816030757
 31
0.0
  0
LINE
  5
24E0
102
{ACAD_REACTORS
330
2765
102
}
330
2
100
AcDbEntity
  8
KIJUN
  6
Continuous
100
AcDbLine
 10
95.77651817468359
 20
322.6785465030673
 30
0.0
 11
101.6194198746757
 21
324.7996344630669
 31
0.0
  0
LINE
  5
24E1
102
{ACAD_REACTORS
330
2765
102
}
330
2
100
AcDbEntity
  8
KIJUN
  6
Continuous
100
AcDbLine
 10
101.6194198746757
 20
324.7996344630669
 30
0.0
 11
106.9796555346747
 21
325.0695958230704
 31
0.0
  0
LINE
  5
24E2
102
{ACAD_REACTORS
330
2765
102
}
330
2
100
AcDbEntity
  8
KIJUN
  6
Continuous
100
AcDbLine
 10
106.9796555346747
 20
325.0695958230704
 30
0.0
 11
113.1517183746737
 21
323.7200481030663
 31
0.0
  0
LINE
  5
24E3
102
{ACAD_REACTORS
330
2765
102
}
330
2
100
AcDbEntity
  8
KIJUN
  6
Continuous
100
AcDbLine
 10
139.1724181746815
 20
305.3201865030719
 30
0.0
 11
134.876224074683
 21
308.9368137630713
 31
0.0
  0
LINE
  5
24E4
102
{ACAD_REACTORS
330
2765
102
}
330
2
100
AcDbEntity
  8
KIJUN
  6
Continuous
100
AcDbLine
 10
134.876224074683
 20
308.9368137630713
 30
0.0
 11
129.6146978946822
 21
310.8050396430667
 31
0.0
  0
LINE
  5
24E5
102
{ACAD_REACTORS
330
2765
102
}
330
2
100
AcDbEntity
  8
KIJUN
  6
Continuous
100
AcDbLine
 10
129.6146978946822
 20
310.8050396430667
 30
0.0
 11
124.4630216346802
 21
309.9480030030641
 31
0.0
  0
LINE
  5
24E6
102
{ACAD_REACTORS
330
2765
102
}
330
2
100
AcDbEntity
  8
KIJUN
  6
Continuous
100
AcDbLine
 10
143.4472381746805
 20
291.5889465030718
 30
0.0
 11
140.6135506746764
 21
296.7011130630721
 31
0.0
  0
LINE
  5
24E7
102
{ACAD_REACTORS
330
2765
102
}
330
2
100
AcDbEntity
  8
KIJUN
  6
Continuous
100
AcDbLine
 10
140.6135506746764
 20
296.7011130630721
 30
0.0
 11
134.5988789346804
 21
299.1650934030653
 31
0.0
  0
LINE
  5
24E8
102
{ACAD_REACTORS
330
2765
102
}
330
2
100
AcDbEntity
  8
KIJUN
  6
Continuous
100
AcDbLine
 10
134.5988789346804
 20
299.1650934030653
 30
0.0
 11
129.1325500146854
 21
299.8035960630637
 31
0.0
  0
LINE
  5
24E9
102
{ACAD_REACTORS
330
2765
102
}
330
2
100
AcDbEntity
  8
KIJUN
  6
Continuous
100
AcDbLine
 10
143.0586181746719
 20
302.7293865030709
 30
0.0
 11
147.7388983746809
 21
306.87311202307
 31
0.0
  0
LINE
  5
24EA
102
{ACAD_REACTORS
330
2765
102
}
330
2
100
AcDbEntity
  8
KIJUN
  6
Continuous
100
AcDbLine
 10
147.7388983746809
 20
306.87311202307
 30
0.0
 11
153.0553495146848
 21
308.0343085830759
 31
0.0
  0
LINE
  5
24EB
102
{ACAD_REACTORS
330
2765
102
}
330
2
100
AcDbEntity
  8
KIJUN
  6
Continuous
100
AcDbLine
 10
153.0553495146848
 20
308.0343085830759
 30
0.0
 11
158.6570477346797
 21
306.3157014030653
 31
0.0
  0
LINE
  5
24EC
102
{ACAD_REACTORS
330
2765
102
}
330
2
100
AcDbEntity
  8
KIJUN
  6
Continuous
100
AcDbLine
 10
140.4678181746783
 20
309.983626503064
 30
0.0
 11
146.007207654686
 21
311.5519672830635
 31
0.0
  0
LINE
  5
24ED
102
{ACAD_REACTORS
330
2765
102
}
330
2
100
AcDbEntity
  8
KIJUN
  6
Continuous
100
AcDbLine
 10
146.007207654686
 20
311.5519672830635
 30
0.0
 11
152.4022088346817
 21
312.1175389230633
 31
0.0
  0
LINE
  5
24EE
102
{ACAD_REACTORS
330
2765
102
}
330
2
100
AcDbEntity
  8
KIJUN
  6
Continuous
100
AcDbLine
 10
152.4022088346817
 20
312.1175389230633
 30
0.0
 11
157.3493414346803
 21
309.983626503064
 31
0.0
  0
LINE
  5
24EF
102
{ACAD_REACTORS
330
2765
102
}
330
2
100
AcDbEntity
  8
KIJUN
  6
Continuous
100
AcDbLine
 10
140.4678181746783
 20
315.035686503073
 30
0.0
 11
147.0858872346841
 21
317.5851632430663
 31
0.0
  0
LINE
  5
24F0
102
{ACAD_REACTORS
330
2765
102
}
330
2
100
AcDbEntity
  8
KIJUN
  6
Continuous
100
AcDbLine
 10
147.0858872346841
 20
317.5851632430663
 30
0.0
 11
153.528429594684
 21
318.078062943066
 31
0.0
  0
LINE
  5
24F1
102
{ACAD_REACTORS
330
2765
102
}
330
2
100
AcDbEntity
  8
KIJUN
  6
Continuous
100
AcDbLine
 10
153.528429594684
 20
318.078062943066
 30
0.0
 11
160.4098534746829
 21
316.5396459030664
 31
0.0
  0
LINE
  5
24F2
102
{ACAD_REACTORS
330
2765
102
}
330
2
100
AcDbEntity
  8
KIJUN
  6
Continuous
100
AcDbLine
 10
139.1724181746815
 20
320.0877465030665
 30
0.0
 11
144.3023317146858
 21
326.4210866430715
 31
0.0
  0
LINE
  5
24F3
102
{ACAD_REACTORS
330
2765
102
}
330
2
100
AcDbEntity
  8
KIJUN
  6
Continuous
100
AcDbLine
 10
144.3023317146858
 20
326.4210866430715
 30
0.0
 11
152.7010576146829
 21
327.4067565030723
 31
0.0
  0
LINE
  5
24F4
102
{ACAD_REACTORS
330
2765
102
}
330
2
100
AcDbEntity
  8
KIJUN
  6
Continuous
100
AcDbLine
 10
152.7010576146829
 20
327.4067565030723
 30
0.0
 11
160.3976767146723
 21
325.1785389630672
 31
0.0
  0
LINE
  5
24F5
102
{ACAD_REACTORS
330
2765
102
}
330
2
100
AcDbEntity
  8
KIJUN
  6
Continuous
100
AcDbLine
 10
136.0634581746792
 20
313.9993665030702
 30
0.0
 11
130.8129428946802
 21
316.2746070630669
 31
0.0
  0
LINE
  5
24F6
102
{ACAD_REACTORS
330
2765
102
}
330
2
100
AcDbEntity
  8
KIJUN
  6
Continuous
100
AcDbLine
 10
130.8129428946802
 20
316.2746070630669
 30
0.0
 11
124.0703858946847
 21
316.8531327030664
 31
0.0
  0
LINE
  5
24F7
102
{ACAD_REACTORS
330
2765
102
}
330
2
100
AcDbEntity
  8
KIJUN
  6
Continuous
100
AcDbLine
 10
124.0703858946847
 20
316.8531327030664
 30
0.0
 11
120.4651581546782
 21
317.1230940630625
 31
0.0
  0
LINE
  5
24F8
102
{ACAD_REACTORS
330
2765
102
}
330
2
100
AcDbEntity
  8
KIJUN
  6
Continuous
100
AcDbLine
 10
64.16875817468599
 20
344.7003465030716
 30
0.0
 11
70.27138757467582
 21
343.6462795230641
 31
0.0
  0
LINE
  5
24F9
102
{ACAD_REACTORS
330
2765
102
}
330
2
100
AcDbEntity
  8
KIJUN
  6
Continuous
100
AcDbLine
 10
70.27138757467582
 20
343.6462795230641
 30
0.0
 11
77.84364827468221
 21
340.4325216630663
 31
0.0
  0
LINE
  5
24FA
102
{ACAD_REACTORS
330
2765
102
}
330
2
100
AcDbEntity
  8
KIJUN
  6
Continuous
100
AcDbLine
 10
77.84364827468221
 20
340.4325216630663
 30
0.0
 11
78.48344633468105
 21
334.981867083063
 31
0.0
  0
LINE
  5
24FB
102
{ACAD_REACTORS
330
2765
102
}
330
2
100
AcDbEntity
  8
KIJUN
  6
Continuous
100
AcDbLine
 10
62.87335817468193
 20
338.4824265030668
 30
0.0
 11
66.69439955467737
 21
338.3237400030623
 31
0.0
  0
LINE
  5
24FC
102
{ACAD_REACTORS
330
2765
102
}
330
2
100
AcDbEntity
  8
KIJUN
  6
Continuous
100
AcDbLine
 10
66.69439955467737
 20
338.3237400030623
 30
0.0
 11
70.07642987468216
 21
337.0598182230647
 31
0.0
  0
LINE
  5
24FD
102
{ACAD_REACTORS
330
2765
102
}
330
2
100
AcDbEntity
  8
KIJUN
  6
Continuous
100
AcDbLine
 10
70.07642987468216
 20
337.0598182230647
 30
0.0
 11
73.63385735467841
 21
334.8961116030655
 31
0.0
  0
LINE
  5
24FE
102
{ACAD_REACTORS
330
2765
102
}
330
2
100
AcDbEntity
  8
KIJUN
  6
Continuous
100
AcDbLine
 10
66.75955817468684
 20
376.1785665030688
 30
0.0
 11
72.40866803467975
 21
378.4539366030653
 31
0.0
  0
LINE
  5
24FF
102
{ACAD_REACTORS
330
2765
102
}
330
2
100
AcDbEntity
  8
KIJUN
  6
Continuous
100
AcDbLine
 10
72.40866803467975
 20
378.4539366030653
 30
0.0
 11
78.32113271468074
 21
378.4153336830736
 31
0.0
  0
LINE
  5
2500
102
{ACAD_REACTORS
330
2765
102
}
330
2
100
AcDbEntity
  8
KIJUN
  6
Continuous
100
AcDbLine
 10
78.32113271468074
 20
378.4153336830736
 30
0.0
 11
83.64108143467388
 21
375.1371944430698
 31
0.0
  0
LINE
  5
2501
102
{ACAD_REACTORS
330
2765
102
}
330
2
100
AcDbEntity
  8
KIJUN
  6
Continuous
100
AcDbLine
 10
65.46415817468278
 20
369.7015665030624
 30
0.0
 11
71.04746171468446
 21
371.2911518430705
 31
0.0
  0
LINE
  5
2502
102
{ACAD_REACTORS
330
2765
102
}
330
2
100
AcDbEntity
  8
KIJUN
  6
Continuous
100
AcDbLine
 10
71.04746171468446
 20
371.2911518430705
 30
0.0
 11
76.49928215468094
 21
370.6956564630632
 31
0.0
  0
LINE
  5
2503
102
{ACAD_REACTORS
330
2765
102
}
330
2
100
AcDbEntity
  8
KIJUN
  6
Continuous
100
AcDbLine
 10
76.49928215468094
 20
370.6956564630632
 30
0.0
 11
80.56891079467277
 21
366.1152516030683
 31
0.0
  0
LINE
  5
2504
102
{ACAD_REACTORS
330
2765
102
}
330
2
100
AcDbEntity
  8
KIJUN
  6
Continuous
100
AcDbLine
 10
64.94599817468088
 20
350.2705665030676
 30
0.0
 11
69.16913171468218
 21
351.6289229430699
 31
0.0
  0
LINE
  5
2505
102
{ACAD_REACTORS
330
2765
102
}
330
2
100
AcDbEntity
  8
KIJUN
  6
Continuous
100
AcDbLine
 10
69.16913171468218
 20
351.6289229430699
 30
0.0
 11
73.19484629468025
 21
351.5732207430633
 31
0.0
  0
LINE
  5
2506
102
{ACAD_REACTORS
330
2765
102
}
330
2
100
AcDbEntity
  8
KIJUN
  6
Continuous
100
AcDbLine
 10
73.19484629468025
 20
351.5732207430633
 30
0.0
 11
77.08907777468017
 21
348.7666071030665
 31
0.0
  0
LINE
  5
2507
102
{ACAD_REACTORS
330
2765
102
}
330
2
100
AcDbEntity
  8
KIJUN
  6
Continuous
100
AcDbLine
 10
64.5573781746798
 20
357.9134265030691
 30
0.0
 11
70.01645285468317
 21
358.6547839230657
 31
0.0
  0
LINE
  5
2508
102
{ACAD_REACTORS
330
2765
102
}
330
2
100
AcDbEntity
  8
KIJUN
  6
Continuous
100
AcDbLine
 10
70.01645285468317
 20
358.6547839230657
 30
0.0
 11
74.40034553467786
 21
357.596442123066
 31
0.0
  0
LINE
  5
2509
102
{ACAD_REACTORS
330
2765
102
}
330
2
100
AcDbEntity
  8
KIJUN
  6
Continuous
100
AcDbLine
 10
74.40034553467786
 20
357.596442123066
 30
0.0
 11
79.26677471468156
 21
354.3271116030678
 31
0.0
  0
LINE
  5
250A
102
{ACAD_REACTORS
330
2765
102
}
330
2
100
AcDbEntity
  8
KIJUN
  6
Continuous
100
AcDbLine
 10
64.94599817468088
 20
365.0381265030623
 30
0.0
 11
70.64990345467776
 21
365.4324462630715
 31
0.0
  0
LINE
  5
250B
102
{ACAD_REACTORS
330
2765
102
}
330
2
100
AcDbEntity
  8
KIJUN
  6
Continuous
100
AcDbLine
 10
70.64990345467776
 20
365.4324462630715
 30
0.0
 11
75.76168139467973
 21
363.3327324030647
 31
0.0
  0
LINE
  5
250C
102
{ACAD_REACTORS
330
2765
102
}
330
2
100
AcDbEntity
  8
KIJUN
  6
Continuous
100
AcDbLine
 10
75.76168139467973
 20
363.3327324030647
 30
0.0
 11
77.97759263468197
 21
356.9392857030765
 31
0.0
  0
LINE
  5
250D
102
{ACAD_REACTORS
330
2765
102
}
330
2
100
AcDbEntity
  8
KIJUN
  6
Continuous
100
AcDbLine
 10
65.46415817468278
 20
382.3964865030662
 30
0.0
 11
71.29604897468062
 21
384.0548575830721
 31
0.0
  0
LINE
  5
250E
102
{ACAD_REACTORS
330
2765
102
}
330
2
100
AcDbEntity
  8
KIJUN
  6
Continuous
100
AcDbLine
 10
71.29604897468062
 20
384.0548575830721
 30
0.0
 11
75.78979157467438
 21
381.316641063067
 31
0.0
  0
LINE
  5
250F
102
{ACAD_REACTORS
330
2765
102
}
330
2
100
AcDbEntity
  8
KIJUN
  6
Continuous
100
AcDbLine
 10
75.78979157467438
 20
381.316641063067
 30
0.0
 11
80.17355471467704
 21
377.8844787630719
 31
0.0
  0
LINE
  5
2510
102
{ACAD_REACTORS
330
2765
102
}
330
2
100
AcDbEntity
  8
KIJUN
  6
Continuous
100
AcDbLine
 10
137.4883981746763
 20
379.417066503072
 30
0.0
 11
141.6932665746833
 21
383.61221940307
 31
0.0
  0
LINE
  5
2511
102
{ACAD_REACTORS
330
2765
102
}
330
2
100
AcDbEntity
  8
KIJUN
  6
Continuous
100
AcDbLine
 10
141.6932665746833
 20
383.61221940307
 30
0.0
 11
148.1577011946806
 21
384.2078443230617
 31
0.0
  0
LINE
  5
2512
102
{ACAD_REACTORS
330
2765
102
}
330
2
100
AcDbEntity
  8
KIJUN
  6
Continuous
100
AcDbLine
 10
148.1577011946806
 20
384.2078443230617
 30
0.0
 11
153.8762444946828
 21
383.0033814030662
 31
0.0
  0
LINE
  5
2513
102
{ACAD_REACTORS
330
2765
102
}
330
2
100
AcDbEntity
  8
KIJUN
  6
Continuous
100
AcDbLine
 10
90.59491817468165
 20
384.4691265030654
 30
0.0
 11
85.85608589468121
 21
384.4862257830659
 31
0.0
  0
LINE
  5
2514
102
{ACAD_REACTORS
330
2765
102
}
330
2
100
AcDbEntity
  8
KIJUN
  6
Continuous
100
AcDbLine
 10
85.85608589468121
 20
384.4862257830659
 30
0.0
 11
81.77570543467846
 21
383.0634879630647
 31
0.0
  0
LINE
  5
2515
102
{ACAD_REACTORS
330
2765
102
}
330
2
100
AcDbEntity
  8
KIJUN
  6
Continuous
100
AcDbLine
 10
81.77570543467846
 20
383.0634879630647
 30
0.0
 11
79.34074205468187
 21
379.3783340430732
 31
0.0
  0
LINE
  5
2516
102
{ACAD_REACTORS
330
2765
102
}
330
2
100
AcDbEntity
  8
KIJUN
  6
Continuous
100
AcDbLine
 10
111.8394781746756
 20
367.4993865030633
 30
0.0
 11
119.503194114673
 21
368.2235151030675
 31
0.0
  0
LINE
  5
2517
102
{ACAD_REACTORS
330
2765
102
}
330
2
100
AcDbEntity
  8
KIJUN
  6
Continuous
100
AcDbLine
 10
119.503194114673
 20
368.2235151030675
 30
0.0
 11
127.0792114746823
 21
367.1995014030676
 31
0.0
  0
LINE
  5
2518
102
{ACAD_REACTORS
330
2765
102
}
330
2
100
AcDbEntity
  8
KIJUN
  6
Continuous
100
AcDbLine
 10
127.0792114746823
 20
367.1995014030676
 30
0.0
 11
132.1762218546869
 21
361.3677401430689
 31
0.0
  0
LINE
  5
2519
102
{ACAD_REACTORS
330
2765
102
}
330
2
100
AcDbEntity
  8
KIJUN
  6
Continuous
100
AcDbLine
 10
112.6167181746782
 20
351.8250465030646
 30
0.0
 11
117.0482815746768
 21
351.7093672830665
 31
0.0
  0
LINE
  5
251A
102
{ACAD_REACTORS
330
2765
102
}
330
2
100
AcDbEntity
  8
KIJUN
  6
Continuous
100
AcDbLine
 10
117.0482815746768
 20
351.7093672830665
 30
0.0
 11
121.4798449746827
 21
350.8994832030634
 31
0.0
  0
LINE
  5
251B
102
{ACAD_REACTORS
330
2765
102
}
330
2
100
AcDbEntity
  8
KIJUN
  6
Continuous
100
AcDbLine
 10
121.4798449746827
 20
350.8994832030634
 30
0.0
 11
125.6483126346866
 21
348.7013189430649
 31
0.0
  0
LINE
  5
251C
102
{ACAD_REACTORS
330
2765
102
}
330
2
100
AcDbEntity
  8
KIJUN
  6
Continuous
100
AcDbLine
 10
111.8394781746756
 20
363.4836465030653
 30
0.0
 11
117.2217356346857
 21
363.2866161630677
 31
0.0
  0
LINE
  5
251D
102
{ACAD_REACTORS
330
2765
102
}
330
2
100
AcDbEntity
  8
KIJUN
  6
Continuous
100
AcDbLine
 10
117.2217356346857
 20
363.2866161630677
 30
0.0
 11
122.3187460146832
 21
362.5238846430715
 31
0.0
  0
LINE
  5
251E
102
{ACAD_REACTORS
330
2765
102
}
330
2
100
AcDbEntity
  8
KIJUN
  6
Continuous
100
AcDbLine
 10
122.3187460146832
 20
362.5238846430715
 30
0.0
 11
127.4379077346837
 21
360.9383150430653
 31
0.0
  0
LINE
  5
251F
102
{ACAD_REACTORS
330
2765
102
}
330
2
100
AcDbEntity
  8
KIJUN
  6
Continuous
100
AcDbLine
 10
113.5234981746812
 20
355.8407865030708
 30
0.0
 11
120.8545553946828
 21
356.6334417630665
 31
0.0
  0
LINE
  5
2520
102
{ACAD_REACTORS
330
2765
102
}
330
2
100
AcDbEntity
  8
KIJUN
  6
Continuous
100
AcDbLine
 10
120.8545553946828
 20
356.6334417630665
 30
0.0
 11
129.9187282746859
 21
355.8577562430714
 31
0.0
  0
LINE
  5
2521
102
{ACAD_REACTORS
330
2765
102
}
330
2
100
AcDbEntity
  8
KIJUN
  6
Continuous
100
AcDbLine
 10
129.9187282746859
 20
355.8577562430714
 30
0.0
 11
134.353918794673
 21
350.1715979430705
 31
0.0
  0
LINE
  5
2522
102
{ACAD_REACTORS
330
2765
102
}
330
2
100
AcDbEntity
  8
KIJUN
  6
Continuous
100
AcDbLine
 10
115.7256781746805
 20
378.3807465030682
 30
0.0
 11
122.186485674682
 21
378.4878760830665
 31
0.0
  0
LINE
  5
2523
102
{ACAD_REACTORS
330
2765
102
}
330
2
100
AcDbEntity
  8
KIJUN
  6
Continuous
100
AcDbLine
 10
122.186485674682
 20
378.4878760830665
 30
0.0
 11
131.0825156346857
 21
377.2323744030705
 31
0.0
  0
LINE
  5
2524
102
{ACAD_REACTORS
330
2765
102
}
330
2
100
AcDbEntity
  8
KIJUN
  6
Continuous
100
AcDbLine
 10
131.0825156346857
 20
377.2323744030705
 30
0.0
 11
134.3841016146793
 21
372.249100143074
 31
0.0
  0
LINE
  5
2525
102
{ACAD_REACTORS
330
2765
102
}
330
2
100
AcDbEntity
  8
KIJUN
  6
Continuous
100
AcDbLine
 10
96.29467817467753
 20
356.3589465030723
 30
0.0
 11
101.4466135146783
 21
358.9900334430708
 31
0.0
  0
LINE
  5
2526
102
{ACAD_REACTORS
330
2765
102
}
330
2
100
AcDbEntity
  8
KIJUN
  6
Continuous
100
AcDbLine
 10
101.4466135146783
 20
358.9900334430708
 30
0.0
 11
106.1157532746783
 21
358.7414461830672
 31
0.0
  0
LINE
  5
2527
102
{ACAD_REACTORS
330
2765
102
}
330
2
100
AcDbEntity
  8
KIJUN
  6
Continuous
100
AcDbLine
 10
106.1157532746783
 20
358.7414461830672
 30
0.0
 11
111.0040747146795
 21
355.8963591630703
 31
0.0
  0
LINE
  5
2528
102
{ACAD_REACTORS
330
2765
102
}
330
2
100
AcDbEntity
  8
KIJUN
  6
Continuous
100
AcDbLine
 10
94.09249817467822
 20
359.9860665030685
 30
0.0
 11
88.10334581468351
 21
361.3529725830717
 31
0.0
  0
LINE
  5
2529
102
{ACAD_REACTORS
330
2765
102
}
330
2
100
AcDbEntity
  8
KIJUN
  6
Continuous
100
AcDbLine
 10
88.10334581468351
 20
361.3529725830717
 30
0.0
 11
82.04838713468257
 21
359.6604029430658
 31
0.0
  0
LINE
  5
252A
102
{ACAD_REACTORS
330
2765
102
}
330
2
100
AcDbEntity
  8
KIJUN
  6
Continuous
100
AcDbLine
 10
82.04838713468257
 20
359.6604029430658
 30
0.0
 11
79.28413307468009
 21
353.8544201430743
 31
0.0
  0
LINE
  5
252B
102
{ACAD_REACTORS
330
2765
102
}
330
2
100
AcDbEntity
  8
KIJUN
  6
Continuous
100
AcDbLine
 10
77.08907777468017
 20
348.7666071030665
 30
0.0
 11
78.24444503467202
 21
346.8254502030645
 31
0.0
  0
LINE
  5
252C
102
{ACAD_REACTORS
330
2765
102
}
330
2
100
AcDbEntity
  8
KIJUN
  6
Continuous
100
AcDbLine
 10
78.24444503467202
 20
346.8254502030645
 30
0.0
 11
79.28996237467936
 21
344.1130121430665
 31
0.0
  0
LINE
  5
252D
102
{ACAD_REACTORS
330
2765
102
}
330
2
100
AcDbEntity
  8
KIJUN
  6
Continuous
100
AcDbLine
 10
79.28996237467936
 20
344.1130121430665
 30
0.0
 11
79.26068633467616
 21
342.1717257030663
 31
0.0
  0
LINE
  5
252E
102
{ACAD_REACTORS
330
2765
102
}
330
2
100
AcDbEntity
  8
KIJUN
  6
Continuous
100
AcDbLine
 10
93.57433817467631
 20
349.7524065030662
 30
0.0
 11
87.61795943468177
 21
350.408008443071
 31
0.0
  0
LINE
  5
252F
102
{ACAD_REACTORS
330
2765
102
}
330
2
100
AcDbEntity
  8
KIJUN
  6
Continuous
100
AcDbLine
 10
87.61795943468177
 20
350.408008443071
 30
0.0
 11
82.05654815467733
 21
348.5954847630669
 31
0.0
  0
LINE
  5
2530
102
{ACAD_REACTORS
330
2765
102
}
330
2
100
AcDbEntity
  8
KIJUN
  6
Continuous
100
AcDbLine
 10
82.05654815467733
 20
348.5954847630669
 30
0.0
 11
78.46971509467812
 21
343.1576546430719
 31
0.0
  0
LINE
  5
2531
102
{ACAD_REACTORS
330
2765
102
}
330
2
100
AcDbEntity
  8
KIJUN
  6
Continuous
100
AcDbLine
 10
79.26677471468156
 20
354.3271116030678
 30
0.0
 11
79.39476023468228
 21
352.7415420030688
 31
0.0
  0
LINE
  5
2532
102
{ACAD_REACTORS
330
2765
102
}
330
2
100
AcDbEntity
  8
KIJUN
  6
Continuous
100
AcDbLine
 10
79.39476023468228
 20
352.7415420030688
 30
0.0
 11
79.63246613467617
 21
351.20727024307
 31
0.0
  0
LINE
  5
2533
102
{ACAD_REACTORS
330
2765
102
}
330
2
100
AcDbEntity
  8
KIJUN
  6
Continuous
100
AcDbLine
 10
79.63246613467617
 20
351.20727024307
 30
0.0
 11
79.76045165468462
 21
349.6989064830627
 31
0.0
  0
LINE
  5
2534
102
{ACAD_REACTORS
330
2765
102
}
330
2
100
AcDbEntity
  8
KIJUN
  6
Continuous
100
AcDbLine
 10
108.8600581746809
 20
350.788726503069
 30
0.0
 11
103.964223414682
 21
351.9801058830658
 31
0.0
  0
LINE
  5
2535
102
{ACAD_REACTORS
330
2765
102
}
330
2
100
AcDbEntity
  8
KIJUN
  6
Continuous
100
AcDbLine
 10
103.964223414682
 20
351.9801058830658
 30
0.0
 11
99.17810903468286
 21
350.4460932030729
 31
0.0
  0
LINE
  5
2536
102
{ACAD_REACTORS
330
2765
102
}
330
2
100
AcDbEntity
  8
KIJUN
  6
Continuous
100
AcDbLine
 10
99.17810903468286
 20
350.4460932030729
 30
0.0
 11
96.32227019467519
 21
346.1610395430684
 31
0.0
  0
LINE
  5
2537
102
{ACAD_REACTORS
330
2765
102
}
330
2
100
AcDbEntity
  8
KIJUN
  6
Continuous
100
AcDbLine
 10
97.07191817468038
 20
344.0526465030692
 30
0.0
 11
102.9039385146848
 21
346.4223217230724
 31
0.0
  0
LINE
  5
2538
102
{ACAD_REACTORS
330
2765
102
}
330
2
100
AcDbEntity
  8
KIJUN
  6
Continuous
100
AcDbLine
 10
102.9039385146848
 20
346.4223217230724
 30
0.0
 11
108.0558738546851
 21
345.5781095430625
 31
0.0
  0
LINE
  5
2539
102
{ACAD_REACTORS
330
2765
102
}
330
2
100
AcDbEntity
  8
KIJUN
  6
Continuous
100
AcDbLine
 10
108.0558738546851
 20
345.5781095430625
 30
0.0
 11
113.5587330546757
 21
342.0855816030693
 31
0.0
  0
LINE
  5
253A
102
{ACAD_REACTORS
330
2765
102
}
330
2
100
AcDbEntity
  8
KIJUN
  6
Continuous
100
AcDbLine
 10
79.25965001468148
 20
367.5688199430654
 30
0.0
 11
78.89408813467889
 21
365.9147236830743
 31
0.0
  0
LINE
  5
253B
102
{ACAD_REACTORS
330
2765
102
}
330
2
100
AcDbEntity
  8
KIJUN
  6
Continuous
100
AcDbLine
 10
78.89408813467889
 20
365.9147236830743
 30
0.0
 11
78.70392341468278
 21
364.1319942030634
 31
0.0
  0
LINE
  5
253C
102
{ACAD_REACTORS
330
2765
102
}
330
2
100
AcDbEntity
  8
KIJUN
  6
Continuous
100
AcDbLine
 10
78.70392341468278
 20
364.1319942030634
 30
0.0
 11
78.86494163468228
 21
362.4778979430735
 31
0.0
  0
LINE
  5
253D
102
{ACAD_REACTORS
330
2765
102
}
330
2
100
AcDbEntity
  8
KIJUN
  6
Continuous
100
AcDbLine
 10
83.64108143467388
 20
375.1371944430698
 30
0.0
 11
83.95910213467937
 21
374.6273250030695
 31
0.0
  0
LINE
  5
253E
102
{ACAD_REACTORS
330
2765
102
}
330
2
100
AcDbEntity
  8
KIJUN
  6
Continuous
100
AcDbLine
 10
83.95910213467937
 20
374.6273250030695
 30
0.0
 11
84.4746713346799
 21
373.6805171430673
 31
0.0
  0
LINE
  5
253F
102
{ACAD_REACTORS
330
2765
102
}
330
2
100
AcDbEntity
  8
KIJUN
  6
Continuous
100
AcDbLine
 10
84.4746713346799
 20
373.6805171430673
 30
0.0
 11
84.52946675467638
 21
373.170647703067
 31
0.0
  0
LINE
  5
2540
102
{ACAD_REACTORS
330
2765
102
}
330
2
100
AcDbEntity
  8
KIJUN
  6
Continuous
100
AcDbLine
 10
93.57433817467631
 20
368.1470865030655
 30
0.0
 11
88.83200831467888
 21
369.796778403071
 31
0.0
  0
LINE
  5
2541
102
{ACAD_REACTORS
330
2765
102
}
330
2
100
AcDbEntity
  8
KIJUN
  6
Continuous
100
AcDbLine
 10
88.83200831467888
 20
369.796778403071
 30
0.0
 11
84.33114101467799
 21
369.3126874230705
 31
0.0
  0
LINE
  5
2542
102
{ACAD_REACTORS
330
2765
102
}
330
2
100
AcDbEntity
  8
KIJUN
  6
Continuous
100
AcDbLine
 10
84.33114101467799
 20
369.3126874230705
 30
0.0
 11
79.25965001468148
 21
367.5688199430654
 31
0.0
  0
LINE
  5
2543
102
{ACAD_REACTORS
330
2765
102
}
330
2
100
AcDbEntity
  8
KIJUN
  6
Continuous
100
AcDbLine
 10
93.18571817468273
 20
377.8625865030667
 30
0.0
 11
87.34657313468529
 21
378.7411267830762
 31
0.0
  0
LINE
  5
2544
102
{ACAD_REACTORS
330
2765
102
}
330
2
100
AcDbEntity
  8
KIJUN
  6
Continuous
100
AcDbLine
 10
87.34657313468529
 20
378.7411267830762
 30
0.0
 11
81.81443789467698
 21
377.2542666630747
 31
0.0
  0
LINE
  5
2545
102
{ACAD_REACTORS
330
2765
102
}
330
2
100
AcDbEntity
  8
KIJUN
  6
Continuous
100
AcDbLine
 10
81.81443789467698
 20
377.2542666630747
 30
0.0
 11
78.87103001468017
 21
371.7309401430725
 31
0.0
  0
LINE
  5
2546
102
{ACAD_REACTORS
330
2765
102
}
330
2
100
AcDbEntity
  8
KIJUN
  6
Continuous
100
AcDbLine
 10
95.77651817468359
 20
369.7015665030624
 30
0.0
 11
101.5939004946824
 21
372.4910808630598
 31
0.0
  0
LINE
  5
2547
102
{ACAD_REACTORS
330
2765
102
}
330
2
100
AcDbEntity
  8
KIJUN
  6
Continuous
100
AcDbLine
 10
101.5939004946824
 20
372.4910808630598
 30
0.0
 11
106.9064654346775
 21
372.6581874630651
 31
0.0
  0
LINE
  5
2548
102
{ACAD_REACTORS
330
2765
102
}
330
2
100
AcDbEntity
  8
KIJUN
  6
Continuous
100
AcDbLine
 10
106.9064654346775
 20
372.6581874630651
 30
0.0
 11
111.8681065146747
 21
368.6601944430635
 31
0.0
  0
LINE
  5
2549
102
{ACAD_REACTORS
330
2765
102
}
330
2
100
AcDbEntity
  8
KIJUN
  6
Continuous
100
AcDbLine
 10
107.5646581746841
 20
365.0381265030623
 30
0.0
 11
103.7473734546838
 21
365.4623700030638
 31
0.0
  0
LINE
  5
254A
102
{ACAD_REACTORS
330
2765
102
}
330
2
100
AcDbEntity
  8
KIJUN
  6
Continuous
100
AcDbLine
 10
103.7473734546838
 20
365.4623700030638
 30
0.0
 11
100.0618309146798
 21
364.9610502030713
 31
0.0
  0
LINE
  5
254B
102
{ACAD_REACTORS
330
2765
102
}
330
2
100
AcDbEntity
  8
KIJUN
  6
Continuous
100
AcDbLine
 10
100.0618309146798
 20
364.9610502030713
 30
0.0
 11
96.31048205468438
 21
363.9967544430705
 31
0.0
  0
LINE
  5
254C
102
{ACAD_REACTORS
330
2765
102
}
330
2
100
AcDbEntity
  8
KIJUN
  6
Continuous
100
AcDbLine
 10
96.31048205468438
 20
363.9967544430705
 30
0.0
 11
95.86058963467577
 21
362.8697564430727
 31
0.0
  0
LINE
  5
254D
102
{ACAD_REACTORS
330
2765
102
}
330
2
100
AcDbEntity
  8
KIJUN
  6
Continuous
100
AcDbLine
 10
95.86058963467577
 20
362.8697564430727
 30
0.0
 11
95.54230985467938
 21
361.4601021630699
 31
0.0
  0
LINE
  5
254E
102
{ACAD_REACTORS
330
2765
102
}
330
2
100
AcDbEntity
  8
KIJUN
  6
Continuous
100
AcDbLine
 10
95.54230985467938
 20
361.4601021630699
 30
0.0
 11
95.42157857467737
 21
359.9473340430699
 31
0.0
  0
LINE
  5
254F
102
{ACAD_REACTORS
330
2765
102
}
330
2
100
AcDbEntity
  8
KIJUN
  6
Continuous
100
AcDbLine
 10
111.0622381746807
 20
373.7173065030688
 30
0.0
 11
106.1736576546809
 21
376.4511186630738
 31
0.0
  0
LINE
  5
2550
102
{ACAD_REACTORS
330
2765
102
}
330
2
100
AcDbEntity
  8
KIJUN
  6
Continuous
100
AcDbLine
 10
106.1736576546809
 20
376.4511186630738
 30
0.0
 11
100.056519774685
 21
376.9995910230659
 31
0.0
  0
LINE
  5
2551
102
{ACAD_REACTORS
330
2765
102
}
330
2
100
AcDbEntity
  8
KIJUN
  6
Continuous
100
AcDbLine
 10
100.056519774685
 20
376.9995910230659
 30
0.0
 11
96.35284163467895
 21
373.254719163067
 31
0.0
  0
LINE
  5
2552
102
{ACAD_REACTORS
330
2765
102
}
330
2
100
AcDbEntity
  8
KIJUN
  6
Continuous
100
AcDbLine
 10
138.2656381746862
 20
342.1095465030634
 30
0.0
 11
144.1304321346833
 21
344.5692520230718
 31
0.0
  0
LINE
  5
2553
102
{ACAD_REACTORS
330
2765
102
}
330
2
100
AcDbEntity
  8
KIJUN
  6
Continuous
100
AcDbLine
 10
144.1304321346833
 20
344.5692520230718
 30
0.0
 11
150.3683012946808
 21
344.8949155830673
 31
0.0
  0
LINE
  5
2554
102
{ACAD_REACTORS
330
2765
102
}
330
2
100
AcDbEntity
  8
KIJUN
  6
Continuous
100
AcDbLine
 10
150.3683012946808
 20
344.8949155830673
 30
0.0
 11
155.6408383746763
 21
344.6550075030631
 31
0.0
  0
LINE
  5
2555
102
{ACAD_REACTORS
330
2765
102
}
330
2
100
AcDbEntity
  8
KIJUN
  6
Continuous
100
AcDbLine
 10
140.0791981746772
 20
336.0211665030659
 30
0.0
 11
145.6843939746763
 21
338.2193307630718
 31
0.0
  0
LINE
  5
2556
102
{ACAD_REACTORS
330
2765
102
}
330
2
100
AcDbEntity
  8
KIJUN
  6
Continuous
100
AcDbLine
 10
145.6843939746763
 20
338.2193307630718
 30
0.0
 11
151.0263644946735
 21
338.2580632230706
 31
0.0
  0
LINE
  5
2557
102
{ACAD_REACTORS
330
2765
102
}
330
2
100
AcDbEntity
  8
KIJUN
  6
Continuous
100
AcDbLine
 10
151.0263644946735
 20
338.2580632230706
 30
0.0
 11
156.9607214346793
 21
337.0626681030649
 31
0.0
  0
LINE
  5
2558
102
{ACAD_REACTORS
330
2765
102
}
330
2
100
AcDbEntity
  8
KIJUN
  6
Continuous
100
AcDbLine
 10
136.5816181746809
 20
345.7366665030672
 30
0.0
 11
142.0260548346787
 21
351.1099857030727
 31
0.0
  0
LINE
  5
2559
102
{ACAD_REACTORS
330
2765
102
}
330
2
100
AcDbEntity
  8
KIJUN
  6
Continuous
100
AcDbLine
 10
142.0260548346787
 20
351.1099857030727
 30
0.0
 11
147.5580605346804
 21
353.089615983074
 31
0.0
  0
LINE
  5
255A
102
{ACAD_REACTORS
330
2765
102
}
330
2
100
AcDbEntity
  8
KIJUN
  6
Continuous
100
AcDbLine
 10
147.5580605346804
 20
353.089615983074
 30
0.0
 11
153.8578498146748
 21
353.3724018030703
 31
0.0
  0
LINE
  5
255B
102
{ACAD_REACTORS
330
2765
102
}
330
2
100
AcDbEntity
  8
KIJUN
  6
Continuous
100
AcDbLine
 10
120.13003817468
 20
346.1252865030687
 30
0.0
 11
125.132095734682
 21
346.0480806630708
 31
0.0
  0
LINE
  5
255C
102
{ACAD_REACTORS
330
2765
102
}
330
2
100
AcDbEntity
  8
KIJUN
  6
Continuous
100
AcDbLine
 10
125.132095734682
 20
346.0480806630708
 30
0.0
 11
129.8707984746834
 21
344.7368767830671
 31
0.0
  0
LINE
  5
255D
102
{ACAD_REACTORS
330
2765
102
}
330
2
100
AcDbEntity
  8
KIJUN
  6
Continuous
100
AcDbLine
 10
129.8707984746834
 20
344.7368767830671
 30
0.0
 11
133.1616326346811
 21
340.5719067030673
 31
0.0
  0
LINE
  5
255E
102
{ACAD_REACTORS
330
2765
102
}
330
2
100
AcDbEntity
  8
KIJUN
  6
Continuous
100
AcDbLine
 10
152.616079374673
 20
350.2083873030647
 30
0.0
 11
152.616079374673
 21
349.282694463071
 31
0.0
  0
LINE
  5
255F
102
{ACAD_REACTORS
330
2765
102
}
330
2
100
AcDbEntity
  8
KIJUN
  6
Continuous
100
AcDbLine
 10
137.4883981746763
 20
367.1107665030689
 30
0.0
 11
154.7646298146851
 21
371.1601869030705
 31
0.0
  0
LINE
  5
2560
102
{ACAD_REACTORS
330
2765
102
}
330
2
100
AcDbEntity
  8
KIJUN
  6
Continuous
100
AcDbLine
 10
137.4883981746763
 20
358.9497465030731
 30
0.0
 11
142.1759326146771
 21
362.7463048230695
 31
0.0
  0
LINE
  5
2561
102
{ACAD_REACTORS
330
2765
102
}
330
2
100
AcDbEntity
  8
KIJUN
  6
Continuous
100
AcDbLine
 10
142.1759326146771
 20
362.7463048230695
 30
0.0
 11
147.6750351546718
 21
364.1774627430645
 31
0.0
  0
LINE
  5
2562
102
{ACAD_REACTORS
330
2765
102
}
330
2
100
AcDbEntity
  8
KIJUN
  6
Continuous
100
AcDbLine
 10
147.6750351546718
 20
364.1774627430645
 30
0.0
 11
153.8762444946828
 21
363.5775630030653
 31
0.0
  0
LINE
  5
2563
102
{ACAD_REACTORS
330
2765
102
}
330
2
100
AcDbEntity
  8
KIJUN
  6
Continuous
100
AcDbLine
 10
139.1724181746815
 20
374.7536265030717
 30
0.0
 11
143.9695434546756
 21
376.7462107830647
 31
0.0
  0
LINE
  5
2564
102
{ACAD_REACTORS
330
2765
102
}
330
2
100
AcDbEntity
  8
KIJUN
  6
Continuous
100
AcDbLine
 10
143.9695434546756
 20
376.7462107830647
 30
0.0
 11
149.2493347746779
 21
376.8876684630699
 31
0.0
  0
LINE
  5
2565
102
{ACAD_REACTORS
330
2765
102
}
330
2
100
AcDbEntity
  8
KIJUN
  6
Continuous
100
AcDbLine
 10
149.2493347746779
 20
376.8876684630699
 30
0.0
 11
154.3754916546791
 21
375.7951281030705
 31
0.0
  0
LINE
  5
2566
102
{ACAD_REACTORS
330
2765
102
}
330
2
100
AcDbEntity
  8
KIJUN
  6
Continuous
100
AcDbLine
 10
120.13003817468
 20
374.2354665030703
 30
0.0
 11
123.7828070946768
 21
373.695673323062
 31
0.0
  0
LINE
  5
2567
102
{ACAD_REACTORS
330
2765
102
}
330
2
100
AcDbEntity
  8
KIJUN
  6
Continuous
100
AcDbLine
 10
123.7828070946768
 20
373.695673323062
 30
0.0
 11
128.0279624346815
 21
372.6930337230692
 31
0.0
  0
LINE
  5
2568
102
{ACAD_REACTORS
330
2765
102
}
330
2
100
AcDbEntity
  8
KIJUN
  6
Continuous
100
AcDbLine
 10
128.0279624346815
 20
372.6930337230692
 30
0.0
 11
130.4958289746851
 21
372.1531110030623
 31
0.0
  0
LINE
  5
2569
102
{ACAD_REACTORS
330
2765
102
}
330
2
100
AcDbEntity
  8
KIJUN
  6
Continuous
100
AcDbLine
 10
85.41331817467222
 20
389.1325665030731
 30
0.0
 11
81.71313761468537
 21
388.832681403062
 31
0.0
  0
LINE
  5
256A
102
{ACAD_REACTORS
330
2765
102
}
330
2
100
AcDbEntity
  8
KIJUN
  6
Continuous
100
AcDbLine
 10
81.71313761468537
 20
388.832681403062
 30
0.0
 11
78.38590271467729
 21
387.5043782430662
 31
0.0
  0
LINE
  5
256B
102
{ACAD_REACTORS
330
2765
102
}
330
2
100
AcDbEntity
  8
KIJUN
  6
Continuous
100
AcDbLine
 10
78.38590271467729
 20
387.5043782430662
 30
0.0
 11
76.72597715467237
 21
384.5048795430653
 31
0.0
  0
LINE
  5
256C
102
{ACAD_REACTORS
330
2765
102
}
330
2
100
AcDbEntity
  8
KIJUN
  6
Continuous
100
AcDbLine
 10
77.1227581746757
 20
387.448546503068
 30
0.0
 11
74.95451765468487
 21
387.3285924630695
 31
0.0
  0
LINE
  5
256D
102
{ACAD_REACTORS
330
2765
102
}
330
2
100
AcDbEntity
  8
KIJUN
  6
Continuous
100
AcDbLine
 10
74.95451765468487
 20
387.3285924630695
 30
0.0
 11
72.80829893467558
 21
387.1059132030645
 31
0.0
  0
LINE
  5
256E
102
{ACAD_REACTORS
330
2765
102
}
330
2
100
AcDbEntity
  8
KIJUN
  6
Continuous
100
AcDbLine
 10
72.80829893467558
 20
387.1059132030645
 30
0.0
 11
70.70599427467505
 21
386.9859591630659
 31
0.0
  0
LINE
  5
256F
102
{ACAD_REACTORS
330
2765
102
}
330
2
100
AcDbEntity
  8
KIJUN
  6
Continuous
100
AcDbLine
 10
109.7668381746766
 20
388.0962465030703
 30
0.0
 11
105.8764928946782
 21
388.2247501830684
 31
0.0
  0
LINE
  5
2570
102
{ACAD_REACTORS
330
2765
102
}
330
2
100
AcDbEntity
  8
KIJUN
  6
Continuous
100
AcDbLine
 10
105.8764928946782
 20
388.2247501830684
 30
0.0
 11
102.4686841146817
 21
387.5821022430623
 31
0.0
  0
LINE
  5
2571
102
{ACAD_REACTORS
330
2765
102
}
330
2
100
AcDbEntity
  8
KIJUN
  6
Continuous
100
AcDbLine
 10
102.4686841146817
 20
387.5821022430623
 30
0.0
 11
98.90737043468334
 21
386.0138910030695
 31
0.0
  0
LINE
  5
2572
102
{ACAD_REACTORS
330
2765
102
}
330
2
100
AcDbEntity
  8
KIJUN
  6
Continuous
100
AcDbLine
 10
95.3878981746825
 20
380.4533865030676
 30
0.0
 11
100.7627718546864
 21
382.8272070030637
 31
0.0
  0
LINE
  5
2573
102
{ACAD_REACTORS
330
2765
102
}
330
2
100
AcDbEntity
  8
KIJUN
  6
Continuous
100
AcDbLine
 10
100.7627718546864
 20
382.8272070030637
 30
0.0
 11
106.2692581746801
 21
383.4014578230704
 31
0.0
  0
LINE
  5
2574
102
{ACAD_REACTORS
330
2765
102
}
330
2
100
AcDbEntity
  8
KIJUN
  6
Continuous
100
AcDbLine
 10
106.2692581746801
 20
383.4014578230704
 30
0.0
 11
111.3810361146818
 21
381.3790793430758
 31
0.0
  0
LINE
  5
2575
102
{ACAD_REACTORS
330
2765
102
}
330
2
100
AcDbEntity
  8
KIJUN
  6
Continuous
100
AcDbLine
 10
139.5610381746828
 20
387.0599265030735
 30
0.0
 11
149.5321205946811
 21
387.0599265030735
 31
0.0
  0
LINE
  5
2576
102
{ACAD_REACTORS
330
2765
102
}
330
2
100
AcDbEntity
  8
KIJUN
  6
Continuous
100
AcDbLine
 10
137.5052383746774
 20
383.8117110030692
 30
0.0
 11
137.5052383746774
 21
381.844646103062
 31
0.0
  0
LINE
  5
2577
102
{ACAD_REACTORS
330
2765
102
}
330
2
100
AcDbEntity
  8
KIJUN
  6
Continuous
100
AcDbLine
 10
120.13003817468
 20
385.8940665030698
 30
0.0
 11
126.0388757346777
 21
386.4083403030703
 31
0.0
  0
LINE
  5
2578
102
{ACAD_REACTORS
330
2765
102
}
330
2
100
AcDbEntity
  8
KIJUN
  6
Continuous
100
AcDbLine
 10
126.0388757346777
 20
386.4083403030703
 30
0.0
 11
131.7940788546816
 21
385.7655628230645
 31
0.0
  0
LINE
  5
2579
102
{ACAD_REACTORS
330
2765
102
}
330
2
100
AcDbEntity
  8
KIJUN
  6
Continuous
100
AcDbLine
 10
131.7940788546816
 20
385.7655628230645
 30
0.0
 11
137.5052383746774
 21
383.8117110030692
 31
0.0
  0
LINE
  5
257A
102
{ACAD_REACTORS
330
2765
102
}
330
2
100
AcDbEntity
  8
KIJUN
  6
Continuous
100
AcDbLine
 10
192.4133581746746
 20
284.9824065030655
 30
0.0
 11
188.8447902546768
 21
289.0745751030658
 31
0.0
  0
LINE
  5
257B
102
{ACAD_REACTORS
330
2765
102
}
330
2
100
AcDbEntity
  8
KIJUN
  6
Continuous
100
AcDbLine
 10
188.8447902546768
 20
289.0745751030658
 30
0.0
 11
184.0037509146818
 21
289.8757800030701
 31
0.0
  0
LINE
  5
257C
102
{ACAD_REACTORS
330
2765
102
}
330
2
100
AcDbEntity
  8
KIJUN
  6
Continuous
100
AcDbLine
 10
184.0037509146818
 20
289.8757800030701
 30
0.0
 11
178.9870553346818
 21
288.5687214030672
 31
0.0
  0
LINE
  5
257D
102
{ACAD_REACTORS
330
2765
102
}
330
2
100
AcDbEntity
  8
KIJUN
  6
Continuous
100
AcDbLine
 10
165.5985781746849
 20
274.7487465030701
 30
0.0
 11
170.235073854677
 21
276.7155523230643
 31
0.0
  0
LINE
  5
257E
102
{ACAD_REACTORS
330
2765
102
}
330
2
100
AcDbEntity
  8
KIJUN
  6
Continuous
100
AcDbLine
 10
170.235073854677
 20
276.7155523230643
 30
0.0
 11
174.7834823346827
 21
277.2168721230714
 31
0.0
  0
LINE
  5
257F
102
{ACAD_REACTORS
330
2765
102
}
330
2
100
AcDbEntity
  8
KIJUN
  6
Continuous
100
AcDbLine
 10
174.7834823346827
 20
277.2168721230714
 30
0.0
 11
179.4195893946769
 21
275.7902481030683
 31
0.0
  0
LINE
  5
2580
102
{ACAD_REACTORS
330
2765
102
}
330
2
100
AcDbEntity
  8
KIJUN
  6
Continuous
100
AcDbLine
 10
186.4545181746775
 20
278.3758665030668
 30
0.0
 11
183.0906234546751
 21
282.0781197030651
 31
0.0
  0
LINE
  5
2581
102
{ACAD_REACTORS
330
2765
102
}
330
2
100
AcDbEntity
  8
KIJUN
  6
Continuous
100
AcDbLine
 10
183.0906234546751
 20
282.0781197030651
 30
0.0
 11
178.3666882746784
 21
284.3148868830708
 31
0.0
  0
LINE
  5
2582
102
{ACAD_REACTORS
330
2765
102
}
330
2
100
AcDbEntity
  8
KIJUN
  6
Continuous
100
AcDbLine
 10
178.3666882746784
 20
284.3148868830708
 30
0.0
 11
173.8182797946799
 21
283.9292463030684
 31
0.0
  0
LINE
  5
2583
102
{ACAD_REACTORS
330
2765
102
}
330
2
100
AcDbEntity
  8
KIJUN
  6
Continuous
100
AcDbLine
 10
184.2523381746855
 20
308.9473065030682
 30
0.0
 11
177.9924472146763
 21
311.1411959430665
 31
0.0
  0
LINE
  5
2584
102
{ACAD_REACTORS
330
2765
102
}
330
2
100
AcDbEntity
  8
KIJUN
  6
Continuous
100
AcDbLine
 10
177.9924472146763
 20
311.1411959430665
 30
0.0
 11
171.9521265546884
 21
310.6870287030656
 31
0.0
  0
LINE
  5
2585
102
{ACAD_REACTORS
330
2765
102
}
330
2
100
AcDbEntity
  8
KIJUN
  6
Continuous
100
AcDbLine
 10
171.9521265546884
 20
310.6870287030656
 30
0.0
 11
166.8771379746804
 21
306.4019750430682
 31
0.0
  0
LINE
  5
2586
102
{ACAD_REACTORS
330
2765
102
}
330
2
100
AcDbEntity
  8
KIJUN
  6
Continuous
100
AcDbLine
 10
193.7087581746786
 20
293.013886503069
 30
0.0
 11
188.5898555346764
 21
296.814719643074
 31
0.0
  0
LINE
  5
2587
102
{ACAD_REACTORS
330
2765
102
}
330
2
100
AcDbEntity
  8
KIJUN
  6
Continuous
100
AcDbLine
 10
188.5898555346764
 20
296.814719643074
 30
0.0
 11
183.4928451546796
 21
296.9647269630718
 31
0.0
  0
LINE
  5
2588
102
{ACAD_REACTORS
330
2765
102
}
330
2
100
AcDbEntity
  8
KIJUN
  6
Continuous
100
AcDbLine
 10
183.4928451546796
 20
296.9647269630718
 30
0.0
 11
178.1104581546774
 21
293.5922826030687
 31
0.0
  0
LINE
  5
2589
102
{ACAD_REACTORS
330
2765
102
}
330
2
100
AcDbEntity
  8
KIJUN
  6
Continuous
100
AcDbLine
 10
189.4339381746799
 20
302.3407665030695
 30
0.0
 11
182.9584926546804
 21
305.010326823068
 31
0.0
  0
LINE
  5
258A
102
{ACAD_REACTORS
330
2765
102
}
330
2
100
AcDbEntity
  8
KIJUN
  6
Continuous
100
AcDbLine
 10
182.9584926546804
 20
305.010326823068
 30
0.0
 11
176.0003810946803
 21
304.9547541630684
 31
0.0
  0
LINE
  5
258B
102
{ACAD_REACTORS
330
2765
102
}
330
2
100
AcDbEntity
  8
KIJUN
  6
Continuous
100
AcDbLine
 10
176.0003810946803
 20
304.9547541630684
 30
0.0
 11
170.3804177346767
 21
300.8368071030685
 31
0.0
  0
LINE
  5
2590
102
{ACAD_REACTORS
330
2766
102
}
330
2
100
AcDbEntity
  8
KIJUN
  6
Continuous
100
AcDbLine
 10
425.6910367482563
 20
243.5474830230697
 30
0.0
 11
426.3255236682529
 21
251.4101724030691
 31
0.0
  0
LINE
  5
2591
102
{ACAD_REACTORS
330
2766
102
}
330
2
100
AcDbEntity
  8
KIJUN
  6
Continuous
100
AcDbLine
 10
426.3255236682529
 20
251.4101724030691
 30
0.0
 11
428.0482761282573
 21
257.8208479230647
 31
0.0
  0
LINE
  5
2592
102
{ACAD_REACTORS
330
2766
102
}
330
2
100
AcDbEntity
  8
KIJUN
  6
Continuous
100
AcDbLine
 10
428.0482761282573
 20
257.8208479230647
 30
0.0
 11
432.219075508256
 21
261.4500405630655
 31
0.0
  0
LINE
  5
2593
102
{ACAD_REACTORS
330
2766
102
}
330
2
100
AcDbEntity
  8
KIJUN
  6
Continuous
100
AcDbLine
 10
432.219075508256
 20
261.4500405630655
 30
0.0
 11
437.2966548882581
 21
263.2641187230614
 31
0.0
  0
LINE
  5
2594
102
{ACAD_REACTORS
330
2766
102
}
330
2
100
AcDbEntity
  8
KIJUN
  6
Continuous
100
AcDbLine
 10
437.2966548882581
 20
263.2641187230614
 30
0.0
 11
442.1018116482549
 21
263.7480801630703
 31
0.0
  0
LINE
  5
2595
102
{ACAD_REACTORS
330
2766
102
}
330
2
100
AcDbEntity
  8
KIJUN
  6
Continuous
100
AcDbLine
 10
442.1018116482549
 20
263.7480801630703
 30
0.0
 11
446.9074865682563
 21
263.2641187230614
 31
0.0
  0
LINE
  5
2596
102
{ACAD_REACTORS
330
2766
102
}
330
2
100
AcDbEntity
  8
KIJUN
  6
Continuous
100
AcDbLine
 10
446.9074865682563
 20
263.2641187230614
 30
0.0
 11
450.9874784082611
 21
262.4174452830642
 31
0.0
  0
LINE
  5
2597
102
{ACAD_REACTORS
330
2766
102
}
330
2
100
AcDbEntity
  8
KIJUN
  6
Continuous
100
AcDbLine
 10
450.9874784082611
 20
262.4174452830642
 30
0.0
 11
454.3423053282585
 21
259.635444243065
 31
0.0
  0
LINE
  5
2598
102
{ACAD_REACTORS
330
2766
102
}
330
2
100
AcDbEntity
  8
KIJUN
  6
Continuous
100
AcDbLine
 10
454.3423053282585
 20
259.635444243065
 30
0.0
 11
456.0645396282501
 21
256.0067697630687
 31
0.0
  0
LINE
  5
2599
102
{ACAD_REACTORS
330
2766
102
}
330
2
100
AcDbEntity
  8
KIJUN
  6
Continuous
100
AcDbLine
 10
456.0645396282501
 20
256.0067697630687
 30
0.0
 11
457.1529347082572
 21
250.9260814230687
 31
0.0
  0
LINE
  5
259A
102
{ACAD_REACTORS
330
2766
102
}
330
2
100
AcDbEntity
  8
KIJUN
  6
Continuous
100
AcDbLine
 10
457.1529347082572
 20
250.9260814230687
 30
0.0
 11
457.4247096282582
 21
244.0314444630716
 31
0.0
  0
LINE
  5
259B
102
{ACAD_REACTORS
330
2766
102
}
330
2
100
AcDbEntity
  8
KIJUN
  6
Continuous
100
AcDbLine
 10
457.4247096282582
 20
244.0314444630716
 30
0.0
 11
425.6910367482563
 21
243.5474830230697
 31
0.0
  0
LINE
  5
259C
102
{ACAD_REACTORS
330
2766
102
}
330
2
100
AcDbEntity
  8
KIJUN
  6
Continuous
100
AcDbLine
 10
377.1135367482565
 20
241.2157630230697
 30
0.0
 11
377.9295092082652
 21
249.1993132230703
 31
0.0
  0
LINE
  5
259D
102
{ACAD_REACTORS
330
2766
102
}
330
2
100
AcDbEntity
  8
KIJUN
  6
Continuous
100
AcDbLine
 10
377.9295092082652
 20
249.1993132230703
 30
0.0
 11
381.1027210482661
 21
254.521593663066
 31
0.0
  0
LINE
  5
259E
102
{ACAD_REACTORS
330
2766
102
}
330
2
100
AcDbEntity
  8
KIJUN
  6
Continuous
100
AcDbLine
 10
381.1027210482661
 20
254.521593663066
 30
0.0
 11
385.4551355082543
 21
257.6668248630653
 31
0.0
  0
LINE
  5
259F
102
{ACAD_REACTORS
330
2766
102
}
330
2
100
AcDbEntity
  8
KIJUN
  6
Continuous
100
AcDbLine
 10
385.4551355082543
 20
257.6668248630653
 30
0.0
 11
391.8015591882585
 21
257.6668248630653
 31
0.0
  0
LINE
  5
25A0
102
{ACAD_REACTORS
330
2766
102
}
330
2
100
AcDbEntity
  8
KIJUN
  6
Continuous
100
AcDbLine
 10
391.8015591882585
 20
257.6668248630653
 30
0.0
 11
397.4232065682603
 21
256.0939501830672
 31
0.0
  0
LINE
  5
25A1
102
{ACAD_REACTORS
330
2766
102
}
330
2
100
AcDbEntity
  8
KIJUN
  6
Continuous
100
AcDbLine
 10
397.4232065682603
 20
256.0939501830672
 30
0.0
 11
402.5910753282517
 21
250.7716697430707
 31
0.0
  0
LINE
  5
25A2
102
{ACAD_REACTORS
330
2766
102
}
330
2
100
AcDbEntity
  8
KIJUN
  6
Continuous
100
AcDbLine
 10
402.5910753282517
 20
250.7716697430707
 30
0.0
 11
404.132342248259
 21
244.3608646830692
 31
0.0
  0
LINE
  5
25A3
102
{ACAD_REACTORS
330
2766
102
}
330
2
100
AcDbEntity
  8
KIJUN
  6
Continuous
100
AcDbLine
 10
404.132342248259
 20
244.3608646830692
 30
0.0
 11
404.5857322482642
 21
240.6109407630668
 31
0.0
  0
LINE
  5
25A4
102
{ACAD_REACTORS
330
2766
102
}
330
2
100
AcDbEntity
  8
KIJUN
  6
Continuous
100
AcDbLine
 10
404.5857322482642
 20
240.6109407630668
 30
0.0
 11
377.1135367482565
 21
241.2157630230697
 31
0.0
  0
LINE
  5
25A5
102
{ACAD_REACTORS
330
2766
102
}
330
2
100
AcDbEntity
  8
KIJUN
  6
Continuous
100
AcDbLine
 10
366.7763742882579
 20
240.0320265030627
 30
0.0
 11
366.7763742882579
 21
251.7651120030681
 31
0.0
  0
LINE
  5
25A6
102
{ACAD_REACTORS
330
2766
102
}
330
2
100
AcDbEntity
  8
KIJUN
  6
Continuous
100
AcDbLine
 10
366.7763742882579
 20
251.7651120030681
 30
0.0
 11
367.9549292082619
 21
260.2326236430702
 31
0.0
  0
LINE
  5
25A7
102
{ACAD_REACTORS
330
2766
102
}
330
2
100
AcDbEntity
  8
KIJUN
  6
Continuous
100
AcDbLine
 10
367.9549292082619
 20
260.2326236430702
 30
0.0
 11
372.3068255082602
 21
266.1598558830686
 31
0.0
  0
LINE
  5
25A8
102
{ACAD_REACTORS
330
2766
102
}
330
2
100
AcDbEntity
  8
KIJUN
  6
Continuous
100
AcDbLine
 10
372.3068255082602
 20
266.1598558830686
 30
0.0
 11
379.4697398082629
 21
269.9093911830662
 31
0.0
  0
LINE
  5
25A9
102
{ACAD_REACTORS
330
2766
102
}
330
2
100
AcDbEntity
  8
KIJUN
  6
Continuous
100
AcDbLine
 10
379.4697398082629
 20
269.9093911830662
 30
0.0
 11
387.9923059482602
 21
270.5142134430693
 31
0.0
  0
LINE
  5
25AA
102
{ACAD_REACTORS
330
2766
102
}
330
2
100
AcDbEntity
  8
KIJUN
  6
Continuous
100
AcDbLine
 10
387.9923059482602
 20
270.5142134430693
 30
0.0
 11
398.9634371682581
 21
270.5142134430693
 31
0.0
  0
LINE
  5
25AB
102
{ACAD_REACTORS
330
2766
102
}
330
2
100
AcDbEntity
  8
KIJUN
  6
Continuous
100
AcDbLine
 10
398.9634371682581
 20
270.5142134430693
 30
0.0
 11
408.5743983882552
 21
267.2481214230687
 31
0.0
  0
LINE
  5
25AC
102
{ACAD_REACTORS
330
2766
102
}
330
2
100
AcDbEntity
  8
KIJUN
  6
Continuous
100
AcDbLine
 10
408.5743983882552
 20
267.2481214230687
 30
0.0
 11
414.104849608257
 21
262.4098024230747
 31
0.0
  0
LINE
  5
25AD
102
{ACAD_REACTORS
330
2766
102
}
330
2
100
AcDbEntity
  8
KIJUN
  6
Continuous
100
AcDbLine
 10
414.104849608257
 20
262.4098024230747
 30
0.0
 11
416.4620889882583
 21
255.5151654630702
 31
0.0
  0
LINE
  5
25AE
102
{ACAD_REACTORS
330
2766
102
}
330
2
100
AcDbEntity
  8
KIJUN
  6
Continuous
100
AcDbLine
 10
416.4620889882583
 20
255.5151654630702
 30
0.0
 11
418.0940339082602
 21
246.926663463067
 31
0.0
  0
LINE
  5
25AF
102
{ACAD_REACTORS
330
2766
102
}
330
2
100
AcDbEntity
  8
KIJUN
  6
Continuous
100
AcDbLine
 10
418.0940339082602
 20
246.926663463067
 30
0.0
 11
418.0940339082602
 21
240.0320265030627
 31
0.0
  0
LINE
  5
25B0
102
{ACAD_REACTORS
330
2766
102
}
330
2
100
AcDbEntity
  8
KIJUN
  6
Continuous
100
AcDbLine
 10
418.0940339082602
 20
240.0320265030627
 30
0.0
 11
366.7763742882579
 21
240.0320265030627
 31
0.0
  0
LINE
  5
25B1
102
{ACAD_REACTORS
330
2766
102
}
330
2
100
AcDbEntity
  8
KIJUN
  6
Continuous
100
AcDbLine
 10
392.5329932934586
 20
349.3816630230754
 30
0.0
 11
398.1375413934605
 21
348.2795367030735
 31
0.0
  0
LINE
  5
25B2
102
{ACAD_REACTORS
330
2766
102
}
330
2
100
AcDbEntity
  8
KIJUN
  6
Continuous
100
AcDbLine
 10
398.1375413934605
 20
348.2795367030735
 30
0.0
 11
405.0921553734569
 21
344.9195281830648
 31
0.0
  0
LINE
  5
25B3
102
{ACAD_REACTORS
330
2766
102
}
330
2
100
AcDbEntity
  8
KIJUN
  6
Continuous
100
AcDbLine
 10
405.0921553734569
 20
344.9195281830648
 30
0.0
 11
405.6797488134597
 21
339.2209340430702
 31
0.0
  0
LINE
  5
25B4
102
{ACAD_REACTORS
330
2766
102
}
330
2
100
AcDbEntity
  8
KIJUN
  6
Continuous
100
AcDbLine
 10
391.3671332934549
 20
343.03420302307
 30
0.0
 11
394.8765014334562
 21
342.8683918230731
 31
0.0
  0
LINE
  5
25B5
102
{ACAD_REACTORS
330
2766
102
}
330
2
100
AcDbEntity
  8
KIJUN
  6
Continuous
100
AcDbLine
 10
394.8765014334562
 20
342.8683918230731
 30
0.0
 11
397.9826115534519
 21
341.546695203064
 31
0.0
  0
LINE
  5
25B6
102
{ACAD_REACTORS
330
2766
102
}
330
2
100
AcDbEntity
  8
KIJUN
  6
Continuous
100
AcDbLine
 10
397.9826115534519
 20
341.546695203064
 30
0.0
 11
401.249869433453
 21
339.2841495630678
 31
0.0
  0
LINE
  5
25B7
102
{ACAD_REACTORS
330
2766
102
}
330
2
100
AcDbEntity
  8
KIJUN
  6
Continuous
100
AcDbLine
 10
393.1806932934526
 20
400.0320265030628
 30
0.0
 11
393.1806932934527
 21
375.3304681230714
 31
0.0
  0
LINE
  5
25B8
102
{ACAD_REACTORS
330
2766
102
}
330
2
100
AcDbEntity
  8
KIJUN
  6
Continuous
100
AcDbLine
 10
393.1806932934527
 20
375.3304681230714
 30
0.0
 11
393.1806932934527
 21
364.6545585630652
 31
0.0
  0
LINE
  5
25B9
102
{ACAD_REACTORS
330
2766
102
}
330
2
100
AcDbEntity
  8
KIJUN
  6
Continuous
100
AcDbLine
 10
393.1806932934527
 20
364.6545585630652
 30
0.0
 11
391.7291975934607
 21
347.4359722230679
 31
0.0
  0
LINE
  5
25BA
102
{ACAD_REACTORS
330
2766
102
}
330
2
100
AcDbEntity
  8
KIJUN
  6
Continuous
100
AcDbLine
 10
391.7291975934607
 20
347.4359722230679
 30
0.0
 11
390.0359802534507
 21
331.7096866830728
 31
0.0
  0
LINE
  5
25BB
102
{ACAD_REACTORS
330
2766
102
}
330
2
100
AcDbEntity
  8
KIJUN
  6
Continuous
100
AcDbLine
 10
390.0359802534507
 20
331.7096866830728
 30
0.0
 11
385.6816226934578
 21
323.5592889630656
 31
0.0
  0
LINE
  5
25BC
102
{ACAD_REACTORS
330
2766
102
}
330
2
100
AcDbEntity
  8
KIJUN
  6
Continuous
100
AcDbLine
 10
385.6816226934578
 20
323.5592889630656
 30
0.0
 11
378.9083647134597
 21
317.9345326230717
 31
0.0
  0
LINE
  5
25BD
102
{ACAD_REACTORS
330
2766
102
}
330
2
100
AcDbEntity
  8
KIJUN
  6
Continuous
100
AcDbLine
 10
378.9083647134597
 20
317.9345326230717
 30
0.0
 11
372.377216993454
 21
309.4399471230694
 31
0.0
  0
LINE
  5
25BE
102
{ACAD_REACTORS
330
2766
102
}
330
2
100
AcDbEntity
  8
KIJUN
  6
Continuous
100
AcDbLine
 10
372.377216993454
 20
309.4399471230694
 30
0.0
 11
368.6278112334488
 21
299.3384179230683
 31
0.0
  0
LINE
  5
25BF
102
{ACAD_REACTORS
330
2766
102
}
330
2
100
AcDbEntity
  8
KIJUN
  6
Continuous
100
AcDbLine
 10
368.6278112334488
 20
299.3384179230683
 30
0.0
 11
369.3534943134531
 21
291.6471099630654
 31
0.0
  0
LINE
  5
25C0
102
{ACAD_REACTORS
330
2766
102
}
330
2
100
AcDbEntity
  8
KIJUN
  6
Continuous
100
AcDbLine
 10
369.3534943134531
 20
291.6471099630654
 30
0.0
 11
369.474355133454
 21
284.1857355030683
 31
0.0
  0
LINE
  5
25C1
102
{ACAD_REACTORS
330
2766
102
}
330
2
100
AcDbEntity
  8
KIJUN
  6
Continuous
100
AcDbLine
 10
369.474355133454
 20
284.1857355030683
 30
0.0
 11
372.9821687934485
 21
275.2316716230692
 31
0.0
  0
LINE
  5
25C2
102
{ACAD_REACTORS
330
2766
102
}
330
2
100
AcDbEntity
  8
KIJUN
  6
Continuous
100
AcDbLine
 10
372.9821687934485
 20
275.2316716230692
 30
0.0
 11
378.1825520934489
 21
269.8364601630675
 31
0.0
  0
LINE
  5
25C3
102
{ACAD_REACTORS
330
2766
102
}
330
2
100
AcDbEntity
  8
KIJUN
  6
Continuous
100
AcDbLine
 10
378.1825520934489
 20
269.8364601630675
 30
0.0
 11
388.1005231134499
 21
267.081403443069
 31
0.0
  0
LINE
  5
25C4
102
{ACAD_REACTORS
330
2766
102
}
330
2
100
AcDbEntity
  8
KIJUN
  6
Continuous
100
AcDbLine
 10
388.1005231134499
 20
267.081403443069
 30
0.0
 11
398.1398731134558
 21
268.2293869230692
 31
0.0
  0
LINE
  5
25C5
102
{ACAD_REACTORS
330
2766
102
}
330
2
100
AcDbEntity
  8
KIJUN
  6
Continuous
100
AcDbLine
 10
398.1398731134558
 20
268.2293869230692
 30
0.0
 11
408.0578441334559
 21
271.3291495830673
 31
0.0
  0
LINE
  5
25C6
102
{ACAD_REACTORS
330
2766
102
}
330
2
100
AcDbEntity
  8
KIJUN
  6
Continuous
100
AcDbLine
 10
408.0578441334559
 20
271.3291495830673
 30
0.0
 11
416.0403580134628
 21
280.0532799630622
 31
0.0
  0
LINE
  5
25C7
102
{ACAD_REACTORS
330
2766
102
}
330
2
100
AcDbEntity
  8
KIJUN
  6
Continuous
100
AcDbLine
 10
416.0403580134628
 20
280.0532799630622
 30
0.0
 11
418.8224885934536
 21
289.6958489430648
 31
0.0
  0
LINE
  5
25C8
102
{ACAD_REACTORS
330
2766
102
}
330
2
100
AcDbEntity
  8
KIJUN
  6
Continuous
100
AcDbLine
 10
418.8224885934536
 20
289.6958489430648
 30
0.0
 11
420.8782883934522
 21
299.7973781430659
 31
0.0
  0
LINE
  5
25C9
102
{ACAD_REACTORS
330
2766
102
}
330
2
100
AcDbEntity
  8
KIJUN
  6
Continuous
100
AcDbLine
 10
420.8782883934522
 20
299.7973781430659
 30
0.0
 11
421.9670720934486
 21
318.5082652830664
 31
0.0
  0
LINE
  5
25CA
102
{ACAD_REACTORS
330
2766
102
}
330
2
100
AcDbEntity
  8
KIJUN
  6
Continuous
100
AcDbLine
 10
421.9670720934486
 20
318.5082652830664
 30
0.0
 11
420.3948451134546
 21
346.6321765230625
 31
0.0
  0
LINE
  5
25CB
102
{ACAD_REACTORS
330
2766
102
}
330
2
100
AcDbEntity
  8
KIJUN
  6
Continuous
100
AcDbLine
 10
420.3948451134546
 20
346.6321765230625
 30
0.0
 11
420.2739842934605
 21
369.8203546830677
 31
0.0
  0
LINE
  5
25CC
102
{ACAD_REACTORS
330
2766
102
}
330
2
100
AcDbEntity
  8
KIJUN
  6
Continuous
100
AcDbLine
 10
420.2739842934605
 20
369.8203546830677
 30
0.0
 11
418.5843560491398
 21
400.0320265030627
 31
0.0
  0
LINE
  5
25CE
102
{ACAD_REACTORS
330
2766
102
}
330
2
100
AcDbEntity
  8
KIJUN
  6
Continuous
100
AcDbLine
 10
420.3840932934507
 20
341.8683430230662
 30
0.0
 11
414.1682459334577
 21
342.8718894030694
 31
0.0
  0
LINE
  5
25CF
102
{ACAD_REACTORS
330
2766
102
}
330
2
100
AcDbEntity
  8
KIJUN
  6
Continuous
100
AcDbLine
 10
414.1682459334577
 20
342.8718894030694
 30
0.0
 11
408.1943792934501
 21
340.2195579030699
 31
0.0
  0
LINE
  5
25D0
102
{ACAD_REACTORS
330
2766
102
}
330
2
100
AcDbEntity
  8
KIJUN
  6
Continuous
100
AcDbLine
 10
408.1943792934501
 20
340.2195579030699
 30
0.0
 11
404.8800983934556
 21
333.4008313830703
 31
0.0
  0
LINE
  5
25D1
102
{ACAD_REACTORS
330
2766
102
}
330
2
100
AcDbEntity
  8
KIJUN
  6
Continuous
100
AcDbLine
 10
382.9333020534535
 20
292.398312423063
 30
0.0
 11
381.1301052534535
 21
299.3737823430695
 31
0.0
  0
LINE
  5
25D2
102
{ACAD_REACTORS
330
2766
102
}
330
2
100
AcDbEntity
  8
KIJUN
  6
Continuous
100
AcDbLine
 10
381.1301052534535
 20
299.3737823430695
 30
0.0
 11
377.0905298934539
 21
304.6557758430675
 31
0.0
  0
LINE
  5
25D3
102
{ACAD_REACTORS
330
2766
102
}
330
2
100
AcDbEntity
  8
KIJUN
  6
Continuous
100
AcDbLine
 10
377.0905298934539
 20
304.6557758430675
 30
0.0
 11
371.7815920734551
 21
307.2764995830678
 31
0.0
  0
LINE
  5
25D4
102
{ACAD_REACTORS
330
2766
102
}
330
2
100
AcDbEntity
  8
KIJUN
  6
Continuous
100
AcDbLine
 10
377.7654332934561
 20
316.3489630230655
 30
0.0
 11
382.3087897134509
 21
309.6825755430667
 31
0.0
  0
LINE
  5
25D5
102
{ACAD_REACTORS
330
2766
102
}
330
2
100
AcDbEntity
  8
KIJUN
  6
Continuous
100
AcDbLine
 10
382.3087897134509
 20
309.6825755430667
 30
0.0
 11
384.0114634734549
 21
301.242008223065
 31
0.0
  0
LINE
  5
25D6
102
{ACAD_REACTORS
330
2766
102
}
330
2
100
AcDbEntity
  8
KIJUN
  6
Continuous
100
AcDbLine
 10
384.0114634734549
 20
301.242008223065
 30
0.0
 11
382.9333020534535
 21
292.398312423063
 31
0.0
  0
LINE
  5
25D7
102
{ACAD_REACTORS
330
2766
102
}
330
2
100
AcDbEntity
  8
KIJUN
  6
Continuous
100
AcDbLine
 10
411.575373293453
 20
294.4567030230622
 30
0.0
 11
406.3200650334559
 21
299.3623828230694
 31
0.0
  0
LINE
  5
25D8
102
{ACAD_REACTORS
330
2766
102
}
330
2
100
AcDbEntity
  8
KIJUN
  6
Continuous
100
AcDbLine
 10
406.3200650334559
 20
299.3623828230694
 30
0.0
 11
399.2110393734559
 21
298.381246863068
 31
0.0
  0
LINE
  5
25D9
102
{ACAD_REACTORS
330
2766
102
}
330
2
100
AcDbEntity
  8
KIJUN
  6
Continuous
100
AcDbLine
 10
399.2110393734559
 20
298.381246863068
 30
0.0
 11
393.7136208534597
 21
293.367789783066
 31
0.0
  0
LINE
  5
25DA
102
{ACAD_REACTORS
330
2766
102
}
330
2
100
AcDbEntity
  8
KIJUN
  6
Continuous
100
AcDbLine
 10
410.020893293455
 20
282.1504030230748
 30
0.0
 11
405.3934654134531
 21
282.7461574830726
 31
0.0
  0
LINE
  5
25DB
102
{ACAD_REACTORS
330
2766
102
}
330
2
100
AcDbEntity
  8
KIJUN
  6
Continuous
100
AcDbLine
 10
405.3934654134531
 20
282.7461574830726
 30
0.0
 11
400.6854636534548
 21
280.8689933430718
 31
0.0
  0
LINE
  5
25DC
102
{ACAD_REACTORS
330
2766
102
}
330
2
100
AcDbEntity
  8
KIJUN
  6
Continuous
100
AcDbLine
 10
400.6854636534548
 20
280.8689933430718
 30
0.0
 11
397.6901102334549
 21
275.7392093430673
 31
0.0
  0
LINE
  5
25DD
102
{ACAD_REACTORS
330
2766
102
}
330
2
100
AcDbEntity
  8
KIJUN
  6
Continuous
100
AcDbLine
 10
396.910279433458
 20
285.4205107830688
 30
0.0
 11
399.774667913451
 21
285.6355471830615
 31
0.0
  0
LINE
  5
25DE
102
{ACAD_REACTORS
330
2766
102
}
330
2
100
AcDbEntity
  8
KIJUN
  6
Continuous
100
AcDbLine
 10
399.774667913451
 20
285.6355471830615
 30
0.0
 11
404.3518342734549
 21
285.8507131230682
 31
0.0
  0
LINE
  5
25DF
102
{ACAD_REACTORS
330
2766
102
}
330
2
100
AcDbEntity
  8
KIJUN
  6
Continuous
100
AcDbLine
 10
404.3518342734549
 20
285.8507131230682
 30
0.0
 11
405.7052681934536
 21
285.4205107830688
 31
0.0
  0
LINE
  5
25E0
102
{ACAD_REACTORS
330
2766
102
}
330
2
100
AcDbEntity
  8
KIJUN
  6
Continuous
100
AcDbLine
 10
375.045093293454
 20
279.5596030230737
 30
0.0
 11
381.5161344534539
 21
283.7977632030625
 31
0.0
  0
LINE
  5
25E1
102
{ACAD_REACTORS
330
2766
102
}
330
2
100
AcDbEntity
  8
KIJUN
  6
Continuous
100
AcDbLine
 10
381.5161344534539
 20
283.7977632030625
 30
0.0
 11
388.2489759534482
 21
285.0790433430667
 31
0.0
  0
LINE
  5
25E2
102
{ACAD_REACTORS
330
2766
102
}
330
2
100
AcDbEntity
  8
KIJUN
  6
Continuous
100
AcDbLine
 10
388.2489759534482
 20
285.0790433430667
 30
0.0
 11
395.264085113456
 21
282.2207432430715
 31
0.0
  0
LINE
  5
25E3
102
{ACAD_REACTORS
330
2766
102
}
330
2
100
AcDbEntity
  8
KIJUN
  6
Continuous
100
AcDbLine
 10
370.2521132934538
 20
291.2182030230736
 30
0.0
 11
375.457289573459
 21
292.2485641830712
 31
0.0
  0
LINE
  5
25E4
102
{ACAD_REACTORS
330
2766
102
}
330
2
100
AcDbEntity
  8
KIJUN
  6
Continuous
100
AcDbLine
 10
375.457289573459
 20
292.2485641830712
 30
0.0
 11
380.1584257134558
 21
290.7523771830668
 31
0.0
  0
LINE
  5
25E5
102
{ACAD_REACTORS
330
2766
102
}
330
2
100
AcDbEntity
  8
KIJUN
  6
Continuous
100
AcDbLine
 10
380.1584257134558
 20
290.7523771830668
 30
0.0
 11
384.5775532734518
 21
286.3797544830652
 31
0.0
  0
LINE
  5
25E6
102
{ACAD_REACTORS
330
2766
102
}
330
2
100
AcDbEntity
  8
KIJUN
  6
Continuous
100
AcDbLine
 10
393.7136208534597
 20
293.367789783066
 30
0.0
 11
393.8243775534619
 21
292.6913319030648
 31
0.0
  0
LINE
  5
25E7
102
{ACAD_REACTORS
330
2766
102
}
330
2
100
AcDbEntity
  8
KIJUN
  6
Continuous
100
AcDbLine
 10
393.8243775534619
 20
292.6913319030648
 30
0.0
 11
394.116619793453
 21
292.0687626630653
 31
0.0
  0
LINE
  5
25E8
102
{ACAD_REACTORS
330
2766
102
}
330
2
100
AcDbEntity
  8
KIJUN
  6
Continuous
100
AcDbLine
 10
394.116619793453
 20
292.0687626630653
 30
0.0
 11
394.5295933134529
 21
291.7955628030717
 31
0.0
  0
LINE
  5
25E9
102
{ACAD_REACTORS
330
2766
102
}
330
2
100
AcDbEntity
  8
KIJUN
  6
Continuous
100
AcDbLine
 10
397.6901102334549
 20
275.7392093430673
 30
0.0
 11
398.0526926934507
 21
274.6508142630676
 31
0.0
  0
LINE
  5
25EA
102
{ACAD_REACTORS
330
2766
102
}
330
2
100
AcDbEntity
  8
KIJUN
  6
Continuous
100
AcDbLine
 10
386.5741532934539
 20
273.0826030230676
 30
0.0
 11
389.4150950334577
 21
277.9478663430631
 31
0.0
  0
LINE
  5
25EB
102
{ACAD_REACTORS
330
2766
102
}
330
2
100
AcDbEntity
  8
KIJUN
  6
Continuous
100
AcDbLine
 10
389.4150950334577
 20
277.9478663430631
 30
0.0
 11
392.9814607734519
 21
282.32929776307
 31
0.0
  0
LINE
  5
25EC
102
{ACAD_REACTORS
330
2766
102
}
330
2
100
AcDbEntity
  8
KIJUN
  6
Continuous
100
AcDbLine
 10
392.9814607734519
 20
282.32929776307
 30
0.0
 11
396.910279433458
 21
285.4205107830688
 31
0.0
  0
LINE
  5
25ED
102
{ACAD_REACTORS
330
2766
102
}
330
2
100
AcDbEntity
  8
KIJUN
  6
Continuous
100
AcDbLine
 10
416.7569732934551
 20
313.6286230230648
 30
0.0
 11
411.8979278934488
 21
317.7862093230652
 31
0.0
  0
LINE
  5
25EE
102
{ACAD_REACTORS
330
2766
102
}
330
2
100
AcDbEntity
  8
KIJUN
  6
Continuous
100
AcDbLine
 10
411.8979278934488
 20
317.7862093230652
 30
0.0
 11
404.9635221534598
 21
318.5836575630668
 31
0.0
  0
LINE
  5
25EF
102
{ACAD_REACTORS
330
2766
102
}
330
2
100
AcDbEntity
  8
KIJUN
  6
Continuous
100
AcDbLine
 10
404.9635221534598
 20
318.5836575630668
 30
0.0
 11
399.2578033134572
 21
316.2897632430698
 31
0.0
  0
LINE
  5
25F0
102
{ACAD_REACTORS
330
2766
102
}
330
2
100
AcDbEntity
  8
KIJUN
  6
Continuous
100
AcDbLine
 10
391.3671332934549
 20
335.0027230230657
 30
0.0
 11
397.1565349734587
 21
333.461456103066
 31
0.0
  0
LINE
  5
25F1
102
{ACAD_REACTORS
330
2766
102
}
330
2
100
AcDbEntity
  8
KIJUN
  6
Continuous
100
AcDbLine
 10
397.1565349734587
 20
333.461456103066
 30
0.0
 11
400.6287251334605
 21
327.4313691030694
 31
0.0
  0
LINE
  5
25F2
102
{ACAD_REACTORS
330
2766
102
}
330
2
100
AcDbEntity
  8
KIJUN
  6
Continuous
100
AcDbLine
 10
400.6287251334605
 20
327.4313691030694
 30
0.0
 11
402.4285538934567
 21
319.5195840630662
 31
0.0
  0
LINE
  5
25F3
102
{ACAD_REACTORS
330
2766
102
}
330
2
100
AcDbEntity
  8
KIJUN
  6
Continuous
100
AcDbLine
 10
415.2024932934499
 20
304.0426630230635
 30
0.0
 11
406.8007879734595
 21
309.0558610230668
 31
0.0
  0
LINE
  5
25F4
102
{ACAD_REACTORS
330
2766
102
}
330
2
100
AcDbEntity
  8
KIJUN
  6
Continuous
100
AcDbLine
 10
406.8007879734595
 20
309.0558610230668
 30
0.0
 11
395.3766553734548
 21
310.7629391430703
 31
0.0
  0
LINE
  5
25F5
102
{ACAD_REACTORS
330
2766
102
}
330
2
100
AcDbEntity
  8
KIJUN
  6
Continuous
100
AcDbLine
 10
395.3766553734548
 20
310.7629391430703
 30
0.0
 11
388.54627025345
 21
305.131446723068
 31
0.0
  0
LINE
  5
25F6
102
{ACAD_REACTORS
330
2766
102
}
330
2
100
AcDbEntity
  8
KIJUN
  6
Continuous
100
AcDbLine
 10
388.905873293454
 20
329.6915830230713
 30
0.0
 11
394.3829540334608
 21
325.0141527030695
 31
0.0
  0
LINE
  5
25F7
102
{ACAD_REACTORS
330
2766
102
}
330
2
100
AcDbEntity
  8
KIJUN
  6
Continuous
100
AcDbLine
 10
394.3829540334608
 20
325.0141527030695
 30
0.0
 11
395.3668103334552
 21
316.4661967230708
 31
0.0
  0
LINE
  5
25F8
102
{ACAD_REACTORS
330
2766
102
}
330
2
100
AcDbEntity
  8
KIJUN
  6
Continuous
100
AcDbLine
 10
395.3668103334552
 20
316.4661967230708
 30
0.0
 11
393.7110300534508
 21
307.1924281230607
 31
0.0
  0
LINE
  5
25F9
102
{ACAD_REACTORS
330
2766
102
}
330
2
100
AcDbEntity
  8
KIJUN
  6
Continuous
100
AcDbLine
 10
388.8405851334595
 20
322.2736044630695
 30
0.0
 11
392.0544725334579
 21
314.6573001630707
 31
0.0
  0
LINE
  5
25FA
102
{ACAD_REACTORS
330
2766
102
}
330
2
100
AcDbEntity
  8
KIJUN
  6
Continuous
100
AcDbLine
 10
392.0544725334579
 20
314.6573001630707
 30
0.0
 11
392.5481494734608
 21
306.4229605230622
 31
0.0
  0
LINE
  5
25FB
102
{ACAD_REACTORS
330
2766
102
}
330
2
100
AcDbEntity
  8
KIJUN
  6
Continuous
100
AcDbLine
 10
392.5481494734608
 20
306.4229605230622
 30
0.0
 11
389.6565575934609
 21
298.8069153030684
 31
0.0
  0
LINE
  5
25FC
102
{ACAD_REACTORS
330
2766
102
}
330
2
100
AcDbEntity
  8
KIJUN
  6
Continuous
100
AcDbLine
 10
385.6673732934586
 20
321.7896430230679
 30
0.0
 11
386.6714378334599
 21
321.9150377430679
 31
0.0
  0
LINE
  5
25FD
102
{ACAD_REACTORS
330
2766
102
}
330
2
100
AcDbEntity
  8
KIJUN
  6
Continuous
100
AcDbLine
 10
386.6714378334599
 20
321.9150377430679
 30
0.0
 11
387.8365205934518
 21
322.1480802030632
 31
0.0
  0
LINE
  5
25FE
102
{ACAD_REACTORS
330
2766
102
}
330
2
100
AcDbEntity
  8
KIJUN
  6
Continuous
100
AcDbLine
 10
387.8365205934518
 20
322.1480802030632
 30
0.0
 11
388.8405851334595
 21
322.2736044630695
 31
0.0
  0
LINE
  5
25FF
102
{ACAD_REACTORS
330
2766
102
}
330
2
100
AcDbEntity
  8
KIJUN
  6
Continuous
100
AcDbLine
 10
418.7000732934605
 20
329.1734230230698
 30
0.0
 11
413.49165851345
 21
331.2477470430753
 31
0.0
  0
LINE
  5
2600
102
{ACAD_REACTORS
330
2766
102
}
330
2
100
AcDbEntity
  8
KIJUN
  6
Continuous
100
AcDbLine
 10
413.49165851345
 20
331.2477470430753
 30
0.0
 11
407.4372179934552
 21
331.0910036430753
 31
0.0
  0
LINE
  5
2601
102
{ACAD_REACTORS
330
2766
102
}
330
2
100
AcDbEntity
  8
KIJUN
  6
Continuous
100
AcDbLine
 10
407.4372179934552
 20
331.0910036430753
 30
0.0
 11
403.1960783934577
 21
327.1171050630668
 31
0.0
  0
LINE
  5
2602
102
{ACAD_REACTORS
330
2766
102
}
330
2
100
AcDbEntity
  8
KIJUN
  6
Continuous
100
AcDbLine
 10
401.249869433453
 20
339.2841495630678
 30
0.0
 11
402.0356590734557
 21
335.69135766307
 31
0.0
  0
LINE
  5
2603
102
{ACAD_REACTORS
330
2766
102
}
330
2
100
AcDbEntity
  8
KIJUN
  6
Continuous
100
AcDbLine
 10
402.0356590734557
 20
335.69135766307
 30
0.0
 11
402.640092713453
 21
332.2326396630718
 31
0.0
  0
LINE
  5
2604
102
{ACAD_REACTORS
330
2766
102
}
330
2
100
AcDbEntity
  8
KIJUN
  6
Continuous
100
AcDbLine
 10
402.640092713453
 20
332.2326396630718
 30
0.0
 11
402.8819438934477
 21
328.6394591430683
 31
0.0
  0
LINE
  5
2605
102
{ACAD_REACTORS
330
2766
102
}
330
2
100
AcDbEntity
  8
KIJUN
  6
Continuous
100
AcDbLine
 10
416.7569732934551
 20
391.0935430230679
 30
0.0
 11
412.4049474534498
 21
391.111549083063
 31
0.0
  0
LINE
  5
2606
102
{ACAD_REACTORS
330
2766
102
}
330
2
100
AcDbEntity
  8
KIJUN
  6
Continuous
100
AcDbLine
 10
412.4049474534498
 20
391.111549083063
 30
0.0
 11
408.6573552534567
 21
389.6240412630655
 31
0.0
  0
LINE
  5
2607
102
{ACAD_REACTORS
330
2766
102
}
330
2
100
AcDbEntity
  8
KIJUN
  6
Continuous
100
AcDbLine
 10
408.6573552534567
 20
389.6240412630655
 30
0.0
 11
406.420847153451
 21
385.771133043065
 31
0.0
  0
LINE
  5
2608
102
{ACAD_REACTORS
330
2766
102
}
330
2
100
AcDbEntity
  8
KIJUN
  6
Continuous
100
AcDbLine
 10
393.6988532934551
 20
388.8913630230686
 30
0.0
 11
399.0550732134519
 21
390.6251263830668
 31
0.0
  0
LINE
  5
2609
102
{ACAD_REACTORS
330
2766
102
}
330
2
100
AcDbEntity
  8
KIJUN
  6
Continuous
100
AcDbLine
 10
399.0550732134519
 20
390.6251263830668
 30
0.0
 11
403.1820880734498
 21
387.7624219230725
 31
0.0
  0
LINE
  5
260A
102
{ACAD_REACTORS
330
2766
102
}
330
2
100
AcDbEntity
  8
KIJUN
  6
Continuous
100
AcDbLine
 10
403.1820880734498
 20
387.7624219230725
 30
0.0
 11
407.2081912734518
 21
384.1737753030761
 31
0.0
  0
LINE
  5
260B
102
{ACAD_REACTORS
330
2766
102
}
330
2
100
AcDbEntity
  8
KIJUN
  6
Continuous
100
AcDbLine
 10
394.8647132934588
 20
382.4143630230697
 30
0.0
 11
400.0527902934485
 21
384.793365123061
 31
0.0
  0
LINE
  5
260C
102
{ACAD_REACTORS
330
2766
102
}
330
2
100
AcDbEntity
  8
KIJUN
  6
Continuous
100
AcDbLine
 10
400.0527902934485
 20
384.793365123061
 30
0.0
 11
405.4828480134545
 21
384.7529486430635
 31
0.0
  0
LINE
  5
260D
102
{ACAD_REACTORS
330
2766
102
}
330
2
100
AcDbEntity
  8
KIJUN
  6
Continuous
100
AcDbLine
 10
405.4828480134545
 20
384.7529486430635
 30
0.0
 11
410.3687081934539
 21
381.3254497830662
 31
0.0
  0
LINE
  5
260E
102
{ACAD_REACTORS
330
2766
102
}
330
2
100
AcDbEntity
  8
KIJUN
  6
Continuous
100
AcDbLine
 10
393.3102332934608
 20
355.2109630230718
 30
0.0
 11
397.1887904334607
 21
356.6312395830705
 31
0.0
  0
LINE
  5
260F
102
{ACAD_REACTORS
330
2766
102
}
330
2
100
AcDbEntity
  8
KIJUN
  6
Continuous
100
AcDbLine
 10
397.1887904334607
 20
356.6312395830705
 30
0.0
 11
400.8861211134489
 21
356.5730761230693
 31
0.0
  0
LINE
  5
2610
102
{ACAD_REACTORS
330
2766
102
}
330
2
100
AcDbEntity
  8
KIJUN
  6
Continuous
100
AcDbLine
 10
400.8861211134489
 20
356.5730761230693
 30
0.0
 11
404.4624614334578
 21
353.6386065030706
 31
0.0
  0
LINE
  5
2611
102
{ACAD_REACTORS
330
2766
102
}
330
2
100
AcDbEntity
  8
KIJUN
  6
Continuous
100
AcDbLine
 10
392.921613293452
 20
363.371983023068
 30
0.0
 11
397.9350703734548
 21
364.1468913030751
 31
0.0
  0
LINE
  5
2612
102
{ACAD_REACTORS
330
2766
102
}
330
2
100
AcDbEntity
  8
KIJUN
  6
Continuous
100
AcDbLine
 10
397.9350703734548
 20
364.1468913030751
 30
0.0
 11
401.9614326534568
 21
363.0402310830671
 31
0.0
  0
LINE
  5
2613
102
{ACAD_REACTORS
330
2766
102
}
330
2
100
AcDbEntity
  8
KIJUN
  6
Continuous
100
AcDbLine
 10
401.9614326534568
 20
363.0402310830671
 30
0.0
 11
406.4309512734579
 21
359.6219295630738
 31
0.0
  0
LINE
  5
2614
102
{ACAD_REACTORS
330
2766
102
}
330
2
100
AcDbEntity
  8
KIJUN
  6
Continuous
100
AcDbLine
 10
393.6988532934551
 20
375.5487430230699
 30
0.0
 11
398.826564653455
 21
377.2108707630636
 31
0.0
  0
LINE
  5
2615
102
{ACAD_REACTORS
330
2766
102
}
330
2
100
AcDbEntity
  8
KIJUN
  6
Continuous
100
AcDbLine
 10
398.826564653455
 20
377.2108707630636
 30
0.0
 11
403.8334151934549
 21
376.5880424430727
 31
0.0
  0
LINE
  5
2616
102
{ACAD_REACTORS
330
2766
102
}
330
2
100
AcDbEntity
  8
KIJUN
  6
Continuous
100
AcDbLine
 10
403.8334151934549
 20
376.5880424430727
 30
0.0
 11
407.5709032734551
 21
371.7986895630679
 31
0.0
  0
LINE
  5
2617
102
{ACAD_REACTORS
330
2766
102
}
330
2
100
AcDbEntity
  8
KIJUN
  6
Continuous
100
AcDbLine
 10
393.3102332934608
 20
370.7557630230617
 30
0.0
 11
398.5487013534561
 21
371.1680888430731
 31
0.0
  0
LINE
  5
2618
102
{ACAD_REACTORS
330
2766
102
}
330
2
100
AcDbEntity
  8
KIJUN
  6
Continuous
100
AcDbLine
 10
398.5487013534561
 20
371.1680888430731
 30
0.0
 11
403.2433604934489
 21
368.9727744630604
 31
0.0
  0
LINE
  5
2619
102
{ACAD_REACTORS
330
2766
102
}
330
2
100
AcDbEntity
  8
KIJUN
  6
Continuous
100
AcDbLine
 10
403.2433604934489
 20
368.9727744630604
 30
0.0
 11
405.2784338934506
 21
362.2882513830666
 31
0.0
  0
LINE
  5
261A
102
{ACAD_REACTORS
330
2766
102
}
330
2
100
AcDbEntity
  8
KIJUN
  6
Continuous
100
AcDbLine
 10
419.7236983734559
 20
365.4446230230674
 30
0.0
 11
414.293381573459
 21
366.8737083030649
 31
0.0
  0
LINE
  5
261B
102
{ACAD_REACTORS
330
2766
102
}
330
2
100
AcDbEntity
  8
KIJUN
  6
Continuous
100
AcDbLine
 10
414.293381573459
 20
366.8737083030649
 30
0.0
 11
408.8634533934595
 21
365.1039328230686
 31
0.0
  0
LINE
  5
261C
102
{ACAD_REACTORS
330
2766
102
}
330
2
100
AcDbEntity
  8
KIJUN
  6
Continuous
100
AcDbLine
 10
408.8634533934595
 20
365.1039328230686
 30
0.0
 11
406.3953277734575
 21
359.0334293430674
 31
0.0
  0
LINE
  5
261D
102
{ACAD_REACTORS
330
2766
102
}
330
2
100
AcDbEntity
  8
KIJUN
  6
Continuous
100
AcDbLine
 10
419.6068532934572
 20
354.6928030230697
 30
0.0
 11
414.1366381734591
 21
355.378199163069
 31
0.0
  0
LINE
  5
261E
102
{ACAD_REACTORS
330
2766
102
}
330
2
100
AcDbEntity
  8
KIJUN
  6
Continuous
100
AcDbLine
 10
414.1366381734591
 20
355.378199163069
 30
0.0
 11
409.0290055134577
 21
353.4832880430706
 31
0.0
  0
LINE
  5
261F
102
{ACAD_REACTORS
330
2766
102
}
330
2
100
AcDbEntity
  8
KIJUN
  6
Continuous
100
AcDbLine
 10
409.0290055134577
 20
353.4832880430706
 30
0.0
 11
405.7348033134629
 21
347.7980365230664
 31
0.0
  0
LINE
  5
2620
102
{ACAD_REACTORS
330
2766
102
}
330
2
100
AcDbEntity
  8
KIJUN
  6
Continuous
100
AcDbLine
 10
404.4624614334578
 20
353.6386065030706
 30
0.0
 11
405.5235235734507
 21
351.6089737830701
 31
0.0
  0
LINE
  5
2621
102
{ACAD_REACTORS
330
2766
102
}
330
2
100
AcDbEntity
  8
KIJUN
  6
Continuous
100
AcDbLine
 10
405.5235235734507
 20
351.6089737830701
 30
0.0
 11
406.4839331334558
 21
348.7730841030693
 31
0.0
  0
LINE
  5
2622
102
{ACAD_REACTORS
330
2766
102
}
330
2
100
AcDbEntity
  8
KIJUN
  6
Continuous
100
AcDbLine
 10
406.4839331334558
 20
348.7730841030693
 30
0.0
 11
406.4569888134554
 21
346.7434513830615
 31
0.0
  0
LINE
  5
2623
102
{ACAD_REACTORS
330
2766
102
}
330
2
100
AcDbEntity
  8
KIJUN
  6
Continuous
100
AcDbLine
 10
406.4309512734579
 20
359.6219295630738
 30
0.0
 11
406.5485735934538
 21
357.9644652630709
 31
0.0
  0
LINE
  5
2624
102
{ACAD_REACTORS
330
2766
102
}
330
2
100
AcDbEntity
  8
KIJUN
  6
Continuous
100
AcDbLine
 10
406.5485735934538
 20
357.9644652630709
 30
0.0
 11
406.7668484934519
 21
356.3607600630696
 31
0.0
  0
LINE
  5
2625
102
{ACAD_REACTORS
330
2766
102
}
330
2
100
AcDbEntity
  8
KIJUN
  6
Continuous
100
AcDbLine
 10
406.7668484934519
 20
356.3607600630696
 30
0.0
 11
406.8843412734557
 21
354.7836105630645
 31
0.0
  0
LINE
  5
2626
102
{ACAD_REACTORS
330
2766
102
}
330
2
100
AcDbEntity
  8
KIJUN
  6
Continuous
100
AcDbLine
 10
419.2182332934548
 20
384.0983830230673
 30
0.0
 11
413.8555363734538
 21
385.01669208307
 31
0.0
  0
LINE
  5
2627
102
{ACAD_REACTORS
330
2766
102
}
330
2
100
AcDbEntity
  8
KIJUN
  6
Continuous
100
AcDbLine
 10
413.8555363734538
 20
385.01669208307
 30
0.0
 11
408.7747184934549
 21
383.4620825430661
 31
0.0
  0
LINE
  5
2628
102
{ACAD_REACTORS
330
2766
102
}
330
2
100
AcDbEntity
  8
KIJUN
  6
Continuous
100
AcDbLine
 10
408.7747184934549
 20
383.4620825430661
 30
0.0
 11
406.0714777734532
 21
377.6871893430675
 31
0.0
  0
LINE
  5
2629
102
{ACAD_REACTORS
330
2766
102
}
330
2
100
AcDbEntity
  8
KIJUN
  6
Continuous
100
AcDbLine
 10
410.3687081934539
 20
381.3254497830662
 30
0.0
 11
410.6609504334518
 21
380.7923926830674
 31
0.0
  0
LINE
  5
262A
102
{ACAD_REACTORS
330
2766
102
}
330
2
100
AcDbEntity
  8
KIJUN
  6
Continuous
100
AcDbLine
 10
410.6609504334518
 20
380.7923926830674
 30
0.0
 11
411.1345486734566
 21
379.8023184630688
 31
0.0
  0
LINE
  5
262B
102
{ACAD_REACTORS
330
2766
102
}
330
2
100
AcDbEntity
  8
KIJUN
  6
Continuous
100
AcDbLine
 10
411.1345486734566
 20
379.8023184630688
 30
0.0
 11
411.1846806534548
 21
379.2691318230704
 31
0.0
  0
LINE
  5
262C
102
{ACAD_REACTORS
330
2766
102
}
330
2
100
AcDbEntity
  8
KIJUN
  6
Continuous
100
AcDbLine
 10
419.6068532934572
 20
373.9942630230648
 30
0.0
 11
415.2513298734551
 21
375.7190881230656
 31
0.0
  0
LINE
  5
262D
102
{ACAD_REACTORS
330
2766
102
}
330
2
100
AcDbEntity
  8
KIJUN
  6
Continuous
100
AcDbLine
 10
415.2513298734551
 20
375.7190881230656
 30
0.0
 11
411.1175789334628
 21
375.2127162630691
 31
0.0
  0
LINE
  5
262E
102
{ACAD_REACTORS
330
2766
102
}
330
2
100
AcDbEntity
  8
KIJUN
  6
Continuous
100
AcDbLine
 10
411.1175789334628
 20
375.2127162630691
 30
0.0
 11
406.4600977734539
 21
373.3894407630701
 31
0.0
  0
LINE
  5
262F
102
{ACAD_REACTORS
330
2766
102
}
330
2
100
AcDbEntity
  8
KIJUN
  6
Continuous
100
AcDbLine
 10
406.4600977734539
 20
373.3894407630701
 30
0.0
 11
406.1243300934596
 21
371.6600817630701
 31
0.0
  0
LINE
  5
2630
102
{ACAD_REACTORS
330
2766
102
}
330
2
100
AcDbEntity
  8
KIJUN
  6
Continuous
100
AcDbLine
 10
406.1243300934596
 20
371.6600817630701
 30
0.0
 11
405.9497101734558
 21
369.7962602430666
 31
0.0
  0
LINE
  5
2631
102
{ACAD_REACTORS
330
2766
102
}
330
2
100
AcDbEntity
  8
KIJUN
  6
Continuous
100
AcDbLine
 10
405.9497101734558
 20
369.7962602430666
 30
0.0
 11
406.0975153134507
 21
368.0670307830744
 31
0.0
  0
LINE
  5
2632
102
{ACAD_REACTORS
330
2766
102
}
330
2
100
AcDbEntity
  8
KIJUN
  6
Continuous
100
AcDbLine
 10
404.45067329346
 20
394.20250302307
 30
0.0
 11
402.4593844134519
 21
394.0769787630638
 31
0.0
  0
LINE
  5
2633
102
{ACAD_REACTORS
330
2766
102
}
330
2
100
AcDbEntity
  8
KIJUN
  6
Continuous
100
AcDbLine
 10
402.4593844134519
 20
394.0769787630638
 30
0.0
 11
400.4881742334585
 21
393.8439363030686
 31
0.0
  0
LINE
  5
2634
102
{ACAD_REACTORS
330
2766
102
}
330
2
100
AcDbEntity
  8
KIJUN
  6
Continuous
100
AcDbLine
 10
400.4881742334585
 20
393.8439363030686
 30
0.0
 11
398.5571214534569
 21
393.7185415830686
 31
0.0
  0
LINE
  5
2635
102
{ACAD_REACTORS
330
2766
102
}
330
2
100
AcDbEntity
  8
KIJUN
  6
Continuous
100
AcDbLine
 10
411.9639932934537
 20
395.886523023069
 30
0.0
 11
408.5656409334531
 21
395.5729066830693
 31
0.0
  0
LINE
  5
2636
102
{ACAD_REACTORS
330
2766
102
}
330
2
100
AcDbEntity
  8
KIJUN
  6
Continuous
100
AcDbLine
 10
408.5656409334531
 20
395.5729066830693
 30
0.0
 11
405.5096627934489
 21
394.184108343062
 31
0.0
  0
LINE
  5
2637
102
{ACAD_REACTORS
330
2766
102
}
330
2
100
AcDbEntity
  8
KIJUN
  6
Continuous
100
AcDbLine
 10
405.5096627934489
 20
394.184108343062
 30
0.0
 11
403.984976993452
 21
391.048074483067
 31
0.0
  0
LINE
  5
2638
102
{ACAD_REACTORS
330
2766
102
}
330
2
100
AcDbEntity
  8
KIJUN
  6
Continuous
100
AcDbLine
 10
514.8295148936681
 20
241.733923023064
 30
0.0
 11
514.0135424336599
 21
249.7174732230718
 31
0.0
  0
LINE
  5
2639
102
{ACAD_REACTORS
330
2766
102
}
330
2
100
AcDbEntity
  8
KIJUN
  6
Continuous
100
AcDbLine
 10
514.0135424336599
 20
249.7174732230718
 30
0.0
 11
510.8403305936576
 21
255.0397536630685
 31
0.0
  0
LINE
  5
263A
102
{ACAD_REACTORS
330
2766
102
}
330
2
100
AcDbEntity
  8
KIJUN
  6
Continuous
100
AcDbLine
 10
510.8403305936576
 20
255.0397536630685
 30
0.0
 11
506.487916133663
 21
258.1849848630676
 31
0.0
  0
LINE
  5
263B
102
{ACAD_REACTORS
330
2766
102
}
330
2
100
AcDbEntity
  8
KIJUN
  6
Continuous
100
AcDbLine
 10
506.487916133663
 20
258.1849848630676
 30
0.0
 11
500.141492453667
 21
258.1849848630676
 31
0.0
  0
LINE
  5
263C
102
{ACAD_REACTORS
330
2766
102
}
330
2
100
AcDbEntity
  8
KIJUN
  6
Continuous
100
AcDbLine
 10
500.141492453667
 20
258.1849848630676
 30
0.0
 11
494.5198450736647
 21
256.6121101830688
 31
0.0
  0
LINE
  5
263D
102
{ACAD_REACTORS
330
2766
102
}
330
2
100
AcDbEntity
  8
KIJUN
  6
Continuous
100
AcDbLine
 10
494.5198450736647
 20
256.6121101830688
 30
0.0
 11
489.3519763136578
 21
251.2898297430733
 31
0.0
  0
LINE
  5
263E
102
{ACAD_REACTORS
330
2766
102
}
330
2
100
AcDbEntity
  8
KIJUN
  6
Continuous
100
AcDbLine
 10
489.3519763136578
 20
251.2898297430733
 30
0.0
 11
487.810709393666
 21
244.8790246830708
 31
0.0
  0
LINE
  5
263F
102
{ACAD_REACTORS
330
2766
102
}
330
2
100
AcDbEntity
  8
KIJUN
  6
Continuous
100
AcDbLine
 10
487.810709393666
 20
244.8790246830708
 30
0.0
 11
487.3573193936599
 21
241.1291007630682
 31
0.0
  0
LINE
  5
2640
102
{ACAD_REACTORS
330
2766
102
}
330
2
100
AcDbEntity
  8
KIJUN
  6
Continuous
100
AcDbLine
 10
487.3573193936599
 20
241.1291007630682
 30
0.0
 11
514.8295148936681
 21
241.733923023064
 31
0.0
  0
LINE
  5
2641
102
{ACAD_REACTORS
330
2766
102
}
330
2
100
AcDbEntity
  8
KIJUN
  6
Continuous
100
AcDbLine
 10
526.7763742882578
 20
240.0320265030627
 30
0.0
 11
525.1666773536667
 21
252.4128120030704
 31
0.0
  0
LINE
  5
2642
102
{ACAD_REACTORS
330
2766
102
}
330
2
100
AcDbEntity
  8
KIJUN
  6
Continuous
100
AcDbLine
 10
525.1666773536667
 20
252.4128120030704
 30
0.0
 11
522.9002455136597
 21
260.3963622030708
 31
0.0
  0
LINE
  5
2643
102
{ACAD_REACTORS
330
2766
102
}
330
2
100
AcDbEntity
  8
KIJUN
  6
Continuous
100
AcDbLine
 10
522.9002455136597
 20
260.3963622030708
 30
0.0
 11
518.638638593667
 21
267.4123781430666
 31
0.0
  0
LINE
  5
2644
102
{ACAD_REACTORS
330
2766
102
}
330
2
100
AcDbEntity
  8
KIJUN
  6
Continuous
100
AcDbLine
 10
518.638638593667
 20
267.4123781430666
 30
0.0
 11
512.019921833657
 21
269.9521393830657
 31
0.0
  0
LINE
  5
2645
102
{ACAD_REACTORS
330
2766
102
}
330
2
100
AcDbEntity
  8
KIJUN
  6
Continuous
100
AcDbLine
 10
512.019921833657
 20
269.9521393830657
 30
0.0
 11
501.049308773664
 21
271.1619134430707
 31
0.0
  0
LINE
  5
2646
102
{ACAD_REACTORS
330
2766
102
}
330
2
100
AcDbEntity
  8
KIJUN
  6
Continuous
100
AcDbLine
 10
501.049308773664
 20
271.1619134430707
 30
0.0
 11
491.0757650936639
 21
270.5570911830686
 31
0.0
  0
LINE
  5
2647
102
{ACAD_REACTORS
330
2766
102
}
330
2
100
AcDbEntity
  8
KIJUN
  6
Continuous
100
AcDbLine
 10
491.0757650936639
 20
270.5570911830686
 30
0.0
 11
483.3686532536626
 21
267.895821423071
 31
0.0
  0
LINE
  5
2648
102
{ACAD_REACTORS
330
2766
102
}
330
2
100
AcDbEntity
  8
KIJUN
  6
Continuous
100
AcDbLine
 10
483.3686532536626
 20
267.895821423071
 30
0.0
 11
477.8382020336598
 21
263.0575024230615
 31
0.0
  0
LINE
  5
2649
102
{ACAD_REACTORS
330
2766
102
}
330
2
100
AcDbEntity
  8
KIJUN
  6
Continuous
100
AcDbLine
 10
477.8382020336598
 20
263.0575024230615
 30
0.0
 11
475.4809626536589
 21
256.1628654630717
 31
0.0
  0
LINE
  5
264A
102
{ACAD_REACTORS
330
2766
102
}
330
2
100
AcDbEntity
  8
KIJUN
  6
Continuous
100
AcDbLine
 10
475.4809626536589
 20
256.1628654630717
 30
0.0
 11
473.8490177336648
 21
247.5743634630692
 31
0.0
  0
LINE
  5
264B
102
{ACAD_REACTORS
330
2766
102
}
330
2
100
AcDbEntity
  8
KIJUN
  6
Continuous
100
AcDbLine
 10
473.8490177336648
 20
247.5743634630692
 30
0.0
 11
473.8490177336649
 21
240.0320265030627
 31
0.0
  0
LINE
  5
264D
102
{ACAD_REACTORS
330
2766
102
}
330
2
100
AcDbEntity
  8
KIJUN
  6
Continuous
100
AcDbLine
 10
499.4142548936629
 20
339.2775430230724
 30
0.0
 11
496.2945430736649
 21
343.5739962030698
 31
0.0
  0
LINE
  5
264E
102
{ACAD_REACTORS
330
2766
102
}
330
2
100
AcDbEntity
  8
KIJUN
  6
Continuous
100
AcDbLine
 10
496.2945430736649
 20
343.5739962030698
 30
0.0
 11
491.7443210336682
 21
345.3437716830661
 31
0.0
  0
LINE
  5
264F
102
{ACAD_REACTORS
330
2766
102
}
330
2
100
AcDbEntity
  8
KIJUN
  6
Continuous
100
AcDbLine
 10
491.7443210336682
 20
345.3437716830661
 30
0.0
 11
486.9926642936597
 21
345.6887367030724
 31
0.0
  0
LINE
  5
2650
102
{ACAD_REACTORS
330
2766
102
}
330
2
100
AcDbEntity
  8
KIJUN
  6
Continuous
100
AcDbLine
 10
473.1176348936678
 20
340.3138630230681
 30
0.0
 11
478.2656840336662
 21
342.6121617030715
 31
0.0
  0
LINE
  5
2651
102
{ACAD_REACTORS
330
2766
102
}
330
2
100
AcDbEntity
  8
KIJUN
  6
Continuous
100
AcDbLine
 10
478.2656840336662
 20
342.6121617030715
 30
0.0
 11
483.1717524536639
 21
342.6525781830692
 31
0.0
  0
LINE
  5
2652
102
{ACAD_REACTORS
330
2766
102
}
330
2
100
AcDbEntity
  8
KIJUN
  6
Continuous
100
AcDbLine
 10
483.1717524536639
 20
342.6525781830692
 30
0.0
 11
488.621629793663
 21
341.4026467230656
 31
0.0
  0
LINE
  5
2653
102
{ACAD_REACTORS
330
2766
102
}
330
2
100
AcDbEntity
  8
KIJUN
  6
Continuous
100
AcDbLine
 10
497.3416148936649
 20
400.0320265030626
 30
0.0
 11
497.3416148936649
 21
375.9781681230665
 31
0.0
  0
LINE
  5
2654
102
{ACAD_REACTORS
330
2766
102
}
330
2
100
AcDbEntity
  8
KIJUN
  6
Continuous
100
AcDbLine
 10
497.3416148936649
 20
375.9781681230665
 30
0.0
 11
497.3416148936649
 21
365.3022585630672
 31
0.0
  0
LINE
  5
2655
102
{ACAD_REACTORS
330
2766
102
}
330
2
100
AcDbEntity
  8
KIJUN
  6
Continuous
100
AcDbLine
 10
497.3416148936649
 20
365.3022585630672
 30
0.0
 11
498.7931105936641
 21
348.0836722230701
 31
0.0
  0
LINE
  5
2656
102
{ACAD_REACTORS
330
2766
102
}
330
2
100
AcDbEntity
  8
KIJUN
  6
Continuous
100
AcDbLine
 10
498.7931105936641
 20
348.0836722230701
 30
0.0
 11
499.639654493662
 21
335.9155914030666
 31
0.0
  0
LINE
  5
2657
102
{ACAD_REACTORS
330
2766
102
}
330
2
100
AcDbEntity
  8
KIJUN
  6
Continuous
100
AcDbLine
 10
499.639654493662
 20
335.9155914030666
 30
0.0
 11
503.873151233668
 21
325.9288346430616
 31
0.0
  0
LINE
  5
2658
102
{ACAD_REACTORS
330
2766
102
}
330
2
100
AcDbEntity
  8
KIJUN
  6
Continuous
100
AcDbLine
 10
503.873151233668
 20
325.9288346430616
 30
0.0
 11
511.4930826536628
 21
318.1232724030683
 31
0.0
  0
LINE
  5
2659
102
{ACAD_REACTORS
330
2766
102
}
330
2
100
AcDbEntity
  8
KIJUN
  6
Continuous
100
AcDbLine
 10
511.4930826536628
 20
318.1232724030683
 30
0.0
 11
518.1449616536638
 21
310.0876471230644
 31
0.0
  0
LINE
  5
265A
102
{ACAD_REACTORS
330
2766
102
}
330
2
100
AcDbEntity
  8
KIJUN
  6
Continuous
100
AcDbLine
 10
518.1449616536638
 20
310.0876471230644
 30
0.0
 11
521.894496953661
 21
299.9861179230695
 31
0.0
  0
LINE
  5
265B
102
{ACAD_REACTORS
330
2766
102
}
330
2
100
AcDbEntity
  8
KIJUN
  6
Continuous
100
AcDbLine
 10
521.894496953661
 20
299.9861179230695
 30
0.0
 11
522.4994487536628
 21
291.261469383064
 31
0.0
  0
LINE
  5
265C
102
{ACAD_REACTORS
330
2766
102
}
330
2
100
AcDbEntity
  8
KIJUN
  6
Continuous
100
AcDbLine
 10
522.4994487536628
 20
291.261469383064
 30
0.0
 11
521.0479530536627
 21
284.8334355030695
 31
0.0
  0
LINE
  5
265D
102
{ACAD_REACTORS
330
2766
102
}
330
2
100
AcDbEntity
  8
KIJUN
  6
Continuous
100
AcDbLine
 10
521.0479530536627
 20
284.8334355030695
 30
0.0
 11
517.7823791936598
 21
276.9127122030681
 31
0.0
  0
LINE
  5
265E
102
{ACAD_REACTORS
330
2766
102
}
330
2
100
AcDbEntity
  8
KIJUN
  6
Continuous
100
AcDbLine
 10
517.7823791936598
 20
276.9127122030681
 30
0.0
 11
511.0091212136617
 21
270.48416016307
 31
0.0
  0
LINE
  5
265F
102
{ACAD_REACTORS
330
2766
102
}
330
2
100
AcDbEntity
  8
KIJUN
  6
Continuous
100
AcDbLine
 10
511.0091212136617
 20
270.48416016307
 30
0.0
 11
502.4217850736599
 21
267.7291034430713
 31
0.0
  0
LINE
  5
2660
102
{ACAD_REACTORS
330
2766
102
}
330
2
100
AcDbEntity
  8
KIJUN
  6
Continuous
100
AcDbLine
 10
502.4217850736599
 20
267.7291034430713
 30
0.0
 11
492.3824350736686
 21
268.8770869230715
 31
0.0
  0
LINE
  5
2661
102
{ACAD_REACTORS
330
2766
102
}
330
2
100
AcDbEntity
  8
KIJUN
  6
Continuous
100
AcDbLine
 10
492.3824350736686
 20
268.8770869230715
 30
0.0
 11
482.464464053668
 21
271.9768495830626
 31
0.0
  0
LINE
  5
2662
102
{ACAD_REACTORS
330
2766
102
}
330
2
100
AcDbEntity
  8
KIJUN
  6
Continuous
100
AcDbLine
 10
482.464464053668
 20
271.9768495830626
 30
0.0
 11
474.4818206336626
 21
280.7009799630645
 31
0.0
  0
LINE
  5
2663
102
{ACAD_REACTORS
330
2766
102
}
330
2
100
AcDbEntity
  8
KIJUN
  6
Continuous
100
AcDbLine
 10
474.4818206336626
 20
280.7009799630645
 30
0.0
 11
471.6998195936639
 21
290.3435489430671
 31
0.0
  0
LINE
  5
2664
102
{ACAD_REACTORS
330
2766
102
}
330
2
100
AcDbEntity
  8
KIJUN
  6
Continuous
100
AcDbLine
 10
471.6998195936639
 20
290.3435489430671
 30
0.0
 11
469.6440197936659
 21
300.4450781430755
 31
0.0
  0
LINE
  5
2665
102
{ACAD_REACTORS
330
2766
102
}
330
2
100
AcDbEntity
  8
KIJUN
  6
Continuous
100
AcDbLine
 10
469.6440197936659
 20
300.4450781430755
 30
0.0
 11
468.5551065536619
 21
319.1559652830678
 31
0.0
  0
LINE
  5
2666
102
{ACAD_REACTORS
330
2766
102
}
330
2
100
AcDbEntity
  8
KIJUN
  6
Continuous
100
AcDbLine
 10
468.5551065536619
 20
319.1559652830678
 30
0.0
 11
470.1274630736629
 21
347.279876523065
 31
0.0
  0
LINE
  5
2667
102
{ACAD_REACTORS
330
2766
102
}
330
2
100
AcDbEntity
  8
KIJUN
  6
Continuous
100
AcDbLine
 10
470.1274630736629
 20
347.279876523065
 30
0.0
 11
470.4905636936632
 21
372.41931570307
 31
0.0
  0
LINE
  5
2668
102
{ACAD_REACTORS
330
2766
102
}
330
2
100
AcDbEntity
  8
KIJUN
  6
Continuous
100
AcDbLine
 10
470.4905636936632
 20
372.41931570307
 30
0.0
 11
470.4905636936632
 21
400.0320265030627
 31
0.0
  0
LINE
  5
266A
102
{ACAD_REACTORS
330
2766
102
}
330
2
100
AcDbEntity
  8
KIJUN
  6
Continuous
100
AcDbLine
 10
515.7362948936638
 20
280.0777630230681
 30
0.0
 11
512.646895433671
 21
283.9484182230719
 31
0.0
  0
LINE
  5
266B
102
{ACAD_REACTORS
330
2766
102
}
330
2
100
AcDbEntity
  8
KIJUN
  6
Continuous
100
AcDbLine
 10
512.646895433671
 20
283.9484182230719
 30
0.0
 11
508.3082122136643
 21
286.2871333830656
 31
0.0
  0
LINE
  5
266C
102
{ACAD_REACTORS
330
2766
102
}
330
2
100
AcDbEntity
  8
KIJUN
  6
Continuous
100
AcDbLine
 10
508.3082122136643
 20
286.2871333830656
 30
0.0
 11
504.1306767536621
 21
285.8841344430723
 31
0.0
  0
LINE
  5
266D
102
{ACAD_REACTORS
330
2766
102
}
330
2
100
AcDbEntity
  8
KIJUN
  6
Continuous
100
AcDbLine
 10
496.6939148936622
 20
276.3211030230707
 30
0.0
 11
500.9518946936668
 21
278.3775505230728
 31
0.0
  0
LINE
  5
266E
102
{ACAD_REACTORS
330
2766
102
}
330
2
100
AcDbEntity
  8
KIJUN
  6
Continuous
100
AcDbLine
 10
500.9518946936668
 20
278.3775505230728
 30
0.0
 11
505.1293006136688
 21
278.9017989030647
 31
0.0
  0
LINE
  5
266F
102
{ACAD_REACTORS
330
2766
102
}
330
2
100
AcDbEntity
  8
KIJUN
  6
Continuous
100
AcDbLine
 10
505.1293006136688
 20
278.9017989030647
 30
0.0
 11
509.3872804136658
 21
277.4098867230681
 31
0.0
  0
LINE
  5
2670
102
{ACAD_REACTORS
330
2766
102
}
330
2
100
AcDbEntity
  8
KIJUN
  6
Continuous
100
AcDbLine
 10
482.3149748936607
 20
280.0777630230681
 30
0.0
 11
488.1480315536669
 21
284.5397683230716
 31
0.0
  0
LINE
  5
2671
102
{ACAD_REACTORS
330
2766
102
}
330
2
100
AcDbEntity
  8
KIJUN
  6
Continuous
100
AcDbLine
 10
488.1480315536669
 20
284.5397683230716
 30
0.0
 11
495.2503211336656
 21
285.6149503230721
 31
0.0
  0
LINE
  5
2672
102
{ACAD_REACTORS
330
2766
102
}
330
2
100
AcDbEntity
  8
KIJUN
  6
Continuous
100
AcDbLine
 10
495.2503211336656
 20
285.6149503230721
 30
0.0
 11
502.171254713659
 21
283.7064375030717
 31
0.0
  0
LINE
  5
2673
102
{ACAD_REACTORS
330
2766
102
}
330
2
100
AcDbEntity
  8
KIJUN
  6
Continuous
100
AcDbLine
 10
482.3149748936607
 20
292.3840630230629
 30
0.0
 11
487.7551367336577
 21
293.6608092630681
 31
0.0
  0
LINE
  5
2674
102
{ACAD_REACTORS
330
2766
102
}
330
2
100
AcDbEntity
  8
KIJUN
  6
Continuous
100
AcDbLine
 10
487.7551367336577
 20
293.6608092630681
 30
0.0
 11
493.1346738536599
 21
293.2440790830717
 31
0.0
  0
LINE
  5
2675
102
{ACAD_REACTORS
330
2766
102
}
330
2
100
AcDbEntity
  8
KIJUN
  6
Continuous
100
AcDbLine
 10
493.1346738536599
 20
293.2440790830717
 30
0.0
 11
498.6349422536718
 21
291.2951497830667
 31
0.0
  0
LINE
  5
2676
102
{ACAD_REACTORS
330
2766
102
}
330
2
100
AcDbEntity
  8
KIJUN
  6
Continuous
100
AcDbLine
 10
521.3065148936671
 20
287.0729230230602
 30
0.0
 11
518.0290233536665
 21
291.3514996830695
 31
0.0
  0
LINE
  5
2677
102
{ACAD_REACTORS
330
2766
102
}
330
2
100
AcDbEntity
  8
KIJUN
  6
Continuous
100
AcDbLine
 10
518.0290233536665
 20
291.3514996830695
 30
0.0
 11
513.5829514736619
 21
292.1893644030681
 31
0.0
  0
LINE
  5
2678
102
{ACAD_REACTORS
330
2766
102
}
330
2
100
AcDbEntity
  8
KIJUN
  6
Continuous
100
AcDbLine
 10
513.5829514736619
 20
292.1893644030681
 30
0.0
 11
508.975731833666
 21
290.8229764830698
 31
0.0
  0
LINE
  5
2679
102
{ACAD_REACTORS
330
2766
102
}
330
2
100
AcDbEntity
  8
KIJUN
  6
Continuous
100
AcDbLine
 10
518.4566348936646
 20
305.2085230230673
 30
0.0
 11
512.509583033659
 21
307.9997214030704
 31
0.0
  0
LINE
  5
267A
102
{ACAD_REACTORS
330
2766
102
}
330
2
100
AcDbEntity
  8
KIJUN
  6
Continuous
100
AcDbLine
 10
512.509583033659
 20
307.9997214030704
 30
0.0
 11
506.1191157536618
 21
307.9414284030622
 31
0.0
  0
LINE
  5
267B
102
{ACAD_REACTORS
330
2766
102
}
330
2
100
AcDbEntity
  8
KIJUN
  6
Continuous
100
AcDbLine
 10
506.1191157536618
 20
307.9414284030622
 30
0.0
 11
500.9574649136598
 21
303.6361665030658
 31
0.0
  0
LINE
  5
267C
102
{ACAD_REACTORS
330
2766
102
}
330
2
100
AcDbEntity
  8
KIJUN
  6
Continuous
100
AcDbLine
 10
513.7931948936648
 20
312.0741430230668
 30
0.0
 11
508.0442096936658
 21
314.3679078030713
 31
0.0
  0
LINE
  5
267D
102
{ACAD_REACTORS
330
2766
102
}
330
2
100
AcDbEntity
  8
KIJUN
  6
Continuous
100
AcDbLine
 10
508.0442096936658
 20
314.3679078030713
 30
0.0
 11
502.496788733662
 21
313.8930141630674
 31
0.0
  0
LINE
  5
267E
102
{ACAD_REACTORS
330
2766
102
}
330
2
100
AcDbEntity
  8
KIJUN
  6
Continuous
100
AcDbLine
 10
502.496788733662
 20
313.8930141630674
 30
0.0
 11
497.8358099936571
 21
309.4130028030689
 31
0.0
  0
LINE
  5
267F
102
{ACAD_REACTORS
330
2766
102
}
330
2
100
AcDbEntity
  8
KIJUN
  6
Continuous
100
AcDbLine
 10
509.7774548936599
 20
318.9397630230664
 30
0.0
 11
504.4582834136699
 21
321.1573582830674
 31
0.0
  0
LINE
  5
2680
102
{ACAD_REACTORS
330
2766
102
}
330
2
100
AcDbEntity
  8
KIJUN
  6
Continuous
100
AcDbLine
 10
504.4582834136699
 20
321.1573582830674
 30
0.0
 11
497.1445845536668
 21
322.165438563062
 31
0.0
  0
LINE
  5
2681
102
{ACAD_REACTORS
330
2766
102
}
330
2
100
AcDbEntity
  8
KIJUN
  6
Continuous
100
AcDbLine
 10
497.1445845536668
 20
322.165438563062
 30
0.0
 11
493.4574875336643
 21
320.028546723071
 31
0.0
  0
LINE
  5
2682
102
{ACAD_REACTORS
330
2766
102
}
330
2
100
AcDbEntity
  8
KIJUN
  6
Continuous
100
AcDbLine
 10
473.5062548936689
 20
318.4216030230648
 30
0.0
 11
479.5845307736668
 21
321.087277143069
 31
0.0
  0
LINE
  5
2683
102
{ACAD_REACTORS
330
2766
102
}
330
2
100
AcDbEntity
  8
KIJUN
  6
Continuous
100
AcDbLine
 10
479.5845307736668
 20
321.087277143069
 30
0.0
 11
485.5013998136678
 21
321.6023281830644
 31
0.0
  0
LINE
  5
2684
102
{ACAD_REACTORS
330
2766
102
}
330
2
100
AcDbEntity
  8
KIJUN
  6
Continuous
100
AcDbLine
 10
485.5013998136678
 20
321.6023281830644
 30
0.0
 11
491.8213973336669
 21
319.9939595430655
 31
0.0
  0
LINE
  5
2685
102
{ACAD_REACTORS
330
2766
102
}
330
2
100
AcDbEntity
  8
KIJUN
  6
Continuous
100
AcDbLine
 10
478.040154893662
 20
298.7315230230683
 30
0.0
 11
485.004743453665
 21
302.2215897030668
 31
0.0
  0
LINE
  5
2686
102
{ACAD_REACTORS
330
2766
102
}
330
2
100
AcDbEntity
  8
KIJUN
  6
Continuous
100
AcDbLine
 10
485.004743453665
 20
302.2215897030668
 30
0.0
 11
493.198537073662
 21
302.8622945430683
 31
0.0
  0
LINE
  5
2687
102
{ACAD_REACTORS
330
2766
102
}
330
2
100
AcDbEntity
  8
KIJUN
  6
Continuous
100
AcDbLine
 10
493.198537073662
 20
302.8622945430683
 30
0.0
 11
499.075119173664
 21
297.1591665030675
 31
0.0
  0
LINE
  5
2688
102
{ACAD_REACTORS
330
2766
102
}
330
2
100
AcDbEntity
  8
KIJUN
  6
Continuous
100
AcDbLine
 10
475.9675148936626
 20
305.5971430230679
 30
0.0
 11
480.2659111736716
 21
309.9293492430646
 31
0.0
  0
LINE
  5
2689
102
{ACAD_REACTORS
330
2766
102
}
330
2
100
AcDbEntity
  8
KIJUN
  6
Continuous
100
AcDbLine
 10
480.2659111736716
 20
309.9293492430646
 30
0.0
 11
485.148532853666
 21
311.1433981230625
 31
0.0
  0
LINE
  5
268A
102
{ACAD_REACTORS
330
2766
102
}
330
2
100
AcDbEntity
  8
KIJUN
  6
Continuous
100
AcDbLine
 10
485.148532853666
 20
311.1433981230625
 30
0.0
 11
490.2929548736606
 21
309.34719648307
 31
0.0
  0
LINE
  5
268B
102
{ACAD_REACTORS
330
2766
102
}
330
2
100
AcDbEntity
  8
KIJUN
  6
Continuous
100
AcDbLine
 10
473.5062548936689
 20
313.1104630230624
 30
0.0
 11
478.5936793136648
 21
314.7500508030621
 31
0.0
  0
LINE
  5
268C
102
{ACAD_REACTORS
330
2766
102
}
330
2
100
AcDbEntity
  8
KIJUN
  6
Continuous
100
AcDbLine
 10
478.5936793136648
 20
314.7500508030621
 30
0.0
 11
484.466893373662
 21
315.3414009030607
 31
0.0
  0
LINE
  5
268D
102
{ACAD_REACTORS
330
2766
102
}
330
2
100
AcDbEntity
  8
KIJUN
  6
Continuous
100
AcDbLine
 10
484.466893373662
 20
315.3414009030607
 30
0.0
 11
489.0102497936718
 21
313.1104630230624
 31
0.0
  0
LINE
  5
268E
102
{ACAD_REACTORS
330
2766
102
}
330
2
100
AcDbEntity
  8
KIJUN
  6
Continuous
100
AcDbLine
 10
472.3403948936647
 20
323.7327430230675
 30
0.0
 11
477.0517646936609
 21
330.3543096630696
 31
0.0
  0
LINE
  5
268F
102
{ACAD_REACTORS
330
2766
102
}
330
2
100
AcDbEntity
  8
KIJUN
  6
Continuous
100
AcDbLine
 10
477.0517646936609
 20
330.3543096630696
 30
0.0
 11
484.7652239936592
 21
331.384670823066
 31
0.0
  0
LINE
  5
2690
102
{ACAD_REACTORS
330
2766
102
}
330
2
100
AcDbEntity
  8
KIJUN
  6
Continuous
100
AcDbLine
 10
484.7652239936592
 20
331.384670823066
 30
0.0
 11
491.8340922536608
 21
329.0550234630704
 31
0.0
  0
LINE
  5
2691
102
{ACAD_REACTORS
330
2766
102
}
330
2
100
AcDbEntity
  8
KIJUN
  6
Continuous
100
AcDbLine
 10
499.8028748936649
 20
331.7642230230708
 30
0.0
 11
495.3031734536648
 21
335.137833243067
 31
0.0
  0
LINE
  5
2692
102
{ACAD_REACTORS
330
2766
102
}
330
2
100
AcDbEntity
  8
KIJUN
  6
Continuous
100
AcDbLine
 10
495.3031734536648
 20
335.137833243067
 30
0.0
 11
490.5212043536657
 21
336.3340056030688
 31
0.0
  0
LINE
  5
2693
102
{ACAD_REACTORS
330
2766
102
}
330
2
100
AcDbEntity
  8
KIJUN
  6
Continuous
100
AcDbLine
 10
490.5212043536657
 20
336.3340056030688
 30
0.0
 11
485.4774349136591
 21
335.0301855030644
 31
0.0
  0
LINE
  5
2694
102
{ACAD_REACTORS
330
2766
102
}
330
2
100
AcDbEntity
  8
KIJUN
  6
Continuous
100
AcDbLine
 10
504.207234893664
 20
325.9349230230668
 30
0.0
 11
498.683390213664
 21
328.4170389630703
 31
0.0
  0
LINE
  5
2695
102
{ACAD_REACTORS
330
2766
102
}
330
2
100
AcDbEntity
  8
KIJUN
  6
Continuous
100
AcDbLine
 10
498.683390213664
 20
328.4170389630703
 30
0.0
 11
493.078583033663
 21
329.0980307430613
 31
0.0
  0
LINE
  5
2696
102
{ACAD_REACTORS
330
2766
102
}
330
2
100
AcDbEntity
  8
KIJUN
  6
Continuous
100
AcDbLine
 10
493.078583033663
 20
329.0980307430613
 30
0.0
 11
488.3401393736607
 21
329.0800246830735
 31
0.0
  0
LINE
  5
2697
102
{ACAD_REACTORS
330
2766
102
}
330
2
100
AcDbEntity
  8
KIJUN
  6
Continuous
100
AcDbLine
 10
522.4723748936626
 20
295.4930230230652
 30
0.0
 11
517.7711092136669
 21
299.4669216030738
 31
0.0
  0
LINE
  5
2698
102
{ACAD_REACTORS
330
2766
102
}
330
2
100
AcDbEntity
  8
KIJUN
  6
Continuous
100
AcDbLine
 10
517.7711092136669
 20
299.4669216030738
 30
0.0
 11
513.0899222336629
 21
299.6236650030736
 31
0.0
  0
LINE
  5
2699
102
{ACAD_REACTORS
330
2766
102
}
330
2
100
AcDbEntity
  8
KIJUN
  6
Continuous
100
AcDbLine
 10
513.0899222336629
 20
299.6236650030736
 30
0.0
 11
508.1469349136646
 21
296.0978452830681
 31
0.0
  0
LINE
  5
269A
102
{ACAD_REACTORS
330
2766
102
}
330
2
100
AcDbEntity
  8
KIJUN
  6
Continuous
100
AcDbLine
 10
470.7859148936681
 20
385.7824030230654
 30
0.0
 11
474.6476318336667
 21
390.1683683430715
 31
0.0
  0
LINE
  5
269B
102
{ACAD_REACTORS
330
2766
102
}
330
2
100
AcDbEntity
  8
KIJUN
  6
Continuous
100
AcDbLine
 10
474.6476318336667
 20
390.1683683430715
 30
0.0
 11
480.5847091136661
 21
390.7911966630704
 31
0.0
  0
LINE
  5
269C
102
{ACAD_REACTORS
330
2766
102
}
330
2
100
AcDbEntity
  8
KIJUN
  6
Continuous
100
AcDbLine
 10
480.5847091136661
 20
390.7911966630704
 30
0.0
 11
485.8370379536709
 21
389.5324564830676
 31
0.0
  0
LINE
  5
269D
102
{ACAD_REACTORS
330
2766
102
}
330
2
100
AcDbEntity
  8
KIJUN
  6
Continuous
100
AcDbLine
 10
497.0825348936627
 20
362.7242830230655
 30
0.0
 11
492.6399605936626
 21
366.478611303068
 31
0.0
  0
LINE
  5
269E
102
{ACAD_REACTORS
330
2766
102
}
330
2
100
AcDbEntity
  8
KIJUN
  6
Continuous
100
AcDbLine
 10
492.6399605936626
 20
366.478611303068
 30
0.0
 11
486.3234606536666
 21
368.808258663071
 31
0.0
  0
LINE
  5
269F
102
{ACAD_REACTORS
330
2766
102
}
330
2
100
AcDbEntity
  8
KIJUN
  6
Continuous
100
AcDbLine
 10
486.3234606536666
 20
368.808258663071
 30
0.0
 11
481.5785399936681
 21
367.562602023068
 31
0.0
  0
LINE
  5
26A0
102
{ACAD_REACTORS
330
2766
102
}
330
2
100
AcDbEntity
  8
KIJUN
  6
Continuous
100
AcDbLine
 10
470.7859148936681
 20
364.2787630230635
 30
0.0
 11
475.0910472536648
 21
368.2481277030661
 31
0.0
  0
LINE
  5
26A1
102
{ACAD_REACTORS
330
2766
102
}
330
2
100
AcDbEntity
  8
KIJUN
  6
Continuous
100
AcDbLine
 10
475.0910472536648
 20
368.2481277030661
 30
0.0
 11
480.1415527736671
 21
369.744444243069
 31
0.0
  0
LINE
  5
26A2
102
{ACAD_REACTORS
330
2766
102
}
330
2
100
AcDbEntity
  8
KIJUN
  6
Continuous
100
AcDbLine
 10
480.1415527736671
 20
369.744444243069
 30
0.0
 11
485.8370379536709
 21
369.1170820230648
 31
0.0
  0
LINE
  5
26A3
102
{ACAD_REACTORS
330
2766
102
}
330
2
100
AcDbEntity
  8
KIJUN
  6
Continuous
100
AcDbLine
 10
470.0086748936578
 20
350.5475230230645
 30
0.0
 11
475.0087893536629
 21
356.1655432830626
 31
0.0
  0
LINE
  5
26A4
102
{ACAD_REACTORS
330
2766
102
}
330
2
100
AcDbEntity
  8
KIJUN
  6
Continuous
100
AcDbLine
 10
475.0087893536629
 20
356.1655432830626
 30
0.0
 11
480.0896072336631
 21
358.2353334030627
 31
0.0
  0
LINE
  5
26A5
102
{ACAD_REACTORS
330
2766
102
}
330
2
100
AcDbEntity
  8
KIJUN
  6
Continuous
100
AcDbLine
 10
480.0896072336631
 20
358.2353334030627
 30
0.0
 11
485.8757704136691
 21
358.5310732230648
 31
0.0
  0
LINE
  5
26A6
102
{ACAD_REACTORS
330
2766
102
}
330
2
100
AcDbEntity
  8
KIJUN
  6
Continuous
100
AcDbLine
 10
471.5631548936698
 20
346.7908630230745
 30
0.0
 11
476.9494280936669
 21
349.3623615630645
 31
0.0
  0
LINE
  5
26A7
102
{ACAD_REACTORS
330
2766
102
}
330
2
100
AcDbEntity
  8
KIJUN
  6
Continuous
100
AcDbLine
 10
476.9494280936669
 20
349.3623615630645
 30
0.0
 11
482.67833459366
 21
349.7029222230633
 31
0.0
  0
LINE
  5
26A8
102
{ACAD_REACTORS
330
2766
102
}
330
2
100
AcDbEntity
  8
KIJUN
  6
Continuous
100
AcDbLine
 10
482.67833459366
 20
349.7029222230633
 30
0.0
 11
487.5205397936638
 21
349.4520032430723
 31
0.0
  0
LINE
  5
26A9
102
{ACAD_REACTORS
330
2766
102
}
330
2
100
AcDbEntity
  8
KIJUN
  6
Continuous
100
AcDbLine
 10
499.4142548936629
 20
346.7908630230745
 30
0.0
 11
495.280503953672
 21
351.620502843069
 31
0.0
  0
LINE
  5
26AA
102
{ACAD_REACTORS
330
2766
102
}
330
2
100
AcDbEntity
  8
KIJUN
  6
Continuous
100
AcDbLine
 10
495.280503953672
 20
351.620502843069
 30
0.0
 11
490.0385383136649
 21
354.0575388630625
 31
0.0
  0
LINE
  5
26AB
102
{ACAD_REACTORS
330
2766
102
}
330
2
100
AcDbEntity
  8
KIJUN
  6
Continuous
100
AcDbLine
 10
490.0385383136649
 20
354.0575388630625
 30
0.0
 11
484.6354249136598
 21
355.2583746630692
 31
0.0
  0
LINE
  5
26AC
102
{ACAD_REACTORS
330
2766
102
}
330
2
100
AcDbEntity
  8
KIJUN
  6
Continuous
100
AcDbLine
 10
484.6354249136598
 20
355.2583746630692
 30
0.0
 11
484.6354249136598
 21
354.2904517830661
 31
0.0
  0
LINE
  5
26AD
102
{ACAD_REACTORS
330
2766
102
}
330
2
100
AcDbEntity
  8
KIJUN
  6
Continuous
100
AcDbLine
 10
498.2483948936669
 20
356.3768230230674
 30
0.0
 11
494.8869614336659
 21
359.799658443068
 31
0.0
  0
LINE
  5
26AE
102
{ACAD_REACTORS
330
2766
102
}
330
2
100
AcDbEntity
  8
KIJUN
  6
Continuous
100
AcDbLine
 10
494.8869614336659
 20
359.799658443068
 30
0.0
 11
490.2158785736619
 21
361.9052016030742
 31
0.0
  0
LINE
  5
26AF
102
{ACAD_REACTORS
330
2766
102
}
330
2
100
AcDbEntity
  8
KIJUN
  6
Continuous
100
AcDbLine
 10
490.2158785736619
 20
361.9052016030742
 30
0.0
 11
486.3710018336641
 21
361.6991034630641
 31
0.0
  0
LINE
  5
26B0
102
{ACAD_REACTORS
330
2766
102
}
330
2
100
AcDbEntity
  8
KIJUN
  6
Continuous
100
AcDbLine
 10
496.6939148936622
 20
374.512423023067
 30
0.0
 11
490.971614933665
 21
376.4881671030666
 31
0.0
  0
LINE
  5
26B1
102
{ACAD_REACTORS
330
2766
102
}
330
2
100
AcDbEntity
  8
KIJUN
  6
Continuous
100
AcDbLine
 10
490.971614933665
 20
376.4881671030666
 30
0.0
 11
485.8540076936642
 21
376.447880163068
 31
0.0
  0
LINE
  5
26B2
102
{ACAD_REACTORS
330
2766
102
}
330
2
100
AcDbEntity
  8
KIJUN
  6
Continuous
100
AcDbLine
 10
485.8540076936642
 20
376.447880163068
 30
0.0
 11
480.373947533666
 21
373.4235097830699
 31
0.0
  0
LINE
  5
26B3
102
{ACAD_REACTORS
330
2766
102
}
330
2
100
AcDbEntity
  8
KIJUN
  6
Continuous
100
AcDbLine
 10
472.3403948936647
 20
380.8598830230653
 30
0.0
 11
476.7460502936578
 21
382.9431453030604
 31
0.0
  0
LINE
  5
26B4
102
{ACAD_REACTORS
330
2766
102
}
330
2
100
AcDbEntity
  8
KIJUN
  6
Continuous
100
AcDbLine
 10
476.7460502936578
 20
382.9431453030604
 30
0.0
 11
481.5952506536627
 21
383.0909504430697
 31
0.0
  0
LINE
  5
26B5
102
{ACAD_REACTORS
330
2766
102
}
330
2
100
AcDbEntity
  8
KIJUN
  6
Continuous
100
AcDbLine
 10
481.5952506536627
 20
383.0909504430697
 30
0.0
 11
486.3031228736608
 21
381.9486667230699
 31
0.0
  0
LINE
  5
26B6
102
{ACAD_REACTORS
330
2766
102
}
330
2
100
AcDbEntity
  8
KIJUN
  6
Continuous
100
AcDbLine
 10
470.7859148936681
 20
372.957943023069
 30
0.0
 11
486.6530104136558
 21
377.1914397630683
 31
0.0
  0
LINE
  5
26B7
102
{ACAD_REACTORS
330
2766
102
}
330
2
100
AcDbEntity
  8
KIJUN
  6
Continuous
100
AcDbLine
 10
497.0825348936627
 20
384.0983830230673
 30
0.0
 11
492.9991750136687
 21
386.7148319430612
 31
0.0
  0
LINE
  5
26B8
102
{ACAD_REACTORS
330
2766
102
}
330
2
100
AcDbEntity
  8
KIJUN
  6
Continuous
100
AcDbLine
 10
492.9991750136687
 20
386.7148319430612
 30
0.0
 11
488.835111713664
 21
387.4494532830706
 31
0.0
  0
LINE
  5
26B9
102
{ACAD_REACTORS
330
2766
102
}
330
2
100
AcDbEntity
  8
KIJUN
  6
Continuous
100
AcDbLine
 10
488.835111713664
 20
387.4494532830706
 30
0.0
 11
484.7517518336622
 21
385.0657877430661
 31
0.0
  0
LINE
  5
26BA
102
{ACAD_REACTORS
330
2766
102
}
330
2
100
AcDbEntity
  8
KIJUN
  6
Continuous
100
AcDbLine
 10
472.7290148936599
 20
393.6843430230688
 30
0.0
 11
481.8865861136587
 21
393.6843430230688
 31
0.0
  0
LINE
  5
26BB
102
{ACAD_REACTORS
330
2766
102
}
330
2
100
AcDbEntity
  8
KIJUN
  6
Continuous
100
AcDbLine
 10
497.8597748936659
 20
392.1298630230717
 30
0.0
 11
493.7192878736718
 21
393.2362641630655
 31
0.0
  0
LINE
  5
26BC
102
{ACAD_REACTORS
330
2766
102
}
330
2
100
AcDbEntity
  8
KIJUN
  6
Continuous
100
AcDbLine
 10
493.7192878736718
 20
393.2362641630655
 30
0.0
 11
489.5183056736668
 21
393.6439265430713
 31
0.0
  0
LINE
  5
26BD
102
{ACAD_REACTORS
330
2766
102
}
330
2
100
AcDbEntity
  8
KIJUN
  6
Continuous
100
AcDbLine
 10
489.5183056736668
 20
393.6439265430713
 30
0.0
 11
486.7075467536688
 21
393.7022195430722
 31
0.0
  0
LINE
  5
26BE
102
{ACAD_REACTORS
330
2765
102
}
330
2
100
AcDbEntity
  8
KIJUN
100
AcDbLine
 10
36.56472655467837
 20
240.0320265030627
 30
0.0
 11
196.5647265546784
 21
240.0320265030626
 31
0.0
  0
LINE
  5
26BF
102
{ACAD_REACTORS
330
2765
102
}
330
2
100
AcDbEntity
  8
KIJUN
100
AcDbLine
 10
64.94599817468088
 20
400.0825471030735
 30
0.0
 11
166.3758181746723
 21
400.0825471030735
 31
0.0
  0
LINE
  5
26C0
102
{ACAD_REACTORS
330
2765
102
}
330
2
100
AcDbEntity
  8
KIJUN
100
AcDbLine
 10
102.6421381746834
 20
240.5501865030641
 30
0.0
 11
133.048803294675
 21
240.5501865030641
 31
0.0
  0
LINE
  5
26C1
102
{ACAD_REACTORS
330
2766
102
}
330
2
100
AcDbEntity
  8
KIJUN
100
AcDbLine
 10
473.8490177336649
 20
240.0320265030627
 30
0.0
 11
526.7763742882578
 21
240.0320265030627
 31
0.0
  0
LINE
  5
26C2
102
{ACAD_REACTORS
330
2766
102
}
330
2
100
AcDbEntity
  8
KIJUN
100
AcDbLine
 10
393.1806932934526
 20
400.0320265030628
 30
0.0
 11
497.3416148936649
 21
400.0320265030626
 31
0.0
  0
DIMENSION
  5
26D0
330
2
100
AcDbEntity
  8
SUNPOU
100
AcDbDimension
  2
*D26
 10
526.7763742882578
 20
150.2751078591172
 30
0.0
 11
446.7763742882579
 21
170.2751078591172
 31
0.0
 70
    32
 71
     5
 42
160.0
  3
STANDARD$0
100
AcDbAlignedDimension
 13
366.7763742882579
 23
240.0320265030627
 33
0.0
 14
526.7763742882578
 24
240.0320265030627
 34
0.0
100
AcDbRotatedDimension
1001
ACAD
1000
DSTYLE
1002
{
1070
    41
1040
3.0
1070
    42
1040
3.0
1070
    44
1040
0.0
1070
    77
1070
     1
1070
   140
1040
10.0
1070
   146
1040
0.064286
1070
   147
1040
5.0
1070
   176
1070
    60
1070
   177
1070
    70
1070
   178
1070
    60
1070
   271
1070
     0
1070
   272
1070
     0
1070
   340
1005
1C
1070
   342
1005
109
1002
}
  0
DIMENSION
  5
26DD
330
2
100
AcDbEntity
  8
SUNPOU
100
AcDbDimension
  2
*D27
 10
280.9797337294658
 20
240.0320265030627
 30
0.0
 11
260.9797337294657
 21
320.0572868030681
 31
0.0
 70
    32
 71
     5
 42
160.0505206000108
  3
STANDARD$0
100
AcDbAlignedDimension
 13
166.3758181746723
 23
400.0825471030735
 33
0.0
 14
196.2571744413515
 24
240.0320265030627
 34
0.0
 50
90.0
100
AcDbRotatedDimension
1001
ACAD
1000
DSTYLE
1002
{
1070
    41
1040
3.0
1070
    42
1040
3.0
1070
    44
1040
0.0
1070
    77
1070
     1
1070
   140
1040
10.0
1070
   146
1040
0.064286
1070
   147
1040
5.0
1070
   176
1070
    60
1070
   177
1070
    70
1070
   178
1070
    60
1070
   271
1070
     0
1070
   272
1070
     0
1070
   340
1005
1C
1070
   342
1005
109
1002
}
  0
DIMENSION
  5
26EA
330
2
100
AcDbEntity
  8
SUNPOU
100
AcDbDimension
  2
*D28
 10
626.61077172168
 20
400.0320265030626
 30
0.0
 11
606.6107717216799
 21
320.0320265030627
 31
0.0
 70
    32
 71
     5
 42
160.0
  3
STANDARD$0
100
AcDbAlignedDimension
 13
526.7763742882578
 23
240.0320265030627
 33
0.0
 14
497.3416148936649
 24
400.0320265030626
 34
0.0
 50
90.0
100
AcDbRotatedDimension
1001
ACAD
1000
DSTYLE
1002
{
1070
    41
1040
3.0
1070
    42
1040
3.0
1070
    44
1040
0.0
1070
    77
1070
     1
1070
   140
1040
10.0
1070
   146
1040
0.064286
1070
   147
1040
5.0
1070
   176
1070
    60
1070
   177
1070
    70
1070
   178
1070
    60
1070
   271
1070
     0
1070
   272
1070
     0
1070
   340
1005
1C
1070
   342
1005
109
1002
}
  0
LINE
  5
2724
102
{ACAD_REACTORS
330
2765
102
}
330
2
100
AcDbEntity
  8
KIJUN
100
AcDbLine
 10
196.5647265546784
 20
251.8232754630694
 30
0.0
 11
196.5647265546784
 21
240.0320265030626
 31
0.0
  0
LINE
  5
2725
102
{ACAD_REACTORS
330
2765
102
}
330
2
100
AcDbEntity
  8
KIJUN
100
AcDbLine
 10
36.56472655467837
 20
255.3826664110364
 30
0.0
 11
36.56472655467837
 21
240.0320265030627
 31
0.0
  0
DIMENSION
  5
2729
330
2
100
AcDbEntity
  8
SUNPOU
100
AcDbDimension
  2
*D30
 10
196.5647265546783
 20
149.5682735703267
 30
0.0
 11
116.5647265546783
 21
169.5682735703267
 31
0.0
 70
    32
 71
     5
 42
159.9999999999999
  3
STANDARD$0
100
AcDbAlignedDimension
 13
36.56472655467837
 23
240.0320265030627
 33
0.0
 14
196.5647265546783
 24
240.0320265030626
 34
0.0
100
AcDbRotatedDimension
1001
ACAD
1000
DSTYLE
1002
{
1070
    41
1040
3.0
1070
    42
1040
3.0
1070
    44
1040
0.0
1070
    77
1070
     1
1070
   140
1040
10.0
1070
   146
1040
0.064286
1070
   147
1040
5.0
1070
   176
1070
    60
1070
   177
1070
    70
1070
   178
1070
    60
1070
   271
1070
     0
1070
   272
1070
     0
1070
   340
1005
1C
1070
   342
1005
109
1002
}
  0
TEXT
  5
2777
330
2
100
AcDbEntity
  8
HOJO
100
AcDbText
 10
8.489810437329595
 20
-35.71413552858064
 30
0.0
 40
20.0
  1
※ 形状・寸法は製品特性や、生産ロットにより誤差があるものがあります。
  7
SUNPOU
100
AcDbText
  0
ENDSEC
  0
SECTION
  2
OBJECTS
  0
DICTIONARY
  5
1A
330
0
100
AcDbDictionary
281
     1
  3
ACAD_COLOR
350
276A
  3
ACAD_GROUP
350
18
  3
ACAD_LAYOUT
350
58
  3
ACAD_MATERIAL
350
2769
  3
ACAD_MLINESTYLE
350
19
  3
ACAD_PLOTSETTINGS
350
59
  3
ACAD_PLOTSTYLENAME
350
56
  3
ACAD_TABLESTYLE
350
276B
  3
ACDBHEADERROUNDTRIPXREC
350
2787
  3
AcDbVariableDictionary
350
2782
  0
DICTIONARY
  5
276A
102
{ACAD_REACTORS
330
1A
102
}
330
1A
100
AcDbDictionary
281
     1
  0
DICTIONARY
  5
18
102
{ACAD_REACTORS
330
1A
102
}
330
1A
100
AcDbDictionary
281
     1
  3
*A1
350
3A0
  3
*A2
350
3A1
  3
*A3
350
ACC
  3
*A4
350
2120
  3
*A5
350
2765
  3
*A6
350
2766
  0
DICTIONARY
  5
58
102
{ACAD_REACTORS
330
1A
102
}
330
1A
100
AcDbDictionary
281
     1
  3
Model
350
5A
  3
ﾚｲｱｳﾄ1
350
5B
  0
DICTIONARY
  5
2769
102
{ACAD_REACTORS
330
1A
102
}
330
1A
100
AcDbDictionary
281
     1
  0
DICTIONARY
  5
19
102
{ACAD_REACTORS
330
1A
102
}
330
1A
100
AcDbDictionary
281
     1
  3
STANDARD
350
1D
  0
DICTIONARY
  5
59
102
{ACAD_REACTORS
330
1A
102
}
330
1A
100
AcDbDictionary
281
     1
  0
ACDBDICTIONARYWDFLT
  5
56
102
{ACAD_REACTORS
330
1A
102
}
330
1A
100
AcDbDictionary
281
     1
  3
Normal
350
57
100
AcDbDictionaryWithDefault
340
57
  0
DICTIONARY
  5
276B
102
{ACAD_REACTORS
330
1A
102
}
330
1A
100
AcDbDictionary
281
     1
  3
Standard
350
276C
  0
DICTIONARY
  5
2787
102
{ACAD_REACTORS
330
1A
102
}
330
1A
100
AcDbDictionary
281
     1
  0
DICTIONARY
  5
2782
102
{ACAD_REACTORS
330
1A
102
}
330
1A
100
AcDbDictionary
281
     1
  3
CTABLESTYLE
350
2783
  3
DIMASSOC
350
2784
  3
PROJECTNAME
350
2785
  0
GROUP
  5
3A0
102
{ACAD_REACTORS
330
18
102
}
330
18
100
AcDbGroup
300

 70
     1
 71
     1
  0
GROUP
  5
3A1
102
{ACAD_REACTORS
330
18
102
}
330
18
100
AcDbGroup
300

 70
     1
 71
     1
  0
GROUP
  5
ACC
102
{ACAD_REACTORS
330
18
102
}
330
18
100
AcDbGroup
300

 70
     1
 71
     1
  0
GROUP
  5
2120
102
{ACAD_REACTORS
330
18
102
}
330
18
100
AcDbGroup
300

 70
     1
 71
     1
  0
GROUP
  5
2765
102
{ACAD_REACTORS
330
18
102
}
330
18
100
AcDbGroup
300

 70
     1
 71
     1
340
23D4
340
26BE
340
23BE
340
2428
340
24F2
340
2414
340
2471
340
2431
340
2483
340
23CC
340
2440
340
24D5
340
248E
340
2497
340
24D7
340
241D
340
249E
340
24B3
340
24BC
340
241B
340
243C
340
24B9
340
2478
340
2479
340
2437
340
2439
340
2458
340
2462
340
2468
340
2461
340
2725
340
2460
340
2438
340
2457
340
2456
340
2465
340
249B
340
245D
340
2466
340
245E
340
2467
340
249A
340
245A
340
243B
340
243A
340
2463
340
2459
340
2464
340
24BA
340
24BB
340
241C
340
245C
340
249C
340
245B
340
249D
340
2432
340
2476
340
2481
340
2486
340
2434
340
2485
340
2435
340
2472
340
2473
340
2475
340
2436
340
2474
340
2480
340
2487
340
2433
340
247F
340
2417
340
243F
340
247E
340
246D
340
244D
340
244B
340
244C
340
244E
340
2488
340
2489
340
248A
340
2477
340
247A
340
247B
340
244A
340
244F
340
246E
340
2418
340
246C
340
243E
340
248F
340
2498
340
24B4
340
241A
340
24B6
340
24B7
340
24B8
340
24B5
340
2419
340
243D
340
2490
340
2499
340
24DB
340
246A
340
24DC
340
247C
340
248B
340
248C
340
248D
340
246B
340
247D
340
2484
340
24DA
340
2415
340
2469
340
24D9
340
24D8
340
2416
340
24D6
340
23C4
340
23C8
340
2423
340
24C5
340
24C1
340
23DA
340
23DC
340
24A4
340
24AC
340
24A9
340
26C0
340
24A7
340
24A8
340
23DD
340
24AD
340
24AE
340
24A5
340
24A0
340
24B0
340
2420
340
24B1
340
24AA
340
241E
340
241F
340
249F
340
24AB
340
24B2
340
2421
340
24C4
340
2422
340
23DB
340
24A2
340
24A3
340
24A1
340
23E0
340
23E5
340
23E7
340
23E6
340
23DF
340
23C5
340
23E2
340
23D8
340
23C7
340
23D9
340
23E4
340
23C6
340
23E3
340
23D7
340
23D6
340
23E1
340
23D5
340
24ED
340
24F0
340
23EE
340
24EA
340
2426
340
23CA
340
24D2
340
24E7
340
24CB
340
24C3
340
2492
340
24CA
340
24C6
340
2491
340
2493
340
24E6
340
2496
340
24CC
340
24D3
340
2424
340
2494
340
24C2
340
23C9
340
2425
340
2495
340
24E5
340
24F6
340
24CF
340
24F7
340
24CD
340
24D4
340
24CE
340
24D0
340
24D1
340
24F5
340
24EC
340
24EF
340
24E9
340
24E3
340
24E8
340
23CB
340
2427
340
24E4
340
23C0
340
23F0
340
257E
340
23EA
340
257D
340
23EB
340
23EC
340
23E8
340
23E9
340
23ED
340
23C1
340
2586
340
257C
340
2588
340
257B
340
2587
340
23C3
340
257F
340
2580
340
2581
340
2582
340
23C2
340
257A
340
23B7
340
2584
340
258B
340
2585
340
24EE
340
24F1
340
23EF
340
24EB
340
23B8
340
23B6
340
258A
340
2589
340
23BF
340
2583
340
2571
340
2573
340
2526
340
2547
340
254A
340
2550
340
2535
340
2537
340
24E1
340
240D
340
26BF
340
2410
340
2503
340
2540
340
2542
340
2442
340
242E
340
2412
340
252C
340
2530
340
2441
340
242F
340
24DF
340
2446
340
24FA
340
24F8
340
24FB
340
24FC
340
24F9
340
24FD
340
2448
340
2449
340
246F
340
2482
340
2470
340
2430
340
2447
340
2445
340
252D
340
2444
340
240C
340
24E0
340
24DD
340
24DE
340
2413
340
253B
340
2509
340
250B
340
250C
340
253C
340
2506
340
252B
340
2507
340
2504
340
2505
340
2508
340
250A
340
254B
340
254C
340
254D
340
254E
340
2529
340
253A
340
2528
340
2536
340
252E
340
252F
340
2531
340
2532
340
2533
340
2411
340
2525
340
252A
340
240F
340
242D
340
256A
340
2500
340
2545
340
250F
340
250E
340
256B
340
256C
340
256D
340
256E
340
24FF
340
2502
340
24FE
340
2501
340
250D
340
2572
340
2513
340
2514
340
2569
340
2546
340
2551
340
253D
340
253E
340
253F
340
2541
340
2543
340
2544
340
2515
340
23BA
340
23FC
340
255F
340
23CE
340
242B
340
2562
340
2553
340
2556
340
255A
340
24F3
340
255C
340
23CD
340
242A
340
2539
340
240A
340
24C8
340
2409
340
24E2
340
24C7
340
240E
340
255D
340
2552
340
2555
340
24C9
340
240B
340
2429
340
2517
340
251E
340
251B
340
2520
340
255B
340
251C
340
2549
340
2519
340
2534
340
2538
340
2527
340
2516
340
251A
340
251D
340
251F
340
2561
340
2518
340
2560
340
2559
340
2521
340
2558
340
23D0
340
23BB
340
2554
340
23BD
340
23F7
340
23F1
340
23F4
340
23BC
340
23F3
340
2557
340
23F6
340
23F9
340
24F4
340
23F2
340
23F5
340
23F8
340
23FE
340
23FF
340
23D2
340
255E
340
2401
340
2402
340
23D1
340
23FD
340
2400
340
2512
340
2575
340
2564
340
2577
340
2523
340
2567
340
256F
340
2570
340
2574
340
2566
340
2548
340
254F
340
2522
340
2511
340
2576
340
2578
340
2579
340
2524
340
2568
340
2563
340
2510
340
23B9
340
2404
340
2407
340
2408
340
23FB
340
2565
340
2405
340
23FA
340
2403
340
2406
340
2724
  0
GROUP
  5
2766
102
{ACAD_REACTORS
330
18
102
}
330
18
100
AcDbGroup
300

 70
     1
 71
     1
340
25BC
340
25D4
340
25D1
340
25E5
340
25A9
340
25E1
340
25C3
340
259E
340
25A4
340
25B0
340
25C2
340
259D
340
25A5
340
259C
340
25A8
340
25A6
340
25A7
340
25BF
340
25E4
340
25E3
340
25E0
340
25C1
340
25C0
340
25BD
340
25D2
340
25D3
340
25BE
340
2658
340
2681
340
2680
340
2683
340
2684
340
25F2
340
25F9
340
25F7
340
2666
340
25CA
340
2682
340
268B
340
2662
340
264A
340
26C1
340
25C6
340
25EA
340
2592
340
259B
340
2590
340
25A2
340
25AE
340
25A3
340
25AF
340
25AB
340
25C5
340
25A1
340
259F
340
25A0
340
25AA
340
25C4
340
25AC
340
2591
340
25AD
340
259A
340
264B
340
2597
340
2596
340
2594
340
2593
340
2595
340
2598
340
2599
340
25D7
340
25C8
340
25D6
340
25D9
340
25DB
340
25DF
340
25E8
340
25E7
340
25E6
340
25DC
340
25E9
340
25EC
340
25EB
340
25E2
340
25DD
340
25DE
340
25DA
340
25C7
340
25EE
340
25D8
340
25F4
340
25EF
340
25FB
340
25FA
340
25F8
340
25F5
340
25D5
340
25ED
340
25F3
340
25C9
340
2664
340
2663
340
2665
340
265E
340
2643
340
2639
340
263E
340
2640
340
263F
340
2638
340
2660
340
2646
340
263C
340
2648
340
2649
340
2661
340
2647
340
263D
340
265F
340
2645
340
2644
340
263B
340
263A
340
2641
340
2642
340
265B
340
2697
340
265C
340
2687
340
2699
340
2675
340
2672
340
266D
340
2673
340
2674
340
2670
340
2671
340
2676
340
266C
340
2678
340
2677
340
265D
340
266F
340
266E
340
266A
340
266B
340
267E
340
268C
340
2689
340
268D
340
268A
340
2685
340
2688
340
2686
340
267F
340
267D
340
267C
340
2659
340
267B
340
267A
340
2698
340
2679
340
265A
340
26B3
340
26BA
340
269B
340
26B6
340
26A1
340
2650
340
26A6
340
26A4
340
26C2
340
268E
340
2667
340
2619
340
2631
340
25CB
340
25B8
340
25B3
340
25BA
340
25D0
340
2601
340
25B6
340
2602
340
25B4
340
25B5
340
25F0
340
2604
340
25FE
340
25FD
340
25F6
340
25BB
340
25FC
340
25F1
340
2603
340
25CF
340
25CE
340
25FF
340
2600
340
2613
340
2620
340
2612
340
260F
340
25B2
340
2610
340
25B9
340
260E
340
25B1
340
2611
340
261A
340
2623
340
261C
340
261B
340
261D
340
2625
340
2622
340
2621
340
261F
340
261E
340
2624
340
26A0
340
26A3
340
2637
340
25CC
340
25B7
340
260C
340
260A
340
2616
340
2609
340
260B
340
2608
340
2618
340
2615
340
2617
340
2614
340
2629
340
2626
340
2605
340
2607
340
2627
340
260D
340
2606
340
262D
340
262C
340
262B
340
2630
340
262F
340
262E
340
262A
340
2628
340
2634
340
2633
340
2632
340
2636
340
2635
340
2668
340
269A
340
2654
340
269F
340
269E
340
2656
340
264E
340
264D
340
2695
340
2691
340
2692
340
2652
340
2651
340
2693
340
268F
340
2696
340
2690
340
2694
340
2657
340
26A9
340
2655
340
269D
340
26AD
340
26A5
340
26AF
340
26A7
340
26AC
340
26AB
340
26A8
340
26AE
340
26AA
340
264F
340
2653
340
26B7
340
269C
340
26B5
340
26B4
340
26B9
340
26B8
340
26B0
340
26B2
340
26A2
340
26B1
340
26BB
340
26BD
340
26BC
  0
LAYOUT
  5
5A
102
{ACAD_XDICTIONARY
360
2788
102
}
102
{ACAD_REACTORS
330
58
102
}
330
58
100
AcDbPlotSettings
  1

  2
なし
  4

  6

 40
0.0
 41
0.0
 42
0.0
 43
0.0
 44
0.0
 45
0.0
 46
0.0
 47
0.0
 48
0.0
 49
0.0
140
0.0
141
0.0
142
1.0
143
1.0
 70
  1712
 72
     0
 73
     0
 74
     0
  7
monochrome.ctb
 75
     0
147
1.0
148
0.0
149
0.0
100
AcDbLayout
  1
Model
 70
     1
 71
     0
 10
0.0
 20
0.0
 11
12.0
 21
9.0
 12
0.0
 22
0.0
 32
0.0
 14
0.0
 24
0.0
 34
0.0
 15
0.0
 25
0.0
 35
0.0
146
0.0
 13
0.0
 23
0.0
 33
0.0
 16
1.0
 26
0.0
 36
0.0
 17
0.0
 27
1.0
 37
0.0
 76
     0
330
2
  0
LAYOUT
  5
5B
102
{ACAD_XDICTIONARY
360
278A
102
}
102
{ACAD_REACTORS
330
58
102
}
330
58
100
AcDbPlotSettings
  1

  2
なし
  4

  6

 40
0.0
 41
0.0
 42
0.0
 43
0.0
 44
0.0
 45
0.0
 46
0.0
 47
0.0
 48
0.0
 49
0.0
140
0.0
141
0.0
142
1.0
143
1.0
 70
   688
 72
     0
 73
     0
 74
     5
  7
monochrome.ctb
 75
    16
147
1.0
148
0.0
149
0.0
100
AcDbLayout
  1
ﾚｲｱｳﾄ1
 70
     1
 71
     1
 10
0.0
 20
0.0
 11
12.0
 21
9.0
 12
0.0
 22
0.0
 32
0.0
 14
1.000000000000000E+20
 24
1.000000000000000E+20
 34
1.000000000000000E+20
 15
-1.000000000000000E+20
 25
-1.000000000000000E+20
 35
-1.000000000000000E+20
146
0.0
 13
0.0
 23
0.0
 33
0.0
 16
1.0
 26
0.0
 36
0.0
 17
0.0
 27
1.0
 37
0.0
 76
     0
330
7
  0
MLINESTYLE
  5
1D
102
{ACAD_REACTORS
330
19
102
}
330
19
100
AcDbMlineStyle
  2
STANDARD
 70
     0
  3

 62
   256
 51
90.0
 52
90.0
 71
     2
 49
0.5
 62
   256
  6
BYLAYER
 49
-0.5
 62
   256
  6
BYLAYER
  0
ACDBPLACEHOLDER
  5
57
102
{ACAD_REACTORS
330
56
102
}
330
56
  0
TABLESTYLE
  5
276C
102
{ACAD_REACTORS
330
276B
102
}
330
276B
100
AcDbTableStyle
  3
Standard
 70
     0
 71
     0
 40
0.06
 41
0.06
280
     0
281
     0
  7
STANDARD
140
0.18
170
     2
 62
     0
 63
     7
283
     0
274
    -2
284
     1
 64
     0
275
    -2
285
     1
 65
     0
276
    -2
286
     1
 66
     0
277
    -2
287
     1
 67
     0
278
    -2
288
     1
 68
     0
279
    -2
289
     1
 69
     0
  7
STANDARD
140
0.25
170
     5
 62
     0
 63
     7
283
     0
274
    -2
284
     1
 64
     0
275
    -2
285
     1
 65
     0
276
    -2
286
     1
 66
     0
277
    -2
287
     1
 67
     0
278
    -2
288
     1
 68
     0
279
    -2
289
     1
 69
     0
  7
STANDARD
140
0.18
170
     5
 62
     0
 63
     7
283
     0
274
    -2
284
     1
 64
     0
275
    -2
285
     1
 65
     0
276
    -2
286
     1
 66
     0
277
    -2
287
     1
 67
     0
278
    -2
288
     1
 68
     0
279
    -2
289
     1
 69
     0
  0
DICTIONARYVAR
  5
2783
102
{ACAD_REACTORS
330
2782
102
}
330
2782
100
DictionaryVariables
280
     0
  1
STANDARD
  0
DICTIONARYVAR
  5
2784
102
{ACAD_REACTORS
330
2782
102
}
330
2782
100
DictionaryVariables
280
     0
  1
1
  0
DICTIONARYVAR
  5
2785
102
{ACAD_REACTORS
330
2782
102
}
330
2782
100
DictionaryVariables
280
     0
  1

  0
DICTIONARY
  5
2788
330
5A
100
AcDbDictionary
280
     1
281
     1
  3
ACAD_XREC_ROUNDTRIP
360
2789
  0
DICTIONARY
  5
278A
330
5B
100
AcDbDictionary
280
     1
281
     1
  3
ACAD_XREC_ROUNDTRIP
360
278B
  0
XRECORD
  5
2789
102
{ACAD_REACTORS
330
2788
102
}
330
2788
100
AcDbXrecord
280
     1
102
SHADEPLOT
 70
     0
102
SHADEPLOTRESLEVEL
 70
     2
102
SHADEPLOTCUSTOMDPI
 70
   300
  0
XRECORD
  5
278B
102
{ACAD_REACTORS
330
278A
102
}
330
278A
100
AcDbXrecord
280
     1
102
SHADEPLOT
 70
     0
102
SHADEPLOTRESLEVEL
 70
     2
102
SHADEPLOTCUSTOMDPI
 70
   300
  0
ENDSEC
  0
EOF
