  0
SECTION
  2
HEADER
  9
$ACADVER
  1
AC1015
  9
$ACADMAINTVER
 70
    20
  9
$DWGCODEPAGE
  3
ANSI_932
  9
$INSBASE
 10
922.019522
 20
-675.4306699999999
 30
0.0
  9
$EXTMIN
 10
-0.0186341067426383
 20
-33.58750900159157
 30
-0.0015258207003583
  9
$EXTMAX
 10
814.7732609249468
 20
1555.284789313112
 30
0.0000000349246037
  9
$LIMMIN
 10
0.0
 20
0.0
  9
$LIMMAX
 10
420.0
 20
297.0
  9
$ORTHOMODE
 70
     0
  9
$REGENMODE
 70
     1
  9
$FILLMODE
 70
     1
  9
$QTEXTMODE
 70
     0
  9
$MIRRTEXT
 70
     1
  9
$LTSCALE
 40
50.0
  9
$ATTMODE
 70
     1
  9
$TEXTSIZE
 40
30.0
  9
$TRACEWID
 40
0.05
  9
$TEXTSTYLE
  7
SUNPOU
  9
$CLAYER
  8
0
  9
$CELTYPE
  6
BYLAYER
  9
$CECOLOR
 62
   256
  9
$CELTSCALE
 40
1.0
  9
$DISPSILH
 70
     0
  9
$DIMSCALE
 40
1.0
  9
$DIMASZ
 40
3.0
  9
$DIMEXO
 40
3.0
  9
$DIMDLI
 40
0.38
  9
$DIMRND
 40
0.0
  9
$DIMDLE
 40
0.0
  9
$DIMEXE
 40
0.0
  9
$DIMTP
 40
0.0
  9
$DIMTM
 40
0.0
  9
$DIMTXT
 40
10.0
  9
$DIMCEN
 40
0.0
  9
$DIMTSZ
 40
0.0
  9
$DIMTOL
 70
     0
  9
$DIMLIM
 70
     0
  9
$DIMTIH
 70
     0
  9
$DIMTOH
 70
     0
  9
$DIMSE1
 70
     0
  9
$DIMSE2
 70
     0
  9
$DIMTAD
 70
     1
  9
$DIMZIN
 70
     0
  9
$DIMBLK
  1
Dot
  9
$DIMASO
 70
     1
  9
$DIMSHO
 70
     1
  9
$DIMPOST
  1

  9
$DIMAPOST
  1

  9
$DIMALT
 70
     0
  9
$DIMALTD
 70
     2
  9
$DIMALTF
 40
25.4
  9
$DIMLFAC
 40
1.0
  9
$DIMTOFL
 70
     0
  9
$DIMTVP
 40
0.0
  9
$DIMTIX
 70
     0
  9
$DIMSOXD
 70
     0
  9
$DIMSAH
 70
     0
  9
$DIMBLK1
  1

  9
$DIMBLK2
  1

  9
$DIMSTYLE
  2
STANDARD
  9
$DIMCLRD
 70
    60
  9
$DIMCLRE
 70
    70
  9
$DIMCLRT
 70
    60
  9
$DIMTFAC
 40
0.064286
  9
$DIMGAP
 40
5.0
  9
$DIMJUST
 70
     0
  9
$DIMSD1
 70
     0
  9
$DIMSD2
 70
     0
  9
$DIMTOLJ
 70
     1
  9
$DIMTZIN
 70
     0
  9
$DIMALTZ
 70
     0
  9
$DIMALTTZ
 70
     0
  9
$DIMUPT
 70
     0
  9
$DIMDEC
 70
     0
  9
$DIMTDEC
 70
     0
  9
$DIMALTU
 70
     2
  9
$DIMALTTD
 70
     2
  9
$DIMTXSTY
  7
SUNPOU
  9
$DIMAUNIT
 70
     0
  9
$DIMADEC
 70
     0
  9
$DIMALTRND
 40
0.0
  9
$DIMAZIN
 70
     0
  9
$DIMDSEP
 70
    46
  9
$DIMATFIT
 70
     3
  9
$DIMFRAC
 70
     0
  9
$DIMLDRBLK
  1

  9
$DIMLUNIT
 70
     2
  9
$DIMLWD
 70
    -2
  9
$DIMLWE
 70
    -2
  9
$DIMTMOVE
 70
     0
  9
$LUNITS
 70
     2
  9
$LUPREC
 70
     5
  9
$SKETCHINC
 40
0.1
  9
$FILLETRAD
 40
0.0
  9
$AUNITS
 70
     0
  9
$AUPREC
 70
     0
  9
$MENU
  1
acad
  9
$ELEVATION
 40
0.0
  9
$PELEVATION
 40
0.0
  9
$THICKNESS
 40
0.0
  9
$LIMCHECK
 70
     0
  9
$CHAMFERA
 40
0.0
  9
$CHAMFERB
 40
0.0
  9
$CHAMFERC
 40
0.0
  9
$CHAMFERD
 40
0.0
  9
$SKPOLY
 70
     0
  9
$TDCREATE
 40
2450623.654673033
  9
$TDUCREATE
 40
2450623.279673032
  9
$TDUPDATE
 40
2454580.598524514
  9
$TDUUPDATE
 40
2454580.223524514
  9
$TDINDWG
 40
0.0553239931
  9
$TDUSRTIMER
 40
0.0553238194
  9
$USRTIMER
 70
     1
  9
$ANGBASE
 50
0.0
  9
$ANGDIR
 70
     0
  9
$PDMODE
 70
     0
  9
$PDSIZE
 40
0.0
  9
$PLINEWID
 40
0.0
  9
$SPLFRAME
 70
     0
  9
$SPLINETYPE
 70
     6
  9
$SPLINESEGS
 70
     8
  9
$HANDSEED
  5
11FA
  9
$SURFTAB1
 70
     6
  9
$SURFTAB2
 70
     6
  9
$SURFTYPE
 70
     6
  9
$SURFU
 70
     6
  9
$SURFV
 70
     6
  9
$UCSBASE
  2

  9
$UCSNAME
  2

  9
$UCSORG
 10
0.0
 20
0.0
 30
0.0
  9
$UCSXDIR
 10
1.0
 20
0.0
 30
0.0
  9
$UCSYDIR
 10
0.0
 20
1.0
 30
0.0
  9
$UCSORTHOREF
  2

  9
$UCSORTHOVIEW
 70
     0
  9
$UCSORGTOP
 10
0.0
 20
0.0
 30
0.0
  9
$UCSORGBOTTOM
 10
0.0
 20
0.0
 30
0.0
  9
$UCSORGLEFT
 10
0.0
 20
0.0
 30
0.0
  9
$UCSORGRIGHT
 10
0.0
 20
0.0
 30
0.0
  9
$UCSORGFRONT
 10
0.0
 20
0.0
 30
0.0
  9
$UCSORGBACK
 10
0.0
 20
0.0
 30
0.0
  9
$PUCSBASE
  2

  9
$PUCSNAME
  2

  9
$PUCSORG
 10
0.0
 20
0.0
 30
0.0
  9
$PUCSXDIR
 10
1.0
 20
0.0
 30
0.0
  9
$PUCSYDIR
 10
0.0
 20
1.0
 30
0.0
  9
$PUCSORTHOREF
  2

  9
$PUCSORTHOVIEW
 70
     0
  9
$PUCSORGTOP
 10
0.0
 20
0.0
 30
0.0
  9
$PUCSORGBOTTOM
 10
0.0
 20
0.0
 30
0.0
  9
$PUCSORGLEFT
 10
0.0
 20
0.0
 30
0.0
  9
$PUCSORGRIGHT
 10
0.0
 20
0.0
 30
0.0
  9
$PUCSORGFRONT
 10
0.0
 20
0.0
 30
0.0
  9
$PUCSORGBACK
 10
0.0
 20
0.0
 30
0.0
  9
$USERI1
 70
     0
  9
$USERI2
 70
     0
  9
$USERI3
 70
     0
  9
$USERI4
 70
     0
  9
$USERI5
 70
     0
  9
$USERR1
 40
0.0
  9
$USERR2
 40
0.0
  9
$USERR3
 40
0.0
  9
$USERR4
 40
0.0
  9
$USERR5
 40
0.0
  9
$WORLDVIEW
 70
     1
  9
$SHADEDGE
 70
     3
  9
$SHADEDIF
 70
    70
  9
$TILEMODE
 70
     1
  9
$MAXACTVP
 70
    16
  9
$PINSBASE
 10
0.0
 20
0.0
 30
0.0
  9
$PLIMCHECK
 70
     0
  9
$PEXTMIN
 10
1.000000000000000E+20
 20
1.000000000000000E+20
 30
1.000000000000000E+20
  9
$PEXTMAX
 10
-1.000000000000000E+20
 20
-1.000000000000000E+20
 30
-1.000000000000000E+20
  9
$PLIMMIN
 10
0.0
 20
0.0
  9
$PLIMMAX
 10
12.0
 20
9.0
  9
$UNITMODE
 70
     0
  9
$VISRETAIN
 70
     0
  9
$PLINEGEN
 70
     0
  9
$PSLTSCALE
 70
     1
  9
$TREEDEPTH
 70
  3020
  9
$CMLSTYLE
  2
STANDARD
  9
$CMLJUST
 70
     0
  9
$CMLSCALE
 40
1.0
  9
$PROXYGRAPHICS
 70
     1
  9
$MEASUREMENT
 70
     0
  9
$CELWEIGHT
370
    -1
  9
$ENDCAPS
280
     0
  9
$JOINSTYLE
280
     0
  9
$LWDISPLAY
290
     0
  9
$INSUNITS
 70
     0
  9
$HYPERLINKBASE
  1

  9
$STYLESHEET
  1

  9
$XEDIT
290
     1
  9
$CEPSNTYPE
380
     0
  9
$PSTYLEMODE
290
     1
  9
$FINGERPRINTGUID
  2
{FB88A696-E29C-4009-92AF-A3599A8169D5}
  9
$VERSIONGUID
  2
{C4063B28-4C7B-4FDB-80A6-BE6308755029}
  9
$EXTNAMES
290
     1
  9
$PSVPSCALE
 40
0.0
  9
$OLESTARTUP
290
     0
  0
ENDSEC
  0
SECTION
  2
CLASSES
  0
CLASS
  1
DICTIONARYVAR
  2
AcDbDictionaryVar
  3
ObjectDBX Classes
 90
        0
280
     0
281
     0
  0
CLASS
  1
ACDBDICTIONARYWDFLT
  2
AcDbDictionaryWithDefault
  3
ObjectDBX Classes
 90
        0
280
     0
281
     0
  0
CLASS
  1
ACDBPLACEHOLDER
  2
AcDbPlaceHolder
  3
ObjectDBX Classes
 90
        0
280
     0
281
     0
  0
CLASS
  1
LAYOUT
  2
AcDbLayout
  3
ObjectDBX Classes
 90
        0
280
     0
281
     0
  0
CLASS
  1
TABLESTYLE
  2
AcDbTableStyle
  3
ObjectDBX Classes
 90
     2047
280
     0
281
     0
  0
CLASS
  1
SORTENTSTABLE
  2
AcDbSortentsTable
  3
ObjectDBX Classes
 90
        0
280
     0
281
     0
  0
ENDSEC
  0
SECTION
  2
TABLES
  0
TABLE
  2
VPORT
  5
12
330
0
100
AcDbSymbolTable
 70
     3
  0
VPORT
  5
11F4
330
12
100
AcDbSymbolTableRecord
100
AcDbViewportTableRecord
  2
*Active
 70
     0
 10
0.0
 20
0.0
 11
1.0
 21
1.0
 12
407.377313409102
 22
760.8486401557601
 13
0.0
 23
0.0
 14
1.0
 24
1.0
 15
0.0
 25
0.0
 16
0.0
 26
0.0
 36
1.0
 17
0.0
 27
0.0
 37
0.0
 40
1601.001094485044
 41
1.531210191082802
 42
50.0
 43
0.0
 44
0.0
 50
0.0
 51
0.0
 71
     0
 72
 20000
 73
     1
 74
     1
 75
     0
 76
     0
 77
     0
 78
     0
281
     0
 65
     1
110
0.0
120
0.0
130
0.0
111
1.0
121
0.0
131
0.0
112
0.0
122
1.0
132
0.0
 79
     0
146
0.0
  0
ENDTAB
  0
TABLE
  2
LTYPE
  5
D
330
0
100
AcDbSymbolTable
 70
     4
  0
LTYPE
  5
E
330
D
100
AcDbSymbolTableRecord
100
AcDbLinetypeTableRecord
  2
BYBLOCK
 70
     0
  3

 72
    65
 73
     0
 40
0.0
  0
LTYPE
  5
F
330
D
100
AcDbSymbolTableRecord
100
AcDbLinetypeTableRecord
  2
BYLAYER
 70
     0
  3

 72
    65
 73
     0
 40
0.0
  0
LTYPE
  5
5
330
D
100
AcDbSymbolTableRecord
100
AcDbLinetypeTableRecord
  2
CONTINUOUS
 70
     0
  3
Solid line
 72
    65
 73
     0
 40
0.0
  0
LTYPE
  5
1AC
330
D
100
AcDbSymbolTableRecord
100
AcDbLinetypeTableRecord
  2
CENTER
 70
     0
  3
Center ____ _ ____ _ ____ _ ____ _ ____ _ ____
 72
    65
 73
     4
 40
2.0
 49
1.25
 74
     0
 49
-0.25
 74
     0
 49
0.25
 74
     0
 49
-0.25
 74
     0
  0
LTYPE
  5
BAC
330
D
100
AcDbSymbolTableRecord
100
AcDbLinetypeTableRecord
  2
DASHED
 70
     0
  3
Dashed __ __ __ __ __ __ __ __ __ __ __ __ __ _
 72
    65
 73
     2
 40
0.75
 49
0.5
 74
     0
 49
-0.25
 74
     0
  0
ENDTAB
  0
TABLE
  2
LAYER
  5
A
330
0
100
AcDbSymbolTable
 70
     6
  0
LAYER
  5
4
330
A
100
AcDbSymbolTableRecord
100
AcDbLayerTableRecord
  2
0
 70
     0
 62
     7
  6
CONTINUOUS
370
    -3
390
57
  0
LAYER
  5
25
330
A
100
AcDbSymbolTableRecord
100
AcDbLayerTableRecord
  2
KIJUN
 70
     0
 62
     7
  6
CONTINUOUS
370
    -3
390
57
  0
LAYER
  5
22
330
A
100
AcDbSymbolTableRecord
100
AcDbLayerTableRecord
  2
HOJO
 70
     0
 62
     3
  6
CONTINUOUS
370
    -3
390
57
  0
LAYER
  5
1B
330
A
100
AcDbSymbolTableRecord
100
AcDbLayerTableRecord
  2
WAKU
 70
     0
 62
     1
  6
CONTINUOUS
370
    -3
390
57
  0
LAYER
  5
31
330
A
100
AcDbSymbolTableRecord
100
AcDbLayerTableRecord
  2
DEFPOINTS
 70
     0
 62
     7
  6
CONTINUOUS
290
     0
370
    -3
390
57
  0
LAYER
  5
28
330
A
100
AcDbSymbolTableRecord
100
AcDbLayerTableRecord
  2
SUNPOU
 70
     0
 62
    70
  6
CONTINUOUS
370
    -3
390
57
  0
ENDTAB
  0
TABLE
  2
STYLE
  5
B
330
0
100
AcDbSymbolTable
 70
     3
  0
STYLE
  5
C
330
B
100
AcDbSymbolTableRecord
100
AcDbTextStyleTableRecord
  2
STANDARD
 70
     0
 40
0.0
 41
1.0
 50
0.0
 71
     0
 42
0.2
  3
txt
  4

  0
STYLE
  5
1C
330
B
100
AcDbSymbolTableRecord
100
AcDbTextStyleTableRecord
  2
SUNPOU
 70
     0
 40
0.0
 41
1.0
 50
0.0
 71
     0
 42
30.0
  3
txt
  4
bigfont
  0
STYLE
  5
1AD
330
B
100
AcDbSymbolTableRecord
100
AcDbTextStyleTableRecord
  2
LIFE
 70
     0
 40
0.0
 41
0.7
 50
0.0
 71
     0
 42
10.0
  3
romans
  4
extfont
  0
ENDTAB
  0
TABLE
  2
VIEW
  5
10
330
0
100
AcDbSymbolTable
 70
     0
  0
ENDTAB
  0
TABLE
  2
UCS
  5
11
330
0
100
AcDbSymbolTable
 70
     0
  0
ENDTAB
  0
TABLE
  2
APPID
  5
14
330
0
100
AcDbSymbolTable
 70
     2
  0
APPID
  5
15
330
14
100
AcDbSymbolTableRecord
100
AcDbRegAppTableRecord
  2
ACAD
 70
     0
  0
APPID
  5
F79
330
14
100
AcDbSymbolTableRecord
100
AcDbRegAppTableRecord
  2
ACAD_EXEMPT_FROM_CAD_STANDARDS
 70
     0
  0
ENDTAB
  0
TABLE
  2
DIMSTYLE
  5
16
330
0
100
AcDbSymbolTable
 70
     3
100
AcDbDimStyleTable
 71
     1
340
1E
  0
DIMSTYLE
105
1E
330
16
100
AcDbSymbolTableRecord
100
AcDbDimStyleTableRecord
  2
STANDARD
 70
     0
340
C
  0
DIMSTYLE
105
1AE
102
{ACAD_REACTORS
330
D27
330
D28
330
D33
330
DE0
330
DE1
330
DE2
330
E94
330
E98
330
E99
330
E9A
102
}
330
16
100
AcDbSymbolTableRecord
100
AcDbDimStyleTableRecord
  2
STANDARD$0
 70
     0
 40
2.0
 41
1.0
 42
2.0
 43
0.0
 44
1.0
 73
     0
 74
     0
 77
     3
 78
     9
140
4.5
141
0.0
147
1.0
172
     1
173
     1
178
     3
271
     2
340
1AD
341
109
343
109
344
109
  0
ENDTAB
  0
TABLE
  2
BLOCK_RECORD
  5
1
330
0
100
AcDbSymbolTable
 70
    40
  0
BLOCK_RECORD
  5
2
330
1
100
AcDbSymbolTableRecord
100
AcDbBlockTableRecord
  2
*MODEL_SPACE
340
5A
  0
BLOCK_RECORD
  5
7
330
1
100
AcDbSymbolTableRecord
100
AcDbBlockTableRecord
  2
*PAPER_SPACE
340
5B
  0
BLOCK_RECORD
  5
109
330
1
100
AcDbSymbolTableRecord
100
AcDbBlockTableRecord
  2
_Dot
340
0
102
{BLKREFS
331
AAB
331
AAC
331
AB4
331
AB5
331
ABD
331
ABE
331
B02
331
B03
331
B2A
331
B2B
331
B35
331
B36
331
B41
331
B42
331
B4D
331
B4E
331
B59
331
B5A
331
B65
331
B66
331
B71
331
B72
331
B80
331
B81
331
B8E
331
B8F
331
B9A
331
B9B
331
BA6
331
BA7
331
F95
331
F96
331
F9E
331
F9F
331
FA7
331
FA8
331
FB0
331
FB1
331
FB9
331
FBA
331
FC2
331
FC3
331
FCE
331
FCF
331
FD9
331
FDA
331
FE2
331
FE3
331
FEB
331
FEC
331
1019
331
101A
331
1025
331
1026
331
1031
331
1032
331
1040
331
1041
331
104E
331
104F
331
105A
331
105B
331
1066
331
1067
331
FF5
331
FF6
331
1001
331
1002
331
100D
331
100E
102
}
  0
BLOCK_RECORD
  5
E9B
330
1
100
AcDbSymbolTableRecord
100
AcDbBlockTableRecord
  2
*D18
340
0
  0
BLOCK_RECORD
  5
EA7
330
1
100
AcDbSymbolTableRecord
100
AcDbBlockTableRecord
  2
*D19
340
0
  0
BLOCK_RECORD
  5
EB3
330
1
100
AcDbSymbolTableRecord
100
AcDbBlockTableRecord
  2
*D20
340
0
  0
BLOCK_RECORD
  5
EBF
330
1
100
AcDbSymbolTableRecord
100
AcDbBlockTableRecord
  2
*D21
340
0
  0
BLOCK_RECORD
  5
ECB
330
1
100
AcDbSymbolTableRecord
100
AcDbBlockTableRecord
  2
*D22
340
0
  0
BLOCK_RECORD
  5
ED7
330
1
100
AcDbSymbolTableRecord
100
AcDbBlockTableRecord
  2
*D23
340
0
  0
BLOCK_RECORD
  5
EE3
330
1
100
AcDbSymbolTableRecord
100
AcDbBlockTableRecord
  2
*D24
340
0
  0
BLOCK_RECORD
  5
EF1
330
1
100
AcDbSymbolTableRecord
100
AcDbBlockTableRecord
  2
*D25
340
0
  0
BLOCK_RECORD
  5
EFF
330
1
100
AcDbSymbolTableRecord
100
AcDbBlockTableRecord
  2
*D26
340
0
  0
BLOCK_RECORD
  5
F0B
330
1
100
AcDbSymbolTableRecord
100
AcDbBlockTableRecord
  2
*D27
340
0
  0
ENDTAB
  0
ENDSEC
  0
SECTION
  2
BLOCKS
  0
BLOCK
  5
3
330
2
100
AcDbEntity
  8
0
100
AcDbBlockBegin
  2
*MODEL_SPACE
 70
     0
 10
0.0
 20
0.0
 30
0.0
  3
*MODEL_SPACE
  1

  0
ENDBLK
  5
6
330
2
100
AcDbEntity
  8
0
100
AcDbBlockEnd
  0
BLOCK
  5
8
330
7
100
AcDbEntity
 67
     1
  8
0
100
AcDbBlockBegin
  2
*PAPER_SPACE
 70
     0
 10
0.0
 20
0.0
 30
0.0
  3
*PAPER_SPACE
  1

  0
ENDBLK
  5
9
330
7
100
AcDbEntity
 67
     1
  8
0
100
AcDbBlockEnd
  0
BLOCK
  5
10C
330
109
100
AcDbEntity
  8
0
100
AcDbBlockBegin
  2
_Dot
 70
     0
 10
0.0
 20
0.0
 30
0.0
  3
_Dot
  1

  0
LWPOLYLINE
  5
10A
330
109
100
AcDbEntity
  8
0
  6
ByBlock
 62
     0
100
AcDbPolyline
 90
        2
 70
     1
 43
0.5
 10
-0.25
 20
0.0
 42
1.0
 10
0.25
 20
0.0
 42
1.0
  0
LINE
  5
10B
330
109
100
AcDbEntity
  8
0
  6
ByBlock
 62
     0
370
    -2
100
AcDbLine
 10
-0.5
 20
0.0
 30
0.0
 11
-1.0
 21
0.0
 31
0.0
  0
ENDBLK
  5
10D
330
109
100
AcDbEntity
  8
0
100
AcDbBlockEnd
  0
BLOCK
  5
EA5
330
E9B
100
AcDbEntity
  8
0
100
AcDbBlockBegin
  2
*D18
 70
     1
 10
0.0
 20
0.0
 30
0.0
  3
*D18
  1

  0
LINE
  5
F92
330
E9B
100
AcDbEntity
  8
SUNPOU
 62
    70
370
    -2
100
AcDbLine
 10
253.0514536393718
 20
289.7938009560698
 30
0.0
 11
253.0514536393718
 21
153.3155075563281
 31
0.0
  0
LINE
  5
F93
330
E9B
100
AcDbEntity
  8
SUNPOU
 62
    70
370
    -2
100
AcDbLine
 10
363.0514536393714
 20
289.7938009560698
 30
0.0
 11
363.0514536393714
 21
153.3155075563281
 31
0.0
  0
LINE
  5
F94
330
E9B
100
AcDbEntity
  8
SUNPOU
 62
    60
370
    -2
100
AcDbLine
 10
259.0514536393718
 20
153.3155075563281
 30
0.0
 11
357.0514536393714
 21
153.3155075563281
 31
0.0
  0
INSERT
  5
F95
330
E9B
100
AcDbEntity
  8
SUNPOU
 62
    60
370
    -2
100
AcDbBlockReference
  2
_Dot
 10
253.0514536393718
 20
153.3155075563281
 30
0.0
 41
6.0
 42
6.0
 43
6.0
 50
180.0
  0
INSERT
  5
F96
330
E9B
100
AcDbEntity
  8
SUNPOU
 62
    60
370
    -2
100
AcDbBlockReference
  2
_Dot
 10
363.0514536393714
 20
153.3155075563281
 30
0.0
 41
6.0
 42
6.0
 43
6.0
  0
MTEXT
  5
F97
330
E9B
100
AcDbEntity
  8
SUNPOU
 62
    60
100
AcDbMText
 10
308.0514536393716
 20
173.3155075563281
 30
0.0
 40
20.0
 41
0.0
 71
     5
 72
     1
  1
\A1;110
  7
SUNPOU
 73
     1
 44
1.0
1001
ACAD
1000
MTEXTBEGIN
1070
    73
1070
     1
1070
    44
1040
1.0
1070
    74
1070
     0
1000
MTEXTEND
  0
POINT
  5
F98
330
E9B
100
AcDbEntity
  8
DEFPOINTS
 62
     0
100
AcDbPoint
 10
253.0514536393718
 20
295.7938009560698
 30
0.0
  0
POINT
  5
F99
330
E9B
100
AcDbEntity
  8
DEFPOINTS
 62
     0
100
AcDbPoint
 10
363.0514536393714
 20
295.7938009560698
 30
0.0
  0
POINT
  5
F9A
330
E9B
100
AcDbEntity
  8
DEFPOINTS
 62
     0
100
AcDbPoint
 10
363.0514536393714
 20
153.3155075563281
 30
0.0
  0
ENDBLK
  5
EA6
330
E9B
100
AcDbEntity
  8
0
100
AcDbBlockEnd
  0
BLOCK
  5
EB1
330
EA7
100
AcDbEntity
  8
0
100
AcDbBlockBegin
  2
*D19
 70
     1
 10
0.0
 20
0.0
 30
0.0
  3
*D19
  1

  0
LINE
  5
F9B
330
EA7
100
AcDbEntity
  8
SUNPOU
 62
    70
370
    -2
100
AcDbLine
 10
253.0514536393716
 20
1396.79380095607
 30
0.0
 11
253.0514536393716
 21
1525.262683971791
 31
0.0
  0
LINE
  5
F9C
330
EA7
100
AcDbEntity
  8
SUNPOU
 62
    70
370
    -2
100
AcDbLine
 10
363.0514536393716
 20
1396.79380095607
 30
0.0
 11
363.0514536393716
 21
1525.262683971791
 31
0.0
  0
LINE
  5
F9D
330
EA7
100
AcDbEntity
  8
SUNPOU
 62
    60
370
    -2
100
AcDbLine
 10
259.0514536393716
 20
1525.262683971791
 30
0.0
 11
357.0514536393716
 21
1525.262683971791
 31
0.0
  0
INSERT
  5
F9E
330
EA7
100
AcDbEntity
  8
SUNPOU
 62
    60
370
    -2
100
AcDbBlockReference
  2
_Dot
 10
253.0514536393716
 20
1525.262683971791
 30
0.0
 41
6.0
 42
6.0
 43
6.0
 50
180.0
  0
INSERT
  5
F9F
330
EA7
100
AcDbEntity
  8
SUNPOU
 62
    60
370
    -2
100
AcDbBlockReference
  2
_Dot
 10
363.0514536393716
 20
1525.262683971791
 30
0.0
 41
6.0
 42
6.0
 43
6.0
  0
MTEXT
  5
FA0
330
EA7
100
AcDbEntity
  8
SUNPOU
 62
    60
100
AcDbMText
 10
308.0514536393716
 20
1545.262683971791
 30
0.0
 40
20.0
 41
0.0
 71
     5
 72
     1
  1
\A1;110
  7
SUNPOU
 73
     1
 44
1.0
1001
ACAD
1000
MTEXTBEGIN
1070
    73
1070
     1
1070
    44
1040
1.0
1070
    74
1070
     0
1000
MTEXTEND
  0
POINT
  5
FA1
330
EA7
100
AcDbEntity
  8
DEFPOINTS
 62
     0
100
AcDbPoint
 10
253.0514536393716
 20
1390.79380095607
 30
0.0
  0
POINT
  5
FA2
330
EA7
100
AcDbEntity
  8
DEFPOINTS
 62
     0
100
AcDbPoint
 10
363.0514536393716
 20
1390.79380095607
 30
0.0
  0
POINT
  5
FA3
330
EA7
100
AcDbEntity
  8
DEFPOINTS
 62
     0
100
AcDbPoint
 10
363.0514536393716
 20
1525.262683971791
 30
0.0
  0
ENDBLK
  5
EB2
330
EA7
100
AcDbEntity
  8
0
100
AcDbBlockEnd
  0
BLOCK
  5
EBD
330
EB3
100
AcDbEntity
  8
0
100
AcDbBlockBegin
  2
*D20
 70
     1
 10
0.0
 20
0.0
 30
0.0
  3
*D20
  1

  0
LINE
  5
FA4
330
EB3
100
AcDbEntity
  8
SUNPOU
 62
    70
370
    -2
100
AcDbLine
 10
247.0514536393718
 20
295.7938009560698
 30
0.0
 11
45.33185517173818
 21
295.7938009560699
 31
0.0
  0
LINE
  5
FA5
330
EB3
100
AcDbEntity
  8
SUNPOU
 62
    70
370
    -2
100
AcDbLine
 10
252.0514536393716
 20
1395.79380095607
 30
0.0
 11
45.33185517173842
 21
1395.79380095607
 31
0.0
  0
LINE
  5
FA6
330
EB3
100
AcDbEntity
  8
SUNPOU
 62
    60
370
    -2
100
AcDbLine
 10
45.33185517173818
 20
301.7938009560699
 30
0.0
 11
45.33185517173841
 21
1389.79380095607
 31
0.0
  0
INSERT
  5
FA7
330
EB3
100
AcDbEntity
  8
SUNPOU
 62
    60
370
    -2
100
AcDbBlockReference
  2
_Dot
 10
45.33185517173818
 20
295.7938009560699
 30
0.0
 41
6.0
 42
6.0
 43
6.0
 50
270.0
  0
INSERT
  5
FA8
330
EB3
100
AcDbEntity
  8
SUNPOU
 62
    60
370
    -2
100
AcDbBlockReference
  2
_Dot
 10
45.33185517173842
 20
1395.79380095607
 30
0.0
 41
6.0
 42
6.0
 43
6.0
 50
90.0
  0
MTEXT
  5
FA9
330
EB3
100
AcDbEntity
  8
SUNPOU
 62
    60
100
AcDbMText
 10
25.33185517173817
 20
845.7938009560701
 30
0.0
 40
20.0
 41
0.0
 71
     5
 72
     1
  1
\A1;1100
  7
SUNPOU
 11
0.0000000000000001
 21
1.0
 31
0.0
 73
     1
 44
1.0
1001
ACAD
1000
MTEXTBEGIN
1070
    73
1070
     1
1070
    44
1040
1.0
1070
    74
1070
     0
1000
MTEXTEND
  0
POINT
  5
FAA
330
EB3
100
AcDbEntity
  8
DEFPOINTS
 62
     0
100
AcDbPoint
 10
253.0514536393718
 20
295.7938009560698
 30
0.0
  0
POINT
  5
FAB
330
EB3
100
AcDbEntity
  8
DEFPOINTS
 62
     0
100
AcDbPoint
 10
258.0514536393716
 20
1395.79380095607
 30
0.0
  0
POINT
  5
FAC
330
EB3
100
AcDbEntity
  8
DEFPOINTS
 62
     0
100
AcDbPoint
 10
45.33185517173842
 20
1395.79380095607
 30
0.0
  0
ENDBLK
  5
EBE
330
EB3
100
AcDbEntity
  8
0
100
AcDbBlockEnd
  0
BLOCK
  5
EC9
330
EBF
100
AcDbEntity
  8
0
100
AcDbBlockBegin
  2
*D21
 70
     1
 10
0.0
 20
0.0
 30
0.0
  3
*D21
  1

  0
LINE
  5
FAD
330
EBF
100
AcDbEntity
  8
SUNPOU
 62
    70
370
    -2
100
AcDbLine
 10
252.0514536393721
 20
1235.79380095607
 30
0.0
 11
114.5039040628323
 21
1235.79380095607
 31
0.0
  0
LINE
  5
FAE
330
EBF
100
AcDbEntity
  8
SUNPOU
 62
    70
370
    -2
100
AcDbLine
 10
252.0514536393716
 20
1395.79380095607
 30
0.0
 11
114.5039040628323
 21
1395.79380095607
 31
0.0
  0
LINE
  5
FAF
330
EBF
100
AcDbEntity
  8
SUNPOU
 62
    60
370
    -2
100
AcDbLine
 10
114.5039040628323
 20
1241.79380095607
 30
0.0
 11
114.5039040628323
 21
1389.79380095607
 31
0.0
  0
INSERT
  5
FB0
330
EBF
100
AcDbEntity
  8
SUNPOU
 62
    60
370
    -2
100
AcDbBlockReference
  2
_Dot
 10
114.5039040628323
 20
1235.79380095607
 30
0.0
 41
6.0
 42
6.0
 43
6.0
 50
270.0
  0
INSERT
  5
FB1
330
EBF
100
AcDbEntity
  8
SUNPOU
 62
    60
370
    -2
100
AcDbBlockReference
  2
_Dot
 10
114.5039040628323
 20
1395.79380095607
 30
0.0
 41
6.0
 42
6.0
 43
6.0
 50
90.0
  0
MTEXT
  5
FB2
330
EBF
100
AcDbEntity
  8
SUNPOU
 62
    60
100
AcDbMText
 10
94.50390406283213
 20
1315.79380095607
 30
0.0
 40
20.0
 41
0.0
 71
     5
 72
     1
  1
\A1;160
  7
SUNPOU
 11
0.0000000000000001
 21
1.0
 31
0.0
 73
     1
 44
1.0
1001
ACAD
1000
MTEXTBEGIN
1070
    73
1070
     1
1070
    44
1040
1.0
1070
    74
1070
     0
1000
MTEXTEND
  0
POINT
  5
FB3
330
EBF
100
AcDbEntity
  8
DEFPOINTS
 62
     0
100
AcDbPoint
 10
258.0514536393721
 20
1235.79380095607
 30
0.0
  0
POINT
  5
FB4
330
EBF
100
AcDbEntity
  8
DEFPOINTS
 62
     0
100
AcDbPoint
 10
258.0514536393716
 20
1395.79380095607
 30
0.0
  0
POINT
  5
FB5
330
EBF
100
AcDbEntity
  8
DEFPOINTS
 62
     0
100
AcDbPoint
 10
114.5039040628323
 20
1395.79380095607
 30
0.0
  0
ENDBLK
  5
ECA
330
EBF
100
AcDbEntity
  8
0
100
AcDbBlockEnd
  0
BLOCK
  5
ED5
330
ECB
100
AcDbEntity
  8
0
100
AcDbBlockBegin
  2
*D22
 70
     1
 10
0.0
 20
0.0
 30
0.0
  3
*D22
  1

  0
LINE
  5
FB6
330
ECB
100
AcDbEntity
  8
SUNPOU
 62
    70
370
    -2
100
AcDbLine
 10
247.0514536393716
 20
630.79380095607
 30
0.0
 11
114.5039040628325
 21
630.79380095607
 31
0.0
  0
LINE
  5
FB7
330
ECB
100
AcDbEntity
  8
SUNPOU
 62
    70
370
    -2
100
AcDbLine
 10
252.0514536393721
 20
1235.79380095607
 30
0.0
 11
114.5039040628325
 21
1235.79380095607
 31
0.0
  0
LINE
  5
FB8
330
ECB
100
AcDbEntity
  8
SUNPOU
 62
    60
370
    -2
100
AcDbLine
 10
114.5039040628324
 20
636.7938009560701
 30
0.0
 11
114.5039040628326
 21
1229.79380095607
 31
0.0
  0
INSERT
  5
FB9
330
ECB
100
AcDbEntity
  8
SUNPOU
 62
    60
370
    -2
100
AcDbBlockReference
  2
_Dot
 10
114.5039040628324
 20
630.79380095607
 30
0.0
 41
6.0
 42
6.0
 43
6.0
 50
270.0
  0
INSERT
  5
FBA
330
ECB
100
AcDbEntity
  8
SUNPOU
 62
    60
370
    -2
100
AcDbBlockReference
  2
_Dot
 10
114.5039040628326
 20
1235.79380095607
 30
0.0
 41
6.0
 42
6.0
 43
6.0
 50
90.0
  0
MTEXT
  5
FBB
330
ECB
100
AcDbEntity
  8
SUNPOU
 62
    60
100
AcDbMText
 10
94.50390406283238
 20
933.2938009560701
 30
0.0
 40
20.0
 41
0.0
 71
     5
 72
     1
  1
\A1;605
  7
SUNPOU
 11
0.0000000000000001
 21
1.0
 31
0.0
 73
     1
 44
1.0
1001
ACAD
1000
MTEXTBEGIN
1070
    73
1070
     1
1070
    44
1040
1.0
1070
    74
1070
     0
1000
MTEXTEND
  0
POINT
  5
FBC
330
ECB
100
AcDbEntity
  8
DEFPOINTS
 62
     0
100
AcDbPoint
 10
253.0514536393716
 20
630.79380095607
 30
0.0
  0
POINT
  5
FBD
330
ECB
100
AcDbEntity
  8
DEFPOINTS
 62
     0
100
AcDbPoint
 10
258.0514536393721
 20
1235.79380095607
 30
0.0
  0
POINT
  5
FBE
330
ECB
100
AcDbEntity
  8
DEFPOINTS
 62
     0
100
AcDbPoint
 10
114.5039040628326
 20
1235.79380095607
 30
0.0
  0
ENDBLK
  5
ED6
330
ECB
100
AcDbEntity
  8
0
100
AcDbBlockEnd
  0
BLOCK
  5
EE1
330
ED7
100
AcDbEntity
  8
0
100
AcDbBlockBegin
  2
*D23
 70
     1
 10
0.0
 20
0.0
 30
0.0
  3
*D23
  1

  0
LINE
  5
FBF
330
ED7
100
AcDbEntity
  8
SUNPOU
 62
    70
370
    -2
100
AcDbLine
 10
247.0514536393718
 20
295.7938009560698
 30
0.0
 11
114.5039040628325
 21
295.7938009560699
 31
0.0
  0
LINE
  5
FC0
330
ED7
100
AcDbEntity
  8
SUNPOU
 62
    70
370
    -2
100
AcDbLine
 10
247.0514536393716
 20
630.79380095607
 30
0.0
 11
114.5039040628326
 21
630.79380095607
 31
0.0
  0
LINE
  5
FC1
330
ED7
100
AcDbEntity
  8
SUNPOU
 62
    60
370
    -2
100
AcDbLine
 10
114.5039040628325
 20
301.7938009560699
 30
0.0
 11
114.5039040628326
 21
624.7938009560701
 31
0.0
  0
INSERT
  5
FC2
330
ED7
100
AcDbEntity
  8
SUNPOU
 62
    60
370
    -2
100
AcDbBlockReference
  2
_Dot
 10
114.5039040628325
 20
295.7938009560699
 30
0.0
 41
6.0
 42
6.0
 43
6.0
 50
270.0
  0
INSERT
  5
FC3
330
ED7
100
AcDbEntity
  8
SUNPOU
 62
    60
370
    -2
100
AcDbBlockReference
  2
_Dot
 10
114.5039040628326
 20
630.79380095607
 30
0.0
 41
6.0
 42
6.0
 43
6.0
 50
90.0
  0
MTEXT
  5
FC4
330
ED7
100
AcDbEntity
  8
SUNPOU
 62
    60
100
AcDbMText
 10
94.50390406283247
 20
463.29380095607
 30
0.0
 40
20.0
 41
0.0
 71
     5
 72
     1
  1
\A1;335
  7
SUNPOU
 11
0.0000000000000001
 21
1.0
 31
0.0
 73
     1
 44
1.0
1001
ACAD
1000
MTEXTBEGIN
1070
    73
1070
     1
1070
    44
1040
1.0
1070
    74
1070
     0
1000
MTEXTEND
  0
POINT
  5
FC5
330
ED7
100
AcDbEntity
  8
DEFPOINTS
 62
     0
100
AcDbPoint
 10
253.0514536393718
 20
295.7938009560698
 30
0.0
  0
POINT
  5
FC6
330
ED7
100
AcDbEntity
  8
DEFPOINTS
 62
     0
100
AcDbPoint
 10
253.0514536393716
 20
630.79380095607
 30
0.0
  0
POINT
  5
FC7
330
ED7
100
AcDbEntity
  8
DEFPOINTS
 62
     0
100
AcDbPoint
 10
114.5039040628326
 20
630.79380095607
 30
0.0
  0
ENDBLK
  5
EE2
330
ED7
100
AcDbEntity
  8
0
100
AcDbBlockEnd
  0
BLOCK
  5
EEF
330
EE3
100
AcDbEntity
  8
0
100
AcDbBlockBegin
  2
*D24
 70
     1
 10
0.0
 20
0.0
 30
0.0
  3
*D24
  1

  0
LINE
  5
FC8
330
EE3
100
AcDbEntity
  8
SUNPOU
 62
    70
370
    -2
100
AcDbLine
 10
295.5514536393714
 20
1401.79380095607
 30
0.0
 11
295.5514536393714
 21
1456.190442702322
 31
0.0
  0
LINE
  5
FC9
330
EE3
100
AcDbEntity
  8
SUNPOU
 62
    70
370
    -2
100
AcDbLine
 10
320.5514536393716
 20
1401.79380095607
 30
0.0
 11
320.5514536393716
 21
1456.190442702322
 31
0.0
  0
LINE
  5
FCA
330
EE3
100
AcDbEntity
  8
SUNPOU
 62
    60
370
    -2
100
AcDbLine
 10
289.5514536393714
 20
1456.190442702322
 30
0.0
 11
283.5514536393714
 21
1456.190442702322
 31
0.0
  0
LINE
  5
FCB
330
EE3
100
AcDbEntity
  8
SUNPOU
 62
    60
370
    -2
100
AcDbLine
 10
326.5514536393717
 20
1456.190442702322
 30
0.0
 11
332.5514536393716
 21
1456.190442702322
 31
0.0
  0
MTEXT
  5
FCC
330
EE3
100
AcDbEntity
  8
SUNPOU
 62
    60
100
AcDbMText
 10
303.8470094820432
 20
1476.308539226831
 30
0.0
 40
20.0
 41
0.0
 71
     5
 72
     1
  1
\A1;φ25
  7
SUNPOU
 73
     1
 44
1.0
1001
ACAD
1000
MTEXTBEGIN
1070
    73
1070
     1
1070
    44
1040
1.0
1070
    74
1070
     0
1000
MTEXTEND
  0
LINE
  5
FCD
330
EE3
100
AcDbEntity
  8
SUNPOU
 62
    60
370
    -2
100
AcDbLine
 10
295.5514536393714
 20
1456.190442702322
 30
0.0
 11
320.5514536393716
 21
1456.190442702322
 31
0.0
  0
INSERT
  5
FCE
330
EE3
100
AcDbEntity
  8
SUNPOU
 62
    60
370
    -2
100
AcDbBlockReference
  2
_Dot
 10
295.5514536393714
 20
1456.190442702322
 30
0.0
 41
6.0
 42
6.0
 43
6.0
  0
INSERT
  5
FCF
330
EE3
100
AcDbEntity
  8
SUNPOU
 62
    60
370
    -2
100
AcDbBlockReference
  2
_Dot
 10
320.5514536393716
 20
1456.190442702322
 30
0.0
 41
6.0
 42
6.0
 43
6.0
 50
180.0
  0
POINT
  5
FD0
330
EE3
100
AcDbEntity
  8
DEFPOINTS
 62
     0
100
AcDbPoint
 10
295.5514536393714
 20
1395.79380095607
 30
0.0
  0
POINT
  5
FD1
330
EE3
100
AcDbEntity
  8
DEFPOINTS
 62
     0
100
AcDbPoint
 10
320.5514536393716
 20
1395.79380095607
 30
0.0
  0
POINT
  5
FD2
330
EE3
100
AcDbEntity
  8
DEFPOINTS
 62
     0
100
AcDbPoint
 10
320.5514536393716
 20
1456.190442702322
 30
0.0
  0
ENDBLK
  5
EF0
330
EE3
100
AcDbEntity
  8
0
100
AcDbBlockEnd
  0
BLOCK
  5
EFD
330
EF1
100
AcDbEntity
  8
0
100
AcDbBlockBegin
  2
*D25
 70
     1
 10
0.0
 20
0.0
 30
0.0
  3
*D25
  1

  0
LINE
  5
FD3
330
EF1
100
AcDbEntity
  8
SUNPOU
 62
    70
370
    -2
100
AcDbLine
 10
295.5514536393714
 20
289.79380095607
 30
0.0
 11
295.5514536393714
 21
249.9467767454075
 31
0.0
  0
LINE
  5
FD4
330
EF1
100
AcDbEntity
  8
SUNPOU
 62
    70
370
    -2
100
AcDbLine
 10
320.5514536393716
 20
289.79380095607
 30
0.0
 11
320.5514536393716
 21
249.9467767454075
 31
0.0
  0
LINE
  5
FD5
330
EF1
100
AcDbEntity
  8
SUNPOU
 62
    60
370
    -2
100
AcDbLine
 10
289.5514536393714
 20
249.9467767454075
 30
0.0
 11
283.5514536393714
 21
249.9467767454075
 31
0.0
  0
LINE
  5
FD6
330
EF1
100
AcDbEntity
  8
SUNPOU
 62
    60
370
    -2
100
AcDbLine
 10
326.5514536393717
 20
249.9467767454075
 30
0.0
 11
332.5514536393716
 21
249.9467767454075
 31
0.0
  0
MTEXT
  5
FD7
330
EF1
100
AcDbEntity
  8
SUNPOU
 62
    60
100
AcDbMText
 10
305.2434390140461
 20
227.0210478011522
 30
0.0
 40
20.0
 41
0.0
 71
     5
 72
     1
  1
\A1;φ25
  7
SUNPOU
 73
     1
 44
1.0
1001
ACAD
1000
MTEXTBEGIN
1070
    73
1070
     1
1070
    44
1040
1.0
1070
    74
1070
     0
1000
MTEXTEND
  0
LINE
  5
FD8
330
EF1
100
AcDbEntity
  8
SUNPOU
 62
    60
370
    -2
100
AcDbLine
 10
295.5514536393714
 20
249.9467767454075
 30
0.0
 11
320.5514536393716
 21
249.9467767454075
 31
0.0
  0
INSERT
  5
FD9
330
EF1
100
AcDbEntity
  8
SUNPOU
 62
    60
370
    -2
100
AcDbBlockReference
  2
_Dot
 10
295.5514536393714
 20
249.9467767454075
 30
0.0
 41
6.0
 42
6.0
 43
6.0
  0
INSERT
  5
FDA
330
EF1
100
AcDbEntity
  8
SUNPOU
 62
    60
370
    -2
100
AcDbBlockReference
  2
_Dot
 10
320.5514536393716
 20
249.9467767454075
 30
0.0
 41
6.0
 42
6.0
 43
6.0
 50
180.0
  0
POINT
  5
FDB
330
EF1
100
AcDbEntity
  8
DEFPOINTS
 62
     0
100
AcDbPoint
 10
295.5514536393714
 20
295.7938009560701
 30
0.0
  0
POINT
  5
FDC
330
EF1
100
AcDbEntity
  8
DEFPOINTS
 62
     0
100
AcDbPoint
 10
320.5514536393716
 20
295.7938009560701
 30
0.0
  0
POINT
  5
FDD
330
EF1
100
AcDbEntity
  8
DEFPOINTS
 62
     0
100
AcDbPoint
 10
320.5514536393716
 20
249.9467767454075
 30
0.0
  0
ENDBLK
  5
EFE
330
EF1
100
AcDbEntity
  8
0
100
AcDbBlockEnd
  0
BLOCK
  5
F09
330
EFF
100
AcDbEntity
  8
0
100
AcDbBlockBegin
  2
*D26
 70
     1
 10
0.0
 20
0.0
 30
0.0
  3
*D26
  1

  0
LINE
  5
FDE
330
EFF
100
AcDbEntity
  8
SUNPOU
 62
    70
370
    -2
100
AcDbLine
 10
289.5514536393714
 20
1355.79380095607
 30
0.0
 11
189.1712450716493
 21
1355.79380095607
 31
0.0
  0
LINE
  5
FDF
330
EFF
100
AcDbEntity
  8
SUNPOU
 62
    70
370
    -2
100
AcDbLine
 10
252.0514536393716
 20
1395.79380095607
 30
0.0
 11
189.1712450716493
 21
1395.79380095607
 31
0.0
  0
LINE
  5
FE0
330
EFF
100
AcDbEntity
  8
SUNPOU
 62
    60
370
    -2
100
AcDbLine
 10
189.1712450716493
 20
1361.79380095607
 30
0.0
 11
189.1712450716493
 21
1389.79380095607
 31
0.0
  0
MTEXT
  5
FE1
330
EFF
100
AcDbEntity
  8
SUNPOU
 62
    60
100
AcDbMText
 10
169.6656698343049
 20
1371.91595140837
 30
0.0
 40
20.0
 41
0.0
 71
     5
 72
     1
  1
\A1;40
  7
SUNPOU
 11
0.0000000000000001
 21
1.0
 31
0.0
 73
     1
 44
1.0
1001
ACAD
1000
MTEXTBEGIN
1070
    73
1070
     1
1070
    44
1040
1.0
1070
    74
1070
     0
1000
MTEXTEND
  0
INSERT
  5
FE2
330
EFF
100
AcDbEntity
  8
SUNPOU
 62
    60
370
    -2
100
AcDbBlockReference
  2
_Dot
 10
189.1712450716493
 20
1355.79380095607
 30
0.0
 41
6.0
 42
6.0
 43
6.0
 50
270.0
  0
INSERT
  5
FE3
330
EFF
100
AcDbEntity
  8
SUNPOU
 62
    60
370
    -2
100
AcDbBlockReference
  2
_Dot
 10
189.1712450716493
 20
1395.79380095607
 30
0.0
 41
6.0
 42
6.0
 43
6.0
 50
90.0
  0
POINT
  5
FE4
330
EFF
100
AcDbEntity
  8
DEFPOINTS
 62
     0
100
AcDbPoint
 10
295.5514536393714
 20
1355.79380095607
 30
0.0
  0
POINT
  5
FE5
330
EFF
100
AcDbEntity
  8
DEFPOINTS
 62
     0
100
AcDbPoint
 10
258.0514536393716
 20
1395.79380095607
 30
0.0
  0
POINT
  5
FE6
330
EFF
100
AcDbEntity
  8
DEFPOINTS
 62
     0
100
AcDbPoint
 10
189.1712450716493
 20
1395.79380095607
 30
0.0
  0
ENDBLK
  5
F0A
330
EFF
100
AcDbEntity
  8
0
100
AcDbBlockEnd
  0
BLOCK
  5
F15
330
F0B
100
AcDbEntity
  8
0
100
AcDbBlockBegin
  2
*D27
 70
     1
 10
0.0
 20
0.0
 30
0.0
  3
*D27
  1

  0
LINE
  5
FE7
330
F0B
100
AcDbEntity
  8
SUNPOU
 62
    70
370
    -2
100
AcDbLine
 10
289.5514536393714
 20
335.7938009560698
 30
0.0
 11
189.1712450716493
 21
335.7938009560698
 31
0.0
  0
LINE
  5
FE8
330
F0B
100
AcDbEntity
  8
SUNPOU
 62
    70
370
    -2
100
AcDbLine
 10
247.0514536393718
 20
295.7938009560698
 30
0.0
 11
189.1712450716493
 21
295.7938009560698
 31
0.0
  0
LINE
  5
FE9
330
F0B
100
AcDbEntity
  8
SUNPOU
 62
    60
370
    -2
100
AcDbLine
 10
189.1712450716493
 20
329.7938009560699
 30
0.0
 11
189.1712450716493
 21
301.7938009560698
 31
0.0
  0
MTEXT
  5
FEA
330
F0B
100
AcDbEntity
  8
SUNPOU
 62
    60
100
AcDbMText
 10
169.6656698343049
 20
319.6716505037703
 30
0.0
 40
20.0
 41
0.0
 71
     5
 72
     1
  1
\A1;40
  7
SUNPOU
 11
0.0000000000000001
 21
1.0
 31
0.0
 73
     1
 44
1.0
1001
ACAD
1000
MTEXTBEGIN
1070
    73
1070
     1
1070
    44
1040
1.0
1070
    74
1070
     0
1000
MTEXTEND
  0
INSERT
  5
FEB
330
F0B
100
AcDbEntity
  8
SUNPOU
 62
    60
370
    -2
100
AcDbBlockReference
  2
_Dot
 10
189.1712450716493
 20
335.7938009560698
 30
0.0
 41
6.0
 42
6.0
 43
6.0
 50
90.0
  0
INSERT
  5
FEC
330
F0B
100
AcDbEntity
  8
SUNPOU
 62
    60
370
    -2
100
AcDbBlockReference
  2
_Dot
 10
189.1712450716493
 20
295.7938009560698
 30
0.0
 41
6.0
 42
6.0
 43
6.0
 50
270.0
  0
POINT
  5
FED
330
F0B
100
AcDbEntity
  8
DEFPOINTS
 62
     0
100
AcDbPoint
 10
295.5514536393714
 20
335.7938009560698
 30
0.0
  0
POINT
  5
FEE
330
F0B
100
AcDbEntity
  8
DEFPOINTS
 62
     0
100
AcDbPoint
 10
253.0514536393718
 20
295.7938009560698
 30
0.0
  0
POINT
  5
FEF
330
F0B
100
AcDbEntity
  8
DEFPOINTS
 62
     0
100
AcDbPoint
 10
189.1712450716493
 20
295.7938009560698
 30
0.0
  0
ENDBLK
  5
F16
330
F0B
100
AcDbEntity
  8
0
100
AcDbBlockEnd
  0
ENDSEC
  0
SECTION
  2
ENTITIES
  0
LINE
  5
1F
330
2
100
AcDbEntity
  8
WAKU
100
AcDbLine
 10
0.0
 20
70.0
 30
0.0
 11
610.6489978526152
 21
70.0
 31
0.0
  0
LINE
  5
20
330
2
100
AcDbEntity
  8
WAKU
100
AcDbLine
 10
0.0
 20
0.0
 30
0.0
 11
610.6489978526152
 21
0.0
 31
0.0
  0
TEXT
  5
21
330
2
100
AcDbEntity
  8
HOJO
100
AcDbText
 10
48.26983000000012
 20
11.83313000000009
 30
0.0
 40
45.0
  1
A-1
  7
SUNPOU
100
AcDbText
  0
TEXT
  5
4A3
330
2
100
AcDbEntity
  8
HOJO
100
AcDbText
 10
225.60543919488
 20
20.97829970797568
 30
0.0
 40
35.0
  1
1100x110x110
  7
SUNPOU
100
AcDbText
  0
DIMENSION
  5
D27
330
2
100
AcDbEntity
  8
SUNPOU
100
AcDbDimension
  2
*D18
 10
363.0514536393714
 20
153.3155075563281
 30
0.0
 11
308.0514536393716
 21
173.3155075563281
 31
0.0
 70
    32
 71
     5
 42
109.9999999999995
  3
STANDARD$0
100
AcDbAlignedDimension
 13
253.0514536393718
 23
295.7938009560698
 33
0.0
 14
363.0514536393714
 24
295.7938009560698
 34
0.0
100
AcDbRotatedDimension
1001
ACAD
1000
DSTYLE
1002
{
1070
    41
1040
3.0
1070
    42
1040
3.0
1070
    44
1040
0.0
1070
    77
1070
     1
1070
   140
1040
10.0
1070
   146
1040
0.064286
1070
   147
1040
5.0
1070
   176
1070
    60
1070
   177
1070
    70
1070
   178
1070
    60
1070
   271
1070
     0
1070
   272
1070
     0
1070
   340
1005
1C
1070
   342
1005
109
1002
}
  0
DIMENSION
  5
D28
330
2
100
AcDbEntity
  8
SUNPOU
100
AcDbDimension
  2
*D19
 10
363.0514536393716
 20
1525.262683971791
 30
0.0
 11
308.0514536393716
 21
1545.262683971791
 31
0.0
 70
    32
 71
     5
 42
110.0
  3
STANDARD$0
100
AcDbAlignedDimension
 13
253.0514536393716
 23
1390.79380095607
 33
0.0
 14
363.0514536393716
 24
1390.79380095607
 34
0.0
100
AcDbRotatedDimension
1001
ACAD
1000
DSTYLE
1002
{
1070
    41
1040
3.0
1070
    42
1040
3.0
1070
    44
1040
0.0
1070
    77
1070
     1
1070
   140
1040
10.0
1070
   146
1040
0.064286
1070
   147
1040
5.0
1070
   176
1070
    60
1070
   177
1070
    70
1070
   178
1070
    60
1070
   271
1070
     0
1070
   272
1070
     0
1070
   340
1005
1C
1070
   342
1005
109
1002
}
  0
LINE
  5
D29
330
2
100
AcDbEntity
  8
KIJUN
100
AcDbLine
 10
258.0514536393716
 20
1395.79380095607
 30
0.0
 11
358.0514536393716
 21
1395.79380095607
 31
0.0
  0
LINE
  5
D2A
330
2
100
AcDbEntity
  8
KIJUN
100
AcDbLine
 10
253.0514536393718
 20
295.7938009560698
 30
0.0
 11
363.0514536393714
 21
295.7938009560698
 31
0.0
  0
LINE
  5
D2B
330
2
100
AcDbEntity
  8
KIJUN
100
AcDbLine
 10
297.3405276393787
 20
948.5830602017836
 30
0.0
 11
296.9030126393732
 21
944.0345552017632
 31
0.0
  0
LINE
  5
D2C
330
2
100
AcDbEntity
  8
KIJUN
100
AcDbLine
 10
296.6844456393778
 20
956.7995792017635
 30
0.0
 11
297.7775346393714
 21
953.4245542017767
 31
0.0
  0
LINE
  5
D2D
330
2
100
AcDbEntity
  8
KIJUN
100
AcDbLine
 10
299.7450186393726
 20
972.4985572017711
 30
0.0
 11
297.1214526393774
 21
974.9930912016814
 31
0.0
  0
LINE
  5
D2E
330
2
100
AcDbEntity
  8
KIJUN
100
AcDbLine
 10
299.9634586393763
 20
933.4705682017618
 30
0.0
 11
295.8099236393787
 21
926.4280372017772
 31
0.0
  0
LINE
  5
D2F
330
2
100
AcDbEntity
  8
KIJUN
100
AcDbLine
 10
293.8429476393753
 20
992.0126152017425
 30
0.0
 11
298.2145416393796
 21
994.6535802017846
 31
0.0
  0
LINE
  5
D30
330
2
100
AcDbEntity
  8
KIJUN
100
AcDbLine
 10
297.7775346393714
 20
942.4205122016889
 30
0.0
 11
294.9360366393707
 21
936.4050302017229
 31
0.0
  0
LINE
  5
D31
330
2
100
AcDbEntity
  8
KIJUN
100
AcDbLine
 10
358.0514536393712
 20
1235.79380095607
 30
0.0
 11
258.0514536393721
 21
1235.79380095607
 31
0.0
  0
LINE
  5
D32
330
2
100
AcDbEntity
  8
KIJUN
100
AcDbLine
 10
253.0514536393716
 20
630.79380095607
 30
0.0
 11
363.0514536393714
 21
630.79380095607
 31
0.0
  0
DIMENSION
  5
D33
330
2
100
AcDbEntity
  8
SUNPOU
100
AcDbDimension
  2
*D20
 10
45.33185517173842
 20
1395.79380095607
 30
0.0
 11
25.33185517173817
 21
845.7938009560701
 31
0.0
 70
    32
 71
     5
 42
1100.0
  3
STANDARD$0
100
AcDbAlignedDimension
 13
253.0514536393718
 23
295.7938009560698
 33
0.0
 14
258.0514536393716
 24
1395.79380095607
 34
0.0
 50
90.0
100
AcDbRotatedDimension
1001
ACAD
1000
DSTYLE
1002
{
1070
    41
1040
3.0
1070
    42
1040
3.0
1070
    44
1040
0.0
1070
    77
1070
     1
1070
   140
1040
10.0
1070
   146
1040
0.064286
1070
   147
1040
5.0
1070
   176
1070
    60
1070
   177
1070
    70
1070
   178
1070
    60
1070
   271
1070
     0
1070
   272
1070
     0
1070
   340
1005
1C
1070
   342
1005
109
1002
}
  0
LINE
  5
D34
330
2
100
AcDbEntity
  8
KIJUN
100
AcDbLine
 10
253.0514536393718
 20
295.7938009560698
 30
0.0
 11
253.0514536393716
 21
630.79380095607
 31
0.0
  0
LINE
  5
D35
330
2
100
AcDbEntity
  8
KIJUN
100
AcDbLine
 10
274.6065116393761
 20
928.9220632017483
 30
0.0
 11
273.0764156393739
 21
927.7485832016997
 31
0.0
  0
LINE
  5
D36
330
2
100
AcDbEntity
  8
KIJUN
100
AcDbLine
 10
271.7650136393745
 20
939.6331162017402
 30
0.0
 11
274.6065116393761
 21
937.4320792017483
 31
0.0
  0
LINE
  5
D37
330
2
100
AcDbEntity
  8
KIJUN
100
AcDbLine
 10
269.3605226393806
 20
957.6795622017769
 30
0.0
 11
274.1695046393756
 21
957.2395072016831
 31
0.0
  0
LINE
  5
D38
330
2
100
AcDbEntity
  8
KIJUN
100
AcDbLine
 10
276.5739956393695
 20
944.4746102017331
 30
0.0
 11
272.8579756393697
 21
945.0616042017816
 31
0.0
  0
LINE
  5
D39
330
2
100
AcDbEntity
  8
KIJUN
100
AcDbLine
 10
272.2020206393759
 20
943.0075062017374
 30
0.0
 11
275.0440266393748
 21
943.0075062017374
 31
0.0
  0
LINE
  5
D3A
330
2
100
AcDbEntity
  8
KIJUN
100
AcDbLine
 10
271.7650136393745
 20
950.9305282016892
 30
0.0
 11
274.6065116393761
 21
950.1971032017342
 31
0.0
  0
LINE
  5
D3B
330
2
100
AcDbEntity
  8
KIJUN
100
AcDbLine
 10
275.6994736393785
 20
989.3715232017664
 30
0.0
 11
272.6395356393727
 21
986.4370612016962
 31
0.0
  0
LINE
  5
D3C
330
2
100
AcDbEntity
  8
KIJUN
100
AcDbLine
 10
272.4209686393697
 20
960.6140242017307
 30
0.0
 11
273.7324976393757
 21
957.6795622017769
 31
0.0
  0
LINE
  5
D3D
330
2
100
AcDbEntity
  8
KIJUN
100
AcDbLine
 10
274.1695046393756
 20
963.2551162016996
 30
0.0
 11
272.4209686393697
 21
960.6140242017307
 31
0.0
  0
LINE
  5
D3E
330
2
100
AcDbEntity
  8
KIJUN
100
AcDbLine
 10
273.0764156393739
 20
968.243549201771
 30
0.0
 11
275.2624666393781
 21
965.4560262017863
 31
0.0
  0
LINE
  5
D3F
330
2
100
AcDbEntity
  8
KIJUN
100
AcDbLine
 10
274.3879446393726
 20
974.406097201742
 30
0.0
 11
273.0764156393739
 21
971.4715082017454
 31
0.0
  0
LINE
  5
D40
330
2
100
AcDbEntity
  8
KIJUN
100
AcDbLine
 10
274.6065116393761
 20
916.0106082017252
 30
0.0
 11
264.8365286393778
 21
916.1255432017085
 31
0.0
  0
LINE
  5
D41
330
2
100
AcDbEntity
  8
KIJUN
100
AcDbLine
 10
274.1695046393756
 20
920.1190582017686
 30
0.0
 11
270.4699946393771
 21
919.9406232017814
 31
0.0
  0
LINE
  5
D42
330
2
100
AcDbEntity
  8
KIJUN
100
AcDbLine
 10
260.1794386393776
 20
955.7720222016822
 30
0.0
 11
264.3329736393748
 21
957.0925682017211
 31
0.0
  0
LINE
  5
D43
330
2
100
AcDbEntity
  8
KIJUN
100
AcDbLine
 10
261.7099156393706
 20
942.1270152017848
 30
0.0
 11
257.7749476393838
 21
944.3280522017911
 31
0.0
  0
LINE
  5
D44
330
2
100
AcDbEntity
  8
KIJUN
100
AcDbLine
 10
259.359387679234
 20
928.5736103801191
 30
0.0
 11
262.8024966393746
 21
928.1885112017432
 31
0.0
  0
LINE
  5
D45
330
2
100
AcDbEntity
  8
KIJUN
100
AcDbLine
 10
266.7689606393728
 20
919.6665572017543
 30
0.0
 11
262.7236756976224
 21
919.680147975391
 31
0.0
  0
LINE
  5
D46
330
2
100
AcDbEntity
  8
KIJUN
100
AcDbLine
 10
257.7749476393838
 20
953.8651172016859
 30
0.0
 11
260.1794386393776
 21
955.7720222016822
 31
0.0
  0
LINE
  5
D47
330
2
100
AcDbEntity
  8
KIJUN
100
AcDbLine
 10
256.026538639368
 20
950.6370312017846
 30
0.0
 11
257.7749476393838
 21
953.8651172016859
 31
0.0
  0
LINE
  5
D48
330
2
100
AcDbEntity
  8
KIJUN
100
AcDbLine
 10
255.8079716393727
 20
947.2625142017376
 30
0.0
 11
256.026538639368
 21
950.6370312017846
 31
0.0
  0
LINE
  5
D49
330
2
100
AcDbEntity
  8
KIJUN
100
AcDbLine
 10
257.7749476393838
 20
944.3280522017911
 30
0.0
 11
255.8079716393727
 21
947.2625142017376
 31
0.0
  0
LINE
  5
D4A
330
2
100
AcDbEntity
  8
KIJUN
100
AcDbLine
 10
269.5789626393775
 20
932.5900772016927
 30
0.0
 11
269.3605226393806
 21
935.0846112017196
 31
0.0
  0
LINE
  5
D4B
330
2
100
AcDbEntity
  8
KIJUN
100
AcDbLine
 10
270.2349176393727
 20
926.2810982016988
 30
0.0
 11
267.3930386393727
 21
924.9605522017615
 31
0.0
  0
LINE
  5
D4C
330
2
100
AcDbEntity
  8
KIJUN
100
AcDbLine
 10
265.6445026393808
 20
928.6285662017133
 30
0.0
 11
268.0489936393747
 21
929.6556152017389
 31
0.0
  0
LINE
  5
D4D
330
2
100
AcDbEntity
  8
KIJUN
100
AcDbLine
 10
270.4699946393771
 20
919.9406232017814
 30
0.0
 11
266.7689606393728
 21
919.6665572017543
 31
0.0
  0
LINE
  5
D4E
330
2
100
AcDbEntity
  8
KIJUN
100
AcDbLine
 10
270.8904916393699
 20
919.8255612017481
 30
0.0
 11
266.2999496393786
 21
920.7055442017688
 31
0.0
  0
LINE
  5
D4F
330
2
100
AcDbEntity
  8
KIJUN
100
AcDbLine
 10
267.3930386393727
 20
924.9605522017615
 30
0.0
 11
263.8954586393698
 21
925.4011152016854
 31
0.0
  0
LINE
  5
D50
330
2
100
AcDbEntity
  8
KIJUN
100
AcDbLine
 10
262.8024966393746
 20
928.1885112017432
 30
0.0
 11
265.6445026393808
 21
928.6285662017133
 31
0.0
  0
LINE
  5
D51
330
2
100
AcDbEntity
  8
KIJUN
100
AcDbLine
 10
266.2999496393786
 20
920.7055442017688
 30
0.0
 11
263.4584516393693
 21
922.6130842017472
 31
0.0
  0
LINE
  5
D52
330
2
100
AcDbEntity
  8
KIJUN
100
AcDbLine
 10
273.0764156393739
 20
927.7485832016997
 30
0.0
 11
270.2349176393727
 21
926.2810982016988
 31
0.0
  0
LINE
  5
D53
330
2
100
AcDbEntity
  8
KIJUN
100
AcDbLine
 10
268.0489936393747
 20
929.6556152017389
 30
0.0
 11
269.5789626393775
 21
932.5900772016927
 31
0.0
  0
LINE
  5
D54
330
2
100
AcDbEntity
  8
KIJUN
100
AcDbLine
 10
264.3329736393748
 20
957.0925682017211
 30
0.0
 11
269.3605226393806
 21
957.6795622017769
 31
0.0
  0
LINE
  5
D55
330
2
100
AcDbEntity
  8
KIJUN
100
AcDbLine
 10
268.0489936393747
 20
944.0345552017632
 30
0.0
 11
265.8629426393777
 21
941.6870872017412
 31
0.0
  0
LINE
  5
D56
330
2
100
AcDbEntity
  8
KIJUN
100
AcDbLine
 10
267.1744716393764
 20
940.9535352017435
 30
0.0
 11
268.9235156393729
 21
942.4205122016889
 31
0.0
  0
LINE
  5
D57
330
2
100
AcDbEntity
  8
KIJUN
100
AcDbLine
 10
267.8304266393716
 20
937.4320792017483
 30
0.0
 11
266.2999496393786
 21
938.7524982017373
 31
0.0
  0
LINE
  5
D58
330
2
100
AcDbEntity
  8
KIJUN
100
AcDbLine
 10
267.1744716393764
 20
951.0770862017622
 30
0.0
 11
271.7650136393745
 21
950.9305282016892
 31
0.0
  0
LINE
  5
D59
330
2
100
AcDbEntity
  8
KIJUN
100
AcDbLine
 10
265.8629426393777
 20
941.6870872017412
 30
0.0
 11
261.7099156393706
 21
942.1270152017848
 31
0.0
  0
LINE
  5
D5A
330
2
100
AcDbEntity
  8
KIJUN
100
AcDbLine
 10
266.2999496393786
 20
938.7524982017373
 30
0.0
 11
267.1744716393764
 21
940.9535352017435
 31
0.0
  0
LINE
  5
D5B
330
2
100
AcDbEntity
  8
KIJUN
100
AcDbLine
 10
262.8024966393746
 20
950.0500372017363
 30
0.0
 11
267.1744716393764
 21
951.0770862017622
 31
0.0
  0
LINE
  5
D5C
330
2
100
AcDbEntity
  8
KIJUN
100
AcDbLine
 10
272.8579756393697
 20
945.0616042017816
 30
0.0
 11
268.0489936393747
 21
944.0345552017632
 31
0.0
  0
LINE
  5
D5D
330
2
100
AcDbEntity
  8
KIJUN
100
AcDbLine
 10
268.9235156393729
 20
942.4205122016889
 30
0.0
 11
272.2020206393759
 21
943.0075062017374
 31
0.0
  0
LINE
  5
D5E
330
2
100
AcDbEntity
  8
KIJUN
100
AcDbLine
 10
269.3605226393806
 20
935.0846112017196
 30
0.0
 11
267.8304266393716
 21
937.4320792017483
 31
0.0
  0
LINE
  5
D5F
330
2
100
AcDbEntity
  8
KIJUN
100
AcDbLine
 10
268.9235156393729
 20
982.3291192016938
 30
0.0
 11
266.5190246393718
 21
978.2205422017167
 31
0.0
  0
LINE
  5
D60
330
2
100
AcDbEntity
  8
KIJUN
100
AcDbLine
 10
262.8024966393746
 20
969.1240402017308
 30
0.0
 11
262.3654896393746
 21
964.7226012017151
 31
0.0
  0
LINE
  5
D61
330
2
100
AcDbEntity
  8
KIJUN
100
AcDbLine
 10
264.3329736393748
 20
973.2321092017617
 30
0.0
 11
262.8024966393746
 21
969.1240402017308
 31
0.0
  0
LINE
  5
D62
330
2
100
AcDbEntity
  8
KIJUN
100
AcDbLine
 10
266.5190246393718
 20
978.2205422017167
 30
0.0
 11
264.3329736393748
 21
973.2321092017617
 31
0.0
  0
LINE
  5
D63
330
2
100
AcDbEntity
  8
KIJUN
100
AcDbLine
 10
272.6395356393727
 20
986.4370612016962
 30
0.0
 11
268.9235156393729
 21
982.3291192016938
 31
0.0
  0
LINE
  5
D64
330
2
100
AcDbEntity
  8
KIJUN
100
AcDbLine
 10
273.0764156393739
 20
971.4715082017454
 30
0.0
 11
273.0764156393739
 21
968.243549201771
 31
0.0
  0
LINE
  5
D65
330
2
100
AcDbEntity
  8
KIJUN
100
AcDbLine
 10
293.1869926393734
 20
963.4020552017778
 30
0.0
 11
295.1544766393667
 21
960.4675932017078
 31
0.0
  0
LINE
  5
D66
330
2
100
AcDbEntity
  8
KIJUN
100
AcDbLine
 10
282.9129466393829
 20
953.8651172016859
 30
0.0
 11
286.4105266393776
 21
950.9305282016892
 31
0.0
  0
LINE
  5
D67
330
2
100
AcDbEntity
  8
KIJUN
100
AcDbLine
 10
285.0989976393798
 20
939.3396192017196
 30
0.0
 11
285.7549526393736
 21
936.6985272017432
 31
0.0
  0
LINE
  5
D68
330
2
100
AcDbEntity
  8
KIJUN
100
AcDbLine
 10
290.376990639375
 20
921.5031042017169
 30
0.0
 11
284.4434236393759
 21
918.2115182016886
 31
0.0
  0
LINE
  5
D69
330
2
100
AcDbEntity
  8
KIJUN
100
AcDbLine
 10
287.9410036393788
 20
926.8680922017471
 30
0.0
 11
283.1320216393756
 21
923.2000782017955
 31
0.0
  0
LINE
  5
D6A
330
2
100
AcDbEntity
  8
KIJUN
100
AcDbLine
 10
275.9184216393801
 20
933.1770712017412
 30
0.0
 11
275.6994736393785
 21
931.2695312017623
 31
0.0
  0
LINE
  5
D6B
330
2
100
AcDbEntity
  8
KIJUN
100
AcDbLine
 10
284.4434236393759
 20
918.2115182016886
 30
0.0
 11
278.7599196393744
 21
916.4505362017612
 31
0.0
  0
LINE
  5
D6C
330
2
100
AcDbEntity
  8
KIJUN
100
AcDbLine
 10
283.1320216393756
 20
923.2000782017955
 30
0.0
 11
278.5414796393775
 21
920.8526102017739
 31
0.0
  0
LINE
  5
D6D
330
2
100
AcDbEntity
  8
KIJUN
100
AcDbLine
 10
275.6994736393785
 20
931.2695312017623
 30
0.0
 11
274.6065116393761
 21
928.9220632017483
 31
0.0
  0
LINE
  5
D6E
330
2
100
AcDbEntity
  8
KIJUN
100
AcDbLine
 10
278.7599196393744
 20
916.4505362017612
 30
0.0
 11
274.6065116393761
 21
916.0106082017252
 31
0.0
  0
LINE
  5
D6F
330
2
100
AcDbEntity
  8
KIJUN
100
AcDbLine
 10
278.5414796393775
 20
920.8526102017739
 30
0.0
 11
274.1695046393756
 21
920.1190582017686
 31
0.0
  0
LINE
  5
D70
330
2
100
AcDbEntity
  8
KIJUN
100
AcDbLine
 10
279.1969266393749
 20
955.4790332017171
 30
0.0
 11
282.9129466393829
 21
953.8651172016859
 31
0.0
  0
LINE
  5
D71
330
2
100
AcDbEntity
  8
KIJUN
100
AcDbLine
 10
279.6344416393808
 20
942.5670702017621
 30
0.0
 11
276.5739956393695
 21
944.4746102017331
 31
0.0
  0
LINE
  5
D72
330
2
100
AcDbEntity
  8
KIJUN
100
AcDbLine
 10
278.1039646393724
 20
942.4205122016889
 30
0.0
 11
280.9459706393714
 21
939.6331162017402
 31
0.0
  0
LINE
  5
D73
330
2
100
AcDbEntity
  8
KIJUN
100
AcDbLine
 10
278.1039646393724
 20
949.1695462017764
 30
0.0
 11
282.038932639382
 21
946.8220782017549
 31
0.0
  0
LINE
  5
D74
330
2
100
AcDbEntity
  8
KIJUN
100
AcDbLine
 10
275.6994736393785
 20
935.8180362017908
 30
0.0
 11
275.9184216393801
 21
933.1770712017412
 31
0.0
  0
LINE
  5
D75
330
2
100
AcDbEntity
  8
KIJUN
100
AcDbLine
 10
274.6065116393761
 20
937.4320792017483
 30
0.0
 11
275.6994736393785
 21
935.8180362017908
 31
0.0
  0
LINE
  5
D76
330
2
100
AcDbEntity
  8
KIJUN
100
AcDbLine
 10
274.1695046393756
 20
957.2395072016831
 30
0.0
 11
279.1969266393749
 21
955.4790332017171
 31
0.0
  0
LINE
  5
D77
330
2
100
AcDbEntity
  8
KIJUN
100
AcDbLine
 10
275.0440266393748
 20
943.0075062017374
 30
0.0
 11
278.1039646393724
 21
942.4205122016889
 31
0.0
  0
LINE
  5
D78
330
2
100
AcDbEntity
  8
KIJUN
100
AcDbLine
 10
274.6065116393761
 20
950.1971032017342
 30
0.0
 11
278.1039646393724
 21
949.1695462017764
 31
0.0
  0
LINE
  5
D79
330
2
100
AcDbEntity
  8
KIJUN
100
AcDbLine
 10
280.9459706393714
 20
939.6331162017402
 30
0.0
 11
279.6344416393808
 21
942.5670702017621
 31
0.0
  0
LINE
  5
D7A
330
2
100
AcDbEntity
  8
KIJUN
100
AcDbLine
 10
284.4434236393759
 20
941.980584201762
 30
0.0
 11
285.0989976393798
 21
939.3396192017196
 31
0.0
  0
LINE
  5
D7B
330
2
100
AcDbEntity
  8
KIJUN
100
AcDbLine
 10
283.1320216393756
 20
944.9150462017231
 30
0.0
 11
284.4434236393759
 21
941.980584201762
 31
0.0
  0
LINE
  5
D7C
330
2
100
AcDbEntity
  8
KIJUN
100
AcDbLine
 10
282.038932639382
 20
946.8220782017549
 30
0.0
 11
283.1320216393756
 21
944.9150462017231
 31
0.0
  0
LINE
  5
D7D
330
2
100
AcDbEntity
  8
KIJUN
100
AcDbLine
 10
292.0940306393718
 20
935.964594201733
 30
0.0
 11
291.0009416393764
 21
932.5900772016927
 31
0.0
  0
LINE
  5
D7E
330
2
100
AcDbEntity
  8
KIJUN
100
AcDbLine
 10
294.9360366393707
 20
936.4050302017229
 30
0.0
 11
291.4384566393746
 21
930.683045201777
 31
0.0
  0
LINE
  5
D7F
330
2
100
AcDbEntity
  8
KIJUN
100
AcDbLine
 10
295.8099236393787
 20
926.4280372017772
 30
0.0
 11
290.376990639375
 21
921.5031042017169
 31
0.0
  0
LINE
  5
D80
330
2
100
AcDbEntity
  8
KIJUN
100
AcDbLine
 10
291.4384566393746
 20
930.683045201777
 30
0.0
 11
287.9410036393788
 21
926.8680922017471
 31
0.0
  0
LINE
  5
D81
330
2
100
AcDbEntity
  8
KIJUN
100
AcDbLine
 10
291.0009416393764
 20
932.5900772016927
 30
0.0
 11
290.1269276393755
 21
929.215560201769
 31
0.0
  0
LINE
  5
D82
330
2
100
AcDbEntity
  8
KIJUN
100
AcDbLine
 10
289.4709726393735
 20
946.8220782017549
 30
0.0
 11
291.4384566393746
 21
942.4205122016889
 31
0.0
  0
LINE
  5
D83
330
2
100
AcDbEntity
  8
KIJUN
100
AcDbLine
 10
286.4105266393776
 20
950.9305282016892
 30
0.0
 11
289.4709726393735
 21
946.8220782017549
 31
0.0
  0
LINE
  5
D84
330
2
100
AcDbEntity
  8
KIJUN
100
AcDbLine
 10
292.3124706393755
 20
938.7524982017373
 30
0.0
 11
292.0940306393718
 21
935.964594201733
 31
0.0
  0
LINE
  5
D85
330
2
100
AcDbEntity
  8
KIJUN
100
AcDbLine
 10
291.4384566393746
 20
942.4205122016889
 30
0.0
 11
292.3124706393755
 21
938.7524982017373
 31
0.0
  0
LINE
  5
D86
330
2
100
AcDbEntity
  8
KIJUN
100
AcDbLine
 10
295.1544766393667
 20
960.4675932017078
 30
0.0
 11
296.6844456393778
 21
956.7995792017635
 31
0.0
  0
LINE
  5
D87
330
2
100
AcDbEntity
  8
KIJUN
100
AcDbLine
 10
289.4709726393735
 20
997.4416112017232
 30
0.0
 11
283.1320216393756
 21
994.3600832017571
 31
0.0
  0
LINE
  5
D88
330
2
100
AcDbEntity
  8
KIJUN
100
AcDbLine
 10
280.9459706393714
 20
971.618066201702
 30
0.0
 11
288.5964506393752
 21
968.5370462016823
 31
0.0
  0
LINE
  5
D89
330
2
100
AcDbEntity
  8
KIJUN
100
AcDbLine
 10
287.2849216393697
 20
978.807536201765
 30
0.0
 11
282.6945066393705
 21
978.6611052017494
 31
0.0
  0
LINE
  5
D8A
330
2
100
AcDbEntity
  8
KIJUN
100
AcDbLine
 10
282.6945066393705
 20
978.6611052017494
 30
0.0
 11
278.1039646393724
 21
977.1936202017412
 31
0.0
  0
LINE
  5
D8B
330
2
100
AcDbEntity
  8
KIJUN
100
AcDbLine
 10
277.8855246393755
 20
963.9885412017708
 30
0.0
 11
274.1695046393756
 21
963.2551162016996
 31
0.0
  0
LINE
  5
D8C
330
2
100
AcDbEntity
  8
KIJUN
100
AcDbLine
 10
275.2624666393781
 20
965.4560262017863
 30
0.0
 11
277.8855246393755
 21
963.9885412017708
 31
0.0
  0
LINE
  5
D8D
330
2
100
AcDbEntity
  8
KIJUN
100
AcDbLine
 10
278.1039646393724
 20
977.1936202017412
 30
0.0
 11
274.3879446393726
 21
974.406097201742
 31
0.0
  0
LINE
  5
D8E
330
2
100
AcDbEntity
  8
KIJUN
100
AcDbLine
 10
280.0714486393804
 20
992.3061122017632
 30
0.0
 11
275.6994736393785
 21
989.3715232017664
 31
0.0
  0
LINE
  5
D8F
330
2
100
AcDbEntity
  8
KIJUN
100
AcDbLine
 10
283.1320216393756
 20
994.3600832017571
 30
0.0
 11
280.0714486393804
 21
992.3061122017632
 31
0.0
  0
LINE
  5
D90
330
2
100
AcDbEntity
  8
KIJUN
100
AcDbLine
 10
290.345494639379
 20
983.5025992017424
 30
0.0
 11
291.4384566393746
 21
988.6380982016952
 31
0.0
  0
LINE
  5
D91
330
2
100
AcDbEntity
  8
KIJUN
100
AcDbLine
 10
288.5964506393752
 20
968.5370462016823
 30
0.0
 11
291.4384566393746
 21
965.7495232016833
 31
0.0
  0
LINE
  5
D92
330
2
100
AcDbEntity
  8
KIJUN
100
AcDbLine
 10
292.3124706393755
 20
978.2205422017167
 30
0.0
 11
287.2849216393697
 21
978.807536201765
 31
0.0
  0
LINE
  5
D93
330
2
100
AcDbEntity
  8
KIJUN
100
AcDbLine
 10
291.6570236393704
 20
978.6611052017494
 30
0.0
 11
290.345494639379
 21
983.5025992017424
 31
0.0
  0
LINE
  5
D94
330
2
100
AcDbEntity
  8
KIJUN
100
AcDbLine
 10
291.4384566393746
 20
965.7495232016833
 30
0.0
 11
293.1869926393734
 21
963.4020552017778
 31
0.0
  0
LINE
  5
D95
330
2
100
AcDbEntity
  8
KIJUN
100
AcDbLine
 10
294.9360366393707
 20
976.9001232017133
 30
0.0
 11
292.3124706393755
 21
978.2205422017167
 31
0.0
  0
LINE
  5
D96
330
2
100
AcDbEntity
  8
KIJUN
100
AcDbLine
 10
297.1214526393774
 20
974.9930912016814
 30
0.0
 11
294.9360366393707
 21
976.9001232017133
 31
0.0
  0
LINE
  5
D97
330
2
100
AcDbEntity
  8
KIJUN
100
AcDbLine
 10
291.4384566393746
 20
988.6380982016952
 30
0.0
 11
293.8429476393753
 21
992.0126152017425
 31
0.0
  0
ARC
  5
D98
330
2
100
AcDbEntity
  8
KIJUN
100
AcDbCircle
 10
258.0514536393716
 20
1390.79380095607
 30
0.0
 40
5.0
100
AcDbArc
 50
90.0
 51
180.0
  0
ARC
  5
D99
330
2
100
AcDbEntity
  8
KIJUN
100
AcDbCircle
 10
258.0514536393721
 20
1240.79380095607
 30
0.0
 40
5.0
100
AcDbArc
 50
180.0
 51
270.0
  0
ARC
  5
D9A
330
2
100
AcDbEntity
  8
KIJUN
100
AcDbCircle
 10
276.0514536393721
 20
1258.79380095607
 30
0.0
 40
23.0
100
AcDbArc
 50
180.0
 51
270.0
  0
ARC
  5
D9B
330
2
100
AcDbEntity
  8
KIJUN
100
AcDbCircle
 10
276.0514536393716
 20
1372.79380095607
 30
0.0
 40
23.0
100
AcDbArc
 50
90.0
 51
180.0
  0
LINE
  5
D9C
330
2
100
AcDbEntity
  8
KIJUN
100
AcDbLine
 10
253.0514536393721
 20
1240.79380095607
 30
0.0
 11
253.0514536393716
 21
1390.79380095607
 31
0.0
  0
LINE
  5
D9D
330
2
100
AcDbEntity
  8
KIJUN
  6
CENTER
100
AcDbLine
 10
308.0514536393716
 20
265.4926870628888
 30
0.0
 11
308.0514536393716
 21
1436.779715514601
 31
0.0
  0
LINE
  5
D9E
330
2
100
AcDbEntity
  8
KIJUN
100
AcDbLine
 10
302.3679496393711
 20
959.7335332017708
 30
0.0
 11
302.1495096393733
 21
963.5486132017275
 31
0.0
  0
LINE
  5
D9F
330
2
100
AcDbEntity
  8
KIJUN
100
AcDbLine
 10
308.0514536393716
 20
971.0361794215673
 30
0.0
 11
306.7399246393793
 21
957.3860652017563
 31
0.0
  0
LINE
  5
DA0
330
2
100
AcDbEntity
  8
KIJUN
100
AcDbLine
 10
304.9910076393749
 20
965.1625292017513
 30
0.0
 11
303.4610386393792
 21
959.2936052017273
 31
0.0
  0
LINE
  5
DA1
330
2
100
AcDbEntity
  8
KIJUN
100
AcDbLine
 10
305.6469626393696
 20
949.3166122017816
 30
0.0
 11
303.0235236393746
 21
941.6870872017412
 31
0.0
  0
LINE
  5
DA2
330
2
100
AcDbEntity
  8
KIJUN
100
AcDbLine
 10
303.4610386393792
 20
959.2936052017273
 30
0.0
 11
300.8379806393818
 21
952.1040082017302
 31
0.0
  0
LINE
  5
DA3
330
2
100
AcDbEntity
  8
KIJUN
100
AcDbLine
 10
297.7775346393714
 20
953.4245542017767
 30
0.0
 11
297.3405276393787
 21
948.5830602017836
 31
0.0
  0
LINE
  5
DA4
330
2
100
AcDbEntity
  8
KIJUN
100
AcDbLine
 10
301.7119946393691
 20
954.8920392017778
 30
0.0
 11
302.3679496393711
 21
959.7335332017708
 31
0.0
  0
LINE
  5
DA5
330
2
100
AcDbEntity
  8
KIJUN
100
AcDbLine
 10
303.0235236393746
 20
941.6870872017412
 30
0.0
 11
299.9634586393763
 21
933.4705682017618
 31
0.0
  0
LINE
  5
DA6
330
2
100
AcDbEntity
  8
KIJUN
100
AcDbLine
 10
299.5259436393717
 20
946.3820232017846
 30
0.0
 11
297.7775346393714
 21
942.4205122016889
 31
0.0
  0
LINE
  5
DA7
330
2
100
AcDbEntity
  8
KIJUN
100
AcDbLine
 10
300.8379806393818
 20
952.1040082017302
 30
0.0
 11
299.5259436393717
 21
946.3820232017846
 31
0.0
  0
LINE
  5
DA8
330
2
100
AcDbEntity
  8
KIJUN
100
AcDbLine
 10
306.7399246393793
 20
957.3860652017563
 30
0.0
 11
305.6469626393696
 21
949.3166122017816
 31
0.0
  0
LINE
  5
DA9
330
2
100
AcDbEntity
  8
KIJUN
100
AcDbLine
 10
303.8979186393731
 20
996.1210652017859
 30
0.0
 11
308.05145363937
 21
996.2324515976852
 31
0.0
  0
LINE
  5
DAA
330
2
100
AcDbEntity
  8
KIJUN
100
AcDbLine
 10
308.0514536393716
 20
990.5455112017467
 30
0.0
 11
306.5209766393705
 21
982.9161132017423
 31
0.0
  0
LINE
  5
DAB
330
2
100
AcDbEntity
  8
KIJUN
100
AcDbLine
 10
300.8379806393818
 20
969.7110342017717
 30
0.0
 11
299.7450186393726
 21
972.4985572017711
 31
0.0
  0
LINE
  5
DAC
330
2
100
AcDbEntity
  8
KIJUN
100
AcDbLine
 10
301.7119946393691
 20
966.7765722017092
 30
0.0
 11
300.8379806393818
 21
969.7110342017717
 31
0.0
  0
LINE
  5
DAD
330
2
100
AcDbEntity
  8
KIJUN
100
AcDbLine
 10
302.1495096393733
 20
963.5486132017275
 30
0.0
 11
301.7119946393691
 21
966.7765722017092
 31
0.0
  0
LINE
  5
DAE
330
2
100
AcDbEntity
  8
KIJUN
100
AcDbLine
 10
305.8655296393736
 20
972.0585022016846
 30
0.0
 11
304.9910076393749
 21
965.1625292017513
 31
0.0
  0
LINE
  5
DAF
330
2
100
AcDbEntity
  8
KIJUN
100
AcDbLine
 10
306.3025366393735
 20
977.1936202017412
 30
0.0
 11
305.8655296393736
 21
972.0585022016846
 31
0.0
  0
LINE
  5
DB0
330
2
100
AcDbEntity
  8
KIJUN
100
AcDbLine
 10
306.5209766393705
 20
982.9161132017423
 30
0.0
 11
306.3025366393735
 21
977.1936202017412
 31
0.0
  0
LINE
  5
DB1
330
2
100
AcDbEntity
  8
KIJUN
100
AcDbLine
 10
298.2145416393796
 20
994.6535802017846
 30
0.0
 11
303.8979186393731
 21
996.1210652017859
 31
0.0
  0
LINE
  5
DB3
330
2
100
AcDbEntity
  8
KIJUN
100
AcDbLine
 10
270.0514536393716
 20
1130.79380095607
 30
0.0
 11
346.0514536393716
 21
1130.79380095607
 31
0.0
  0
LINE
  5
DB4
330
2
100
AcDbEntity
  8
KIJUN
100
AcDbLine
 10
276.5514536393716
 20
870.7938009560701
 30
0.0
 11
339.5514536393719
 21
870.7938009560702
 31
0.0
  0
LINE
  5
DB5
330
2
100
AcDbEntity
  8
KIJUN
100
AcDbLine
 10
277.5514536393716
 20
730.79380095607
 30
0.0
 11
338.5514536393721
 21
730.7938009560701
 31
0.0
  0
LINE
  5
DB6
330
2
100
AcDbEntity
  8
KIJUN
100
AcDbLine
 10
261.5514536393639
 20
1220.79380095607
 30
0.0
 11
354.5514536393785
 21
1220.79380095607
 31
0.0
  0
LINE
  5
DB7
330
2
100
AcDbEntity
  8
KIJUN
100
AcDbLine
 10
254.051453639368
 20
1210.79380095607
 30
0.0
 11
362.0514536393752
 21
1210.79380095607
 31
0.0
  0
LINE
  5
DB8
330
2
100
AcDbEntity
  8
KIJUN
100
AcDbLine
 10
270.0514536393721
 20
1140.79380095607
 30
0.0
 11
346.0514536393712
 21
1140.79380095607
 31
0.0
  0
ARC
  5
DB9
330
2
100
AcDbEntity
  8
KIJUN
100
AcDbCircle
 10
261.5514536393716
 20
1228.29380095607
 30
0.0
 40
7.5
100
AcDbArc
 50
90.0
 51
270.0
  0
ARC
  5
DBA
330
2
100
AcDbEntity
  8
KIJUN
100
AcDbCircle
 10
264.4681203060372
 20
1210.793800956069
 30
0.0
 40
10.41666666666575
100
AcDbArc
 50
106.260204708351
 51
179.9999999999951
  0
ARC
  5
DBB
330
2
100
AcDbEntity
  8
KIJUN
100
AcDbCircle
 10
270.0514536393716
 20
1135.79380095607
 30
0.0
 40
5.0
100
AcDbArc
 50
90.0
 51
270.0
  0
ARC
  5
DBC
330
2
100
AcDbEntity
  8
KIJUN
100
AcDbCircle
 10
283.0514536393716
 20
1165.592994491345
 30
0.0
 40
28.0
100
AcDbArc
 50
135.543154788716
 51
242.3359955038066
  0
ARC
  5
DBD
330
2
100
AcDbEntity
  8
KIJUN
100
AcDbCircle
 10
252.2422075670061
 20
1195.773670008276
 30
0.0
 40
15.12870467155796
100
AcDbArc
 50
315.6780612143753
 51
83.1315427572642
  0
LINE
  5
DBE
330
2
100
AcDbEntity
  8
KIJUN
100
AcDbLine
 10
263.0514536393675
 20
645.7938009560701
 30
0.0
 11
353.0514536393757
 21
645.7938009560701
 31
0.0
  0
LINE
  5
DBF
330
2
100
AcDbEntity
  8
KIJUN
100
AcDbLine
 10
277.5514536393716
 20
715.7938009560701
 30
0.0
 11
338.5514536393718
 21
715.7938009560702
 31
0.0
  0
ARC
  5
DC0
330
2
100
AcDbEntity
  8
KIJUN
100
AcDbCircle
 10
263.0514536393716
 20
638.2938009560701
 30
0.0
 40
7.5
100
AcDbArc
 50
90.0
 51
270.0
  0
ARC
  5
DC1
330
2
100
AcDbEntity
  8
KIJUN
100
AcDbCircle
 10
277.5514536393716
 20
723.2938009560703
 30
0.0
 40
7.5
100
AcDbArc
 50
90.0
 51
270.0
  0
ARC
  5
DC2
330
2
100
AcDbEntity
  8
KIJUN
100
AcDbCircle
 10
289.3230511644854
 20
669.3286422653279
 30
0.0
 40
35.27159752511397
100
AcDbArc
 50
149.918979804763
 51
221.8548834622772
  0
ARC
  5
DC3
330
2
100
AcDbEntity
  8
KIJUN
100
AcDbCircle
 10
514.725416176896
 20
540.8141690308058
 30
0.0
 40
294.7360854976066
100
AcDbArc
 50
143.5812384405484
 51
150.2633129715221
  0
LINE
  5
DC4
330
2
100
AcDbEntity
  8
KIJUN
100
AcDbLine
 10
276.5514536393653
 20
883.7938009560703
 30
0.0
 11
339.5514536393716
 21
883.7938009560703
 31
0.0
  0
ARC
  5
DC5
330
2
100
AcDbEntity
  8
KIJUN
100
AcDbCircle
 10
276.5514536393716
 20
877.29380095607
 30
0.0
 40
6.5
100
AcDbArc
 50
90.0
 51
270.0
  0
LINE
  5
DC6
330
2
100
AcDbEntity
  8
KIJUN
100
AcDbLine
 10
267.0458126250291
 20
910.7938009560701
 30
0.0
 11
349.0570946537139
 21
910.7938009560701
 31
0.0
  0
ARC
  5
DC7
330
2
100
AcDbEntity
  8
KIJUN
100
AcDbCircle
 10
281.9734557358856
 20
900.8759569210779
 30
0.0
 40
17.92200209651404
100
AcDbArc
 50
146.4001553362953
 51
252.390178432124
  0
ARC
  5
DC8
330
2
100
AcDbEntity
  8
KIJUN
100
AcDbCircle
 10
360.5788875789981
 20
961.7806430961444
 30
0.0
 40
106.5274339396267
100
AcDbArc
 50
170.4208819945564
 51
208.5957283637342
  0
ARC
  5
DC9
330
2
100
AcDbEntity
  8
KIJUN
100
AcDbCircle
 10
-525.6311445967558
 20
1130.79380095607
 30
0.0
 40
795.6825982361274
100
AcDbArc
 50
349.0394191945616
 51
0.0
  0
ARC
  5
DCA
330
2
100
AcDbEntity
  8
KIJUN
100
AcDbCircle
 10
320.365838492
 20
801.1031894193031
 30
0.0
 40
82.31938809528882
100
AcDbArc
 50
122.1575146980175
 51
238.6609825180448
  0
ARC
  5
DCB
330
2
100
AcDbEntity
  8
KIJUN
100
AcDbCircle
 10
358.0514536393716
 20
1390.79380095607
 30
0.0
 40
5.0
100
AcDbArc
 50
0.0
 51
90.0
  0
ARC
  5
DCC
330
2
100
AcDbEntity
  8
KIJUN
100
AcDbCircle
 10
358.0514536393712
 20
1240.79380095607
 30
0.0
 40
5.0
100
AcDbArc
 50
270.0
 51
0.0
  0
ARC
  5
DCD
330
2
100
AcDbEntity
  8
KIJUN
100
AcDbCircle
 10
340.0514536393712
 20
1258.79380095607
 30
0.0
 40
23.0
100
AcDbArc
 50
270.0
 51
0.0
  0
ARC
  5
DCE
330
2
100
AcDbEntity
  8
KIJUN
100
AcDbCircle
 10
340.0514536393716
 20
1372.79380095607
 30
0.0
 40
23.0
100
AcDbArc
 50
0.0
 51
90.0
  0
LINE
  5
DCF
330
2
100
AcDbEntity
  8
KIJUN
100
AcDbLine
 10
363.0514536393712
 20
1240.79380095607
 30
0.0
 11
363.0514536393716
 21
1390.79380095607
 31
0.0
  0
ARC
  5
DD0
330
2
100
AcDbEntity
  8
KIJUN
100
AcDbCircle
 10
354.5514536393716
 20
1228.29380095607
 30
0.0
 40
7.5
100
AcDbArc
 50
270.0
 51
90.0
  0
ARC
  5
DD1
330
2
100
AcDbEntity
  8
KIJUN
100
AcDbCircle
 10
351.634786972706
 20
1210.793800956069
 30
0.0
 40
10.41666666666575
100
AcDbArc
 50
0.0000000000065138
 51
73.73979529166253
  0
ARC
  5
DD2
330
2
100
AcDbEntity
  8
KIJUN
100
AcDbCircle
 10
346.0514536393716
 20
1135.79380095607
 30
0.0
 40
5.0
100
AcDbArc
 50
270.0
 51
90.0
  0
ARC
  5
DD3
330
2
100
AcDbEntity
  8
KIJUN
100
AcDbCircle
 10
333.0514536393716
 20
1165.592994491345
 30
0.0
 40
28.0
100
AcDbArc
 50
297.6640044961935
 51
44.45684521128455
  0
ARC
  5
DD4
330
2
100
AcDbEntity
  8
KIJUN
100
AcDbCircle
 10
363.8606997117372
 20
1195.773670008276
 30
0.0
 40
15.12870467155796
100
AcDbArc
 50
96.86845724273581
 51
224.3219387856237
  0
ARC
  5
DD5
330
2
100
AcDbEntity
  8
KIJUN
100
AcDbCircle
 10
353.0514536393716
 20
638.2938009560701
 30
0.0
 40
7.5
100
AcDbArc
 50
270.0
 51
90.0
  0
ARC
  5
DD6
330
2
100
AcDbEntity
  8
KIJUN
100
AcDbCircle
 10
338.5514536393716
 20
723.2938009560703
 30
0.0
 40
7.5
100
AcDbArc
 50
270.0
 51
90.0
  0
ARC
  5
DD7
330
2
100
AcDbEntity
  8
KIJUN
100
AcDbCircle
 10
326.7798561142579
 20
669.3286422653279
 30
0.0
 40
35.27159752511397
100
AcDbArc
 50
318.1451165377228
 51
30.08102019523694
  0
ARC
  5
DD9
330
2
100
AcDbEntity
  8
KIJUN
100
AcDbCircle
 10
339.5514536393716
 20
877.29380095607
 30
0.0
 40
6.5
100
AcDbArc
 50
270.0
 51
90.0
  0
ARC
  5
DDA
330
2
100
AcDbEntity
  8
KIJUN
100
AcDbCircle
 10
334.1294515428576
 20
900.8759569210779
 30
0.0
 40
17.92200209651404
100
AcDbArc
 50
287.609821567876
 51
33.59984466370467
  0
ARC
  5
DDB
330
2
100
AcDbEntity
  8
KIJUN
100
AcDbCircle
 10
255.5240196997452
 20
961.7806430961444
 30
0.0
 40
106.5274339396267
100
AcDbArc
 50
331.404271636265
 51
9.579118005445106
  0
ARC
  5
DDC
330
2
100
AcDbEntity
  8
KIJUN
100
AcDbCircle
 10
1141.734051875499
 20
1130.79380095607
 30
0.0
 40
795.6825982361274
100
AcDbArc
 50
180.0
 51
190.9605808054383
  0
ARC
  5
DDD
330
2
100
AcDbEntity
  8
KIJUN
100
AcDbCircle
 10
295.7370687867433
 20
801.1031894193031
 30
0.0
 40
82.31938809528882
100
AcDbArc
 50
301.3390174819551
 51
57.84248530198247
  0
LINE
  5
DDE
330
2
100
AcDbEntity
  8
KIJUN
100
AcDbLine
 10
363.0514536393714
 20
295.7938009560698
 30
0.0
 11
363.0514536393714
 21
630.79380095607
 31
0.0
  0
ARC
  5
DDF
330
2
100
AcDbEntity
  8
KIJUN
100
AcDbCircle
 10
308.0514536393716
 20
543.7853696225747
 30
0.0
 40
87.00843133349541
100
AcDbArc
 50
50.79309815335798
 51
129.206901846642
  0
DIMENSION
  5
DE0
330
2
100
AcDbEntity
  8
SUNPOU
100
AcDbDimension
  2
*D21
 10
114.5039040628323
 20
1395.79380095607
 30
0.0
 11
94.50390406283213
 21
1315.79380095607
 31
0.0
 70
    32
 71
     5
 42
160.0000000000002
  3
STANDARD$0
100
AcDbAlignedDimension
 13
258.0514536393721
 23
1235.79380095607
 33
0.0
 14
258.0514536393716
 24
1395.79380095607
 34
0.0
 50
90.0
100
AcDbRotatedDimension
1001
ACAD
1000
DSTYLE
1002
{
1070
    41
1040
3.0
1070
    42
1040
3.0
1070
    44
1040
0.0
1070
    77
1070
     1
1070
   140
1040
10.0
1070
   146
1040
0.064286
1070
   147
1040
5.0
1070
   176
1070
    60
1070
   177
1070
    70
1070
   178
1070
    60
1070
   271
1070
     0
1070
   272
1070
     0
1070
   340
1005
1C
1070
   342
1005
109
1002
}
  0
DIMENSION
  5
DE1
330
2
100
AcDbEntity
  8
SUNPOU
100
AcDbDimension
  2
*D22
 10
114.5039040628326
 20
1235.79380095607
 30
0.0
 11
94.50390406283238
 21
933.2938009560701
 31
0.0
 70
    32
 71
     5
 42
605.0
  3
STANDARD$0
100
AcDbAlignedDimension
 13
253.0514536393716
 23
630.79380095607
 33
0.0
 14
258.0514536393721
 24
1235.79380095607
 34
0.0
 50
90.0
100
AcDbRotatedDimension
1001
ACAD
1000
DSTYLE
1002
{
1070
    41
1040
3.0
1070
    42
1040
3.0
1070
    44
1040
0.0
1070
    77
1070
     1
1070
   140
1040
10.0
1070
   146
1040
0.064286
1070
   147
1040
5.0
1070
   176
1070
    60
1070
   177
1070
    70
1070
   178
1070
    60
1070
   271
1070
     0
1070
   272
1070
     0
1070
   340
1005
1C
1070
   342
1005
109
1002
}
  0
DIMENSION
  5
DE2
330
2
100
AcDbEntity
  8
SUNPOU
100
AcDbDimension
  2
*D23
 10
114.5039040628326
 20
630.79380095607
 30
0.0
 11
94.50390406283247
 21
463.29380095607
 31
0.0
 70
    32
 71
     5
 42
335.0000000000002
  3
STANDARD$0
100
AcDbAlignedDimension
 13
253.0514536393718
 23
295.7938009560698
 33
0.0
 14
253.0514536393716
 24
630.79380095607
 34
0.0
 50
90.0
100
AcDbRotatedDimension
1001
ACAD
1000
DSTYLE
1002
{
1070
    41
1040
3.0
1070
    42
1040
3.0
1070
    44
1040
0.0
1070
    77
1070
     1
1070
   140
1040
10.0
1070
   146
1040
0.064286
1070
   147
1040
5.0
1070
   176
1070
    60
1070
   177
1070
    70
1070
   178
1070
    60
1070
   271
1070
     0
1070
   272
1070
     0
1070
   340
1005
1C
1070
   342
1005
109
1002
}
  0
LINE
  5
DE3
330
2
100
AcDbEntity
  8
KIJUN
100
AcDbLine
 10
318.7623796393646
 20
948.5830602017836
 30
0.0
 11
319.1998946393701
 21
944.0345552017632
 31
0.0
  0
LINE
  5
DE4
330
2
100
AcDbEntity
  8
KIJUN
100
AcDbLine
 10
319.4184616393654
 20
956.7995792017635
 30
0.0
 11
318.3253726393719
 21
953.4245542017767
 31
0.0
  0
LINE
  5
DE5
330
2
100
AcDbEntity
  8
KIJUN
100
AcDbLine
 10
316.3578886393707
 20
972.4985572017711
 30
0.0
 11
318.9814546393659
 21
974.9930912016814
 31
0.0
  0
LINE
  5
DE6
330
2
100
AcDbEntity
  8
KIJUN
100
AcDbLine
 10
316.1394486393669
 20
933.4705682017618
 30
0.0
 11
320.2929836393646
 21
926.4280372017772
 31
0.0
  0
LINE
  5
DE7
330
2
100
AcDbEntity
  8
KIJUN
100
AcDbLine
 10
322.2599596393679
 20
992.0126152017425
 30
0.0
 11
317.8883656393637
 21
994.6535802017846
 31
0.0
  0
LINE
  5
DE8
330
2
100
AcDbEntity
  8
KIJUN
100
AcDbLine
 10
318.3253726393719
 20
942.4205122016889
 30
0.0
 11
321.1668706393725
 21
936.4050302017229
 31
0.0
  0
LINE
  5
DE9
330
2
100
AcDbEntity
  8
KIJUN
100
AcDbLine
 10
341.4963956393672
 20
928.9220632017483
 30
0.0
 11
343.0264916393694
 21
927.7485832016997
 31
0.0
  0
LINE
  5
DEA
330
2
100
AcDbEntity
  8
KIJUN
100
AcDbLine
 10
344.3378936393687
 20
939.6331162017402
 30
0.0
 11
341.4963956393672
 21
937.4320792017483
 31
0.0
  0
LINE
  5
DEB
330
2
100
AcDbEntity
  8
KIJUN
100
AcDbLine
 10
346.7423846393626
 20
957.6795622017769
 30
0.0
 11
341.9334026393676
 21
957.2395072016831
 31
0.0
  0
LINE
  5
DEC
330
2
100
AcDbEntity
  8
KIJUN
100
AcDbLine
 10
339.5289116393737
 20
944.4746102017331
 30
0.0
 11
343.2449316393736
 21
945.0616042017816
 31
0.0
  0
LINE
  5
DED
330
2
100
AcDbEntity
  8
KIJUN
100
AcDbLine
 10
343.9008866393674
 20
943.0075062017374
 30
0.0
 11
341.0588806393684
 21
943.0075062017374
 31
0.0
  0
LINE
  5
DEE
330
2
100
AcDbEntity
  8
KIJUN
100
AcDbLine
 10
344.3378936393687
 20
950.9305282016892
 30
0.0
 11
341.4963956393672
 21
950.1971032017342
 31
0.0
  0
LINE
  5
DEF
330
2
100
AcDbEntity
  8
KIJUN
100
AcDbLine
 10
340.4034336393647
 20
989.3715232017664
 30
0.0
 11
343.4633716393705
 21
986.4370612016962
 31
0.0
  0
LINE
  5
DF0
330
2
100
AcDbEntity
  8
KIJUN
100
AcDbLine
 10
343.6819386393736
 20
960.6140242017307
 30
0.0
 11
342.3704096393676
 21
957.6795622017769
 31
0.0
  0
LINE
  5
DF1
330
2
100
AcDbEntity
  8
KIJUN
100
AcDbLine
 10
341.9334026393676
 20
963.2551162016996
 30
0.0
 11
343.6819386393736
 21
960.6140242017307
 31
0.0
  0
LINE
  5
DF2
330
2
100
AcDbEntity
  8
KIJUN
100
AcDbLine
 10
343.0264916393694
 20
968.243549201771
 30
0.0
 11
340.8404406393652
 21
965.4560262017863
 31
0.0
  0
LINE
  5
DF3
330
2
100
AcDbEntity
  8
KIJUN
100
AcDbLine
 10
341.7149626393707
 20
974.406097201742
 30
0.0
 11
343.0264916393694
 21
971.4715082017454
 31
0.0
  0
LINE
  5
DF4
330
2
100
AcDbEntity
  8
KIJUN
100
AcDbLine
 10
341.4963956393672
 20
916.0106082017252
 30
0.0
 11
351.2663786393655
 21
916.1255432017085
 31
0.0
  0
LINE
  5
DF5
330
2
100
AcDbEntity
  8
KIJUN
100
AcDbLine
 10
341.9334026393676
 20
920.1190582017686
 30
0.0
 11
345.6329126393662
 21
919.9406232017814
 31
0.0
  0
LINE
  5
DF6
330
2
100
AcDbEntity
  8
KIJUN
100
AcDbLine
 10
355.9234686393657
 20
955.7720222016822
 30
0.0
 11
351.7699336393684
 21
957.0925682017211
 31
0.0
  0
LINE
  5
DF7
330
2
100
AcDbEntity
  8
KIJUN
100
AcDbLine
 10
354.3929916393727
 20
942.1270152017848
 30
0.0
 11
358.3279596393595
 21
944.3280522017911
 31
0.0
  0
LINE
  5
DF8
330
2
100
AcDbEntity
  8
KIJUN
100
AcDbLine
 10
356.7435195995092
 20
928.5736103801191
 30
0.0
 11
353.3004106393687
 21
928.1885112017432
 31
0.0
  0
LINE
  5
DF9
330
2
100
AcDbEntity
  8
KIJUN
100
AcDbLine
 10
349.3339466393704
 20
919.6665572017543
 30
0.0
 11
353.3792315811208
 21
919.680147975391
 31
0.0
  0
LINE
  5
DFA
330
2
100
AcDbEntity
  8
KIJUN
100
AcDbLine
 10
358.3279596393595
 20
953.8651172016859
 30
0.0
 11
355.9234686393657
 21
955.7720222016822
 31
0.0
  0
LINE
  5
DFB
330
2
100
AcDbEntity
  8
KIJUN
100
AcDbLine
 10
360.0763686393752
 20
950.6370312017846
 30
0.0
 11
358.3279596393595
 21
953.8651172016859
 31
0.0
  0
LINE
  5
DFC
330
2
100
AcDbEntity
  8
KIJUN
100
AcDbLine
 10
360.2949356393706
 20
947.2625142017376
 30
0.0
 11
360.0763686393752
 21
950.6370312017846
 31
0.0
  0
LINE
  5
DFD
330
2
100
AcDbEntity
  8
KIJUN
100
AcDbLine
 10
358.3279596393595
 20
944.3280522017911
 30
0.0
 11
360.2949356393706
 21
947.2625142017376
 31
0.0
  0
LINE
  5
DFE
330
2
100
AcDbEntity
  8
KIJUN
100
AcDbLine
 10
346.5239446393657
 20
932.5900772016927
 30
0.0
 11
346.7423846393626
 21
935.0846112017196
 31
0.0
  0
LINE
  5
DFF
330
2
100
AcDbEntity
  8
KIJUN
100
AcDbLine
 10
345.8679896393705
 20
926.2810982016988
 30
0.0
 11
348.7098686393706
 21
924.9605522017615
 31
0.0
  0
LINE
  5
E00
330
2
100
AcDbEntity
  8
KIJUN
100
AcDbLine
 10
350.4584046393625
 20
928.6285662017133
 30
0.0
 11
348.0539136393686
 21
929.6556152017389
 31
0.0
  0
LINE
  5
E01
330
2
100
AcDbEntity
  8
KIJUN
100
AcDbLine
 10
345.6329126393662
 20
919.9406232017814
 30
0.0
 11
349.3339466393704
 21
919.6665572017543
 31
0.0
  0
LINE
  5
E02
330
2
100
AcDbEntity
  8
KIJUN
100
AcDbLine
 10
345.2124156393734
 20
919.8255612017481
 30
0.0
 11
349.8029576393646
 21
920.7055442017688
 31
0.0
  0
LINE
  5
E03
330
2
100
AcDbEntity
  8
KIJUN
100
AcDbLine
 10
348.7098686393706
 20
924.9605522017615
 30
0.0
 11
352.2074486393735
 21
925.4011152016854
 31
0.0
  0
LINE
  5
E04
330
2
100
AcDbEntity
  8
KIJUN
100
AcDbLine
 10
353.3004106393687
 20
928.1885112017432
 30
0.0
 11
350.4584046393625
 21
928.6285662017133
 31
0.0
  0
LINE
  5
E05
330
2
100
AcDbEntity
  8
KIJUN
100
AcDbLine
 10
349.8029576393646
 20
920.7055442017688
 30
0.0
 11
352.644455639374
 21
922.6130842017472
 31
0.0
  0
LINE
  5
E06
330
2
100
AcDbEntity
  8
KIJUN
100
AcDbLine
 10
343.0264916393694
 20
927.7485832016997
 30
0.0
 11
345.8679896393705
 21
926.2810982016988
 31
0.0
  0
LINE
  5
E07
330
2
100
AcDbEntity
  8
KIJUN
100
AcDbLine
 10
348.0539136393686
 20
929.6556152017389
 30
0.0
 11
346.5239446393657
 21
932.5900772016927
 31
0.0
  0
LINE
  5
E08
330
2
100
AcDbEntity
  8
KIJUN
100
AcDbLine
 10
351.7699336393684
 20
957.0925682017211
 30
0.0
 11
346.7423846393626
 21
957.6795622017769
 31
0.0
  0
LINE
  5
E09
330
2
100
AcDbEntity
  8
KIJUN
100
AcDbLine
 10
348.0539136393686
 20
944.0345552017632
 30
0.0
 11
350.2399646393655
 21
941.6870872017412
 31
0.0
  0
LINE
  5
E0A
330
2
100
AcDbEntity
  8
KIJUN
100
AcDbLine
 10
348.9284356393668
 20
940.9535352017435
 30
0.0
 11
347.1793916393703
 21
942.4205122016889
 31
0.0
  0
LINE
  5
E0B
330
2
100
AcDbEntity
  8
KIJUN
100
AcDbLine
 10
348.2724806393717
 20
937.4320792017483
 30
0.0
 11
349.8029576393646
 21
938.7524982017373
 31
0.0
  0
LINE
  5
E0C
330
2
100
AcDbEntity
  8
KIJUN
100
AcDbLine
 10
348.9284356393668
 20
951.0770862017622
 30
0.0
 11
344.3378936393687
 21
950.9305282016892
 31
0.0
  0
LINE
  5
E0D
330
2
100
AcDbEntity
  8
KIJUN
100
AcDbLine
 10
350.2399646393655
 20
941.6870872017412
 30
0.0
 11
354.3929916393727
 21
942.1270152017848
 31
0.0
  0
LINE
  5
E0E
330
2
100
AcDbEntity
  8
KIJUN
100
AcDbLine
 10
349.8029576393646
 20
938.7524982017373
 30
0.0
 11
348.9284356393668
 21
940.9535352017435
 31
0.0
  0
LINE
  5
E0F
330
2
100
AcDbEntity
  8
KIJUN
100
AcDbLine
 10
353.3004106393687
 20
950.0500372017363
 30
0.0
 11
348.9284356393668
 21
951.0770862017622
 31
0.0
  0
LINE
  5
E10
330
2
100
AcDbEntity
  8
KIJUN
100
AcDbLine
 10
343.2449316393736
 20
945.0616042017816
 30
0.0
 11
348.0539136393686
 21
944.0345552017632
 31
0.0
  0
LINE
  5
E11
330
2
100
AcDbEntity
  8
KIJUN
100
AcDbLine
 10
347.1793916393703
 20
942.4205122016889
 30
0.0
 11
343.9008866393674
 21
943.0075062017374
 31
0.0
  0
LINE
  5
E12
330
2
100
AcDbEntity
  8
KIJUN
100
AcDbLine
 10
346.7423846393626
 20
935.0846112017196
 30
0.0
 11
348.2724806393717
 21
937.4320792017483
 31
0.0
  0
LINE
  5
E13
330
2
100
AcDbEntity
  8
KIJUN
100
AcDbLine
 10
347.1793916393703
 20
982.3291192016938
 30
0.0
 11
349.5838826393715
 21
978.2205422017167
 31
0.0
  0
LINE
  5
E14
330
2
100
AcDbEntity
  8
KIJUN
100
AcDbLine
 10
353.3004106393687
 20
969.1240402017308
 30
0.0
 11
353.7374176393687
 21
964.7226012017151
 31
0.0
  0
LINE
  5
E15
330
2
100
AcDbEntity
  8
KIJUN
100
AcDbLine
 10
351.7699336393684
 20
973.2321092017617
 30
0.0
 11
353.3004106393687
 21
969.1240402017308
 31
0.0
  0
LINE
  5
E16
330
2
100
AcDbEntity
  8
KIJUN
100
AcDbLine
 10
349.5838826393715
 20
978.2205422017167
 30
0.0
 11
351.7699336393684
 21
973.2321092017617
 31
0.0
  0
LINE
  5
E17
330
2
100
AcDbEntity
  8
KIJUN
100
AcDbLine
 10
343.4633716393705
 20
986.4370612016962
 30
0.0
 11
347.1793916393703
 21
982.3291192016938
 31
0.0
  0
LINE
  5
E18
330
2
100
AcDbEntity
  8
KIJUN
100
AcDbLine
 10
343.0264916393694
 20
971.4715082017454
 30
0.0
 11
343.0264916393694
 21
968.243549201771
 31
0.0
  0
LINE
  5
E19
330
2
100
AcDbEntity
  8
KIJUN
100
AcDbLine
 10
322.9159146393699
 20
963.4020552017778
 30
0.0
 11
320.9484306393765
 21
960.4675932017078
 31
0.0
  0
LINE
  5
E1A
330
2
100
AcDbEntity
  8
KIJUN
100
AcDbLine
 10
333.1899606393604
 20
953.8651172016859
 30
0.0
 11
329.6923806393656
 21
950.9305282016892
 31
0.0
  0
LINE
  5
E1B
330
2
100
AcDbEntity
  8
KIJUN
100
AcDbLine
 10
331.0039096393634
 20
939.3396192017196
 30
0.0
 11
330.3479546393696
 21
936.6985272017432
 31
0.0
  0
LINE
  5
E1C
330
2
100
AcDbEntity
  8
KIJUN
100
AcDbLine
 10
325.7259166393683
 20
921.5031042017169
 30
0.0
 11
331.6594836393674
 21
918.2115182016886
 31
0.0
  0
LINE
  5
E1D
330
2
100
AcDbEntity
  8
KIJUN
100
AcDbLine
 10
328.1619036393645
 20
926.8680922017471
 30
0.0
 11
332.9708856393677
 21
923.2000782017955
 31
0.0
  0
LINE
  5
E1E
330
2
100
AcDbEntity
  8
KIJUN
100
AcDbLine
 10
340.1844856393632
 20
933.1770712017412
 30
0.0
 11
340.4034336393647
 21
931.2695312017623
 31
0.0
  0
LINE
  5
E1F
330
2
100
AcDbEntity
  8
KIJUN
100
AcDbLine
 10
331.6594836393674
 20
918.2115182016886
 30
0.0
 11
337.3429876393688
 21
916.4505362017612
 31
0.0
  0
LINE
  5
E20
330
2
100
AcDbEntity
  8
KIJUN
100
AcDbLine
 10
332.9708856393677
 20
923.2000782017955
 30
0.0
 11
337.5614276393658
 21
920.8526102017739
 31
0.0
  0
LINE
  5
E21
330
2
100
AcDbEntity
  8
KIJUN
100
AcDbLine
 10
340.4034336393647
 20
931.2695312017623
 30
0.0
 11
341.4963956393672
 21
928.9220632017483
 31
0.0
  0
LINE
  5
E22
330
2
100
AcDbEntity
  8
KIJUN
100
AcDbLine
 10
337.3429876393688
 20
916.4505362017612
 30
0.0
 11
341.4963956393672
 21
916.0106082017252
 31
0.0
  0
LINE
  5
E23
330
2
100
AcDbEntity
  8
KIJUN
100
AcDbLine
 10
337.5614276393658
 20
920.8526102017739
 30
0.0
 11
341.9334026393676
 21
920.1190582017686
 31
0.0
  0
LINE
  5
E24
330
2
100
AcDbEntity
  8
KIJUN
100
AcDbLine
 10
336.9059806393684
 20
955.4790332017171
 30
0.0
 11
333.1899606393604
 21
953.8651172016859
 31
0.0
  0
LINE
  5
E25
330
2
100
AcDbEntity
  8
KIJUN
100
AcDbLine
 10
336.4684656393624
 20
942.5670702017621
 30
0.0
 11
339.5289116393737
 21
944.4746102017331
 31
0.0
  0
LINE
  5
E26
330
2
100
AcDbEntity
  8
KIJUN
100
AcDbLine
 10
337.9989426393708
 20
942.4205122016889
 30
0.0
 11
335.1569366393719
 21
939.6331162017402
 31
0.0
  0
LINE
  5
E27
330
2
100
AcDbEntity
  8
KIJUN
100
AcDbLine
 10
337.9989426393708
 20
949.1695462017764
 30
0.0
 11
334.0639746393613
 21
946.8220782017549
 31
0.0
  0
LINE
  5
E28
330
2
100
AcDbEntity
  8
KIJUN
100
AcDbLine
 10
340.4034336393647
 20
935.8180362017908
 30
0.0
 11
340.1844856393632
 21
933.1770712017412
 31
0.0
  0
LINE
  5
E29
330
2
100
AcDbEntity
  8
KIJUN
100
AcDbLine
 10
341.4963956393672
 20
937.4320792017483
 30
0.0
 11
340.4034336393647
 21
935.8180362017908
 31
0.0
  0
LINE
  5
E2A
330
2
100
AcDbEntity
  8
KIJUN
100
AcDbLine
 10
341.9334026393676
 20
957.2395072016831
 30
0.0
 11
336.9059806393684
 21
955.4790332017171
 31
0.0
  0
LINE
  5
E2B
330
2
100
AcDbEntity
  8
KIJUN
100
AcDbLine
 10
341.0588806393684
 20
943.0075062017374
 30
0.0
 11
337.9989426393708
 21
942.4205122016889
 31
0.0
  0
LINE
  5
E2C
330
2
100
AcDbEntity
  8
KIJUN
100
AcDbLine
 10
341.4963956393672
 20
950.1971032017342
 30
0.0
 11
337.9989426393708
 21
949.1695462017764
 31
0.0
  0
LINE
  5
E2D
330
2
100
AcDbEntity
  8
KIJUN
100
AcDbLine
 10
335.1569366393719
 20
939.6331162017402
 30
0.0
 11
336.4684656393624
 21
942.5670702017621
 31
0.0
  0
LINE
  5
E2E
330
2
100
AcDbEntity
  8
KIJUN
100
AcDbLine
 10
331.6594836393674
 20
941.980584201762
 30
0.0
 11
331.0039096393634
 21
939.3396192017196
 31
0.0
  0
LINE
  5
E2F
330
2
100
AcDbEntity
  8
KIJUN
100
AcDbLine
 10
332.9708856393677
 20
944.9150462017231
 30
0.0
 11
331.6594836393674
 21
941.980584201762
 31
0.0
  0
LINE
  5
E30
330
2
100
AcDbEntity
  8
KIJUN
100
AcDbLine
 10
334.0639746393613
 20
946.8220782017549
 30
0.0
 11
332.9708856393677
 21
944.9150462017231
 31
0.0
  0
LINE
  5
E31
330
2
100
AcDbEntity
  8
KIJUN
100
AcDbLine
 10
324.0088766393715
 20
935.964594201733
 30
0.0
 11
325.1019656393669
 21
932.5900772016927
 31
0.0
  0
LINE
  5
E32
330
2
100
AcDbEntity
  8
KIJUN
100
AcDbLine
 10
321.1668706393725
 20
936.4050302017229
 30
0.0
 11
324.6644506393686
 21
930.683045201777
 31
0.0
  0
LINE
  5
E33
330
2
100
AcDbEntity
  8
KIJUN
100
AcDbLine
 10
320.2929836393646
 20
926.4280372017772
 30
0.0
 11
325.7259166393683
 21
921.5031042017169
 31
0.0
  0
LINE
  5
E34
330
2
100
AcDbEntity
  8
KIJUN
100
AcDbLine
 10
324.6644506393686
 20
930.683045201777
 30
0.0
 11
328.1619036393645
 21
926.8680922017471
 31
0.0
  0
LINE
  5
E35
330
2
100
AcDbEntity
  8
KIJUN
100
AcDbLine
 10
325.1019656393669
 20
932.5900772016927
 30
0.0
 11
325.9759796393678
 21
929.215560201769
 31
0.0
  0
LINE
  5
E36
330
2
100
AcDbEntity
  8
KIJUN
100
AcDbLine
 10
326.6319346393698
 20
946.8220782017549
 30
0.0
 11
324.6644506393686
 21
942.4205122016889
 31
0.0
  0
LINE
  5
E37
330
2
100
AcDbEntity
  8
KIJUN
100
AcDbLine
 10
329.6923806393656
 20
950.9305282016892
 30
0.0
 11
326.6319346393698
 21
946.8220782017549
 31
0.0
  0
LINE
  5
E38
330
2
100
AcDbEntity
  8
KIJUN
100
AcDbLine
 10
323.7904366393677
 20
938.7524982017373
 30
0.0
 11
324.0088766393715
 21
935.964594201733
 31
0.0
  0
LINE
  5
E39
330
2
100
AcDbEntity
  8
KIJUN
100
AcDbLine
 10
324.6644506393686
 20
942.4205122016889
 30
0.0
 11
323.7904366393677
 21
938.7524982017373
 31
0.0
  0
LINE
  5
E3A
330
2
100
AcDbEntity
  8
KIJUN
100
AcDbLine
 10
320.9484306393765
 20
960.4675932017078
 30
0.0
 11
319.4184616393654
 21
956.7995792017635
 31
0.0
  0
LINE
  5
E3B
330
2
100
AcDbEntity
  8
KIJUN
100
AcDbLine
 10
326.6319346393698
 20
997.4416112017232
 30
0.0
 11
332.9708856393677
 21
994.3600832017571
 31
0.0
  0
LINE
  5
E3C
330
2
100
AcDbEntity
  8
KIJUN
100
AcDbLine
 10
335.1569366393719
 20
971.618066201702
 30
0.0
 11
327.506456639368
 21
968.5370462016823
 31
0.0
  0
LINE
  5
E3D
330
2
100
AcDbEntity
  8
KIJUN
100
AcDbLine
 10
328.8179856393735
 20
978.807536201765
 30
0.0
 11
333.4084006393728
 21
978.6611052017494
 31
0.0
  0
LINE
  5
E3E
330
2
100
AcDbEntity
  8
KIJUN
100
AcDbLine
 10
333.4084006393728
 20
978.6611052017494
 30
0.0
 11
337.9989426393708
 21
977.1936202017412
 31
0.0
  0
LINE
  5
E3F
330
2
100
AcDbEntity
  8
KIJUN
100
AcDbLine
 10
338.2173826393678
 20
963.9885412017708
 30
0.0
 11
341.9334026393676
 21
963.2551162016996
 31
0.0
  0
LINE
  5
E40
330
2
100
AcDbEntity
  8
KIJUN
100
AcDbLine
 10
340.8404406393652
 20
965.4560262017863
 30
0.0
 11
338.2173826393678
 21
963.9885412017708
 31
0.0
  0
LINE
  5
E41
330
2
100
AcDbEntity
  8
KIJUN
100
AcDbLine
 10
337.9989426393708
 20
977.1936202017412
 30
0.0
 11
341.7149626393707
 21
974.406097201742
 31
0.0
  0
LINE
  5
E42
330
2
100
AcDbEntity
  8
KIJUN
100
AcDbLine
 10
336.0314586393629
 20
992.3061122017632
 30
0.0
 11
340.4034336393647
 21
989.3715232017664
 31
0.0
  0
LINE
  5
E43
330
2
100
AcDbEntity
  8
KIJUN
100
AcDbLine
 10
332.9708856393677
 20
994.3600832017571
 30
0.0
 11
336.0314586393629
 21
992.3061122017632
 31
0.0
  0
LINE
  5
E44
330
2
100
AcDbEntity
  8
KIJUN
100
AcDbLine
 10
325.7574126393643
 20
983.5025992017424
 30
0.0
 11
324.6644506393686
 21
988.6380982016952
 31
0.0
  0
LINE
  5
E45
330
2
100
AcDbEntity
  8
KIJUN
100
AcDbLine
 10
327.506456639368
 20
968.5370462016823
 30
0.0
 11
324.6644506393686
 21
965.7495232016833
 31
0.0
  0
LINE
  5
E46
330
2
100
AcDbEntity
  8
KIJUN
100
AcDbLine
 10
323.7904366393677
 20
978.2205422017167
 30
0.0
 11
328.8179856393735
 21
978.807536201765
 31
0.0
  0
LINE
  5
E47
330
2
100
AcDbEntity
  8
KIJUN
100
AcDbLine
 10
324.4458836393728
 20
978.6611052017494
 30
0.0
 11
325.7574126393643
 21
983.5025992017424
 31
0.0
  0
LINE
  5
E48
330
2
100
AcDbEntity
  8
KIJUN
100
AcDbLine
 10
324.6644506393686
 20
965.7495232016833
 30
0.0
 11
322.9159146393699
 21
963.4020552017778
 31
0.0
  0
LINE
  5
E49
330
2
100
AcDbEntity
  8
KIJUN
100
AcDbLine
 10
321.1668706393725
 20
976.9001232017133
 30
0.0
 11
323.7904366393677
 21
978.2205422017167
 31
0.0
  0
LINE
  5
E4A
330
2
100
AcDbEntity
  8
KIJUN
100
AcDbLine
 10
318.9814546393659
 20
974.9930912016814
 30
0.0
 11
321.1668706393725
 21
976.9001232017133
 31
0.0
  0
LINE
  5
E4B
330
2
100
AcDbEntity
  8
KIJUN
100
AcDbLine
 10
324.6644506393686
 20
988.6380982016952
 30
0.0
 11
322.2599596393679
 21
992.0126152017425
 31
0.0
  0
LINE
  5
E4C
330
2
100
AcDbEntity
  8
KIJUN
100
AcDbLine
 10
313.7349576393722
 20
959.7335332017708
 30
0.0
 11
313.95339763937
 21
963.5486132017275
 31
0.0
  0
LINE
  5
E4D
330
2
100
AcDbEntity
  8
KIJUN
100
AcDbLine
 10
308.0514536393716
 20
971.0361794215673
 30
0.0
 11
309.362982639364
 21
957.3860652017563
 31
0.0
  0
LINE
  5
E4E
330
2
100
AcDbEntity
  8
KIJUN
100
AcDbLine
 10
311.1118996393684
 20
965.1625292017513
 30
0.0
 11
312.641868639364
 21
959.2936052017273
 31
0.0
  0
LINE
  5
E4F
330
2
100
AcDbEntity
  8
KIJUN
100
AcDbLine
 10
310.4559446393737
 20
949.3166122017816
 30
0.0
 11
313.0793836393686
 21
941.6870872017412
 31
0.0
  0
LINE
  5
E50
330
2
100
AcDbEntity
  8
KIJUN
100
AcDbLine
 10
312.641868639364
 20
959.2936052017273
 30
0.0
 11
315.2649266393614
 21
952.1040082017302
 31
0.0
  0
LINE
  5
E51
330
2
100
AcDbEntity
  8
KIJUN
100
AcDbLine
 10
318.3253726393719
 20
953.4245542017767
 30
0.0
 11
318.7623796393646
 21
948.5830602017836
 31
0.0
  0
LINE
  5
E52
330
2
100
AcDbEntity
  8
KIJUN
100
AcDbLine
 10
314.3909126393741
 20
954.8920392017778
 30
0.0
 11
313.7349576393722
 21
959.7335332017708
 31
0.0
  0
LINE
  5
E53
330
2
100
AcDbEntity
  8
KIJUN
100
AcDbLine
 10
313.0793836393686
 20
941.6870872017412
 30
0.0
 11
316.1394486393669
 21
933.4705682017618
 31
0.0
  0
LINE
  5
E54
330
2
100
AcDbEntity
  8
KIJUN
100
AcDbLine
 10
316.5769636393716
 20
946.3820232017846
 30
0.0
 11
318.3253726393719
 21
942.4205122016889
 31
0.0
  0
LINE
  5
E55
330
2
100
AcDbEntity
  8
KIJUN
100
AcDbLine
 10
315.2649266393614
 20
952.1040082017302
 30
0.0
 11
316.5769636393716
 21
946.3820232017846
 31
0.0
  0
LINE
  5
E56
330
2
100
AcDbEntity
  8
KIJUN
100
AcDbLine
 10
309.362982639364
 20
957.3860652017563
 30
0.0
 11
310.4559446393737
 21
949.3166122017816
 31
0.0
  0
LINE
  5
E57
330
2
100
AcDbEntity
  8
KIJUN
100
AcDbLine
 10
312.2049886393702
 20
996.1210652017859
 30
0.0
 11
308.05145363937
 21
996.2324515976852
 31
0.0
  0
LINE
  5
E58
330
2
100
AcDbEntity
  8
KIJUN
100
AcDbLine
 10
308.0514536393716
 20
990.5455112017467
 30
0.0
 11
309.5819306393728
 21
982.9161132017423
 31
0.0
  0
LINE
  5
E59
330
2
100
AcDbEntity
  8
KIJUN
100
AcDbLine
 10
315.2649266393614
 20
969.7110342017717
 30
0.0
 11
316.3578886393707
 21
972.4985572017711
 31
0.0
  0
LINE
  5
E5A
330
2
100
AcDbEntity
  8
KIJUN
100
AcDbLine
 10
314.3909126393741
 20
966.7765722017092
 30
0.0
 11
315.2649266393614
 21
969.7110342017717
 31
0.0
  0
LINE
  5
E5B
330
2
100
AcDbEntity
  8
KIJUN
100
AcDbLine
 10
313.95339763937
 20
963.5486132017275
 30
0.0
 11
314.3909126393741
 21
966.7765722017092
 31
0.0
  0
LINE
  5
E5C
330
2
100
AcDbEntity
  8
KIJUN
100
AcDbLine
 10
310.2373776393697
 20
972.0585022016846
 30
0.0
 11
311.1118996393684
 21
965.1625292017513
 31
0.0
  0
LINE
  5
E5D
330
2
100
AcDbEntity
  8
KIJUN
100
AcDbLine
 10
309.8003706393697
 20
977.1936202017412
 30
0.0
 11
310.2373776393697
 21
972.0585022016846
 31
0.0
  0
LINE
  5
E5E
330
2
100
AcDbEntity
  8
KIJUN
100
AcDbLine
 10
309.5819306393728
 20
982.9161132017423
 30
0.0
 11
309.8003706393697
 21
977.1936202017412
 31
0.0
  0
LINE
  5
E5F
330
2
100
AcDbEntity
  8
KIJUN
100
AcDbLine
 10
317.8883656393637
 20
994.6535802017846
 30
0.0
 11
312.2049886393702
 21
996.1210652017859
 31
0.0
  0
ARC
  5
E60
330
2
100
AcDbEntity
  8
KIJUN
100
AcDbCircle
 10
319.462956707223
 20
800.7938009560701
 30
0.0
 40
80.98028084790763
100
AcDbArc
 50
127.5083660781178
 51
232.4916339218822
  0
ARC
  5
E61
330
2
100
AcDbEntity
  8
KIJUN
100
AcDbCircle
 10
335.3468587404884
 20
800.7938009560694
 30
0.0
 40
89.68410515357797
100
AcDbArc
 50
134.5768531421537
 51
225.4231468578454
  0
ARC
  5
E62
330
2
100
AcDbEntity
  8
KIJUN
100
AcDbCircle
 10
363.3939210076783
 20
800.7938009560687
 30
0.0
 40
108.3280866109494
100
AcDbArc
 50
144.1626881230052
 51
215.8373118769937
  0
ARC
  5
E63
330
2
100
AcDbEntity
  8
KIJUN
100
AcDbCircle
 10
409.0988210077632
 20
800.7938009560671
 30
0.0
 40
143.889695608147
100
AcDbArc
 50
153.7441356983821
 51
206.2558643016161
  0
ARC
  5
E64
330
2
100
AcDbEntity
  8
KIJUN
100
AcDbCircle
 10
448.7986607083585
 20
800.7938009560666
 30
0.0
 40
174.1324797936804
100
AcDbArc
 50
158.654920630881
 51
201.345079369118
  0
ARC
  5
E65
330
2
100
AcDbEntity
  8
KIJUN
100
AcDbCircle
 10
546.6482464353434
 20
800.7938009560628
 30
0.0
 40
261.8688863795791
100
AcDbArc
 50
165.9933148001175
 51
194.0066851998794
  0
ARC
  5
E66
330
2
100
AcDbEntity
  8
KIJUN
100
AcDbCircle
 10
670.2785995833451
 20
800.7938009560604
 30
0.0
 40
377.3363943101554
100
AcDbArc
 50
170.3400676626521
 51
189.6599323373448
  0
ARC
  5
E67
330
2
100
AcDbEntity
  8
KIJUN
100
AcDbCircle
 10
826.1462134636987
 20
800.7938009560849
 30
0.0
 40
526.5494984235702
100
AcDbArc
 50
173.0738674205761
 51
186.9261325791635
  0
ARC
  5
E68
330
2
100
AcDbEntity
  8
KIJUN
100
AcDbCircle
 10
5142.69602362672
 20
800.7938009558831
 30
0.0
 40
4835.101004711976
100
AcDbArc
 50
179.2489103354213
 51
180.7510896645737
  0
ARC
  5
E69
330
2
100
AcDbEntity
  8
KIJUN
100
AcDbCircle
 10
305.7597985938091
 20
865.6226892253979
 30
0.0
 40
2.675912242850285
100
AcDbArc
 50
209.8647747990764
 51
327.2544764202482
  0
ARC
  5
E6A
330
2
100
AcDbEntity
  8
KIJUN
100
AcDbCircle
 10
300.7355824173398
 20
867.9384942926461
 30
0.0
 40
4.540899327991751
100
AcDbArc
 50
237.450291939242
 51
306.5412380291326
  0
ARC
  5
E6B
330
2
100
AcDbEntity
  8
KIJUN
100
AcDbCircle
 10
295.4871378416547
 20
869.3207631000282
 30
0.0
 40
5.917163920007291
100
AcDbArc
 50
240.4108665414553
 51
298.3004601312255
  0
ARC
  5
E6C
330
2
100
AcDbEntity
  8
KIJUN
100
AcDbCircle
 10
289.5880764019523
 20
869.7574508727981
 30
0.0
 40
6.326541679970898
100
AcDbArc
 50
241.9264231281292
 51
298.0735768718709
  0
ARC
  5
E6D
330
2
100
AcDbEntity
  8
KIJUN
100
AcDbCircle
 10
283.5058049600082
 20
868.4763179244782
 30
0.0
 40
5.304704617228372
100
AcDbArc
 50
229.4135079563786
 51
305.8258589991845
  0
ARC
  5
E6E
330
2
100
AcDbEntity
  8
KIJUN
100
AcDbCircle
 10
277.6739774754633
 20
867.0751431656364
 30
0.0
 40
3.545458653775861
100
AcDbArc
 50
233.6838475766737
 51
312.1793793325031
  0
ARC
  5
E6F
330
2
100
AcDbEntity
  8
KIJUN
100
AcDbCircle
 10
274.3200953673963
 20
866.7508717147784
 30
0.0
 40
2.826036313726571
100
AcDbArc
 50
227.2199954959082
 51
296.3448577481625
  0
ARC
  5
E70
330
2
100
AcDbEntity
  8
KIJUN
100
AcDbCircle
 10
271.4302160903676
 20
865.8127471170004
 30
0.0
 40
1.49416615571166
100
AcDbArc
 50
211.4761263250031
 51
310.504737589158
  0
ARC
  5
E71
330
2
100
AcDbEntity
  8
KIJUN
100
AcDbCircle
 10
305.7597985938091
 20
735.9649126867423
 30
0.0
 40
2.675912242850285
100
AcDbArc
 50
32.74552357975182
 51
150.1352252009244
  0
ARC
  5
E72
330
2
100
AcDbEntity
  8
KIJUN
100
AcDbCircle
 10
300.7355824173398
 20
733.649107619494
 30
0.0
 40
4.540899327991751
100
AcDbArc
 50
53.45876197086742
 51
122.5497080607428
  0
ARC
  5
E73
330
2
100
AcDbEntity
  8
KIJUN
100
AcDbCircle
 10
295.4871378416547
 20
732.2668388121119
 30
0.0
 40
5.917163920007291
100
AcDbArc
 50
61.69953986877448
 51
119.5891334585448
  0
ARC
  5
E74
330
2
100
AcDbEntity
  8
KIJUN
100
AcDbCircle
 10
289.5880764019523
 20
731.8301510393419
 30
0.0
 40
6.326541679970898
100
AcDbArc
 50
61.92642312812922
 51
118.0735768718707
  0
ARC
  5
E75
330
2
100
AcDbEntity
  8
KIJUN
100
AcDbCircle
 10
283.5058049600082
 20
733.1112839876618
 30
0.0
 40
5.304704617228372
100
AcDbArc
 50
54.17414100081554
 51
130.5864920436371
  0
ARC
  5
E76
330
2
100
AcDbEntity
  8
KIJUN
100
AcDbCircle
 10
277.6739774754633
 20
734.5124587465036
 30
0.0
 40
3.545458653775861
100
AcDbArc
 50
47.8206206674969
 51
126.3161524233262
  0
ARC
  5
E77
330
2
100
AcDbEntity
  8
KIJUN
100
AcDbCircle
 10
274.3200953673963
 20
734.8367301973617
 30
0.0
 40
2.826036313726571
100
AcDbArc
 50
63.65514225183751
 51
132.7800045040918
  0
ARC
  5
E78
330
2
100
AcDbEntity
  8
KIJUN
100
AcDbCircle
 10
271.4302160903676
 20
735.7748547951396
 30
0.0
 40
1.49416615571166
100
AcDbArc
 50
49.49526241084182
 51
148.5238736749954
  0
ARC
  5
E79
330
2
100
AcDbEntity
  8
KIJUN
100
AcDbCircle
 10
296.6399505715203
 20
800.7938009560701
 30
0.0
 40
80.98028084790762
100
AcDbArc
 50
307.5083660781181
 51
52.4916339218819
  0
ARC
  5
E7A
330
2
100
AcDbEntity
  8
KIJUN
100
AcDbCircle
 10
280.7560485382548
 20
800.7938009560694
 30
0.0
 40
89.68410515357795
100
AcDbArc
 50
314.5768531421546
 51
45.42314685784538
  0
ARC
  5
E7B
330
2
100
AcDbEntity
  8
KIJUN
100
AcDbCircle
 10
252.708986271065
 20
800.7938009560687
 30
0.0
 40
108.3280866109494
100
AcDbArc
 50
324.1626881230063
 51
35.8373118769941
  0
ARC
  5
E7C
330
2
100
AcDbEntity
  8
KIJUN
100
AcDbCircle
 10
207.0040862709802
 20
800.7938009560671
 30
0.0
 40
143.8896956081469
100
AcDbArc
 50
333.7441356983839
 51
26.25586430161702
  0
ARC
  5
E7D
330
2
100
AcDbEntity
  8
KIJUN
100
AcDbCircle
 10
167.304246570385
 20
800.7938009560666
 30
0.0
 40
174.1324797936804
100
AcDbArc
 50
338.654920630882
 51
21.34507936911992
  0
ARC
  5
E7E
330
2
100
AcDbEntity
  8
KIJUN
100
AcDbCircle
 10
69.45466084339978
 20
800.7938009560628
 30
0.0
 40
261.868886379579
100
AcDbArc
 50
345.9933148001216
 51
14.00668519988093
  0
ARC
  5
E7F
330
2
100
AcDbEntity
  8
KIJUN
100
AcDbCircle
 10
-54.17569230460185
 20
800.7938009560604
 30
0.0
 40
377.3363943101553
100
AcDbArc
 50
350.3400676626537
 51
9.659932337349468
  0
ARC
  5
E80
330
2
100
AcDbEntity
  8
KIJUN
100
AcDbCircle
 10
-210.0433061849553
 20
800.7938009560849
 30
0.0
 40
526.54949842357
100
AcDbArc
 50
353.0738674208364
 51
6.926132579423921
  0
ARC
  5
E81
330
2
100
AcDbEntity
  8
KIJUN
100
AcDbCircle
 10
310.3009827198917
 20
865.6933904136684
 30
0.0
 40
2.747946042108391
100
AcDbArc
 50
213.5358257410876
 51
329.2941843431237
  0
ARC
  5
E82
330
2
100
AcDbEntity
  8
KIJUN
100
AcDbCircle
 10
315.3673248614034
 20
867.9384942926461
 30
0.0
 40
4.54089932799175
100
AcDbArc
 50
233.4587619708674
 51
302.5497080607581
  0
ARC
  5
E83
330
2
100
AcDbEntity
  8
KIJUN
100
AcDbCircle
 10
320.6157694370886
 20
869.3207631000282
 30
0.0
 40
5.91716392000729
100
AcDbArc
 50
241.6995398687744
 51
299.5891334585449
  0
ARC
  5
E84
330
2
100
AcDbEntity
  8
KIJUN
100
AcDbCircle
 10
326.5148308767909
 20
869.7574508727981
 30
0.0
 40
6.326541679970896
100
AcDbArc
 50
241.9264231281292
 51
298.0735768718708
  0
ARC
  5
E85
330
2
100
AcDbEntity
  8
KIJUN
100
AcDbCircle
 10
332.5971023187351
 20
868.4763179244782
 30
0.0
 40
5.304704617228371
100
AcDbArc
 50
234.1741410008159
 51
310.5864920436208
  0
ARC
  5
E86
330
2
100
AcDbEntity
  8
KIJUN
100
AcDbCircle
 10
338.42892980328
 20
867.0751431656364
 30
0.0
 40
3.54545865377586
100
AcDbArc
 50
227.8206206674977
 51
306.3161524233259
  0
ARC
  5
E87
330
2
100
AcDbEntity
  8
KIJUN
100
AcDbCircle
 10
341.7828119113469
 20
866.7508717147784
 30
0.0
 40
2.826036313726571
100
AcDbArc
 50
243.6551422518376
 51
312.7800045040918
  0
ARC
  5
E88
330
2
100
AcDbEntity
  8
KIJUN
100
AcDbCircle
 10
344.6726911883757
 20
865.8127471170004
 30
0.0
 40
1.49416615571166
100
AcDbArc
 50
229.4952624108418
 51
328.5238736749969
  0
ARC
  5
E89
330
2
100
AcDbEntity
  8
KIJUN
100
AcDbCircle
 10
310.3009827198862
 20
735.8942114984621
 30
0.0
 40
2.747946042118081
100
AcDbArc
 50
30.70581565698814
 51
146.4641742585724
  0
ARC
  5
E8A
330
2
100
AcDbEntity
  8
KIJUN
100
AcDbCircle
 10
315.3673248614034
 20
733.649107619494
 30
0.0
 40
4.54089932799175
100
AcDbArc
 50
57.45029193925727
 51
126.5412380291326
  0
ARC
  5
E8B
330
2
100
AcDbEntity
  8
KIJUN
100
AcDbCircle
 10
320.6157694370886
 20
732.2668388121119
 30
0.0
 40
5.91716392000729
100
AcDbArc
 50
60.41086654145514
 51
118.3004601312255
  0
ARC
  5
E8C
330
2
100
AcDbEntity
  8
KIJUN
100
AcDbCircle
 10
326.5148308767909
 20
731.8301510393419
 30
0.0
 40
6.326541679970896
100
AcDbArc
 50
61.92642312812922
 51
118.0735768718707
  0
ARC
  5
E8D
330
2
100
AcDbEntity
  8
KIJUN
100
AcDbCircle
 10
332.5971023187351
 20
733.1112839876618
 30
0.0
 40
5.304704617228371
100
AcDbArc
 50
49.41350795636221
 51
125.8258589991841
  0
ARC
  5
E8E
330
2
100
AcDbEntity
  8
KIJUN
100
AcDbCircle
 10
338.42892980328
 20
734.5124587465036
 30
0.0
 40
3.54545865377586
100
AcDbArc
 50
53.68384757667398
 51
132.1793793325023
  0
ARC
  5
E8F
330
2
100
AcDbEntity
  8
KIJUN
100
AcDbCircle
 10
341.7828119113469
 20
734.8367301973617
 30
0.0
 40
2.826036313726571
100
AcDbArc
 50
47.21999549590819
 51
116.3448577481624
  0
ARC
  5
E90
330
2
100
AcDbEntity
  8
KIJUN
100
AcDbCircle
 10
344.6726911883757
 20
735.7748547951396
 30
0.0
 40
1.49416615571166
100
AcDbArc
 50
31.47612632500383
 51
130.5047375891581
  0
LINE
  5
E91
330
2
100
AcDbEntity
  8
KIJUN
  6
DASHED
 48
0.3
370
     9
100
AcDbLine
 10
295.5514536393714
 20
1355.79380095607
 30
0.0
 11
295.5514536393714
 21
1395.79380095607
 31
0.0
  0
LINE
  5
E92
330
2
100
AcDbEntity
  8
KIJUN
  6
DASHED
 48
0.3
370
     9
100
AcDbLine
 10
320.5514536393714
 20
1355.79380095607
 30
0.0
 11
320.5514536393716
 21
1395.79380095607
 31
0.0
  0
LINE
  5
E93
330
2
100
AcDbEntity
  8
KIJUN
  6
DASHED
 48
0.3
370
     9
100
AcDbLine
 10
295.5514536393714
 20
1355.79380095607
 30
0.0
 11
320.5514536393714
 21
1355.79380095607
 31
0.0
  0
DIMENSION
  5
E94
330
2
100
AcDbEntity
  8
SUNPOU
100
AcDbDimension
  2
*D24
 10
320.5514536393716
 20
1456.190442702322
 30
0.0
 11
303.8470094820432
 21
1476.308539226831
 31
0.0
 70
   160
  1
φ25
 71
     5
 42
25.00000000000023
  3
STANDARD$0
100
AcDbAlignedDimension
 13
295.5514536393714
 23
1395.79380095607
 33
0.0
 14
320.5514536393716
 24
1395.79380095607
 34
0.0
100
AcDbRotatedDimension
1001
ACAD
1000
DSTYLE
1002
{
1070
    41
1040
3.0
1070
    42
1040
3.0
1070
    44
1040
0.0
1070
    77
1070
     1
1070
   140
1040
10.0
1070
   146
1040
0.064286
1070
   147
1040
5.0
1070
   176
1070
    60
1070
   177
1070
    70
1070
   178
1070
    60
1070
   271
1070
     0
1070
   272
1070
     0
1070
   279
1070
     2
1070
   340
1005
1C
1070
   342
1005
109
1002
}
  0
LINE
  5
E95
330
2
100
AcDbEntity
  8
KIJUN
  6
DASHED
 48
0.3
370
     9
100
AcDbLine
 10
295.5514536393714
 20
335.7938009560698
 30
0.0
 11
295.5514536393714
 21
295.7938009560701
 31
0.0
  0
LINE
  5
E96
330
2
100
AcDbEntity
  8
KIJUN
  6
DASHED
 48
0.3
370
     9
100
AcDbLine
 10
320.5514536393714
 20
335.7938009560698
 30
0.0
 11
320.5514536393716
 21
295.7938009560701
 31
0.0
  0
LINE
  5
E97
330
2
100
AcDbEntity
  8
KIJUN
  6
DASHED
 48
0.3
370
     9
100
AcDbLine
 10
295.5514536393714
 20
335.7938009560698
 30
0.0
 11
320.5514536393714
 21
335.7938009560698
 31
0.0
  0
DIMENSION
  5
E98
330
2
100
AcDbEntity
  8
SUNPOU
100
AcDbDimension
  2
*D25
 10
320.5514536393716
 20
249.9467767454075
 30
0.0
 11
305.2434390140461
 21
227.0210478011522
 31
0.0
 70
   160
  1
φ25
 71
     5
 42
25.00000000000023
  3
STANDARD$0
100
AcDbAlignedDimension
 13
295.5514536393714
 23
295.7938009560701
 33
0.0
 14
320.5514536393716
 24
295.7938009560701
 34
0.0
100
AcDbRotatedDimension
1001
ACAD
1000
DSTYLE
1002
{
1070
    41
1040
3.0
1070
    42
1040
3.0
1070
    44
1040
0.0
1070
    77
1070
     1
1070
   140
1040
10.0
1070
   146
1040
0.064286
1070
   147
1040
5.0
1070
   176
1070
    60
1070
   177
1070
    70
1070
   178
1070
    60
1070
   271
1070
     0
1070
   272
1070
     0
1070
   279
1070
     2
1070
   340
1005
1C
1070
   342
1005
109
1002
}
  0
DIMENSION
  5
E99
330
2
100
AcDbEntity
  8
SUNPOU
100
AcDbDimension
  2
*D26
 10
189.1712450716493
 20
1395.79380095607
 30
0.0
 11
169.6656698343049
 21
1371.91595140837
 31
0.0
 70
   160
 71
     5
 42
40.0
  3
STANDARD$0
100
AcDbAlignedDimension
 13
295.5514536393714
 23
1355.79380095607
 33
0.0
 14
258.0514536393716
 24
1395.79380095607
 34
0.0
 50
90.0
100
AcDbRotatedDimension
1001
ACAD
1000
DSTYLE
1002
{
1070
    41
1040
3.0
1070
    42
1040
3.0
1070
    44
1040
0.0
1070
    77
1070
     1
1070
   140
1040
10.0
1070
   146
1040
0.064286
1070
   147
1040
5.0
1070
   176
1070
    60
1070
   177
1070
    70
1070
   178
1070
    60
1070
   271
1070
     0
1070
   272
1070
     0
1070
   279
1070
     2
1070
   340
1005
1C
1070
   342
1005
109
1002
}
  0
DIMENSION
  5
E9A
330
2
100
AcDbEntity
  8
SUNPOU
100
AcDbDimension
  2
*D27
 10
189.1712450716493
 20
295.7938009560698
 30
0.0
 11
169.6656698343049
 21
319.6716505037703
 31
0.0
 70
   160
 71
     5
 42
40.0
  3
STANDARD$0
100
AcDbAlignedDimension
 13
295.5514536393714
 23
335.7938009560698
 33
0.0
 14
253.0514536393718
 24
295.7938009560698
 34
0.0
 50
270.0
100
AcDbRotatedDimension
1001
ACAD
1000
DSTYLE
1002
{
1070
    41
1040
3.0
1070
    42
1040
3.0
1070
    44
1040
0.0
1070
    77
1070
     1
1070
   140
1040
10.0
1070
   146
1040
0.064286
1070
   147
1040
5.0
1070
   176
1070
    60
1070
   177
1070
    70
1070
   178
1070
    60
1070
   271
1070
     0
1070
   272
1070
     0
1070
   279
1070
     2
1070
   340
1005
1C
1070
   342
1005
109
1002
}
  0
ARC
  5
F7F
330
2
100
AcDbEntity
  8
KIJUN
100
AcDbCircle
 10
101.3774911018472
 20
540.8141690308058
 30
0.0
 40
294.7360854976066
100
AcDbArc
 50
29.73668702848035
 51
36.41876155945418
  0
TEXT
  5
11E5
330
2
100
AcDbEntity
  8
HOJO
100
AcDbText
 10
4.077817473867014
 20
-33.55725898611843
 30
0.0
 40
20.0
  1
※ 形状・寸法は製品特性や、生産ロットにより誤差があるものがあります。
  7
SUNPOU
100
AcDbText
  0
ENDSEC
  0
SECTION
  2
OBJECTS
  0
DICTIONARY
  5
1A
330
0
100
AcDbDictionary
281
     1
  3
ACAD_COLOR
350
AD8
  3
ACAD_GROUP
350
18
  3
ACAD_LAYOUT
350
58
  3
ACAD_MATERIAL
350
AD7
  3
ACAD_MLINESTYLE
350
19
  3
ACAD_PLOTSETTINGS
350
59
  3
ACAD_PLOTSTYLENAME
350
56
  3
ACAD_TABLESTYLE
350
AD9
  3
ACDBHEADERROUNDTRIPXREC
350
11F5
  3
AcDbVariableDictionary
350
11F0
  0
DICTIONARY
  5
AD8
102
{ACAD_REACTORS
330
1A
102
}
330
1A
100
AcDbDictionary
281
     1
  0
DICTIONARY
  5
18
102
{ACAD_REACTORS
330
1A
102
}
330
1A
100
AcDbDictionary
281
     1
  3
*A1
350
3A0
  3
*A2
350
3A1
  0
DICTIONARY
  5
58
102
{ACAD_REACTORS
330
1A
102
}
330
1A
100
AcDbDictionary
281
     1
  3
Model
350
5A
  3
ﾚｲｱｳﾄ1
350
5B
  0
DICTIONARY
  5
AD7
102
{ACAD_REACTORS
330
1A
102
}
330
1A
100
AcDbDictionary
281
     1
  0
DICTIONARY
  5
19
102
{ACAD_REACTORS
330
1A
102
}
330
1A
100
AcDbDictionary
281
     1
  3
STANDARD
350
1D
  0
DICTIONARY
  5
59
102
{ACAD_REACTORS
330
1A
102
}
330
1A
100
AcDbDictionary
281
     1
  0
ACDBDICTIONARYWDFLT
  5
56
102
{ACAD_REACTORS
330
1A
102
}
330
1A
100
AcDbDictionary
281
     1
  3
Normal
350
57
100
AcDbDictionaryWithDefault
340
57
  0
DICTIONARY
  5
AD9
102
{ACAD_REACTORS
330
1A
102
}
330
1A
100
AcDbDictionary
281
     1
  3
Standard
350
ADA
  0
DICTIONARY
  5
11F5
102
{ACAD_REACTORS
330
1A
102
}
330
1A
100
AcDbDictionary
281
     1
  0
DICTIONARY
  5
11F0
102
{ACAD_REACTORS
330
1A
102
}
330
1A
100
AcDbDictionary
281
     1
  3
CTABLESTYLE
350
11F1
  3
DIMASSOC
350
11F2
  3
PROJECTNAME
350
11F3
  0
GROUP
  5
3A0
102
{ACAD_REACTORS
330
18
102
}
330
18
100
AcDbGroup
300

 70
     1
 71
     1
  0
GROUP
  5
3A1
102
{ACAD_REACTORS
330
18
102
}
330
18
100
AcDbGroup
300

 70
     1
 71
     1
  0
LAYOUT
  5
5A
102
{ACAD_XDICTIONARY
360
11F6
102
}
102
{ACAD_REACTORS
330
58
102
}
330
58
100
AcDbPlotSettings
  1

  2
なし
  4

  6

 40
0.0
 41
0.0
 42
0.0
 43
0.0
 44
0.0
 45
0.0
 46
0.0
 47
0.0
 48
0.0
 49
0.0
140
0.0
141
0.0
142
1.0
143
1.0
 70
  1712
 72
     0
 73
     0
 74
     0
  7
monochrome.ctb
 75
     0
147
1.0
148
0.0
149
0.0
100
AcDbLayout
  1
Model
 70
     1
 71
     0
 10
0.0
 20
0.0
 11
12.0
 21
9.0
 12
0.0
 22
0.0
 32
0.0
 14
0.0
 24
0.0
 34
0.0
 15
0.0
 25
0.0
 35
0.0
146
0.0
 13
0.0
 23
0.0
 33
0.0
 16
1.0
 26
0.0
 36
0.0
 17
0.0
 27
1.0
 37
0.0
 76
     0
330
2
  0
LAYOUT
  5
5B
102
{ACAD_XDICTIONARY
360
11F8
102
}
102
{ACAD_REACTORS
330
58
102
}
330
58
100
AcDbPlotSettings
  1

  2
なし
  4

  6

 40
0.0
 41
0.0
 42
0.0
 43
0.0
 44
0.0
 45
0.0
 46
0.0
 47
0.0
 48
0.0
 49
0.0
140
0.0
141
0.0
142
1.0
143
1.0
 70
   688
 72
     0
 73
     0
 74
     5
  7
monochrome.ctb
 75
    16
147
1.0
148
0.0
149
0.0
100
AcDbLayout
  1
ﾚｲｱｳﾄ1
 70
     1
 71
     1
 10
0.0
 20
0.0
 11
12.0
 21
9.0
 12
0.0
 22
0.0
 32
0.0
 14
1.000000000000000E+20
 24
1.000000000000000E+20
 34
1.000000000000000E+20
 15
-1.000000000000000E+20
 25
-1.000000000000000E+20
 35
-1.000000000000000E+20
146
0.0
 13
0.0
 23
0.0
 33
0.0
 16
1.0
 26
0.0
 36
0.0
 17
0.0
 27
1.0
 37
0.0
 76
     0
330
7
  0
MLINESTYLE
  5
1D
102
{ACAD_REACTORS
330
19
102
}
330
19
100
AcDbMlineStyle
  2
STANDARD
 70
     0
  3

 62
   256
 51
90.0
 52
90.0
 71
     2
 49
0.5
 62
   256
  6
BYLAYER
 49
-0.5
 62
   256
  6
BYLAYER
  0
ACDBPLACEHOLDER
  5
57
102
{ACAD_REACTORS
330
56
102
}
330
56
  0
TABLESTYLE
  5
ADA
102
{ACAD_REACTORS
330
AD9
102
}
330
AD9
100
AcDbTableStyle
  3
Standard
 70
     0
 71
     0
 40
0.06
 41
0.06
280
     0
281
     0
  7
STANDARD
140
0.18
170
     2
 62
     0
 63
     7
283
     0
274
    -2
284
     1
 64
     0
275
    -2
285
     1
 65
     0
276
    -2
286
     1
 66
     0
277
    -2
287
     1
 67
     0
278
    -2
288
     1
 68
     0
279
    -2
289
     1
 69
     0
  7
STANDARD
140
0.25
170
     5
 62
     0
 63
     7
283
     0
274
    -2
284
     1
 64
     0
275
    -2
285
     1
 65
     0
276
    -2
286
     1
 66
     0
277
    -2
287
     1
 67
     0
278
    -2
288
     1
 68
     0
279
    -2
289
     1
 69
     0
  7
STANDARD
140
0.18
170
     5
 62
     0
 63
     7
283
     0
274
    -2
284
     1
 64
     0
275
    -2
285
     1
 65
     0
276
    -2
286
     1
 66
     0
277
    -2
287
     1
 67
     0
278
    -2
288
     1
 68
     0
279
    -2
289
     1
 69
     0
  0
DICTIONARYVAR
  5
11F1
102
{ACAD_REACTORS
330
11F0
102
}
330
11F0
100
DictionaryVariables
280
     0
  1
STANDARD
  0
DICTIONARYVAR
  5
11F2
102
{ACAD_REACTORS
330
11F0
102
}
330
11F0
100
DictionaryVariables
280
     0
  1
1
  0
DICTIONARYVAR
  5
11F3
102
{ACAD_REACTORS
330
11F0
102
}
330
11F0
100
DictionaryVariables
280
     0
  1

  0
DICTIONARY
  5
11F6
330
5A
100
AcDbDictionary
280
     1
281
     1
  3
ACAD_XREC_ROUNDTRIP
360
11F7
  0
DICTIONARY
  5
11F8
330
5B
100
AcDbDictionary
280
     1
281
     1
  3
ACAD_XREC_ROUNDTRIP
360
11F9
  0
XRECORD
  5
11F7
102
{ACAD_REACTORS
330
11F6
102
}
330
11F6
100
AcDbXrecord
280
     1
102
SHADEPLOT
 70
     0
102
SHADEPLOTRESLEVEL
 70
     2
102
SHADEPLOTCUSTOMDPI
 70
   300
  0
XRECORD
  5
11F9
102
{ACAD_REACTORS
330
11F8
102
}
330
11F8
100
AcDbXrecord
280
     1
102
SHADEPLOT
 70
     0
102
SHADEPLOTRESLEVEL
 70
     2
102
SHADEPLOTCUSTOMDPI
 70
   300
  0
ENDSEC
  0
EOF
