  0
SECTION
  2
HEADER
  9
$ACADVER
  1
AC1015
  9
$ACADMAINTVER
 70
    20
  9
$DWGCODEPAGE
  3
ANSI_932
  9
$INSBASE
 10
0.0
 20
0.0
 30
0.0
  9
$EXTMIN
 10
49.625952302666
 20
3.539718527176258
 30
0.0
  9
$EXTMAX
 10
173.5648264619691
 20
143.7543154510857
 30
0.0
  9
$LIMMIN
 10
0.0
 20
0.0
  9
$LIMMAX
 10
12.0
 20
9.0
  9
$ORTHOMODE
 70
     1
  9
$REGENMODE
 70
     1
  9
$FILLMODE
 70
     1
  9
$QTEXTMODE
 70
     0
  9
$MIRRTEXT
 70
     1
  9
$LTSCALE
 40
1.0
  9
$ATTMODE
 70
     1
  9
$TEXTSIZE
 40
0.7453317137339326
  9
$TRACEWID
 40
0.05
  9
$TEXTSTYLE
  7
ADESK1
  9
$CLAYER
  8
0
  9
$CELTYPE
  6
BYLAYER
  9
$CECOLOR
 62
   256
  9
$CELTSCALE
 40
1.0
  9
$DISPSILH
 70
     0
  9
$DIMSCALE
 40
1.0
  9
$DIMASZ
 40
3.0
  9
$DIMEXO
 40
2.0
  9
$DIMDLI
 40
1.0
  9
$DIMRND
 40
0.0
  9
$DIMDLE
 40
0.0
  9
$DIMEXE
 40
0.0
  9
$DIMTP
 40
0.0
  9
$DIMTM
 40
0.0
  9
$DIMTXT
 40
2.799999999999999
  9
$DIMCEN
 40
2.0
  9
$DIMTSZ
 40
0.0
  9
$DIMTOL
 70
     0
  9
$DIMLIM
 70
     0
  9
$DIMTIH
 70
     0
  9
$DIMTOH
 70
     0
  9
$DIMSE1
 70
     0
  9
$DIMSE2
 70
     0
  9
$DIMTAD
 70
     1
  9
$DIMZIN
 70
     8
  9
$DIMBLK
  1

  9
$DIMASO
 70
     1
  9
$DIMSHO
 70
     1
  9
$DIMPOST
  1

  9
$DIMAPOST
  1

  9
$DIMALT
 70
     0
  9
$DIMALTD
 70
     3
  9
$DIMALTF
 40
0.03937007874016
  9
$DIMLFAC
 40
1.0
  9
$DIMTOFL
 70
     1
  9
$DIMTVP
 40
0.0
  9
$DIMTIX
 70
     0
  9
$DIMSOXD
 70
     1
  9
$DIMSAH
 70
     0
  9
$DIMBLK1
  1

  9
$DIMBLK2
  1

  9
$DIMSTYLE
  2
mihasi
  9
$DIMCLRD
 70
     2
  9
$DIMCLRE
 70
     2
  9
$DIMCLRT
 70
     2
  9
$DIMTFAC
 40
1.0
  9
$DIMGAP
 40
1.0
  9
$DIMJUST
 70
     0
  9
$DIMSD1
 70
     0
  9
$DIMSD2
 70
     0
  9
$DIMTOLJ
 70
     0
  9
$DIMTZIN
 70
     8
  9
$DIMALTZ
 70
     0
  9
$DIMALTTZ
 70
     0
  9
$DIMUPT
 70
     1
  9
$DIMDEC
 70
     3
  9
$DIMTDEC
 70
     3
  9
$DIMALTU
 70
     2
  9
$DIMALTTD
 70
     3
  9
$DIMTXSTY
  7
STANDARD
  9
$DIMAUNIT
 70
     0
  9
$DIMADEC
 70
     1
  9
$DIMALTRND
 40
0.0
  9
$DIMAZIN
 70
     2
  9
$DIMDSEP
 70
    46
  9
$DIMATFIT
 70
     0
  9
$DIMFRAC
 70
     0
  9
$DIMLDRBLK
  1

  9
$DIMLUNIT
 70
     2
  9
$DIMLWD
 70
    -2
  9
$DIMLWE
 70
    -2
  9
$DIMTMOVE
 70
     1
  9
$LUNITS
 70
     2
  9
$LUPREC
 70
     4
  9
$SKETCHINC
 40
0.1
  9
$FILLETRAD
 40
6.0
  9
$AUNITS
 70
     0
  9
$AUPREC
 70
     0
  9
$MENU
  1
.
  9
$ELEVATION
 40
0.0
  9
$PELEVATION
 40
0.0
  9
$THICKNESS
 40
0.0
  9
$LIMCHECK
 70
     0
  9
$CHAMFERA
 40
0.0
  9
$CHAMFERB
 40
0.0
  9
$CHAMFERC
 40
1.0
  9
$CHAMFERD
 40
0.0
  9
$SKPOLY
 70
     1
  9
$TDCREATE
 40
2454700.465712893
  9
$TDUCREATE
 40
2454700.090712893
  9
$TDUPDATE
 40
2454747.713431598
  9
$TDUUPDATE
 40
2454747.338431597
  9
$TDINDWG
 40
1.6174072917
  9
$TDUSRTIMER
 40
1.6171780208
  9
$USRTIMER
 70
     1
  9
$ANGBASE
 50
0.0
  9
$ANGDIR
 70
     0
  9
$PDMODE
 70
     0
  9
$PDSIZE
 40
0.0
  9
$PLINEWID
 40
0.0
  9
$SPLFRAME
 70
     0
  9
$SPLINETYPE
 70
     6
  9
$SPLINESEGS
 70
     8
  9
$HANDSEED
  5
1EE0
  9
$SURFTAB1
 70
     6
  9
$SURFTAB2
 70
     6
  9
$SURFTYPE
 70
     6
  9
$SURFU
 70
     6
  9
$SURFV
 70
     6
  9
$UCSBASE
  2

  9
$UCSNAME
  2

  9
$UCSORG
 10
0.0
 20
0.0
 30
0.0
  9
$UCSXDIR
 10
1.0
 20
0.0
 30
0.0
  9
$UCSYDIR
 10
0.0
 20
1.0
 30
0.0
  9
$UCSORTHOREF
  2

  9
$UCSORTHOVIEW
 70
     0
  9
$UCSORGTOP
 10
0.0
 20
0.0
 30
0.0
  9
$UCSORGBOTTOM
 10
0.0
 20
0.0
 30
0.0
  9
$UCSORGLEFT
 10
0.0
 20
0.0
 30
0.0
  9
$UCSORGRIGHT
 10
0.0
 20
0.0
 30
0.0
  9
$UCSORGFRONT
 10
0.0
 20
0.0
 30
0.0
  9
$UCSORGBACK
 10
0.0
 20
0.0
 30
0.0
  9
$PUCSBASE
  2

  9
$PUCSNAME
  2

  9
$PUCSORG
 10
0.0
 20
0.0
 30
0.0
  9
$PUCSXDIR
 10
1.0
 20
0.0
 30
0.0
  9
$PUCSYDIR
 10
0.0
 20
1.0
 30
0.0
  9
$PUCSORTHOREF
  2

  9
$PUCSORTHOVIEW
 70
     0
  9
$PUCSORGTOP
 10
0.0
 20
0.0
 30
0.0
  9
$PUCSORGBOTTOM
 10
0.0
 20
0.0
 30
0.0
  9
$PUCSORGLEFT
 10
0.0
 20
0.0
 30
0.0
  9
$PUCSORGRIGHT
 10
0.0
 20
0.0
 30
0.0
  9
$PUCSORGFRONT
 10
0.0
 20
0.0
 30
0.0
  9
$PUCSORGBACK
 10
0.0
 20
0.0
 30
0.0
  9
$USERI1
 70
     0
  9
$USERI2
 70
     0
  9
$USERI3
 70
     0
  9
$USERI4
 70
     0
  9
$USERI5
 70
     0
  9
$USERR1
 40
0.0
  9
$USERR2
 40
0.0
  9
$USERR3
 40
0.0
  9
$USERR4
 40
0.0
  9
$USERR5
 40
0.0
  9
$WORLDVIEW
 70
     1
  9
$SHADEDGE
 70
     3
  9
$SHADEDIF
 70
    70
  9
$TILEMODE
 70
     1
  9
$MAXACTVP
 70
    48
  9
$PINSBASE
 10
0.0
 20
0.0
 30
0.0
  9
$PLIMCHECK
 70
     0
  9
$PEXTMIN
 10
164.8398890422139
 20
22.53564887623979
 30
0.0
  9
$PEXTMAX
 10
263.2113380509334
 20
123.1956681175709
 30
0.0
  9
$PLIMMIN
 10
-5.873748779296875
 20
-5.873749732971191
  9
$PLIMMAX
 10
291.1369018554688
 20
204.0995779037475
  9
$UNITMODE
 70
     0
  9
$VISRETAIN
 70
     1
  9
$PLINEGEN
 70
     0
  9
$PSLTSCALE
 70
     1
  9
$TREEDEPTH
 70
  3020
  9
$CMLSTYLE
  2
STANDARD
  9
$CMLJUST
 70
     0
  9
$CMLSCALE
 40
1.0
  9
$PROXYGRAPHICS
 70
     1
  9
$MEASUREMENT
 70
     1
  9
$CELWEIGHT
370
    -1
  9
$ENDCAPS
280
     0
  9
$JOINSTYLE
280
     0
  9
$LWDISPLAY
290
     0
  9
$INSUNITS
 70
     0
  9
$HYPERLINKBASE
  1

  9
$STYLESHEET
  1
monochrome.ctb
  9
$XEDIT
290
     1
  9
$CEPSNTYPE
380
     0
  9
$PSTYLEMODE
290
     1
  9
$FINGERPRINTGUID
  2
{07D7BE12-0192-11D3-8697-0060B085A428}
  9
$VERSIONGUID
  2
{C90CB3C8-6601-4062-839F-C48C79EF7BFC}
  9
$EXTNAMES
290
     1
  9
$PSVPSCALE
 40
0.0
  9
$OLESTARTUP
290
     0
  0
ENDSEC
  0
SECTION
  2
CLASSES
  0
CLASS
  1
ACMESTATEMGR
  2
AcMeStateMgr
  3
AcMeServices
 90
        0
280
     0
281
     0
  0
CLASS
  1
ACMESCOPE
  2
AcMeScope
  3
AcMeServices
 90
        0
280
     0
281
     0
  0
CLASS
  1
ACMECOMMANDHISTORY
  2
AcMeCommandHistory
  3
AcMeServices
 90
        0
280
     0
281
     0
  0
CLASS
  1
AcRfInsAdjusterMgr
  2
AcRfInsAdjusterMgr
  3
AcMeServices
 90
    32768
280
     0
281
     0
  0
CLASS
  1
ACMEDRAWINGMAN
  2
AcMeDrawingMan
  3
AcMeServices
 90
        0
280
     0
281
     0
  0
CLASS
  1
AMATTR
  2
AcMeAttribute
  3
AcMeServices
 90
    32768
280
     0
281
     0
  0
CLASS
  1
ACMEBOMCOLUMN
  2
AcMeBOMColumn
  3
AcMeServices
 90
    32768
280
     0
281
     0
  0
CLASS
  1
ACANBOMCONF
  2
AcMeBOMConf
  3
AcMeServices
 90
    32768
280
     0
281
     0
  0
CLASS
  1
ACMEBOMTABLE
  2
AcMeBOMTable
  3
AcMeServices
 90
    32768
280
     0
281
     0
  0
CLASS
  1
ACMEBOMENTRY
  2
AcMeBOMEntry
  3
AcMeServices
 90
    32768
280
     0
281
     0
  0
CLASS
  1
ACMEVIEW
  2
AcMeView
  3
AcMeServices
 90
    32768
280
     0
281
     0
  0
CLASS
  1
ACGREFMASTER
  2
AcGrefMaster
  3
AcAttribServices
 90
        0
280
     0
281
     0
  0
CLASS
  1
AmiMaster
  2
AmiMaster
  3
AmiServices
 90
        0
280
     0
281
     0
  0
CLASS
  1
ACASGREFMASTER
  2
AcAsGrefMaster
  3
AutoSurfResolverServices
 90
        0
280
     0
281
     0
  0
CLASS
  1
ADAPPL
  2
AcAdAppl
  3
DesignerServices
 90
        0
280
     0
281
     0
  0
CLASS
  1
DEPMGR
  2
AcAdDepMgr
  3
DesignerServices
 90
        0
280
     0
281
     0
  0
CLASS
  1
PARAMMGR
  2
AcAdParamMgr
  3
DesignerServices
 90
        0
280
     0
281
     0
  0
CLASS
  1
PARAMSCOPE
  2
AcAdParamScope
  3
DesignerServices
 90
        0
280
     0
281
     0
  0
CLASS
  1
ACIMSYSVARMAN
  2
AcImSysVarManager
  3
AcMeServices
 90
        0
280
     0
281
     0
  0
CLASS
  1
ACIMINTSYSVAR
  2
AcImIntSysVar
  3
AcMeServices
 90
        0
280
     0
281
     0
  0
CLASS
  1
ACIMREALSYSVAR
  2
AcImRealSysVar
  3
AcMeServices
 90
        0
280
     0
281
     0
  0
CLASS
  1
ACIMSTRSYSVAR
  2
AcImStrSysVar
  3
AcMeServices
 90
        0
280
     0
281
     0
  0
CLASS
  1
NAMEDAPPL
  2
AcAdNamedAppl
  3
DesignerServices
 90
        0
280
     0
281
     0
  0
CLASS
  1
ADHNTMPLT
  2
AdHoleNoteTemplateMgr
  3
DesignerServices
 90
        0
280
     0
281
     0
  0
CLASS
  1
AM_HNTEMPLATE_MGR_NAME
  2
AdHoleNoteTemplateMgrName
  3
DesignerServices
 90
        0
280
     0
281
     0
  0
CLASS
  1
AcAdGrefModule
  2
AcAdGrefModule
  3
AdGrefServices
 90
        0
280
     0
281
     0
  0
CLASS
  1
AM_DRAWING_MGR
  2
AcDmDwgMgr
  3
AcMechDwgViewMgmt
 90
        0
280
     0
281
     0
  0
CLASS
  1
AM_DWG_DOCUMENT
  2
AcDmDwgDocument
  3
AcMechDwgViewMgmt
 90
        0
280
     0
281
     0
  0
CLASS
  1
AM_DWG_SHEET
  2
AcDmSheet
  3
AcMechDwgViewMgmt
 90
        0
280
     0
281
     0
  0
CLASS
  1
AM_VIEWDIMPARMAP
  2
AcDmViewDimParMap
  3
AcMechDwgViewMgmt
 90
        0
280
     0
281
     0
  0
CLASS
  1
AM_DWGMGR_NAME
  2
AcDmDwgMgrName
  3
AcMechDwgViewMgmt
 90
        0
280
     0
281
     0
  0
CLASS
  1
ACAMPROJECT
  2
AcAmProject
  3
DesignerAssemblies
 90
        0
280
     0
281
     0
  0
CLASS
  1
ACAMGRCOMPSET
  2
AcAmGrCompSet
  3
DesignerAssemblies
 90
    32768
280
     0
281
     0
  0
CLASS
  1
ACAMGRCOMPDEFSET
  2
AcAmGrCompDefSet
  3
DesignerAssemblies
 90
    32768
280
     0
281
     0
  0
CLASS
  1
ACAMGRCOMPDEF
  2
AcAmGrCompDef
  3
DesignerAssemblies
 90
        0
280
     0
281
     0
  0
CLASS
  1
ACCMCONTEXT
  2
AcCmContext
  3
DesignerAssemblies
 90
        0
280
     0
281
     0
  0
CLASS
  1
ACAMCOMPDEF
  2
AcAmCompDef
  3
DesignerAssemblies
 90
        0
280
     0
281
     0
  0
CLASS
  1
ACAMCOMPDEFMGR
  2
AcAmCompDefMgr
  3
DesignerAssemblies
 90
        0
280
     0
281
     0
  0
CLASS
  1
AMCONTEXTMGR
  2
AcAmContextMgr
  3
DesignerAssemblies
 90
        0
280
     0
281
     0
  0
CLASS
  1
ACAMCONTEXTMODELER
  2
AcAmContextModeler
  3
DesignerAssemblies
 90
        0
280
     0
281
     0
  0
CLASS
  1
ACDMVIEWGEOM
  2
AcDmViewGeometry
  3
AcMechDwgViewMgmt
 90
        0
280
     0
281
     1
  0
CLASS
  1
CBrowserAppObject
  2
CBrowserAppObject
  3
McadcomServices
 90
    32768
280
     0
281
     0
  0
CLASS
  1
IM_STATIC_MAN
  2
AcImStaticVarManager
  3
AcMeServices
 90
        0
280
     0
281
     0
  0
CLASS
  1
ASAPP
  2
AcAsAppObject
  3
AutoSurfServices
 90
        0
280
     0
281
     0
  0
CLASS
  1
ACIMDBLSTATICVAR
  2
AcImDblStaticVar
  3
AcMeServices
 90
        0
280
     0
281
     0
  0
CLASS
  1
ACIMSTRSTATICVAR
  2
AcImStrStaticVar
  3
AcMeServices
 90
        0
280
     0
281
     0
  0
CLASS
  1
ACIMINTSTATICVAR
  2
AcImIntStaticVar
  3
AcMeServices
 90
        0
280
     0
281
     0
  0
CLASS
  1
CATALOGSTATE
  2
AcAmCatalogState
  3
DesignerAssemblies
 90
        0
280
     0
281
     0
  0
CLASS
  1
DM_PLACEHOLDER
  2
AcDmSelsetPlaceholder
  3
AcMechDwgViewMgmt
 90
    32768
280
     0
281
     0
  0
CLASS
  1
DICTIONARYVAR
  2
AcDbDictionaryVar
  3
ObjectDBX Classes
 90
        0
280
     0
281
     0
  0
CLASS
  1
ACMSTANDARDJIS
  2
AcmStandardJIS
  3
"AcmSymBB|Product Description: AutoCAD Mechanical 2000|Company: Autodesk"
 90
    32768
280
     0
281
     0
  0
CLASS
  1
ACMSTANDARDANSI
  2
AcmStandardANSI
  3
"AcmSymBB|Product Description: AutoCAD Mechanical 2000|Company: Autodesk"
 90
    32768
280
     0
281
     0
  0
CLASS
  1
ACMSTANDARDBSI
  2
AcmStandardBSI
  3
"AcmSymBB|Product Description: AutoCAD Mechanical 2000|Company: Autodesk"
 90
    32768
280
     0
281
     0
  0
CLASS
  1
ACMSTANDARDDIN
  2
AcmStandardDIN
  3
"AcmSymBB|Product Description: AutoCAD Mechanical 2000|Company: Autodesk"
 90
    32768
280
     0
281
     0
  0
CLASS
  1
ACMSTANDARDISO
  2
AcmStandardISO
  3
"AcmSymBB|Product Description: AutoCAD Mechanical 2000|Company: Autodesk"
 90
    32768
280
     0
281
     0
  0
CLASS
  1
LAYER_INDEX
  2
AcDbLayerIndex
  3
ObjectDBX Classes
 90
        0
280
     0
281
     0
  0
CLASS
  1
IDBUFFER
  2
AcDbIdBuffer
  3
ObjectDBX Classes
 90
        0
280
     0
281
     0
  0
CLASS
  1
ACDBDICTIONARYWDFLT
  2
AcDbDictionaryWithDefault
  3
ObjectDBX Classes
 90
        0
280
     0
281
     0
  0
CLASS
  1
ACDBPLACEHOLDER
  2
AcDbPlaceHolder
  3
ObjectDBX Classes
 90
        0
280
     0
281
     0
  0
CLASS
  1
LAYOUT
  2
AcDbLayout
  3
ObjectDBX Classes
 90
        0
280
     0
281
     0
  0
CLASS
  1
ACME_DOCUMENT
  2
AcMeDbDoc
  3
AcMeServices
 90
    32768
280
     0
281
     0
  0
CLASS
  1
AMGSETTINGSOBJ
  2
AmgSettingsObj
  3
"AcadM|Product Description: AutoCAD Mechanical 2000|Company: Autodesk"
 90
        0
280
     0
281
     0
  0
CLASS
  1
AMGOBJPROPCFG
  2
AmgObjPropCfg
  3
"AmgLay|Product Description: AutoCAD Mechanical 2000|Company: Autodesk"
 90
        1
280
     0
281
     0
  0
CLASS
  1
ACDBENTITYCACHE
  2
AcMeEntityCache
  3
AcMeServices
 90
    32768
280
     0
281
     0
  0
CLASS
  1
GSMANAGER
  2
AcMeGSManager
  3
AcMeServices
 90
    32768
280
     0
281
     0
  0
CLASS
  1
AmdtInternalReactor
  2
AmdtInternalReactor
  3
AcMeServices
 90
    32768
280
     0
281
     0
  0
CLASS
  1
ACME_DATABASE
  2
AcMeDbDatabase
  3
AcMeServices
 90
    32768
280
     0
281
     0
  0
CLASS
  1
ACGREFMASTER
  2
AcGrefacadMaster
  3
AcGrefServices
 90
        0
280
     0
281
     0
  0
CLASS
  1
AMDTMENUSTATEMGR
  2
AmdtMenuStateMgr
  3
McadcomServices
 90
    32768
280
     0
281
     0
  0
CLASS
  1
AMDTMCOMMENUSTATE
  2
AmdtMcomMenuState
  3
McadcomServices
 90
    32768
280
     0
281
     0
  0
CLASS
  1
MAPIADMODULE
  2
MApiAdModule
  3
MApiAdServices
 90
        0
280
     0
281
     0
  0
CLASS
  1
AMDTDMMENUSTATE
  2
AmdtDmMenuState
  3
AcMechDwgViewMgmt
 90
    32768
280
     0
281
     0
  0
CLASS
  1
AMDTADMENUSTATE
  2
AmdtAdMenuState
  3
DesignerServices
 90
    32768
280
     0
281
     0
  0
CLASS
  1
AMDTAMMENUSTATE
  2
AmdtAmMenuState
  3
DesignerAssemblies
 90
    32768
280
     0
281
     0
  0
CLASS
  1
ACMDATADICTIONARY
  2
AcmDataDictionary
  3
"AcmSymBB|Product Description: AutoCAD Mechanical 2000|Company: Autodesk"
 90
        0
280
     0
281
     0
  0
CLASS
  1
ACMDATAENTRYBLOCK
  2
AcmDataEntryBlock
  3
"AcmSymBB|Product Description: AutoCAD Mechanical 2000|Company: Autodesk"
 90
        0
280
     0
281
     0
  0
CLASS
  1
AMDTBROWSERDBTAB
  2
AmdtBrowserDbTab
  3
McadcomServices
 90
    32768
280
     0
281
     0
  0
CLASS
  1
ACAMGFILTERDAT
  2
AcAmgFilterDat
  3
"AcadM|Product Description: AutoCAD Mechanical 2000|Company: Autodesk"
 90
        0
280
     0
281
     0
  0
CLASS
  1
MAPIAMMOUDLE
  2
MApiAmModule
  3
MApiAmServices
 90
        0
280
     0
281
     0
  0
CLASS
  1
ACRFATTGENMGR
  2
AcRfAttGeneralMgr
  3
AcAttribServices
 90
    32768
280
     0
281
     0
  0
CLASS
  1
MATERIAL
  2
AcDbMaterial
  3
ObjectDBX Classes
 90
     1153
280
     0
281
     0
  0
CLASS
  1
VISUALSTYLE
  2
AcDbVisualStyle
  3
ObjectDBX Classes
 90
     4095
280
     0
281
     0
  0
CLASS
  1
TABLESTYLE
  2
AcDbTableStyle
  3
ObjectDBX Classes
 90
     4095
280
     0
281
     0
  0
CLASS
  1
SCALE
  2
AcDbScale
  3
ObjectDBX Classes
 90
     1153
280
     0
281
     0
  0
CLASS
  1
MLEADERSTYLE
  2
AcDbMLeaderStyle
  3
ACDB_MLEADERSTYLE_CLASS
 90
     4095
280
     0
281
     0
  0
CLASS
  1
SORTENTSTABLE
  2
AcDbSortentsTable
  3
ObjectDBX Classes
 90
        0
280
     0
281
     0
  0
CLASS
  1
CELLSTYLEMAP
  2
AcDbCellStyleMap
  3
ObjectDBX Classes
 90
     1152
280
     0
281
     0
  0
ENDSEC
  0
SECTION
  2
TABLES
  0
TABLE
  2
VPORT
  5
8
330
0
100
AcDbSymbolTable
 70
     1
  0
VPORT
  5
1D33
330
8
100
AcDbSymbolTableRecord
100
AcDbViewportTableRecord
  2
*Active
 70
     0
 10
0.0
 20
0.0
 11
1.0
 21
1.0
 12
76.25232273363838
 22
82.06490648974172
 13
0.0
 23
0.0
 14
0.5
 24
0.5
 15
0.5
 25
0.5
 16
0.0
 26
0.0
 36
1.0
 17
0.0
 27
0.0
 37
0.0
 40
187.5102139196148
 41
1.285101822079314
 42
50.0
 43
0.0
 44
0.0
 50
0.0
 51
0.0
 71
     0
 72
   100
 73
     1
 74
     1
 75
     0
 76
     0
 77
     0
 78
     0
281
     0
 65
     0
110
0.0
120
0.0
130
0.0
111
1.0
121
0.0
131
0.0
112
0.0
122
1.0
132
0.0
 79
     0
146
0.0
  0
ENDTAB
  0
TABLE
  2
LTYPE
  5
5
330
0
100
AcDbSymbolTable
 70
    15
  0
LTYPE
  5
13
330
5
100
AcDbSymbolTableRecord
100
AcDbLinetypeTableRecord
  2
BYBLOCK
 70
     0
  3

 72
    65
 73
     0
 40
0.0
  0
LTYPE
  5
14
330
5
100
AcDbSymbolTableRecord
100
AcDbLinetypeTableRecord
  2
BYLAYER
 70
     0
  3

 72
    65
 73
     0
 40
0.0
  0
LTYPE
  5
15
330
5
100
AcDbSymbolTableRecord
100
AcDbLinetypeTableRecord
  2
CONTINUOUS
 70
     0
  3
Solid line
 72
    65
 73
     0
 40
0.0
  0
LTYPE
  5
8C
330
5
100
AcDbSymbolTableRecord
100
AcDbLinetypeTableRecord
  2
HIDDEN
 70
     0
  3
__ __ __ __ __ __ __ __ __ __ __ __ __ __ __ __
 72
    65
 73
     2
 40
0.375
 49
0.25
 74
     0
 49
-0.125
 74
     0
  0
LTYPE
  5
8E
330
5
100
AcDbSymbolTableRecord
100
AcDbLinetypeTableRecord
  2
PHANTOM2
 70
     0
  3
___ _ _ ___ _ _ ___ _ _ ___ _ _ ___ _ _ ___ _ _
 72
    65
 73
     6
 40
1.25
 49
0.625
 74
     0
 49
-0.125
 74
     0
 49
0.125
 74
     0
 49
-0.125
 74
     0
 49
0.125
 74
     0
 49
-0.125
 74
     0
  0
LTYPE
  5
99
330
5
100
AcDbSymbolTableRecord
100
AcDbLinetypeTableRecord
  2
CENTER
 70
     0
  3
____ _ ____ _ ____ _ ____ _ ____ _ ____ _ ____ 
 72
    65
 73
     4
 40
2.0
 49
1.25
 74
     0
 49
-0.25
 74
     0
 49
0.25
 74
     0
 49
-0.25
 74
     0
  0
LTYPE
  5
F2
330
5
100
AcDbSymbolTableRecord
100
AcDbLinetypeTableRecord
  2
ASULTYPE
 70
     0
  3
Solid line
 72
    65
 73
     2
 40
3.0
 49
2.5
 74
     0
 49
0.5
 74
     0
  0
LTYPE
  5
F3
330
5
100
AcDbSymbolTableRecord
100
AcDbLinetypeTableRecord
  2
ASVLTYPE
 70
     0
  3
__ __ __ __ __ __ __ __ __ __ __ __ __ __ __ __ __ __ __ __ __
 72
    65
 73
     2
 40
0.75
 49
0.5
 74
     0
 49
-0.25
 74
     0
  0
LTYPE
  5
15C
330
5
100
AcDbSymbolTableRecord
100
AcDbLinetypeTableRecord
  2
AM_ISO02W050
 70
     0
  3
__ __ __ __ __ __ __ __ __ __ __ __ __ __ __
 72
    65
 73
     2
 40
7.5
 49
6.0
 74
     0
 49
-1.5
 74
     0
  0
LTYPE
  5
15D
330
5
100
AcDbSymbolTableRecord
100
AcDbLinetypeTableRecord
  2
AM_ISO08W050
 70
     0
  3
____ . ____ . ____ . ____ . ____ . ____ . ____
 72
    65
 73
     4
 40
18.0
 49
12.0
 74
     0
 49
-1.5
 74
     0
 49
3.0
 74
     0
 49
-1.5
 74
     0
  0
LTYPE
  5
15E
330
5
100
AcDbSymbolTableRecord
100
AcDbLinetypeTableRecord
  2
AM_ISO09W050
 70
     0
  3
_____ . . _____ . . _____ . . ____ .. ____
 72
    65
 73
     6
 40
22.5
 49
12.0
 74
     0
 49
-1.5
 74
     0
 49
3.0
 74
     0
 49
-1.5
 74
     0
 49
3.0
 74
     0
 49
-1.5
 74
     0
  0
LTYPE
  5
15F
330
5
100
AcDbSymbolTableRecord
100
AcDbLinetypeTableRecord
  2
AM_ISO02W050x2
 70
     0
  3
 _ _ _ _ _ _ _ _ _ _ _ _
 72
    65
 73
     2
 40
3.75
 49
3.0
 74
     0
 49
-0.75
 74
     0
  0
LTYPE
  5
160
330
5
100
AcDbSymbolTableRecord
100
AcDbLinetypeTableRecord
  2
AM_ISO08W050x2
 70
     0
  3
__ . __ . __ . __ . __ . __
 72
    65
 73
     4
 40
9.0
 49
6.0
 74
     0
 49
-0.75
 74
     0
 49
1.5
 74
     0
 49
-0.75
 74
     0
  0
LTYPE
  5
163
330
5
100
AcDbSymbolTableRecord
100
AcDbLinetypeTableRecord
  2
amzigzag
 70
     0
  3
/\/-/\/-/\/-/\/-/\/-/\/
 72
    65
 73
     2
 40
11.0001
 49
0.0001
 74
     4
 75
   135
340
162
 46
0.04
 50
0.0
 44
0.0
 45
0.0
 49
-11.0
 74
     0
  0
LTYPE
  5
164
330
5
100
AcDbSymbolTableRecord
100
AcDbLinetypeTableRecord
  2
HIDDEN2
 70
     0
  3
Hidden (.5x) _ _ _ _ _ _ _ _ _ _ _ _ _ _ _ _ _
 72
    65
 73
     2
 40
0.1875
 49
0.125
 74
     0
 49
-0.0625
 74
     0
  0
LTYPE
  5
165
330
5
100
AcDbSymbolTableRecord
100
AcDbLinetypeTableRecord
  2
CENTER2
 70
     0
  3
Center (.5x) ___ _ ___ _ ___ _ ___ _ ___ _ ___
 72
    65
 73
     4
 40
1.125
 49
0.75
 74
     0
 49
-0.125
 74
     0
 49
0.125
 74
     0
 49
-0.125
 74
     0
  0
LTYPE
  5
309
330
5
100
AcDbSymbolTableRecord
100
AcDbLinetypeTableRecord
  2
Amconstr
 70
     0
  3
_______________________
 72
    65
 73
     2
 40
9999.0
 49
9999.0
 74
     0
 49
0.0
 74
     0
  0
ENDTAB
  0
TABLE
  2
LAYER
  5
2
330
0
100
AcDbSymbolTable
 70
    12
  0
LAYER
  5
F
102
{ACAD_XDICTIONARY
360
1DDB
102
}
330
2
100
AcDbSymbolTableRecord
100
AcDbLayerTableRecord
  2
0
 70
     0
 62
     7
  6
CONTINUOUS
370
    -3
390
14F
  0
LAYER
  5
30A
330
2
100
AcDbSymbolTableRecord
100
AcDbLayerTableRecord
  2
Defpoints
 70
     0
 62
     7
  6
CONTINUOUS
290
     0
370
    -3
390
14F
  0
LAYER
  5
30B
102
{ACAD_XDICTIONARY
360
1DDD
102
}
330
2
100
AcDbSymbolTableRecord
100
AcDbLayerTableRecord
  2
CENTER
 70
     0
 62
     4
  6
CENTER
370
    30
390
14F
  0
LAYER
  5
52A
102
{ACAD_XDICTIONARY
360
1DDF
102
}
330
2
100
AcDbSymbolTableRecord
100
AcDbLayerTableRecord
  2
HIDDEN
 70
     0
 62
     5
  6
HIDDEN
370
    30
390
14F
  0
LAYER
  5
52B
102
{ACAD_XDICTIONARY
360
1DE1
102
}
330
2
100
AcDbSymbolTableRecord
100
AcDbLayerTableRecord
  2
HIJO
 70
     0
 62
     3
  6
CONTINUOUS
370
    35
390
14F
  0
LAYER
  5
52C
102
{ACAD_XDICTIONARY
360
1DE3
102
}
330
2
100
AcDbSymbolTableRecord
100
AcDbLayerTableRecord
  2
hoji
 70
     0
 62
     3
  6
CONTINUOUS
370
    40
390
14F
  0
LAYER
  5
52D
102
{ACAD_XDICTIONARY
360
1DE5
102
}
330
2
100
AcDbSymbolTableRecord
100
AcDbLayerTableRecord
  2
HOJO
 70
     0
 62
     3
  6
CONTINUOUS
370
    35
390
14F
  0
LAYER
  5
52E
102
{ACAD_XDICTIONARY
360
1DE7
102
}
330
2
100
AcDbSymbolTableRecord
100
AcDbLayerTableRecord
  2
HOJO2
 70
     0
 62
     6
  6
CONTINUOUS
370
    40
390
14F
  0
LAYER
  5
52F
102
{ACAD_XDICTIONARY
360
1DE9
102
}
330
2
100
AcDbSymbolTableRecord
100
AcDbLayerTableRecord
  2
moji
 70
     0
 62
   232
  6
CONTINUOUS
370
    50
390
14F
  0
LAYER
  5
530
102
{ACAD_XDICTIONARY
360
1DEB
102
}
330
2
100
AcDbSymbolTableRecord
100
AcDbLayerTableRecord
  2
SUNPOU
 70
     0
 62
    70
  6
CONTINUOUS
370
    25
390
14F
  0
LAYER
  5
531
102
{ACAD_XDICTIONARY
360
1DED
102
}
330
2
100
AcDbSymbolTableRecord
100
AcDbLayerTableRecord
  2
WAKU
 70
     0
 62
     1
  6
CONTINUOUS
370
    35
390
14F
  0
LAYER
  5
532
102
{ACAD_XDICTIONARY
360
1DEF
102
}
330
2
100
AcDbSymbolTableRecord
100
AcDbLayerTableRecord
  2
KIJUN
 70
     0
 62
     7
  6
CONTINUOUS
370
    50
390
14F
  0
ENDTAB
  0
TABLE
  2
STYLE
  5
3
330
0
100
AcDbSymbolTable
 70
     4
  0
STYLE
  5
10
330
3
100
AcDbSymbolTableRecord
100
AcDbTextStyleTableRecord
  2
STANDARD
 70
     0
 40
0.0
 41
1.0
 50
0.0
 71
     0
 42
0.2
  3
txt
  4

  0
STYLE
  5
11D
330
3
100
AcDbSymbolTableRecord
100
AcDbTextStyleTableRecord
  2
ADESK1
 70
     0
 40
0.0
 41
1.0
 50
0.0
 71
     0
 42
0.7453317137339326
  3
romans.shx
  4
bigfont.shx
  0
STYLE
  5
162
330
3
100
AcDbSymbolTableRecord
100
AcDbTextStyleTableRecord
  2

 70
     1
 40
0.0
 41
1.0
 50
0.0
 71
     0
 42
0.12
  3
ltypeshp.shx
  4

  0
STYLE
  5
1D8C
330
3
100
AcDbSymbolTableRecord
100
AcDbTextStyleTableRecord
  2
SUNPOU
 70
     0
 40
0.0
 41
1.0
 50
0.0
 71
     0
 42
30.0
  3
txt
  4
bigfont
  0
ENDTAB
  0
TABLE
  2
VIEW
  5
6
330
0
100
AcDbSymbolTable
 70
     3
  0
VIEW
  5
193
330
6
100
AcDbSymbolTableRecord
100
AcDbViewTableRecord
  2
AMDTVIEW1
 70
     0
 40
11.38251346627189
 10
7.263840830449827
 20
5.691256733135946
 41
14.52768166089965
 11
0.0
 21
0.0
 31
1.0
 12
0.0
 22
0.0
 32
0.0
 42
50.0
 43
0.0
 44
0.0
 50
0.0
 71
     0
281
     0
 72
     0
  0
VIEW
  5
194
330
6
100
AcDbSymbolTableRecord
100
AcDbViewTableRecord
  2
AMDTVIEW2
 70
     0
 40
11.38251346627189
 10
7.263840830449827
 20
5.691256733135946
 41
14.52768166089965
 11
0.0
 21
0.0
 31
1.0
 12
0.0
 22
0.0
 32
0.0
 42
50.0
 43
0.0
 44
0.0
 50
0.0
 71
     0
281
     0
 72
     0
  0
VIEW
  5
195
330
6
100
AcDbSymbolTableRecord
100
AcDbViewTableRecord
  2
AMDTVIEW3
 70
     0
 40
11.38251346627189
 10
7.263840830449827
 20
5.691256733135946
 41
14.52768166089965
 11
0.0
 21
0.0
 31
1.0
 12
0.0
 22
0.0
 32
0.0
 42
50.0
 43
0.0
 44
0.0
 50
0.0
 71
     0
281
     0
 72
     0
  0
ENDTAB
  0
TABLE
  2
UCS
  5
7
330
0
100
AcDbSymbolTable
 70
     0
  0
ENDTAB
  0
TABLE
  2
APPID
  5
9
330
0
100
AcDbSymbolTable
 70
    13
  0
APPID
  5
11
330
9
100
AcDbSymbolTableRecord
100
AcDbRegAppTableRecord
  2
ACAD
 70
     0
  0
APPID
  5
9C
330
9
100
AcDbSymbolTableRecord
100
AcDbRegAppTableRecord
  2
AD_DRAW
 70
     0
  0
APPID
  5
B6
330
9
100
AcDbSymbolTableRecord
100
AcDbRegAppTableRecord
  2
DESIGNERASSEMBLIES
 70
     0
  0
APPID
  5
BD
330
9
100
AcDbSymbolTableRecord
100
AcDbRegAppTableRecord
  2
MCAD_NO_VIS
 70
     0
  0
APPID
  5
F4
330
9
100
AcDbSymbolTableRecord
100
AcDbRegAppTableRecord
  2
ASURF_PCURVE_APPNAME
 70
     0
  0
APPID
  5
168
330
9
100
AcDbSymbolTableRecord
100
AcDbRegAppTableRecord
  2
ACAD_TEMP_GRAPHIC
 70
     0
  0
APPID
  5
172
330
9
100
AcDbSymbolTableRecord
100
AcDbRegAppTableRecord
  2
ACATTRIBSERVICES
 70
     0
  0
APPID
  5
18F
330
9
100
AcDbSymbolTableRecord
100
AcDbRegAppTableRecord
  2
ACADM_DIM_EDIT
 70
     0
  0
APPID
  5
19D
330
9
100
AcDbSymbolTableRecord
100
AcDbRegAppTableRecord
  2
GENIUS_GENDIM_13
 70
     0
  0
APPID
  5
19E
330
9
100
AcDbSymbolTableRecord
100
AcDbRegAppTableRecord
  2
GENIUS_GENDTOL_13
 70
     0
  0
APPID
  5
19F
330
9
100
AcDbSymbolTableRecord
100
AcDbRegAppTableRecord
  2
GENIUS_GE3DTOL_13
 70
     0
  0
APPID
  5
1D86
330
9
100
AcDbSymbolTableRecord
100
AcDbRegAppTableRecord
  2
ACAD_MLEADERVER
 70
     0
  0
APPID
  5
1E7F
330
9
100
AcDbSymbolTableRecord
100
AcDbRegAppTableRecord
  2
ACAD_PSEXT
 70
     0
  0
ENDTAB
  0
TABLE
  2
DIMSTYLE
  5
A
330
0
100
AcDbSymbolTable
 70
     3
100
AcDbDimStyleTable
 71
     2
340
30D
340
1D
  0
DIMSTYLE
105
1D
330
A
100
AcDbSymbolTableRecord
100
AcDbDimStyleTableRecord
  2
STANDARD
 70
     0
340
10
  0
DIMSTYLE
105
30C
330
A
100
AcDbSymbolTableRecord
100
AcDbDimStyleTableRecord
  2
ISO-25
 70
     0
 41
2.5
 42
0.625
 43
3.75
 44
1.25
 73
     0
 74
     0
 77
     1
 78
     8
140
2.5
141
2.5
143
0.03937007874016
147
0.625
171
     3
172
     1
271
     2
272
     2
274
     3
283
     0
284
     8
340
10
  0
DIMSTYLE
105
30D
102
{ACAD_REACTORS
330
1E0A
330
1E17
102
}
330
A
100
AcDbSymbolTableRecord
100
AcDbDimStyleTableRecord
  2
mihasi
 70
     0
 41
3.0
 42
2.0
 43
1.0
 44
0.0
 73
     0
 74
     0
 77
     1
 78
     8
 79
     2
140
2.799999999999999
141
2.0
143
0.03937007874016
147
1.0
171
     3
172
     1
175
     1
176
     2
177
     2
178
     2
179
     1
271
     3
272
     3
274
     3
279
     1
283
     0
284
     8
288
     1
289
     0
340
10
  0
ENDTAB
  0
TABLE
  2
BLOCK_RECORD
  5
1
330
0
100
AcDbSymbolTable
 70
     4
  0
BLOCK_RECORD
  5
19
102
{ACAD_XDICTIONARY
360
11F
102
}
330
1
100
AcDbSymbolTableRecord
100
AcDbBlockTableRecord
  2
*MODEL_SPACE
340
152
  0
BLOCK_RECORD
  5
16
330
1
100
AcDbSymbolTableRecord
100
AcDbBlockTableRecord
  2
*PAPER_SPACE
340
153
  0
BLOCK_RECORD
  5
AD
330
1
100
AcDbSymbolTableRecord
100
AcDbBlockTableRecord
  2
*U0
340
0
  0
BLOCK_RECORD
  5
1D8D
102
{ACAD_XDICTIONARY
360
1D92
102
}
330
1
100
AcDbSymbolTableRecord
100
AcDbBlockTableRecord
  2
new block
340
0
102
{BLKREFS
331
1EC9
102
}
  0
BLOCK_RECORD
  5
1E0B
330
1
100
AcDbSymbolTableRecord
100
AcDbBlockTableRecord
  2
*D2
340
0
  0
BLOCK_RECORD
  5
1E18
330
1
100
AcDbSymbolTableRecord
100
AcDbBlockTableRecord
  2
*D3
340
0
  0
ENDTAB
  0
ENDSEC
  0
SECTION
  2
BLOCKS
  0
BLOCK
  5
1A
330
19
100
AcDbEntity
  8
0
100
AcDbBlockBegin
  2
*MODEL_SPACE
 70
     0
 10
0.0
 20
0.0
 30
0.0
  3
*MODEL_SPACE
  1

  0
ENDBLK
  5
1B
330
19
100
AcDbEntity
  8
0
100
AcDbBlockEnd
  0
BLOCK
  5
17
330
16
100
AcDbEntity
 67
     1
  8
0
100
AcDbBlockBegin
  2
*PAPER_SPACE
 70
     0
 10
0.0
 20
0.0
 30
0.0
  3
*PAPER_SPACE
  1

  0
ENDBLK
  5
18
330
16
100
AcDbEntity
 67
     1
  8
0
100
AcDbBlockEnd
  0
BLOCK
  5
AE
330
AD
100
AcDbEntity
  8
0
100
AcDbBlockBegin
  2
*U0
 70
     1
 10
0.0
 20
0.0
 30
0.0
  3
*U0
  1

  0
ENDBLK
  5
AF
330
AD
100
AcDbEntity
  8
0
100
AcDbBlockEnd
  0
BLOCK
  5
1D94
330
1D8D
100
AcDbEntity
  8
0
100
AcDbBlockBegin
  2
new block
 70
     0
 10
0.0
 20
0.0
 30
0.0
  3
new block
  1

  0
TEXT
  5
1EC7
330
1D8D
100
AcDbEntity
  8
HOJO
100
AcDbText
 10
18.42007334336381
 20
20.28049840363042
 30
0.0
 40
3.0
  1
※ 硬質ポリスチレン製の為、若干の寸法誤差がある場合があります。
  7
SUNPOU
100
AcDbText
  0
ENDBLK
  5
1D95
330
1D8D
100
AcDbEntity
  8
0
100
AcDbBlockEnd
  0
BLOCK
  5
1E0C
330
1E0B
100
AcDbEntity
  8
0
100
AcDbBlockBegin
  2
*D2
 70
     1
 10
0.0
 20
0.0
 30
0.0
  3
*D2
  1

  0
LINE
  5
1EAC
330
1E0B
100
AcDbEntity
  8
0
 62
     2
370
    -2
100
AcDbLine
 10
149.5150707333606
 20
127.7016995193243
 30
0.0
 11
149.5150707333606
 21
139.9543154510857
 31
0.0
  0
LINE
  5
1EAD
330
1E0B
100
AcDbEntity
  8
0
 62
     2
370
    -2
100
AcDbLine
 10
49.625952302666
 20
127.7016995193243
 30
0.0
 11
49.625952302666
 21
139.9543154510857
 31
0.0
  0
LINE
  5
1EAE
330
1E0B
100
AcDbEntity
  8
0
 62
     2
370
    -2
100
AcDbLine
 10
146.5150707333606
 20
139.9543154510857
 30
0.0
 11
52.62595230266601
 21
139.9543154510857
 31
0.0
  0
SOLID
  5
1EAF
330
1E0B
100
AcDbEntity
  8
0
 62
     2
100
AcDbTrace
 10
146.5150707333606
 20
140.4543154510857
 30
0.0
 11
146.5150707333606
 21
139.4543154510857
 31
0.0
 12
149.5150707333606
 22
139.9543154510857
 32
0.0
 13
149.5150707333606
 23
139.9543154510857
 33
0.0
  0
SOLID
  5
1EB0
330
1E0B
100
AcDbEntity
  8
0
 62
     2
100
AcDbTrace
 10
52.62595230266601
 20
140.4543154510857
 30
0.0
 11
52.62595230266601
 21
139.4543154510857
 31
0.0
 12
49.625952302666
 22
139.9543154510857
 32
0.0
 13
49.625952302666
 23
139.9543154510857
 33
0.0
  0
MTEXT
  5
1EB1
330
1E0B
100
AcDbEntity
  8
0
 62
     2
100
AcDbMText
 10
99.57051151801332
 20
142.3543154510857
 30
0.0
 40
2.799999999999999
 41
0.0
 71
     5
 72
     1
  1
100
 73
     1
 44
1.0
1001
ACAD
1000
MTEXTBEGIN
1070
    73
1070
     1
1070
    44
1040
1.0
1070
    74
1070
     0
1000
MTEXTEND
  0
POINT
  5
1EB2
330
1E0B
100
AcDbEntity
  8
Defpoints
 62
     0
100
AcDbPoint
 10
149.5150707333606
 20
125.7016995193243
 30
0.0
  0
POINT
  5
1EB3
330
1E0B
100
AcDbEntity
  8
Defpoints
 62
     0
100
AcDbPoint
 10
49.625952302666
 20
125.7016995193243
 30
0.0
  0
POINT
  5
1EB4
330
1E0B
100
AcDbEntity
  8
Defpoints
 62
     0
100
AcDbPoint
 10
49.625952302666
 20
139.9543154510857
 30
0.0
  0
ENDBLK
  5
1E0D
330
1E0B
100
AcDbEntity
  8
0
100
AcDbBlockEnd
  0
BLOCK
  5
1E19
330
1E18
100
AcDbEntity
  8
0
100
AcDbBlockBegin
  2
*D3
 70
     1
 10
0.0
 20
0.0
 30
0.0
  3
*D3
  1

  0
LINE
  5
1E75
330
1E18
100
AcDbEntity
  8
0
 62
     2
370
    -2
100
AcDbLine
 10
153.392018697307
 20
124.0643209220397
 30
0.0
 11
167.0454998828135
 21
124.0643209220397
 31
0.0
  0
LINE
  5
1E76
330
1E18
100
AcDbEntity
  8
0
 62
     2
370
    -2
100
AcDbLine
 10
153.392018697307
 20
23.65729248676475
 30
0.0
 11
167.0454998828135
 21
23.65729248676475
 31
0.0
  0
LINE
  5
1E77
330
1E18
100
AcDbEntity
  8
0
 62
     2
370
    -2
100
AcDbLine
 10
167.0454998828135
 20
121.0643209220397
 30
0.0
 11
167.0454998828135
 21
26.65729248676476
 31
0.0
  0
SOLID
  5
1E78
330
1E18
100
AcDbEntity
  8
0
 62
     2
100
AcDbTrace
 10
166.5454998828135
 20
121.0643209220397
 30
0.0
 11
167.5454998828135
 21
121.0643209220397
 31
0.0
 12
167.0454998828135
 22
124.0643209220397
 32
0.0
 13
167.0454998828135
 23
124.0643209220397
 33
0.0
  0
SOLID
  5
1E79
330
1E18
100
AcDbEntity
  8
0
 62
     2
100
AcDbTrace
 10
166.5454998828135
 20
26.65729248676476
 30
0.0
 11
167.5454998828135
 21
26.65729248676476
 31
0.0
 12
167.0454998828135
 22
23.65729248676475
 32
0.0
 13
167.0454998828135
 23
23.65729248676475
 33
0.0
  0
MTEXT
  5
1E7A
330
1E18
100
AcDbEntity
  8
0
 62
     2
100
AcDbMText
 10
164.6454998828135
 20
73.86080670440225
 30
0.0
 40
2.799999999999999
 41
0.0
 71
     5
 72
     1
  1
100
 11
0.0000000000000001
 21
1.0
 31
0.0
 73
     1
 44
1.0
1001
ACAD
1000
MTEXTBEGIN
1070
    73
1070
     1
1070
    44
1040
1.0
1070
    74
1070
     0
1000
MTEXTEND
  0
POINT
  5
1E7B
330
1E18
100
AcDbEntity
  8
Defpoints
 62
     0
100
AcDbPoint
 10
151.392018697307
 20
124.0643209220397
 30
0.0
  0
POINT
  5
1E7C
330
1E18
100
AcDbEntity
  8
Defpoints
 62
     0
100
AcDbPoint
 10
151.392018697307
 20
23.65729248676476
 30
0.0
  0
POINT
  5
1E7D
330
1E18
100
AcDbEntity
  8
Defpoints
 62
     0
100
AcDbPoint
 10
167.0454998828135
 20
23.65729248676475
 30
0.0
  0
ENDBLK
  5
1E1A
330
1E18
100
AcDbEntity
  8
0
100
AcDbBlockEnd
  0
ENDSEC
  0
SECTION
  2
ENTITIES
  0
LINE
  5
1D97
330
19
100
AcDbEntity
  8
WAKU
100
AcDbLine
 10
58.18515203117215
 20
17.97760204883803
 30
0.0
 11
113.1851520311721
 21
17.97760204883803
 31
0.0
  0
LINE
  5
1D98
330
19
100
AcDbEntity
  8
WAKU
100
AcDbLine
 10
58.18515203117215
 20
10.97760204883804
 30
0.0
 11
113.1851520311721
 21
10.97760204883804
 31
0.0
  0
TEXT
  5
1D99
330
19
100
AcDbEntity
  8
HOJO
100
AcDbText
 10
63.0121350311639
 20
12.16091504883212
 30
0.0
 40
4.5
  1
B-2135
  7
SUNPOU
100
AcDbText
  0
TEXT
  5
1D9A
330
19
100
AcDbEntity
  8
HOJO
100
AcDbText
 10
92.75469858951931
 20
13.27124845418717
 30
0.0
 40
3.0
  1
100×100
  7
SUNPOU
100
AcDbText
  0
DIMENSION
  5
1E0A
330
19
100
AcDbEntity
  8
0
100
AcDbDimension
  2
*D2
 10
49.625952302666
 20
139.9543154510857
 30
0.0
 11
99.57051151801332
 21
142.3543154510857
 31
0.0
 70
    32
 71
     5
 42
99.88911843069463
  3
mihasi
100
AcDbAlignedDimension
 13
149.5150707333606
 23
125.7016995193243
 33
0.0
 14
49.625952302666
 24
125.7016995193243
 34
0.0
100
AcDbRotatedDimension
1001
ACAD
1000
DSTYLE
1002
{
1070
   271
1070
     0
1002
}
  0
DIMENSION
  5
1E17
330
19
100
AcDbEntity
  8
0
100
AcDbDimension
  2
*D3
 10
167.0454998828135
 20
23.65729248676475
 30
0.0
 11
164.6454998828135
 21
73.86080670440225
 31
0.0
 70
    32
 71
     5
 42
100.4070284352749
  3
mihasi
100
AcDbAlignedDimension
 13
151.392018697307
 23
124.0643209220397
 33
0.0
 14
151.392018697307
 24
23.65729248676476
 34
0.0
 50
90.0
100
AcDbRotatedDimension
1001
ACAD
1000
DSTYLE
1002
{
1070
   271
1070
     0
1002
}
  0
INSERT
  5
1EC9
330
19
100
AcDbEntity
  8
0
100
AcDbBlockReference
  2
new block
 10
44.34475311860547
 20
-16.74077987645415
 30
0.0
  0
LWPOLYLINE
  5
1ECA
330
19
100
AcDbEntity
  8
0
100
AcDbPolyline
 90
       49
 70
     0
 43
0.0
 10
148.9865413006727
 20
30.33789548232247
 42
-0.518448082605122
 10
148.8928802453133
 20
31.96967634639624
 42
0.4999999999999804
 10
148.825601385133
 20
34.36873315167885
 42
-0.5000000000000009
 10
148.7807488116797
 20
35.96810435520059
 42
0.4999999999999804
 10
148.7134699514994
 20
38.36716116048324
 42
-0.4740823576554184
 10
148.605278431572
 20
39.91171138964333
 42
0.6791066147131863
 10
147.9197489970506
 20
41.63975630199752
 10
146.3258050542815
 20
41.63975630199752
 10
141.5219788658285
 20
36.77969868434974
 42
0.3480980858717644
 10
134.5818401946084
 20
42.9918469872162
 42
0.4313002114669104
 10
129.6030019350064
 20
51.87386986017738
 42
-0.306958647620067
 10
111.5591995276754
 20
70.41280082298822
 42
0.3695421882281312
 10
106.1250407282211
 20
75.06432092203974
 10
102.5984519026138
 20
75.06432092203974
 42
0.3622176899383647
 10
68.6280180834575
 20
108.8997971869221
 42
0.3182562954669186
 10
64.62595230266632
 20
114.56432092204
 10
69.5114924979901
 20
119.0643209220397
 10
69.5114924979901
 20
122.5643209220398
 42
0.3272517315803186
 10
68.08105022096788
 20
123.6128401449213
 10
67.58105022096788
 20
123.6128401449213
 42
0.2296281081453286
 10
66.40339739356787
 20
123.0418900995076
 42
-0.4999999999999993
 10
64.80387500991795
 20
123.0809815845518
 42
0.4999999999999946
 10
62.40459143444311
 20
123.1396188121182
 42
-0.4812748351122837
 10
60.8415614598854
 20
123.1306321343828
 42
0.5121708050200513
 10
58.40946940260986
 20
123.2372574914851
 42
-0.4999999999999993
 10
56.80994701895994
 20
123.2763489765293
 42
0.4999999999999946
 10
54.41066344348516
 20
123.3349862040957
 42
-0.7254101559742088
 10
52.62623313136078
 20
123.9909956379785
 10
49.625952302666
 20
124.0643209220397
 10
49.99673109552884
 20
118.862806183134
 42
0.4506464166790469
 10
52.37710564325221
 20
117.0425027845446
 10
55.62595230266601
 20
117.6805760799521
 42
0.3830461682275786
 10
63.12595230266606
 20
110.0643209220394
 10
63.12595230266606
 20
105.5643209220398
 42
0.4158165652071837
 10
65.63962696087719
 20
103.0643583215749
 42
-0.4118577756496808
 10
96.62725763357821
 20
71.80461981512097
 42
0.442230355998979
 10
99.25643781102801
 20
69.20281550534534
 10
105.924274912428
 20
69.55375430015587
 42
0.314866719440223
 10
129.124737223019
 20
46.16085451515028
 10
129.1247372230195
 20
40.06432092203977
 42
0.4142135623730951
 10
131.6247372230195
 20
37.56432092203977
 10
136.1247372230194
 20
37.56432092203977
 42
0.3670865803970335
 10
143.1247372230195
 20
29.93801934975437
 10
142.6202748281497
 20
26.19531345976552
 42
0.4326907725947341
 10
144.4598574480857
 20
23.93324090596362
 10
148.3231353168693
 20
23.65729248676476
 42
0.6963442915552024
 10
149.0497609505515
 20
26.37556071317223
 42
-0.5000000000000009
 10
149.004908377098
 20
27.974931916694
 42
0.5121708050200363
 10
148.8895235253417
 20
30.40662414184362
  0
ACAD_PROXY_ENTITY
  5
B7
330
16
100
AcDbEntity
 67
     1
  8
0
100
AcDbProxyEntity
 90
      498
 91
      540
 95
   393239
 70
     0
 92
        8
310
0800000000000000
 93
        0
 94
        0
1001
ACAD
1000
AcRTDxfName
1000
ACDMVIEWGEOM
  0
VIEWPORT
  5
BA
102
{ACAD_XDICTIONARY
360
1ED6
102
}
330
16
100
AcDbEntity
 67
     1
  8
0
100
AcDbViewport
 10
256.4284678689826
 20
68.54232241338251
 30
0.0
 40
352.4035181032411
 41
204.5832504424856
 68
     1
 69
     1
 12
256.4284678689826
 22
68.54232241338251
 13
0.0
 23
0.0
 14
0.5
 24
0.5
 15
0.5
 25
0.5
 16
0.0
 26
0.0
 36
1.0
 17
0.0
 27
0.0
 37
0.0
 42
50.0
 43
0.0
 44
0.0
 45
204.5832504424856
 50
0.0
 51
0.0
 72
   100
 90
    32800
  1

281
     0
 71
     1
 74
     0
110
0.0
120
0.0
130
0.0
111
1.0
121
0.0
131
0.0
112
0.0
122
1.0
132
0.0
 79
     0
146
0.0
  0
LINE
  5
1A41
330
16
100
AcDbEntity
 67
     1
  8
0
100
AcDbLine
 10
263.2113380509334
 20
22.53564887623979
 30
0.0
 11
260.2110572222386
 21
22.60897416030103
 31
0.0
  0
ARC
  5
1A7A
330
16
100
AcDbEntity
 67
     1
  8
0
100
AcDbCircle
 10
259.2117287950476
 20
22.645616957793
 30
0.0
 40
1.0
100
AcDbArc
 50
357.9000522438363
 51
141.7301023541563
  0
ARC
  5
1A7C
330
16
100
AcDbEntity
 67
     1
  8
0
100
AcDbCircle
 10
257.2489740827142
 20
24.19403354877009
 30
0.0
 40
1.5
100
AcDbArc
 50
215.4698976458442
 51
321.7301023541558
  0
ARC
  5
1A7E
330
16
100
AcDbEntity
 67
     1
  8
0
100
AcDbCircle
 10
255.2129228359229
 20
22.74334567040362
 30
0.0
 40
1.0
100
AcDbArc
 50
35.46989764584367
 51
141.7301023541563
  0
ARC
  5
1A80
330
16
100
AcDbEntity
 67
     1
  8
0
100
AcDbCircle
 10
253.2501681235895
 20
24.2917622613807
 30
0.0
 40
1.5
100
AcDbArc
 50
213.249303608417
 51
321.7301023541557
  0
ARC
  5
1A82
330
16
100
AcDbEntity
 67
     1
  8
0
100
AcDbCircle
 10
251.2178008040896
 20
22.8409843497705
 30
0.0
 40
1.0
100
AcDbArc
 50
32.11252317936914
 51
141.7301023541563
  0
ARC
  5
1A83
330
16
100
AcDbEntity
 67
     1
  8
0
100
AcDbCircle
 10
249.2550460917562
 20
24.38940094074759
 30
0.0
 40
1.5
100
AcDbArc
 50
215.4698976458442
 51
321.7301023541558
  0
ARC
  5
1A84
330
16
100
AcDbEntity
 67
     1
  8
0
100
AcDbCircle
 10
247.2189948449649
 20
22.93871306238112
 30
0.0
 40
1.0
100
AcDbArc
 50
35.46989764584367
 51
141.7301023541563
  0
ARC
  5
1A85
330
16
100
AcDbEntity
 67
     1
  8
0
100
AcDbCircle
 10
245.2562401326315
 20
24.48712965335821
 30
0.0
 40
1.5
100
AcDbArc
 50
270.0
 51
321.7301023541557
  0
ARC
  5
1AAC
330
16
100
AcDbEntity
 67
     1
  8
0
100
AcDbCircle
 10
165.4331359742258
 20
111.4147313297948
 30
0.0
 40
1.0
100
AcDbArc
 50
308.476272559782
 51
54.73647726809453
  0
ARC
  5
1AB0
330
16
100
AcDbEntity
 67
     1
  8
0
100
AcDbCircle
 10
166.7644526289258
 20
117.4507390515118
 30
0.0
 40
1.5
100
AcDbArc
 50
128.4762725597825
 51
236.9570713055213
  0
ARC
  5
1AB1
330
16
100
AcDbEntity
 67
     1
  8
0
100
AcDbCircle
 10
166.8764807607107
 20
113.4559946218095
 30
0.0
 40
1.5
100
AcDbArc
 50
128.4762725597824
 51
234.7364772680941
  0
ARC
  5
1AB2
330
16
100
AcDbEntity
 67
     1
  8
0
100
AcDbCircle
 10
165.3210045405922
 20
115.4131593385991
 30
0.0
 40
1.0
100
AcDbArc
 50
308.476272559782
 51
58.09385173456908
  0
ARC
  5
1AB3
330
16
100
AcDbEntity
 67
     1
  8
0
100
AcDbCircle
 10
166.6523211952922
 20
121.4491670603161
 30
0.0
 40
1.5
100
AcDbArc
 50
95.33166249304207
 51
234.7364772680941
  0
ARC
  5
1AB4
330
16
100
AcDbEntity
 67
     1
  8
0
100
AcDbCircle
 10
165.2089764088074
 20
119.4079037683014
 30
0.0
 40
1.0
100
AcDbArc
 50
308.476272559782
 51
54.73647726809453
  0
LINE
  5
1B67
330
16
100
AcDbEntity
 67
     1
  8
0
100
AcDbLine
 10
243.3257978556093
 20
24.03564887623976
 30
0.0
 11
243.3257978556093
 21
27.53564887623979
 31
0.0
  0
LINE
  5
1BC2
330
16
100
AcDbEntity
 67
     1
  8
0
100
AcDbLine
 10
170.3762178258672
 20
122.6667288923159
 30
0.0
 11
166.5129399570835
 21
122.9426773115148
 31
0.0
  0
ARC
  5
1C47
330
16
100
AcDbEntity
 67
     1
  8
0
100
AcDbCircle
 10
244.7562401326315
 20
24.48712965335821
 30
0.0
 40
1.5
100
AcDbArc
 50
197.5169053689659
 51
270.0
  0
LINE
  5
1C4A
330
16
100
AcDbEntity
 67
     1
  8
0
100
AcDbLine
 10
263.2113380509334
 20
22.53564887623979
 30
0.0
 11
262.8405592580705
 21
27.73716361514555
 31
0.0
  0
ARC
  5
1C51
330
16
100
AcDbEntity
 67
     1
  8
0
100
AcDbCircle
 10
260.8456212200659
 20
27.59495874700685
 30
0.0
 40
2.0
100
AcDbArc
 50
4.077309830613685
 51
101.1114611208765
  0
ARC
  5
1C62
330
16
100
AcDbEntity
 67
     1
  8
0
100
AcDbCircle
 10
170.2337237258913
 20
120.6718114926544
 30
0.0
 40
2.0
100
AcDbArc
 50
352.3236238938697
 51
85.9143832200255
  0
LINE
  5
1C66
330
16
100
AcDbEntity
 67
     1
  8
0
100
AcDbLine
 10
257.2113380509334
 20
28.91939371832745
 30
0.0
 11
260.4601847103472
 21
29.5574670137349
 31
0.0
  0
LINE
  5
1C67
330
16
100
AcDbEntity
 67
     1
  8
0
100
AcDbLine
 10
249.7113380509333
 20
36.5356488762401
 30
0.0
 11
249.7113380509333
 21
41.03564887623978
 31
0.0
  0
ARC
  5
1C6B
330
16
100
AcDbEntity
 67
     1
  8
0
100
AcDbCircle
 10
249.2198356681558
 20
28.55076156283836
 30
0.0
 40
8.0
100
AcDbArc
 50
2.641068520250083
 51
86.47765519744018
  0
ARC
  5
1C6E
330
16
100
AcDbEntity
 67
     1
  8
0
100
AcDbCircle
 10
247.2113380509334
 20
41.03564887623978
 30
0.0
 40
2.5
100
AcDbArc
 50
0.0
 51
90.0
  0
LINE
  5
1C73
330
16
100
AcDbEntity
 67
     1
  8
0
100
AcDbLine
 10
208.4121038667265
 20
77.04621549812365
 30
0.0
 11
215.0799409681265
 21
77.39715429293418
 31
0.0
  0
ARC
  5
1C74
330
16
100
AcDbEntity
 67
     1
  8
0
100
AcDbCircle
 10
215.2113380509334
 20
74.90060971960291
 30
0.0
 40
2.5
100
AcDbArc
 50
357.5869112188673
 51
93.01278750418331
  0
ARC
  5
1C79
330
16
100
AcDbEntity
 67
     1
  8
0
100
AcDbCircle
 10
247.6825182812907
 20
73.53223314582905
 30
0.0
 40
30.0
100
AcDbArc
 50
177.5869112188675
 51
269.1693050951983
  0
LINE
  5
1C80
330
16
100
AcDbEntity
 67
     1
  8
0
100
AcDbLine
 10
178.7113380509334
 20
109.0356488762397
 30
0.0
 11
183.2113380509333
 21
109.0356488762397
 31
0.0
  0
ARC
  5
1C81
330
16
100
AcDbEntity
 67
     1
  8
0
100
AcDbCircle
 10
183.2113380509333
 20
106.5356488762398
 30
0.0
 40
2.5
100
AcDbArc
 50
0.0
 51
90.0
  0
LINE
  5
1C89
330
16
100
AcDbEntity
 67
     1
  8
0
100
AcDbLine
 10
171.7113380509333
 20
116.6619504485251
 30
0.0
 11
172.2158004458031
 21
120.404656338514
 31
0.0
  0
ARC
  5
1C8D
330
16
100
AcDbEntity
 67
     1
  8
0
100
AcDbCircle
 10
170.7174132635174
 20
108.7239334721664
 30
0.0
 40
8.0
100
AcDbArc
 50
2.233062425156226
 51
82.86309657554427
  0
LINE
  5
1C90
330
16
100
AcDbEntity
 67
     1
  8
0
100
AcDbLine
 10
245.2562401326315
 20
22.9871296533582
 30
0.0
 11
244.7562401326315
 21
22.9871296533582
 31
0.0
  0
LINE
  5
1C91
330
16
100
AcDbEntity
 67
     1
  8
0
100
AcDbLine
 10
185.7113380509333
 20
100.4391152831293
 30
0.0
 11
185.7113380509333
 21
106.5356488762398
 31
0.0
  0
LINE
  5
1C96
330
16
100
AcDbEntity
 67
     1
  8
0
100
AcDbLine
 10
243.3257978556093
 20
27.53564887623979
 30
0.0
 11
248.2113380509334
 21
32.03564887623979
 31
0.0
  0
ARC
  5
1C9B
330
16
100
AcDbEntity
 67
     1
  8
0
100
AcDbCircle
 10
250.2092682586716
 20
37.69323448186723
 30
0.0
 40
6.0
100
AcDbArc
 50
179.933745728985
 51
250.5497420222995
  0
ARC
  5
1C9C
330
16
100
AcDbEntity
 67
     1
  8
0
100
AcDbCircle
 10
247.6825182812907
 20
73.53223314582905
 30
0.0
 40
36.0
100
AcDbArc
 50
183.1792938384876
 51
264.4635454476683
  0
ARC
  5
1CAB
330
16
100
AcDbEntity
 67
     1
  8
0
100
AcDbCircle
 10
166.9886121943443
 20
109.4575666130052
 30
0.0
 40
1.5
100
AcDbArc
 50
128.4762725597824
 51
234.7364772680941
  0
ARC
  5
1CAC
330
16
100
AcDbEntity
 67
     1
  8
0
100
AcDbCircle
 10
165.5452674078595
 20
107.4163033209904
 30
0.0
 40
1.0
100
AcDbArc
 50
313.2772584089174
 51
54.73647726809453
  0
ARC
  5
1CB2
330
16
100
AcDbEntity
 67
     1
  8
0
100
AcDbCircle
 10
166.9163262769022
 20
105.960213496282
 30
0.0
 40
1.0
100
AcDbArc
 50
133.2772584089167
 51
270.0
  0
LINE
  5
1CB8
330
16
100
AcDbEntity
 67
     1
  8
0
100
AcDbLine
 10
166.9163262769022
 20
104.960213496282
 30
0.0
 11
168.5102702196713
 21
104.960213496282
 31
0.0
  0
ARC
  5
1CBA
330
16
100
AcDbEntity
 67
     1
  8
0
100
AcDbCircle
 10
180.546529617348
 20
72.71611483504717
 30
0.0
 40
28.2
100
AcDbArc
 50
8.832691489758948
 51
79.44675213104696
  0
LINE
  5
1CBB
330
16
100
AcDbEntity
 67
     1
  8
0
100
AcDbLine
 10
211.7691911312641
 20
71.5356488762398
 30
0.0
 11
208.2113380509333
 21
71.5356488762398
 31
0.0
  0
ARC
  5
1CBC
330
16
100
AcDbEntity
 67
     1
  8
0
100
AcDbCircle
 10
208.2113380509333
 20
77.0356488762398
 30
0.0
 40
5.5
100
AcDbArc
 50
188.8744073492572
 51
270.0
  0
ARC
  5
1CBD
330
16
100
AcDbEntity
 67
     1
  8
0
100
AcDbCircle
 10
180.546529617348
 20
72.71611483504717
 30
0.0
 40
22.5
100
AcDbArc
 50
8.874407349257216
 51
79.3704981443078
  0
ARC
  5
1CBE
330
16
100
AcDbEntity
 67
     1
  8
0
100
AcDbCircle
 10
186.9343489498156
 20
101.516214907369
 30
0.0
 40
7.0
100
AcDbArc
 50
162.6118165092677
 51
257.4943287521348
  0
ARC
  5
1CBF
330
16
100
AcDbEntity
 67
     1
  8
0
100
AcDbCircle
 10
180.7050492296822
 20
111.094561657528
 30
0.0
 40
7.5
100
AcDbArc
 50
189.7823191983079
 51
266.5539563359855
  0
LINE
  5
1CC0
330
16
100
AcDbEntity
 67
     1
  8
0
100
AcDbLine
 10
168.5102702196713
 20
104.960213496282
 30
0.0
 11
173.3140964081242
 21
109.8202711139298
 31
0.0
  0
ENDSEC
  0
SECTION
  2
OBJECTS
  0
DICTIONARY
  5
C
330
0
100
AcDbDictionary
281
     1
  3
ACAD_COLOR
350
1D5F
  3
ACAD_GROUP
350
D
  3
ACAD_LAYOUT
350
150
  3
ACAD_MATERIAL
350
1D35
  3
ACAD_MLEADERSTYLE
350
1D84
  3
ACAD_MLINESTYLE
350
E
  3
ACAD_PLOTSETTINGS
350
151
  3
ACAD_PLOTSTYLENAME
350
14E
  3
ACAD_SCALELIST
350
1D62
  3
ACAD_TABLESTYLE
350
1D60
  3
ACAD_VISUALSTYLE
350
1D4E
  3
ACAMCATALOGSTATE
350
F7
  3
ACASAPPOBJECT
350
C0
  3
ACASGREF_MASTER
350
6A
  3
ACDB_RECOMPOSE_DATA
350
1DFB
  3
ACDBVARIABLEDICTIONARY
350
FA
  3
ACDMSYSVARMGR
350
83
  3
ACGREF_MASTER
350
68
  3
ACGREFACAD_MASTER
350
173
  3
AcmDictionary
350
189
  3
ACME_BOM_MANAGER_NAME
350
53
  3
ACME_COMMAND_HISTORY
350
4E
  3
ACME_SCOPE_NAME
350
4D
  3
ACMESTATEMGR
350
4C
  3
AcmeSysVarManager
350
169
  3
AD_APPL
350
7B
  3
AD_GREF_MODULE
350
7E
  3
AD_HOLENOTE_REPOSITORY
350
7D
  3
AD_MAPI_MODULE
350
177
  3
ADSYSVARMGR
350
6F
  3
AmdtNamedDwgMgr
350
9B
  3
AMG
350
158
  3
AMGSNAPSETTINGS
350
1BA
  3
AMI_MASTER
350
69
  3
ASURF_STATIC_VARS
350
BF
  3
AUTOCAD_ASSEMBLIES_PROJECT
350
AA
  3
AUTOSURF_SYSVARS
350
C1
  3
DESIGNER_ASSEMBLIES_SYSVARS
350
A2
  3
DWGPROPS
350
1ED5
  3
GREFAM_MODULE
350
22F
  0
DICTIONARY
  5
1DDB
330
F
100
AcDbDictionary
280
     1
281
     1
  3
ADSK_XREC_LAYER_RECONCILED
360
1DDC
  0
DICTIONARY
  5
1DDD
330
30B
100
AcDbDictionary
280
     1
281
     1
  3
ADSK_XREC_LAYER_RECONCILED
360
1DDE
  0
DICTIONARY
  5
1DDF
330
52A
100
AcDbDictionary
280
     1
281
     1
  3
ADSK_XREC_LAYER_RECONCILED
360
1DE0
  0
DICTIONARY
  5
1DE1
330
52B
100
AcDbDictionary
280
     1
281
     1
  3
ADSK_XREC_LAYER_RECONCILED
360
1DE2
  0
DICTIONARY
  5
1DE3
330
52C
100
AcDbDictionary
280
     1
281
     1
  3
ADSK_XREC_LAYER_RECONCILED
360
1DE4
  0
DICTIONARY
  5
1DE5
330
52D
100
AcDbDictionary
280
     1
281
     1
  3
ADSK_XREC_LAYER_RECONCILED
360
1DE6
  0
DICTIONARY
  5
1DE7
330
52E
100
AcDbDictionary
280
     1
281
     1
  3
ADSK_XREC_LAYER_RECONCILED
360
1DE8
  0
DICTIONARY
  5
1DE9
330
52F
100
AcDbDictionary
280
     1
281
     1
  3
ADSK_XREC_LAYER_RECONCILED
360
1DEA
  0
DICTIONARY
  5
1DEB
330
530
100
AcDbDictionary
280
     1
281
     1
  3
ADSK_XREC_LAYER_RECONCILED
360
1DEC
  0
DICTIONARY
  5
1DED
330
531
100
AcDbDictionary
280
     1
281
     1
  3
ADSK_XREC_LAYER_RECONCILED
360
1DEE
  0
DICTIONARY
  5
1DEF
330
532
100
AcDbDictionary
280
     1
281
     1
  3
ADSK_XREC_LAYER_RECONCILED
360
1DF0
  0
DICTIONARY
  5
11F
330
19
100
AcDbDictionary
280
     1
281
     1
  3
ACAD_INDEX
360
1D25
  3
ACAD_SORTENTS
360
1D9B
  0
DICTIONARY
  5
1D92
330
1D8D
100
AcDbDictionary
280
     1
281
     1
  3
ACAD_SORTENTS
360
1EC8
  0
DICTIONARY
  5
1ED6
330
BA
100
AcDbDictionary
280
     1
281
     1
  3
ACAD_XREC_ROUNDTRIP
360
1ED7
  0
DICTIONARY
  5
1D5F
102
{ACAD_REACTORS
330
C
102
}
330
C
100
AcDbDictionary
281
     1
  0
DICTIONARY
  5
D
102
{ACAD_REACTORS
330
C
102
}
330
C
100
AcDbDictionary
281
     1
  0
DICTIONARY
  5
150
102
{ACAD_REACTORS
330
C
102
}
330
C
100
AcDbDictionary
281
     1
  3
Model
350
152
  3
ﾚｲｱｳﾄ1
350
153
  0
DICTIONARY
  5
1D35
102
{ACAD_REACTORS
330
C
102
}
330
C
100
AcDbDictionary
281
     1
  3
ByBlock
350
1D3E
  3
ByLayer
350
1D36
  3
Global
350
1D46
  0
DICTIONARY
  5
1D84
102
{ACAD_REACTORS
330
C
102
}
330
C
100
AcDbDictionary
281
     1
  3
Standard
350
1D85
  0
DICTIONARY
  5
E
102
{ACAD_REACTORS
330
C
102
}
330
C
100
AcDbDictionary
281
     1
  3
STANDARD
350
1C
  0
DICTIONARY
  5
151
102
{ACAD_REACTORS
330
C
102
}
330
C
100
AcDbDictionary
281
     1
  0
ACDBDICTIONARYWDFLT
  5
14E
102
{ACAD_REACTORS
330
C
102
}
330
C
100
AcDbDictionary
281
     1
  3
Normal
350
14F
100
AcDbDictionaryWithDefault
340
14F
  0
DICTIONARY
  5
1D62
102
{ACAD_REACTORS
330
C
102
}
330
C
100
AcDbDictionary
281
     1
  3
A0
350
1D63
  3
A1
350
1D64
  3
A2
350
1D65
  3
A3
350
1D66
  3
A4
350
1D67
  3
A5
350
1D68
  3
A6
350
1D69
  3
A7
350
1D6A
  3
A8
350
1D6B
  3
A9
350
1D6C
  3
B0
350
1D6D
  3
B1
350
1D6E
  3
B2
350
1D6F
  3
B3
350
1D70
  3
B4
350
1D71
  3
B5
350
1D72
  3
B6
350
1D73
  3
B7
350
1D74
  3
B8
350
1D75
  3
B9
350
1D76
  3
C0
350
1D77
  3
C1
350
1D78
  3
C2
350
1D79
  3
C3
350
1D7A
  3
C4
350
1D7B
  3
C5
350
1D7C
  3
C6
350
1D7D
  3
C7
350
1D7E
  3
C8
350
1D7F
  3
C9
350
1D80
  3
D0
350
1D81
  3
D1
350
1D82
  3
D2
350
1D83
  0
DICTIONARY
  5
1D60
102
{ACAD_REACTORS
330
C
102
}
330
C
100
AcDbDictionary
281
     1
  3
Standard
350
1D61
  0
DICTIONARY
  5
1D4E
102
{ACAD_REACTORS
330
C
102
}
330
C
100
AcDbDictionary
281
     1
  3
2dWireframe
350
1D54
  3
3D Hidden
350
1D56
  3
3dWireframe
350
1D55
  3
Basic
350
1D53
  3
Brighten
350
1D5A
  3
ColorChange
350
1D5E
  3
Conceptual
350
1D57
  3
Dim
350
1D59
  3
Facepattern
350
1D5D
  3
Flat
350
1D4F
  3
FlatWithEdges
350
1D50
  3
Gouraud
350
1D51
  3
GouraudWithEdges
350
1D52
  3
Linepattern
350
1D5C
  3
Realistic
350
1D58
  3
Thicken
350
1D5B
  0
ACAD_PROXY_OBJECT
  5
F7
102
{ACAD_REACTORS
330
C
102
}
330
C
100
AcDbProxyObject
 90
      499
 91
      547
 95
   393239
 70
     0
 93
      160
310
3FFFFFFFE00A028140283A19D2E36B0B3B9C00AA00
 94
        0
1001
ACAD
1000
AcRTDxfName
1000
CATALOGSTATE
  0
ACAD_PROXY_OBJECT
  5
C0
102
{ACAD_REACTORS
330
C
102
}
330
C
100
AcDbProxyObject
 90
      499
 91
      543
 95
   393239
 70
     0
 93
       10
310
407F
 94
        0
1001
ACAD
1000
AcRTDxfName
1000
ASAPP
  0
ACAD_PROXY_OBJECT
  5
6A
102
{ACAD_REACTORS
330
C
102
}
330
C
100
AcDbProxyObject
 90
      499
 91
      513
 95
   393239
 70
     0
 93
       34
310
010000407F
 94
        0
1001
ACAD
1000
AcRTDxfName
1000
ACASGREFMASTER
  0
XRECORD
  5
1DFB
102
{ACAD_REACTORS
330
C
102
}
330
C
100
AcDbXrecord
280
     1
 90
        1
330
1D61
  0
DICTIONARY
  5
FA
102
{ACAD_REACTORS
330
C
102
}
330
C
100
AcDbDictionary
281
     1
  3
CANNOSCALE
350
1DFF
  3
CMLEADERSTYLE
350
1DFD
  3
CTABLESTYLE
350
1DFC
  3
DIMASSOC
350
1ED3
  3
INDEXCTL
350
FB
  3
LIGHTINGUNITS
350
1E00
  3
MSLTSCALE
350
1DFE
  3
SORTENTS
350
1ED2
  0
ACAD_PROXY_OBJECT
  5
83
102
{ACAD_REACTORS
330
C
102
}
330
C
100
AcDbProxyObject
 90
      499
 91
      518
 95
   393239
 70
     0
 93
      240
310
5251A47A000000000000000000000000000000000000000000000000000001
330
84
330
85
330
86
330
87
330
88
330
89
330
8A
330
8B
330
90
330
91
330
92
330
93
330
94
330
95
330
96
330
97
330
98
330
180
330
181
330
182
330
183
330
184
330
185
330
186
330
187
330
188
 94
        0
1001
ACAD
1000
AcRTDxfName
1000
ACIMSYSVARMAN
  0
ACAD_PROXY_OBJECT
  5
68
102
{ACAD_REACTORS
330
C
102
}
330
C
100
AcDbProxyObject
 90
      499
 91
      511
 95
   393239
 70
     0
 93
       34
310
04000042BF
 94
        0
1001
ACAD
1000
AcRTDxfName
1000
ACGREFMASTER
  0
ACAD_PROXY_OBJECT
  5
173
102
{ACAD_REACTORS
330
C
102
}
330
C
100
AcDbProxyObject
 90
      499
 91
      567
 95
   393239
 70
     0
 93
      114
310
04000041C00000000000000000003F
 94
        0
1001
ACAD
1000
AcRTDxfName
1000
ACGREFMASTER
  0
DICTIONARY
  5
189
102
{ACAD_REACTORS
330
C
102
}
330
C
100
AcDbDictionary
281
     1
  3
AcmBOMDATA
350
18A
  0
ACAD_PROXY_OBJECT
  5
53
102
{ACAD_REACTORS
330
C
102
}
330
C
100
AcDbProxyObject
 90
      499
 91
      504
 95
   393239
 70
     0
 93
       36
310
000100806F
330
0
330
0
 94
        0
1001
ACAD
1000
AcRTDxfName
1000
ACMEDRAWINGMAN
  0
ACAD_PROXY_OBJECT
  5
4E
102
{ACAD_REACTORS
330
C
102
}
330
C
100
AcDbProxyObject
 90
      499
 91
      502
 95
   393239
 70
     0
 93
     4958
310
47805045452494D40405184D5347202D20436F6D6D616E642043414E43454C4C45442E014191561511539110101461354D1C80B4810DBDB5B585B990810D05390D1531311510B805045452494D40405184D5347202D20436F6D6D616E642043414E43454C4C45442E014151549054D160140D41053A0141915615115391101
310
01461354D1C80B4810DBDB5B585B990810D05390D1531311510B805045452494D40405184D5347202D20436F6D6D616E642043414E43454C4C45442E014193D19194D15510101461354D1C80B4810DBDB5B585B990810D05390D1531311510B805045452494D40405184D5347202D20436F6D6D616E642043414E43454C4C4
310
5442E014191561511539110101461354D1C80B4810DBDB5B585B990810D05390D1531311510B8050545524153458050350414E805064F464653455440405184D5347202D20436F6D6D616E642043414E43454C4C45442E014151549054D16014193D19194D15510101461354D1C80B4810DBDB5B585B990810D05390D15313
310
11510B80506455854454E4440405184D5347202D20436F6D6D616E642043414E43454C4C45442E0141D0D21053519154A014151549054D160141D0D2105351915490101461354D1C80B4810DBDB5B585B990810D05390D1531311510B805045452494D80507505245564945578050551534156458050545524153458050545
310
5241534540405184D5347202D20436F6D6D616E642043414E43454C4C45442E01411514925350101461354D1C80B4810DBDB5B585B990810D05390D1531311510B80508434F5059434C4950805072D4C41594F5554805054552415345805095041535445434C4950805055153415645B
 94
        0
1001
ACAD
1000
AcRTDxfName
1000
ACMECOMMANDHISTORY
  0
ACAD_PROXY_OBJECT
  5
4D
102
{ACAD_REACTORS
330
C
102
}
330
C
100
AcDbProxyObject
 90
      499
 91
      501
 95
   393239
 70
     0
 93
     1114
310
04000043C00000000000000000001765EA0000000000000000000000000000000000000000000000000000000000000000000000000000000000000000000000000000000000000000000000000000000000000000000000000000000000000000000000000000000000000000000000000000000000000000000000000000
310
0000000000000000AAA406AABF
360
6B
360
6C
360
6D
360
6E
360
70
360
71
360
72
360
73
360
74
360
75
360
76
360
78
360
79
360
7A
360
7C
360
7F
360
80
360
81
360
82
360
84
360
85
360
86
360
87
360
88
360
89
360
8A
360
8B
360
8D
360
8F
360
90
360
91
360
92
360
93
360
94
360
95
360
96
360
97
360
98
360
9A
360
A3
360
A4
360
A5
360
A6
360
A7
360
A8
360
A9
360
B0
360
B1
360
B2
360
B3
360
B4
360
B5
360
C2
360
C3
360
C4
360
C5
360
C6
360
C7
360
C8
360
C9
360
CA
360
CB
360
CC
360
CD
360
CE
360
CF
360
D0
360
D1
360
D2
360
D3
360
D4
360
D5
360
D6
360
D7
360
D8
360
D9
360
DA
360
DB
360
DC
360
DD
360
DE
360
DF
360
E0
360
E1
360
E2
360
E3
360
E4
360
E5
360
E6
360
E7
360
E8
360
E9
360
EA
360
EB
360
EC
360
ED
360
EE
360
EF
360
F0
360
F1
360
16A
360
16B
360
16C
360
17A
360
17B
360
17E
360
180
360
181
360
182
360
183
360
184
360
185
360
186
360
187
360
188
360
1A8
360
1AC
360
1AE
 94
        0
1001
ACAD
1000
AcRTDxfName
1000
ACMESCOPE
  0
ACAD_PROXY_OBJECT
  5
4C
102
{ACAD_REACTORS
330
C
102
}
330
C
100
AcDbProxyObject
 90
      499
 91
      500
 95
   393239
 70
     0
 93
       50
310
04000040E412BF
 94
        0
1001
ACAD
1000
AcRTDxfName
1000
ACMESTATEMGR
  0
ACAD_PROXY_OBJECT
  5
169
102
{ACAD_REACTORS
330
C
102
}
330
C
100
AcDbProxyObject
 90
      499
 91
      518
 95
   393239
 70
     0
 93
       48
310
90341200000044
330
16A
330
16B
330
16C
 94
        0
1001
ACAD
1000
AcRTDxfName
1000
ACIMSYSVARMAN
  0
ACAD_PROXY_OBJECT
  5
7B
102
{ACAD_REACTORS
330
C
102
}
330
C
100
AcDbProxyObject
 90
      499
 91
      522
 95
   393239
 70
     0
 93
       42
310
00040000453F
330
6B
 94
        0
1001
ACAD
1000
AcRTDxfName
1000
NAMEDAPPL
  0
ACAD_PROXY_OBJECT
  5
7E
102
{ACAD_REACTORS
330
C
102
}
330
C
100
AcDbProxyObject
 90
      499
 91
      525
 95
   393239
 70
     0
 93
      114
310
00000043800000000000000000003F
 94
        0
1001
ACAD
1000
AcRTDxfName
1000
AcAdGrefModule
  0
ACAD_PROXY_OBJECT
  5
7D
102
{ACAD_REACTORS
330
C
102
}
330
C
100
AcDbProxyObject
 90
      499
 91
      524
 95
   393239
 70
     0
 93
        8
310
007E
330
7C
 94
        0
1001
ACAD
1000
AcRTDxfName
1000
AM_HNTEMPLATE_MGR_NAME
  0
ACAD_PROXY_OBJECT
  5
177
102
{ACAD_REACTORS
330
C
102
}
330
C
100
AcDbProxyObject
 90
      499
 91
      570
 95
   393239
 70
     0
 93
       34
310
040000447F
 94
        0
1001
ACAD
1000
AcRTDxfName
1000
MAPIADMODULE
  0
ACAD_PROXY_OBJECT
  5
6F
102
{ACAD_REACTORS
330
C
102
}
330
C
100
AcDbProxyObject
 90
      499
 91
      518
 95
   393239
 70
     0
 93
      128
310
90D44600000000000000000000000000AA
330
70
330
71
330
72
330
73
330
74
330
75
330
76
330
78
330
79
330
7A
330
17A
330
17B
330
1AC
 94
        0
1001
ACAD
1000
AcRTDxfName
1000
ACIMSYSVARMAN
  0
ACAD_PROXY_OBJECT
  5
9B
102
{ACAD_REACTORS
330
C
102
}
330
C
100
AcDbProxyObject
 90
      499
 91
      530
 95
   393239
 70
     0
 93
       42
310
000100004FFF
330
7F
 94
        0
1001
ACAD
1000
AcRTDxfName
1000
AM_DWGMGR_NAME
  0
DICTIONARY
  5
158
102
{ACAD_REACTORS
330
C
102
}
330
C
100
AcDbDictionary
281
     1
  3
AcMgSettings
350
159
  3
AMGLAYCFG
350
15B
  0
DICTIONARY
  5
1BA
102
{ACAD_REACTORS
330
C
102
}
330
C
100
AcDbDictionary
281
     1
  3
DIMENSION
350
1BE
  3
FEA
350
1BD
  3
HATCH
350
1BB
  3
SYMBOLS
350
1BC
  0
ACAD_PROXY_OBJECT
  5
69
102
{ACAD_REACTORS
330
C
102
}
330
C
100
AcDbProxyObject
 90
      499
 91
      512
 95
   393239
 70
     0
 93
       34
310
04000041BF
 94
        0
1001
ACAD
1000
AcRTDxfName
1000
AmiMaster
  0
ACAD_PROXY_OBJECT
  5
BF
102
{ACAD_REACTORS
330
C
102
}
330
C
100
AcDbProxyObject
 90
      499
 91
      542
 95
   393239
 70
     0
 93
      288
310
4C520492000000000000000000000000000000000000000000000000000000000000000000
330
D3
330
D4
330
D5
330
D6
330
D7
330
D8
330
D9
330
DA
330
DB
330
DC
330
DD
330
DE
330
DF
330
E0
330
E1
330
E2
330
E3
330
E4
330
E5
330
E6
330
E7
330
E8
330
E9
330
EA
330
EB
330
EC
330
ED
330
EE
330
EF
330
F0
330
F1
330
1A8
 94
        0
1001
ACAD
1000
AcRTDxfName
1000
IM_STATIC_MAN
  0
ACAD_PROXY_OBJECT
  5
AA
102
{ACAD_REACTORS
330
C
102
}
330
C
100
AcDbProxyObject
 90
      499
 91
      531
 95
   393239
 70
     0
 93
       74
310
0400004840000000003F
330
B3
330
0
330
B4
330
0
330
0
 94
        0
1001
ACAD
1000
AcRTDxfName
1000
ACAMPROJECT
  0
ACAD_PROXY_OBJECT
  5
C1
102
{ACAD_REACTORS
330
C
102
}
330
C
100
AcDbProxyObject
 90
      499
 91
      518
 95
   393239
 70
     0
 93
      168
310
4C511456000000000000000000000000000000000000
330
C2
330
C3
330
C4
330
C5
330
C6
330
C7
330
C8
330
C9
330
CA
330
CB
330
CC
330
CD
330
CE
330
CF
330
D0
330
D1
330
D2
 94
        0
1001
ACAD
1000
AcRTDxfName
1000
ACIMSYSVARMAN
  0
ACAD_PROXY_OBJECT
  5
A2
102
{ACAD_REACTORS
330
C
102
}
330
C
100
AcDbProxyObject
 90
      499
 91
      518
 95
   393239
 70
     0
 93
       96
310
90943600000000000000000001
330
A3
330
A4
330
A5
330
A6
330
A7
330
A8
330
A9
330
17E
330
1AE
 94
        0
1001
ACAD
1000
AcRTDxfName
1000
ACIMSYSVARMAN
  0
XRECORD
  5
1ED5
102
{ACAD_REACTORS
330
C
102
}
330
C
100
AcDbXrecord
280
     1
  1
DWGPROPS COOKIE
  2

  3

  4

  6

  7

  8
y.kohno
  9

300
AmdtFileType=84
301
=
302
=
303
=
304
=
305
=
306
=
307
=
308
=
309
=
 40
1.617407106481481
 41
2454700.465712893
 42
2454747.713431598
  1

 90
        1
  0
ACAD_PROXY_OBJECT
  5
22F
102
{ACAD_REACTORS
330
C
102
}
330
C
100
AcDbProxyObject
 90
      499
 91
      578
 95
   393239
 70
     0
 93
        8
310
027E
 94
        0
1001
ACAD
1000
AcRTDxfName
1000
MAPIAMMOUDLE
  0
XRECORD
  5
1DDC
102
{ACAD_REACTORS
330
1DDB
102
}
330
1DDB
100
AcDbXrecord
280
     1
290
     1
  0
XRECORD
  5
1DDE
102
{ACAD_REACTORS
330
1DDD
102
}
330
1DDD
100
AcDbXrecord
280
     1
290
     1
  0
XRECORD
  5
1DE0
102
{ACAD_REACTORS
330
1DDF
102
}
330
1DDF
100
AcDbXrecord
280
     1
290
     1
  0
XRECORD
  5
1DE2
102
{ACAD_REACTORS
330
1DE1
102
}
330
1DE1
100
AcDbXrecord
280
     1
290
     1
  0
XRECORD
  5
1DE4
102
{ACAD_REACTORS
330
1DE3
102
}
330
1DE3
100
AcDbXrecord
280
     1
290
     1
  0
XRECORD
  5
1DE6
102
{ACAD_REACTORS
330
1DE5
102
}
330
1DE5
100
AcDbXrecord
280
     1
290
     1
  0
XRECORD
  5
1DE8
102
{ACAD_REACTORS
330
1DE7
102
}
330
1DE7
100
AcDbXrecord
280
     1
290
     1
  0
XRECORD
  5
1DEA
102
{ACAD_REACTORS
330
1DE9
102
}
330
1DE9
100
AcDbXrecord
280
     1
290
     1
  0
XRECORD
  5
1DEC
102
{ACAD_REACTORS
330
1DEB
102
}
330
1DEB
100
AcDbXrecord
280
     1
290
     1
  0
XRECORD
  5
1DEE
102
{ACAD_REACTORS
330
1DED
102
}
330
1DED
100
AcDbXrecord
280
     1
290
     1
  0
XRECORD
  5
1DF0
102
{ACAD_REACTORS
330
1DEF
102
}
330
1DEF
100
AcDbXrecord
280
     1
290
     1
  0
DICTIONARY
  5
1D25
102
{ACAD_REACTORS
330
11F
102
}
330
11F
100
AcDbDictionary
281
     1
  3
*A1
350
1D26
  0
SORTENTSTABLE
  5
1D9B
102
{ACAD_REACTORS
330
11F
102
}
330
11F
100
AcDbSortentsTable
330
19
331
1D97
  5
1D98
331
1E0A
  5
1E17
331
1EC9
  5
1ECA
331
1D98
  5
1D99
331
1D99
  5
1D9A
331
1ECA
  5
1CF9
331
1E17
  5
1EC9
331
1D9A
  5
1E0A
  0
SORTENTSTABLE
  5
1EC8
102
{ACAD_REACTORS
330
1D92
102
}
330
1D92
100
AcDbSortentsTable
330
1D8D
  0
XRECORD
  5
1ED7
102
{ACAD_REACTORS
330
1ED6
102
}
330
1ED6
100
AcDbXrecord
280
     1
102
SHADEPLOT
 70
     0
  0
LAYOUT
  5
152
102
{ACAD_XDICTIONARY
360
1ED8
102
}
102
{ACAD_REACTORS
330
150
102
}
330
150
100
AcDbPlotSettings
  1

  2
none_device
  4
ISO_A4_(210.00_x_297.00_MM)
  6

 40
7.5
 41
20.0
 42
7.5
 43
20.0
 44
210.0
 45
297.0
 46
0.0
 47
0.0
 48
0.0
 49
0.0
140
0.0
141
0.0
142
1.0
143
1.333795538354725
 70
 11952
 72
     1
 73
     1
 74
     0
  7
monochrome.ctb
 75
     0
147
0.7497400997708603
148
96.5480588514829
149
41.60292968704323
100
AcDbLayout
  1
Model
 70
     1
 71
     0
 10
0.0
 20
0.0
 11
12.0
 21
9.0
 12
0.0
 22
0.0
 32
0.0
 14
0.0
 24
0.0
 34
0.0
 15
0.0
 25
0.0
 35
0.0
146
0.0
 13
0.0
 23
0.0
 33
0.0
 16
1.0
 26
0.0
 36
0.0
 17
0.0
 27
1.0
 37
0.0
 76
     0
330
19
331
1D33
1001
ACAD_PSEXT
1000
なし
1000
なし
1000
適切ではありません
1000
新しいプロッタ環境設定名を選択しない限り、レイアウトは印刷されません。
1070
     0
  0
LAYOUT
  5
153
102
{ACAD_XDICTIONARY
360
1EDA
102
}
102
{ACAD_REACTORS
330
150
102
}
330
150
100
AcDbPlotSettings
  1

  2
EPSON LP-7100
  4
A4
  6

 40
5.873749732971191
 41
5.873747825622558
 42
5.873748779296875
 43
5.873748779296875
 44
209.9733276367187
 45
297.0106506347656
 46
0.0
 47
0.0
 48
0.0
 49
0.0
140
0.0
141
0.0
142
1.0
143
1.0
 70
   688
 72
     1
 73
     1
 74
     5
  7
monochrome.ctb
 75
     0
147
1.0
148
0.0
149
0.0
100
AcDbLayout
  1
ﾚｲｱｳﾄ1
 70
     1
 71
     1
 10
-5.873748779296875
 20
-5.873749732971191
 11
291.1369018554688
 21
204.0995779037475
 12
0.0
 22
0.0
 32
0.0
 14
164.8398890422139
 24
22.53564887623979
 34
0.0
 15
263.2113380509334
 25
123.1956681175709
 35
0.0
146
0.0
 13
0.0
 23
0.0
 33
0.0
 16
1.0
 26
0.0
 36
0.0
 17
0.0
 27
1.0
 37
0.0
 76
     0
330
16
331
BA
  0
MATERIAL
  5
1D3E
102
{ACAD_XDICTIONARY
360
1D3F
102
}
102
{ACAD_REACTORS
330
1D35
102
}
330
1D35
100
AcDbMaterial
  1
ByBlock
 72
     0
 43
0.0208333333333333
 43
0.0
 43
0.0
 43
0.0
 43
0.0
 43
0.0208333333333333
 43
0.0
 43
0.0
 43
0.0
 43
0.0
 43
1.0
 43
0.0
 43
0.0
 43
0.0
 43
0.0
 43
1.0
 77
     0
 47
0.0208333333333333
 47
0.0
 47
0.0
 47
0.0
 47
0.0
 47
0.0208333333333333
 47
0.0
 47
0.0
 47
0.0
 47
0.0
 47
1.0
 47
0.0
 47
0.0
 47
0.0
 47
0.0
 47
1.0
171
     0
 49
0.0208333333333333
 49
0.0
 49
0.0
 49
0.0
 49
0.0
 49
0.0208333333333333
 49
0.0
 49
0.0
 49
0.0
 49
0.0
 49
1.0
 49
0.0
 49
0.0
 49
0.0
 49
0.0
 49
1.0
175
     0
142
0.0208333333333333
142
0.0
142
0.0
142
0.0
142
0.0
142
0.0208333333333333
142
0.0
142
0.0
142
0.0
142
0.0
142
1.0
142
0.0
142
0.0
142
0.0
142
0.0
142
1.0
179
     0
144
0.0208333333333333
144
0.0
144
0.0
144
0.0
144
0.0
144
0.0208333333333333
144
0.0
144
0.0
144
0.0
144
0.0
144
1.0
144
0.0
144
0.0
144
0.0
144
0.0
144
1.0
147
0.0208333333333333
147
0.0
147
0.0
147
0.0
147
0.0
147
0.0208333333333333
147
0.0
147
0.0
147
0.0
147
0.0
147
1.0
147
0.0
147
0.0
147
0.0
147
0.0
147
1.0
  0
MATERIAL
  5
1D36
102
{ACAD_XDICTIONARY
360
1D37
102
}
102
{ACAD_REACTORS
330
1D35
102
}
330
1D35
100
AcDbMaterial
  1
ByLayer
 72
     0
 43
0.0208333333333333
 43
0.0
 43
0.0
 43
0.0
 43
0.0
 43
0.0208333333333333
 43
0.0
 43
0.0
 43
0.0
 43
0.0
 43
1.0
 43
0.0
 43
0.0
 43
0.0
 43
0.0
 43
1.0
 77
     0
 47
0.0208333333333333
 47
0.0
 47
0.0
 47
0.0
 47
0.0
 47
0.0208333333333333
 47
0.0
 47
0.0
 47
0.0
 47
0.0
 47
1.0
 47
0.0
 47
0.0
 47
0.0
 47
0.0
 47
1.0
171
     0
 49
0.0208333333333333
 49
0.0
 49
0.0
 49
0.0
 49
0.0
 49
0.0208333333333333
 49
0.0
 49
0.0
 49
0.0
 49
0.0
 49
1.0
 49
0.0
 49
0.0
 49
0.0
 49
0.0
 49
1.0
175
     0
142
0.0208333333333333
142
0.0
142
0.0
142
0.0
142
0.0
142
0.0208333333333333
142
0.0
142
0.0
142
0.0
142
0.0
142
1.0
142
0.0
142
0.0
142
0.0
142
0.0
142
1.0
179
     0
144
0.0208333333333333
144
0.0
144
0.0
144
0.0
144
0.0
144
0.0208333333333333
144
0.0
144
0.0
144
0.0
144
0.0
144
1.0
144
0.0
144
0.0
144
0.0
144
0.0
144
1.0
147
0.0208333333333333
147
0.0
147
0.0
147
0.0
147
0.0
147
0.0208333333333333
147
0.0
147
0.0
147
0.0
147
0.0
147
1.0
147
0.0
147
0.0
147
0.0
147
0.0
147
1.0
  0
MATERIAL
  5
1D46
102
{ACAD_XDICTIONARY
360
1D47
102
}
102
{ACAD_REACTORS
330
1D35
102
}
330
1D35
100
AcDbMaterial
  1
Global
 72
     0
 43
0.0208333333333333
 43
0.0
 43
0.0
 43
0.0
 43
0.0
 43
0.0208333333333333
 43
0.0
 43
0.0
 43
0.0
 43
0.0
 43
1.0
 43
0.0
 43
0.0
 43
0.0
 43
0.0
 43
1.0
 77
     0
 47
0.0208333333333333
 47
0.0
 47
0.0
 47
0.0
 47
0.0
 47
0.0208333333333333
 47
0.0
 47
0.0
 47
0.0
 47
0.0
 47
1.0
 47
0.0
 47
0.0
 47
0.0
 47
0.0
 47
1.0
171
     0
 49
0.0208333333333333
 49
0.0
 49
0.0
 49
0.0
 49
0.0
 49
0.0208333333333333
 49
0.0
 49
0.0
 49
0.0
 49
0.0
 49
1.0
 49
0.0
 49
0.0
 49
0.0
 49
0.0
 49
1.0
175
     0
142
0.0208333333333333
142
0.0
142
0.0
142
0.0
142
0.0
142
0.0208333333333333
142
0.0
142
0.0
142
0.0
142
0.0
142
1.0
142
0.0
142
0.0
142
0.0
142
0.0
142
1.0
179
     0
144
0.0208333333333333
144
0.0
144
0.0
144
0.0
144
0.0
144
0.0208333333333333
144
0.0
144
0.0
144
0.0
144
0.0
144
1.0
144
0.0
144
0.0
144
0.0
144
0.0
144
1.0
147
0.0208333333333333
147
0.0
147
0.0
147
0.0
147
0.0
147
0.0208333333333333
147
0.0
147
0.0
147
0.0
147
0.0
147
1.0
147
0.0
147
0.0
147
0.0
147
0.0
147
1.0
  0
MLEADERSTYLE
  5
1D85
102
{ACAD_REACTORS
330
1D84
102
}
330
1D84
100
AcDbMLeaderStyle
170
     2
171
     1
172
     0
 90
        2
 40
0.0
 41
0.0
173
     1
 91
-1056964608
340
13
 92
       -2
290
     1
 42
2.0
291
     1
 43
0.36
  3
Standard
 44
4.0
300

342
10
174
     1
178
     6
175
     1
176
     0
 93
-1056964608
 45
4.0
292
     0
297
     0
 46
4.0
 94
-1056964608
 47
1.0
 49
1.0
140
1.0
293
     1
141
0.0
294
     1
177
     0
142
1.0
295
     0
296
     0
143
0.125
1001
ACAD_MLEADERVER
1070
     2
  0
MLINESTYLE
  5
1C
102
{ACAD_REACTORS
330
E
102
}
330
E
100
AcDbMlineStyle
  2
STANDARD
 70
     0
  3

 62
     0
 51
90.0
 52
90.0
 71
     2
 49
0.5
 62
   256
  6
BYLAYER
 49
-0.5
 62
   256
  6
BYLAYER
  0
ACDBPLACEHOLDER
  5
14F
102
{ACAD_REACTORS
330
14E
102
}
330
14E
  0
SCALE
  5
1D63
102
{ACAD_REACTORS
330
1D62
102
}
330
1D62
100
AcDbScale
 70
     0
300
1:1
140
1.0
141
1.0
290
     1
  0
SCALE
  5
1D64
102
{ACAD_REACTORS
330
1D62
102
}
330
1D62
100
AcDbScale
 70
     0
300
1:2
140
1.0
141
2.0
290
     0
  0
SCALE
  5
1D65
102
{ACAD_REACTORS
330
1D62
102
}
330
1D62
100
AcDbScale
 70
     0
300
1:4
140
1.0
141
4.0
290
     0
  0
SCALE
  5
1D66
102
{ACAD_REACTORS
330
1D62
102
}
330
1D62
100
AcDbScale
 70
     0
300
1:5
140
1.0
141
5.0
290
     0
  0
SCALE
  5
1D67
102
{ACAD_REACTORS
330
1D62
102
}
330
1D62
100
AcDbScale
 70
     0
300
1:8
140
1.0
141
8.0
290
     0
  0
SCALE
  5
1D68
102
{ACAD_REACTORS
330
1D62
102
}
330
1D62
100
AcDbScale
 70
     0
300
1:10
140
1.0
141
10.0
290
     0
  0
SCALE
  5
1D69
102
{ACAD_REACTORS
330
1D62
102
}
330
1D62
100
AcDbScale
 70
     0
300
1:16
140
1.0
141
16.0
290
     0
  0
SCALE
  5
1D6A
102
{ACAD_REACTORS
330
1D62
102
}
330
1D62
100
AcDbScale
 70
     0
300
1:20
140
1.0
141
20.0
290
     0
  0
SCALE
  5
1D6B
102
{ACAD_REACTORS
330
1D62
102
}
330
1D62
100
AcDbScale
 70
     0
300
1:30
140
1.0
141
30.0
290
     0
  0
SCALE
  5
1D6C
102
{ACAD_REACTORS
330
1D62
102
}
330
1D62
100
AcDbScale
 70
     0
300
1:40
140
1.0
141
40.0
290
     0
  0
SCALE
  5
1D6D
102
{ACAD_REACTORS
330
1D62
102
}
330
1D62
100
AcDbScale
 70
     0
300
1:50
140
1.0
141
50.0
290
     0
  0
SCALE
  5
1D6E
102
{ACAD_REACTORS
330
1D62
102
}
330
1D62
100
AcDbScale
 70
     0
300
1:100
140
1.0
141
100.0
290
     0
  0
SCALE
  5
1D6F
102
{ACAD_REACTORS
330
1D62
102
}
330
1D62
100
AcDbScale
 70
     0
300
2:1
140
2.0
141
1.0
290
     0
  0
SCALE
  5
1D70
102
{ACAD_REACTORS
330
1D62
102
}
330
1D62
100
AcDbScale
 70
     0
300
4:1
140
4.0
141
1.0
290
     0
  0
SCALE
  5
1D71
102
{ACAD_REACTORS
330
1D62
102
}
330
1D62
100
AcDbScale
 70
     0
300
8:1
140
8.0
141
1.0
290
     0
  0
SCALE
  5
1D72
102
{ACAD_REACTORS
330
1D62
102
}
330
1D62
100
AcDbScale
 70
     0
300
10:1
140
10.0
141
1.0
290
     0
  0
SCALE
  5
1D73
102
{ACAD_REACTORS
330
1D62
102
}
330
1D62
100
AcDbScale
 70
     0
300
100:1
140
100.0
141
1.0
290
     0
  0
SCALE
  5
1D74
102
{ACAD_REACTORS
330
1D62
102
}
330
1D62
100
AcDbScale
 70
     0
300
1/128" = 1'-0"
140
0.0078125
141
12.0
290
     0
  0
SCALE
  5
1D75
102
{ACAD_REACTORS
330
1D62
102
}
330
1D62
100
AcDbScale
 70
     0
300
1/64" = 1'-0"
140
0.015625
141
12.0
290
     0
  0
SCALE
  5
1D76
102
{ACAD_REACTORS
330
1D62
102
}
330
1D62
100
AcDbScale
 70
     0
300
1/32" = 1'-0"
140
0.03125
141
12.0
290
     0
  0
SCALE
  5
1D77
102
{ACAD_REACTORS
330
1D62
102
}
330
1D62
100
AcDbScale
 70
     0
300
1/16" = 1'-0"
140
0.0625
141
12.0
290
     0
  0
SCALE
  5
1D78
102
{ACAD_REACTORS
330
1D62
102
}
330
1D62
100
AcDbScale
 70
     0
300
3/32" = 1'-0"
140
0.09375
141
12.0
290
     0
  0
SCALE
  5
1D79
102
{ACAD_REACTORS
330
1D62
102
}
330
1D62
100
AcDbScale
 70
     0
300
1/8" = 1'-0"
140
0.125
141
12.0
290
     0
  0
SCALE
  5
1D7A
102
{ACAD_REACTORS
330
1D62
102
}
330
1D62
100
AcDbScale
 70
     0
300
3/16" = 1'-0"
140
0.1875
141
12.0
290
     0
  0
SCALE
  5
1D7B
102
{ACAD_REACTORS
330
1D62
102
}
330
1D62
100
AcDbScale
 70
     0
300
1/4" = 1'-0"
140
0.25
141
12.0
290
     0
  0
SCALE
  5
1D7C
102
{ACAD_REACTORS
330
1D62
102
}
330
1D62
100
AcDbScale
 70
     0
300
3/8" = 1'-0"
140
0.375
141
12.0
290
     0
  0
SCALE
  5
1D7D
102
{ACAD_REACTORS
330
1D62
102
}
330
1D62
100
AcDbScale
 70
     0
300
1/2" = 1'-0"
140
0.5
141
12.0
290
     0
  0
SCALE
  5
1D7E
102
{ACAD_REACTORS
330
1D62
102
}
330
1D62
100
AcDbScale
 70
     0
300
3/4" = 1'-0"
140
0.75
141
12.0
290
     0
  0
SCALE
  5
1D7F
102
{ACAD_REACTORS
330
1D62
102
}
330
1D62
100
AcDbScale
 70
     0
300
1" = 1'-0"
140
1.0
141
12.0
290
     0
  0
SCALE
  5
1D80
102
{ACAD_REACTORS
330
1D62
102
}
330
1D62
100
AcDbScale
 70
     0
300
1-1/2" = 1'-0"
140
1.5
141
12.0
290
     0
  0
SCALE
  5
1D81
102
{ACAD_REACTORS
330
1D62
102
}
330
1D62
100
AcDbScale
 70
     0
300
3" = 1'-0"
140
3.0
141
12.0
290
     0
  0
SCALE
  5
1D82
102
{ACAD_REACTORS
330
1D62
102
}
330
1D62
100
AcDbScale
 70
     0
300
6" = 1'-0"
140
6.0
141
12.0
290
     0
  0
SCALE
  5
1D83
102
{ACAD_REACTORS
330
1D62
102
}
330
1D62
100
AcDbScale
 70
     0
300
1'-0" = 1'-0"
140
12.0
141
12.0
290
     0
  0
TABLESTYLE
  5
1D61
102
{ACAD_XDICTIONARY
360
1DF9
102
}
102
{ACAD_REACTORS
330
1D60
102
}
330
1D60
100
AcDbTableStyle
  3
Standard
 70
     0
 71
     0
 40
1.5
 41
1.5
280
     0
281
     0
  7
STANDARD
140
4.5
170
     2
 62
     0
 63
     7
283
     0
274
    -2
284
     1
 64
     0
275
    -2
285
     1
 65
     0
276
    -2
286
     1
 66
     0
277
    -2
287
     1
 67
     0
278
    -2
288
     1
 68
     0
279
    -2
289
     1
 69
     0
  7
STANDARD
140
6.0
170
     5
 62
     0
 63
     7
283
     0
274
    -2
284
     1
 64
     0
275
    -2
285
     1
 65
     0
276
    -2
286
     1
 66
     0
277
    -2
287
     1
 67
     0
278
    -2
288
     1
 68
     0
279
    -2
289
     1
 69
     0
  7
STANDARD
140
4.5
170
     5
 62
     0
 63
     7
283
     0
274
    -2
284
     1
 64
     0
275
    -2
285
     1
 65
     0
276
    -2
286
     1
 66
     0
277
    -2
287
     1
 67
     0
278
    -2
288
     1
 68
     0
279
    -2
289
     1
 69
     0
  0
VISUALSTYLE
  5
1D54
102
{ACAD_REACTORS
330
1D4E
102
}
330
1D4E
100
AcDbVisualStyle
  2
2dWireframe
 70
     4
 71
     0
 72
     2
 73
     0
 90
        0
 40
-0.6
 41
-30.0
 62
     5
 63
     7
 74
     1
 91
        4
 64
     7
 65
   257
 75
     1
175
     1
 42
1.0
 92
        0
 66
   257
 43
1.0
 76
     1
 77
     6
 78
     2
 67
     7
 79
     5
170
     0
171
     0
290
     0
174
     0
 93
        1
 44
0.0
173
     0
291
     0
 45
0.0
1001
ACAD
1000
AcDbSavedByObjectVersion
1070
     0
  0
VISUALSTYLE
  5
1D56
102
{ACAD_REACTORS
330
1D4E
102
}
330
1D4E
100
AcDbVisualStyle
  2
3D Hidden
 70
     6
 71
     1
 72
     2
 73
     2
 90
        0
 40
-0.6
 41
-30.0
 62
     5
 63
     7
 74
     2
 91
        2
 64
     7
 65
   257
 75
     2
175
     1
 42
40.0
 92
        0
 66
   257
 43
1.0
 76
     1
 77
     6
 78
     2
 67
     7
 79
     3
170
     0
171
     0
290
     0
174
     0
 93
        1
 44
0.0
173
     0
291
     0
 45
0.0
1001
ACAD
1000
AcDbSavedByObjectVersion
1070
     0
  0
VISUALSTYLE
  5
1D55
102
{ACAD_REACTORS
330
1D4E
102
}
330
1D4E
100
AcDbVisualStyle
  2
3dWireframe
 70
     5
 71
     0
 72
     2
 73
     0
 90
        0
 40
-0.6
 41
-30.0
 62
     5
 63
     7
 74
     1
 91
        4
 64
     7
 65
   257
 75
     1
175
     1
 42
1.0
 92
        0
 66
   257
 43
1.0
 76
     1
 77
     6
 78
     2
 67
     7
 79
     5
170
     0
171
     0
290
     0
174
     0
 93
        1
 44
0.0
173
     0
291
     0
 45
0.0
1001
ACAD
1000
AcDbSavedByObjectVersion
1070
     0
  0
VISUALSTYLE
  5
1D53
102
{ACAD_REACTORS
330
1D4E
102
}
330
1D4E
100
AcDbVisualStyle
  2
Basic
 70
     7
 71
     1
 72
     0
 73
     1
 90
        0
 40
-0.6
 41
-30.0
 62
     5
 63
     7
 74
     0
 91
        4
 64
     7
 65
   257
 75
     1
175
     1
 42
1.0
 92
        8
 66
     7
 43
1.0
 76
     1
 77
     6
 78
     2
 67
     7
 79
     5
170
     0
171
     0
290
     0
174
     0
 93
        1
 44
0.0
173
     0
291
     1
 45
0.0
1001
ACAD
1000
AcDbSavedByObjectVersion
1070
     0
  0
VISUALSTYLE
  5
1D5A
102
{ACAD_REACTORS
330
1D4E
102
}
330
1D4E
100
AcDbVisualStyle
  2
Brighten
 70
    12
 71
     2
 72
     2
 73
     0
 90
        0
 40
-0.6
 41
-30.0
 62
     5
 63
     7
 74
     1
 91
        4
 64
     7
 65
   257
 75
     1
175
     1
 42
1.0
 92
        8
 66
     7
 43
1.0
 76
     1
 77
     6
 78
     2
 67
     7
 79
     5
170
     0
171
     0
290
     0
174
     0
 93
        1
 44
50.0
173
     0
291
     1
 45
0.0
1001
ACAD
1000
AcDbSavedByObjectVersion
1070
     0
  0
VISUALSTYLE
  5
1D5E
102
{ACAD_REACTORS
330
1D4E
102
}
330
1D4E
100
AcDbVisualStyle
  2
ColorChange
 70
    16
 71
     2
 72
     2
 73
     3
 90
        0
 40
-0.6
 41
-30.0
 62
     5
 63
     8
 74
     1
 91
        4
 64
     7
 65
   257
 75
     1
175
     1
 42
1.0
 92
        8
 66
     8
 43
1.0
 76
     1
 77
     6
 78
     2
 67
     7
 79
     5
170
     0
171
     0
290
     0
174
     0
 93
        1
 44
0.0
173
     0
291
     1
 45
0.0
1001
ACAD
1000
AcDbSavedByObjectVersion
1070
     0
  0
VISUALSTYLE
  5
1D57
102
{ACAD_REACTORS
330
1D4E
102
}
330
1D4E
100
AcDbVisualStyle
  2
Conceptual
 70
     9
 71
     3
 72
     2
 73
     0
 90
        0
 40
-0.6
 41
-30.0
 62
     5
 63
     7
 74
     2
 91
        2
 64
     7
 65
   257
 75
     1
175
     1
 42
40.0
 92
        8
 66
     7
 43
1.0
 76
     1
 77
     6
 78
     2
 67
     7
 79
     3
170
     0
171
     0
290
     0
174
     0
 93
        1
 44
0.0
173
     0
291
     0
 45
0.0
1001
ACAD
1000
AcDbSavedByObjectVersion
1070
     0
  0
VISUALSTYLE
  5
1D59
102
{ACAD_REACTORS
330
1D4E
102
}
330
1D4E
100
AcDbVisualStyle
  2
Dim
 70
    11
 71
     2
 72
     2
 73
     0
 90
        0
 40
-0.6
 41
-30.0
 62
     5
 63
     7
 74
     1
 91
        4
 64
     7
 65
   257
 75
     1
175
     1
 42
1.0
 92
        8
 66
     7
 43
1.0
 76
     1
 77
     6
 78
     2
 67
     7
 79
     5
170
     0
171
     0
290
     0
174
     0
 93
        1
 44
-50.0
173
     0
291
     1
 45
0.0
1001
ACAD
1000
AcDbSavedByObjectVersion
1070
     0
  0
VISUALSTYLE
  5
1D5D
102
{ACAD_REACTORS
330
1D4E
102
}
330
1D4E
100
AcDbVisualStyle
  2
Facepattern
 70
    15
 71
     2
 72
     2
 73
     0
 90
        0
 40
-0.6
 41
-30.0
 62
     5
 63
     7
 74
     1
 91
        4
 64
     7
 65
   257
 75
     1
175
     1
 42
1.0
 92
        8
 66
     7
 43
1.0
 76
     1
 77
     6
 78
     2
 67
     7
 79
     5
170
     0
171
     0
290
     0
174
     0
 93
        1
 44
0.0
173
     0
291
     1
 45
0.0
1001
ACAD
1000
AcDbSavedByObjectVersion
1070
     0
  0
VISUALSTYLE
  5
1D4F
102
{ACAD_REACTORS
330
1D4E
102
}
330
1D4E
100
AcDbVisualStyle
  2
Flat
 70
     0
 71
     2
 72
     1
 73
     1
 90
        2
 40
-0.6
 41
30.0
 62
     5
 63
     7
 74
     0
 91
        4
 64
     7
 65
   257
 75
     1
175
     1
 42
1.0
 92
        8
 66
     7
 43
1.0
 76
     1
 77
     6
 78
     2
 67
     7
 79
     5
170
     0
171
     0
290
     0
174
     0
 93
       13
 44
0.0
173
     0
291
     1
 45
0.0
1001
ACAD
1000
AcDbSavedByObjectVersion
1070
     0
  0
VISUALSTYLE
  5
1D50
102
{ACAD_REACTORS
330
1D4E
102
}
330
1D4E
100
AcDbVisualStyle
  2
FlatWithEdges
 70
     1
 71
     2
 72
     1
 73
     1
 90
        2
 40
-0.6
 41
30.0
 62
     5
 63
     7
 74
     1
 91
        4
 64
     7
 65
   257
 75
     1
175
     1
 42
1.0
 92
        0
 66
   257
 43
1.0
 76
     1
 77
     6
 78
     2
 67
     7
 79
     5
170
     0
171
     0
290
     0
174
     0
 93
       13
 44
0.0
173
     0
291
     1
 45
0.0
1001
ACAD
1000
AcDbSavedByObjectVersion
1070
     0
  0
VISUALSTYLE
  5
1D51
102
{ACAD_REACTORS
330
1D4E
102
}
330
1D4E
100
AcDbVisualStyle
  2
Gouraud
 70
     2
 71
     2
 72
     2
 73
     1
 90
        2
 40
-0.6
 41
30.0
 62
     5
 63
     7
 74
     0
 91
        4
 64
     7
 65
   257
 75
     1
175
     1
 42
1.0
 92
        0
 66
     7
 43
1.0
 76
     1
 77
     6
 78
     2
 67
     7
 79
     5
170
     0
171
     0
290
     0
174
     0
 93
       13
 44
0.0
173
     0
291
     1
 45
0.0
1001
ACAD
1000
AcDbSavedByObjectVersion
1070
     0
  0
VISUALSTYLE
  5
1D52
102
{ACAD_REACTORS
330
1D4E
102
}
330
1D4E
100
AcDbVisualStyle
  2
GouraudWithEdges
 70
     3
 71
     2
 72
     2
 73
     1
 90
        2
 40
-0.6
 41
30.0
 62
     5
 63
     7
 74
     1
 91
        4
 64
     7
 65
   257
 75
     1
175
     1
 42
1.0
 92
        0
 66
   257
 43
1.0
 76
     1
 77
     6
 78
     2
 67
     7
 79
     5
170
     0
171
     0
290
     0
174
     0
 93
       13
 44
0.0
173
     0
291
     1
 45
0.0
1001
ACAD
1000
AcDbSavedByObjectVersion
1070
     0
  0
VISUALSTYLE
  5
1D5C
102
{ACAD_REACTORS
330
1D4E
102
}
330
1D4E
100
AcDbVisualStyle
  2
Linepattern
 70
    14
 71
     2
 72
     2
 73
     0
 90
        0
 40
-0.6
 41
-30.0
 62
     5
 63
     7
 74
     1
 91
        4
 64
     7
 65
   257
 75
     7
175
     7
 42
1.0
 92
        8
 66
     7
 43
1.0
 76
     1
 77
     6
 78
     2
 67
     7
 79
     5
170
     0
171
     0
290
     0
174
     0
 93
        1
 44
0.0
173
     0
291
     1
 45
0.0
1001
ACAD
1000
AcDbSavedByObjectVersion
1070
     0
  0
VISUALSTYLE
  5
1D58
102
{ACAD_REACTORS
330
1D4E
102
}
330
1D4E
100
AcDbVisualStyle
  2
Realistic
 70
     8
 71
     2
 72
     2
 73
     0
 90
        0
 40
-0.6
 41
-30.0
 62
     5
 63
     7
 74
     1
 91
        0
 64
     7
 65
   257
 75
     1
175
     1
 42
1.0
 92
        8
 66
     8
 43
1.0
 76
     1
 77
     6
 78
     2
 67
     7
 79
     5
170
     0
171
     0
290
     0
174
     0
 93
       13
 44
0.0
173
     0
291
     0
 45
0.0
1001
ACAD
1000
AcDbSavedByObjectVersion
1070
     0
  0
VISUALSTYLE
  5
1D5B
102
{ACAD_REACTORS
330
1D4E
102
}
330
1D4E
100
AcDbVisualStyle
  2
Thicken
 70
    13
 71
     2
 72
     2
 73
     0
 90
        0
 40
-0.6
 41
-30.0
 62
     5
 63
     7
 74
     1
 91
        4
 64
     7
 65
   257
 75
     1
175
     1
 42
1.0
 92
       12
 66
     7
 43
1.0
 76
     1
 77
     6
 78
     2
 67
     7
 79
     5
170
     0
171
     0
290
     0
174
     0
 93
        1
 44
0.0
173
     0
291
     1
 45
0.0
1001
ACAD
1000
AcDbSavedByObjectVersion
1070
     0
  0
DICTIONARYVAR
  5
1DFF
102
{ACAD_REACTORS
330
FA
102
}
330
FA
100
DictionaryVariables
280
     0
  1
1:1
  0
DICTIONARYVAR
  5
1DFD
102
{ACAD_REACTORS
330
FA
102
}
330
FA
100
DictionaryVariables
280
     0
  1
STANDARD
  0
DICTIONARYVAR
  5
1DFC
102
{ACAD_REACTORS
330
FA
102
}
330
FA
100
DictionaryVariables
280
     0
  1
STANDARD
  0
DICTIONARYVAR
  5
1ED3
102
{ACAD_REACTORS
330
FA
102
}
330
FA
100
DictionaryVariables
280
     0
  1
1
  0
DICTIONARYVAR
  5
FB
102
{ACAD_REACTORS
330
FA
102
}
330
FA
100
DictionaryVariables
280
     0
  1
1
  0
DICTIONARYVAR
  5
1E00
102
{ACAD_REACTORS
330
FA
102
}
330
FA
100
DictionaryVariables
280
     0
  1
0
  0
DICTIONARYVAR
  5
1DFE
102
{ACAD_REACTORS
330
FA
102
}
330
FA
100
DictionaryVariables
280
     0
  1
0
  0
DICTIONARYVAR
  5
1ED2
102
{ACAD_REACTORS
330
FA
102
}
330
FA
100
DictionaryVariables
280
     0
  1
127
  0
ACAD_PROXY_OBJECT
  5
18A
102
{ACAD_REACTORS
330
189
102
}
330
189
100
AcDbProxyObject
 90
      499
 91
      574
 95
   393239
 70
     0
 93
      118
310
405010040CA904C415CD5B074D502B
350
18B
 94
        0
1001
ACAD
1000
AcRTDxfName
1000
ACMDATADICTIONARY
  0
ACAD_PROXY_OBJECT
  5
6B
330
0
100
AcDbProxyObject
 90
      499
 91
      514
 95
   393239
 70
     0
 93
      666
310
0001000000009AA6A9AA40518576564204E6F762031322030373A35383A343820313939370141D18B8C8B8C0D4E40518576564204175672032372031303A34363A3239203230303801424D0B8C0B8D4D8B8C4CBF
330
4D
330
6C
330
6D
330
6F
330
0
 94
        0
1001
ACAD
1000
AcRTDxfName
1000
ADAPPL
  0
ACAD_PROXY_OBJECT
  5
6C
330
0
100
AcDbProxyObject
 90
      499
 91
      515
 95
   393239
 70
     0
 93
       70
310
0001AAA80820000003
330
4D
330
6C
330
6C
 94
        0
1001
ACAD
1000
AcRTDxfName
1000
DEPMGR
  0
ACAD_PROXY_OBJECT
  5
6D
330
0
100
AcDbProxyObject
 90
      499
 91
      516
 95
   393239
 70
     0
 93
       48
310
0001000000008C
330
4D
330
0
330
6E
330
0
330
0
 94
        0
1001
ACAD
1000
AcRTDxfName
1000
PARAMMGR
  0
ACAD_PROXY_OBJECT
  5
6E
330
0
100
AcDbProxyObject
 90
      499
 91
      517
 95
   393239
 70
     0
 93
       40
310
000100AAAA7E
330
4D
330
0
 94
        0
1001
ACAD
1000
AcRTDxfName
1000
PARAMSCOPE
  0
ACAD_PROXY_OBJECT
  5
70
330
0
100
AcDbProxyObject
 90
      499
 91
      519
 95
   393239
 70
     0
 93
      124
310
00010142905350D3D39114D414D6905F
330
4D
 94
        0
1001
ACAD
1000
AcRTDxfName
1000
ACIMINTSYSVAR
  0
ACAD_PROXY_OBJECT
  5
71
330
0
100
AcDbProxyObject
 90
      499
 91
      519
 95
   393239
 70
     0
 93
      124
310
000101429053549553115353D111501F
330
4D
 94
        0
1001
ACAD
1000
AcRTDxfName
1000
ACIMINTSYSVAR
  0
ACAD_PROXY_OBJECT
  5
72
330
0
100
AcDbProxyObject
 90
      499
 91
      519
 95
   393239
 70
     0
 93
      108
310
00010142105354D2D353D111501F
330
4D
 94
        0
1001
ACAD
1000
AcRTDxfName
1000
ACIMINTSYSVAR
  0
ACAD_PROXY_OBJECT
  5
73
330
0
100
AcDbProxyObject
 90
      499
 91
      519
 95
   393239
 70
     0
 93
      140
310
000101435053511253511254D41353D1116F
330
4D
 94
        0
1001
ACAD
1000
AcRTDxfName
1000
ACIMINTSYSVAR
  0
ACAD_PROXY_OBJECT
  5
74
330
0
100
AcDbProxyObject
 90
      499
 91
      520
 95
   393239
 70
     0
 93
      180
310
00010142905354D2D05391D513D300000000000001040F
330
4D
 94
        0
1001
ACAD
1000
AcRTDxfName
1000
ACIMREALSYSVAR
  0
ACAD_PROXY_OBJECT
  5
75
330
0
100
AcDbProxyObject
 90
      499
 91
      521
 95
   393239
 70
     0
 93
      164
310
00010142505354D2D4D516531140505434F4E542AF
330
4D
 94
        0
1001
ACAD
1000
AcRTDxfName
1000
ACIMSTRSYSVAR
  0
ACAD_PROXY_OBJECT
  5
76
330
0
100
AcDbProxyObject
 90
      499
 91
      519
 95
   393239
 70
     0
 93
      108
310
00010142105350D351111253501F
330
4D
 94
        0
1001
ACAD
1000
AcRTDxfName
1000
ACIMINTSYSVAR
  0
ACAD_PROXY_OBJECT
  5
78
330
0
100
AcDbProxyObject
 90
      499
 91
      519
 95
   393239
 70
     0
 93
      108
310
00010142105350D3D35414D5901F
330
4D
 94
        0
1001
ACAD
1000
AcRTDxfName
1000
ACIMINTSYSVAR
  0
ACAD_PROXY_OBJECT
  5
79
330
0
100
AcDbProxyObject
 90
      499
 91
      521
 95
   393239
 70
     0
 93
      164
310
0001014290535410549514D411960050450415254F
330
4D
 94
        0
1001
ACAD
1000
AcRTDxfName
1000
ACIMSTRSYSVAR
  0
ACAD_PROXY_OBJECT
  5
7A
330
0
100
AcDbProxyObject
 90
      499
 91
      519
 95
   393239
 70
     0
 93
      116
310
000101425053511254D410D3D3901F
330
4D
 94
        0
1001
ACAD
1000
AcRTDxfName
1000
ACIMINTSYSVAR
  0
ACAD_PROXY_OBJECT
  5
7C
330
0
100
AcDbProxyObject
 90
      499
 91
      523
 95
   393239
 70
     0
 93
     7556
310
0001431108050A544852555F4452494C4C0142D09312539117D1149253130050A544852555F43424F52450142D09312539117D0D093D4914050A544852555F4353494E4B0142D09312539117D0D4D25392C050E424C494E445F43424F52455F39340143909312539117D0D4D25392D7CE4D0050E424C494E445F4452494C4C
310
5F393401435512149557D0D093D49157CE4D0050D544852555F4353494E4B5F393401435512149557D11492531317CE4D10C44201459EC94958C8094950535112504815121493D551D20B9F4051C7B252563202525414D4449412058202525414D44455020444545507D014F5EC94958C8094950535112504815121493D551
310
D20B9F57141ED0D093D49148094958C80949505350D112504816080949505350D091115408111151541F405437B252563202525414D4449412058202525414D44455020444545507D5C507B43424F524520252563202525414D434449412058202525414D434244455020444545507D014EDEC94958C809495053511250481
310
5121493D551D20B9F57141ED0D4D25392C8094958C80949505350D112504816080949505350D4D05391C949591F405417B252563202525414D4449412058202525414D44455020444545507D5C507B4353494E4B20252563202525414D434449412058202525414D4353414E472525647D015D894958C80949505351125048
310
171199D91D0B9CDA1E0EDE17119C9BDB585B9CCB9CDA1E0EC8094950535111541714171199D91D0B9CDA1E0EDD97119C9BDB585B9CCB9CDA1E0EC8094958C80949505350D1125048171199D91D0B9CDA1E0EDE17119C9BDB585B9CCB9CDA1E0EC80949505350D091115400572252563202525414D444941205C505C4667647
310
42E7368783B785C46726F6D616E732E7368783B202525414D4445505C505C466764742E7368783B5C48302E30393B775C46726F6D616E732E7368783B5C48302E31323B20252563202525414D434449412058202525414D4353414E47252564014B894958C809495053511250481714171199D91D0B9CDA1E0EDE17119C9BD
310
B585B9CCB9CDA1E0EC80949505351115400540252563202525414D444941205C507B5C466764742E7368783B767D20252563202525414D43444941207B5C466764742E7368783B787D202525414D43424445500153C94958C8094950535112505714171199D91D0B9CDA1E0ED7120C0B8C0E4EDDD7119C9BDB585B9CCB9CDA
310
1E0ED7120C0B8C4C8EC8094958C80949505350D112504816080949505350D4D05391C9495900510252563202525414D4449412054485255F
330
4D
 94
        0
1001
ACAD
1000
AcRTDxfName
1000
ADHNTMPLT
  0
ACAD_PROXY_OBJECT
  5
7F
330
0
100
AcDbProxyObject
 90
      499
 91
      526
 95
   393239
 70
     0
 93
      374
310
0001014119185D1940506442E322E3539014124FEA55D00509342E302E35362E313240501000041905394D24CCC65B
330
4D
330
80
330
83
 94
        0
1001
ACAD
1000
AcRTDxfName
1000
AM_DRAWING_MGR
  0
ACAD_PROXY_OBJECT
  5
80
330
0
100
AcDbProxyObject
 90
      499
 91
      527
 95
   393239
 70
     0
 93
       48
310
000190140A0000
330
4D
330
81
 94
        0
1001
ACAD
1000
AcRTDxfName
1000
AM_DWG_DOCUMENT
  0
ACAD_PROXY_OBJECT
  5
81
330
0
100
AcDbProxyObject
 90
      499
 91
      528
 95
   393239
 70
     0
 93
       48
310
0001AA000000CC
330
4D
330
153
330
82
330
B7
 94
        0
1001
ACAD
1000
AcRTDxfName
1000
AM_DWG_SHEET
  0
ACAD_PROXY_OBJECT
  5
82
330
0
100
AcDbProxyObject
 90
      499
 91
      529
 95
   393239
 70
     0
 93
       28
310
0001AAAF
330
4D
 94
        0
1001
ACAD
1000
AcRTDxfName
1000
AM_VIEWDIMPARMAP
  0
ACAD_PROXY_OBJECT
  5
84
330
0
100
AcDbProxyObject
 90
      499
 91
      519
 95
   393239
 70
     0
 93
      108
310
000101421053521310D05310D01F
330
4D
 94
        0
1001
ACAD
1000
AcRTDxfName
1000
ACIMINTSYSVAR
  0
ACAD_PROXY_OBJECT
  5
85
330
0
100
AcDbProxyObject
 90
      499
 91
      519
 95
   393239
 70
     0
 93
      124
310
000101429053541493D295165411501F
330
4D
 94
        0
1001
ACAD
1000
AcRTDxfName
1000
ACIMINTSYSVAR
  0
ACAD_PROXY_OBJECT
  5
86
330
0
100
AcDbProxyObject
 90
      499
 91
      519
 95
   393239
 70
     0
 93
      124
310
00010142905354915554D1511253501F
330
4D
 94
        0
1001
ACAD
1000
AcRTDxfName
1000
ACIMINTSYSVAR
  0
ACAD_PROXY_OBJECT
  5
87
330
0
100
AcDbProxyObject
 90
      499
 91
      519
 95
   393239
 70
     0
 93
      132
310
00010143105354D150D51253D39112536F
330
4D
 94
        0
1001
ACAD
1000
AcRTDxfName
1000
ACIMINTSYSVAR
  0
ACAD_PROXY_OBJECT
  5
88
330
0
100
AcDbProxyObject
 90
      499
 91
      519
 95
   393239
 70
     0
 93
      124
310
00010142905355941093D4911154901F
330
4D
 94
        0
1001
ACAD
1000
AcRTDxfName
1000
ACIMINTSYSVAR
  0
ACAD_PROXY_OBJECT
  5
89
330
0
100
AcDbProxyObject
 90
      499
 91
      519
 95
   393239
 70
     0
 93
      116
310
0001014290535115D1D0D3D313D4AF
330
4D
 94
        0
1001
ACAD
1000
AcRTDxfName
1000
ACIMINTSYSVAR
  0
ACAD_PROXY_OBJECT
  5
8A
330
0
100
AcDbProxyObject
 90
      499
 91
      519
 95
   393239
 70
     0
 93
      148
310
00010143505355925155D49151949154D2101F
330
4D
 94
        0
1001
ACAD
1000
AcRTDxfName
1000
ACIMINTSYSVAR
  0
ACAD_PROXY_OBJECT
  5
8B
330
0
100
AcDbProxyObject
 90
      499
 91
      519
 95
   393239
 70
     0
 93
      172
310
00010144105350539393D51154149154D1549591501F
330
4D
 94
        0
1001
ACAD
1000
AcRTDxfName
1000
ACIMINTSYSVAR
  0
ACAD_PROXY_OBJECT
  5
8D
330
0
100
AcDbProxyObject
 90
      499
 91
      521
 95
   393239
 70
     0
 93
      180
310
00010142905352125113151654114050648494444454EF
330
4D
 94
        0
1001
ACAD
1000
AcRTDxfName
1000
ACIMSTRSYSVAR
  0
ACAD_PROXY_OBJECT
  5
8F
330
0
100
AcDbProxyObject
 90
      499
 91
      521
 95
   393239
 70
     0
 93
      196
310
00010142905354D150D315165411405085048414E544F4D32F
330
4D
 94
        0
1001
ACAD
1000
AcRTDxfName
1000
ACIMSTRSYSVAR
  0
ACAD_PROXY_OBJECT
  5
90
330
0
100
AcDbProxyObject
 90
      499
 91
      519
 95
   393239
 70
     0
 93
      108
310
00010142105354D51114D0D5102F
330
4D
 94
        0
1001
ACAD
1000
AcRTDxfName
1000
ACIMINTSYSVAR
  0
ACAD_PROXY_OBJECT
  5
91
330
0
100
AcDbProxyObject
 90
      499
 91
      519
 95
   393239
 70
     0
 93
      108
310
00010142105354D511151054102F
330
4D
 94
        0
1001
ACAD
1000
AcRTDxfName
1000
ACIMINTSYSVAR
  0
ACAD_PROXY_OBJECT
  5
92
330
0
100
AcDbProxyObject
 90
      499
 91
      519
 95
   393239
 70
     0
 93
      108
310
00010142105354D511111513102F
330
4D
 94
        0
1001
ACAD
1000
AcRTDxfName
1000
ACIMINTSYSVAR
  0
ACAD_PROXY_OBJECT
  5
93
330
0
100
AcDbProxyObject
 90
      499
 91
      520
 95
   393239
 70
     0
 93
      148
310
00010141905350D310D34295C8FC2F528BC3FF
330
4D
 94
        0
1001
ACAD
1000
AcRTDxfName
1000
ACIMREALSYSVAR
  0
ACAD_PROXY_OBJECT
  5
94
330
0
100
AcDbProxyObject
 90
      499
 91
      520
 95
   393239
 70
     0
 93
      156
310
00010141D05350D311D05402B8716D9CEF7C33FF
330
4D
 94
        0
1001
ACAD
1000
AcRTDxfName
1000
ACIMREALSYSVAR
  0
ACAD_PROXY_OBJECT
  5
95
330
0
100
AcDbProxyObject
 90
      499
 91
      520
 95
   393239
 70
     0
 93
      164
310
00010142105350D313D4D2150295C8FC2F528BC3FF
330
4D
 94
        0
1001
ACAD
1000
AcRTDxfName
1000
ACIMREALSYSVAR
  0
ACAD_PROXY_OBJECT
  5
96
330
0
100
AcDbProxyObject
 90
      499
 91
      519
 95
   393239
 70
     0
 93
      100
310
00010141D05350D3141054901F
330
4D
 94
        0
1001
ACAD
1000
AcRTDxfName
1000
ACIMINTSYSVAR
  0
ACAD_PROXY_OBJECT
  5
97
330
0
100
AcDbProxyObject
 90
      499
 91
      519
 95
   393239
 70
     0
 93
      100
310
0001014210535590539254D22F
330
4D
 94
        0
1001
ACAD
1000
AcRTDxfName
1000
ACIMINTSYSVAR
  0
ACAD_PROXY_OBJECT
  5
98
330
0
100
AcDbProxyObject
 90
      499
 91
      520
 95
   393239
 70
     0
 93
      188
310
00010142D0535312539155121250D2C295C8FC2F5289C3FF
330
4D
 94
        0
1001
ACAD
1000
AcRTDxfName
1000
ACIMREALSYSVAR
  0
ACAD_PROXY_OBJECT
  5
9A
330
0
100
AcDbProxyObject
 90
      499
 91
      521
 95
   393239
 70
     0
 93
      164
310
00010142105350D3151654114050643454E544552F
330
4D
 94
        0
1001
ACAD
1000
AcRTDxfName
1000
ACIMSTRSYSVAR
  0
ACAD_PROXY_OBJECT
  5
A3
330
0
100
AcDbProxyObject
 90
      499
 91
      519
 95
   393239
 70
     0
 93
      132
310
00010142D05050555513D4D3D31591501F
330
4D
 94
        0
1001
ACAD
1000
AcRTDxfName
1000
ACIMINTSYSVAR
  0
ACAD_PROXY_OBJECT
  5
A4
330
0
100
AcDbProxyObject
 90
      499
 91
      519
 95
   393239
 70
     0
 93
      156
310
00010143905050555513D054D4D153509311501F
330
4D
 94
        0
1001
ACAD
1000
AcRTDxfName
1000
ACIMINTSYSVAR
  0
ACAD_PROXY_OBJECT
  5
A5
330
0
100
AcDbProxyObject
 90
      499
 91
      519
 95
   393239
 70
     0
 93
      148
310
00010143505055925155D49154D513D491501F
330
4D
 94
        0
1001
ACAD
1000
AcRTDxfName
1000
ACIMINTSYSVAR
  0
ACAD_PROXY_OBJECT
  5
A6
330
0
100
AcDbProxyObject
 90
      499
 91
      519
 95
   393239
 70
     0
 93
      124
310
00010142D050525394D15495105094EF
330
4D
 94
        0
1001
ACAD
1000
AcRTDxfName
1000
ACIMINTSYSVAR
  0
ACAD_PROXY_OBJECT
  5
A7
330
0
100
AcDbProxyObject
 90
      499
 91
      519
 95
   393239
 70
     0
 93
      148
310
00010143505054D0D15391555411105511501F
330
4D
 94
        0
1001
ACAD
1000
AcRTDxfName
1000
ACIMINTSYSVAR
  0
ACAD_PROXY_OBJECT
  5
A8
330
0
100
AcDbProxyObject
 90
      499
 91
      521
 95
   393239
 70
     0
 93
      172
310
00010143105054D5509054D4D354119600503535542F
330
4D
 94
        0
1001
ACAD
1000
AcRTDxfName
1000
ACIMSTRSYSVAR
  0
ACAD_PROXY_OBJECT
  5
A9
330
0
100
AcDbProxyObject
 90
      499
 91
      521
 95
   393239
 70
     0
 93
      172
310
00010142905054D0D15391541196005055343454E45F
330
4D
 94
        0
1001
ACAD
1000
AcRTDxfName
1000
ACIMSTRSYSVAR
  0
ACAD_PROXY_OBJECT
  5
B0
330
0
100
AcDbProxyObject
 90
      499
 91
      534
 95
   393239
 70
     0
 93
       32
310
00010000F2
330
4D
340
AD
330
B2
330
AD
 94
        0
1001
ACAD
1000
AcRTDxfName
1000
ACAMGRCOMPDEF
  0
ACAD_PROXY_OBJECT
  5
B1
330
0
100
AcDbProxyObject
 90
      499
 91
      535
 95
   393239
 70
     0
 93
       18
310
0001BF
330
4D
 94
        0
1001
ACAD
1000
AcRTDxfName
1000
ACCMCONTEXT
  0
ACAD_PROXY_OBJECT
  5
B2
330
0
100
AcDbProxyObject
 90
      499
 91
      536
 95
   393239
 70
     0
 93
      119
310
00010141908B4C8C4CCD5050055401
330
4D
330
B0
330
B1
 94
        0
1001
ACAD
1000
AcRTDxfName
1000
ACAMCOMPDEF
  0
ACAD_PROXY_OBJECT
  5
B3
330
0
100
AcDbProxyObject
 90
      499
 91
      537
 95
   393239
 70
     0
 93
       40
310
000100AAAA7E
330
4D
330
B2
 94
        0
1001
ACAD
1000
AcRTDxfName
1000
ACAMCOMPDEFMGR
  0
ACAD_PROXY_OBJECT
  5
B4
330
0
100
AcDbProxyObject
 90
      499
 91
      538
 95
   393239
 70
     0
 93
       96
310
000190140A000000000000AA01
330
4D
330
B5
330
B5
330
B5
330
B5
330
B5
330
0
 94
        0
1001
ACAD
1000
AcRTDxfName
1000
AMCONTEXTMGR
  0
ACAD_PROXY_OBJECT
  5
B5
330
0
100
AcDbProxyObject
 90
      499
 91
      539
 95
   393239
 70
     0
 93
      141
310
00010000406AAAAAAAAAAAAAA9A9806AAAA7
330
4D
330
B4
330
B2
 94
        0
1001
ACAD
1000
AcRTDxfName
1000
ACAMCONTEXTMODELER
  0
ACAD_PROXY_OBJECT
  5
C2
330
0
100
AcDbProxyObject
 90
      499
 91
      519
 95
   393239
 70
     0
 93
      116
310
000101425053541051D1531153919F
330
4D
 94
        0
1001
ACAD
1000
AcRTDxfName
1000
ACIMINTSYSVAR
  0
ACAD_PROXY_OBJECT
  5
C3
330
0
100
AcDbProxyObject
 90
      499
 91
      519
 95
   393239
 70
     0
 93
      108
310
000101421053555312539154D05F
330
4D
 94
        0
1001
ACAD
1000
AcRTDxfName
1000
ACIMINTSYSVAR
  0
ACAD_PROXY_OBJECT
  5
C4
330
0
100
AcDbProxyObject
 90
      499
 91
      519
 95
   393239
 70
     0
 93
      108
310
000101421053559312539154D03F
330
4D
 94
        0
1001
ACAD
1000
AcRTDxfName
1000
ACIMINTSYSVAR
  0
ACAD_PROXY_OBJECT
  5
C5
330
0
100
AcDbProxyObject
 90
      499
 91
      519
 95
   393239
 70
     0
 93
      140
310
00010143105354D1911254D41353D111501F
330
4D
 94
        0
1001
ACAD
1000
AcRTDxfName
1000
ACIMINTSYSVAR
  0
ACAD_PROXY_OBJECT
  5
C6
330
0
100
AcDbProxyObject
 90
      499
 91
      520
 95
   393239
 70
     0
 93
      172
310
00010142505354119255105391C1C052DC9A6F10440F
330
4D
 94
        0
1001
ACAD
1000
AcRTDxfName
1000
ACIMREALSYSVAR
  0
ACAD_PROXY_OBJECT
  5
C7
330
0
100
AcDbProxyObject
 90
      499
 91
      520
 95
   393239
 70
     0
 93
      164
310
000101421053559150D05551C000000000000E03FF
330
4D
 94
        0
1001
ACAD
1000
AcRTDxfName
1000
ACIMREALSYSVAR
  0
ACAD_PROXY_OBJECT
  5
C8
330
0
100
AcDbProxyObject
 90
      499
 91
      520
 95
   393239
 70
     0
 93
      180
310
00010142905350931153911513D307B14AE47E17A843FF
330
4D
 94
        0
1001
ACAD
1000
AcRTDxfName
1000
ACIMREALSYSVAR
  0
ACAD_PROXY_OBJECT
  5
C9
330
0
100
AcDbProxyObject
 90
      499
 91
      520
 95
   393239
 70
     0
 93
      172
310
0001014250535293D25391D05407B14AE47E17A843FF
330
4D
 94
        0
1001
ACAD
1000
AcRTDxfName
1000
ACIMREALSYSVAR
  0
ACAD_PROXY_OBJECT
  5
CA
330
0
100
AcDbProxyObject
 90
      499
 91
      520
 95
   393239
 70
     0
 93
      172
310
000101425053541192551311538000000FC83D79741F
330
4D
 94
        0
1001
ACAD
1000
AcRTDxfName
1000
ACIMREALSYSVAR
  0
ACAD_PROXY_OBJECT
  5
CB
330
0
100
AcDbProxyObject
 90
      499
 91
      520
 95
   393239
 70
     0
 93
      156
310
00010141D053559150D4D18000000000000E03FF
330
4D
 94
        0
1001
ACAD
1000
AcRTDxfName
1000
ACIMREALSYSVAR
  0
ACAD_PROXY_OBJECT
  5
CC
330
0
100
AcDbProxyObject
 90
      499
 91
      520
 95
   393239
 70
     0
 93
      156
310
00010141D05354D19513D30FCA9F1D24D62503FF
330
4D
 94
        0
1001
ACAD
1000
AcRTDxfName
1000
ACIMREALSYSVAR
  0
ACAD_PROXY_OBJECT
  5
CD
330
0
100
AcDbProxyObject
 90
      499
 91
      520
 95
   393239
 70
     0
 93
      172
310
000101425053541192551513D307B14AE47E17A843FF
330
4D
 94
        0
1001
ACAD
1000
AcRTDxfName
1000
ACIMREALSYSVAR
  0
ACAD_PROXY_OBJECT
  5
CE
330
0
100
AcDbProxyObject
 90
      499
 91
      520
 95
   393239
 70
     0
 93
      188
310
00010142D05354D151D192551513D307B14AE47E17A843FF
330
4D
 94
        0
1001
ACAD
1000
AcRTDxfName
1000
ACIMREALSYSVAR
  0
ACAD_PROXY_OBJECT
  5
CF
330
0
100
AcDbProxyObject
 90
      499
 91
      520
 95
   393239
 70
     0
 93
      148
310
000101419053541311538000000FC83D79741F
330
4D
 94
        0
1001
ACAD
1000
AcRTDxfName
1000
ACIMREALSYSVAR
  0
ACAD_PROXY_OBJECT
  5
D0
330
0
100
AcDbProxyObject
 90
      499
 91
      520
 95
   393239
 70
     0
 93
      172
310
00010142505354105391D513D301C052DC9A6F10440F
330
4D
 94
        0
1001
ACAD
1000
AcRTDxfName
1000
ACIMREALSYSVAR
  0
ACAD_PROXY_OBJECT
  5
D1
330
0
100
AcDbProxyObject
 90
      499
 91
      520
 95
   393239
 70
     0
 93
      132
310
0001014114D2569140000000000002440F
330
4D
 94
        0
1001
ACAD
1000
AcRTDxfName
1000
ACIMREALSYSVAR
  0
ACAD_PROXY_OBJECT
  5
D2
330
0
100
AcDbProxyObject
 90
      499
 91
      521
 95
   393239
 70
     0
 93
      156
310
00010142905351D494149151925600503415347F
330
4D
 94
        0
1001
ACAD
1000
AcRTDxfName
1000
ACIMSTRSYSVAR
  0
ACAD_PROXY_OBJECT
  5
D3
330
0
100
AcDbProxyObject
 90
      499
 91
      544
 95
   393239
 70
     0
 93
      314
310
00014080509646973745363616C650000000000003C2FC000000000000F0BF0000003F20F5E5D07F
330
4D
 94
        0
1001
ACAD
1000
AcRTDxfName
1000
ACIMDBLSTATICVAR
  0
ACAD_PROXY_OBJECT
  5
D4
330
0
100
AcDbProxyObject
 90
      499
 91
      544
 95
   393239
 70
     0
 93
      322
310
0001408050A65646175526F74617465060B51153EC87E4FC182D4454FB2119C0060B51153EC846503F
330
4D
 94
        0
1001
ACAD
1000
AcRTDxfName
1000
ACIMDBLSTATICVAR
  0
ACAD_PROXY_OBJECT
  5
D5
330
0
100
AcDbProxyObject
 90
      499
 91
      544
 95
   393239
 70
     0
 93
      314
310
00014080509656461755477697374060B51153EC846500000000FC83D797C10000003F20F5E5D07F
330
4D
 94
        0
1001
ACAD
1000
AcRTDxfName
1000
ACIMDBLSTATICVAR
  0
ACAD_PROXY_OBJECT
  5
D6
330
0
100
AcDbProxyObject
 90
      499
 91
      545
 95
   393239
 70
     0
 93
      294
310
000140C050A656467654F75747075740144F3B7F635ECB74A140A4817D41BDB1E5B1A5B997
330
4D
 94
        0
1001
ACAD
1000
AcRTDxfName
1000
ACIMSTRSTATICVAR
  0
ACAD_PROXY_OBJECT
  5
D7
330
0
100
AcDbProxyObject
 90
      499
 91
      546
 95
   393239
 70
     0
 93
      154
310
0001404050B6564697450726576696577406407F
330
4D
 94
        0
1001
ACAD
1000
AcRTDxfName
1000
ACIMINTSTATICVAR
  0
ACAD_PROXY_OBJECT
  5
D8
330
0
100
AcDbProxyObject
 90
      499
 91
      546
 95
   393239
 70
     0
 93
      170
310
0001404050A666C6F77556C696E657342A3A00C0003F
330
4D
 94
        0
1001
ACAD
1000
AcRTDxfName
1000
ACIMINTSTATICVAR
  0
ACAD_PROXY_OBJECT
  5
D9
330
0
100
AcDbProxyObject
 90
      499
 91
      546
 95
   393239
 70
     0
 93
      170
310
0001404050A666C6F77566C696E657342A3A00C0003F
330
4D
 94
        0
1001
ACAD
1000
AcRTDxfName
1000
ACIMINTSTATICVAR
  0
ACAD_PROXY_OBJECT
  5
DA
330
0
100
AcDbProxyObject
 90
      499
 91
      544
 95
   393239
 70
     0
 93
      322
310
0001408050A666C7366456E645261640000000000003C2FC000000000000F0BF0000003F20F5E5D07F
330
4D
 94
        0
1001
ACAD
1000
AcRTDxfName
1000
ACIMDBLSTATICVAR
  0
ACAD_PROXY_OBJECT
  5
DB
330
0
100
AcDbProxyObject
 90
      499
 91
      545
 95
   393239
 70
     0
 93
      246
310
000140C05086A6E33644D6F64650143E3BA24EB8A134A4817D3585B9D585B3
330
4D
 94
        0
1001
ACAD
1000
AcRTDxfName
1000
ACIMSTRSTATICVAR
  0
ACAD_PROXY_OBJECT
  5
DC
330
0
100
AcDbProxyObject
 90
      499
 91
      545
 95
   393239
 70
     0
 93
      294
310
000140C050A6A6E33644F75747075740144F3B7F635ECB74A140A4817D41BDB1E5B1A5B997
330
4D
 94
        0
1001
ACAD
1000
AcRTDxfName
1000
ACIMSTRSTATICVAR
  0
ACAD_PROXY_OBJECT
  5
DD
330
0
100
AcDbProxyObject
 90
      499
 91
      544
 95
   393239
 70
     0
 93
      306
310
000140805086C656E675065726300000000002016D002D431CEBE2361A3F0000003F20F5E5D07F
330
4D
 94
        0
1001
ACAD
1000
AcRTDxfName
1000
ACIMDBLSTATICVAR
  0
ACAD_PROXY_OBJECT
  5
DE
330
0
100
AcDbProxyObject
 90
      499
 91
      544
 95
   393239
 70
     0
 93
      266
310
0001408050B6D61737344656E7369747942D431CEBE2361A3F0000003F20F5E5D07F
330
4D
 94
        0
1001
ACAD
1000
AcRTDxfName
1000
ACIMDBLSTATICVAR
  0
ACAD_PROXY_OBJECT
  5
DF
330
0
100
AcDbProxyObject
 90
      499
 91
      544
 95
   393239
 70
     0
 93
      186
310
000140805096D617373546869636BA0000003F20F5E5D07F
330
4D
 94
        0
1001
ACAD
1000
AcRTDxfName
1000
ACIMDBLSTATICVAR
  0
ACAD_PROXY_OBJECT
  5
E0
330
0
100
AcDbProxyObject
 90
      499
 91
      545
 95
   393239
 70
     0
 93
      230
310
000140C05086D6173735479706501436F2AB64A14CA4817D4DA195B1B3
330
4D
 94
        0
1001
ACAD
1000
AcRTDxfName
1000
ACIMSTRSTATICVAR
  0
ACAD_PROXY_OBJECT
  5
E1
330
0
100
AcDbProxyObject
 90
      499
 91
      545
 95
   393239
 70
     0
 93
      334
310
000140C05096D6F646F556E6974730146535A5B1B1A5B595D195C9CC817D35A5B1B1A5B595D195C9CC83
330
4D
 94
        0
1001
ACAD
1000
AcRTDxfName
1000
ACIMSTRSTATICVAR
  0
ACAD_PROXY_OBJECT
  5
E2
330
0
100
AcDbProxyObject
 90
      499
 91
      544
 95
   393239
 70
     0
 93
      266
310
0001408050B6D6F646F506572556E697442D431CEBE2361A3F0000003F20F5E5D07F
330
4D
 94
        0
1001
ACAD
1000
AcRTDxfName
1000
ACIMDBLSTATICVAR
  0
ACAD_PROXY_OBJECT
  5
E3
330
0
100
AcDbProxyObject
 90
      499
 91
      544
 95
   393239
 70
     0
 93
      242
310
000140805086F667366446973744000000FC83D797C10000003F20F5E5D07F
330
4D
 94
        0
1001
ACAD
1000
AcRTDxfName
1000
ACIMDBLSTATICVAR
  0
ACAD_PROXY_OBJECT
  5
E4
330
0
100
AcDbProxyObject
 90
      499
 91
      544
 95
   393239
 70
     0
 93
      258
310
0001408050A7072696D52616469757342D431CEBE2361A3F0000003F20F5E5D07F
330
4D
 94
        0
1001
ACAD
1000
AcRTDxfName
1000
ACIMDBLSTATICVAR
  0
ACAD_PROXY_OBJECT
  5
E5
330
0
100
AcDbProxyObject
 90
      499
 91
      544
 95
   393239
 70
     0
 93
      194
310
0001408050A7072696D546F70526164A0000003F20F5E5D07F
330
4D
 94
        0
1001
ACAD
1000
AcRTDxfName
1000
ACIMDBLSTATICVAR
  0
ACAD_PROXY_OBJECT
  5
E6
330
0
100
AcDbProxyObject
 90
      499
 91
      544
 95
   393239
 70
     0
 93
      266
310
0001408050B7072696D5475626552616442D431CEBE2361A3F0000003F20F5E5D07F
330
4D
 94
        0
1001
ACAD
1000
AcRTDxfName
1000
ACIMDBLSTATICVAR
  0
ACAD_PROXY_OBJECT
  5
E7
330
0
100
AcDbProxyObject
 90
      499
 91
      544
 95
   393239
 70
     0
 93
      258
310
0001408050A7072696D4865696768744000000FC83D797C10000003F20F5E5D07F
330
4D
 94
        0
1001
ACAD
1000
AcRTDxfName
1000
ACIMDBLSTATICVAR
  0
ACAD_PROXY_OBJECT
  5
E8
330
0
100
AcDbProxyObject
 90
      499
 91
      544
 95
   393239
 70
     0
 93
      250
310
000140805097072696D5374416E678182D4454FB2119C0060B51153EC846503F
330
4D
 94
        0
1001
ACAD
1000
AcRTDxfName
1000
ACIMDBLSTATICVAR
  0
ACAD_PROXY_OBJECT
  5
E9
330
0
100
AcDbProxyObject
 90
      499
 91
      544
 95
   393239
 70
     0
 93
      322
310
0001408050A7072696D456E64416E67060B51153EC846500182D4454FB2119C0060B51153EC846503F
330
4D
 94
        0
1001
ACAD
1000
AcRTDxfName
1000
ACIMDBLSTATICVAR
  0
ACAD_PROXY_OBJECT
  5
EA
330
0
100
AcDbProxyObject
 90
      499
 91
      544
 95
   393239
 70
     0
 93
      242
310
000140805087265765374416E678182D4454FB2119C0060B51153EC846503F
330
4D
 94
        0
1001
ACAD
1000
AcRTDxfName
1000
ACIMDBLSTATICVAR
  0
ACAD_PROXY_OBJECT
  5
EB
330
0
100
AcDbProxyObject
 90
      499
 91
      544
 95
   393239
 70
     0
 93
      314
310
00014080509726576456E64416E67060B51153EC846500182D4454FB2119C0060B51153EC846503F
330
4D
 94
        0
1001
ACAD
1000
AcRTDxfName
1000
ACIMDBLSTATICVAR
  0
ACAD_PROXY_OBJECT
  5
EC
330
0
100
AcDbProxyObject
 90
      499
 91
      546
 95
   393239
 70
     0
 93
      194
310
0001404050C7266736655706174636865734290139C0C0003F
330
4D
 94
        0
1001
ACAD
1000
AcRTDxfName
1000
ACIMINTSTATICVAR
  0
ACAD_PROXY_OBJECT
  5
ED
330
0
100
AcDbProxyObject
 90
      499
 91
      546
 95
   393239
 70
     0
 93
      194
310
0001404050C7266736656706174636865734290139C0C0003F
330
4D
 94
        0
1001
ACAD
1000
AcRTDxfName
1000
ACIMINTSTATICVAR
  0
ACAD_PROXY_OBJECT
  5
EE
330
0
100
AcDbProxyObject
 90
      499
 91
      545
 95
   393239
 70
     0
 93
      246
310
000140C0508747562654D6F64650143E3BA24EB8A134A4817D3585B9D585B3
330
4D
 94
        0
1001
ACAD
1000
AcRTDxfName
1000
ACIMSTRSTATICVAR
  0
ACAD_PROXY_OBJECT
  5
EF
330
0
100
AcDbProxyObject
 90
      499
 91
      544
 95
   393239
 70
     0
 93
      274
310
0001408050C747562654469616D6574657242D431CEBE2361A3F0000003F20F5E5D07F
330
4D
 94
        0
1001
ACAD
1000
AcRTDxfName
1000
ACIMDBLSTATICVAR
  0
ACAD_PROXY_OBJECT
  5
F0
330
0
100
AcDbProxyObject
 90
      499
 91
      546
 95
   393239
 70
     0
 93
      130
310
00014040509696E746572506F6C79A407F
330
4D
 94
        0
1001
ACAD
1000
AcRTDxfName
1000
ACIMINTSTATICVAR
  0
ACAD_PROXY_OBJECT
  5
F1
330
0
100
AcDbProxyObject
 90
      499
 91
      546
 95
   393239
 70
     0
 93
      146
310
0001404050A70726F6A4F757470757440A40BF
330
4D
 94
        0
1001
ACAD
1000
AcRTDxfName
1000
ACIMINTSTATICVAR
  0
ACAD_PROXY_OBJECT
  5
16A
330
0
100
AcDbProxyObject
 90
      499
 91
      520
 95
   393239
 70
     0
 93
      156
310
00010143D050D351505391D5531054925390D49F
330
4D
 94
        0
1001
ACAD
1000
AcRTDxfName
1000
ACIMREALSYSVAR
  0
ACAD_PROXY_OBJECT
  5
16B
330
0
100
AcDbProxyObject
 90
      499
 91
      520
 95
   393239
 70
     0
 93
      148
310
000101439050D351531253915054925390D49F
330
4D
 94
        0
1001
ACAD
1000
AcRTDxfName
1000
ACIMREALSYSVAR
  0
ACAD_PROXY_OBJECT
  5
16C
330
0
100
AcDbProxyObject
 90
      499
 91
      519
 95
   393239
 70
     0
 93
      156
310
000101439050D35154D6535093D314D25691508F
330
4D
 94
        0
1001
ACAD
1000
AcRTDxfName
1000
ACIMINTSYSVAR
  0
ACAD_PROXY_OBJECT
  5
17A
330
0
100
AcDbProxyObject
 90
      499
 91
      521
 95
   393239
 70
     0
 93
      220
310
0001014350535513D3D31093D11654119600508544F4F4C424F4459F
330
4D
 94
        0
1001
ACAD
1000
AcRTDxfName
1000
ACIMSTRSYSVAR
  0
ACAD_PROXY_OBJECT
  5
17B
330
0
100
AcDbProxyObject
 90
      499
 91
      519
 95
   393239
 70
     0
 93
      140
310
00010143105354D554141490D3D313D4906F
330
4D
 94
        0
1001
ACAD
1000
AcRTDxfName
1000
ACIMINTSYSVAR
  0
ACAD_PROXY_OBJECT
  5
17E
330
0
100
AcDbProxyObject
 90
      499
 91
      519
 95
   393239
 70
     0
 93
      148
310
00010143505350555513D4D0D39313D0D2D01F
330
4D
 94
        0
1001
ACAD
1000
AcRTDxfName
1000
ACIMINTSYSVAR
  0
ACAD_PROXY_OBJECT
  5
180
330
0
100
AcDbProxyObject
 90
      499
 91
      519
 95
   393239
 70
     0
 93
      108
310
00010142105350555513D0D3101F
330
4D
 94
        0
1001
ACAD
1000
AcRTDxfName
1000
ACIMINTSYSVAR
  0
ACAD_PROXY_OBJECT
  5
181
330
0
100
AcDbProxyObject
 90
      499
 91
      519
 95
   393239
 70
     0
 93
      108
310
00010142105350D311915055105F
330
4D
 94
        0
1001
ACAD
1000
AcRTDxfName
1000
ACIMINTSYSVAR
  0
ACAD_PROXY_OBJECT
  5
182
330
0
100
AcDbProxyObject
 90
      499
 91
      519
 95
   393239
 70
     0
 93
      108
310
00010142105350D315925155D3FF
330
4D
 94
        0
1001
ACAD
1000
AcRTDxfName
1000
ACIMINTSYSVAR
  0
ACAD_PROXY_OBJECT
  5
183
330
0
100
AcDbProxyObject
 90
      499
 91
      519
 95
   393239
 70
     0
 93
      148
310
0001014350535212511156915493D11253501F
330
4D
 94
        0
1001
ACAD
1000
AcRTDxfName
1000
ACIMINTSYSVAR
  0
ACAD_PROXY_OBJECT
  5
184
330
0
100
AcDbProxyObject
 90
      499
 91
      519
 95
   393239
 70
     0
 93
      124
310
00010142D0535156151491519112536F
330
4D
 94
        0
1001
ACAD
1000
AcRTDxfName
1000
ACIMINTSYSVAR
  0
ACAD_PROXY_OBJECT
  5
185
330
0
100
AcDbProxyObject
 90
      499
 91
      519
 95
   393239
 70
     0
 93
      172
310
00010144105350555513D11253505494905391D1501F
330
4D
 94
        0
1001
ACAD
1000
AcRTDxfName
1000
ACIMINTSYSVAR
  0
ACAD_PROXY_OBJECT
  5
186
330
0
100
AcDbProxyObject
 90
      499
 91
      519
 95
   393239
 70
     0
 93
      132
310
00010142D05355105410539393D511501F
330
4D
 94
        0
1001
ACAD
1000
AcRTDxfName
1000
ACIMINTSYSVAR
  0
ACAD_PROXY_OBJECT
  5
187
330
0
100
AcDbProxyObject
 90
      499
 91
      519
 95
   393239
 70
     0
 93
      116
310
00010142905352105510D21254D3EF
330
4D
 94
        0
1001
ACAD
1000
AcRTDxfName
1000
ACIMINTSYSVAR
  0
ACAD_PROXY_OBJECT
  5
188
330
0
100
AcDbProxyObject
 90
      499
 91
      519
 95
   393239
 70
     0
 93
      148
310
00010143905354D25391D3115210551310566F
330
4D
 94
        0
1001
ACAD
1000
AcRTDxfName
1000
ACIMINTSYSVAR
  0
ACAD_PROXY_OBJECT
  5
1A8
330
0
100
AcDbProxyObject
 90
      499
 91
      544
 95
   393239
 70
     0
 93
      314
310
00014080509626C656E644261636B0000000000000D1002D431CEBE2361A3F00000000000016503F
330
4D
 94
        0
1001
ACAD
1000
AcRTDxfName
1000
ACIMDBLSTATICVAR
  0
ACAD_PROXY_OBJECT
  5
1AC
330
0
100
AcDbProxyObject
 90
      499
 91
      519
 95
   393239
 70
     0
 93
      108
310
00010142105350D3D39114D4101F
330
4D
 94
        0
1001
ACAD
1000
AcRTDxfName
1000
ACIMINTSYSVAR
  0
ACAD_PROXY_OBJECT
  5
1AE
330
0
100
AcDbProxyObject
 90
      499
 91
      519
 95
   393239
 70
     0
 93
      148
310
00010143505350555513D313D0D2D4D0D3901F
330
4D
 94
        0
1001
ACAD
1000
AcRTDxfName
1000
ACIMINTSYSVAR
  0
DICTIONARY
  5
159
102
{ACAD_REACTORS
330
158
102
}
330
158
100
AcDbDictionary
281
     1
  3
DWGSETTINGS
350
15A
  3
TRANSSETTINGS
350
166
  0
ACAD_PROXY_OBJECT
  5
15B
102
{ACAD_REACTORS
330
158
102
}
330
158
100
AcDbProxyObject
 90
      499
 91
      562
 95
   393239
 70
     0
 93
    16276
310
40903491013041105357CC10747A404C504414D5F314391E9013241105357CC90547A404CD04414D5F334190F9013441105357CD10343E404D504414D5F3540D0F9013641105357CD90247A404DD04414D5F374110F9013841105357CE10143E404E504414D5F397F641102324141505357CC4C10743E408D10505414D5F31
310
3140D0F902495041505357CC4C90743E408C13905414D5F304E41D1E902314E41505357CC5390E47A408C93905414D5F324E4151E902334E41505357CCD390643E408D13905414D5F344E40D0F902354E41505357CD5390343E408D93905414D5F364E4091E902374E41505357CDD390443E408E13905414D5F384E4050F90
310
2394E41505357CE539FD90440CC9053906414D5F31304E41D0F90334414E41905357CC4C5390343E40D25413906414D5F31324E41D0F9044B4C494E41505357D0D310143D094112539193D08414D5F50415245464110F425055241484D3541905357D093D4907479094115925155D08414D5F56494557534050F42D0642454
310
8494E4441905357D253959FD90D415514905253105414D5F545240D0F90348494441905357D2125110743E40D59254D06414D5F56495341D1E90650415244494D42505357D4105491125350343D0141949151911253509414D5F52454644494D4110F4057641105315149013441D1E411091531250134CFFFFFFFF41109213
310
9590139CFFFFFFFF415092139594D06424548494E44CFFFFFFFF41109312511023441CFFFFFFFF411093D0541023441CFFFFFFFF411093D48C9055241484D354050F411093D48CD055241484D354091E411093D48D5055241484D35CFFFFFFFF411093D48DD055241484D3541D1E41109410541023441CFFFFFFFF41109411
310
561023441CFFFFFFFF411095111250135CFFFFFFFF4110D0530C90134CFFFFFFFF4110D0530CD01344091E4110D0530D5013441D1E4110D0530DD01344151E4110D1539390137CFFFFFFFF4110D15395D0137CFFFFFFFF4110D312539044B4C494ECFFFFFFFF4110D3D38C50130CFFFFFFFF4110D3D38C90131CFFFFFFFF41
310
10D3D38CD0132CFFFFFFFF4110D3D38D10132CFFFFFFFF411111549410134CFFFFFFFF411111551050134CFFFFFFFF4111125051D0135CFFFFFFFF411112531250135CFFFFFFFF411112535410650415244494DCFFFFFFFF411112535490652454644494DCFFFFFFFF41115613541023441CFFFFFFFF411191535390138CFF
310
FFFFFF4151915354139013840CFFFFFFFF4151915354D41023441CFFFFFFFF4151915354D5102344140D0F41519153559390132CFFFFFFFF4151915355951013240D0F411193105510130CFFFFFFFF41119490549023441CFFFFFFFF4111D4931250135CFFFFFFFF4111D593125023441CFFFFFFFF4112105510D0138CFFFF
310
FFFF411212511390133CFFFFFFFF4112125115D0133CFFFFFFFF411213125390134CFFFFFFFF411213D0D390137CFFFFFFFF411213D0D5D0137CFFFFFFFF4112539193D04494E464FCFFFFFFFF411310511250134CFFFFFFFF411311505110135CFFFFFFFF419397D0921395902394ECFFFFFFFF419397D0D3D38C502304EC
310
FFFFFFFF419397D0D3D38C902314ECFFFFFFFF419397D0D3D38CD02324ECFFFFFFFF419397D0D3D38D102324ECFFFFFFFF419397D0D15393902374ECFFFFFFFF419397D0D15395D02374ECFFFFFFFF419397D1125312502354ECFFFFFFFF419397D2105510D02384ECFFFFFFFF419397D2125113902334ECFFFFFFFF419397
310
D2125115D02334ECFFFFFFFF419397D3115051102354ECFFFFFFFF419397D391D25410349504ECFFFFFFFF419397D412105390334414ECFFFFFFFF419397D510D3D3902304ECFFFFFFFF419397D5121312502344ECFFFFFFFF419397D5131153902304ECFFFFFFFF419397D516150CD02364ECFFFFFFFF419397D594131250
310
332414ECFFFFFFFF411391D2541024950CFFFFFFFF411410530C9055241484D354050F411410530CD055241484D354091E411410530D5055241484D35CFFFFFFFF411410530DD055241484D3541D1E41141210539023441CFFFFFFFF411413D4D39013641D1E419413D4D49151901364151E411413D4D610136CFFFFFFFF41
310
1414D150D023441CFFFFFFFF411490D1D390137CFFFFFFFF411490D1D5D0137CFFFFFFFF411491911250134CFFFFFFFF41149455149013441D1E411494D093D0130CFFFFFFFF4114D09492D013441D1E4114D0D15390137CFFFFFFFF4114D150D510134CFFFFFFFF4114D1531390137CFFFFFFFF4114D15315D0137CFFFFFF
310
FF4114D4D654D0130CFFFFFFFF4114D513125013441D1E4114D6508C50135CFFFFFFFF4114D6508C90135CFFFFFFFF4114D6508CD01354091E4114D6508D5013541D1E4114D6535390137CFFFFFFFF4114D65355D0137CFFFFFFFF411510D3D390130CFFFFFFFF411512131250134CFFFFFFFF411512550C9055241484D354
310
050F411512550CD055241484D354091E411512550D5055241484D35CFFFFFFFF411512550DD055241484D3541D1E411513115390130CFFFFFFFF415514905253105545241494CCFFFFFFFF41151492D390137CFFFFFFFF41151492D5D0137CFFFFFFFF411514931250134CFFFFFFFF411516150C5013640D0F411516150C90
310
13640D0F411516150CD0136CFFFFFFFF411516150D5013641D1E411516150DD013641D1E4115925155D0456494557CFFFFFFFF4115915112103484944CFFFFFFFF4115915115903564953CFFFFFFFF41159413125023241CFFFFFFFF411692569050134CFFFFFFFFAA7F69094391E41D1E4190F4151E4110F40D0F4091E405
310
0F7F6F
340
15
340
15
340
15
340
8C
340
15
340
15
340
15
340
99
340
15
340
15
340
99
340
8E
340
15
340
15
340
15
340
15
340
8C
340
15
340
15
340
15
340
99
340
15
340
15
340
99
340
8E
340
15
340
15
340
15
340
15
340
15
340
15
340
15
340
8C
340
15
340
15
340
15
340
164
340
14
340
14
340
14
340
14
340
14
340
14
340
14
340
14
340
14
340
14
340
14
340
14
340
14
340
14
340
14
340
14
340
165
340
14
340
14
340
14
340
14
340
14
340
14
340
8E
340
14
340
14
340
14
340
14
340
14
340
14
340
14
340
14
340
15
340
14
340
14
340
14
340
14
340
14
340
14
340
14
340
14
340
164
340
14
340
14
340
165
340
14
340
14
340
14
340
14
340
14
340
14
340
14
340
14
340
14
340
165
340
14
340
14
340
14
340
164
340
14
340
14
340
14
340
14
340
14
340
164
340
14
340
14
340
14
340
14
340
14
340
14
340
14
340
14
340
14
340
14
340
14
340
14
340
14
340
165
340
14
340
14
340
165
340
14
340
14
340
15
340
14
340
165
340
14
340
14
340
164
340
14
340
14
340
15
340
14
340
165
340
14
340
14
340
164
340
14
340
14
340
14
340
14
340
14
340
14
340
165
340
14
340
14
340
14
340
14
340
14
340
14
340
14
340
14
340
14
340
14
340
14
340
163
 94
        0
1001
ACAD
1000
AcRTDxfName
1000
AMGOBJPROPCFG
  0
ACAD_PROXY_OBJECT
  5
1BE
102
{ACAD_REACTORS
330
1BA
102
}
330
1BA
100
AcDbProxyObject
 90
      499
 91
      577
 95
   393239
 70
     0
 93
      253
310
43D1444494D454E53494F4E2C414D44545F2A5F44494D404A9012A404A9012AF
 94
        0
1001
ACAD
1000
AcRTDxfName
1000
ACAMGFILTERDAT
  0
ACAD_PROXY_OBJECT
  5
1BD
102
{ACAD_REACTORS
330
1BA
102
}
330
1BA
100
AcDbProxyObject
 90
      499
 91
      577
 95
   393239
 70
     0
 93
      181
310
43D012A42D05357D191504B505357CA9012A404A9012AF
 94
        0
1001
ACAD
1000
AcRTDxfName
1000
ACAMGFILTERDAT
  0
ACAD_PROXY_OBJECT
  5
1BB
102
{ACAD_REACTORS
330
1BA
102
}
330
1BA
100
AcDbProxyObject
 90
      499
 91
      577
 95
   393239
 70
     0
 93
      133
310
43D054841544348404A9012A404A9012AF
 94
        0
1001
ACAD
1000
AcRTDxfName
1000
ACAMGFILTERDAT
  0
ACAD_PROXY_OBJECT
  5
1BC
102
{ACAD_REACTORS
330
1BA
102
}
330
1BA
100
AcDbProxyObject
 90
      499
 91
      577
 95
   393239
 70
     0
 93
      813
310
43D5A41434D46434652414D452C41434D444154554D5441524745542C41434D444154554D49442C41434D57454C4453594D2C41434D5355524653594D2C41434D4645415449442C41434D504152545245462C41434D42414C4C4F4F4E404A9012A404A9012AF
 94
        0
1001
ACAD
1000
AcRTDxfName
1000
ACAMGFILTERDAT
  0
LAYER_INDEX
  5
1D26
102
{ACAD_REACTORS
330
1D25
102
}
330
1D25
100
AcDbIndex
 40
2454747.713431598
100
AcDbLayerIndex
  8
0
360
1D27
 90
        4
  8
Defpoints
360
1D28
 90
        0
  8
CENTER
360
1D29
 90
        0
  8
HIDDEN
360
1D2A
 90
        0
  8
HIJO
360
1D2B
 90
        0
  8
hoji
360
1D2C
 90
        0
  8
HOJO
360
1D2D
 90
        2
  8
HOJO2
360
1D2E
 90
        0
  8
moji
360
1D2F
 90
        0
  8
SUNPOU
360
1D30
 90
        0
  8
WAKU
360
1D31
 90
        2
  8
KIJUN
360
1D32
 90
        0
  0
DICTIONARY
  5
1ED8
330
152
100
AcDbDictionary
280
     1
281
     1
  3
ACAD_XREC_ROUNDTRIP
360
1ED9
  0
DICTIONARY
  5
1EDA
330
153
100
AcDbDictionary
280
     1
281
     1
  3
ACAD_XREC_ROUNDTRIP
360
1EDB
  0
DICTIONARY
  5
1D3F
330
1D3E
100
AcDbDictionary
280
     1
281
     1
  3
ACAD_XREC_ROUNDTRIP
360
1EDD
  3
BUMPTILE
360
1D41
  3
DIFFUSETILE
360
1D40
  3
OPACITYTILE
360
1D44
  3
REFLECTIONTILE
360
1D43
  3
REFRACTIONTILE
360
1D45
  3
SPECULARTILE
360
1D42
  0
DICTIONARY
  5
1D37
330
1D36
100
AcDbDictionary
280
     1
281
     1
  3
ACAD_XREC_ROUNDTRIP
360
1EDC
  3
BUMPTILE
360
1D39
  3
DIFFUSETILE
360
1D38
  3
OPACITYTILE
360
1D3C
  3
REFLECTIONTILE
360
1D3B
  3
REFRACTIONTILE
360
1D3D
  3
SPECULARTILE
360
1D3A
  0
DICTIONARY
  5
1D47
330
1D46
100
AcDbDictionary
280
     1
281
     1
  3
ACAD_XREC_ROUNDTRIP
360
1EDE
  3
BUMPTILE
360
1D49
  3
DIFFUSETILE
360
1D48
  3
OPACITYTILE
360
1D4C
  3
REFLECTIONTILE
360
1D4B
  3
REFRACTIONTILE
360
1D4D
  3
SPECULARTILE
360
1D4A
  0
DICTIONARY
  5
1DF9
330
1D61
100
AcDbDictionary
280
     1
281
     1
  3
ACAD_ROUNDTRIP_2008_TABLESTYLE_CELLSTYLEMAP
360
1ED4
  3
ACAD_XREC_ROUNDTRIP
360
1EDF
  0
ACAD_PROXY_OBJECT
  5
18B
102
{ACAD_REACTORS
330
18A
102
}
330
18A
100
AcDbProxyObject
 90
      499
 91
      575
 95
   393239
 70
     0
 93
      139
310
057356C1D35406406AA8FFFFFFFF09AA405F
330
19
330
0
330
0
 94
        0
1001
ACAD
1000
AcRTDxfName
1000
ACMDATAENTRYBLOCK
  0
ACAD_PROXY_OBJECT
  5
15A
102
{ACAD_REACTORS
330
159
102
}
330
159
100
AcDbProxyObject
 90
      499
 91
      561
 95
   393239
 70
     0
 93
     2760
310
4050B44574753455454494E4753A0E8482A68AA6A88882A08829CA69284A1A0A723A0A92920ACA0A8419983E1A1ABE1B1820C868A9C829C8E82A12686AF87260F862666A8321A2A72224A0A50000000000000701FA0E868A9C889282A682A16605C6AF8625C60F8625C6A83A1A2A72224A9AA250000000000000601FA0C868
310
A9C988A9C940000000000001C07E8321A2A727A323250000000000000701FA128698929C82A4A482B282A1C605C62646AF8605C646AF8605C6A8421A624A722AA2CA820A82AC2624A722A1886A48A82A88A8EA49EAAA0A60C008000109445747555343414C454A141D31054D513D092905404C1084D414B45564945574FD02
310
419491559254D2505404C1055343414C4541503313A314214D510539110549110541105394D250954494D455354414D504A06E0A34B18B26734141D5915494D253D3905414C4D4B8C0C1107B44574753455454494E4753454E447D00
 94
        0
1001
ACAD
1000
AcRTDxfName
1000
AMGSETTINGSOBJ
  0
ACAD_PROXY_OBJECT
  5
166
102
{ACAD_REACTORS
330
159
102
}
330
159
100
AcDbProxyObject
 90
      499
 91
      561
 95
   393239
 70
     0
 93
      852
310
4050D5452414E5353455454494E4753A2488A482AE929C8EA8A4829CA69882A8929E9C0C00800050D4F524947494E414C4C595F4F4E0600400028529A7AAA921A2A620A723A0A81A52827212AAA0A48AA68AA4AC8A0C0080001107B44574753455454494E4753454E447DF
 94
        0
1001
ACAD
1000
AcRTDxfName
1000
AMGSETTINGSOBJ
  0
IDBUFFER
  5
1D27
330
0
100
AcDbIdBuffer
330
1E0A
330
1E17
330
1EC9
330
1ECA
  0
IDBUFFER
  5
1D28
330
0
100
AcDbIdBuffer
  0
IDBUFFER
  5
1D29
330
0
100
AcDbIdBuffer
  0
IDBUFFER
  5
1D2A
330
0
100
AcDbIdBuffer
  0
IDBUFFER
  5
1D2B
330
0
100
AcDbIdBuffer
  0
IDBUFFER
  5
1D2C
330
0
100
AcDbIdBuffer
  0
IDBUFFER
  5
1D2D
330
0
100
AcDbIdBuffer
330
1D99
330
1D9A
  0
IDBUFFER
  5
1D2E
330
0
100
AcDbIdBuffer
  0
IDBUFFER
  5
1D2F
330
0
100
AcDbIdBuffer
  0
IDBUFFER
  5
1D30
330
0
100
AcDbIdBuffer
  0
IDBUFFER
  5
1D31
330
0
100
AcDbIdBuffer
330
1D97
330
1D98
  0
IDBUFFER
  5
1D32
330
0
100
AcDbIdBuffer
  0
XRECORD
  5
1ED9
102
{ACAD_REACTORS
330
1ED8
102
}
330
1ED8
100
AcDbXrecord
280
     1
102
SHADEPLOT
 70
     0
102
SHADEPLOTRESLEVEL
 70
     2
102
SHADEPLOTCUSTOMDPI
 70
   300
  0
XRECORD
  5
1EDB
102
{ACAD_REACTORS
330
1EDA
102
}
330
1EDA
100
AcDbXrecord
280
     1
102
SHADEPLOT
 70
     0
102
SHADEPLOTRESLEVEL
 70
     2
102
SHADEPLOTCUSTOMDPI
 70
   300
  0
XRECORD
  5
1EDD
102
{ACAD_REACTORS
330
1D3F
102
}
330
1D3F
100
AcDbXrecord
280
     1
102
MATERIAL
148
0.0
149
0.0
149
0.0
 93
        0
 94
      127
282
     0
 72
     0
 77
     0
171
     0
175
     0
179
     0
273
     0
  0
XRECORD
  5
1D41
102
{ACAD_REACTORS
330
1D3F
102
}
330
1D3F
100
AcDbXrecord
280
     1
270
     1
271
     1
  0
XRECORD
  5
1D40
102
{ACAD_REACTORS
330
1D3F
102
}
330
1D3F
100
AcDbXrecord
280
     1
270
     1
271
     1
  0
XRECORD
  5
1D44
102
{ACAD_REACTORS
330
1D3F
102
}
330
1D3F
100
AcDbXrecord
280
     1
270
     1
271
     1
  0
XRECORD
  5
1D43
102
{ACAD_REACTORS
330
1D3F
102
}
330
1D3F
100
AcDbXrecord
280
     1
270
     1
271
     1
  0
XRECORD
  5
1D45
102
{ACAD_REACTORS
330
1D3F
102
}
330
1D3F
100
AcDbXrecord
280
     1
270
     1
271
     1
  0
XRECORD
  5
1D42
102
{ACAD_REACTORS
330
1D3F
102
}
330
1D3F
100
AcDbXrecord
280
     1
270
     1
271
     1
  0
XRECORD
  5
1EDC
102
{ACAD_REACTORS
330
1D37
102
}
330
1D37
100
AcDbXrecord
280
     1
102
MATERIAL
148
0.0
149
0.0
149
0.0
 93
        0
 94
      127
282
     0
 72
     0
 77
     0
171
     0
175
     0
179
     0
273
     0
  0
XRECORD
  5
1D39
102
{ACAD_REACTORS
330
1D37
102
}
330
1D37
100
AcDbXrecord
280
     1
270
     1
271
     1
  0
XRECORD
  5
1D38
102
{ACAD_REACTORS
330
1D37
102
}
330
1D37
100
AcDbXrecord
280
     1
270
     1
271
     1
  0
XRECORD
  5
1D3C
102
{ACAD_REACTORS
330
1D37
102
}
330
1D37
100
AcDbXrecord
280
     1
270
     1
271
     1
  0
XRECORD
  5
1D3B
102
{ACAD_REACTORS
330
1D37
102
}
330
1D37
100
AcDbXrecord
280
     1
270
     1
271
     1
  0
XRECORD
  5
1D3D
102
{ACAD_REACTORS
330
1D37
102
}
330
1D37
100
AcDbXrecord
280
     1
270
     1
271
     1
  0
XRECORD
  5
1D3A
102
{ACAD_REACTORS
330
1D37
102
}
330
1D37
100
AcDbXrecord
280
     1
270
     1
271
     1
  0
XRECORD
  5
1EDE
102
{ACAD_REACTORS
330
1D47
102
}
330
1D47
100
AcDbXrecord
280
     1
102
MATERIAL
148
0.0
149
0.0
149
0.0
 93
        0
 94
      127
282
     0
 72
     0
 77
     0
171
     0
175
     0
179
     0
273
     0
  0
XRECORD
  5
1D49
102
{ACAD_REACTORS
330
1D47
102
}
330
1D47
100
AcDbXrecord
280
     1
270
     1
271
     1
  0
XRECORD
  5
1D48
102
{ACAD_REACTORS
330
1D47
102
}
330
1D47
100
AcDbXrecord
280
     1
270
     1
271
     1
  0
XRECORD
  5
1D4C
102
{ACAD_REACTORS
330
1D47
102
}
330
1D47
100
AcDbXrecord
280
     1
270
     1
271
     1
  0
XRECORD
  5
1D4B
102
{ACAD_REACTORS
330
1D47
102
}
330
1D47
100
AcDbXrecord
280
     1
270
     1
271
     1
  0
XRECORD
  5
1D4D
102
{ACAD_REACTORS
330
1D47
102
}
330
1D47
100
AcDbXrecord
280
     1
270
     1
271
     1
  0
XRECORD
  5
1D4A
102
{ACAD_REACTORS
330
1D47
102
}
330
1D47
100
AcDbXrecord
280
     1
270
     1
271
     1
  0
CELLSTYLEMAP
  5
1ED4
102
{ACAD_REACTORS
330
1DF9
102
}
330
1DF9
100
AcDbCellStyleMap
 90
        3
300
CELLSTYLE
  1
TABLEFORMAT_BEGIN
 90
        5
170
     1
 91
        0
 92
    32768
 62
   257
 93
        1
300
CONTENTFORMAT
  1
CONTENTFORMAT_BEGIN
 90
        0
 91
        0
 92
      512
 93
        0
300

 40
0.0
140
1.0
 94
        5
 62
     0
340
10
144
6.0
309
CONTENTFORMAT_END
171
     1
301
MARGIN
  1
CELLMARGIN_BEGIN
 40
1.5
 40
1.5
 40
1.5
 40
1.5
 40
4.5
 40
4.5
309
CELLMARGIN_END
 94
        6
 95
        1
302
GRIDFORMAT
  1
GRIDFORMAT_BEGIN
 90
        0
 91
        1
 62
     0
 92
       -2
340
0
 93
        0
 40
1.125
309
GRIDFORMAT_END
 95
        2
302
GRIDFORMAT
  1
GRIDFORMAT_BEGIN
 90
        0
 91
        1
 62
     0
 92
       -2
340
0
 93
        0
 40
1.125
309
GRIDFORMAT_END
 95
        4
302
GRIDFORMAT
  1
GRIDFORMAT_BEGIN
 90
        0
 91
        1
 62
     0
 92
       -2
340
0
 93
        0
 40
1.125
309
GRIDFORMAT_END
 95
        8
302
GRIDFORMAT
  1
GRIDFORMAT_BEGIN
 90
        0
 91
        1
 62
     0
 92
       -2
340
0
 93
        0
 40
1.125
309
GRIDFORMAT_END
 95
       16
302
GRIDFORMAT
  1
GRIDFORMAT_BEGIN
 90
        0
 91
        1
 62
     0
 92
       -2
340
0
 93
        0
 40
1.125
309
GRIDFORMAT_END
 95
       32
302
GRIDFORMAT
  1
GRIDFORMAT_BEGIN
 90
        0
 91
        1
 62
     0
 92
       -2
340
0
 93
        0
 40
1.125
309
GRIDFORMAT_END
309
TABLEFORMAT_END
  1
CELLSTYLE_BEGIN
 90
        1
 91
        1
300
_TITLE
309
CELLSTYLE_END
300
CELLSTYLE
  1
TABLEFORMAT_BEGIN
 90
        5
170
     1
 91
        0
 92
        0
 62
   257
 93
        1
300
CONTENTFORMAT
  1
CONTENTFORMAT_BEGIN
 90
        0
 91
        0
 92
      512
 93
        0
300

 40
0.0
140
1.0
 94
        5
 62
     0
340
10
144
4.5
309
CONTENTFORMAT_END
171
     1
301
MARGIN
  1
CELLMARGIN_BEGIN
 40
1.5
 40
1.5
 40
1.5
 40
1.5
 40
4.5
 40
4.5
309
CELLMARGIN_END
 94
        6
 95
        1
302
GRIDFORMAT
  1
GRIDFORMAT_BEGIN
 90
        0
 91
        1
 62
     0
 92
       -2
340
0
 93
        0
 40
1.125
309
GRIDFORMAT_END
 95
        2
302
GRIDFORMAT
  1
GRIDFORMAT_BEGIN
 90
        0
 91
        1
 62
     0
 92
       -2
340
0
 93
        0
 40
1.125
309
GRIDFORMAT_END
 95
        4
302
GRIDFORMAT
  1
GRIDFORMAT_BEGIN
 90
        0
 91
        1
 62
     0
 92
       -2
340
0
 93
        0
 40
1.125
309
GRIDFORMAT_END
 95
        8
302
GRIDFORMAT
  1
GRIDFORMAT_BEGIN
 90
        0
 91
        1
 62
     0
 92
       -2
340
0
 93
        0
 40
1.125
309
GRIDFORMAT_END
 95
       16
302
GRIDFORMAT
  1
GRIDFORMAT_BEGIN
 90
        0
 91
        1
 62
     0
 92
       -2
340
0
 93
        0
 40
1.125
309
GRIDFORMAT_END
 95
       32
302
GRIDFORMAT
  1
GRIDFORMAT_BEGIN
 90
        0
 91
        1
 62
     0
 92
       -2
340
0
 93
        0
 40
1.125
309
GRIDFORMAT_END
309
TABLEFORMAT_END
  1
CELLSTYLE_BEGIN
 90
        2
 91
        1
300
_HEADER
309
CELLSTYLE_END
300
CELLSTYLE
  1
TABLEFORMAT_BEGIN
 90
        5
170
     1
 91
        0
 92
        0
 62
   257
 93
        1
300
CONTENTFORMAT
  1
CONTENTFORMAT_BEGIN
 90
        0
 91
        0
 92
      512
 93
        0
300

 40
0.0
140
1.0
 94
        2
 62
     0
340
10
144
4.5
309
CONTENTFORMAT_END
171
     1
301
MARGIN
  1
CELLMARGIN_BEGIN
 40
1.5
 40
1.5
 40
1.5
 40
1.5
 40
4.5
 40
4.5
309
CELLMARGIN_END
 94
        6
 95
        1
302
GRIDFORMAT
  1
GRIDFORMAT_BEGIN
 90
        0
 91
        1
 62
     0
 92
       -2
340
0
 93
        0
 40
1.125
309
GRIDFORMAT_END
 95
        2
302
GRIDFORMAT
  1
GRIDFORMAT_BEGIN
 90
        0
 91
        1
 62
     0
 92
       -2
340
0
 93
        0
 40
1.125
309
GRIDFORMAT_END
 95
        4
302
GRIDFORMAT
  1
GRIDFORMAT_BEGIN
 90
        0
 91
        1
 62
     0
 92
       -2
340
0
 93
        0
 40
1.125
309
GRIDFORMAT_END
 95
        8
302
GRIDFORMAT
  1
GRIDFORMAT_BEGIN
 90
        0
 91
        1
 62
     0
 92
       -2
340
0
 93
        0
 40
1.125
309
GRIDFORMAT_END
 95
       16
302
GRIDFORMAT
  1
GRIDFORMAT_BEGIN
 90
        0
 91
        1
 62
     0
 92
       -2
340
0
 93
        0
 40
1.125
309
GRIDFORMAT_END
 95
       32
302
GRIDFORMAT
  1
GRIDFORMAT_BEGIN
 90
        0
 91
        1
 62
     0
 92
       -2
340
0
 93
        0
 40
1.125
309
GRIDFORMAT_END
309
TABLEFORMAT_END
  1
CELLSTYLE_BEGIN
 90
        3
 91
        2
300
_DATA
309
CELLSTYLE_END
  0
XRECORD
  5
1EDF
102
{ACAD_REACTORS
330
1DF9
102
}
330
1DF9
100
AcDbXrecord
280
     1
102
ACAD_ROUNDTRIP_PRE2007_TABLESTYLE
 90
      512
 91
        0
  1

 92
      512
 93
        0
  2

 94
      512
 95
        0
  3

  0
ENDSEC
  0
EOF
