  0
SECTION
  2
HEADER
  9
$ACADVER
  1
AC1015
  9
$ACADMAINTVER
 70
    20
  9
$DWGCODEPAGE
  3
ANSI_932
  9
$INSBASE
 10
922.019522
 20
-675.4306699999999
 30
0.0
  9
$EXTMIN
 10
-121.4812516527465
 20
-15.94382990347685
 30
-0.000000000000013
  9
$EXTMAX
 10
291.6963846854758
 20
922.1604687818448
 30
0.0000000000000023
  9
$LIMMIN
 10
0.0
 20
0.0
  9
$LIMMAX
 10
420.0
 20
297.0
  9
$ORTHOMODE
 70
     0
  9
$REGENMODE
 70
     1
  9
$FILLMODE
 70
     1
  9
$QTEXTMODE
 70
     0
  9
$MIRRTEXT
 70
     1
  9
$LTSCALE
 40
10.0
  9
$ATTMODE
 70
     1
  9
$TEXTSIZE
 40
30.0
  9
$TRACEWID
 40
0.05
  9
$TEXTSTYLE
  7
SUNPOU
  9
$CLAYER
  8
0
  9
$CELTYPE
  6
BYLAYER
  9
$CECOLOR
 62
   256
  9
$CELTSCALE
 40
1.0
  9
$DISPSILH
 70
     0
  9
$DIMSCALE
 40
1.0
  9
$DIMASZ
 40
2.0
  9
$DIMEXO
 40
10.0
  9
$DIMDLI
 40
0.38
  9
$DIMRND
 40
0.0
  9
$DIMDLE
 40
0.0
  9
$DIMEXE
 40
0.0
  9
$DIMTP
 40
0.0
  9
$DIMTM
 40
0.0
  9
$DIMTXT
 40
5.0
  9
$DIMCEN
 40
0.0
  9
$DIMTSZ
 40
0.0
  9
$DIMTOL
 70
     0
  9
$DIMLIM
 70
     0
  9
$DIMTIH
 70
     0
  9
$DIMTOH
 70
     0
  9
$DIMSE1
 70
     0
  9
$DIMSE2
 70
     0
  9
$DIMTAD
 70
     1
  9
$DIMZIN
 70
     0
  9
$DIMBLK
  1
Dot
  9
$DIMASO
 70
     1
  9
$DIMSHO
 70
     1
  9
$DIMPOST
  1

  9
$DIMAPOST
  1

  9
$DIMALT
 70
     0
  9
$DIMALTD
 70
     2
  9
$DIMALTF
 40
25.4
  9
$DIMLFAC
 40
1.0
  9
$DIMTOFL
 70
     0
  9
$DIMTVP
 40
0.0
  9
$DIMTIX
 70
     0
  9
$DIMSOXD
 70
     0
  9
$DIMSAH
 70
     0
  9
$DIMBLK1
  1

  9
$DIMBLK2
  1

  9
$DIMSTYLE
  2
STANDARD
  9
$DIMCLRD
 70
    60
  9
$DIMCLRE
 70
    70
  9
$DIMCLRT
 70
    60
  9
$DIMTFAC
 40
0.064286
  9
$DIMGAP
 40
3.0
  9
$DIMJUST
 70
     0
  9
$DIMSD1
 70
     0
  9
$DIMSD2
 70
     0
  9
$DIMTOLJ
 70
     1
  9
$DIMTZIN
 70
     0
  9
$DIMALTZ
 70
     0
  9
$DIMALTTZ
 70
     0
  9
$DIMUPT
 70
     0
  9
$DIMDEC
 70
     0
  9
$DIMTDEC
 70
     0
  9
$DIMALTU
 70
     2
  9
$DIMALTTD
 70
     2
  9
$DIMTXSTY
  7
SUNPOU
  9
$DIMAUNIT
 70
     0
  9
$DIMADEC
 70
     0
  9
$DIMALTRND
 40
0.0
  9
$DIMAZIN
 70
     0
  9
$DIMDSEP
 70
    46
  9
$DIMATFIT
 70
     3
  9
$DIMFRAC
 70
     0
  9
$DIMLDRBLK
  1

  9
$DIMLUNIT
 70
     2
  9
$DIMLWD
 70
    -2
  9
$DIMLWE
 70
    -2
  9
$DIMTMOVE
 70
     0
  9
$LUNITS
 70
     2
  9
$LUPREC
 70
     5
  9
$SKETCHINC
 40
0.1
  9
$FILLETRAD
 40
0.0
  9
$AUNITS
 70
     0
  9
$AUPREC
 70
     0
  9
$MENU
  1
acad
  9
$ELEVATION
 40
0.0
  9
$PELEVATION
 40
0.0
  9
$THICKNESS
 40
0.0
  9
$LIMCHECK
 70
     0
  9
$CHAMFERA
 40
0.0
  9
$CHAMFERB
 40
0.0
  9
$CHAMFERC
 40
0.0
  9
$CHAMFERD
 40
0.0
  9
$SKPOLY
 70
     0
  9
$TDCREATE
 40
2450623.654673033
  9
$TDUCREATE
 40
2450623.279673032
  9
$TDUPDATE
 40
2454579.416448831
  9
$TDUUPDATE
 40
2454579.041448831
  9
$TDINDWG
 40
1.0847726389
  9
$TDUSRTIMER
 40
1.0847724653
  9
$USRTIMER
 70
     1
  9
$ANGBASE
 50
0.0
  9
$ANGDIR
 70
     0
  9
$PDMODE
 70
     0
  9
$PDSIZE
 40
0.0
  9
$PLINEWID
 40
0.0
  9
$SPLFRAME
 70
     0
  9
$SPLINETYPE
 70
     6
  9
$SPLINESEGS
 70
     8
  9
$HANDSEED
  5
4596
  9
$SURFTAB1
 70
     6
  9
$SURFTAB2
 70
     6
  9
$SURFTYPE
 70
     6
  9
$SURFU
 70
     6
  9
$SURFV
 70
     6
  9
$UCSBASE
  2

  9
$UCSNAME
  2

  9
$UCSORG
 10
0.0
 20
0.0
 30
0.0
  9
$UCSXDIR
 10
1.0
 20
0.0
 30
0.0
  9
$UCSYDIR
 10
0.0
 20
1.0
 30
0.0
  9
$UCSORTHOREF
  2

  9
$UCSORTHOVIEW
 70
     0
  9
$UCSORGTOP
 10
0.0
 20
0.0
 30
0.0
  9
$UCSORGBOTTOM
 10
0.0
 20
0.0
 30
0.0
  9
$UCSORGLEFT
 10
0.0
 20
0.0
 30
0.0
  9
$UCSORGRIGHT
 10
0.0
 20
0.0
 30
0.0
  9
$UCSORGFRONT
 10
0.0
 20
0.0
 30
0.0
  9
$UCSORGBACK
 10
0.0
 20
0.0
 30
0.0
  9
$PUCSBASE
  2

  9
$PUCSNAME
  2

  9
$PUCSORG
 10
0.0
 20
0.0
 30
0.0
  9
$PUCSXDIR
 10
1.0
 20
0.0
 30
0.0
  9
$PUCSYDIR
 10
0.0
 20
1.0
 30
0.0
  9
$PUCSORTHOREF
  2

  9
$PUCSORTHOVIEW
 70
     0
  9
$PUCSORGTOP
 10
0.0
 20
0.0
 30
0.0
  9
$PUCSORGBOTTOM
 10
0.0
 20
0.0
 30
0.0
  9
$PUCSORGLEFT
 10
0.0
 20
0.0
 30
0.0
  9
$PUCSORGRIGHT
 10
0.0
 20
0.0
 30
0.0
  9
$PUCSORGFRONT
 10
0.0
 20
0.0
 30
0.0
  9
$PUCSORGBACK
 10
0.0
 20
0.0
 30
0.0
  9
$USERI1
 70
     0
  9
$USERI2
 70
     0
  9
$USERI3
 70
     0
  9
$USERI4
 70
     0
  9
$USERI5
 70
     0
  9
$USERR1
 40
0.0
  9
$USERR2
 40
0.0
  9
$USERR3
 40
0.0
  9
$USERR4
 40
0.0
  9
$USERR5
 40
0.0
  9
$WORLDVIEW
 70
     1
  9
$SHADEDGE
 70
     3
  9
$SHADEDIF
 70
    70
  9
$TILEMODE
 70
     1
  9
$MAXACTVP
 70
    16
  9
$PINSBASE
 10
0.0
 20
0.0
 30
0.0
  9
$PLIMCHECK
 70
     0
  9
$PEXTMIN
 10
1.000000000000000E+20
 20
1.000000000000000E+20
 30
1.000000000000000E+20
  9
$PEXTMAX
 10
-1.000000000000000E+20
 20
-1.000000000000000E+20
 30
-1.000000000000000E+20
  9
$PLIMMIN
 10
0.0
 20
0.0
  9
$PLIMMAX
 10
12.0
 20
9.0
  9
$UNITMODE
 70
     0
  9
$VISRETAIN
 70
     0
  9
$PLINEGEN
 70
     0
  9
$PSLTSCALE
 70
     1
  9
$TREEDEPTH
 70
  3020
  9
$CMLSTYLE
  2
STANDARD
  9
$CMLJUST
 70
     0
  9
$CMLSCALE
 40
1.0
  9
$PROXYGRAPHICS
 70
     1
  9
$MEASUREMENT
 70
     0
  9
$CELWEIGHT
370
    -1
  9
$ENDCAPS
280
     0
  9
$JOINSTYLE
280
     0
  9
$LWDISPLAY
290
     0
  9
$INSUNITS
 70
     0
  9
$HYPERLINKBASE
  1

  9
$STYLESHEET
  1
monochrome.ctb
  9
$XEDIT
290
     1
  9
$CEPSNTYPE
380
     0
  9
$PSTYLEMODE
290
     1
  9
$FINGERPRINTGUID
  2
{FB88A696-E29C-4009-92AF-A3599A8169D5}
  9
$VERSIONGUID
  2
{067D9100-35DD-42FA-8785-231D0AE1B1C0}
  9
$EXTNAMES
290
     1
  9
$PSVPSCALE
 40
0.0
  9
$OLESTARTUP
290
     0
  0
ENDSEC
  0
SECTION
  2
CLASSES
  0
CLASS
  1
DICTIONARYVAR
  2
AcDbDictionaryVar
  3
ObjectDBX Classes
 90
        0
280
     0
281
     0
  0
CLASS
  1
ACDBDICTIONARYWDFLT
  2
AcDbDictionaryWithDefault
  3
ObjectDBX Classes
 90
        0
280
     0
281
     0
  0
CLASS
  1
ACDBPLACEHOLDER
  2
AcDbPlaceHolder
  3
ObjectDBX Classes
 90
        0
280
     0
281
     0
  0
CLASS
  1
LAYOUT
  2
AcDbLayout
  3
ObjectDBX Classes
 90
        0
280
     0
281
     0
  0
CLASS
  1
TABLESTYLE
  2
AcDbTableStyle
  3
ObjectDBX Classes
 90
     2047
280
     0
281
     0
  0
CLASS
  1
SORTENTSTABLE
  2
AcDbSortentsTable
  3
ObjectDBX Classes
 90
        0
280
     0
281
     0
  0
ENDSEC
  0
SECTION
  2
TABLES
  0
TABLE
  2
VPORT
  5
12
330
0
100
AcDbSymbolTable
 70
     3
  0
VPORT
  5
4590
330
12
100
AcDbSymbolTableRecord
100
AcDbViewportTableRecord
  2
*Active
 70
     0
 10
0.0
 20
0.0
 11
1.0
 21
1.0
 12
85.10756651636461
 22
453.108319439184
 13
0.0
 23
0.0
 14
1.0
 24
1.0
 15
0.0
 25
0.0
 16
0.0
 26
0.0
 36
1.0
 17
0.0
 27
0.0
 37
0.0
 40
945.2563009624652
 41
1.529262086513995
 42
50.0
 43
0.0
 44
0.0
 50
0.0
 51
0.0
 71
     0
 72
 20000
 73
     1
 74
     1
 75
     0
 76
     0
 77
     0
 78
     0
281
     0
 65
     1
110
0.0
120
0.0
130
0.0
111
1.0
121
0.0
131
0.0
112
0.0
122
1.0
132
0.0
 79
     0
146
0.0
  0
ENDTAB
  0
TABLE
  2
LTYPE
  5
D
330
0
100
AcDbSymbolTable
 70
     2
  0
LTYPE
  5
E
330
D
100
AcDbSymbolTableRecord
100
AcDbLinetypeTableRecord
  2
BYBLOCK
 70
     0
  3

 72
    65
 73
     0
 40
0.0
  0
LTYPE
  5
F
330
D
100
AcDbSymbolTableRecord
100
AcDbLinetypeTableRecord
  2
BYLAYER
 70
     0
  3

 72
    65
 73
     0
 40
0.0
  0
LTYPE
  5
5
330
D
100
AcDbSymbolTableRecord
100
AcDbLinetypeTableRecord
  2
CONTINUOUS
 70
     0
  3
Solid line
 72
    65
 73
     0
 40
0.0
  0
LTYPE
  5
4375
330
D
100
AcDbSymbolTableRecord
100
AcDbLinetypeTableRecord
  2
DASHED
 70
     0
  3
Dashed __ __ __ __ __ __ __ __ __ __ __ __ __ _
 72
    65
 73
     2
 40
0.75
 49
0.5
 74
     0
 49
-0.25
 74
     0
  0
ENDTAB
  0
TABLE
  2
LAYER
  5
A
102
{ACAD_XDICTIONARY
360
1B4
102
}
330
0
100
AcDbSymbolTable
 70
     6
  0
LAYER
  5
4
330
A
100
AcDbSymbolTableRecord
100
AcDbLayerTableRecord
  2
0
 70
     0
 62
     7
  6
CONTINUOUS
370
    -3
390
57
  0
LAYER
  5
25
330
A
100
AcDbSymbolTableRecord
100
AcDbLayerTableRecord
  2
KIJUN
 70
     0
 62
     7
  6
CONTINUOUS
370
    -3
390
57
  0
LAYER
  5
22
330
A
100
AcDbSymbolTableRecord
100
AcDbLayerTableRecord
  2
HOJO
 70
     0
 62
     3
  6
CONTINUOUS
370
    -3
390
57
  0
LAYER
  5
1B
330
A
100
AcDbSymbolTableRecord
100
AcDbLayerTableRecord
  2
WAKU
 70
     0
 62
     1
  6
CONTINUOUS
370
    -3
390
57
  0
LAYER
  5
31
330
A
100
AcDbSymbolTableRecord
100
AcDbLayerTableRecord
  2
DEFPOINTS
 70
     0
 62
     7
  6
CONTINUOUS
290
     0
370
    -3
390
57
  0
LAYER
  5
28
330
A
100
AcDbSymbolTableRecord
100
AcDbLayerTableRecord
  2
SUNPOU
 70
     0
 62
    70
  6
CONTINUOUS
370
    -3
390
57
  0
ENDTAB
  0
TABLE
  2
STYLE
  5
B
330
0
100
AcDbSymbolTable
 70
     2
  0
STYLE
  5
C
330
B
100
AcDbSymbolTableRecord
100
AcDbTextStyleTableRecord
  2
STANDARD
 70
     0
 40
0.0
 41
1.0
 50
0.0
 71
     0
 42
0.2
  3
txt
  4

  0
STYLE
  5
1C
330
B
100
AcDbSymbolTableRecord
100
AcDbTextStyleTableRecord
  2
SUNPOU
 70
     0
 40
0.0
 41
1.0
 50
0.0
 71
     0
 42
30.0
  3
txt
  4
bigfont
  0
ENDTAB
  0
TABLE
  2
VIEW
  5
10
330
0
100
AcDbSymbolTable
 70
     0
  0
ENDTAB
  0
TABLE
  2
UCS
  5
11
330
0
100
AcDbSymbolTable
 70
     0
  0
ENDTAB
  0
TABLE
  2
APPID
  5
14
330
0
100
AcDbSymbolTable
 70
    11
  0
APPID
  5
15
330
14
100
AcDbSymbolTableRecord
100
AcDbRegAppTableRecord
  2
ACAD
 70
     0
  0
APPID
  5
1D3
330
14
100
AcDbSymbolTableRecord
100
AcDbRegAppTableRecord
  2
ACAD_DSTYLE_DIMTEXT_FILL
 70
     0
  0
APPID
  5
1D4
330
14
100
AcDbSymbolTableRecord
100
AcDbRegAppTableRecord
  2
ACAD_DSTYLE_DIMEXT_LENGTH
 70
     0
  0
APPID
  5
1D5
330
14
100
AcDbSymbolTableRecord
100
AcDbRegAppTableRecord
  2
ACAD_DSTYLE_DIMEXT_ENABLED
 70
     0
  0
APPID
  5
1D6
330
14
100
AcDbSymbolTableRecord
100
AcDbRegAppTableRecord
  2
ACAD_DSTYLE_DIM_LINETYPE
 70
     0
  0
APPID
  5
1D7
330
14
100
AcDbSymbolTableRecord
100
AcDbRegAppTableRecord
  2
ACAD_DSTYLE_DIM_EXT1_LINETYPE
 70
     0
  0
APPID
  5
1D8
330
14
100
AcDbSymbolTableRecord
100
AcDbRegAppTableRecord
  2
ACAD_DSTYLE_DIM_EXT2_LINETYPE
 70
     0
  0
APPID
  5
294
330
14
100
AcDbSymbolTableRecord
100
AcDbRegAppTableRecord
  2
ACAD_DSTYLE_DIMJOGGED_JOGANGLE_SYMBOL
 70
     0
  0
APPID
  5
478
330
14
100
AcDbSymbolTableRecord
100
AcDbRegAppTableRecord
  2
ACAD_DSTYLE_DIMARC_LENGTH_SYMBOL
 70
     0
  0
APPID
  5
F55
330
14
100
AcDbSymbolTableRecord
100
AcDbRegAppTableRecord
  2
ACAD_EXEMPT_FROM_CAD_STANDARDS
 70
     0
  0
APPID
  5
3D72
330
14
100
AcDbSymbolTableRecord
100
AcDbRegAppTableRecord
  2
ACAD_PSEXT
 70
     0
  0
ENDTAB
  0
TABLE
  2
DIMSTYLE
  5
16
330
0
100
AcDbSymbolTable
 70
     1
100
AcDbDimStyleTable
 71
     1
340
1E
  0
DIMSTYLE
105
1E
102
{ACAD_REACTORS
330
3628
330
3635
330
434B
330
43B3
330
44A8
330
44A9
102
}
330
16
100
AcDbSymbolTableRecord
100
AcDbDimStyleTableRecord
  2
STANDARD
 70
     0
340
C
  0
ENDTAB
  0
TABLE
  2
BLOCK_RECORD
  5
1
330
0
100
AcDbSymbolTable
 70
     8
  0
BLOCK_RECORD
  5
2
102
{ACAD_XDICTIONARY
360
D13
102
}
330
1
100
AcDbSymbolTableRecord
100
AcDbBlockTableRecord
  2
*MODEL_SPACE
340
5A
  0
BLOCK_RECORD
  5
7
330
1
100
AcDbSymbolTableRecord
100
AcDbBlockTableRecord
  2
*PAPER_SPACE
340
5B
  0
BLOCK_RECORD
  5
109
330
1
100
AcDbSymbolTableRecord
100
AcDbBlockTableRecord
  2
_Dot
340
0
102
{BLKREFS
331
4395
331
4396
331
452C
331
452D
331
4535
331
4536
331
4554
331
4555
331
455D
331
455E
331
4571
331
4572
102
}
  0
BLOCK_RECORD
  5
3629
330
1
100
AcDbSymbolTableRecord
100
AcDbBlockTableRecord
  2
*D1
340
0
  0
BLOCK_RECORD
  5
3636
330
1
100
AcDbSymbolTableRecord
100
AcDbBlockTableRecord
  2
*D2
340
0
  0
BLOCK_RECORD
  5
434C
330
1
100
AcDbSymbolTableRecord
100
AcDbBlockTableRecord
  2
*D3
340
0
  0
BLOCK_RECORD
  5
43B4
330
1
100
AcDbSymbolTableRecord
100
AcDbBlockTableRecord
  2
*D4
340
0
  0
BLOCK_RECORD
  5
44AA
330
1
100
AcDbSymbolTableRecord
100
AcDbBlockTableRecord
  2
*D5
340
0
  0
BLOCK_RECORD
  5
44B6
330
1
100
AcDbSymbolTableRecord
100
AcDbBlockTableRecord
  2
*D6
340
0
  0
ENDTAB
  0
ENDSEC
  0
SECTION
  2
BLOCKS
  0
BLOCK
  5
3
330
2
100
AcDbEntity
  8
0
100
AcDbBlockBegin
  2
*MODEL_SPACE
 70
     0
 10
0.0
 20
0.0
 30
0.0
  3
*MODEL_SPACE
  1

  0
ENDBLK
  5
6
330
2
100
AcDbEntity
  8
0
100
AcDbBlockEnd
  0
BLOCK
  5
8
330
7
100
AcDbEntity
 67
     1
  8
0
100
AcDbBlockBegin
  2
*PAPER_SPACE
 70
     0
 10
0.0
 20
0.0
 30
0.0
  3
*PAPER_SPACE
  1

  0
ENDBLK
  5
9
330
7
100
AcDbEntity
 67
     1
  8
0
100
AcDbBlockEnd
  0
BLOCK
  5
10C
330
109
100
AcDbEntity
  8
0
100
AcDbBlockBegin
  2
_Dot
 70
     0
 10
0.0
 20
0.0
 30
0.0
  3
_Dot
  1

  0
LWPOLYLINE
  5
10A
330
109
100
AcDbEntity
  8
0
  6
ByBlock
 62
     0
100
AcDbPolyline
 90
        2
 70
     1
 43
0.5
 10
-0.25
 20
0.0
 42
1.0
 10
0.25
 20
0.0
 42
1.0
  0
LINE
  5
10B
330
109
100
AcDbEntity
  8
0
  6
ByBlock
 62
     0
370
    -2
100
AcDbLine
 10
-0.5
 20
0.0
 30
0.0
 11
-1.0
 21
0.0
 31
0.0
  0
ENDBLK
  5
10D
330
109
100
AcDbEntity
  8
0
100
AcDbBlockEnd
  0
BLOCK
  5
3633
330
3629
100
AcDbEntity
  8
0
100
AcDbBlockBegin
  2
*D1
 70
     1
 10
0.0
 20
0.0
 30
0.0
  3
*D1
  1

  0
LINE
  5
4392
330
3629
100
AcDbEntity
  8
SUNPOU
 62
    70
370
    -2
100
AcDbLine
 10
290.689616748183
 20
397.3871940816255
 30
0.0
 11
290.689616748183
 21
428.8550807697854
 31
0.0
  0
LINE
  5
4393
330
3629
100
AcDbEntity
  8
SUNPOU
 62
    70
370
    -2
100
AcDbLine
 10
-64.31038325181702
 20
397.3871940816256
 30
0.0
 11
-64.31038325181702
 21
428.8550807697854
 31
0.0
  0
LINE
  5
4394
330
3629
100
AcDbEntity
  8
SUNPOU
 62
    60
370
    -2
100
AcDbLine
 10
288.689616748183
 20
428.8550807697854
 30
0.0
 11
-62.31038325181703
 21
428.8550807697854
 31
0.0
  0
INSERT
  5
4395
330
3629
100
AcDbEntity
  8
SUNPOU
 62
    60
370
    -2
100
AcDbBlockReference
  2
_Dot
 10
290.689616748183
 20
428.8550807697854
 30
0.0
 41
2.0
 42
2.0
 43
2.0
  0
INSERT
  5
4396
330
3629
100
AcDbEntity
  8
SUNPOU
 62
    60
370
    -2
100
AcDbBlockReference
  2
_Dot
 10
-64.31038325181702
 20
428.8550807697854
 30
0.0
 41
2.0
 42
2.0
 43
2.0
 50
180.0
  0
MTEXT
  5
4397
330
3629
100
AcDbEntity
  8
SUNPOU
 62
    60
100
AcDbMText
 10
113.1896167481829
 20
434.3550807697854
 30
0.0
 40
5.0
 41
0.0
 71
     5
 72
     1
  1
\A1;355
  7
SUNPOU
 73
     1
 44
1.0
1001
ACAD
1000
MTEXTBEGIN
1070
    73
1070
     1
1070
    44
1040
1.0
1070
    74
1070
     0
1000
MTEXTEND
  0
POINT
  5
4398
330
3629
100
AcDbEntity
  8
DEFPOINTS
 62
     0
100
AcDbPoint
 10
290.689616748183
 20
387.3871940816255
 30
0.0
  0
POINT
  5
4399
330
3629
100
AcDbEntity
  8
DEFPOINTS
 62
     0
100
AcDbPoint
 10
-64.31038325181702
 20
387.3871940816256
 30
0.0
  0
POINT
  5
439A
330
3629
100
AcDbEntity
  8
DEFPOINTS
 62
     0
100
AcDbPoint
 10
-64.31038325181702
 20
428.8550807697854
 30
0.0
  0
ENDBLK
  5
3634
330
3629
100
AcDbEntity
  8
0
100
AcDbBlockEnd
  0
BLOCK
  5
3640
330
3636
100
AcDbEntity
  8
0
100
AcDbBlockBegin
  2
*D2
 70
     1
 10
0.0
 20
0.0
 30
0.0
  3
*D2
  1

  0
LINE
  5
4551
330
3636
100
AcDbEntity
  8
SUNPOU
 62
    70
370
    -2
100
AcDbLine
 10
-74.31038325181702
 20
387.3871940816256
 30
0.0
 11
-101.0501817202666
 21
387.3871940816256
 31
0.0
  0
LINE
  5
4552
330
3636
100
AcDbEntity
  8
SUNPOU
 62
    70
370
    -2
100
AcDbLine
 10
-11.81038325181708
 20
92.38719408162552
 30
0.0
 11
-101.0501817202667
 21
92.38719408162555
 31
0.0
  0
LINE
  5
4553
330
3636
100
AcDbEntity
  8
SUNPOU
 62
    60
370
    -2
100
AcDbLine
 10
-101.0501817202666
 20
385.3871940816256
 30
0.0
 11
-101.0501817202667
 21
94.38719408162555
 31
0.0
  0
INSERT
  5
4554
330
3636
100
AcDbEntity
  8
SUNPOU
 62
    60
370
    -2
100
AcDbBlockReference
  2
_Dot
 10
-101.0501817202666
 20
387.3871940816256
 30
0.0
 41
2.0
 42
2.0
 43
2.0
 50
90.0
  0
INSERT
  5
4555
330
3636
100
AcDbEntity
  8
SUNPOU
 62
    60
370
    -2
100
AcDbBlockReference
  2
_Dot
 10
-101.0501817202667
 20
92.38719408162555
 30
0.0
 41
2.0
 42
2.0
 43
2.0
 50
270.0
  0
MTEXT
  5
4556
330
3636
100
AcDbEntity
  8
SUNPOU
 62
    60
100
AcDbMText
 10
-106.5501817202667
 20
239.8871940816256
 30
0.0
 40
5.0
 41
0.0
 71
     5
 72
     1
  1
\A1;295
  7
SUNPOU
 11
0.0000000000000001
 21
1.0
 31
0.0
 73
     1
 44
1.0
1001
ACAD
1000
MTEXTBEGIN
1070
    73
1070
     1
1070
    44
1040
1.0
1070
    74
1070
     0
1000
MTEXTEND
  0
POINT
  5
4557
330
3636
100
AcDbEntity
  8
DEFPOINTS
 62
     0
100
AcDbPoint
 10
-64.31038325181702
 20
387.3871940816256
 30
0.0
  0
POINT
  5
4558
330
3636
100
AcDbEntity
  8
DEFPOINTS
 62
     0
100
AcDbPoint
 10
-1.810383251817086
 20
92.38719408162552
 30
0.0
  0
POINT
  5
4559
330
3636
100
AcDbEntity
  8
DEFPOINTS
 62
     0
100
AcDbPoint
 10
-101.0501817202667
 20
92.38719408162555
 30
0.0
  0
ENDBLK
  5
3641
330
3636
100
AcDbEntity
  8
0
100
AcDbBlockEnd
  0
BLOCK
  5
4356
330
434C
100
AcDbEntity
  8
0
100
AcDbBlockBegin
  2
*D3
 70
     1
 10
0.0
 20
0.0
 30
0.0
  3
*D3
  1

  0
LINE
  5
455A
330
434C
100
AcDbEntity
  8
SUNPOU
 62
    70
370
    -2
100
AcDbLine
 10
-11.81038325181708
 20
92.38719408162552
 30
0.0
 11
-101.0501817202666
 21
92.38719408162555
 31
0.0
  0
LINE
  5
455B
330
434C
100
AcDbEntity
  8
SUNPOU
 62
    70
370
    -2
100
AcDbLine
 10
23.18961674818269
 20
57.38719408162552
 30
0.0
 11
-101.0501817202666
 21
57.38719408162555
 31
0.0
  0
LINE
  5
455C
330
434C
100
AcDbEntity
  8
SUNPOU
 62
    60
370
    -2
100
AcDbLine
 10
-101.0501817202666
 20
90.38719408162554
 30
0.0
 11
-101.0501817202666
 21
59.38719408162556
 31
0.0
  0
INSERT
  5
455D
330
434C
100
AcDbEntity
  8
SUNPOU
 62
    60
370
    -2
100
AcDbBlockReference
  2
_Dot
 10
-101.0501817202666
 20
92.38719408162555
 30
0.0
 41
2.0
 42
2.0
 43
2.0
 50
90.0
  0
INSERT
  5
455E
330
434C
100
AcDbEntity
  8
SUNPOU
 62
    60
370
    -2
100
AcDbBlockReference
  2
_Dot
 10
-101.0501817202666
 20
57.38719408162555
 30
0.0
 41
2.0
 42
2.0
 43
2.0
 50
270.0
  0
MTEXT
  5
455F
330
434C
100
AcDbEntity
  8
SUNPOU
 62
    60
100
AcDbMText
 10
-106.5501817202666
 20
74.88719408162552
 30
0.0
 40
5.0
 41
0.0
 71
     5
 72
     1
  1
\A1;35
  7
SUNPOU
 11
0.0000000000000001
 21
1.0
 31
0.0
 73
     1
 44
1.0
1001
ACAD
1000
MTEXTBEGIN
1070
    73
1070
     1
1070
    44
1040
1.0
1070
    74
1070
     0
1000
MTEXTEND
  0
POINT
  5
4560
330
434C
100
AcDbEntity
  8
DEFPOINTS
 62
     0
100
AcDbPoint
 10
-1.810383251817086
 20
92.38719408162552
 30
0.0
  0
POINT
  5
4561
330
434C
100
AcDbEntity
  8
DEFPOINTS
 62
     0
100
AcDbPoint
 10
33.18961674818269
 20
57.38719408162552
 30
0.0
  0
POINT
  5
4562
330
434C
100
AcDbEntity
  8
DEFPOINTS
 62
     0
100
AcDbPoint
 10
-101.0501817202666
 20
57.38719408162555
 30
0.0
  0
ENDBLK
  5
4357
330
434C
100
AcDbEntity
  8
0
100
AcDbBlockEnd
  0
BLOCK
  5
43BE
330
43B4
100
AcDbEntity
  8
0
100
AcDbBlockBegin
  2
*D4
 70
     1
 10
0.0
 20
0.0
 30
0.0
  3
*D4
  1

  0
LINE
  5
456E
330
43B4
100
AcDbEntity
  8
SUNPOU
 62
    70
370
    -2
100
AcDbLine
 10
33.18961674818269
 20
47.38719408162554
 30
0.0
 11
33.18961674818269
 21
30.72539823739726
 31
0.0
  0
LINE
  5
456F
330
43B4
100
AcDbEntity
  8
SUNPOU
 62
    70
370
    -2
100
AcDbLine
 10
193.1896167481827
 20
47.38719408162554
 30
0.0
 11
193.1896167481827
 21
30.72539823739726
 31
0.0
  0
LINE
  5
4570
330
43B4
100
AcDbEntity
  8
SUNPOU
 62
    60
370
    -2
100
AcDbLine
 10
35.18961674818269
 20
30.72539823739726
 30
0.0
 11
191.1896167481827
 21
30.72539823739726
 31
0.0
  0
INSERT
  5
4571
330
43B4
100
AcDbEntity
  8
SUNPOU
 62
    60
370
    -2
100
AcDbBlockReference
  2
_Dot
 10
33.18961674818269
 20
30.72539823739726
 30
0.0
 41
2.0
 42
2.0
 43
2.0
 50
180.0
  0
INSERT
  5
4572
330
43B4
100
AcDbEntity
  8
SUNPOU
 62
    60
370
    -2
100
AcDbBlockReference
  2
_Dot
 10
193.1896167481827
 20
30.72539823739726
 30
0.0
 41
2.0
 42
2.0
 43
2.0
  0
MTEXT
  5
4573
330
43B4
100
AcDbEntity
  8
SUNPOU
 62
    60
100
AcDbMText
 10
113.1896167481827
 20
36.22539823739726
 30
0.0
 40
5.0
 41
0.0
 71
     5
 72
     1
  1
\A1;φ160
  7
SUNPOU
 73
     1
 44
1.0
1001
ACAD
1000
MTEXTBEGIN
1070
    73
1070
     1
1070
    44
1040
1.0
1070
    74
1070
     0
1000
MTEXTEND
  0
POINT
  5
4574
330
43B4
100
AcDbEntity
  8
DEFPOINTS
 62
     0
100
AcDbPoint
 10
33.18961674818269
 20
57.38719408162555
 30
0.0
  0
POINT
  5
4575
330
43B4
100
AcDbEntity
  8
DEFPOINTS
 62
     0
100
AcDbPoint
 10
193.1896167481827
 20
57.38719408162555
 30
0.0
  0
POINT
  5
4576
330
43B4
100
AcDbEntity
  8
DEFPOINTS
 62
     0
100
AcDbPoint
 10
193.1896167481827
 20
30.72539823739726
 30
0.0
  0
ENDBLK
  5
43BF
330
43B4
100
AcDbEntity
  8
0
100
AcDbBlockEnd
  0
BLOCK
  5
44B4
330
44AA
100
AcDbEntity
  8
0
100
AcDbBlockBegin
  2
*D5
 70
     1
 10
0.0
 20
0.0
 30
0.0
  3
*D5
  1

  0
LINE
  5
4529
330
44AA
100
AcDbEntity
  8
SUNPOU
 62
    70
370
    -2
100
AcDbLine
 10
290.6896167481828
 20
831.8323048573741
 30
0.0
 11
290.6896167481828
 21
914.1309411694546
 31
0.0
  0
LINE
  5
452A
330
44AA
100
AcDbEntity
  8
SUNPOU
 62
    70
370
    -2
100
AcDbLine
 10
-64.31038325181702
 20
831.8323048573745
 30
0.0
 11
-64.31038325181702
 21
914.1309411694546
 31
0.0
  0
LINE
  5
452B
330
44AA
100
AcDbEntity
  8
SUNPOU
 62
    60
370
    -2
100
AcDbLine
 10
288.6896167481829
 20
914.1309411694546
 30
0.0
 11
-62.31038325181703
 21
914.1309411694546
 31
0.0
  0
INSERT
  5
452C
330
44AA
100
AcDbEntity
  8
SUNPOU
 62
    60
370
    -2
100
AcDbBlockReference
  2
_Dot
 10
290.6896167481828
 20
914.1309411694546
 30
0.0
 41
2.0
 42
2.0
 43
2.0
  0
INSERT
  5
452D
330
44AA
100
AcDbEntity
  8
SUNPOU
 62
    60
370
    -2
100
AcDbBlockReference
  2
_Dot
 10
-64.31038325181702
 20
914.1309411694546
 30
0.0
 41
2.0
 42
2.0
 43
2.0
 50
180.0
  0
MTEXT
  5
452E
330
44AA
100
AcDbEntity
  8
SUNPOU
 62
    60
100
AcDbMText
 10
113.1896167481829
 20
919.6309411694546
 30
0.0
 40
5.0
 41
0.0
 71
     5
 72
     1
  1
\A1;355
  7
SUNPOU
 73
     1
 44
1.0
1001
ACAD
1000
MTEXTBEGIN
1070
    73
1070
     1
1070
    44
1040
1.0
1070
    74
1070
     0
1000
MTEXTEND
  0
POINT
  5
452F
330
44AA
100
AcDbEntity
  8
DEFPOINTS
 62
     0
100
AcDbPoint
 10
290.6896167481828
 20
821.832304857374
 30
0.0
  0
POINT
  5
4530
330
44AA
100
AcDbEntity
  8
DEFPOINTS
 62
     0
100
AcDbPoint
 10
-64.31038325181702
 20
821.8323048573745
 30
0.0
  0
POINT
  5
4531
330
44AA
100
AcDbEntity
  8
DEFPOINTS
 62
     0
100
AcDbPoint
 10
-64.31038325181702
 20
914.1309411694546
 30
0.0
  0
ENDBLK
  5
44B5
330
44AA
100
AcDbEntity
  8
0
100
AcDbBlockEnd
  0
BLOCK
  5
44C0
330
44B6
100
AcDbEntity
  8
0
100
AcDbBlockBegin
  2
*D6
 70
     1
 10
0.0
 20
0.0
 30
0.0
  3
*D6
  1

  0
LINE
  5
4532
330
44B6
100
AcDbEntity
  8
SUNPOU
 62
    70
370
    -2
100
AcDbLine
 10
-39.0329386396926
 20
857.1097494695008
 30
0.0
 11
-113.4725121169012
 21
857.1097494695008
 31
0.0
  0
LINE
  5
4533
330
44B6
100
AcDbEntity
  8
SUNPOU
 62
    70
370
    -2
100
AcDbLine
 10
-39.03293863969199
 20
502.1097494694997
 30
0.0
 11
-113.4725121169013
 21
502.1097494694997
 31
0.0
  0
LINE
  5
4534
330
44B6
100
AcDbEntity
  8
SUNPOU
 62
    60
370
    -2
100
AcDbLine
 10
-113.4725121169012
 20
855.1097494695008
 30
0.0
 11
-113.4725121169013
 21
504.1097494694997
 31
0.0
  0
INSERT
  5
4535
330
44B6
100
AcDbEntity
  8
SUNPOU
 62
    60
370
    -2
100
AcDbBlockReference
  2
_Dot
 10
-113.4725121169012
 20
857.1097494695008
 30
0.0
 41
2.0
 42
2.0
 43
2.0
 50
90.0
  0
INSERT
  5
4536
330
44B6
100
AcDbEntity
  8
SUNPOU
 62
    60
370
    -2
100
AcDbBlockReference
  2
_Dot
 10
-113.4725121169013
 20
502.1097494694997
 30
0.0
 41
2.0
 42
2.0
 43
2.0
 50
270.0
  0
MTEXT
  5
4537
330
44B6
100
AcDbEntity
  8
SUNPOU
 62
    60
100
AcDbMText
 10
-118.9725121169013
 20
679.6097494695003
 30
0.0
 40
5.0
 41
0.0
 71
     5
 72
     1
  1
\A1;355
  7
SUNPOU
 11
0.0000000000000001
 21
1.0
 31
0.0
 73
     1
 44
1.0
1001
ACAD
1000
MTEXTBEGIN
1070
    73
1070
     1
1070
    44
1040
1.0
1070
    74
1070
     0
1000
MTEXTEND
  0
POINT
  5
4538
330
44B6
100
AcDbEntity
  8
DEFPOINTS
 62
     0
100
AcDbPoint
 10
-29.0329386396926
 20
857.1097494695008
 30
0.0
  0
POINT
  5
4539
330
44B6
100
AcDbEntity
  8
DEFPOINTS
 62
     0
100
AcDbPoint
 10
-29.03293863969199
 20
502.1097494694997
 30
0.0
  0
POINT
  5
453A
330
44B6
100
AcDbEntity
  8
DEFPOINTS
 62
     0
100
AcDbPoint
 10
-113.4725121169013
 20
502.1097494694997
 30
0.0
  0
ENDBLK
  5
44C1
330
44B6
100
AcDbEntity
  8
0
100
AcDbBlockEnd
  0
ENDSEC
  0
SECTION
  2
ENTITIES
  0
LINE
  5
1F
330
2
100
AcDbEntity
  8
WAKU
100
AcDbLine
 10
0.0
 20
21.0
 30
0.0
 11
211.3084549855516
 21
21.0
 31
0.0
  0
LINE
  5
20
330
2
100
AcDbEntity
  8
WAKU
100
AcDbLine
 10
0.0
 20
0.0
 30
0.0
 11
211.3084549855516
 21
0.0
 31
0.0
  0
TEXT
  5
21
330
2
100
AcDbEntity
  8
HOJO
100
AcDbText
 10
14.48094900000004
 20
3.549939000000037
 30
0.0
 40
13.5
  1
ML901
  7
SUNPOU
100
AcDbText
  0
TEXT
  5
23
330
2
100
AcDbEntity
  8
HOJO
100
AcDbText
 10
97.3010698495603
 20
7.566579000000047
 30
0.0
 40
9.0
  1
295×355×355
  7
SUNPOU
100
AcDbText
  0
DIMENSION
  5
3628
330
2
100
AcDbEntity
  8
SUNPOU
100
AcDbDimension
  2
*D1
 10
-64.31038325181702
 20
428.8550807697854
 30
0.0
 11
113.1896167481829
 21
434.3550807697854
 31
0.0
 70
    32
 71
     5
 42
355.0
  3
STANDARD
100
AcDbAlignedDimension
 13
290.689616748183
 23
387.3871940816255
 33
0.0
 14
-64.31038325181702
 24
387.3871940816256
 34
0.0
 50
180.0
100
AcDbRotatedDimension
1001
ACAD
1000
DSTYLE
1002
{
1070
    41
1040
2.0
1070
    42
1040
10.0
1070
    44
1040
0.0
1070
    73
1070
     0
1070
    74
1070
     0
1070
    77
1070
     1
1070
   140
1040
5.0
1070
   141
1040
0.0
1070
   146
1040
0.064286
1070
   147
1040
3.0
1070
   176
1070
    60
1070
   177
1070
    70
1070
   178
1070
    60
1070
   271
1070
     0
1070
   272
1070
     0
1070
   340
1005
1C
1070
   342
1005
109
1002
}
  0
DIMENSION
  5
3635
330
2
100
AcDbEntity
  8
SUNPOU
100
AcDbDimension
  2
*D2
 10
-101.0501817202667
 20
92.38719408162555
 30
0.0
 11
-106.5501817202667
 21
239.8871940816256
 31
0.0
 70
    32
 71
     5
 42
295.0000000000001
  3
STANDARD
100
AcDbAlignedDimension
 13
-64.31038325181702
 23
387.3871940816256
 33
0.0
 14
-1.810383251817086
 24
92.38719408162552
 34
0.0
 50
90.0
100
AcDbRotatedDimension
1001
ACAD
1000
DSTYLE
1002
{
1070
    41
1040
2.0
1070
    42
1040
10.0
1070
    44
1040
0.0
1070
    73
1070
     0
1070
    74
1070
     0
1070
    77
1070
     1
1070
   140
1040
5.0
1070
   141
1040
0.0
1070
   146
1040
0.064286
1070
   147
1040
3.0
1070
   176
1070
    60
1070
   177
1070
    70
1070
   178
1070
    60
1070
   271
1070
     0
1070
   272
1070
     0
1070
   340
1005
1C
1070
   342
1005
109
1002
}
  0
LINE
  5
41A9
102
{ACAD_REACTORS
330
4563
102
}
330
2
100
AcDbEntity
  8
KIJUN
100
AcDbLine
 10
-64.31038325181702
 20
387.3871940816256
 30
0.0
 11
290.689616748183
 21
387.3871940816255
 31
0.0
  0
LINE
  5
41B3
102
{ACAD_REACTORS
330
4563
102
}
330
2
100
AcDbEntity
  8
KIJUN
100
AcDbLine
 10
-1.810383251817086
 20
92.38719408162552
 30
0.0
 11
228.1896167481825
 21
92.38719408162552
 31
0.0
  0
LINE
  5
41B4
102
{ACAD_REACTORS
330
4563
102
}
330
2
100
AcDbEntity
  8
KIJUN
100
AcDbLine
 10
-46.65676647663576
 20
360.3871940816255
 30
0.0
 11
83.34731385605563
 21
360.3871940816255
 31
0.0
  0
LINE
  5
41B5
102
{ACAD_REACTORS
330
4563
102
}
330
2
100
AcDbEntity
  8
KIJUN
100
AcDbLine
 10
-46.65676647663576
 20
355.3871940816255
 30
0.0
 11
83.30060204262782
 21
355.3871940816255
 31
0.0
  0
LINE
  5
41B6
102
{ACAD_REACTORS
330
4563
102
}
330
2
100
AcDbEntity
  8
KIJUN
100
AcDbLine
 10
-38.03846461365589
 20
331.3871940816255
 30
0.0
 11
111.5556544911068
 21
331.3871940816255
 31
0.0
  0
LINE
  5
41B9
102
{ACAD_REACTORS
330
4563
102
}
330
2
100
AcDbEntity
  8
KIJUN
100
AcDbLine
 10
-29.81038325181726
 20
360.3871940816255
 30
0.0
 11
-29.81038325181726
 21
355.3871940816255
 31
0.0
  0
ARC
  5
41BB
102
{ACAD_REACTORS
330
4563
102
}
330
2
100
AcDbEntity
  8
KIJUN
100
AcDbCircle
 10
165.2953681173956
 20
388.4135460349006
 30
0.0
 40
197.1084235164848
100
AcDbArc
 50
180.298342911518
 51
188.1744466865995
  0
ARC
  5
41BC
102
{ACAD_REACTORS
330
4563
102
}
330
2
100
AcDbEntity
  8
KIJUN
100
AcDbCircle
 10
330.1029801211328
 20
358.3627508888044
 30
0.0
 40
359.92566325943
100
AcDbArc
 50
180.4736777791118
 51
184.2982102816567
  0
LINE
  5
41BD
102
{ACAD_REACTORS
330
4563
102
}
330
2
100
AcDbEntity
  8
KIJUN
100
AcDbLine
 10
-46.65676647663576
 20
360.3871940816255
 30
0.0
 11
-46.65676647663576
 21
355.3871940816255
 31
0.0
  0
LINE
  5
41BE
102
{ACAD_REACTORS
330
4563
102
}
330
2
100
AcDbEntity
  8
KIJUN
100
AcDbLine
 10
-38.03846461365584
 20
338.3891502835137
 30
0.0
 11
-38.03846461365589
 21
331.3871940816255
 31
0.0
  0
ARC
  5
41BF
102
{ACAD_REACTORS
330
4563
102
}
330
2
100
AcDbEntity
  8
KIJUN
100
AcDbCircle
 10
-34.83933824127286
 20
387.3851734133955
 30
0.0
 40
29.47104507981748
100
AcDbArc
 50
179.9960715420456
 51
246.3602698103741
  0
ARC
  5
41C0
102
{ACAD_REACTORS
330
4563
102
}
330
2
100
AcDbEntity
  8
KIJUN
100
AcDbCircle
 10
-58.12546903563208
 20
338.8885278855014
 30
0.0
 40
20.09321090910697
100
AcDbArc
 50
358.5758784182643
 51
55.19571308630085
  0
ARC
  5
41C2
102
{ACAD_REACTORS
330
4563
102
}
330
2
100
AcDbEntity
  8
KIJUN
100
AcDbCircle
 10
123.188848351182
 20
360.476781532362
 30
0.0
 40
24.37058973200931
100
AcDbArc
 50
114.2236266470703
 51
160.0761209368396
  0
CIRCLE
  5
41C3
102
{ACAD_REACTORS
330
4563
102
}
330
2
100
AcDbEntity
  8
KIJUN
100
AcDbCircle
 10
113.1896167481827
 20
355.3871940816255
 30
0.0
 40
6.653363806946908
  0
ARC
  5
41C4
102
{ACAD_REACTORS
330
4563
102
}
330
2
100
AcDbEntity
  8
KIJUN
100
AcDbCircle
 10
28.15254658237933
 20
280.6287744681239
 30
0.0
 40
113.8983945578476
100
AcDbArc
 50
44.65972599527906
 51
50.71084200811199
  0
ARC
  5
41C5
102
{ACAD_REACTORS
330
4563
102
}
330
2
100
AcDbEntity
  8
KIJUN
100
AcDbCircle
 10
95.45000324261826
 20
356.356579021209
 30
0.0
 40
13.32966330433174
100
AcDbArc
 50
68.76959436310935
 51
118.1106367305177
  0
ARC
  5
41C6
102
{ACAD_REACTORS
330
4563
102
}
330
2
100
AcDbEntity
  8
KIJUN
100
AcDbCircle
 10
90.090006089187
 20
366.0580812982893
 30
0.0
 40
2.252507303394907
100
AcDbArc
 50
114.1236345845132
 51
233.4786805750877
  0
ARC
  5
41C7
102
{ACAD_REACTORS
330
4563
102
}
330
2
100
AcDbEntity
  8
KIJUN
100
AcDbCircle
 10
89.25416465181655
 20
357.8317919398106
 30
0.0
 40
6.435912245344381
100
AcDbArc
 50
94.4974909735666
 51
251.3888527109886
  0
ARC
  5
41C8
102
{ACAD_REACTORS
330
4563
102
}
330
2
100
AcDbEntity
  8
KIJUN
100
AcDbCircle
 10
88.48139757741307
 20
349.4860428474071
 30
0.0
 40
2.586077328587807
100
AcDbArc
 50
119.697942457237
 51
280.6310450075799
  0
ARC
  5
41C9
102
{ACAD_REACTORS
330
4563
102
}
330
2
100
AcDbEntity
  8
KIJUN
100
AcDbCircle
 10
60.82168711494126
 20
455.267761696037
 30
0.0
 40
111.9180063369799
100
AcDbArc
 50
284.5606968570826
 51
294.3029845319669
  0
ARC
  5
41CB
102
{ACAD_REACTORS
330
4563
102
}
330
2
100
AcDbEntity
  8
KIJUN
100
AcDbCircle
 10
91.26563481942822
 20
345.0035910588909
 30
0.0
 40
3.014878326686317
100
AcDbArc
 50
139.9295905287438
 51
295.800243996804
  0
ARC
  5
41CC
102
{ACAD_REACTORS
330
4563
102
}
330
2
100
AcDbEntity
  8
KIJUN
100
AcDbCircle
 10
98.3624112989333
 20
339.0079543493316
 30
0.0
 40
6.650445183511711
100
AcDbArc
 50
150.4360856094162
 51
323.8179911850967
  0
ARC
  5
41CF
102
{ACAD_REACTORS
330
4563
102
}
330
2
100
AcDbEntity
  8
KIJUN
100
AcDbCircle
 10
105.8818428948018
 20
334.3859266479666
 30
0.0
 40
2.261302538323807
100
AcDbArc
 50
162.0761376163805
 51
335.1653877165345
  0
ARC
  5
41D0
102
{ACAD_REACTORS
330
4563
102
}
330
2
100
AcDbEntity
  8
KIJUN
100
AcDbCircle
 10
81.21962186709192
 20
351.1656701413626
 30
0.0
 40
32.06235203216019
100
AcDbArc
 50
326.4290517294571
 51
355.6500976200778
  0
ARC
  5
41D2
102
{ACAD_REACTORS
330
4563
102
}
330
2
100
AcDbEntity
  8
KIJUN
100
AcDbCircle
 10
-46.84446917093362
 20
308.1954671496511
 30
0.0
 40
24.80729558718689
100
AcDbArc
 50
0.0734361434241238
 51
69.20800181382116
  0
ARC
  5
41D3
102
{ACAD_REACTORS
330
4563
102
}
330
2
100
AcDbEntity
  8
KIJUN
100
AcDbCircle
 10
-0.0692120748944944
 20
282.3732969157106
 30
0.0
 40
26.08733845853758
100
AcDbArc
 50
191.35066681468
 51
274.2155381670721
  0
ARC
  5
41D4
102
{ACAD_REACTORS
330
4563
102
}
330
2
100
AcDbEntity
  8
KIJUN
100
AcDbCircle
 10
63.49714541775473
 20
297.0628211100225
 30
0.0
 40
91.32108551713509
100
AcDbArc
 50
165.5586703798774
 51
192.5375054560551
  0
ARC
  5
41D5
102
{ACAD_REACTORS
330
4563
102
}
330
2
100
AcDbEntity
  8
KIJUN
100
AcDbCircle
 10
11.36475542365673
 20
287.103909672018
 30
0.0
 40
6.833711591393732
100
AcDbArc
 50
182.0216464560993
 51
43.18241182985996
  0
ARC
  5
41D6
102
{ACAD_REACTORS
330
4563
102
}
330
2
100
AcDbEntity
  8
KIJUN
100
AcDbCircle
 10
15.8494269433117
 20
294.1743978326544
 30
0.0
 40
9.092278193411729
100
AcDbArc
 50
54.64537586661679
 51
131.1787894903752
  0
ARC
  5
41D7
102
{ACAD_REACTORS
330
4563
102
}
330
2
100
AcDbEntity
  8
KIJUN
100
AcDbCircle
 10
22.23774405542053
 20
288.28003711727
 30
0.0
 40
17.75908437439543
100
AcDbArc
 50
134.1719164581532
 51
184.577153352832
  0
ARC
  5
41D8
102
{ACAD_REACTORS
330
4563
102
}
330
2
100
AcDbEntity
  8
KIJUN
100
AcDbCircle
 10
18.14594495718762
 20
293.9422642290559
 30
0.0
 40
2.811983118652065
100
AcDbArc
 50
41.28405495634089
 51
230.2473307416057
  0
ARC
  5
41D9
102
{ACAD_REACTORS
330
4563
102
}
330
2
100
AcDbEntity
  8
KIJUN
100
AcDbCircle
 10
5.697866379385288
 20
282.4726271405213
 30
0.0
 40
24.55650680128811
100
AcDbArc
 50
303.56962525403
 51
51.12369305742491
  0
ARC
  5
41DA
102
{ACAD_REACTORS
330
4563
102
}
330
2
100
AcDbEntity
  8
KIJUN
100
AcDbCircle
 10
8.058140950380334
 20
277.5383310126506
 30
0.0
 40
19.15522059225422
100
AcDbArc
 50
214.0929111630585
 51
305.8488809148671
  0
ARC
  5
41DB
102
{ACAD_REACTORS
330
4563
102
}
330
2
100
AcDbEntity
  8
KIJUN
100
AcDbCircle
 10
27.58947958713782
 20
291.9406171599529
 30
0.0
 40
43.41374800937845
100
AcDbArc
 50
138.4874765530611
 51
215.3849768944223
  0
ARC
  5
41DC
102
{ACAD_REACTORS
330
4563
102
}
330
2
100
AcDbEntity
  8
KIJUN
100
AcDbCircle
 10
20.17325002693849
 20
294.6160351581043
 30
0.0
 40
36.20446818401677
100
AcDbArc
 50
57.10532853043723
 51
133.8741163827173
  0
ARC
  5
41DD
102
{ACAD_REACTORS
330
4563
102
}
330
2
100
AcDbEntity
  8
KIJUN
100
AcDbCircle
 10
8.782227680613175
 20
284.0302392463642
 30
0.0
 40
16.43736355135764
100
AcDbArc
 50
289.1691274739389
 51
45.71621719609475
  0
ARC
  5
41DE
102
{ACAD_REACTORS
330
4563
102
}
330
2
100
AcDbEntity
  8
KIJUN
100
AcDbCircle
 10
8.140759501095487
 20
281.2245784046991
 30
0.0
 40
14.0809577339785
100
AcDbArc
 50
208.6362506143728
 51
295.3954339165932
  0
ARC
  5
41DF
102
{ACAD_REACTORS
330
4563
102
}
330
2
100
AcDbEntity
  8
KIJUN
100
AcDbCircle
 10
25.31098410935414
 20
288.9250353648619
 30
0.0
 40
32.87423585554516
100
AcDbArc
 50
133.9267568374643
 51
206.0729355454997
  0
ARC
  5
41E0
102
{ACAD_REACTORS
330
4563
102
}
330
2
100
AcDbEntity
  8
KIJUN
100
AcDbCircle
 10
18.01995915230822
 20
293.7538580433196
 30
0.0
 40
24.41247144501026
100
AcDbArc
 50
44.9668037856997
 51
129.4600093018545
  0
ARC
  5
41E1
102
{ACAD_REACTORS
330
4563
102
}
330
2
100
AcDbEntity
  8
KIJUN
100
AcDbCircle
 10
-20.58511544222108
 20
247.8613772820034
 30
0.0
 40
97.99742936464021
100
AcDbArc
 50
15.81583538291379
 51
51.93494756671543
  0
ARC
  5
41E3
102
{ACAD_REACTORS
330
4563
102
}
330
2
100
AcDbEntity
  8
KIJUN
100
AcDbCircle
 10
-30.64496530569864
 20
232.4519597266485
 30
0.0
 40
102.5595282563663
100
AcDbArc
 50
5.475100014416793
 51
49.99040707768823
  0
ARC
  5
41E4
102
{ACAD_REACTORS
330
4563
102
}
330
2
100
AcDbEntity
  8
KIJUN
100
AcDbCircle
 10
95.5381371850267
 20
205.8134575754093
 30
0.0
 40
14.94601058719597
100
AcDbArc
 50
197.9627792104634
 51
353.530080770003
  0
ARC
  5
41E5
102
{ACAD_REACTORS
330
4563
102
}
330
2
100
AcDbEntity
  8
KIJUN
100
AcDbCircle
 10
182.25672353256
 20
247.197348145383
 30
0.0
 40
110.9210081658181
100
AcDbArc
 50
182.5628493212838
 51
204.4971811672061
  0
ARC
  5
41E6
102
{ACAD_REACTORS
330
4563
102
}
330
2
100
AcDbEntity
  8
KIJUN
100
AcDbCircle
 10
135.8392727289574
 20
377.1498199753149
 30
0.0
 40
29.66919238209055
100
AcDbArc
 50
184.7666852879355
 51
207.3938790879962
  0
ARC
  5
41E7
102
{ACAD_REACTORS
330
4563
102
}
330
2
100
AcDbEntity
  8
KIJUN
100
AcDbCircle
 10
157.1279451399738
 20
370.9874620415539
 30
0.0
 40
44.92997943453924
100
AcDbArc
 50
171.7923259168841
 51
188.2076740831158
  0
ARC
  5
41E8
102
{ACAD_REACTORS
330
4563
102
}
330
2
100
AcDbEntity
  8
KIJUN
100
AcDbCircle
 10
73.83778363441649
 20
227.3343822532226
 30
0.0
 40
137.7231521232002
100
AcDbArc
 50
76.7519610218679
 51
83.78422581061022
  0
ARC
  5
41E9
102
{ACAD_REACTORS
330
4563
102
}
330
2
100
AcDbEntity
  8
KIJUN
100
AcDbCircle
 10
67.74647995414539
 20
379.037702408048
 30
0.0
 40
49.6023871066415
100
AcDbArc
 50
307.9016057119732
 51
323.6146968465543
  0
ARC
  5
41EA
102
{ACAD_REACTORS
330
4563
102
}
330
2
100
AcDbEntity
  8
KIJUN
100
AcDbCircle
 10
-150.159141037498
 20
726.4103487970068
 30
0.0
 40
454.3899781309423
100
AcDbArc
 50
302.2899465876453
 51
304.26932627305
  0
ARC
  5
41EB
102
{ACAD_REACTORS
330
4563
102
}
330
2
100
AcDbEntity
  8
KIJUN
100
AcDbCircle
 10
62.47406974735963
 20
361.5894144209345
 30
0.0
 40
49.03801286022659
100
AcDbArc
 50
327.2788186930668
 51
343.4679798077437
  0
ARC
  5
41EC
102
{ACAD_REACTORS
330
4563
102
}
330
2
100
AcDbEntity
  8
KIJUN
100
AcDbCircle
 10
74.58520629012082
 20
472.5706252547203
 30
0.0
 40
121.49487795183
100
AcDbArc
 50
275.9598399751159
 51
284.4678014645374
  0
ARC
  5
41ED
102
{ACAD_REACTORS
330
4563
102
}
330
2
100
AcDbEntity
  8
KIJUN
100
AcDbCircle
 10
93.46603537094825
 20
463.9694061507885
 30
0.0
 40
106.762720035003
100
AcDbArc
 50
267.9001735341602
 51
276.4313605430753
  0
ARC
  5
41F4
102
{ACAD_REACTORS
330
4563
102
}
330
2
100
AcDbEntity
  8
KIJUN
100
AcDbCircle
 10
96.71354301039611
 20
208.732218515822
 30
0.0
 40
9.835815385874793
100
AcDbArc
 50
204.3021972000459
 51
332.0971687724145
  0
ARC
  5
41F5
102
{ACAD_REACTORS
330
4563
102
}
330
2
100
AcDbEntity
  8
KIJUN
100
AcDbCircle
 10
175.5384969670433
 20
245.6887287837782
 30
0.0
 40
96.89327105382988
100
AcDbArc
 50
178.1465154342258
 51
205.0362608798745
  0
ARC
  5
41F6
102
{ACAD_REACTORS
330
4563
102
}
330
2
100
AcDbEntity
  8
KIJUN
100
AcDbCircle
 10
-29.43812425701168
 20
241.2089602124054
 30
0.0
 40
108.401750001182
100
AcDbArc
 50
4.027519381059204
 51
17.92402218324595
  0
LINE
  5
41F8
102
{ACAD_REACTORS
330
4563
102
}
330
2
100
AcDbEntity
  8
KIJUN
100
AcDbLine
 10
102.985193734104
 20
209.393059020223
 30
0.0
 11
123.3940397622615
 21
209.393059020223
 31
0.0
  0
LINE
  5
41F9
102
{ACAD_REACTORS
330
4563
102
}
330
2
100
AcDbEntity
  8
KIJUN
100
AcDbLine
 10
102.9851937341042
 20
204.1293177187717
 30
0.0
 11
123.3940397622612
 21
204.1293177187717
 31
0.0
  0
ARC
  5
41FB
102
{ACAD_REACTORS
330
4563
102
}
330
2
100
AcDbEntity
  8
KIJUN
100
AcDbCircle
 10
103.5201891109043
 20
206.7611883694974
 30
0.0
 40
2.685696031822041
100
AcDbArc
 50
101.4902840297564
 51
258.5097159702469
  0
LINE
  5
41FE
102
{ACAD_REACTORS
330
4563
102
}
330
2
100
AcDbEntity
  8
KIJUN
100
AcDbLine
 10
39.24939468436031
 20
325.3871940816255
 30
0.0
 11
111.4648869591125
 21
325.3871940816255
 31
0.0
  0
ARC
  5
41FF
102
{ACAD_REACTORS
330
4563
102
}
330
2
100
AcDbEntity
  8
KIJUN
100
AcDbCircle
 10
-1228.214684555082
 20
348.654448705287
 30
0.0
 40
1339.881606512373
100
AcDbArc
 50
358.2006215034046
 51
359.6749404012294
  0
ARC
  5
4200
102
{ACAD_REACTORS
330
4563
102
}
330
2
100
AcDbEntity
  8
KIJUN
100
AcDbCircle
 10
98.99014259059709
 20
303.3928058570432
 30
0.0
 40
11.21982976851789
100
AcDbArc
 50
14.92677968628298
 51
103.5326313012681
  0
ARC
  5
4201
102
{ACAD_REACTORS
330
4563
102
}
330
2
100
AcDbEntity
  8
KIJUN
100
AcDbCircle
 10
111.4374886726999
 20
302.4354158413055
 30
0.0
 40
4.169226036602508
100
AcDbArc
 50
80.63025017951948
 51
112.6581632761572
  0
ARC
  5
4203
102
{ACAD_REACTORS
330
4563
102
}
330
2
100
AcDbEntity
  8
KIJUN
100
AcDbCircle
 10
80.20182904859353
 20
299.7473693659894
 30
0.0
 40
21.7497347130996
100
AcDbArc
 50
2.967043827431866
 51
42.00125778065689
  0
ARC
  5
4204
102
{ACAD_REACTORS
330
4563
102
}
330
2
100
AcDbEntity
  8
KIJUN
100
AcDbCircle
 10
113.5244642681048
 20
262.2379749681363
 30
0.0
 40
13.96149139884682
100
AcDbArc
 50
197.5649765043908
 51
268.62570631711
  0
ARC
  5
4205
102
{ACAD_REACTORS
330
4563
102
}
330
2
100
AcDbEntity
  8
KIJUN
100
AcDbCircle
 10
2.392385095362158
 20
295.4491176243024
 30
0.0
 40
99.67770927048917
100
AcDbArc
 50
349.4679533026361
 51
3.119341736903249
  0
ARC
  5
4206
102
{ACAD_REACTORS
330
4563
102
}
330
2
100
AcDbEntity
  8
KIJUN
100
AcDbCircle
 10
145.7130999663268
 20
267.2087809762278
 30
0.0
 40
46.41685828762483
100
AcDbArc
 50
167.5325489155745
 51
191.4120538124289
  0
ARC
  5
4207
102
{ACAD_REACTORS
330
4563
102
}
330
2
100
AcDbEntity
  8
KIJUN
100
AcDbCircle
 10
68.00527052211561
 20
306.7271649805697
 30
0.0
 40
44.11134899601169
100
AcDbArc
 50
332.0178705295936
 51
359.7686049460215
  0
ARC
  5
4209
102
{ACAD_REACTORS
330
4563
102
}
330
2
100
AcDbEntity
  8
KIJUN
100
AcDbCircle
 10
119.6112698770183
 20
272.640481846792
 30
0.0
 40
18.421407099048
100
AcDbArc
 50
102.365644078708
 51
133.3760922510197
  0
ARC
  5
420A
102
{ACAD_REACTORS
330
4563
102
}
330
2
100
AcDbEntity
  8
KIJUN
100
AcDbCircle
 10
776.6797530819431
 20
-35.42840164131977
 30
0.0
 40
737.0588695195976
100
AcDbArc
 50
153.7439215704171
 51
154.9996172744987
  0
ARC
  5
420B
102
{ACAD_REACTORS
330
4563
102
}
330
2
100
AcDbEntity
  8
KIJUN
100
AcDbCircle
 10
122.395585009644
 20
268.4081477901394
 30
0.0
 40
15.71115138445007
100
AcDbArc
 50
150.8099676600151
 51
217.715236035121
  0
ARC
  5
420C
102
{ACAD_REACTORS
330
4563
102
}
330
2
100
AcDbEntity
  8
KIJUN
100
AcDbCircle
 10
92.68159900700812
 20
240.0239174718353
 30
0.0
 40
4.779405053894012
100
AcDbArc
 50
218.1402264982228
 51
346.1035441009213
  0
ARC
  5
420D
102
{ACAD_REACTORS
330
4563
102
}
330
2
100
AcDbEntity
  8
KIJUN
100
AcDbCircle
 10
111.3339308933753
 20
235.7006409006348
 30
0.0
 40
14.3680971247709
100
AcDbArc
 50
104.9462433739211
 51
167.2319515985441
  0
ARC
  5
420E
102
{ACAD_REACTORS
330
4563
102
}
330
2
100
AcDbEntity
  8
KIJUN
100
AcDbCircle
 10
93.90546435229021
 20
234.4927119745201
 30
0.0
 40
5.610959935791495
100
AcDbArc
 50
152.6306053924897
 51
344.1365587193569
  0
ARC
  5
420F
102
{ACAD_REACTORS
330
4563
102
}
330
2
100
AcDbEntity
  8
KIJUN
100
AcDbCircle
 10
101.6104113845088
 20
233.4768663331439
 30
0.0
 40
2.365073027884885
100
AcDbArc
 50
192.648667319601
 51
0.4905496273379896
  0
ARC
  5
4210
102
{ACAD_REACTORS
330
4563
102
}
330
2
100
AcDbEntity
  8
KIJUN
100
AcDbCircle
 10
108.2137481962839
 20
235.0415636757757
 30
0.0
 40
4.51097948774735
100
AcDbArc
 50
200.0216641849191
 51
284.0118425816436
  0
ARC
  5
4211
102
{ACAD_REACTORS
330
4563
102
}
330
2
100
AcDbEntity
  8
KIJUN
100
AcDbCircle
 10
119.949233715237
 20
230.8681252499699
 30
0.0
 40
10.64521799459185
100
AcDbArc
 50
181.0943964034884
 51
230.5806875893488
  0
ARC
  5
4212
102
{ACAD_REACTORS
330
4563
102
}
330
2
100
AcDbEntity
  8
KIJUN
100
AcDbCircle
 10
110.6170328966805
 20
231.9552123895951
 30
0.0
 40
6.818268240685758
100
AcDbArc
 50
109.470095125814
 51
166.9299078054403
  0
ARC
  5
4213
102
{ACAD_REACTORS
330
4563
102
}
330
2
100
AcDbEntity
  8
KIJUN
100
AcDbCircle
 10
108.2184714598995
 20
239.3623600241749
 30
0.0
 40
0.9868461063722062
100
AcDbArc
 50
277.3315169357001
 51
71.00838400736674
  0
ARC
  5
4214
102
{ACAD_REACTORS
330
4563
102
}
330
2
100
AcDbEntity
  8
KIJUN
100
AcDbCircle
 10
107.967872371726
 20
237.7432793580178
 30
0.0
 40
2.615466836050044
100
AcDbArc
 50
77.37302161828047
 51
183.5528564776408
  0
ARC
  5
4215
102
{ACAD_REACTORS
330
4563
102
}
330
2
100
AcDbEntity
  8
KIJUN
100
AcDbCircle
 10
1511.181883846117
 20
208.1114366195949
 30
0.0
 40
1399.96033311516
100
AcDbArc
 50
179.3236936886085
 51
179.9475473961608
  0
ARC
  5
4220
102
{ACAD_REACTORS
330
4563
102
}
330
2
100
AcDbEntity
  8
KIJUN
100
AcDbCircle
 10
98.7168750791376
 20
214.3257326442619
 30
0.0
 40
8.892814711704529
100
AcDbArc
 50
47.09415399852677
 51
152.6007964648465
  0
ARC
  5
4221
102
{ACAD_REACTORS
330
4563
102
}
330
2
100
AcDbEntity
  8
KIJUN
100
AcDbCircle
 10
91.35075382601996
 20
205.7348631105476
 30
0.0
 40
20.20530330031589
100
AcDbArc
 50
10.43099953954263
 51
48.37921643365298
  0
ARC
  5
4229
102
{ACAD_REACTORS
330
4563
102
}
330
2
100
AcDbEntity
  8
KIJUN
100
AcDbCircle
 10
95.91302112887575
 20
215.7172623388046
 30
0.0
 40
5.763388788249835
100
AcDbArc
 50
152.0553269766385
 51
282.5057525212613
  0
ARC
  5
422A
102
{ACAD_REACTORS
330
4563
102
}
330
2
100
AcDbEntity
  8
KIJUN
100
AcDbCircle
 10
82.25441983377629
 20
199.8124476930877
 30
0.0
 40
28.03101428881419
100
AcDbArc
 50
19.98573094412152
 51
30.88043861542638
  0
ARC
  5
422B
102
{ACAD_REACTORS
330
4563
102
}
330
2
100
AcDbEntity
  8
KIJUN
100
AcDbCircle
 10
103.7494489523366
 20
212.5257658560398
 30
0.0
 40
3.060429068570107
100
AcDbArc
 50
33.15018829556357
 51
150.462320649023
  0
ARC
  5
422C
102
{ACAD_REACTORS
330
4563
102
}
330
2
100
AcDbEntity
  8
KIJUN
100
AcDbCircle
 10
96.17809072936324
 20
214.9948172053972
 30
0.0
 40
5.001733825345681
100
AcDbArc
 50
281.3333005613177
 51
348.9311788343397
  0
LINE
  5
422D
102
{ACAD_REACTORS
330
4563
102
}
330
2
100
AcDbEntity
  8
KIJUN
100
AcDbLine
 10
-6.810383251817711
 20
136.3871940816255
 30
0.0
 11
233.1896167481815
 21
136.3871940816255
 31
0.0
  0
LINE
  5
422E
102
{ACAD_REACTORS
330
4563
102
}
330
2
100
AcDbEntity
  8
KIJUN
100
AcDbLine
 10
-11.81038325181708
 20
111.3871940816255
 30
0.0
 11
238.1896167481826
 21
111.3871940816255
 31
0.0
  0
LINE
  5
422F
102
{ACAD_REACTORS
330
4563
102
}
330
2
100
AcDbEntity
  8
KIJUN
100
AcDbLine
 10
-6.810383251817711
 20
115.3871940816255
 30
0.0
 11
233.1896167481815
 21
115.3871940816255
 31
0.0
  0
ARC
  5
4234
102
{ACAD_REACTORS
330
4563
102
}
330
2
100
AcDbEntity
  8
KIJUN
100
AcDbCircle
 10
1.724022332937295
 20
125.8871940816255
 30
0.0
 40
13.53093044417455
100
AcDbArc
 50
129.104229401615
 51
230.895770598385
  0
ARC
  5
4235
102
{ACAD_REACTORS
330
4563
102
}
330
2
100
AcDbEntity
  8
KIJUN
100
AcDbCircle
 10
1.256728377356182
 20
100.1783045451588
 30
0.0
 40
17.21594060660035
100
AcDbArc
 50
117.942409996435
 51
139.3772065117464
  0
ARC
  5
4236
102
{ACAD_REACTORS
330
4563
102
}
330
2
100
AcDbEntity
  8
KIJUN
100
AcDbCircle
 10
-28.48916879307353
 20
90.47730695464847
 30
0.0
 40
26.74706090010896
100
AcDbArc
 50
4.094718199163325
 51
51.42236300295628
  0
LINE
  5
4237
102
{ACAD_REACTORS
330
4563
102
}
330
2
100
AcDbEntity
  8
KIJUN
  6
DASHED
100
AcDbLine
 10
33.18961674818269
 20
87.38719408162552
 30
0.0
 11
33.18961674818269
 21
57.38719408162555
 31
0.0
  0
LINE
  5
4238
102
{ACAD_REACTORS
330
4563
102
}
330
2
100
AcDbEntity
  8
KIJUN
  6
DASHED
100
AcDbLine
 10
33.18961674818269
 20
57.38719408162555
 30
0.0
 11
193.1896167481827
 21
57.38719408162555
 31
0.0
  0
ARC
  5
423A
102
{ACAD_REACTORS
330
4563
102
}
330
2
100
AcDbEntity
  8
KIJUN
100
AcDbCircle
 10
107.7862695248699
 20
163.9293407026617
 30
0.0
 40
6.670224712496612
100
AcDbArc
 50
167.3546949369047
 51
251.1178077480179
  0
ARC
  5
423B
102
{ACAD_REACTORS
330
4563
102
}
330
2
100
AcDbEntity
  8
KIJUN
100
AcDbCircle
 10
117.8085214983372
 20
156.2634543899632
 30
0.0
 40
12.25598296118741
100
AcDbArc
 50
173.6543225362895
 51
247.8601005981725
  0
ARC
  5
423C
102
{ACAD_REACTORS
330
4563
102
}
330
2
100
AcDbEntity
  8
KIJUN
100
AcDbCircle
 10
98.54078319016963
 20
168.7509844919685
 30
0.0
 40
4.334823841683477
100
AcDbArc
 50
234.8304925839266
 51
309.1542895757589
  0
ARC
  5
423D
102
{ACAD_REACTORS
330
4563
102
}
330
2
100
AcDbEntity
  8
KIJUN
100
AcDbCircle
 10
91.16762153387066
 20
177.5934310283112
 30
0.0
 40
13.31128567170236
100
AcDbArc
 50
246.8479794566142
 51
291.4894159480608
  0
ARC
  5
423E
102
{ACAD_REACTORS
330
4563
102
}
330
2
100
AcDbEntity
  8
KIJUN
100
AcDbCircle
 10
98.56678940890891
 20
168.5384231130268
 30
0.0
 40
13.02792930519796
100
AcDbArc
 50
128.5891224485493
 51
194.1474041219681
  0
ARC
  5
423F
102
{ACAD_REACTORS
330
4563
102
}
330
2
100
AcDbEntity
  8
KIJUN
100
AcDbCircle
 10
90.00815832275822
 20
181.0474974845044
 30
0.0
 40
2.365844718738028
100
AcDbArc
 50
95.06037290020456
 51
280.5385233170773
  0
ARC
  5
4240
102
{ACAD_REACTORS
330
4563
102
}
330
2
100
AcDbEntity
  8
KIJUN
100
AcDbCircle
 10
87.44330513543316
 20
206.3347899219203
 30
0.0
 40
23.05140199689386
100
AcDbArc
 50
275.8666690793709
 51
354.5097553613719
  0
ARC
  5
4241
102
{ACAD_REACTORS
330
4563
102
}
330
2
100
AcDbEntity
  8
KIJUN
100
AcDbCircle
 10
88.61286667185693
 20
201.9819378486563
 30
0.0
 40
20.86271837161528
100
AcDbArc
 50
273.2621389986154
 51
315.2852139059517
  0
ARC
  5
4242
102
{ACAD_REACTORS
330
4563
102
}
330
2
100
AcDbEntity
  8
KIJUN
100
AcDbCircle
 10
57.91827962679673
 20
196.0284869695133
 30
0.0
 40
53.09233128742636
100
AcDbArc
 50
324.7540285821246
 51
8.776474161187259
  0
ARC
  5
4243
102
{ACAD_REACTORS
330
4563
102
}
330
2
100
AcDbEntity
  8
KIJUN
100
AcDbCircle
 10
82.32393449121104
 20
188.3888324656662
 30
0.0
 40
21.25321666281568
100
AcDbArc
 50
297.7471327785309
 51
336.1505549453749
  0
ARC
  5
4244
102
{ACAD_REACTORS
330
4563
102
}
330
2
100
AcDbEntity
  8
KIJUN
100
AcDbCircle
 10
-179.0171324997526
 20
172.8969095242896
 30
0.0
 40
291.857817607639
100
AcDbArc
 50
356.1196269747491
 51
0.1229623357892223
  0
ARC
  5
4245
102
{ACAD_REACTORS
330
4563
102
}
330
2
100
AcDbEntity
  8
KIJUN
100
AcDbCircle
 10
-6.825382889466993
 20
251.9445419985122
 30
0.0
 40
7.710671109961749
100
AcDbArc
 50
327.5874573441163
 51
34.2919514515938
  0
ARC
  5
4246
102
{ACAD_REACTORS
330
4563
102
}
330
2
100
AcDbEntity
  8
KIJUN
100
AcDbCircle
 10
29.09290076382001
 20
242.14470757329
 30
0.0
 40
29.94985076103279
100
AcDbArc
 50
169.0932886343194
 51
198.9306790030434
  0
ARC
  5
4247
102
{ACAD_REACTORS
330
4563
102
}
330
2
100
AcDbEntity
  8
KIJUN
100
AcDbCircle
 10
-6.052087832482584
 20
229.7173250453324
 30
0.0
 40
7.334464244785115
100
AcDbArc
 50
308.9330428899661
 51
21.69192202010497
  0
ARC
  5
4248
102
{ACAD_REACTORS
330
4563
102
}
330
2
100
AcDbEntity
  8
KIJUN
100
AcDbCircle
 10
6.813719153207102
 20
221.5469297417651
 30
0.0
 40
8.61686199912329
100
AcDbArc
 50
163.3769723576289
 51
210.0722898024225
  0
ARC
  5
4249
102
{ACAD_REACTORS
330
4563
102
}
330
2
100
AcDbEntity
  8
KIJUN
100
AcDbCircle
 10
6.377579542150556
 20
213.3912679443562
 30
0.0
 40
8.001315346314617
100
AcDbArc
 50
151.3375522787994
 51
233.3141351055806
  0
ARC
  5
424A
102
{ACAD_REACTORS
330
4563
102
}
330
2
100
AcDbEntity
  8
KIJUN
100
AcDbCircle
 10
-17.01143003557286
 20
197.6460356814438
 30
0.0
 40
20.81619579704803
100
AcDbArc
 50
335.8615358095629
 51
26.62509743318072
  0
ARC
  5
424B
102
{ACAD_REACTORS
330
4563
102
}
330
2
100
AcDbEntity
  8
KIJUN
100
AcDbCircle
 10
37.18769979257962
 20
179.738980347475
 30
0.0
 40
36.43506061083467
100
AcDbArc
 50
165.0580692977494
 51
190.6220461602882
  0
ARC
  5
424C
102
{ACAD_REACTORS
330
4563
102
}
330
2
100
AcDbEntity
  8
KIJUN
100
AcDbCircle
 10
931.5888408935647
 20
338.2008676873805
 30
0.0
 40
944.7633958692602
100
AcDbArc
 50
190.0690708906551
 51
192.3341634562359
  0
ARC
  5
424D
102
{ACAD_REACTORS
330
4563
102
}
330
2
100
AcDbEntity
  8
KIJUN
100
AcDbCircle
 10
75.4110615767284
 20
142.1606317893296
 30
0.0
 40
8.240740840181443
100
AcDbArc
 50
95.82097653840197
 51
140.8079321410193
  0
ARC
  5
424E
102
{ACAD_REACTORS
330
4563
102
}
330
2
100
AcDbEntity
  8
KIJUN
100
AcDbCircle
 10
36.16931120116902
 20
138.7310999130812
 30
0.0
 40
40.1275942436144
100
AcDbArc
 50
356.6513717375929
 51
16.844198014305
  0
ARC
  5
424F
102
{ACAD_REACTORS
330
4563
102
}
330
2
100
AcDbEntity
  8
KIJUN
100
AcDbCircle
 10
72.73239772303856
 20
147.4104623574734
 30
0.0
 40
15.78130811226544
100
AcDbArc
 50
82.78654362491113
 51
113.1383376496304
  0
ARC
  5
4250
102
{ACAD_REACTORS
330
4563
102
}
330
2
100
AcDbEntity
  8
KIJUN
100
AcDbCircle
 10
14.29423997481626
 20
176.0846673300469
 30
0.0
 40
61.80623135448946
100
AcDbArc
 50
332.3142437561997
 51
347.8411469843862
  0
ARC
  5
4252
102
{ACAD_REACTORS
330
4563
102
}
330
2
100
AcDbEntity
  8
KIJUN
100
AcDbCircle
 10
71.97032959388417
 20
156.3913075006086
 30
0.0
 40
20.50150635165699
100
AcDbArc
 50
97.92672490176546
 51
134.8852102893525
  0
ARC
  5
4253
102
{ACAD_REACTORS
330
4563
102
}
330
2
100
AcDbEntity
  8
KIJUN
100
AcDbCircle
 10
54.33995833119837
 20
171.6957123510246
 30
0.0
 40
15.6250858657744
100
AcDbArc
 50
321.2814875696808
 51
18.66751983366495
  0
ARC
  5
4254
102
{ACAD_REACTORS
330
4563
102
}
330
2
100
AcDbEntity
  8
KIJUN
100
AcDbCircle
 10
49.48397991632806
 20
169.0999129485855
 30
0.0
 40
8.221990176063439
100
AcDbArc
 50
12.76851354723311
 51
67.52730958068356
  0
ARC
  5
4255
102
{ACAD_REACTORS
330
4563
102
}
330
2
100
AcDbEntity
  8
KIJUN
100
AcDbCircle
 10
74.77897617237596
 20
163.5652514028564
 30
0.0
 40
25.75222084972786
100
AcDbArc
 50
149.339645991007
 51
217.1734287982907
  0
ARC
  5
4256
102
{ACAD_REACTORS
330
4563
102
}
330
2
100
AcDbEntity
  8
KIJUN
100
AcDbCircle
 10
139.4949514669066
 20
147.625116704085
 30
0.0
 40
85.23645452986761
100
AcDbArc
 50
164.1414798213245
 51
184.4323013538748
  0
ARC
  5
4257
102
{ACAD_REACTORS
330
4563
102
}
330
2
100
AcDbEntity
  8
KIJUN
100
AcDbCircle
 10
120.6044863043358
 20
137.5893033964078
 30
0.0
 40
59.29609334910357
100
AcDbArc
 50
155.7722790021467
 51
176.7456465040351
  0
ARC
  5
4258
102
{ACAD_REACTORS
330
4563
102
}
330
2
100
AcDbEntity
  8
KIJUN
100
AcDbCircle
 10
80.44860298491853
 20
138.5919514416403
 30
0.0
 40
14.40617494225791
100
AcDbArc
 50
142.4686001270507
 51
170.3889822747389
  0
ARC
  5
425B
102
{ACAD_REACTORS
330
4563
102
}
330
2
100
AcDbEntity
  8
KIJUN
100
AcDbCircle
 10
70.1234835920921
 20
180.1495278226983
 30
0.0
 40
15.78130811226544
100
AcDbArc
 50
82.78654362491113
 51
113.1383376496304
  0
ARC
  5
425C
102
{ACAD_REACTORS
330
4563
102
}
330
2
100
AcDbEntity
  8
KIJUN
100
AcDbCircle
 10
-9.895320605844233
 20
215.0284278052237
 30
0.0
 40
84.22333760649269
100
AcDbArc
 50
333.004866704097
 51
346.8069700721428
  0
ARC
  5
425D
102
{ACAD_REACTORS
330
4563
102
}
330
2
100
AcDbEntity
  8
KIJUN
100
AcDbCircle
 10
69.36141546293772
 20
189.1303729658335
 30
0.0
 40
20.50150635165699
100
AcDbArc
 50
97.92672490176549
 51
134.8852102893525
  0
ARC
  5
425E
102
{ACAD_REACTORS
330
4563
102
}
330
2
100
AcDbEntity
  8
KIJUN
100
AcDbCircle
 10
51.73104420025191
 20
204.4347778162495
 30
0.0
 40
15.6250858657744
100
AcDbArc
 50
321.2814875696808
 51
18.66751983366495
  0
ARC
  5
425F
102
{ACAD_REACTORS
330
4563
102
}
330
2
100
AcDbEntity
  8
KIJUN
100
AcDbCircle
 10
46.87506578538159
 20
201.8389784138105
 30
0.0
 40
8.221990176063439
100
AcDbArc
 50
12.76851354723311
 51
67.52730958068356
  0
ARC
  5
4260
102
{ACAD_REACTORS
330
4563
102
}
330
2
100
AcDbEntity
  8
KIJUN
100
AcDbCircle
 10
72.17006204142951
 20
196.3043168680814
 30
0.0
 40
25.75222084972786
100
AcDbArc
 50
149.339645991007
 51
217.1734287982907
  0
ARC
  5
4261
102
{ACAD_REACTORS
330
4563
102
}
330
2
100
AcDbEntity
  8
KIJUN
100
AcDbCircle
 10
136.8860373359601
 20
180.36418216931
 30
0.0
 40
85.23645452986761
100
AcDbArc
 50
164.141479821323
 51
183.4719422793555
  0
ARC
  5
4262
102
{ACAD_REACTORS
330
4563
102
}
330
2
100
AcDbEntity
  8
KIJUN
100
AcDbCircle
 10
117.9955721733893
 20
170.3283688616328
 30
0.0
 40
59.29609334910357
100
AcDbArc
 50
155.7722790021467
 51
176.7456465040351
  0
ARC
  5
4266
102
{ACAD_REACTORS
330
4563
102
}
330
2
100
AcDbEntity
  8
KIJUN
100
AcDbCircle
 10
61.93038659038876
 20
216.0508501633078
 30
0.0
 40
15.78130811226544
100
AcDbArc
 50
82.78654362491113
 51
113.1383376496304
  0
ARC
  5
4267
102
{ACAD_REACTORS
330
4563
102
}
330
2
100
AcDbEntity
  8
KIJUN
100
AcDbCircle
 10
41.81654700082169
 20
227.0360416230996
 30
0.0
 40
22.58381372766401
100
AcDbArc
 50
314.5708942918417
 51
11.93716817546615
  0
ARC
  5
4268
102
{ACAD_REACTORS
330
4563
102
}
330
2
100
AcDbEntity
  8
KIJUN
100
AcDbCircle
 10
61.16831846123438
 20
225.031695306443
 30
0.0
 40
20.50150635165699
100
AcDbArc
 50
97.92672490176549
 51
134.8852102893525
  0
ARC
  5
4269
102
{ACAD_REACTORS
330
4563
102
}
330
2
100
AcDbEntity
  8
KIJUN
100
AcDbCircle
 10
43.53794719854858
 20
240.336100156859
 30
0.0
 40
15.6250858657744
100
AcDbArc
 50
321.2814875696808
 51
18.66751983366495
  0
ARC
  5
426A
102
{ACAD_REACTORS
330
4563
102
}
330
2
100
AcDbEntity
  8
KIJUN
100
AcDbCircle
 10
38.68196878367826
 20
237.7403007544199
 30
0.0
 40
8.221990176063439
100
AcDbArc
 50
12.7685135472346
 51
67.52730958068356
  0
ARC
  5
426B
102
{ACAD_REACTORS
330
4563
102
}
330
2
100
AcDbEntity
  8
KIJUN
100
AcDbCircle
 10
63.97696503972617
 20
232.2056392086909
 30
0.0
 40
25.75222084972786
100
AcDbArc
 50
149.339645991007
 51
217.1734287982907
  0
ARC
  5
426C
102
{ACAD_REACTORS
330
4563
102
}
330
2
100
AcDbEntity
  8
KIJUN
100
AcDbCircle
 10
128.6929403342568
 20
216.2655045099195
 30
0.0
 40
85.23645452986761
100
AcDbArc
 50
164.141479821323
 51
184.4323013538732
  0
ARC
  5
426D
102
{ACAD_REACTORS
330
4563
102
}
330
2
100
AcDbEntity
  8
KIJUN
100
AcDbCircle
 10
109.802475171686
 20
206.2296912022423
 30
0.0
 40
59.29609334910357
100
AcDbArc
 50
155.7722790021467
 51
176.7456465040351
  0
ARC
  5
4271
102
{ACAD_REACTORS
330
4563
102
}
330
2
100
AcDbEntity
  8
KIJUN
100
AcDbCircle
 10
53.2159416306684
 20
250.0442845254535
 30
0.0
 40
12.62504648981235
100
AcDbArc
 50
82.78654362491113
 51
113.1383376496313
  0
ARC
  5
4272
102
{ACAD_REACTORS
330
4563
102
}
330
2
100
AcDbEntity
  8
KIJUN
100
AcDbCircle
 10
17.20239682583207
 20
264.3993496087051
 30
0.0
 40
37.64332988875686
100
AcDbArc
 50
327.435791060504
 51
357.2136008964537
  0
ARC
  5
4273
102
{ACAD_REACTORS
330
4563
102
}
330
2
100
AcDbEntity
  8
KIJUN
100
AcDbCircle
 10
52.6062871273449
 20
257.2289606399617
 30
0.0
 40
16.40120508132559
100
AcDbArc
 50
97.92672490176553
 51
134.8852102893525
  0
ARC
  5
4274
102
{ACAD_REACTORS
330
4563
102
}
330
2
100
AcDbEntity
  8
KIJUN
100
AcDbCircle
 10
38.50199011719622
 20
269.4724845202945
 30
0.0
 40
12.50006869261952
100
AcDbArc
 50
321.2814875696808
 51
18.66751983366494
  0
ARC
  5
4275
102
{ACAD_REACTORS
330
4563
102
}
330
2
100
AcDbEntity
  8
KIJUN
100
AcDbCircle
 10
34.61720738529999
 20
267.3958449983433
 30
0.0
 40
6.577592140850751
100
AcDbArc
 50
12.7685135472331
 51
67.52730958068356
  0
ARC
  5
4276
102
{ACAD_REACTORS
330
4563
102
}
330
2
100
AcDbEntity
  8
KIJUN
100
AcDbCircle
 10
54.85320439013833
 20
262.96811576176
 30
0.0
 40
20.60177667978229
100
AcDbArc
 50
149.3396459910055
 51
217.1734287982907
  0
ARC
  5
4277
102
{ACAD_REACTORS
330
4563
102
}
330
2
100
AcDbEntity
  8
KIJUN
100
AcDbCircle
 10
106.6259846257628
 20
250.2160080027429
 30
0.0
 40
68.18916362389408
100
AcDbArc
 50
164.1414798213245
 51
184.4323013538732
  0
ARC
  5
4278
102
{ACAD_REACTORS
330
4563
102
}
330
2
100
AcDbEntity
  8
KIJUN
100
AcDbCircle
 10
91.51361249570618
 20
242.1873573566011
 30
0.0
 40
47.43687467928285
100
AcDbArc
 50
155.7722790021467
 51
176.7456465040351
  0
ARC
  5
427B
102
{ACAD_REACTORS
330
4563
102
}
330
2
100
AcDbEntity
  8
KIJUN
100
AcDbCircle
 10
10.63569641869821
 20
259.9594702007501
 30
0.0
 40
9.497217087124536
100
AcDbArc
 50
202.2945031712181
 51
312.2638834188904
  0
ARC
  5
427C
102
{ACAD_REACTORS
330
4563
102
}
330
2
100
AcDbEntity
  8
KIJUN
100
AcDbCircle
 10
336.6844247923625
 20
185.4456253803203
 30
0.0
 40
307.1328458883551
100
AcDbArc
 50
172.3258659976819
 51
189.1912440515703
  0
ARC
  5
427D
102
{ACAD_REACTORS
330
4563
102
}
330
2
100
AcDbEntity
  8
KIJUN
100
AcDbCircle
 10
297.4409986300234
 20
188.4068640120189
 30
0.0
 40
274.4999192262243
100
AcDbArc
 50
173.0598107255409
 51
190.9240176082804
  0
ARC
  5
427E
102
{ACAD_REACTORS
330
4563
102
}
330
2
100
AcDbEntity
  8
KIJUN
100
AcDbCircle
 10
-35.11202610322619
 20
237.3379964014671
 30
0.0
 40
68.28644723312944
100
AcDbArc
 50
350.833570742608
 51
18.42558975815952
  0
ARC
  5
427F
102
{ACAD_REACTORS
330
4563
102
}
330
2
100
AcDbEntity
  8
KIJUN
100
AcDbCircle
 10
-22.74935713812647
 20
230.3915242542642
 30
0.0
 40
48.50956265407241
100
AcDbArc
 50
349.5290676312009
 51
26.61449951792398
  0
ARC
  5
4280
102
{ACAD_REACTORS
330
4563
102
}
330
2
100
AcDbEntity
  8
KIJUN
100
AcDbCircle
 10
26.52752887618311
 20
257.4854949615057
 30
0.0
 40
3.458400953725182
100
AcDbArc
 50
24.53303726582986
 51
142.3605413402382
  0
ARC
  5
4281
102
{ACAD_REACTORS
330
4563
102
}
330
2
100
AcDbEntity
  8
KIJUN
100
AcDbCircle
 10
-44.33389404910019
 20
321.9695291377667
 30
0.0
 40
92.36334673423495
100
AcDbArc
 50
311.6285926003182
 51
317.5233452508667
  0
LINE
  5
4282
102
{ACAD_REACTORS
330
4563
102
}
330
2
100
AcDbEntity
  8
KIJUN
100
AcDbLine
 10
273.0359999730012
 20
360.3871940816255
 30
0.0
 11
143.0319196403099
 21
360.3871940816255
 31
0.0
  0
LINE
  5
4283
102
{ACAD_REACTORS
330
4563
102
}
330
2
100
AcDbEntity
  8
KIJUN
100
AcDbLine
 10
273.0359999730012
 20
355.3871940816255
 30
0.0
 11
143.0786314537376
 21
355.3871940816255
 31
0.0
  0
LINE
  5
4284
102
{ACAD_REACTORS
330
4563
102
}
330
2
100
AcDbEntity
  8
KIJUN
100
AcDbLine
 10
264.4176981100213
 20
331.3871940816255
 30
0.0
 11
114.8235790052587
 21
331.3871940816255
 31
0.0
  0
LINE
  5
4285
102
{ACAD_REACTORS
330
4563
102
}
330
2
100
AcDbEntity
  8
KIJUN
100
AcDbLine
 10
256.1896167481827
 20
360.3871940816255
 30
0.0
 11
256.1896167481827
 21
355.3871940816255
 31
0.0
  0
ARC
  5
4286
102
{ACAD_REACTORS
330
4563
102
}
330
2
100
AcDbEntity
  8
KIJUN
100
AcDbCircle
 10
61.0838653789699
 20
388.4135460349006
 30
0.0
 40
197.1084235164848
100
AcDbArc
 50
351.8255533134005
 51
359.701657088482
  0
ARC
  5
4287
102
{ACAD_REACTORS
330
4563
102
}
330
2
100
AcDbEntity
  8
KIJUN
100
AcDbCircle
 10
-103.7237466247672
 20
358.3627508888044
 30
0.0
 40
359.92566325943
100
AcDbArc
 50
355.7017897183433
 51
359.5263222208882
  0
LINE
  5
4288
102
{ACAD_REACTORS
330
4563
102
}
330
2
100
AcDbEntity
  8
KIJUN
100
AcDbLine
 10
273.0359999730012
 20
360.3871940816255
 30
0.0
 11
273.0359999730012
 21
355.3871940816255
 31
0.0
  0
LINE
  5
4289
102
{ACAD_REACTORS
330
4563
102
}
330
2
100
AcDbEntity
  8
KIJUN
100
AcDbLine
 10
264.4176981100213
 20
338.3891502835137
 30
0.0
 11
264.4176981100213
 21
331.3871940816255
 31
0.0
  0
ARC
  5
428A
102
{ACAD_REACTORS
330
4563
102
}
330
2
100
AcDbEntity
  8
KIJUN
100
AcDbCircle
 10
261.2185717376383
 20
387.3851734133955
 30
0.0
 40
29.47104507981748
100
AcDbArc
 50
293.6397301896287
 51
0.0039284579543635
  0
ARC
  5
428B
102
{ACAD_REACTORS
330
4563
102
}
330
2
100
AcDbEntity
  8
KIJUN
100
AcDbCircle
 10
284.5047025319975
 20
338.8885278855014
 30
0.0
 40
20.09321090910697
100
AcDbArc
 50
124.8042869136953
 51
181.4241215817356
  0
ARC
  5
428C
102
{ACAD_REACTORS
330
4563
102
}
330
2
100
AcDbEntity
  8
KIJUN
100
AcDbCircle
 10
103.1903851451835
 20
360.476781532362
 30
0.0
 40
24.37058973200931
100
AcDbArc
 50
19.92387906316042
 51
65.77637335292964
  0
ARC
  5
428D
102
{ACAD_REACTORS
330
4563
102
}
330
2
100
AcDbEntity
  8
KIJUN
100
AcDbCircle
 10
198.2266869139862
 20
280.6287744681239
 30
0.0
 40
113.8983945578476
100
AcDbArc
 50
129.289157991888
 51
135.340274004722
  0
ARC
  5
428E
102
{ACAD_REACTORS
330
4563
102
}
330
2
100
AcDbEntity
  8
KIJUN
100
AcDbCircle
 10
130.9292302537472
 20
356.356579021209
 30
0.0
 40
13.32966330433174
100
AcDbArc
 50
61.88936326947953
 51
111.2304056368941
  0
ARC
  5
428F
102
{ACAD_REACTORS
330
4563
102
}
330
2
100
AcDbEntity
  8
KIJUN
100
AcDbCircle
 10
136.2892274071785
 20
366.0580812982893
 30
0.0
 40
2.252507303394907
100
AcDbArc
 50
306.5213194249133
 51
65.87636541548682
  0
ARC
  5
4290
102
{ACAD_REACTORS
330
4563
102
}
330
2
100
AcDbEntity
  8
KIJUN
100
AcDbCircle
 10
137.1250688445489
 20
357.8317919398106
 30
0.0
 40
6.435912245344381
100
AcDbArc
 50
288.6111472890114
 51
85.50250902643666
  0
ARC
  5
4291
102
{ACAD_REACTORS
330
4563
102
}
330
2
100
AcDbEntity
  8
KIJUN
100
AcDbCircle
 10
137.8978359189524
 20
349.4860428474071
 30
0.0
 40
2.586077328587807
100
AcDbArc
 50
259.3689549924234
 51
60.30205754276292
  0
ARC
  5
4292
102
{ACAD_REACTORS
330
4563
102
}
330
2
100
AcDbEntity
  8
KIJUN
100
AcDbCircle
 10
165.5575463814242
 20
455.267761696037
 30
0.0
 40
111.9180063369799
100
AcDbArc
 50
245.6970154680328
 51
255.4393031429174
  0
ARC
  5
4293
102
{ACAD_REACTORS
330
4563
102
}
330
2
100
AcDbEntity
  8
KIJUN
100
AcDbCircle
 10
135.1135986769373
 20
345.0035910588909
 30
0.0
 40
3.014878326686317
100
AcDbArc
 50
244.1997560031932
 51
40.0704094712595
  0
ARC
  5
4294
102
{ACAD_REACTORS
330
4563
102
}
330
2
100
AcDbEntity
  8
KIJUN
100
AcDbCircle
 10
128.0168221974322
 20
339.0079543493316
 30
0.0
 40
6.650445183511711
100
AcDbArc
 50
216.1820088149015
 51
29.56391439058066
  0
ARC
  5
4295
102
{ACAD_REACTORS
330
4563
102
}
330
2
100
AcDbEntity
  8
KIJUN
100
AcDbCircle
 10
120.4973906015636
 20
334.3859266479666
 30
0.0
 40
2.261302538323807
100
AcDbArc
 50
204.8346122834655
 51
17.92386238361923
  0
ARC
  5
4296
102
{ACAD_REACTORS
330
4563
102
}
330
2
100
AcDbEntity
  8
KIJUN
100
AcDbCircle
 10
145.1596116292735
 20
351.1656701413626
 30
0.0
 40
32.06235203216019
100
AcDbArc
 50
184.3499023799221
 51
213.5709482705442
  0
ARC
  5
4297
102
{ACAD_REACTORS
330
4563
102
}
330
2
100
AcDbEntity
  8
KIJUN
100
AcDbCircle
 10
273.2237026672991
 20
308.1954671496511
 30
0.0
 40
24.80729558718689
100
AcDbArc
 50
110.7919981861784
 51
179.9265638565759
  0
ARC
  5
4298
102
{ACAD_REACTORS
330
4563
102
}
330
2
100
AcDbEntity
  8
KIJUN
100
AcDbCircle
 10
226.44844557126
 20
282.3732969157106
 30
0.0
 40
26.08733845853758
100
AcDbArc
 50
265.7844618329246
 51
348.6493331853198
  0
ARC
  5
4299
102
{ACAD_REACTORS
330
4563
102
}
330
2
100
AcDbEntity
  8
KIJUN
100
AcDbCircle
 10
162.8820880786108
 20
297.0628211100225
 30
0.0
 40
91.32108551713509
100
AcDbArc
 50
347.4624945439449
 51
14.44132962012431
  0
ARC
  5
429A
102
{ACAD_REACTORS
330
4563
102
}
330
2
100
AcDbEntity
  8
KIJUN
100
AcDbCircle
 10
215.0144780727087
 20
287.103909672018
 30
0.0
 40
6.833711591393732
100
AcDbArc
 50
136.8175881701368
 51
357.9783535439006
  0
ARC
  5
429B
102
{ACAD_REACTORS
330
4563
102
}
330
2
100
AcDbEntity
  8
KIJUN
100
AcDbCircle
 10
210.5298065530537
 20
294.1743978326544
 30
0.0
 40
9.092278193411729
100
AcDbArc
 50
48.82121050962374
 51
125.3546241333867
  0
ARC
  5
429C
102
{ACAD_REACTORS
330
4563
102
}
330
2
100
AcDbEntity
  8
KIJUN
100
AcDbCircle
 10
204.141489440945
 20
288.28003711727
 30
0.0
 40
17.75908437439543
100
AcDbArc
 50
355.422846647168
 51
45.82808354184904
  0
ARC
  5
429D
102
{ACAD_REACTORS
330
4563
102
}
330
2
100
AcDbEntity
  8
KIJUN
100
AcDbCircle
 10
208.2332885391779
 20
293.9422642290559
 30
0.0
 40
2.811983118652065
100
AcDbArc
 50
309.7526692583906
 51
138.7159450436578
  0
ARC
  5
429E
102
{ACAD_REACTORS
330
4563
102
}
330
2
100
AcDbEntity
  8
KIJUN
100
AcDbCircle
 10
220.6813671169803
 20
282.4726271405213
 30
0.0
 40
24.55650680128811
100
AcDbArc
 50
128.8763069425787
 51
236.4303747459734
  0
ARC
  5
429F
102
{ACAD_REACTORS
330
4563
102
}
330
2
100
AcDbEntity
  8
KIJUN
100
AcDbCircle
 10
218.3210925459852
 20
277.5383310126506
 30
0.0
 40
19.15522059225422
100
AcDbArc
 50
234.1511190851326
 51
325.9070888369396
  0
ARC
  5
42A0
102
{ACAD_REACTORS
330
4563
102
}
330
2
100
AcDbEntity
  8
KIJUN
100
AcDbCircle
 10
198.7897539092277
 20
291.9406171599529
 30
0.0
 40
43.41374800937845
100
AcDbArc
 50
324.6150231055776
 51
41.51252344694202
  0
ARC
  5
42A1
102
{ACAD_REACTORS
330
4563
102
}
330
2
100
AcDbEntity
  8
KIJUN
100
AcDbCircle
 10
206.205983469427
 20
294.6160351581043
 30
0.0
 40
36.20446818401677
100
AcDbArc
 50
46.12588361728611
 51
122.8946714695666
  0
ARC
  5
42A2
102
{ACAD_REACTORS
330
4563
102
}
330
2
100
AcDbEntity
  8
KIJUN
100
AcDbCircle
 10
217.5970058157523
 20
284.0302392463642
 30
0.0
 40
16.43736355135764
100
AcDbArc
 50
134.2837828039087
 51
250.8308725260611
  0
ARC
  5
42A3
102
{ACAD_REACTORS
330
4563
102
}
330
2
100
AcDbEntity
  8
KIJUN
100
AcDbCircle
 10
218.2384739952699
 20
281.2245784046991
 30
0.0
 40
14.0809577339785
100
AcDbArc
 50
244.6045660834068
 51
331.3637493856272
  0
ARC
  5
42A4
102
{ACAD_REACTORS
330
4563
102
}
330
2
100
AcDbEntity
  8
KIJUN
100
AcDbCircle
 10
201.0682493870113
 20
288.9250353648619
 30
0.0
 40
32.87423585554516
100
AcDbArc
 50
333.9270644544989
 51
46.07324316253234
  0
ARC
  5
42A5
102
{ACAD_REACTORS
330
4563
102
}
330
2
100
AcDbEntity
  8
KIJUN
100
AcDbCircle
 10
208.3592743440572
 20
293.7538580433196
 30
0.0
 40
24.41247144501026
100
AcDbArc
 50
50.53999069814441
 51
135.0331962143003
  0
ARC
  5
42A6
102
{ACAD_REACTORS
330
4563
102
}
330
2
100
AcDbEntity
  8
KIJUN
100
AcDbCircle
 10
246.9643489385866
 20
247.8613772820034
 30
0.0
 40
97.99742936464021
100
AcDbArc
 50
128.0650524332845
 51
164.1841646170876
  0
ARC
  5
42A7
102
{ACAD_REACTORS
330
4563
102
}
330
2
100
AcDbEntity
  8
KIJUN
100
AcDbCircle
 10
257.0241988020641
 20
232.4519597266485
 30
0.0
 40
102.5595282563663
100
AcDbArc
 50
130.0095929223118
 51
174.5248999855832
  0
ARC
  5
42A8
102
{ACAD_REACTORS
330
4563
102
}
330
2
100
AcDbEntity
  8
KIJUN
100
AcDbCircle
 10
130.8410963113388
 20
205.8134575754093
 30
0.0
 40
14.94601058719597
100
AcDbArc
 50
186.4699192299986
 51
342.0372207895365
  0
ARC
  5
42A9
102
{ACAD_REACTORS
330
4563
102
}
330
2
100
AcDbEntity
  8
KIJUN
100
AcDbCircle
 10
44.12250996380544
 20
247.197348145383
 30
0.0
 40
110.9210081658181
100
AcDbArc
 50
335.5028188327938
 51
357.4371506787161
  0
ARC
  5
42AA
102
{ACAD_REACTORS
330
4563
102
}
330
2
100
AcDbEntity
  8
KIJUN
100
AcDbCircle
 10
90.53996076740805
 20
377.1498199753149
 30
0.0
 40
29.66919238209055
100
AcDbArc
 50
332.6061209120039
 51
355.2333147120645
  0
ARC
  5
42AC
102
{ACAD_REACTORS
330
4563
102
}
330
2
100
AcDbEntity
  8
KIJUN
100
AcDbCircle
 10
152.541449861949
 20
227.3343822532226
 30
0.0
 40
137.7231521232002
100
AcDbArc
 50
96.21577418939304
 51
103.2480389781288
  0
ARC
  5
42AD
102
{ACAD_REACTORS
330
4563
102
}
330
2
100
AcDbEntity
  8
KIJUN
100
AcDbCircle
 10
158.6327535422201
 20
379.037702408048
 30
0.0
 40
49.6023871066415
100
AcDbArc
 50
216.3853031534456
 51
232.0983942880232
  0
ARC
  5
42AE
102
{ACAD_REACTORS
330
4563
102
}
330
2
100
AcDbEntity
  8
KIJUN
100
AcDbCircle
 10
376.5383745338635
 20
726.4103487970068
 30
0.0
 40
454.3899781309423
100
AcDbArc
 50
235.73067372695
 51
237.7100534123547
  0
ARC
  5
42AF
102
{ACAD_REACTORS
330
4563
102
}
330
2
100
AcDbEntity
  8
KIJUN
100
AcDbCircle
 10
163.9051637490058
 20
361.5894144209345
 30
0.0
 40
49.03801286022659
100
AcDbArc
 50
196.5320201922578
 51
212.721181306935
  0
ARC
  5
42B0
102
{ACAD_REACTORS
330
4563
102
}
330
2
100
AcDbEntity
  8
KIJUN
100
AcDbCircle
 10
151.7940272062446
 20
472.5706252547203
 30
0.0
 40
121.49487795183
100
AcDbArc
 50
255.5321985354592
 51
264.0401600248808
  0
ARC
  5
42B1
102
{ACAD_REACTORS
330
4563
102
}
330
2
100
AcDbEntity
  8
KIJUN
100
AcDbCircle
 10
132.9131981254172
 20
463.9694061507885
 30
0.0
 40
106.762720035003
100
AcDbArc
 50
263.5686394569246
 51
272.0998264658399
  0
ARC
  5
42B2
102
{ACAD_REACTORS
330
4563
102
}
330
2
100
AcDbEntity
  8
KIJUN
100
AcDbCircle
 10
129.6656904859694
 20
208.732218515822
 30
0.0
 40
9.835815385874793
100
AcDbArc
 50
207.9028312275855
 51
335.6978027999541
  0
ARC
  5
42B3
102
{ACAD_REACTORS
330
4563
102
}
330
2
100
AcDbEntity
  8
KIJUN
100
AcDbCircle
 10
50.84073652932215
 20
245.6887287837782
 30
0.0
 40
96.89327105382988
100
AcDbArc
 50
334.9637391201255
 51
1.853484565774205
  0
ARC
  5
42B4
102
{ACAD_REACTORS
330
4563
102
}
330
2
100
AcDbEntity
  8
KIJUN
100
AcDbCircle
 10
255.8173577533771
 20
241.2089602124054
 30
0.0
 40
108.401750001182
100
AcDbArc
 50
162.075977816754
 51
175.9724806189408
  0
ARC
  5
42B5
102
{ACAD_REACTORS
330
4563
102
}
330
2
100
AcDbEntity
  8
KIJUN
100
AcDbCircle
 10
122.8590443854612
 20
206.7611883694974
 30
0.0
 40
2.685696031822041
100
AcDbArc
 50
281.4902840297531
 51
78.50971597024353
  0
LINE
  5
42B6
102
{ACAD_REACTORS
330
4563
102
}
330
2
100
AcDbEntity
  8
KIJUN
100
AcDbLine
 10
187.1298388120051
 20
325.3871940816255
 30
0.0
 11
114.914346537253
 21
325.3871940816255
 31
0.0
  0
ARC
  5
42B7
102
{ACAD_REACTORS
330
4563
102
}
330
2
100
AcDbEntity
  8
KIJUN
100
AcDbCircle
 10
1454.593918051448
 20
348.654448705287
 30
0.0
 40
1339.881606512373
100
AcDbArc
 50
180.3250595987706
 51
181.7993784965953
  0
ARC
  5
42B8
102
{ACAD_REACTORS
330
4563
102
}
330
2
100
AcDbEntity
  8
KIJUN
100
AcDbCircle
 10
127.3890909057684
 20
303.3928058570432
 30
0.0
 40
11.21982976851789
100
AcDbArc
 50
76.46736869873191
 51
165.073220313717
  0
ARC
  5
42B9
102
{ACAD_REACTORS
330
4563
102
}
330
2
100
AcDbEntity
  8
KIJUN
100
AcDbCircle
 10
114.9417448236655
 20
302.4354158413055
 30
0.0
 40
4.169226036602508
100
AcDbArc
 50
67.34183672384233
 51
99.36974982047727
  0
ARC
  5
42BA
102
{ACAD_REACTORS
330
4563
102
}
330
2
100
AcDbEntity
  8
KIJUN
100
AcDbCircle
 10
158.3739629742499
 20
306.7271649805697
 30
0.0
 40
44.11134899601169
100
AcDbArc
 50
180.2313950539785
 51
207.9821294704094
  0
ARC
  5
42BB
102
{ACAD_REACTORS
330
4563
102
}
330
2
100
AcDbEntity
  8
KIJUN
100
AcDbCircle
 10
146.1774044477719
 20
299.7473693659894
 30
0.0
 40
21.7497347130996
100
AcDbArc
 50
137.9987422193463
 51
177.0329561725681
  0
ARC
  5
42BC
102
{ACAD_REACTORS
330
4563
102
}
330
2
100
AcDbEntity
  8
KIJUN
100
AcDbCircle
 10
112.8547692282606
 20
262.2379749681363
 30
0.0
 40
13.96149139884682
100
AcDbArc
 50
271.37429368289
 51
342.4350234956074
  0
ARC
  5
42BD
102
{ACAD_REACTORS
330
4563
102
}
330
2
100
AcDbEntity
  8
KIJUN
100
AcDbCircle
 10
223.9868484010033
 20
295.4491176243024
 30
0.0
 40
99.67770927048917
100
AcDbArc
 50
176.8806582630967
 51
190.5320466973636
  0
ARC
  5
42BE
102
{ACAD_REACTORS
330
4563
102
}
330
2
100
AcDbEntity
  8
KIJUN
100
AcDbCircle
 10
80.66613353003862
 20
267.2087809762278
 30
0.0
 40
46.41685828762483
100
AcDbArc
 50
348.5879461875711
 51
12.46745108442392
  0
ARC
  5
42BF
102
{ACAD_REACTORS
330
4563
102
}
330
2
100
AcDbEntity
  8
KIJUN
100
AcDbCircle
 10
106.7679636193471
 20
272.640481846792
 30
0.0
 40
18.421407099048
100
AcDbArc
 50
46.62390774898255
 51
63.67591855368385
  0
ARC
  5
42C0
102
{ACAD_REACTORS
330
4563
102
}
330
2
100
AcDbEntity
  8
KIJUN
100
AcDbCircle
 10
-550.3005195855775
 20
-35.42840164131977
 30
0.0
 40
737.0588695195976
100
AcDbArc
 50
25.00038272550289
 51
25.81746225796703
  0
ARC
  5
42C1
102
{ACAD_REACTORS
330
4563
102
}
330
2
100
AcDbEntity
  8
KIJUN
100
AcDbCircle
 10
103.9836484867215
 20
268.4081477901394
 30
0.0
 40
15.71115138445007
100
AcDbArc
 50
322.2847639648771
 51
29.19003233998343
  0
ARC
  5
42C2
102
{ACAD_REACTORS
330
4563
102
}
330
2
100
AcDbEntity
  8
KIJUN
100
AcDbCircle
 10
133.6976344893573
 20
240.0239174718353
 30
0.0
 40
4.779405053894012
100
AcDbArc
 50
193.8964558990804
 51
321.8597735017739
  0
ARC
  5
42C3
102
{ACAD_REACTORS
330
4563
102
}
330
2
100
AcDbEntity
  8
KIJUN
100
AcDbCircle
 10
115.0453026029902
 20
235.7006409006348
 30
0.0
 40
14.3680971247709
100
AcDbArc
 50
12.76804840145583
 51
75.05375662608227
  0
ARC
  5
42C4
102
{ACAD_REACTORS
330
4563
102
}
330
2
100
AcDbEntity
  8
KIJUN
100
AcDbCircle
 10
132.4737691440752
 20
234.4927119745201
 30
0.0
 40
5.610959935791495
100
AcDbArc
 50
195.8634412806429
 51
27.36939460750865
  0
ARC
  5
42C5
102
{ACAD_REACTORS
330
4563
102
}
330
2
100
AcDbEntity
  8
KIJUN
100
AcDbCircle
 10
124.7688221118566
 20
233.4768663331439
 30
0.0
 40
2.365073027884885
100
AcDbArc
 50
179.509450372662
 51
347.3513326803975
  0
ARC
  5
42C6
102
{ACAD_REACTORS
330
4563
102
}
330
2
100
AcDbEntity
  8
KIJUN
100
AcDbCircle
 10
118.1654853000815
 20
235.0415636757757
 30
0.0
 40
4.51097948774735
100
AcDbArc
 50
255.988157418356
 51
339.9783358150809
  0
ARC
  5
42C7
102
{ACAD_REACTORS
330
4563
102
}
330
2
100
AcDbEntity
  8
KIJUN
100
AcDbCircle
 10
106.4299997811284
 20
230.8681252499699
 30
0.0
 40
10.64521799459185
100
AcDbArc
 50
309.4193124106512
 51
358.9056035965115
  0
ARC
  5
42C8
102
{ACAD_REACTORS
330
4563
102
}
330
2
100
AcDbEntity
  8
KIJUN
100
AcDbCircle
 10
115.762200599685
 20
231.9552123895951
 30
0.0
 40
6.818268240685758
100
AcDbArc
 50
13.07009219455968
 51
70.52990487418599
  0
ARC
  5
42C9
102
{ACAD_REACTORS
330
4563
102
}
330
2
100
AcDbEntity
  8
KIJUN
100
AcDbCircle
 10
118.1607620364659
 20
239.3623600241749
 30
0.0
 40
0.9868461063722062
100
AcDbArc
 50
108.9916159926332
 51
262.6684830642999
  0
ARC
  5
42CA
102
{ACAD_REACTORS
330
4563
102
}
330
2
100
AcDbEntity
  8
KIJUN
100
AcDbCircle
 10
118.4113611246394
 20
237.7432793580178
 30
0.0
 40
2.615466836050044
100
AcDbArc
 50
356.4471435223591
 51
102.6269783817161
  0
ARC
  5
42CB
102
{ACAD_REACTORS
330
4563
102
}
330
2
100
AcDbEntity
  8
KIJUN
100
AcDbCircle
 10
-1284.802650349752
 20
208.1114366195949
 30
0.0
 40
1399.96033311516
100
AcDbArc
 50
0.0524526038391811
 51
0.6763063113915128
  0
ARC
  5
42CC
102
{ACAD_REACTORS
330
4563
102
}
330
2
100
AcDbEntity
  8
KIJUN
100
AcDbCircle
 10
127.6623584172279
 20
214.3257326442619
 30
0.0
 40
8.892814711704529
100
AcDbArc
 50
27.39920353515346
 51
132.9058460014743
  0
ARC
  5
42CD
102
{ACAD_REACTORS
330
4563
102
}
330
2
100
AcDbEntity
  8
KIJUN
100
AcDbCircle
 10
135.0284796703455
 20
205.7348631105476
 30
0.0
 40
20.20530330031589
100
AcDbArc
 50
131.620783566347
 51
169.5690004604573
  0
ARC
  5
42CE
102
{ACAD_REACTORS
330
4563
102
}
330
2
100
AcDbEntity
  8
KIJUN
100
AcDbCircle
 10
130.4662123674897
 20
215.7172623388046
 30
0.0
 40
5.763388788249835
100
AcDbArc
 50
257.4942474787383
 51
27.94467302336153
  0
ARC
  5
42CF
102
{ACAD_REACTORS
330
4563
102
}
330
2
100
AcDbEntity
  8
KIJUN
100
AcDbCircle
 10
144.1248136625892
 20
199.8124476930877
 30
0.0
 40
28.03101428881419
100
AcDbArc
 50
149.1195613845723
 51
160.0142690558785
  0
ARC
  5
42D0
102
{ACAD_REACTORS
330
4563
102
}
330
2
100
AcDbEntity
  8
KIJUN
100
AcDbCircle
 10
122.6297845440288
 20
212.5257658560398
 30
0.0
 40
3.060429068570107
100
AcDbArc
 50
29.53767935097547
 51
146.8498117044381
  0
ARC
  5
42D1
102
{ACAD_REACTORS
330
4563
102
}
330
2
100
AcDbEntity
  8
KIJUN
100
AcDbCircle
 10
130.2011427670022
 20
214.9948172053972
 30
0.0
 40
5.001733825345681
100
AcDbArc
 50
191.0688211656602
 51
258.6666994386789
  0
ARC
  5
42D2
102
{ACAD_REACTORS
330
4563
102
}
330
2
100
AcDbEntity
  8
KIJUN
100
AcDbCircle
 10
224.6552111634283
 20
125.8871940816255
 30
0.0
 40
13.53093044417455
100
AcDbArc
 50
309.1042294016081
 51
50.89577059839193
  0
ARC
  5
42D3
102
{ACAD_REACTORS
330
4563
102
}
330
2
100
AcDbEntity
  8
KIJUN
100
AcDbCircle
 10
225.1225051190092
 20
100.1783045451588
 30
0.0
 40
17.21594060660035
100
AcDbArc
 50
40.6227934882522
 51
62.05759000356774
  0
ARC
  5
42D4
102
{ACAD_REACTORS
330
4563
102
}
330
2
100
AcDbEntity
  8
KIJUN
100
AcDbCircle
 10
254.868402289439
 20
90.47730695464847
 30
0.0
 40
26.74706090010896
100
AcDbArc
 50
128.5776369970437
 51
175.9052818008366
  0
LINE
  5
42D5
102
{ACAD_REACTORS
330
4563
102
}
330
2
100
AcDbEntity
  8
KIJUN
  6
DASHED
100
AcDbLine
 10
193.1896167481827
 20
87.38719408162552
 30
0.0
 11
193.1896167481827
 21
57.38719408162555
 31
0.0
  0
ARC
  5
42D6
102
{ACAD_REACTORS
330
4563
102
}
330
2
100
AcDbEntity
  8
KIJUN
100
AcDbCircle
 10
118.5929639714956
 20
163.9293407026617
 30
0.0
 40
6.670224712496612
100
AcDbArc
 50
288.8821922519822
 51
12.64530506309524
  0
ARC
  5
42D7
102
{ACAD_REACTORS
330
4563
102
}
330
2
100
AcDbEntity
  8
KIJUN
100
AcDbCircle
 10
108.5707119980282
 20
156.2634543899632
 30
0.0
 40
12.25598296118741
100
AcDbArc
 50
292.1398994018275
 51
6.345677463708833
  0
ARC
  5
42D8
102
{ACAD_REACTORS
330
4563
102
}
330
2
100
AcDbEntity
  8
KIJUN
100
AcDbCircle
 10
127.8384503061958
 20
168.7509844919685
 30
0.0
 40
4.334823841683477
100
AcDbArc
 50
230.8457104242375
 51
305.1695074160734
  0
ARC
  5
42D9
102
{ACAD_REACTORS
330
4563
102
}
330
2
100
AcDbEntity
  8
KIJUN
100
AcDbCircle
 10
135.2116119624948
 20
177.5934310283112
 30
0.0
 40
13.31128567170236
100
AcDbArc
 50
248.5105840519393
 51
293.1520205433822
  0
ARC
  5
42DA
102
{ACAD_REACTORS
330
4563
102
}
330
2
100
AcDbEntity
  8
KIJUN
100
AcDbCircle
 10
127.8124440874566
 20
168.5384231130268
 30
0.0
 40
13.02792930519796
100
AcDbArc
 50
345.8525958780318
 51
51.41087755145166
  0
ARC
  5
42DB
102
{ACAD_REACTORS
330
4563
102
}
330
2
100
AcDbEntity
  8
KIJUN
100
AcDbCircle
 10
136.3710751736072
 20
181.0474974845044
 30
0.0
 40
2.365844718738028
100
AcDbArc
 50
259.4614766829261
 51
84.93962709979212
  0
ARC
  5
42DC
102
{ACAD_REACTORS
330
4563
102
}
330
2
100
AcDbEntity
  8
KIJUN
100
AcDbCircle
 10
138.9359283609323
 20
206.3347899219203
 30
0.0
 40
23.05140199689386
100
AcDbArc
 50
185.4902446386278
 51
264.1333309206291
  0
ARC
  5
42DD
102
{ACAD_REACTORS
330
4563
102
}
330
2
100
AcDbEntity
  8
KIJUN
100
AcDbCircle
 10
137.7663668245086
 20
201.9819378486563
 30
0.0
 40
20.86271837161528
100
AcDbArc
 50
224.7147860940469
 51
266.7378610013878
  0
ARC
  5
42DE
102
{ACAD_REACTORS
330
4563
102
}
330
2
100
AcDbEntity
  8
KIJUN
100
AcDbCircle
 10
168.4609538695688
 20
196.0284869695133
 30
0.0
 40
53.09233128742636
100
AcDbArc
 50
171.223525838811
 51
215.2459714178753
  0
ARC
  5
42DF
102
{ACAD_REACTORS
330
4563
102
}
330
2
100
AcDbEntity
  8
KIJUN
100
AcDbCircle
 10
144.0552990051544
 20
188.3888324656662
 30
0.0
 40
21.25321666281568
100
AcDbArc
 50
203.8494450546251
 51
242.252867221469
  0
ARC
  5
42E1
102
{ACAD_REACTORS
330
4563
102
}
330
2
100
AcDbEntity
  8
KIJUN
100
AcDbCircle
 10
233.2046163858324
 20
251.9445419985122
 30
0.0
 40
7.710671109961749
100
AcDbArc
 50
145.7080485484075
 51
212.4125426558853
  0
ARC
  5
42E2
102
{ACAD_REACTORS
330
4563
102
}
330
2
100
AcDbEntity
  8
KIJUN
100
AcDbCircle
 10
197.2863327325454
 20
242.14470757329
 30
0.0
 40
29.94985076103279
100
AcDbArc
 50
341.0693209969566
 51
10.90671136568057
  0
ARC
  5
42E3
102
{ACAD_REACTORS
330
4563
102
}
330
2
100
AcDbEntity
  8
KIJUN
100
AcDbCircle
 10
232.4313213288481
 20
229.7173250453324
 30
0.0
 40
7.334464244785115
100
AcDbArc
 50
158.308077979895
 51
231.0669571100338
  0
ARC
  5
42E4
102
{ACAD_REACTORS
330
4563
102
}
330
2
100
AcDbEntity
  8
KIJUN
100
AcDbCircle
 10
219.5655143431584
 20
221.5469297417651
 30
0.0
 40
8.61686199912329
100
AcDbArc
 50
329.927710197579
 51
16.62302764237107
  0
ARC
  5
42E5
102
{ACAD_REACTORS
330
4563
102
}
330
2
100
AcDbEntity
  8
KIJUN
100
AcDbCircle
 10
220.0016539542149
 20
213.3912679443562
 30
0.0
 40
8.001315346314617
100
AcDbArc
 50
306.6858648944229
 51
28.66244772120059
  0
ARC
  5
42E6
102
{ACAD_REACTORS
330
4563
102
}
330
2
100
AcDbEntity
  8
KIJUN
100
AcDbCircle
 10
243.3906635319384
 20
197.6460356814438
 30
0.0
 40
20.81619579704803
100
AcDbArc
 50
153.3749025668207
 51
204.1384641904369
  0
ARC
  5
42E7
102
{ACAD_REACTORS
330
4563
102
}
330
2
100
AcDbEntity
  8
KIJUN
100
AcDbCircle
 10
189.1915337037858
 20
179.738980347475
 30
0.0
 40
36.43506061083467
100
AcDbArc
 50
349.3779538397116
 51
14.94193070225038
  0
ARC
  5
42E8
102
{ACAD_REACTORS
330
4563
102
}
330
2
100
AcDbEntity
  8
KIJUN
100
AcDbCircle
 10
-705.2096073971993
 20
338.2008676873805
 30
0.0
 40
944.7633958692602
100
AcDbArc
 50
347.6658365437641
 51
349.9309291093449
  0
ARC
  5
42E9
102
{ACAD_REACTORS
330
4563
102
}
330
2
100
AcDbEntity
  8
KIJUN
100
AcDbCircle
 10
150.9681719196371
 20
142.1606317893296
 30
0.0
 40
8.240740840181443
100
AcDbArc
 50
39.19206785898067
 51
84.17902346159804
  0
ARC
  5
42EA
102
{ACAD_REACTORS
330
4563
102
}
330
2
100
AcDbEntity
  8
KIJUN
100
AcDbCircle
 10
190.2099222951965
 20
138.7310999130812
 30
0.0
 40
40.1275942436144
100
AcDbArc
 50
163.155801985695
 51
183.348628262407
  0
ARC
  5
42EB
102
{ACAD_REACTORS
330
4563
102
}
330
2
100
AcDbEntity
  8
KIJUN
100
AcDbCircle
 10
153.646835773327
 20
147.4104623574734
 30
0.0
 40
15.78130811226544
100
AcDbArc
 50
66.86166235036956
 51
97.21345637508886
  0
ARC
  5
42EC
102
{ACAD_REACTORS
330
4563
102
}
330
2
100
AcDbEntity
  8
KIJUN
100
AcDbCircle
 10
212.0849935215492
 20
176.0846673300469
 30
0.0
 40
61.80623135448946
100
AcDbArc
 50
192.1588530156137
 51
207.6857562438034
  0
ARC
  5
42ED
102
{ACAD_REACTORS
330
4563
102
}
330
2
100
AcDbEntity
  8
KIJUN
100
AcDbCircle
 10
154.4089039024813
 20
156.3913075006086
 30
0.0
 40
20.50150635165699
100
AcDbArc
 50
45.11478971065094
 51
82.07327509823448
  0
ARC
  5
42EE
102
{ACAD_REACTORS
330
4563
102
}
330
2
100
AcDbEntity
  8
KIJUN
100
AcDbCircle
 10
172.039275165167
 20
171.6957123510246
 30
0.0
 40
15.6250858657744
100
AcDbArc
 50
161.332480166335
 51
218.7185124303205
  0
ARC
  5
42EF
102
{ACAD_REACTORS
330
4563
102
}
330
2
100
AcDbEntity
  8
KIJUN
100
AcDbCircle
 10
176.8952535800374
 20
169.0999129485855
 30
0.0
 40
8.221990176063439
100
AcDbArc
 50
112.472690419317
 51
167.2314864527654
  0
ARC
  5
42F0
102
{ACAD_REACTORS
330
4563
102
}
330
2
100
AcDbEntity
  8
KIJUN
100
AcDbCircle
 10
151.6002573239896
 20
163.5652514028564
 30
0.0
 40
25.75222084972786
100
AcDbArc
 50
322.8265712017093
 51
30.66035400899299
  0
ARC
  5
42F1
102
{ACAD_REACTORS
330
4563
102
}
330
2
100
AcDbEntity
  8
KIJUN
100
AcDbCircle
 10
86.88428202945885
 20
147.625116704085
 30
0.0
 40
85.23645452986761
100
AcDbArc
 50
355.5676986461251
 51
15.85852017867543
  0
ARC
  5
42F2
102
{ACAD_REACTORS
330
4563
102
}
330
2
100
AcDbEntity
  8
KIJUN
100
AcDbCircle
 10
105.7747471920297
 20
137.5893033964078
 30
0.0
 40
59.29609334910357
100
AcDbArc
 50
3.254353495964853
 51
24.22772099785183
  0
ARC
  5
42F3
102
{ACAD_REACTORS
330
4563
102
}
330
2
100
AcDbEntity
  8
KIJUN
100
AcDbCircle
 10
145.9306305114469
 20
138.5919514416403
 30
0.0
 40
14.40617494225791
100
AcDbArc
 50
9.611017725261049
 51
37.5313998729491
  0
ARC
  5
42F4
102
{ACAD_REACTORS
330
4563
102
}
330
2
100
AcDbEntity
  8
KIJUN
100
AcDbCircle
 10
156.2557499042734
 20
180.1495278226983
 30
0.0
 40
15.78130811226544
100
AcDbArc
 50
66.86166235036956
 51
97.21345637508886
  0
ARC
  5
42F5
102
{ACAD_REACTORS
330
4563
102
}
330
2
100
AcDbEntity
  8
KIJUN
100
AcDbCircle
 10
236.2745541022098
 20
215.0284278052237
 30
0.0
 40
84.22333760649269
100
AcDbArc
 50
193.1930299278571
 51
206.9951332959029
  0
ARC
  5
42F6
102
{ACAD_REACTORS
330
4563
102
}
330
2
100
AcDbEntity
  8
KIJUN
100
AcDbCircle
 10
157.0178180334278
 20
189.1303729658335
 30
0.0
 40
20.50150635165699
100
AcDbArc
 50
45.11478971065094
 51
82.07327509823448
  0
ARC
  5
42F7
102
{ACAD_REACTORS
330
4563
102
}
330
2
100
AcDbEntity
  8
KIJUN
100
AcDbCircle
 10
174.6481892961135
 20
204.4347778162495
 30
0.0
 40
15.6250858657744
100
AcDbArc
 50
161.332480166335
 51
218.7185124303205
  0
ARC
  5
42F8
102
{ACAD_REACTORS
330
4563
102
}
330
2
100
AcDbEntity
  8
KIJUN
100
AcDbCircle
 10
179.5041677109839
 20
201.8389784138105
 30
0.0
 40
8.221990176063439
100
AcDbArc
 50
112.472690419317
 51
167.2314864527669
  0
ARC
  5
42F9
102
{ACAD_REACTORS
330
4563
102
}
330
2
100
AcDbEntity
  8
KIJUN
100
AcDbCircle
 10
154.209171454936
 20
196.3043168680814
 30
0.0
 40
25.75222084972786
100
AcDbArc
 50
322.8265712017093
 51
30.66035400899299
  0
ARC
  5
42FA
102
{ACAD_REACTORS
330
4563
102
}
330
2
100
AcDbEntity
  8
KIJUN
100
AcDbCircle
 10
89.49319616040531
 20
180.36418216931
 30
0.0
 40
85.23645452986761
100
AcDbArc
 50
356.5280577206446
 51
15.85852017867543
  0
ARC
  5
42FB
102
{ACAD_REACTORS
330
4563
102
}
330
2
100
AcDbEntity
  8
KIJUN
100
AcDbCircle
 10
108.3836613229761
 20
170.3283688616328
 30
0.0
 40
59.29609334910357
100
AcDbArc
 50
3.254353495964853
 51
24.22772099785183
  0
ARC
  5
42FC
102
{ACAD_REACTORS
330
4563
102
}
330
2
100
AcDbEntity
  8
KIJUN
100
AcDbCircle
 10
164.4488469059768
 20
216.0508501633078
 30
0.0
 40
15.78130811226544
100
AcDbArc
 50
66.86166235036956
 51
97.21345637508886
  0
ARC
  5
42FD
102
{ACAD_REACTORS
330
4563
102
}
330
2
100
AcDbEntity
  8
KIJUN
100
AcDbCircle
 10
184.5626864955438
 20
227.0360416230996
 30
0.0
 40
22.58381372766401
100
AcDbArc
 50
168.0628318245338
 51
225.4291057081569
  0
ARC
  5
42FE
102
{ACAD_REACTORS
330
4563
102
}
330
2
100
AcDbEntity
  8
KIJUN
100
AcDbCircle
 10
165.2109150351311
 20
225.031695306443
 30
0.0
 40
20.50150635165699
100
AcDbArc
 50
45.11478971065094
 51
82.07327509823448
  0
ARC
  5
42FF
102
{ACAD_REACTORS
330
4563
102
}
330
2
100
AcDbEntity
  8
KIJUN
100
AcDbCircle
 10
182.8412862978168
 20
240.336100156859
 30
0.0
 40
15.6250858657744
100
AcDbArc
 50
161.332480166335
 51
218.7185124303205
  0
ARC
  5
4300
102
{ACAD_REACTORS
330
4563
102
}
330
2
100
AcDbEntity
  8
KIJUN
100
AcDbCircle
 10
187.6972647126872
 20
237.7403007544199
 30
0.0
 40
8.221990176063439
100
AcDbArc
 50
112.472690419317
 51
167.2314864527654
  0
ARC
  5
4301
102
{ACAD_REACTORS
330
4563
102
}
330
2
100
AcDbEntity
  8
KIJUN
100
AcDbCircle
 10
162.4022684566394
 20
232.2056392086909
 30
0.0
 40
25.75222084972786
100
AcDbArc
 50
322.8265712017093
 51
30.66035400899446
  0
ARC
  5
4302
102
{ACAD_REACTORS
330
4563
102
}
330
2
100
AcDbEntity
  8
KIJUN
100
AcDbCircle
 10
97.68629316210866
 20
216.2655045099195
 30
0.0
 40
85.23645452986761
100
AcDbArc
 50
355.5676986461251
 51
15.85852017867543
  0
ARC
  5
4303
102
{ACAD_REACTORS
330
4563
102
}
330
2
100
AcDbEntity
  8
KIJUN
100
AcDbCircle
 10
116.5767583246795
 20
206.2296912022423
 30
0.0
 40
59.29609334910357
100
AcDbArc
 50
3.254353495964853
 51
24.22772099785183
  0
ARC
  5
4304
102
{ACAD_REACTORS
330
4563
102
}
330
2
100
AcDbEntity
  8
KIJUN
100
AcDbCircle
 10
173.1632918656971
 20
250.0442845254535
 30
0.0
 40
12.62504648981235
100
AcDbArc
 50
66.86166235036956
 51
97.21345637508887
  0
ARC
  5
4305
102
{ACAD_REACTORS
330
4563
102
}
330
2
100
AcDbEntity
  8
KIJUN
100
AcDbCircle
 10
209.1768366705335
 20
264.3993496087051
 30
0.0
 40
37.64332988875686
100
AcDbArc
 50
182.7863991035463
 51
212.564208939496
  0
ARC
  5
4306
102
{ACAD_REACTORS
330
4563
102
}
330
2
100
AcDbEntity
  8
KIJUN
100
AcDbCircle
 10
173.7729463690206
 20
257.2289606399617
 30
0.0
 40
16.40120508132559
100
AcDbArc
 50
45.11478971065094
 51
82.07327509823448
  0
ARC
  5
4307
102
{ACAD_REACTORS
330
4563
102
}
330
2
100
AcDbEntity
  8
KIJUN
100
AcDbCircle
 10
187.8772433791692
 20
269.4724845202945
 30
0.0
 40
12.50006869261952
100
AcDbArc
 50
161.332480166335
 51
218.7185124303205
  0
ARC
  5
4308
102
{ACAD_REACTORS
330
4563
102
}
330
2
100
AcDbEntity
  8
KIJUN
100
AcDbCircle
 10
191.7620261110655
 20
267.3958449983433
 30
0.0
 40
6.577592140850751
100
AcDbArc
 50
112.472690419317
 51
167.2314864527654
  0
ARC
  5
4309
102
{ACAD_REACTORS
330
4563
102
}
330
2
100
AcDbEntity
  8
KIJUN
100
AcDbCircle
 10
171.5260291062271
 20
262.96811576176
 30
0.0
 40
20.60177667978229
100
AcDbArc
 50
322.8265712017093
 51
30.66035400899445
  0
ARC
  5
430A
102
{ACAD_REACTORS
330
4563
102
}
330
2
100
AcDbEntity
  8
KIJUN
100
AcDbCircle
 10
119.7532488706026
 20
250.2160080027429
 30
0.0
 40
68.18916362389408
100
AcDbArc
 50
355.5676986461251
 51
15.85852017867543
  0
ARC
  5
430B
102
{ACAD_REACTORS
330
4563
102
}
330
2
100
AcDbEntity
  8
KIJUN
100
AcDbCircle
 10
134.8656210006593
 20
242.1873573566011
 30
0.0
 40
47.43687467928285
100
AcDbArc
 50
3.254353495964864
 51
24.22772099785183
  0
ARC
  5
430C
102
{ACAD_REACTORS
330
4563
102
}
330
2
100
AcDbEntity
  8
KIJUN
100
AcDbCircle
 10
215.7435370776673
 20
259.9594702007501
 30
0.0
 40
9.497217087124536
100
AcDbArc
 50
227.7361165811131
 51
337.7054968287819
  0
ARC
  5
430D
102
{ACAD_REACTORS
330
4563
102
}
330
2
100
AcDbEntity
  8
KIJUN
100
AcDbCircle
 10
-110.305191295997
 20
185.4456253803203
 30
0.0
 40
307.1328458883551
100
AcDbArc
 50
350.8087559484296
 51
7.674134002318073
  0
ARC
  5
430E
102
{ACAD_REACTORS
330
4563
102
}
330
2
100
AcDbEntity
  8
KIJUN
100
AcDbCircle
 10
-71.0617651336579
 20
188.4068640120189
 30
0.0
 40
274.4999192262243
100
AcDbArc
 50
349.0759823917195
 51
6.940189274459107
  0
ARC
  5
430F
102
{ACAD_REACTORS
330
4563
102
}
330
2
100
AcDbEntity
  8
KIJUN
100
AcDbCircle
 10
261.4912595995917
 20
237.3379964014671
 30
0.0
 40
68.28644723312944
100
AcDbArc
 50
161.5744102418404
 51
189.166429257392
  0
ARC
  5
4310
102
{ACAD_REACTORS
330
4563
102
}
330
2
100
AcDbEntity
  8
KIJUN
100
AcDbCircle
 10
249.1285906344919
 20
230.3915242542642
 30
0.0
 40
48.50956265407241
100
AcDbArc
 50
153.385500482076
 51
190.470932368799
  0
ARC
  5
4311
102
{ACAD_REACTORS
330
4563
102
}
330
2
100
AcDbEntity
  8
KIJUN
100
AcDbCircle
 10
199.8517046201823
 20
257.4854949615057
 30
0.0
 40
3.458400953725182
100
AcDbArc
 50
37.63945865976511
 51
155.4669627341672
  0
ARC
  5
4312
102
{ACAD_REACTORS
330
4563
102
}
330
2
100
AcDbEntity
  8
KIJUN
100
AcDbCircle
 10
270.7131275454657
 20
321.9695291377667
 30
0.0
 40
92.36334673423495
100
AcDbArc
 50
222.4766547491344
 51
228.3714073996817
  0
ARC
  5
4314
102
{ACAD_REACTORS
330
4563
102
}
330
2
100
AcDbEntity
  8
KIJUN
100
AcDbCircle
 10
113.1896167481827
 20
262.2514642833503
 30
0.0
 40
4.724145724393968
100
AcDbArc
 50
226.9892286276167
 51
313.0107713723788
  0
DIMENSION
  5
434B
330
2
100
AcDbEntity
  8
SUNPOU
100
AcDbDimension
  2
*D3
 10
-101.0501817202666
 20
57.38719408162555
 30
0.0
 11
-106.5501817202666
 21
74.88719408162552
 31
0.0
 70
    32
 71
     5
 42
35.0
  3
STANDARD
100
AcDbAlignedDimension
 13
-1.810383251817086
 23
92.38719408162552
 33
0.0
 14
33.18961674818269
 24
57.38719408162552
 34
0.0
 50
90.0
100
AcDbRotatedDimension
1001
ACAD
1000
DSTYLE
1002
{
1070
    41
1040
2.0
1070
    42
1040
10.0
1070
    44
1040
0.0
1070
    73
1070
     0
1070
    74
1070
     0
1070
    77
1070
     1
1070
   140
1040
5.0
1070
   141
1040
0.0
1070
   146
1040
0.064286
1070
   147
1040
3.0
1070
   176
1070
    60
1070
   177
1070
    70
1070
   178
1070
    60
1070
   271
1070
     0
1070
   272
1070
     0
1070
   340
1005
1C
1070
   342
1005
109
1002
}
  0
DIMENSION
  5
43B3
330
2
100
AcDbEntity
  8
SUNPOU
100
AcDbDimension
  2
*D4
 10
193.1896167481827
 20
30.72539823739726
 30
0.0
 11
113.1896167481827
 21
36.22539823739726
 31
0.0
 70
    32
  1
φ160
 71
     5
 42
160.0
  3
STANDARD
100
AcDbAlignedDimension
 13
33.18961674818269
 23
57.38719408162555
 33
0.0
 14
193.1896167481827
 24
57.38719408162555
 34
0.0
100
AcDbRotatedDimension
1001
ACAD
1000
DSTYLE
1002
{
1070
    41
1040
2.0
1070
    42
1040
10.0
1070
    44
1040
0.0
1070
    73
1070
     0
1070
    74
1070
     0
1070
    77
1070
     1
1070
   140
1040
5.0
1070
   141
1040
0.0
1070
   146
1040
0.064286
1070
   147
1040
3.0
1070
   176
1070
    60
1070
   177
1070
    70
1070
   178
1070
    60
1070
   271
1070
     0
1070
   272
1070
     0
1070
   340
1005
1C
1070
   342
1005
109
1002
}
  0
LINE
  5
43D6
102
{ACAD_REACTORS
330
44A7
102
}
330
2
100
AcDbEntity
  8
KIJUN
100
AcDbLine
 10
-64.31038325181702
 20
821.8323048573745
 30
0.0
 11
-29.03293863969168
 21
857.1097494694999
 31
0.0
  0
LINE
  5
445D
102
{ACAD_REACTORS
330
44A7
102
}
330
2
100
AcDbEntity
  8
KIJUN
100
AcDbLine
 10
290.6896167481828
 20
821.832304857374
 30
0.0
 11
255.4121721360567
 21
857.1097494695003
 31
0.0
  0
ARC
  5
445E
102
{ACAD_REACTORS
330
44A7
102
}
330
2
100
AcDbEntity
  8
KIJUN
100
AcDbCircle
 10
95.6111745743235
 20
1020.990334128591
 30
0.0
 40
205.8956070126647
100
AcDbArc
 50
232.744147560262
 51
250.7762461345426
  0
ARC
  5
4466
102
{ACAD_REACTORS
330
44A7
102
}
330
2
100
AcDbEntity
  8
KIJUN
100
AcDbCircle
 10
113.1896167481832
 20
1112.750092881204
 30
0.0
 40
298.6371719738532
100
AcDbArc
 50
253.3891726300499
 51
286.6108273699501
  0
ARC
  5
4469
102
{ACAD_REACTORS
330
44A7
102
}
330
2
100
AcDbEntity
  8
KIJUN
100
AcDbCircle
 10
130.7680589220416
 20
1020.990334128591
 30
0.0
 40
205.8956070126647
100
AcDbArc
 50
289.2237538654571
 51
307.255852439738
  0
ARC
  5
446A
102
{ACAD_REACTORS
330
44A7
102
}
330
2
100
AcDbEntity
  8
KIJUN
100
AcDbCircle
 10
112.2030272655963
 20
808.0098825268075
 30
0.0
 40
12.33650931756958
100
AcDbArc
 50
52.70188753825506
 51
124.4878432842892
  0
ARC
  5
446B
102
{ACAD_REACTORS
330
44A7
102
}
330
2
100
AcDbEntity
  8
KIJUN
100
AcDbCircle
 10
119.580512204032
 20
810.7946539186732
 30
0.0
 40
7.029523671603189
100
AcDbArc
 50
30.59282066939849
 51
89.201419691412
  0
ARC
  5
446C
102
{ACAD_REACTORS
330
44A7
102
}
330
2
100
AcDbEntity
  8
KIJUN
100
AcDbCircle
 10
103.9085076661482
 20
813.7620347882686
 30
0.0
 40
4.606144720671788
100
AcDbArc
 50
73.48721701288448
 51
171.615257005494
  0
ARC
  5
446D
102
{ACAD_REACTORS
330
44A7
102
}
330
2
100
AcDbEntity
  8
KIJUN
100
AcDbCircle
 10
131.9476805415696
 20
813.6057684539546
 30
0.0
 40
5.209417110277399
100
AcDbArc
 50
16.20573479378254
 51
170.9704170570361
  0
ARC
  5
446E
102
{ACAD_REACTORS
330
44A7
102
}
330
2
100
AcDbEntity
  8
KIJUN
100
AcDbCircle
 10
94.18813734924686
 20
813.8544250923288
 30
0.0
 40
4.956302062562646
100
AcDbArc
 50
6.843967892422103
 51
165.8809753268359
  0
ARC
  5
446F
102
{ACAD_REACTORS
330
44A7
102
}
330
2
100
AcDbEntity
  8
KIJUN
100
AcDbCircle
 10
-123.3488064648686
 20
465.9545655703282
 30
0.0
 40
372.1639514144224
100
AcDbArc
 50
65.8867887752439
 51
74.79301873607662
  0
ARC
  5
4470
102
{ACAD_REACTORS
330
44A7
102
}
330
2
100
AcDbEntity
  8
KIJUN
100
AcDbCircle
 10
113.189616748184
 20
1202.615871919208
 30
0.0
 40
407.5115204603837
100
AcDbArc
 50
262.1346480766494
 51
277.8653519233506
  0
ARC
  5
4472
102
{ACAD_REACTORS
330
44A7
102
}
330
2
100
AcDbEntity
  8
KIJUN
100
AcDbCircle
 10
70.06341874638076
 20
917.9838969238799
 30
0.0
 40
119.7149940553288
100
AcDbArc
 50
249.7843705012461
 51
263.9392112022782
  0
ARC
  5
4473
102
{ACAD_REACTORS
330
44A7
102
}
330
2
100
AcDbEntity
  8
KIJUN
100
AcDbCircle
 10
-26.92044883170718
 20
819.719815049388
 30
0.0
 40
5.498147708208892
100
AcDbArc
 50
77.47069054291907
 51
192.5293094566787
  0
ARC
  5
4474
102
{ACAD_REACTORS
330
44A7
102
}
330
2
100
AcDbEntity
  8
KIJUN
100
AcDbCircle
 10
349.728039961234
 20
465.9545655703282
 30
0.0
 40
372.1639514144224
100
AcDbArc
 50
105.2069812639166
 51
114.1132112247627
  0
ARC
  5
4475
102
{ACAD_REACTORS
330
44A7
102
}
330
2
100
AcDbEntity
  8
KIJUN
100
AcDbCircle
 10
156.3158147499845
 20
917.9838969238799
 30
0.0
 40
119.7149940553288
100
AcDbArc
 50
276.0607887977218
 51
290.2156294987543
  0
ARC
  5
4476
102
{ACAD_REACTORS
330
44A7
102
}
330
2
100
AcDbEntity
  8
KIJUN
100
AcDbCircle
 10
253.3199015183592
 20
819.7400342396745
 30
0.0
 40
5.482849437640326
100
AcDbArc
 50
347.2185938694951
 51
102.7814061309072
  0
LINE
  5
4477
102
{ACAD_REACTORS
330
44A7
102
}
330
2
100
AcDbEntity
  8
KIJUN
100
AcDbLine
 10
-64.31038325181702
 20
537.3871940816256
 30
0.0
 11
-29.03293863969168
 21
502.1097494695002
 31
0.0
  0
LINE
  5
4478
102
{ACAD_REACTORS
330
44A7
102
}
330
2
100
AcDbEntity
  8
KIJUN
100
AcDbLine
 10
290.6896167481828
 20
537.3871940816258
 30
0.0
 11
255.4121721360567
 21
502.1097494694999
 31
0.0
  0
ARC
  5
4479
102
{ACAD_REACTORS
330
44A7
102
}
330
2
100
AcDbEntity
  8
KIJUN
100
AcDbCircle
 10
95.6111745743235
 20
338.2291648104092
 30
0.0
 40
205.8956070126647
100
AcDbArc
 50
109.2237538654573
 51
127.2558524397378
  0
ARC
  5
447A
102
{ACAD_REACTORS
330
44A7
102
}
330
2
100
AcDbEntity
  8
KIJUN
100
AcDbCircle
 10
113.1896167481832
 20
246.4694060577963
 30
0.0
 40
298.6371719738532
100
AcDbArc
 50
73.38917263004991
 51
106.6108273699506
  0
ARC
  5
447B
102
{ACAD_REACTORS
330
44A7
102
}
330
2
100
AcDbEntity
  8
KIJUN
100
AcDbCircle
 10
130.7680589220416
 20
338.2291648104092
 30
0.0
 40
205.8956070126647
100
AcDbArc
 50
52.74414756026212
 51
70.77624613454282
  0
ARC
  5
447C
102
{ACAD_REACTORS
330
44A7
102
}
330
2
100
AcDbEntity
  8
KIJUN
100
AcDbCircle
 10
112.2030272655963
 20
551.2096164121924
 30
0.0
 40
12.33650931756958
100
AcDbArc
 50
235.5121567157106
 51
307.2981124617461
  0
ARC
  5
447D
102
{ACAD_REACTORS
330
44A7
102
}
330
2
100
AcDbEntity
  8
KIJUN
100
AcDbCircle
 10
119.580512204032
 20
548.424845020327
 30
0.0
 40
7.029523671603189
100
AcDbArc
 50
270.798580308588
 51
329.4071793306033
  0
ARC
  5
447E
102
{ACAD_REACTORS
330
44A7
102
}
330
2
100
AcDbEntity
  8
KIJUN
100
AcDbCircle
 10
103.9085076661482
 20
545.4574641507313
 30
0.0
 40
4.606144720671788
100
AcDbArc
 50
188.3847429945027
 51
286.5127829871155
  0
ARC
  5
447F
102
{ACAD_REACTORS
330
44A7
102
}
330
2
100
AcDbEntity
  8
KIJUN
100
AcDbCircle
 10
131.9476805415696
 20
545.6137304850456
 30
0.0
 40
5.209417110277399
100
AcDbArc
 50
189.0295829429605
 51
343.7942652062166
  0
ARC
  5
4480
102
{ACAD_REACTORS
330
44A7
102
}
330
2
100
AcDbEntity
  8
KIJUN
100
AcDbCircle
 10
94.18813734924686
 20
545.365073846671
 30
0.0
 40
4.956302062562646
100
AcDbArc
 50
194.1190246731657
 51
353.1560321075762
  0
ARC
  5
4481
102
{ACAD_REACTORS
330
44A7
102
}
330
2
100
AcDbEntity
  8
KIJUN
100
AcDbCircle
 10
-123.3488064648686
 20
893.2649333686718
 30
0.0
 40
372.1639514144224
100
AcDbArc
 50
285.2069812639233
 51
294.1132112247561
  0
ARC
  5
4482
102
{ACAD_REACTORS
330
44A7
102
}
330
2
100
AcDbEntity
  8
KIJUN
100
AcDbCircle
 10
113.189616748184
 20
156.6036270197917
 30
0.0
 40
407.5115204603837
100
AcDbArc
 50
82.13464807664941
 51
97.86535192335058
  0
ARC
  5
4483
102
{ACAD_REACTORS
330
44A7
102
}
330
2
100
AcDbEntity
  8
KIJUN
100
AcDbCircle
 10
70.06341874638076
 20
441.2356020151201
 30
0.0
 40
119.7149940553288
100
AcDbArc
 50
96.06078879772177
 51
110.215629498754
  0
ARC
  5
4485
102
{ACAD_REACTORS
330
44A7
102
}
330
2
100
AcDbEntity
  8
KIJUN
100
AcDbCircle
 10
349.728039961234
 20
893.2649333686718
 30
0.0
 40
372.1639514144224
100
AcDbArc
 50
245.8867887752371
 51
254.793018736083
  0
ARC
  5
4486
102
{ACAD_REACTORS
330
44A7
102
}
330
2
100
AcDbEntity
  8
KIJUN
100
AcDbCircle
 10
156.3158147499845
 20
441.2356020151201
 30
0.0
 40
119.7149940553288
100
AcDbArc
 50
69.78437050124561
 51
83.93921120227814
  0
ARC
  5
4488
102
{ACAD_REACTORS
330
44A7
102
}
330
2
100
AcDbEntity
  8
KIJUN
100
AcDbCircle
 10
-228.1909679109079
 20
662.031307295641
 30
0.0
 40
205.8956070126647
100
AcDbArc
 50
322.7441475602631
 51
340.7762461345412
  0
ARC
  5
4489
102
{ACAD_REACTORS
330
44A7
102
}
330
2
100
AcDbEntity
  8
KIJUN
100
AcDbCircle
 10
-319.9507266635208
 20
679.6097494695007
 30
0.0
 40
298.6371719738532
100
AcDbArc
 50
343.3891726300499
 51
16.61082736995014
  0
ARC
  5
448A
102
{ACAD_REACTORS
330
44A7
102
}
330
2
100
AcDbEntity
  8
KIJUN
100
AcDbCircle
 10
-228.1909679109079
 20
697.188191643359
 30
0.0
 40
205.8956070126647
100
AcDbArc
 50
19.22375386545878
 51
37.25585243973692
  0
ARC
  5
448B
102
{ACAD_REACTORS
330
44A7
102
}
330
2
100
AcDbEntity
  8
KIJUN
100
AcDbCircle
 10
-15.21051630912461
 20
678.6231599869138
 30
0.0
 40
12.33650931756958
100
AcDbArc
 50
142.7018875382588
 51
214.4878432842908
  0
ARC
  5
448C
102
{ACAD_REACTORS
330
44A7
102
}
330
2
100
AcDbEntity
  8
KIJUN
100
AcDbCircle
 10
-17.99528770099016
 20
686.0006449253494
 30
0.0
 40
7.029523671603189
100
AcDbArc
 50
120.5928206693947
 51
179.201419691412
  0
ARC
  5
448D
102
{ACAD_REACTORS
330
44A7
102
}
330
2
100
AcDbEntity
  8
KIJUN
100
AcDbCircle
 10
-20.96266857058572
 20
670.3286403874656
 30
0.0
 40
4.606144720671788
100
AcDbArc
 50
163.4872170128859
 51
261.6152570054907
  0
ARC
  5
448E
102
{ACAD_REACTORS
330
44A7
102
}
330
2
100
AcDbEntity
  8
KIJUN
100
AcDbCircle
 10
-20.80640223627154
 20
698.3678132628869
 30
0.0
 40
5.209417110277399
100
AcDbArc
 50
106.2057347937774
 51
260.9704170570329
  0
ARC
  5
448F
102
{ACAD_REACTORS
330
44A7
102
}
330
2
100
AcDbEntity
  8
KIJUN
100
AcDbCircle
 10
-21.05505887464596
 20
660.6082700705642
 30
0.0
 40
4.956302062562646
100
AcDbArc
 50
96.84396789241723
 51
255.880975326841
  0
ARC
  5
4490
102
{ACAD_REACTORS
330
44A7
102
}
330
2
100
AcDbEntity
  8
KIJUN
100
AcDbCircle
 10
326.8448006473546
 20
443.0713262564488
 30
0.0
 40
372.1639514144224
100
AcDbArc
 50
155.8867887752425
 51
164.7930187360772
  0
ARC
  5
4491
102
{ACAD_REACTORS
330
44A7
102
}
330
2
100
AcDbEntity
  8
KIJUN
100
AcDbCircle
 10
-409.8165057015253
 20
679.6097494695016
 30
0.0
 40
407.5115204603837
100
AcDbArc
 50
352.1346480766476
 51
7.86535192335073
  0
ARC
  5
4492
102
{ACAD_REACTORS
330
44A7
102
}
330
2
100
AcDbEntity
  8
KIJUN
100
AcDbCircle
 10
-125.1845307061969
 20
636.4835514676981
 30
0.0
 40
119.7149940553288
100
AcDbArc
 50
339.7843705012442
 51
353.9392112022782
  0
ARC
  5
4493
102
{ACAD_REACTORS
330
44A7
102
}
330
2
100
AcDbEntity
  8
KIJUN
100
AcDbCircle
 10
-27.09413056477922
 20
539.3260021565379
 30
0.0
 40
5.370280100389187
100
AcDbArc
 50
165.2592599414324
 51
284.7407400585946
  0
ARC
  5
4494
102
{ACAD_REACTORS
330
44A7
102
}
330
2
100
AcDbEntity
  8
KIJUN
100
AcDbCircle
 10
326.8448006473546
 20
916.1481726825513
 30
0.0
 40
372.1639514144224
100
AcDbArc
 50
195.2069812639152
 51
204.1132112247619
  0
ARC
  5
4495
102
{ACAD_REACTORS
330
44A7
102
}
330
2
100
AcDbEntity
  8
KIJUN
100
AcDbCircle
 10
-125.1845307061969
 20
722.7359474713018
 30
0.0
 40
119.7149940553288
100
AcDbArc
 50
6.060788797721807
 51
20.21562949875586
  0
ARC
  5
4497
102
{ACAD_REACTORS
330
44A7
102
}
330
2
100
AcDbEntity
  8
KIJUN
100
AcDbCircle
 10
454.5702014072738
 20
662.031307295641
 30
0.0
 40
205.8956070126647
100
AcDbArc
 50
199.2237538654588
 51
217.2558524397369
  0
ARC
  5
4498
102
{ACAD_REACTORS
330
44A7
102
}
330
2
100
AcDbEntity
  8
KIJUN
100
AcDbCircle
 10
546.3299601598865
 20
679.6097494695007
 30
0.0
 40
298.6371719738532
100
AcDbArc
 50
163.3891726300499
 51
196.6108273699501
  0
ARC
  5
4499
102
{ACAD_REACTORS
330
44A7
102
}
330
2
100
AcDbEntity
  8
KIJUN
100
AcDbCircle
 10
454.5702014072738
 20
697.188191643359
 30
0.0
 40
205.8956070126647
100
AcDbArc
 50
142.744147560263
 51
160.7762461345412
  0
ARC
  5
449A
102
{ACAD_REACTORS
330
44A7
102
}
330
2
100
AcDbEntity
  8
KIJUN
100
AcDbCircle
 10
241.5897498054905
 20
678.6231599869138
 30
0.0
 40
12.33650931756958
100
AcDbArc
 50
325.5121567157092
 51
37.29811246174117
  0
ARC
  5
449B
102
{ACAD_REACTORS
330
44A7
102
}
330
2
100
AcDbEntity
  8
KIJUN
100
AcDbCircle
 10
244.3745211973561
 20
686.0006449253494
 30
0.0
 40
7.029523671603189
100
AcDbArc
 50
0.7985803085880053
 51
59.40717933060525
  0
ARC
  5
449C
102
{ACAD_REACTORS
330
44A7
102
}
330
2
100
AcDbEntity
  8
KIJUN
100
AcDbCircle
 10
247.3419020669516
 20
670.3286403874656
 30
0.0
 40
4.606144720671788
100
AcDbArc
 50
278.3847429945093
 51
16.51278298711413
  0
ARC
  5
449D
102
{ACAD_REACTORS
330
44A7
102
}
330
2
100
AcDbEntity
  8
KIJUN
100
AcDbCircle
 10
247.1856357326375
 20
698.3678132628869
 30
0.0
 40
5.209417110277399
100
AcDbArc
 50
279.0295829429671
 51
73.79426520622259
  0
ARC
  5
449E
102
{ACAD_REACTORS
330
44A7
102
}
330
2
100
AcDbEntity
  8
KIJUN
100
AcDbCircle
 10
247.4342923710118
 20
660.6082700705642
 30
0.0
 40
4.956302062562646
100
AcDbArc
 50
284.119024673159
 51
83.15603210758272
  0
ARC
  5
449F
102
{ACAD_REACTORS
330
44A7
102
}
330
2
100
AcDbEntity
  8
KIJUN
100
AcDbCircle
 10
-100.4655671509889
 20
443.0713262564488
 30
0.0
 40
372.1639514144224
100
AcDbArc
 50
15.20698126392279
 51
24.1132112247575
  0
ARC
  5
44A0
102
{ACAD_REACTORS
330
44A7
102
}
330
2
100
AcDbEntity
  8
KIJUN
100
AcDbCircle
 10
636.1957391978911
 20
679.6097494695013
 30
0.0
 40
407.5115204603837
100
AcDbArc
 50
172.1346480766484
 51
187.8653519233507
  0
ARC
  5
44A1
102
{ACAD_REACTORS
330
44A7
102
}
330
2
100
AcDbEntity
  8
KIJUN
100
AcDbCircle
 10
351.5637642025628
 20
636.4835514676981
 30
0.0
 40
119.7149940553288
100
AcDbArc
 50
186.0607887977218
 51
200.2156294987559
  0
ARC
  5
44A2
102
{ACAD_REACTORS
330
44A7
102
}
330
2
100
AcDbEntity
  8
KIJUN
100
AcDbCircle
 10
253.5921595042622
 20
539.2072067134206
 30
0.0
 40
5.287613146169134
100
AcDbArc
 50
253.6866450672884
 51
16.31335493298013
  0
ARC
  5
44A3
102
{ACAD_REACTORS
330
44A7
102
}
330
2
100
AcDbEntity
  8
KIJUN
100
AcDbCircle
 10
-100.4655671509888
 20
916.1481726825513
 30
0.0
 40
372.1639514144224
100
AcDbArc
 50
335.8867887752381
 51
344.7930187360848
  0
ARC
  5
44A4
102
{ACAD_REACTORS
330
44A7
102
}
330
2
100
AcDbEntity
  8
KIJUN
100
AcDbCircle
 10
351.5637642025628
 20
722.7359474713018
 30
0.0
 40
119.7149940553288
100
AcDbArc
 50
159.7843705012441
 51
173.9392112022782
  0
DIMENSION
  5
44A8
330
2
100
AcDbEntity
  8
SUNPOU
100
AcDbDimension
  2
*D5
 10
-64.31038325181702
 20
914.1309411694546
 30
0.0
 11
113.1896167481829
 21
919.6309411694546
 31
0.0
 70
    32
 71
     5
 42
354.9999999999999
  3
STANDARD
100
AcDbAlignedDimension
 13
290.6896167481828
 23
821.832304857374
 33
0.0
 14
-64.31038325181702
 24
821.8323048573745
 34
0.0
 50
180.0
100
AcDbRotatedDimension
1001
ACAD
1000
DSTYLE
1002
{
1070
    41
1040
2.0
1070
    42
1040
10.0
1070
    44
1040
0.0
1070
    73
1070
     0
1070
    74
1070
     0
1070
    77
1070
     1
1070
   140
1040
5.0
1070
   141
1040
0.0
1070
   146
1040
0.064286
1070
   147
1040
3.0
1070
   176
1070
    60
1070
   177
1070
    70
1070
   178
1070
    60
1070
   271
1070
     0
1070
   272
1070
     0
1070
   340
1005
1C
1070
   342
1005
109
1002
}
  0
DIMENSION
  5
44A9
330
2
100
AcDbEntity
  8
SUNPOU
100
AcDbDimension
  2
*D6
 10
-113.4725121169013
 20
502.1097494694997
 30
0.0
 11
-118.9725121169013
 21
679.6097494695003
 31
0.0
 70
    32
 71
     5
 42
355.0000000000011
  3
STANDARD
100
AcDbAlignedDimension
 13
-29.0329386396926
 23
857.1097494695008
 33
0.0
 14
-29.03293863969199
 24
502.1097494694997
 34
0.0
 50
90.0
100
AcDbRotatedDimension
1001
ACAD
1000
DSTYLE
1002
{
1070
    41
1040
2.0
1070
    42
1040
10.0
1070
    44
1040
0.0
1070
    73
1070
     0
1070
    74
1070
     0
1070
    77
1070
     1
1070
   140
1040
5.0
1070
   141
1040
0.0
1070
   146
1040
0.064286
1070
   147
1040
3.0
1070
   176
1070
    60
1070
   177
1070
    70
1070
   178
1070
    60
1070
   271
1070
     0
1070
   272
1070
     0
1070
   340
1005
1C
1070
   342
1005
109
1002
}
  0
TEXT
  5
4528
330
2
100
AcDbEntity
  8
HOJO
100
AcDbText
 10
97.3010698495603
 20
504.9556636560971
 30
0.0
 40
9.0
  1
上部より
  7
SUNPOU
100
AcDbText
  0
TEXT
  5
4589
330
2
100
AcDbEntity
  8
HOJO
100
AcDbText
 10
0.6223314899477828
 20
-15.90508303601109
 30
0.0
 40
9.0
  1
※ FRP製の為、若干の寸法誤差がある場合があります。
  7
SUNPOU
100
AcDbText
  0
ENDSEC
  0
SECTION
  2
OBJECTS
  0
DICTIONARY
  5
1A
330
0
100
AcDbDictionary
281
     1
  3
ACAD_COLOR
350
144
  3
ACAD_GROUP
350
18
  3
ACAD_LAYOUT
350
58
  3
ACAD_MATERIAL
350
143
  3
ACAD_MLINESTYLE
350
19
  3
ACAD_PLOTSETTINGS
350
59
  3
ACAD_PLOTSTYLENAME
350
56
  3
ACAD_TABLESTYLE
350
145
  3
ACDBHEADERROUNDTRIPXREC
350
4591
  3
AcDbVariableDictionary
350
1D1
  0
DICTIONARY
  5
1B4
330
A
100
AcDbDictionary
280
     1
281
     1
  3
ACAD_LAYERFILTERS
360
3D0D
  3
ACAD_LAYERSTATES
360
4581
  3
ACLYDICTIONARY
360
3D0C
  0
DICTIONARY
  5
D13
330
2
100
AcDbDictionary
280
     1
281
     1
  3
ACAD_SORTENTS
360
D14
  0
DICTIONARY
  5
144
102
{ACAD_REACTORS
330
1A
102
}
330
1A
100
AcDbDictionary
281
     1
  0
DICTIONARY
  5
18
102
{ACAD_REACTORS
330
1A
102
}
330
1A
100
AcDbDictionary
281
     1
  3
*A1
350
E0D
  3
*A10
350
2D78
  3
*A11
350
2A17
  3
*A12
350
35A5
  3
*A13
350
39BC
  3
*A14
350
307D
  3
*A15
350
265A
  3
*A16
350
3695
  3
*A17
350
36C9
  3
*A18
350
275E
  3
*A19
350
213E
  3
*A2
350
1CBC
  3
*A20
350
3467
  3
*A21
350
44A7
  3
*A22
350
34BB
  3
*A23
350
395F
  3
*A24
350
22C8
  3
*A25
350
241A
  3
*A26
350
2905
  3
*A27
350
17BC
  3
*A28
350
1EFE
  3
*A29
350
4563
  3
*A3
350
2037
  3
*A30
350
1A98
  3
*A31
350
2EE1
  3
*A32
350
2F81
  3
*A33
350
24D6
  3
*A34
350
2573
  3
*A35
350
3959
  3
*A36
350
2C6B
  3
*A37
350
31DF
  3
*A38
350
32E4
  3
*A39
350
3EE1
  3
*A4
350
3181
  3
*A40
350
3349
  3
*A5
350
26DD
  3
*A6
350
FF8
  3
*A7
350
136A
  3
*A8
350
2B84
  3
*A9
350
1555
  0
DICTIONARY
  5
58
102
{ACAD_REACTORS
330
1A
102
}
330
1A
100
AcDbDictionary
281
     1
  3
Model
350
5A
  3
ﾚｲｱｳﾄ1
350
5B
  0
DICTIONARY
  5
143
102
{ACAD_REACTORS
330
1A
102
}
330
1A
100
AcDbDictionary
281
     1
  0
DICTIONARY
  5
19
102
{ACAD_REACTORS
330
1A
102
}
330
1A
100
AcDbDictionary
281
     1
  3
STANDARD
350
1D
  0
DICTIONARY
  5
59
102
{ACAD_REACTORS
330
1A
102
}
330
1A
100
AcDbDictionary
281
     1
  0
ACDBDICTIONARYWDFLT
  5
56
102
{ACAD_REACTORS
330
1A
102
}
330
1A
100
AcDbDictionary
281
     1
  3
Normal
350
57
100
AcDbDictionaryWithDefault
340
57
  0
DICTIONARY
  5
145
102
{ACAD_REACTORS
330
1A
102
}
330
1A
100
AcDbDictionary
281
     1
  3
Standard
350
146
  0
DICTIONARY
  5
4591
102
{ACAD_REACTORS
330
1A
102
}
330
1A
100
AcDbDictionary
281
     1
  0
DICTIONARY
  5
1D1
102
{ACAD_REACTORS
330
1A
102
}
330
1A
100
AcDbDictionary
281
     1
  3
CTABLESTYLE
350
1D2
  3
DIMASSOC
350
D03
  3
PROJECTNAME
350
D04
  0
DICTIONARY
  5
3D0D
102
{ACAD_REACTORS
330
1B4
102
}
330
1B4
100
AcDbDictionary
281
     1
  0
DICTIONARY
  5
4581
102
{ACAD_REACTORS
330
1B4
102
}
330
1B4
100
AcDbDictionary
281
     1
  0
DICTIONARY
  5
3D0C
102
{ACAD_REACTORS
330
1B4
102
}
330
1B4
100
AcDbDictionary
281
     1
1001
ACAD
1000
<All
  0
SORTENTSTABLE
  5
D14
102
{ACAD_REACTORS
330
D13
102
}
330
D13
100
AcDbSortentsTable
330
2
331
20
  5
3A4C
331
41C0
  5
41C2
331
41C8
  5
41C9
331
4207
  5
4204
331
42FB
  5
42FC
331
42BC
  5
42BD
331
4285
  5
4286
331
420F
  5
4210
331
41D0
  5
41D2
331
4246
  5
4247
331
4303
  5
4304
331
428D
  5
428E
331
424E
  5
424F
331
41D8
  5
41D9
331
42C4
  5
42C5
331
430B
  5
430C
331
42CC
  5
42CD
331
4295
  5
4296
331
4256
  5
4257
331
42D4
  5
42D5
331
425E
  5
425F
331
41E0
  5
41E1
331
41E8
  5
41E9
331
41A9
  5
41B3
331
429D
  5
429E
331
4266
  5
4267
331
42DC
  5
42DD
331
434B
  5
43B3
331
42E4
  5
42E5
331
42A5
  5
42A6
331
41F8
  5
41F9
331
41B9
  5
41BB
331
422F
  5
4234
331
42EC
  5
42ED
331
42AD
  5
42AE
331
4237
  5
4238
331
4276
  5
4277
331
42B5
  5
42B6
331
427E
  5
427F
331
423F
  5
4240
331
42F4
  5
42F5
331
446A
  5
446A
331
21
  5
3A53
331
4200
  5
4201
331
41C9
  5
41CB
331
42FC
  5
42FD
331
42BD
  5
42BE
331
4286
  5
4287
331
4210
  5
4211
331
4247
  5
4248
331
4304
  5
4305
331
42C5
  5
42C6
331
424F
  5
4250
331
41D9
  5
41DA
331
428E
  5
428F
331
42CD
  5
42CE
331
4296
  5
4297
331
4257
  5
4258
331
430C
  5
430D
331
43B3
  5
43CA
331
42D5
  5
42D6
331
425F
  5
4260
331
41E1
  5
41E3
331
41E9
  5
41EA
331
4220
  5
4221
331
4314
  5
434B
331
42DD
  5
42DE
331
4267
  5
4268
331
429E
  5
429F
331
42E5
  5
42E6
331
41F9
  5
41FB
331
42A6
  5
42A7
331
42ED
  5
42EE
331
42AE
  5
42AF
331
4277
  5
4278
331
4238
  5
423A
331
42B6
  5
42B7
331
427F
  5
4280
331
42F5
  5
42F6
331
446B
  5
446B
331
4201
  5
4203
331
41C2
  5
41C3
331
4240
  5
4241
331
4209
  5
420A
331
42FD
  5
42FE
331
42BE
  5
42BF
331
4287
  5
4288
331
4211
  5
4212
331
41D2
  5
41D3
331
4248
  5
4249
331
4305
  5
4306
331
42C6
  5
42C7
331
4250
  5
4252
331
41DA
  5
41DB
331
428F
  5
4290
331
42CE
  5
42CF
331
4297
  5
4298
331
4258
  5
425B
331
430D
  5
430E
331
42D6
  5
42D7
331
4260
  5
4261
331
41EA
  5
41EB
331
4221
  5
4229
331
42DE
  5
42DF
331
4268
  5
4269
331
4229
  5
422A
331
41B3
  5
41B4
331
429F
  5
42A0
331
42E6
  5
42E7
331
41BB
  5
41BC
331
42A7
  5
42A8
331
42EE
  5
42EF
331
42AF
  5
42B0
331
4278
  5
427B
331
42F6
  5
42F7
331
42B7
  5
42B8
331
446C
  5
446C
331
23
  5
3F30
331
41C3
  5
41C4
331
4280
  5
4281
331
4241
  5
4242
331
420A
  5
420B
331
41CB
  5
41CC
331
42FE
  5
42FF
331
42BF
  5
42C0
331
4288
  5
4289
331
4212
  5
4213
331
41D3
  5
41D4
331
4249
  5
424A
331
4306
  5
4307
331
42C7
  5
42C8
331
41DB
  5
41DC
331
3635
  5
41A9
331
4290
  5
4291
331
430E
  5
430F
331
42CF
  5
42D0
331
42D7
  5
42D8
331
41E3
  5
41E4
331
4298
  5
4299
331
41EB
  5
41EC
331
4261
  5
4262
331
42DF
  5
42E1
331
42A0
  5
42A1
331
422A
  5
422B
331
41B4
  5
41B5
331
4269
  5
426A
331
42A8
  5
42A9
331
4271
  5
4272
331
41BC
  5
41BD
331
41FB
  5
41FE
331
42E7
  5
42E8
331
445D
  5
445D
331
42EF
  5
42F0
331
42B0
  5
42B1
331
423A
  5
423B
331
42F7
  5
42F8
331
446D
  5
446D
331
4203
  5
4205
331
41C4
  5
41C5
331
42B8
  5
42B9
331
4242
  5
4243
331
420B
  5
420C
331
41CC
  5
41CF
331
4281
  5
4282
331
42FF
  5
4300
331
42C0
  5
42C1
331
4289
  5
428A
331
424A
  5
424B
331
41D4
  5
41D5
331
4213
  5
4214
331
4307
  5
4308
331
42C8
  5
42C9
331
4291
  5
4292
331
41DC
  5
41DD
331
4252
  5
4253
331
430F
  5
4310
331
42D0
  5
42D1
331
41E4
  5
41E5
331
42D8
  5
42D9
331
4299
  5
429A
331
41EC
  5
41ED
331
4262
  5
4266
331
42A1
  5
42A2
331
422B
  5
422C
331
41F4
  5
41F5
331
41B5
  5
41B6
331
426A
  5
426B
331
43D6
  5
43D6
331
42A9
  5
42AA
331
41BD
  5
41BE
331
4272
  5
4273
331
42E8
  5
42E9
331
445E
  5
445E
331
42F0
  5
42F1
331
42B1
  5
42B2
331
423B
  5
423C
331
4466
  5
4466
331
446E
  5
446E
331
4204
  5
4206
331
41C5
  5
41C6
331
42F8
  5
42F9
331
42B9
  5
42BA
331
4243
  5
4244
331
420C
  5
420D
331
4282
  5
4283
331
42C1
  5
42C2
331
428A
  5
428B
331
424B
  5
424C
331
41D5
  5
41D6
331
4214
  5
4215
331
4300
  5
4301
331
4308
  5
4309
331
42C9
  5
42CA
331
4292
  5
4293
331
41DD
  5
41DE
331
4253
  5
4254
331
425B
  5
425C
331
42D1
  5
42D2
331
41E5
  5
41E6
331
42D9
  5
42DA
331
41ED
  5
41F4
331
429A
  5
429B
331
4310
  5
4311
331
42E1
  5
42E2
331
42A2
  5
42A3
331
426B
  5
426C
331
41F5
  5
41F6
331
41B6
  5
41B9
331
422C
  5
422D
331
42E9
  5
42EA
331
4273
  5
4274
331
4234
  5
4235
331
41BE
  5
41BF
331
42AA
  5
42AC
331
42F1
  5
42F2
331
42B2
  5
42B3
331
427B
  5
427C
331
423C
  5
423D
331
446F
  5
446F
331
4205
  5
4207
331
41C6
  5
41C7
331
42F9
  5
42FA
331
42BA
  5
42BB
331
4283
  5
4284
331
420D
  5
420E
331
3628
  5
41A8
331
4244
  5
4245
331
42C2
  5
42C3
331
428B
  5
428C
331
424C
  5
424D
331
4215
  5
4220
331
41D6
  5
41D7
331
4301
  5
4302
331
4309
  5
430A
331
42CA
  5
42CB
331
4293
  5
4294
331
41DE
  5
41DF
331
4254
  5
4255
331
425C
  5
425D
331
42D2
  5
42D3
331
41E6
  5
41E7
331
42DA
  5
42DB
331
429B
  5
429C
331
1F
  5
380D
331
4311
  5
4312
331
42E2
  5
42E3
331
42A3
  5
42A4
331
426C
  5
426D
331
41F6
  5
41F8
331
422D
  5
422E
331
4274
  5
4275
331
4235
  5
4236
331
41FE
  5
41FF
331
41BF
  5
41C0
331
42EA
  5
42EB
331
42F2
  5
42F3
331
42B3
  5
42B4
331
427C
  5
427D
331
423D
  5
423E
331
4206
  5
4209
331
41C7
  5
41C8
331
42FA
  5
42FB
331
42BB
  5
42BC
331
4284
  5
4285
331
420E
  5
420F
331
41CF
  5
41D0
331
4245
  5
4246
331
4470
  5
4470
331
4302
  5
4303
331
428C
  5
428D
331
424D
  5
424E
331
41D7
  5
41D8
331
42C3
  5
42C4
331
430A
  5
430B
331
42CB
  5
42CC
331
4294
  5
4295
331
41DF
  5
41E0
331
4255
  5
4256
331
42D3
  5
42D4
331
425D
  5
425E
331
41E7
  5
41E8
331
4312
  5
4314
331
429C
  5
429D
331
42DB
  5
42DC
331
42E3
  5
42E4
331
42A4
  5
42A5
331
426D
  5
4271
331
422E
  5
422F
331
42EB
  5
42EC
331
42AC
  5
42AD
331
4236
  5
4237
331
41FF
  5
4200
331
4275
  5
4276
331
4469
  5
4469
331
42F3
  5
42F4
331
42B4
  5
42B5
331
427D
  5
427E
331
423E
  5
423F
  0
GROUP
  5
E0D
102
{ACAD_REACTORS
330
18
102
}
330
18
100
AcDbGroup
300

 70
     1
 71
     1
  0
GROUP
  5
2D78
102
{ACAD_REACTORS
330
18
102
}
330
18
100
AcDbGroup
300

 70
     1
 71
     1
  0
GROUP
  5
2A17
102
{ACAD_REACTORS
330
18
102
}
330
18
100
AcDbGroup
300

 70
     1
 71
     1
  0
GROUP
  5
35A5
102
{ACAD_REACTORS
330
18
102
}
330
18
100
AcDbGroup
300

 70
     1
 71
     1
  0
GROUP
  5
39BC
102
{ACAD_REACTORS
330
18
102
}
330
18
100
AcDbGroup
300

 70
     1
 71
     1
  0
GROUP
  5
307D
102
{ACAD_REACTORS
330
18
102
}
330
18
100
AcDbGroup
300

 70
     1
 71
     1
  0
GROUP
  5
265A
102
{ACAD_REACTORS
330
18
102
}
330
18
100
AcDbGroup
300

 70
     1
 71
     1
  0
GROUP
  5
3695
102
{ACAD_REACTORS
330
18
102
}
330
18
100
AcDbGroup
300

 70
     1
 71
     1
  0
GROUP
  5
36C9
102
{ACAD_REACTORS
330
18
102
}
330
18
100
AcDbGroup
300

 70
     1
 71
     1
  0
GROUP
  5
275E
102
{ACAD_REACTORS
330
18
102
}
330
18
100
AcDbGroup
300

 70
     1
 71
     1
  0
GROUP
  5
213E
102
{ACAD_REACTORS
330
18
102
}
330
18
100
AcDbGroup
300

 70
     1
 71
     1
  0
GROUP
  5
1CBC
102
{ACAD_REACTORS
330
18
102
}
330
18
100
AcDbGroup
300

 70
     1
 71
     1
  0
GROUP
  5
3467
102
{ACAD_REACTORS
330
18
102
}
330
18
100
AcDbGroup
300

 70
     1
 71
     1
  0
GROUP
  5
44A7
102
{ACAD_REACTORS
330
18
102
}
330
18
100
AcDbGroup
300

 70
     1
 71
     1
340
44A4
340
44A3
340
44A2
340
44A1
340
44A0
340
449F
340
449E
340
449D
340
449C
340
449B
340
449A
340
4499
340
4498
340
4497
340
4495
340
4494
340
4493
340
4492
340
4491
340
4490
340
448F
340
448E
340
448D
340
448C
340
448B
340
448A
340
4489
340
4488
340
4486
340
4485
340
4483
340
4482
340
4481
340
4480
340
447F
340
447E
340
447D
340
447C
340
447B
340
447A
340
4479
340
4478
340
4477
340
4476
340
4475
340
4474
340
4473
340
4472
340
4470
340
446F
340
446E
340
446D
340
446C
340
446B
340
446A
340
4469
340
4466
340
445E
340
445D
340
43D6
  0
GROUP
  5
34BB
102
{ACAD_REACTORS
330
18
102
}
330
18
100
AcDbGroup
300

 70
     1
 71
     1
  0
GROUP
  5
395F
102
{ACAD_REACTORS
330
18
102
}
330
18
100
AcDbGroup
300

 70
     1
 71
     1
  0
GROUP
  5
22C8
102
{ACAD_REACTORS
330
18
102
}
330
18
100
AcDbGroup
300

 70
     1
 71
     1
  0
GROUP
  5
241A
102
{ACAD_REACTORS
330
18
102
}
330
18
100
AcDbGroup
300

 70
     1
 71
     1
  0
GROUP
  5
2905
102
{ACAD_REACTORS
330
18
102
}
330
18
100
AcDbGroup
300

 70
     1
 71
     1
  0
GROUP
  5
17BC
102
{ACAD_REACTORS
330
18
102
}
330
18
100
AcDbGroup
300

 70
     1
 71
     1
  0
GROUP
  5
1EFE
102
{ACAD_REACTORS
330
18
102
}
330
18
100
AcDbGroup
300

 70
     1
 71
     1
  0
GROUP
  5
4563
102
{ACAD_REACTORS
330
18
102
}
330
18
100
AcDbGroup
300

 70
     1
 71
     1
340
4314
340
4312
340
4311
340
4310
340
430F
340
430E
340
430D
340
430C
340
430B
340
430A
340
4309
340
4308
340
4307
340
4306
340
4305
340
4304
340
4303
340
4302
340
4301
340
4300
340
42FF
340
42FE
340
42FD
340
42FC
340
42FB
340
42FA
340
42F9
340
42F8
340
42F7
340
42F6
340
42F5
340
42F4
340
42F3
340
42F2
340
42F1
340
42F0
340
42EF
340
42EE
340
42ED
340
42EC
340
42EB
340
42EA
340
42E9
340
42E8
340
42E7
340
42E6
340
42E5
340
42E4
340
42E3
340
42E2
340
42E1
340
42DF
340
42DE
340
42DD
340
42DC
340
42DB
340
42DA
340
42D9
340
42D8
340
42D7
340
42D6
340
42D5
340
42D4
340
42D3
340
42D2
340
42D1
340
42D0
340
42CF
340
42CE
340
42CD
340
42CC
340
42CB
340
42CA
340
42C9
340
42C8
340
42C7
340
42C6
340
42C5
340
42C4
340
42C3
340
42C2
340
42C1
340
42C0
340
42BF
340
42BE
340
42BD
340
42BC
340
42BB
340
42BA
340
42B9
340
42B8
340
42B7
340
42B6
340
42B5
340
42B4
340
42B3
340
42B2
340
42B1
340
42B0
340
42AF
340
42AE
340
42AD
340
42AC
340
42AA
340
42A9
340
42A8
340
42A7
340
42A6
340
42A5
340
42A4
340
42A3
340
42A2
340
42A1
340
42A0
340
429F
340
429E
340
429D
340
429C
340
429B
340
429A
340
4299
340
4298
340
4297
340
4296
340
4295
340
4294
340
4293
340
4292
340
4291
340
4290
340
428F
340
428E
340
428D
340
428C
340
428B
340
428A
340
4289
340
4288
340
4287
340
4286
340
4285
340
4284
340
4283
340
4282
340
4281
340
4280
340
427F
340
427E
340
427D
340
427C
340
427B
340
4278
340
4277
340
4276
340
4275
340
4274
340
4273
340
4272
340
4271
340
426D
340
426C
340
426B
340
426A
340
4269
340
4268
340
4267
340
4266
340
4262
340
4261
340
4260
340
425F
340
425E
340
425D
340
425C
340
425B
340
4258
340
4257
340
4256
340
4255
340
4254
340
4253
340
4252
340
4250
340
424F
340
424E
340
424D
340
424C
340
424B
340
424A
340
4249
340
4248
340
4247
340
4246
340
4245
340
4244
340
4243
340
4242
340
4241
340
4240
340
423F
340
423E
340
423D
340
423C
340
423B
340
423A
340
4238
340
4237
340
4236
340
4235
340
4234
340
422F
340
422E
340
422D
340
422C
340
422B
340
422A
340
4229
340
4221
340
4220
340
4215
340
4214
340
4213
340
4212
340
4211
340
4210
340
420F
340
420E
340
420D
340
420C
340
420B
340
420A
340
4209
340
4206
340
4205
340
4204
340
4203
340
4207
340
4201
340
4200
340
41FF
340
41FE
340
41FB
340
41F9
340
41F8
340
41F6
340
41F5
340
41F4
340
41ED
340
41EC
340
41EB
340
41EA
340
41E9
340
41E8
340
41E7
340
41E6
340
41E5
340
41E4
340
41E3
340
41E1
340
41E0
340
41DF
340
41DE
340
41DD
340
41DC
340
41DB
340
41DA
340
41D9
340
41D8
340
41D7
340
41D6
340
41D5
340
41D4
340
41D3
340
41D2
340
41D0
340
41CF
340
41CC
340
41CB
340
41C9
340
41C8
340
41C7
340
41C6
340
41C5
340
41C4
340
41C3
340
41C2
340
41C0
340
41BF
340
41BE
340
41BD
340
41BC
340
41BB
340
41B9
340
41B6
340
41B5
340
41B4
340
41B3
340
41A9
  0
GROUP
  5
2037
102
{ACAD_REACTORS
330
18
102
}
330
18
100
AcDbGroup
300

 70
     1
 71
     1
  0
GROUP
  5
1A98
102
{ACAD_REACTORS
330
18
102
}
330
18
100
AcDbGroup
300

 70
     1
 71
     1
  0
GROUP
  5
2EE1
102
{ACAD_REACTORS
330
18
102
}
330
18
100
AcDbGroup
300

 70
     1
 71
     1
  0
GROUP
  5
2F81
102
{ACAD_REACTORS
330
18
102
}
330
18
100
AcDbGroup
300

 70
     1
 71
     1
  0
GROUP
  5
24D6
102
{ACAD_REACTORS
330
18
102
}
330
18
100
AcDbGroup
300

 70
     1
 71
     1
  0
GROUP
  5
2573
102
{ACAD_REACTORS
330
18
102
}
330
18
100
AcDbGroup
300

 70
     1
 71
     1
  0
GROUP
  5
3959
102
{ACAD_REACTORS
330
18
102
}
330
18
100
AcDbGroup
300

 70
     1
 71
     1
  0
GROUP
  5
2C6B
102
{ACAD_REACTORS
330
18
102
}
330
18
100
AcDbGroup
300

 70
     1
 71
     1
  0
GROUP
  5
31DF
102
{ACAD_REACTORS
330
18
102
}
330
18
100
AcDbGroup
300

 70
     1
 71
     1
  0
GROUP
  5
32E4
102
{ACAD_REACTORS
330
18
102
}
330
18
100
AcDbGroup
300

 70
     1
 71
     1
  0
GROUP
  5
3EE1
102
{ACAD_REACTORS
330
18
102
}
330
18
100
AcDbGroup
300

 70
     1
 71
     1
  0
GROUP
  5
3181
102
{ACAD_REACTORS
330
18
102
}
330
18
100
AcDbGroup
300

 70
     1
 71
     1
  0
GROUP
  5
3349
102
{ACAD_REACTORS
330
18
102
}
330
18
100
AcDbGroup
300

 70
     1
 71
     1
  0
GROUP
  5
26DD
102
{ACAD_REACTORS
330
18
102
}
330
18
100
AcDbGroup
300

 70
     1
 71
     1
  0
GROUP
  5
FF8
102
{ACAD_REACTORS
330
18
102
}
330
18
100
AcDbGroup
300

 70
     1
 71
     1
  0
GROUP
  5
136A
102
{ACAD_REACTORS
330
18
102
}
330
18
100
AcDbGroup
300

 70
     1
 71
     1
  0
GROUP
  5
2B84
102
{ACAD_REACTORS
330
18
102
}
330
18
100
AcDbGroup
300

 70
     1
 71
     1
  0
GROUP
  5
1555
102
{ACAD_REACTORS
330
18
102
}
330
18
100
AcDbGroup
300

 70
     1
 71
     1
  0
LAYOUT
  5
5A
102
{ACAD_XDICTIONARY
360
4592
102
}
102
{ACAD_REACTORS
330
58
102
}
330
58
100
AcDbPlotSettings
  1

  2
none_device
  4
Letter_(8.50_x_11.00_Inches)
  6

 40
6.349999904632568
 41
6.349999904632568
 42
6.350006103515625
 43
6.350006103515625
 44
215.8999938964844
 45
279.3999938964844
 46
0.0
 47
0.0
 48
0.0
 49
0.0
140
0.0
141
0.0
142
1.0
143
56.1487857219155
 70
 11952
 72
     0
 73
     1
 74
     0
  7
monochrome.ctb
 75
     0
147
0.017809824151009
148
5906.460377060824
149
233.5965544000385
100
AcDbLayout
  1
Model
 70
     1
 71
     0
 10
0.0
 20
0.0
 11
12.0
 21
9.0
 12
0.0
 22
0.0
 32
0.0
 14
0.0
 24
0.0
 34
0.0
 15
0.0
 25
0.0
 35
0.0
146
0.0
 13
0.0
 23
0.0
 33
0.0
 16
1.0
 26
0.0
 36
0.0
 17
0.0
 27
1.0
 37
0.0
 76
     0
330
2
1001
ACAD_PSEXT
1000
なし
1000
なし
1000
適切ではありません
1000
新しいプロッタ環境設定名を選択しない限り、レイアウトは印刷されません。
1070
     0
  0
LAYOUT
  5
5B
102
{ACAD_XDICTIONARY
360
4594
102
}
102
{ACAD_REACTORS
330
58
102
}
330
58
100
AcDbPlotSettings
  1

  2
なし
  4

  6

 40
0.0
 41
0.0
 42
0.0
 43
0.0
 44
0.0
 45
0.0
 46
0.0
 47
0.0
 48
0.0
 49
0.0
140
0.0
141
0.0
142
1.0
143
1.0
 70
   688
 72
     0
 73
     0
 74
     5
  7
monochrome.ctb
 75
    16
147
1.0
148
0.0
149
0.0
100
AcDbLayout
  1
ﾚｲｱｳﾄ1
 70
     1
 71
     1
 10
0.0
 20
0.0
 11
12.0
 21
9.0
 12
0.0
 22
0.0
 32
0.0
 14
1.000000000000000E+20
 24
1.000000000000000E+20
 34
1.000000000000000E+20
 15
-1.000000000000000E+20
 25
-1.000000000000000E+20
 35
-1.000000000000000E+20
146
0.0
 13
0.0
 23
0.0
 33
0.0
 16
1.0
 26
0.0
 36
0.0
 17
0.0
 27
1.0
 37
0.0
 76
     0
330
7
  0
MLINESTYLE
  5
1D
102
{ACAD_REACTORS
330
19
102
}
330
19
100
AcDbMlineStyle
  2
STANDARD
 70
     0
  3

 62
   256
 51
90.0
 52
90.0
 71
     2
 49
0.5
 62
   256
  6
BYLAYER
 49
-0.5
 62
   256
  6
BYLAYER
  0
ACDBPLACEHOLDER
  5
57
102
{ACAD_REACTORS
330
56
102
}
330
56
  0
TABLESTYLE
  5
146
102
{ACAD_REACTORS
330
145
102
}
330
145
100
AcDbTableStyle
  3
Standard
 70
     0
 71
     0
 40
0.06
 41
0.06
280
     0
281
     0
  7
STANDARD
140
0.18
170
     2
 62
     0
 63
     7
283
     0
274
    -2
284
     1
 64
     0
275
    -2
285
     1
 65
     0
276
    -2
286
     1
 66
     0
277
    -2
287
     1
 67
     0
278
    -2
288
     1
 68
     0
279
    -2
289
     1
 69
     0
  7
STANDARD
140
0.25
170
     5
 62
     0
 63
     7
283
     0
274
    -2
284
     1
 64
     0
275
    -2
285
     1
 65
     0
276
    -2
286
     1
 66
     0
277
    -2
287
     1
 67
     0
278
    -2
288
     1
 68
     0
279
    -2
289
     1
 69
     0
  7
STANDARD
140
0.18
170
     5
 62
     0
 63
     7
283
     0
274
    -2
284
     1
 64
     0
275
    -2
285
     1
 65
     0
276
    -2
286
     1
 66
     0
277
    -2
287
     1
 67
     0
278
    -2
288
     1
 68
     0
279
    -2
289
     1
 69
     0
  0
DICTIONARYVAR
  5
1D2
102
{ACAD_REACTORS
330
1D1
102
}
330
1D1
100
DictionaryVariables
280
     0
  1
STANDARD
  0
DICTIONARYVAR
  5
D03
102
{ACAD_REACTORS
330
1D1
102
}
330
1D1
100
DictionaryVariables
280
     0
  1
1
  0
DICTIONARYVAR
  5
D04
102
{ACAD_REACTORS
330
1D1
102
}
330
1D1
100
DictionaryVariables
280
     0
  1

  0
DICTIONARY
  5
4592
330
5A
100
AcDbDictionary
280
     1
281
     1
  3
ACAD_XREC_ROUNDTRIP
360
4593
  0
DICTIONARY
  5
4594
330
5B
100
AcDbDictionary
280
     1
281
     1
  3
ACAD_XREC_ROUNDTRIP
360
4595
  0
XRECORD
  5
4593
102
{ACAD_REACTORS
330
4592
102
}
330
4592
100
AcDbXrecord
280
     1
102
SHADEPLOT
 70
     0
102
SHADEPLOTRESLEVEL
 70
     2
102
SHADEPLOTCUSTOMDPI
 70
   300
  0
XRECORD
  5
4595
102
{ACAD_REACTORS
330
4594
102
}
330
4594
100
AcDbXrecord
280
     1
102
SHADEPLOT
 70
     0
102
SHADEPLOTRESLEVEL
 70
     2
102
SHADEPLOTCUSTOMDPI
 70
   300
  0
ENDSEC
  0
EOF
