  0
SECTION
  2
HEADER
  9
$ACADVER
  1
AC1015
  9
$ACADMAINTVER
 70
    20
  9
$DWGCODEPAGE
  3
ANSI_932
  9
$INSBASE
 10
922.019522
 20
-675.4306699999999
 30
0.0
  9
$EXTMIN
 10
-119.0223477434194
 20
-16.41875132458574
 30
-0.0000000000000053
  9
$EXTMAX
 10
305.7272302335309
 20
438.681763193469
 30
0.0000000000000099
  9
$LIMMIN
 10
0.0
 20
0.0
  9
$LIMMAX
 10
420.0
 20
297.0
  9
$ORTHOMODE
 70
     0
  9
$REGENMODE
 70
     1
  9
$FILLMODE
 70
     1
  9
$QTEXTMODE
 70
     0
  9
$MIRRTEXT
 70
     1
  9
$LTSCALE
 40
10.0
  9
$ATTMODE
 70
     1
  9
$TEXTSIZE
 40
30.0
  9
$TRACEWID
 40
0.05
  9
$TEXTSTYLE
  7
SUNPOU
  9
$CLAYER
  8
0
  9
$CELTYPE
  6
BYLAYER
  9
$CECOLOR
 62
   256
  9
$CELTSCALE
 40
1.0
  9
$DISPSILH
 70
     0
  9
$DIMSCALE
 40
1.0
  9
$DIMASZ
 40
2.0
  9
$DIMEXO
 40
10.0
  9
$DIMDLI
 40
0.38
  9
$DIMRND
 40
0.0
  9
$DIMDLE
 40
0.0
  9
$DIMEXE
 40
0.0
  9
$DIMTP
 40
0.0
  9
$DIMTM
 40
0.0
  9
$DIMTXT
 40
5.0
  9
$DIMCEN
 40
0.0
  9
$DIMTSZ
 40
0.0
  9
$DIMTOL
 70
     0
  9
$DIMLIM
 70
     0
  9
$DIMTIH
 70
     0
  9
$DIMTOH
 70
     0
  9
$DIMSE1
 70
     0
  9
$DIMSE2
 70
     0
  9
$DIMTAD
 70
     1
  9
$DIMZIN
 70
     0
  9
$DIMBLK
  1
Dot
  9
$DIMASO
 70
     1
  9
$DIMSHO
 70
     1
  9
$DIMPOST
  1

  9
$DIMAPOST
  1

  9
$DIMALT
 70
     0
  9
$DIMALTD
 70
     2
  9
$DIMALTF
 40
25.4
  9
$DIMLFAC
 40
1.0
  9
$DIMTOFL
 70
     0
  9
$DIMTVP
 40
0.0
  9
$DIMTIX
 70
     0
  9
$DIMSOXD
 70
     0
  9
$DIMSAH
 70
     0
  9
$DIMBLK1
  1

  9
$DIMBLK2
  1

  9
$DIMSTYLE
  2
STANDARD
  9
$DIMCLRD
 70
    60
  9
$DIMCLRE
 70
    70
  9
$DIMCLRT
 70
    60
  9
$DIMTFAC
 40
0.064286
  9
$DIMGAP
 40
3.0
  9
$DIMJUST
 70
     0
  9
$DIMSD1
 70
     0
  9
$DIMSD2
 70
     0
  9
$DIMTOLJ
 70
     1
  9
$DIMTZIN
 70
     0
  9
$DIMALTZ
 70
     0
  9
$DIMALTTZ
 70
     0
  9
$DIMUPT
 70
     0
  9
$DIMDEC
 70
     0
  9
$DIMTDEC
 70
     0
  9
$DIMALTU
 70
     2
  9
$DIMALTTD
 70
     2
  9
$DIMTXSTY
  7
SUNPOU
  9
$DIMAUNIT
 70
     0
  9
$DIMADEC
 70
     0
  9
$DIMALTRND
 40
0.0
  9
$DIMAZIN
 70
     0
  9
$DIMDSEP
 70
    46
  9
$DIMATFIT
 70
     3
  9
$DIMFRAC
 70
     0
  9
$DIMLDRBLK
  1

  9
$DIMLUNIT
 70
     2
  9
$DIMLWD
 70
    -2
  9
$DIMLWE
 70
    -2
  9
$DIMTMOVE
 70
     0
  9
$LUNITS
 70
     2
  9
$LUPREC
 70
     5
  9
$SKETCHINC
 40
0.1
  9
$FILLETRAD
 40
0.0
  9
$AUNITS
 70
     0
  9
$AUPREC
 70
     0
  9
$MENU
  1
acad
  9
$ELEVATION
 40
0.0
  9
$PELEVATION
 40
0.0
  9
$THICKNESS
 40
0.0
  9
$LIMCHECK
 70
     0
  9
$CHAMFERA
 40
0.0
  9
$CHAMFERB
 40
0.0
  9
$CHAMFERC
 40
0.0
  9
$CHAMFERD
 40
0.0
  9
$SKPOLY
 70
     0
  9
$TDCREATE
 40
2450623.654673033
  9
$TDUCREATE
 40
2450623.279673032
  9
$TDUPDATE
 40
2454579.418825926
  9
$TDUUPDATE
 40
2454579.043825926
  9
$TDINDWG
 40
2.1319910880
  9
$TDUSRTIMER
 40
2.1319909144
  9
$USRTIMER
 70
     1
  9
$ANGBASE
 50
0.0
  9
$ANGDIR
 70
     0
  9
$PDMODE
 70
     0
  9
$PDSIZE
 40
0.0
  9
$PLINEWID
 40
0.0
  9
$SPLFRAME
 70
     0
  9
$SPLINETYPE
 70
     6
  9
$SPLINESEGS
 70
     8
  9
$HANDSEED
  5
50C0
  9
$SURFTAB1
 70
     6
  9
$SURFTAB2
 70
     6
  9
$SURFTYPE
 70
     6
  9
$SURFU
 70
     6
  9
$SURFV
 70
     6
  9
$UCSBASE
  2

  9
$UCSNAME
  2

  9
$UCSORG
 10
0.0
 20
0.0
 30
0.0
  9
$UCSXDIR
 10
1.0
 20
0.0
 30
0.0
  9
$UCSYDIR
 10
0.0
 20
1.0
 30
0.0
  9
$UCSORTHOREF
  2

  9
$UCSORTHOVIEW
 70
     0
  9
$UCSORGTOP
 10
0.0
 20
0.0
 30
0.0
  9
$UCSORGBOTTOM
 10
0.0
 20
0.0
 30
0.0
  9
$UCSORGLEFT
 10
0.0
 20
0.0
 30
0.0
  9
$UCSORGRIGHT
 10
0.0
 20
0.0
 30
0.0
  9
$UCSORGFRONT
 10
0.0
 20
0.0
 30
0.0
  9
$UCSORGBACK
 10
0.0
 20
0.0
 30
0.0
  9
$PUCSBASE
  2

  9
$PUCSNAME
  2

  9
$PUCSORG
 10
0.0
 20
0.0
 30
0.0
  9
$PUCSXDIR
 10
1.0
 20
0.0
 30
0.0
  9
$PUCSYDIR
 10
0.0
 20
1.0
 30
0.0
  9
$PUCSORTHOREF
  2

  9
$PUCSORTHOVIEW
 70
     0
  9
$PUCSORGTOP
 10
0.0
 20
0.0
 30
0.0
  9
$PUCSORGBOTTOM
 10
0.0
 20
0.0
 30
0.0
  9
$PUCSORGLEFT
 10
0.0
 20
0.0
 30
0.0
  9
$PUCSORGRIGHT
 10
0.0
 20
0.0
 30
0.0
  9
$PUCSORGFRONT
 10
0.0
 20
0.0
 30
0.0
  9
$PUCSORGBACK
 10
0.0
 20
0.0
 30
0.0
  9
$USERI1
 70
     0
  9
$USERI2
 70
     0
  9
$USERI3
 70
     0
  9
$USERI4
 70
     0
  9
$USERI5
 70
     0
  9
$USERR1
 40
0.0
  9
$USERR2
 40
0.0
  9
$USERR3
 40
0.0
  9
$USERR4
 40
0.0
  9
$USERR5
 40
0.0
  9
$WORLDVIEW
 70
     1
  9
$SHADEDGE
 70
     3
  9
$SHADEDIF
 70
    70
  9
$TILEMODE
 70
     1
  9
$MAXACTVP
 70
    16
  9
$PINSBASE
 10
0.0
 20
0.0
 30
0.0
  9
$PLIMCHECK
 70
     0
  9
$PEXTMIN
 10
1.000000000000000E+20
 20
1.000000000000000E+20
 30
1.000000000000000E+20
  9
$PEXTMAX
 10
-1.000000000000000E+20
 20
-1.000000000000000E+20
 30
-1.000000000000000E+20
  9
$PLIMMIN
 10
0.0
 20
0.0
  9
$PLIMMAX
 10
12.0
 20
9.0
  9
$UNITMODE
 70
     0
  9
$VISRETAIN
 70
     0
  9
$PLINEGEN
 70
     0
  9
$PSLTSCALE
 70
     1
  9
$TREEDEPTH
 70
  3020
  9
$CMLSTYLE
  2
STANDARD
  9
$CMLJUST
 70
     0
  9
$CMLSCALE
 40
1.0
  9
$PROXYGRAPHICS
 70
     1
  9
$MEASUREMENT
 70
     0
  9
$CELWEIGHT
370
    -1
  9
$ENDCAPS
280
     0
  9
$JOINSTYLE
280
     0
  9
$LWDISPLAY
290
     0
  9
$INSUNITS
 70
     0
  9
$HYPERLINKBASE
  1

  9
$STYLESHEET
  1
monochrome.ctb
  9
$XEDIT
290
     1
  9
$CEPSNTYPE
380
     0
  9
$PSTYLEMODE
290
     1
  9
$FINGERPRINTGUID
  2
{FB88A696-E29C-4009-92AF-A3599A8169D5}
  9
$VERSIONGUID
  2
{D9134F67-7FAE-48F1-84AA-88F9641433CE}
  9
$EXTNAMES
290
     1
  9
$PSVPSCALE
 40
0.0
  9
$OLESTARTUP
290
     0
  0
ENDSEC
  0
SECTION
  2
CLASSES
  0
CLASS
  1
DICTIONARYVAR
  2
AcDbDictionaryVar
  3
ObjectDBX Classes
 90
        0
280
     0
281
     0
  0
CLASS
  1
ACDBDICTIONARYWDFLT
  2
AcDbDictionaryWithDefault
  3
ObjectDBX Classes
 90
        0
280
     0
281
     0
  0
CLASS
  1
ACDBPLACEHOLDER
  2
AcDbPlaceHolder
  3
ObjectDBX Classes
 90
        0
280
     0
281
     0
  0
CLASS
  1
LAYOUT
  2
AcDbLayout
  3
ObjectDBX Classes
 90
        0
280
     0
281
     0
  0
CLASS
  1
TABLESTYLE
  2
AcDbTableStyle
  3
ObjectDBX Classes
 90
     2047
280
     0
281
     0
  0
CLASS
  1
SORTENTSTABLE
  2
AcDbSortentsTable
  3
ObjectDBX Classes
 90
        0
280
     0
281
     0
  0
ENDSEC
  0
SECTION
  2
TABLES
  0
TABLE
  2
VPORT
  5
12
330
0
100
AcDbSymbolTable
 70
     3
  0
VPORT
  5
50BA
330
12
100
AcDbSymbolTableRecord
100
AcDbViewportTableRecord
  2
*Active
 70
     0
 10
0.0
 20
0.0
 11
1.0
 21
1.0
 12
93.35244124505576
 22
211.1315059344417
 13
0.0
 23
0.0
 14
1.0
 24
1.0
 15
0.0
 25
0.0
 16
0.0
 26
0.0
 36
1.0
 17
0.0
 27
0.0
 37
0.0
 40
458.5701499527541
 41
1.529262086513995
 42
50.0
 43
0.0
 44
0.0
 50
0.0
 51
0.0
 71
     0
 72
 20000
 73
     1
 74
     1
 75
     0
 76
     0
 77
     0
 78
     0
281
     0
 65
     1
110
0.0
120
0.0
130
0.0
111
1.0
121
0.0
131
0.0
112
0.0
122
1.0
132
0.0
 79
     0
146
0.0
  0
ENDTAB
  0
TABLE
  2
LTYPE
  5
D
330
0
100
AcDbSymbolTable
 70
     2
  0
LTYPE
  5
E
330
D
100
AcDbSymbolTableRecord
100
AcDbLinetypeTableRecord
  2
BYBLOCK
 70
     0
  3

 72
    65
 73
     0
 40
0.0
  0
LTYPE
  5
F
330
D
100
AcDbSymbolTableRecord
100
AcDbLinetypeTableRecord
  2
BYLAYER
 70
     0
  3

 72
    65
 73
     0
 40
0.0
  0
LTYPE
  5
5
330
D
100
AcDbSymbolTableRecord
100
AcDbLinetypeTableRecord
  2
CONTINUOUS
 70
     0
  3
Solid line
 72
    65
 73
     0
 40
0.0
  0
LTYPE
  5
4890
330
D
100
AcDbSymbolTableRecord
100
AcDbLinetypeTableRecord
  2
DASHED
 70
     0
  3
Dashed __ __ __ __ __ __ __ __ __ __ __ __ __ _
 72
    65
 73
     2
 40
0.75
 49
0.5
 74
     0
 49
-0.25
 74
     0
  0
ENDTAB
  0
TABLE
  2
LAYER
  5
A
102
{ACAD_XDICTIONARY
360
1B4
102
}
330
0
100
AcDbSymbolTable
 70
     6
  0
LAYER
  5
4
330
A
100
AcDbSymbolTableRecord
100
AcDbLayerTableRecord
  2
0
 70
     0
 62
     7
  6
CONTINUOUS
370
    -3
390
57
  0
LAYER
  5
25
330
A
100
AcDbSymbolTableRecord
100
AcDbLayerTableRecord
  2
KIJUN
 70
     0
 62
     7
  6
CONTINUOUS
370
    -3
390
57
  0
LAYER
  5
22
330
A
100
AcDbSymbolTableRecord
100
AcDbLayerTableRecord
  2
HOJO
 70
     0
 62
     3
  6
CONTINUOUS
370
    -3
390
57
  0
LAYER
  5
1B
330
A
100
AcDbSymbolTableRecord
100
AcDbLayerTableRecord
  2
WAKU
 70
     0
 62
     1
  6
CONTINUOUS
370
    -3
390
57
  0
LAYER
  5
31
330
A
100
AcDbSymbolTableRecord
100
AcDbLayerTableRecord
  2
DEFPOINTS
 70
     0
 62
     7
  6
CONTINUOUS
290
     0
370
    -3
390
57
  0
LAYER
  5
28
330
A
100
AcDbSymbolTableRecord
100
AcDbLayerTableRecord
  2
SUNPOU
 70
     0
 62
    70
  6
CONTINUOUS
370
    -3
390
57
  0
ENDTAB
  0
TABLE
  2
STYLE
  5
B
330
0
100
AcDbSymbolTable
 70
     2
  0
STYLE
  5
C
330
B
100
AcDbSymbolTableRecord
100
AcDbTextStyleTableRecord
  2
STANDARD
 70
     0
 40
0.0
 41
1.0
 50
0.0
 71
     0
 42
0.2
  3
txt
  4

  0
STYLE
  5
1C
330
B
100
AcDbSymbolTableRecord
100
AcDbTextStyleTableRecord
  2
SUNPOU
 70
     0
 40
0.0
 41
1.0
 50
0.0
 71
     0
 42
30.0
  3
txt
  4
bigfont
  0
ENDTAB
  0
TABLE
  2
VIEW
  5
10
330
0
100
AcDbSymbolTable
 70
     0
  0
ENDTAB
  0
TABLE
  2
UCS
  5
11
330
0
100
AcDbSymbolTable
 70
     0
  0
ENDTAB
  0
TABLE
  2
APPID
  5
14
330
0
100
AcDbSymbolTable
 70
    11
  0
APPID
  5
15
330
14
100
AcDbSymbolTableRecord
100
AcDbRegAppTableRecord
  2
ACAD
 70
     0
  0
APPID
  5
1D3
330
14
100
AcDbSymbolTableRecord
100
AcDbRegAppTableRecord
  2
ACAD_DSTYLE_DIMTEXT_FILL
 70
     0
  0
APPID
  5
1D4
330
14
100
AcDbSymbolTableRecord
100
AcDbRegAppTableRecord
  2
ACAD_DSTYLE_DIMEXT_LENGTH
 70
     0
  0
APPID
  5
1D5
330
14
100
AcDbSymbolTableRecord
100
AcDbRegAppTableRecord
  2
ACAD_DSTYLE_DIMEXT_ENABLED
 70
     0
  0
APPID
  5
1D6
330
14
100
AcDbSymbolTableRecord
100
AcDbRegAppTableRecord
  2
ACAD_DSTYLE_DIM_LINETYPE
 70
     0
  0
APPID
  5
1D7
330
14
100
AcDbSymbolTableRecord
100
AcDbRegAppTableRecord
  2
ACAD_DSTYLE_DIM_EXT1_LINETYPE
 70
     0
  0
APPID
  5
1D8
330
14
100
AcDbSymbolTableRecord
100
AcDbRegAppTableRecord
  2
ACAD_DSTYLE_DIM_EXT2_LINETYPE
 70
     0
  0
APPID
  5
294
330
14
100
AcDbSymbolTableRecord
100
AcDbRegAppTableRecord
  2
ACAD_DSTYLE_DIMJOGGED_JOGANGLE_SYMBOL
 70
     0
  0
APPID
  5
478
330
14
100
AcDbSymbolTableRecord
100
AcDbRegAppTableRecord
  2
ACAD_DSTYLE_DIMARC_LENGTH_SYMBOL
 70
     0
  0
APPID
  5
F55
330
14
100
AcDbSymbolTableRecord
100
AcDbRegAppTableRecord
  2
ACAD_EXEMPT_FROM_CAD_STANDARDS
 70
     0
  0
APPID
  5
3D72
330
14
100
AcDbSymbolTableRecord
100
AcDbRegAppTableRecord
  2
ACAD_PSEXT
 70
     0
  0
ENDTAB
  0
TABLE
  2
DIMSTYLE
  5
16
330
0
100
AcDbSymbolTable
 70
     1
100
AcDbDimStyleTable
 71
     1
340
1E
  0
DIMSTYLE
105
1E
102
{ACAD_REACTORS
330
3628
330
3635
330
434B
330
43B3
102
}
330
16
100
AcDbSymbolTableRecord
100
AcDbDimStyleTableRecord
  2
STANDARD
 70
     0
340
C
  0
ENDTAB
  0
TABLE
  2
BLOCK_RECORD
  5
1
330
0
100
AcDbSymbolTable
 70
     6
  0
BLOCK_RECORD
  5
2
102
{ACAD_XDICTIONARY
360
D13
102
}
330
1
100
AcDbSymbolTableRecord
100
AcDbBlockTableRecord
  2
*MODEL_SPACE
340
5A
  0
BLOCK_RECORD
  5
7
330
1
100
AcDbSymbolTableRecord
100
AcDbBlockTableRecord
  2
*PAPER_SPACE
340
5B
  0
BLOCK_RECORD
  5
109
330
1
100
AcDbSymbolTableRecord
100
AcDbBlockTableRecord
  2
_Dot
340
0
102
{BLKREFS
331
505C
331
505D
331
5065
331
5066
331
506E
331
506F
331
509B
331
509C
102
}
  0
BLOCK_RECORD
  5
3629
330
1
100
AcDbSymbolTableRecord
100
AcDbBlockTableRecord
  2
*D1
340
0
  0
BLOCK_RECORD
  5
3636
330
1
100
AcDbSymbolTableRecord
100
AcDbBlockTableRecord
  2
*D2
340
0
  0
BLOCK_RECORD
  5
434C
330
1
100
AcDbSymbolTableRecord
100
AcDbBlockTableRecord
  2
*D3
340
0
  0
BLOCK_RECORD
  5
43B4
330
1
100
AcDbSymbolTableRecord
100
AcDbBlockTableRecord
  2
*D4
340
0
  0
ENDTAB
  0
ENDSEC
  0
SECTION
  2
BLOCKS
  0
BLOCK
  5
3
330
2
100
AcDbEntity
  8
0
100
AcDbBlockBegin
  2
*MODEL_SPACE
 70
     0
 10
0.0
 20
0.0
 30
0.0
  3
*MODEL_SPACE
  1

  0
ENDBLK
  5
6
330
2
100
AcDbEntity
  8
0
100
AcDbBlockEnd
  0
BLOCK
  5
8
330
7
100
AcDbEntity
 67
     1
  8
0
100
AcDbBlockBegin
  2
*PAPER_SPACE
 70
     0
 10
0.0
 20
0.0
 30
0.0
  3
*PAPER_SPACE
  1

  0
ENDBLK
  5
9
330
7
100
AcDbEntity
 67
     1
  8
0
100
AcDbBlockEnd
  0
BLOCK
  5
10C
330
109
100
AcDbEntity
  8
0
100
AcDbBlockBegin
  2
_Dot
 70
     0
 10
0.0
 20
0.0
 30
0.0
  3
_Dot
  1

  0
LWPOLYLINE
  5
10A
330
109
100
AcDbEntity
  8
0
  6
ByBlock
 62
     0
100
AcDbPolyline
 90
        2
 70
     1
 43
0.5
 10
-0.25
 20
0.0
 42
1.0
 10
0.25
 20
0.0
 42
1.0
  0
LINE
  5
10B
330
109
100
AcDbEntity
  8
0
  6
ByBlock
 62
     0
370
    -2
100
AcDbLine
 10
-0.5
 20
0.0
 30
0.0
 11
-1.0
 21
0.0
 31
0.0
  0
ENDBLK
  5
10D
330
109
100
AcDbEntity
  8
0
100
AcDbBlockEnd
  0
BLOCK
  5
3633
330
3629
100
AcDbEntity
  8
0
100
AcDbBlockBegin
  2
*D1
 70
     1
 10
0.0
 20
0.0
 30
0.0
  3
*D1
  1

  0
LINE
  5
506B
330
3629
100
AcDbEntity
  8
SUNPOU
 62
    70
370
    -2
100
AcDbLine
 10
304.7008190416771
 20
77.45107090970401
 30
0.0
 11
304.7008190416771
 21
47.56351208408356
 31
0.0
  0
LINE
  5
506C
330
3629
100
AcDbEntity
  8
SUNPOU
 62
    70
370
    -2
100
AcDbLine
 10
-55.29918095832306
 20
77.45107090970407
 30
0.0
 11
-55.29918095832306
 21
47.56351208408356
 31
0.0
  0
LINE
  5
506D
330
3629
100
AcDbEntity
  8
SUNPOU
 62
    60
370
    -2
100
AcDbLine
 10
302.7008190416771
 20
47.56351208408356
 30
0.0
 11
-53.29918095832306
 21
47.56351208408356
 31
0.0
  0
INSERT
  5
506E
330
3629
100
AcDbEntity
  8
SUNPOU
 62
    60
370
    -2
100
AcDbBlockReference
  2
_Dot
 10
304.7008190416771
 20
47.56351208408356
 30
0.0
 41
2.0
 42
2.0
 43
2.0
  0
INSERT
  5
506F
330
3629
100
AcDbEntity
  8
SUNPOU
 62
    60
370
    -2
100
AcDbBlockReference
  2
_Dot
 10
-55.29918095832306
 20
47.56351208408356
 30
0.0
 41
2.0
 42
2.0
 43
2.0
 50
180.0
  0
MTEXT
  5
5070
330
3629
100
AcDbEntity
  8
SUNPOU
 62
    60
100
AcDbMText
 10
124.700819041677
 20
53.06351208408357
 30
0.0
 40
5.0
 41
0.0
 71
     5
 72
     1
  1
\A1;360
  7
SUNPOU
 73
     1
 44
1.0
1001
ACAD
1000
MTEXTBEGIN
1070
    73
1070
     1
1070
    44
1040
1.0
1070
    74
1070
     0
1000
MTEXTEND
  0
POINT
  5
5071
330
3629
100
AcDbEntity
  8
DEFPOINTS
 62
     0
100
AcDbPoint
 10
304.7008190416771
 20
87.45107090970401
 30
0.0
  0
POINT
  5
5072
330
3629
100
AcDbEntity
  8
DEFPOINTS
 62
     0
100
AcDbPoint
 10
-55.29918095832306
 20
87.45107090970407
 30
0.0
  0
POINT
  5
5073
330
3629
100
AcDbEntity
  8
DEFPOINTS
 62
     0
100
AcDbPoint
 10
-55.29918095832306
 20
47.56351208408356
 30
0.0
  0
ENDBLK
  5
3634
330
3629
100
AcDbEntity
  8
0
100
AcDbBlockEnd
  0
BLOCK
  5
3640
330
3636
100
AcDbEntity
  8
0
100
AcDbBlockBegin
  2
*D2
 70
     1
 10
0.0
 20
0.0
 30
0.0
  3
*D2
  1

  0
LINE
  5
5059
330
3636
100
AcDbEntity
  8
SUNPOU
 62
    70
370
    -2
100
AcDbLine
 10
-65.29918095832307
 20
87.45107090970407
 30
0.0
 11
-111.0197163416636
 21
87.45107090970408
 31
0.0
  0
LINE
  5
505A
330
3636
100
AcDbEntity
  8
SUNPOU
 62
    70
370
    -2
100
AcDbLine
 10
-5.299180958322949
 20
347.4510709097041
 30
0.0
 11
-111.0197163416636
 21
347.4510709097041
 31
0.0
  0
LINE
  5
505B
330
3636
100
AcDbEntity
  8
SUNPOU
 62
    60
370
    -2
100
AcDbLine
 10
-111.0197163416636
 20
89.45107090970408
 30
0.0
 11
-111.0197163416636
 21
345.4510709097041
 31
0.0
  0
INSERT
  5
505C
330
3636
100
AcDbEntity
  8
SUNPOU
 62
    60
370
    -2
100
AcDbBlockReference
  2
_Dot
 10
-111.0197163416636
 20
87.45107090970408
 30
0.0
 41
2.0
 42
2.0
 43
2.0
 50
270.0
  0
INSERT
  5
505D
330
3636
100
AcDbEntity
  8
SUNPOU
 62
    60
370
    -2
100
AcDbBlockReference
  2
_Dot
 10
-111.0197163416636
 20
347.4510709097041
 30
0.0
 41
2.0
 42
2.0
 43
2.0
 50
90.0
  0
MTEXT
  5
505E
330
3636
100
AcDbEntity
  8
SUNPOU
 62
    60
100
AcDbMText
 10
-116.5197163416636
 20
217.4510709097041
 30
0.0
 40
5.0
 41
0.0
 71
     5
 72
     1
  1
\A1;260
  7
SUNPOU
 11
0.0000000000000001
 21
1.0
 31
0.0
 73
     1
 44
1.0
1001
ACAD
1000
MTEXTBEGIN
1070
    73
1070
     1
1070
    44
1040
1.0
1070
    74
1070
     0
1000
MTEXTEND
  0
POINT
  5
505F
330
3636
100
AcDbEntity
  8
DEFPOINTS
 62
     0
100
AcDbPoint
 10
-55.29918095832306
 20
87.45107090970407
 30
0.0
  0
POINT
  5
5060
330
3636
100
AcDbEntity
  8
DEFPOINTS
 62
     0
100
AcDbPoint
 10
4.70081904167705
 20
347.4510709097041
 30
0.0
  0
POINT
  5
5061
330
3636
100
AcDbEntity
  8
DEFPOINTS
 62
     0
100
AcDbPoint
 10
-111.0197163416636
 20
347.4510709097041
 30
0.0
  0
ENDBLK
  5
3641
330
3636
100
AcDbEntity
  8
0
100
AcDbBlockEnd
  0
BLOCK
  5
4356
330
434C
100
AcDbEntity
  8
0
100
AcDbBlockBegin
  2
*D3
 70
     1
 10
0.0
 20
0.0
 30
0.0
  3
*D3
  1

  0
LINE
  5
5062
330
434C
100
AcDbEntity
  8
SUNPOU
 62
    70
370
    -2
100
AcDbLine
 10
-5.299180958322949
 20
347.4510709097041
 30
0.0
 11
-111.0197163416635
 21
347.4510709097041
 31
0.0
  0
LINE
  5
5063
330
434C
100
AcDbEntity
  8
SUNPOU
 62
    70
370
    -2
100
AcDbLine
 10
19.70081904167716
 20
387.4510709097041
 30
0.0
 11
-111.0197163416635
 21
387.4510709097041
 31
0.0
  0
LINE
  5
5064
330
434C
100
AcDbEntity
  8
SUNPOU
 62
    60
370
    -2
100
AcDbLine
 10
-111.0197163416635
 20
349.4510709097041
 30
0.0
 11
-111.0197163416635
 21
385.4510709097041
 31
0.0
  0
INSERT
  5
5065
330
434C
100
AcDbEntity
  8
SUNPOU
 62
    60
370
    -2
100
AcDbBlockReference
  2
_Dot
 10
-111.0197163416635
 20
347.4510709097041
 30
0.0
 41
2.0
 42
2.0
 43
2.0
 50
270.0
  0
INSERT
  5
5066
330
434C
100
AcDbEntity
  8
SUNPOU
 62
    60
370
    -2
100
AcDbBlockReference
  2
_Dot
 10
-111.0197163416635
 20
387.4510709097041
 30
0.0
 41
2.0
 42
2.0
 43
2.0
 50
90.0
  0
MTEXT
  5
5067
330
434C
100
AcDbEntity
  8
SUNPOU
 62
    60
100
AcDbMText
 10
-116.5197163416635
 20
367.4510709097041
 30
0.0
 40
5.0
 41
0.0
 71
     5
 72
     1
  1
\A1;40
  7
SUNPOU
 11
0.0000000000000001
 21
1.0
 31
0.0
 73
     1
 44
1.0
1001
ACAD
1000
MTEXTBEGIN
1070
    73
1070
     1
1070
    44
1040
1.0
1070
    74
1070
     0
1000
MTEXTEND
  0
POINT
  5
5068
330
434C
100
AcDbEntity
  8
DEFPOINTS
 62
     0
100
AcDbPoint
 10
4.70081904167705
 20
347.4510709097041
 30
0.0
  0
POINT
  5
5069
330
434C
100
AcDbEntity
  8
DEFPOINTS
 62
     0
100
AcDbPoint
 10
29.70081904167717
 20
387.4510709097041
 30
0.0
  0
POINT
  5
506A
330
434C
100
AcDbEntity
  8
DEFPOINTS
 62
     0
100
AcDbPoint
 10
-111.0197163416635
 20
387.4510709097041
 30
0.0
  0
ENDBLK
  5
4357
330
434C
100
AcDbEntity
  8
0
100
AcDbBlockEnd
  0
BLOCK
  5
43BE
330
43B4
100
AcDbEntity
  8
0
100
AcDbBlockBegin
  2
*D4
 70
     1
 10
0.0
 20
0.0
 30
0.0
  3
*D4
  1

  0
LINE
  5
5098
330
43B4
100
AcDbEntity
  8
SUNPOU
 62
    70
370
    -2
100
AcDbLine
 10
29.70081904167717
 20
397.4510709097041
 30
0.0
 11
29.70081904167717
 21
430.648357150327
 31
0.0
  0
LINE
  5
5099
330
43B4
100
AcDbEntity
  8
SUNPOU
 62
    70
370
    -2
100
AcDbLine
 10
219.7008190416769
 20
397.451070909704
 30
0.0
 11
219.7008190416769
 21
430.648357150327
 31
0.0
  0
LINE
  5
509A
330
43B4
100
AcDbEntity
  8
SUNPOU
 62
    60
370
    -2
100
AcDbLine
 10
31.70081904167717
 20
430.648357150327
 30
0.0
 11
217.7008190416769
 21
430.648357150327
 31
0.0
  0
INSERT
  5
509B
330
43B4
100
AcDbEntity
  8
SUNPOU
 62
    60
370
    -2
100
AcDbBlockReference
  2
_Dot
 10
29.70081904167717
 20
430.648357150327
 30
0.0
 41
2.0
 42
2.0
 43
2.0
 50
180.0
  0
INSERT
  5
509C
330
43B4
100
AcDbEntity
  8
SUNPOU
 62
    60
370
    -2
100
AcDbBlockReference
  2
_Dot
 10
219.7008190416769
 20
430.648357150327
 30
0.0
 41
2.0
 42
2.0
 43
2.0
  0
MTEXT
  5
509D
330
43B4
100
AcDbEntity
  8
SUNPOU
 62
    60
100
AcDbMText
 10
124.700819041677
 20
436.148357150327
 30
0.0
 40
5.0
 41
0.0
 71
     5
 72
     1
  1
\A1;φ190
  7
SUNPOU
 73
     1
 44
1.0
1001
ACAD
1000
MTEXTBEGIN
1070
    73
1070
     1
1070
    44
1040
1.0
1070
    74
1070
     0
1000
MTEXTEND
  0
POINT
  5
509E
330
43B4
100
AcDbEntity
  8
DEFPOINTS
 62
     0
100
AcDbPoint
 10
29.70081904167717
 20
387.4510709097041
 30
0.0
  0
POINT
  5
509F
330
43B4
100
AcDbEntity
  8
DEFPOINTS
 62
     0
100
AcDbPoint
 10
219.7008190416769
 20
387.451070909704
 30
0.0
  0
POINT
  5
50A0
330
43B4
100
AcDbEntity
  8
DEFPOINTS
 62
     0
100
AcDbPoint
 10
219.7008190416769
 20
430.648357150327
 30
0.0
  0
ENDBLK
  5
43BF
330
43B4
100
AcDbEntity
  8
0
100
AcDbBlockEnd
  0
ENDSEC
  0
SECTION
  2
ENTITIES
  0
LINE
  5
1F
330
2
100
AcDbEntity
  8
WAKU
100
AcDbLine
 10
0.0
 20
21.0
 30
0.0
 11
237.3614398378393
 21
21.0
 31
0.0
  0
LINE
  5
20
330
2
100
AcDbEntity
  8
WAKU
100
AcDbLine
 10
0.0
 20
0.0
 30
0.0
 11
237.3614398378393
 21
0.0
 31
0.0
  0
TEXT
  5
21
330
2
100
AcDbEntity
  8
HOJO
100
AcDbText
 10
14.48094900000004
 20
3.549939000000037
 30
0.0
 40
13.5
  1
ML913(3)
  7
SUNPOU
100
AcDbText
  0
TEXT
  5
23
330
2
100
AcDbEntity
  8
HOJO
100
AcDbText
 10
135.1977778031908
 20
7.566579000000047
 30
0.0
 40
9.0
  1
260×360×360
  7
SUNPOU
100
AcDbText
  0
DIMENSION
  5
3628
330
2
100
AcDbEntity
  8
SUNPOU
100
AcDbDimension
  2
*D1
 10
-55.29918095832306
 20
47.56351208408356
 30
0.0
 11
124.700819041677
 21
53.06351208408357
 31
0.0
 70
    32
 71
     5
 42
360.0000000000001
  3
STANDARD
100
AcDbAlignedDimension
 13
304.7008190416771
 23
87.45107090970401
 33
0.0
 14
-55.29918095832306
 24
87.45107090970407
 34
0.0
 50
180.0
100
AcDbRotatedDimension
1001
ACAD
1000
DSTYLE
1002
{
1070
    41
1040
2.0
1070
    42
1040
10.0
1070
    44
1040
0.0
1070
    73
1070
     0
1070
    74
1070
     0
1070
    77
1070
     1
1070
   140
1040
5.0
1070
   141
1040
0.0
1070
   146
1040
0.064286
1070
   147
1040
3.0
1070
   176
1070
    60
1070
   177
1070
    70
1070
   178
1070
    60
1070
   271
1070
     0
1070
   272
1070
     0
1070
   340
1005
1C
1070
   342
1005
109
1002
}
  0
DIMENSION
  5
3635
330
2
100
AcDbEntity
  8
SUNPOU
100
AcDbDimension
  2
*D2
 10
-111.0197163416636
 20
347.4510709097041
 30
0.0
 11
-116.5197163416636
 21
217.4510709097041
 31
0.0
 70
    32
 71
     5
 42
260.0
  3
STANDARD
100
AcDbAlignedDimension
 13
-55.29918095832306
 23
87.45107090970407
 33
0.0
 14
4.70081904167705
 24
347.4510709097041
 34
0.0
 50
270.0
100
AcDbRotatedDimension
1001
ACAD
1000
DSTYLE
1002
{
1070
    41
1040
2.0
1070
    42
1040
10.0
1070
    44
1040
0.0
1070
    73
1070
     0
1070
    74
1070
     0
1070
    77
1070
     1
1070
   140
1040
5.0
1070
   141
1040
0.0
1070
   146
1040
0.064286
1070
   147
1040
3.0
1070
   176
1070
    60
1070
   177
1070
    70
1070
   178
1070
    60
1070
   271
1070
     0
1070
   272
1070
     0
1070
   340
1005
1C
1070
   342
1005
109
1002
}
  0
DIMENSION
  5
434B
330
2
100
AcDbEntity
  8
SUNPOU
100
AcDbDimension
  2
*D3
 10
-111.0197163416635
 20
387.4510709097041
 30
0.0
 11
-116.5197163416635
 21
367.4510709097041
 31
0.0
 70
    32
 71
     5
 42
40.0
  3
STANDARD
100
AcDbAlignedDimension
 13
4.70081904167705
 23
347.4510709097041
 33
0.0
 14
29.70081904167717
 24
387.4510709097041
 34
0.0
 50
270.0
100
AcDbRotatedDimension
1001
ACAD
1000
DSTYLE
1002
{
1070
    41
1040
2.0
1070
    42
1040
10.0
1070
    44
1040
0.0
1070
    73
1070
     0
1070
    74
1070
     0
1070
    77
1070
     1
1070
   140
1040
5.0
1070
   141
1040
0.0
1070
   146
1040
0.064286
1070
   147
1040
3.0
1070
   176
1070
    60
1070
   177
1070
    70
1070
   178
1070
    60
1070
   271
1070
     0
1070
   272
1070
     0
1070
   340
1005
1C
1070
   342
1005
109
1002
}
  0
DIMENSION
  5
43B3
330
2
100
AcDbEntity
  8
SUNPOU
100
AcDbDimension
  2
*D4
 10
219.7008190416769
 20
430.648357150327
 30
0.0
 11
124.700819041677
 21
436.148357150327
 31
0.0
 70
    32
  1
φ190
 71
     5
 42
189.9999999999997
  3
STANDARD
100
AcDbAlignedDimension
 13
29.70081904167717
 23
387.4510709097041
 33
0.0
 14
219.7008190416769
 24
387.451070909704
 34
0.0
100
AcDbRotatedDimension
1001
ACAD
1000
DSTYLE
1002
{
1070
    41
1040
2.0
1070
    42
1040
10.0
1070
    44
1040
0.0
1070
    73
1070
     0
1070
    74
1070
     0
1070
    77
1070
     1
1070
   140
1040
5.0
1070
   141
1040
0.0
1070
   146
1040
0.064286
1070
   147
1040
3.0
1070
   176
1070
    60
1070
   177
1070
    70
1070
   178
1070
    60
1070
   271
1070
     0
1070
   272
1070
     0
1070
   340
1005
1C
1070
   342
1005
109
1002
}
  0
LINE
  5
4EAE
102
{ACAD_REACTORS
330
5021
102
}
330
2
100
AcDbEntity
  8
KIJUN
100
AcDbLine
 10
304.7008190416771
 20
87.45107090970401
 30
0.0
 11
-55.29918095832306
 21
87.45107090970407
 31
0.0
  0
LINE
  5
4EB1
102
{ACAD_REACTORS
330
5021
102
}
330
2
100
AcDbEntity
  8
KIJUN
100
AcDbLine
 10
304.7008190416771
 20
87.45107090970401
 30
0.0
 11
304.7008190416769
 21
187.451070909704
 31
0.0
  0
LINE
  5
4EB3
102
{ACAD_REACTORS
330
5021
102
}
330
2
100
AcDbEntity
  8
KIJUN
100
AcDbLine
 10
304.7008190416769
 20
187.451070909704
 30
0.0
 11
-55.29918095832295
 21
187.4510709097041
 31
0.0
  0
LINE
  5
4EB4
102
{ACAD_REACTORS
330
5021
102
}
330
2
100
AcDbEntity
  8
KIJUN
100
AcDbLine
 10
244.7008190416771
 20
347.4510709097041
 30
0.0
 11
4.70081904167705
 21
347.4510709097041
 31
0.0
  0
LINE
  5
4EB5
102
{ACAD_REACTORS
330
5021
102
}
330
2
100
AcDbEntity
  8
KIJUN
  6
DASHED
100
AcDbLine
 10
219.7008190416769
 20
387.451070909704
 30
0.0
 11
29.70081904167717
 21
387.4510709097041
 31
0.0
  0
LINE
  5
4EB6
102
{ACAD_REACTORS
330
5021
102
}
330
2
100
AcDbEntity
  8
KIJUN
  6
DASHED
100
AcDbLine
 10
219.7008190416769
 20
347.4510709097041
 30
0.0
 11
219.7008190416769
 21
387.451070909704
 31
0.0
  0
LINE
  5
4EB7
102
{ACAD_REACTORS
330
5021
102
}
330
2
100
AcDbEntity
  8
KIJUN
100
AcDbLine
 10
244.7008190416771
 20
334.9510709097041
 30
0.0
 11
4.700819041676822
 21
334.9510709097041
 31
0.0
  0
LINE
  5
4EB8
102
{ACAD_REACTORS
330
5021
102
}
330
2
100
AcDbEntity
  8
KIJUN
100
AcDbLine
 10
253.6773999014505
 20
322.451070909704
 30
0.0
 11
-4.275761818117643
 21
322.451070909704
 31
0.0
  0
LINE
  5
4EB9
102
{ACAD_REACTORS
330
5021
102
}
330
2
100
AcDbEntity
  8
KIJUN
100
AcDbLine
 10
264.7008190416769
 20
277.451070909704
 30
0.0
 11
-15.29918095832283
 21
277.4510709097041
 31
0.0
  0
LINE
  5
4EBA
102
{ACAD_REACTORS
330
5021
102
}
330
2
100
AcDbEntity
  8
KIJUN
100
AcDbLine
 10
283.6547562801054
 20
242.451070909704
 30
0.0
 11
-34.2531181957338
 21
242.4510709097041
 31
0.0
  0
LINE
  5
4EBB
102
{ACAD_REACTORS
330
5021
102
}
330
2
100
AcDbEntity
  8
KIJUN
100
AcDbLine
 10
284.7003786387517
 20
230.451070909704
 30
0.0
 11
-35.29874055539835
 21
230.4510709097041
 31
0.0
  0
LINE
  5
4EC5
102
{ACAD_REACTORS
330
5021
102
}
330
2
100
AcDbEntity
  8
KIJUN
100
AcDbLine
 10
264.7008190416769
 20
275.3632772934059
 30
0.0
 11
264.7008190416769
 21
277.451070909704
 31
0.0
  0
ARC
  5
4EC6
102
{ACAD_REACTORS
330
5021
102
}
330
2
100
AcDbEntity
  8
KIJUN
100
AcDbCircle
 10
275.8384315847704
 20
206.1543843170103
 30
0.0
 40
25.86238745690646
100
AcDbArc
 50
313.6818571693243
 51
69.96111951189458
  0
ARC
  5
4EC8
102
{ACAD_REACTORS
330
5021
102
}
330
2
100
AcDbEntity
  8
KIJUN
100
AcDbCircle
 10
283.6549552947392
 20
236.4055329960123
 30
0.0
 40
6.045537916967308
100
AcDbArc
 50
279.9579159778473
 51
90.00188613465534
  0
ARC
  5
4ECA
102
{ACAD_REACTORS
330
5021
102
}
330
2
100
AcDbEntity
  8
KIJUN
100
AcDbCircle
 10
243.2945690416771
 20
341.2010709097041
 30
0.0
 40
6.40625
100
AcDbArc
 50
282.6803834918215
 51
77.31961650817855
  0
ARC
  5
4ECB
102
{ACAD_REACTORS
330
5021
102
}
330
2
100
AcDbEntity
  8
KIJUN
100
AcDbCircle
 10
243.2945690416771
 20
328.7010709097041
 30
0.0
 40
6.40625
100
AcDbArc
 50
282.6803834918215
 51
77.31961650817855
  0
ARC
  5
4EFC
102
{ACAD_REACTORS
330
5021
102
}
330
2
100
AcDbEntity
  8
KIJUN
100
AcDbCircle
 10
253.6891094715557
 20
316.4387078011751
 30
0.0
 40
6.012374511192057
100
AcDbArc
 50
308.5304020001719
 51
90.11158808717786
  0
ARC
  5
4EFD
102
{ACAD_REACTORS
330
5021
102
}
330
2
100
AcDbEntity
  8
KIJUN
100
AcDbCircle
 10
269.0364295401629
 20
296.2821768233177
 30
0.0
 40
19.32376951643544
100
AcDbArc
 50
126.8987048662149
 51
257.03435904418
  0
LINE
  5
4EFE
102
{ACAD_REACTORS
330
5021
102
}
330
2
100
AcDbEntity
  8
KIJUN
100
AcDbLine
 10
-55.29918095832306
 20
87.45107090970407
 30
0.0
 11
-55.29918095832295
 21
187.4510709097041
 31
0.0
  0
LINE
  5
4EFF
102
{ACAD_REACTORS
330
5021
102
}
330
2
100
AcDbEntity
  8
KIJUN
  6
DASHED
100
AcDbLine
 10
29.70081904167717
 20
347.4510709097041
 30
0.0
 11
29.70081904167717
 21
387.4510709097041
 31
0.0
  0
LINE
  5
4F00
102
{ACAD_REACTORS
330
5021
102
}
330
2
100
AcDbEntity
  8
KIJUN
100
AcDbLine
 10
-15.2991809583217
 20
275.3632772934056
 30
0.0
 11
-15.29918095832283
 21
277.4510709097041
 31
0.0
  0
ARC
  5
4F01
102
{ACAD_REACTORS
330
5021
102
}
330
2
100
AcDbEntity
  8
KIJUN
100
AcDbCircle
 10
-26.43679350141634
 20
206.1543843170103
 30
0.0
 40
25.86238745690646
100
AcDbArc
 50
110.0388804881054
 51
226.3181428306757
  0
ARC
  5
4F02
102
{ACAD_REACTORS
330
5021
102
}
330
2
100
AcDbEntity
  8
KIJUN
100
AcDbCircle
 10
-34.25331721138514
 20
236.4055329960124
 30
0.0
 40
6.045537916967308
100
AcDbArc
 50
89.99811385570428
 51
260.0420840221394
  0
ARC
  5
4F03
102
{ACAD_REACTORS
330
5021
102
}
330
2
100
AcDbEntity
  8
KIJUN
100
AcDbCircle
 10
6.10706904167705
 20
341.2010709097041
 30
0.0
 40
6.40625
100
AcDbArc
 50
102.6803834918214
 51
257.3196165081785
  0
ARC
  5
4F04
102
{ACAD_REACTORS
330
5021
102
}
330
2
100
AcDbEntity
  8
KIJUN
100
AcDbCircle
 10
6.10706904167705
 20
328.7010709097041
 30
0.0
 40
6.40625
100
AcDbArc
 50
102.6803834918214
 51
257.3196165081785
  0
ARC
  5
4F05
102
{ACAD_REACTORS
330
5021
102
}
330
2
100
AcDbEntity
  8
KIJUN
100
AcDbCircle
 10
-2.403750672790465
 20
256.5684879704626
 30
0.0
 40
22.79333735859764
100
AcDbArc
 50
124.4546927271098
 51
218.2698475986515
  0
ARC
  5
4F06
102
{ACAD_REACTORS
330
5021
102
}
330
2
100
AcDbEntity
  8
KIJUN
100
AcDbCircle
 10
-4.287471388201652
 20
316.4387078011752
 30
0.0
 40
6.012374511192057
100
AcDbArc
 50
89.88841191303059
 51
231.4695979998271
  0
ARC
  5
4F07
102
{ACAD_REACTORS
330
5021
102
}
330
2
100
AcDbEntity
  8
KIJUN
100
AcDbCircle
 10
-19.63479145680878
 20
296.2821768233178
 30
0.0
 40
19.32376951643544
100
AcDbArc
 50
282.9656409558203
 51
53.1012951337836
  0
ARC
  5
4F27
102
{ACAD_REACTORS
330
5021
102
}
330
2
100
AcDbEntity
  8
KIJUN
100
AcDbCircle
 10
141.533205455173
 20
296.3412460140569
 30
0.0
 40
30.68724756889664
100
AcDbArc
 50
127.4226234209522
 51
151.1191309868023
  0
ARC
  5
4F28
102
{ACAD_REACTORS
330
5021
102
}
330
2
100
AcDbEntity
  8
KIJUN
100
AcDbCircle
 10
133.2572732220845
 20
299.1540435259762
 30
0.0
 40
27.24384492999623
100
AcDbArc
 50
128.1911558818678
 51
154.3326375991257
  0
ARC
  5
4F30
102
{ACAD_REACTORS
330
5021
102
}
330
2
100
AcDbEntity
  8
KIJUN
100
AcDbCircle
 10
114.9336307872935
 20
296.3412460140569
 30
0.0
 40
30.68724756889664
100
AcDbArc
 50
127.4226234209522
 51
151.1191309868023
  0
ARC
  5
4F31
102
{ACAD_REACTORS
330
5021
102
}
330
2
100
AcDbEntity
  8
KIJUN
100
AcDbCircle
 10
106.657698554205
 20
299.1540435259762
 30
0.0
 40
27.24384492999623
100
AcDbArc
 50
128.1911558818678
 51
154.3326375991257
  0
ARC
  5
4F32
102
{ACAD_REACTORS
330
5021
102
}
330
2
100
AcDbEntity
  8
KIJUN
100
AcDbCircle
 10
80.54691243705486
 20
301.2235275230479
 30
0.0
 40
22.19686828044753
100
AcDbArc
 50
118.5984754580209
 51
153.3985452600834
  0
ARC
  5
4F33
102
{ACAD_REACTORS
330
5021
102
}
330
2
100
AcDbEntity
  8
KIJUN
100
AcDbCircle
 10
74.19378570768095
 20
303.0275380542696
 30
0.0
 40
20.03967888422397
100
AcDbArc
 50
118.9305051304945
 51
156.6985813045666
  0
ARC
  5
4F34
102
{ACAD_REACTORS
330
5021
102
}
330
2
100
AcDbEntity
  8
KIJUN
100
AcDbCircle
 10
54.70018866023599
 20
302.3928113089511
 30
0.0
 40
20.1713951271085
100
AcDbArc
 50
114.7435090406476
 51
154.228860499872
  0
ARC
  5
4F35
102
{ACAD_REACTORS
330
5021
102
}
330
2
100
AcDbEntity
  8
KIJUN
100
AcDbCircle
 10
49.24488122195964
 20
303.9694147119711
 30
0.0
 40
18.29560927998775
100
AcDbArc
 50
114.8846016801598
 51
157.5550465816449
  0
ARC
  5
4F38
102
{ACAD_REACTORS
330
5021
102
}
330
2
100
AcDbEntity
  8
KIJUN
100
AcDbCircle
 10
9.686715935460028
 20
307.7342126264771
 30
0.0
 40
13.22666161253222
100
AcDbArc
 50
101.1259791274234
 51
164.9759771339958
  0
ARC
  5
4F39
102
{ACAD_REACTORS
330
5021
102
}
330
2
100
AcDbEntity
  8
KIJUN
100
AcDbCircle
 10
7.232067872867901
 20
308.605825481648
 30
0.0
 40
12.16597562437465
100
AcDbArc
 50
100.5431605559708
 51
168.868536031927
  0
ARC
  5
4F3A
102
{ACAD_REACTORS
330
5021
102
}
330
2
100
AcDbEntity
  8
KIJUN
100
AcDbCircle
 10
26.49969426519488
 20
305.6224602932786
 30
0.0
 40
15.98381600159176
100
AcDbArc
 50
109.2535092213366
 51
159.718860319178
  0
ARC
  5
4F3B
102
{ACAD_REACTORS
330
5021
102
}
330
2
100
AcDbEntity
  8
KIJUN
100
AcDbCircle
 10
22.80448584013425
 20
306.7569858376588
 30
0.0
 40
14.61650141585922
100
AcDbArc
 50
109.1290380354667
 51
163.3106102263429
  0
ARC
  5
4F3C
102
{ACAD_REACTORS
330
5021
102
}
330
2
100
AcDbEntity
  8
KIJUN
100
AcDbCircle
 10
167.340685205905
 20
296.3412460140569
 30
0.0
 40
30.68724756889665
100
AcDbArc
 50
127.4226234209522
 51
151.1191309868002
  0
ARC
  5
4F3D
102
{ACAD_REACTORS
330
5021
102
}
330
2
100
AcDbEntity
  8
KIJUN
100
AcDbCircle
 10
159.0647529728165
 20
299.1540435259762
 30
0.0
 40
27.24384492999624
100
AcDbArc
 50
128.1911558818668
 51
154.3326375991199
  0
ARC
  5
4F3E
102
{ACAD_REACTORS
330
5021
102
}
330
2
100
AcDbEntity
  8
KIJUN
100
AcDbCircle
 10
193.9402598737845
 20
296.3412460140569
 30
0.0
 40
30.68724756889663
100
AcDbArc
 50
127.4226234209522
 51
151.1191309868002
  0
ARC
  5
4F3F
102
{ACAD_REACTORS
330
5021
102
}
330
2
100
AcDbEntity
  8
KIJUN
100
AcDbCircle
 10
185.664327640696
 20
299.1540435259762
 30
0.0
 40
27.24384492999623
100
AcDbArc
 50
128.1911558818668
 51
154.3326375991199
  0
ARC
  5
4F40
102
{ACAD_REACTORS
330
5021
102
}
330
2
100
AcDbEntity
  8
KIJUN
100
AcDbCircle
 10
212.2151468318967
 20
301.2235275230479
 30
0.0
 40
22.19686828044753
100
AcDbArc
 50
118.5984754580213
 51
153.3985452600783
  0
ARC
  5
4F41
102
{ACAD_REACTORS
330
5021
102
}
330
2
100
AcDbEntity
  8
KIJUN
100
AcDbCircle
 10
205.8620201025228
 20
303.0275380542696
 30
0.0
 40
20.03967888422396
100
AcDbArc
 50
118.9305051304948
 51
156.6985813045715
  0
ARC
  5
4F42
102
{ACAD_REACTORS
330
5021
102
}
330
2
100
AcDbEntity
  8
KIJUN
100
AcDbCircle
 10
233.2882125148034
 20
302.3928113089511
 30
0.0
 40
20.1713951271085
100
AcDbArc
 50
114.7435090406476
 51
154.228860499872
  0
ARC
  5
4F43
102
{ACAD_REACTORS
330
5021
102
}
330
2
100
AcDbEntity
  8
KIJUN
100
AcDbCircle
 10
227.832905076527
 20
303.9694147119711
 30
0.0
 40
18.29560927998775
100
AcDbArc
 50
114.8846016801598
 51
157.5550465816479
  0
ARC
  5
4F44
102
{ACAD_REACTORS
330
5021
102
}
330
2
100
AcDbEntity
  8
KIJUN
100
AcDbCircle
 10
264.0413562590666
 20
307.7342126264771
 30
0.0
 40
13.22666161253222
100
AcDbArc
 50
113.9971638449923
 51
164.975977133991
  0
ARC
  5
4F45
102
{ACAD_REACTORS
330
5021
102
}
330
2
100
AcDbEntity
  8
KIJUN
100
AcDbCircle
 10
261.5867081964744
 20
308.605825481648
 30
0.0
 40
12.16597562437464
100
AcDbArc
 50
105.747276487675
 51
168.868536031927
  0
ARC
  5
4F46
102
{ACAD_REACTORS
330
5021
102
}
330
2
100
AcDbEntity
  8
KIJUN
100
AcDbCircle
 10
253.0395601489736
 20
305.6224602932786
 30
0.0
 40
15.98381600159176
100
AcDbArc
 50
109.2535092213366
 51
159.7188603191734
  0
ARC
  5
4F47
102
{ACAD_REACTORS
330
5021
102
}
330
2
100
AcDbEntity
  8
KIJUN
100
AcDbCircle
 10
249.3443517239129
 20
306.7569858376587
 30
0.0
 40
14.61650141585921
100
AcDbArc
 50
109.1290380354667
 51
163.310610226346
  0
ARC
  5
4F8C
102
{ACAD_REACTORS
330
5021
102
}
330
2
100
AcDbEntity
  8
KIJUN
100
AcDbCircle
 10
103.9723062309469
 20
268.6481346464012
 30
0.0
 40
18.01173010549661
100
AcDbArc
 50
296.207167283838
 51
331.4281370578935
  0
ARC
  5
4F8D
102
{ACAD_REACTORS
330
5021
102
}
330
2
100
AcDbEntity
  8
KIJUN
100
AcDbCircle
 10
111.7163743902121
 20
259.6867374259713
 30
0.0
 40
8.028961145663259
100
AcDbArc
 50
175.348917700183
 51
241.9846241809638
  0
ARC
  5
4F8E
102
{ACAD_REACTORS
330
5021
102
}
330
2
100
AcDbEntity
  8
KIJUN
100
AcDbCircle
 10
121.0768635695698
 20
264.2134286346907
 30
0.0
 40
4.373061889917903
100
AcDbArc
 50
252.8934728059664
 51
15.79528814775387
  0
ARC
  5
4F8F
102
{ACAD_REACTORS
330
5021
102
}
330
2
100
AcDbEntity
  8
KIJUN
100
AcDbCircle
 10
131.2479386882453
 20
257.7582231815599
 30
0.0
 40
9.696059665959483
100
AcDbArc
 50
55.3587480756366
 51
127.9523825263229
  0
ARC
  5
4F90
102
{ACAD_REACTORS
330
5021
102
}
330
2
100
AcDbEntity
  8
KIJUN
100
AcDbCircle
 10
125.0735414069773
 20
268.5566128952475
 30
0.0
 40
15.26589189691427
100
AcDbArc
 50
283.8201389142637
 51
327.9872503618103
  0
ARC
  5
4F91
102
{ACAD_REACTORS
330
5021
102
}
330
2
100
AcDbEntity
  8
KIJUN
100
AcDbCircle
 10
116.480008649691
 20
304.9651368342083
 30
0.0
 40
52.67435944741791
100
AcDbArc
 50
265.0409187966048
 51
283.4368993946173
  0
ARC
  5
4F92
102
{ACAD_REACTORS
330
5021
102
}
330
2
100
AcDbEntity
  8
KIJUN
100
AcDbCircle
 10
134.3093174559975
 20
262.3645994467615
 30
0.0
 40
4.167263474088267
100
AcDbArc
 50
332.8662988555895
 51
53.98713513860401
  0
ARC
  5
4F93
102
{ACAD_REACTORS
330
5021
102
}
330
2
100
AcDbEntity
  8
KIJUN
100
AcDbCircle
 10
104.9910309433494
 20
307.0568012547091
 30
0.0
 40
54.5382665639467
100
AcDbArc
 50
252.4064811172146
 51
273.1049527675909
  0
ARC
  5
4F94
102
{ACAD_REACTORS
330
5021
102
}
330
2
100
AcDbEntity
  8
KIJUN
100
AcDbCircle
 10
55.86781028368375
 20
300.4249329087002
 30
0.0
 40
55.87819149385637
100
AcDbArc
 50
246.2081260573429
 51
317.8449058224192
  0
ARC
  5
4F95
102
{ACAD_REACTORS
330
5021
102
}
330
2
100
AcDbEntity
  8
KIJUN
100
AcDbCircle
 10
102.1158117408043
 20
265.6369970697395
 30
0.0
 40
5.534922646605197
100
AcDbArc
 50
209.3646773844841
 51
286.78131992879
  0
ARC
  5
4F96
102
{ACAD_REACTORS
330
5021
102
}
330
2
100
AcDbEntity
  8
KIJUN
100
AcDbCircle
 10
123.9218551195963
 20
245.1413079473269
 30
0.0
 40
27.34391257487372
100
AcDbArc
 50
82.88870700788086
 51
135.8767958412491
  0
ARC
  5
4F97
102
{ACAD_REACTORS
330
5021
102
}
330
2
100
AcDbEntity
  8
KIJUN
100
AcDbCircle
 10
130.0758050758693
 20
253.1846654531913
 30
0.0
 40
19.28996646381007
100
AcDbArc
 50
98.25265923705456
 51
164.5403341007097
  0
ARC
  5
4F98
102
{ACAD_REACTORS
330
5021
102
}
330
2
100
AcDbEntity
  8
KIJUN
100
AcDbCircle
 10
129.8633542374469
 20
260.7706016688394
 30
0.0
 40
10.10562743487273
100
AcDbArc
 50
96.90521472345313
 51
160.100097690694
  0
ARC
  5
4F99
102
{ACAD_REACTORS
330
5021
102
}
330
2
100
AcDbEntity
  8
KIJUN
100
AcDbCircle
 10
130.7072938399521
 20
253.1384033915407
 30
0.0
 40
17.78410826396972
100
AcDbArc
 50
60.55192453848594
 51
96.64818414969113
  0
ARC
  5
4F9A
102
{ACAD_REACTORS
330
5021
102
}
330
2
100
AcDbEntity
  8
KIJUN
100
AcDbCircle
 10
123.7456826690073
 20
265.0900725544823
 30
0.0
 40
19.42148098681302
100
AcDbArc
 50
299.1986319913991
 51
352.1808105376219
  0
ARC
  5
4F9B
102
{ACAD_REACTORS
330
5021
102
}
330
2
100
AcDbEntity
  8
KIJUN
100
AcDbCircle
 10
137.0889156671776
 20
263.1723124797569
 30
0.0
 40
5.942005236347159
100
AcDbArc
 50
352.996761452111
 51
66.58102176719987
  0
ARC
  5
4F9C
102
{ACAD_REACTORS
330
5021
102
}
330
2
100
AcDbEntity
  8
KIJUN
100
AcDbCircle
 10
120.5350263609671
 20
414.4986841089211
 30
0.0
 40
170.8219669623355
100
AcDbArc
 50
255.551537654557
 51
290.92216797522
  0
ARC
  5
4F9D
102
{ACAD_REACTORS
330
5021
102
}
330
2
100
AcDbEntity
  8
KIJUN
100
AcDbCircle
 10
118.9616983693007
 20
402.1374041121158
 30
0.0
 40
155.8197259846897
100
AcDbArc
 50
256.1459678291992
 51
289.4849980043778
  0
ARC
  5
4F9E
102
{ACAD_REACTORS
330
5021
102
}
330
2
100
AcDbEntity
  8
KIJUN
100
AcDbCircle
 10
140.2450834555137
 20
316.4224813930707
 30
0.0
 40
63.75545406970744
100
AcDbArc
 50
275.6280270547856
 51
293.1507974217334
  0
ARC
  5
4F9F
102
{ACAD_REACTORS
330
5021
102
}
330
2
100
AcDbEntity
  8
KIJUN
100
AcDbCircle
 10
135.2718422069383
 20
261.8543296233137
 30
0.0
 40
14.31330530540597
100
AcDbArc
 50
321.6546622390797
 51
32.29549621724192
  0
ARC
  5
4FA0
102
{ACAD_REACTORS
330
5021
102
}
330
2
100
AcDbEntity
  8
KIJUN
100
AcDbCircle
 10
166.6510236470266
 20
261.819302417914
 30
0.0
 40
4.235903361061756
100
AcDbArc
 50
183.747886807761
 51
251.5534114069525
  0
ARC
  5
4FA1
102
{ACAD_REACTORS
330
5021
102
}
330
2
100
AcDbEntity
  8
KIJUN
100
AcDbCircle
 10
164.376939769898
 20
283.4501938599832
 30
0.0
 40
21.99463481671328
100
AcDbArc
 50
219.3588880113934
 51
264.906374323079
  0
ARC
  5
4FA2
102
{ACAD_REACTORS
330
5021
102
}
330
2
100
AcDbEntity
  8
KIJUN
100
AcDbCircle
 10
125.4019731980717
 20
212.0640801901114
 30
0.0
 40
63.29919710329432
100
AcDbArc
 50
75.58580396541227
 51
105.1780197013572
  0
ARC
  5
4FA3
102
{ACAD_REACTORS
330
5021
102
}
330
2
100
AcDbEntity
  8
KIJUN
100
AcDbCircle
 10
138.6444630494977
 20
262.4121244613588
 30
0.0
 40
11.24338734740505
100
AcDbArc
 50
39.09126734877263
 51
77.07656180007103
  0
ARC
  5
4FA5
102
{ACAD_REACTORS
330
5021
102
}
330
2
100
AcDbEntity
  8
KIJUN
100
AcDbCircle
 10
100.9037935824273
 20
308.0860482976268
 30
0.0
 40
35.8186114660986
100
AcDbArc
 50
246.7981929658453
 51
282.7830893746114
  0
ARC
  5
4FA6
102
{ACAD_REACTORS
330
5021
102
}
330
2
100
AcDbEntity
  8
KIJUN
100
AcDbCircle
 10
85.87954960984063
 20
273.1500539549004
 30
0.0
 40
2.211441644526003
100
AcDbArc
 50
65.62283977749046
 51
191.6868878075074
  0
ARC
  5
4FA7
102
{ACAD_REACTORS
330
5021
102
}
330
2
100
AcDbEntity
  8
KIJUN
100
AcDbCircle
 10
79.61384806433239
 20
271.8924710188578
 30
0.0
 40
8.426293053143464
100
AcDbArc
 50
168.505335667851
 51
198.7474206233314
  0
ARC
  5
4FA8
102
{ACAD_REACTORS
330
5021
102
}
330
2
100
AcDbEntity
  8
KIJUN
100
AcDbCircle
 10
76.85197642340085
 20
263.426468548198
 30
0.0
 40
11.53793785173601
100
AcDbArc
 50
53.50649747983361
 51
118.4434489381949
  0
ARC
  5
4FA9
102
{ACAD_REACTORS
330
5021
102
}
330
2
100
AcDbEntity
  8
KIJUN
100
AcDbCircle
 10
36.22831802688347
 20
255.8341333492538
 30
0.0
 40
7.154003585234213
100
AcDbArc
 50
130.2349764879349
 51
246.0627342989215
  0
ARC
  5
4FAA
102
{ACAD_REACTORS
330
5021
102
}
330
2
100
AcDbEntity
  8
KIJUN
100
AcDbCircle
 10
35.27076466563278
 20
256.2526130814808
 30
0.0
 40
6.233077224266533
100
AcDbArc
 50
318.9628871066154
 51
125.9963320106761
  0
ARC
  5
4FAB
102
{ACAD_REACTORS
330
5021
102
}
330
2
100
AcDbEntity
  8
KIJUN
100
AcDbCircle
 10
45.93868385359724
 20
263.1533102984063
 30
0.0
 40
9.362237814467299
100
AcDbArc
 50
240.8093312495773
 51
303.8300210065502
  0
ARC
  5
4FAC
102
{ACAD_REACTORS
330
5021
102
}
330
2
100
AcDbEntity
  8
KIJUN
100
AcDbCircle
 10
249.741175407351
 20
645.3793595679679
 30
0.0
 40
437.6534884852181
100
AcDbArc
 50
239.4077518224896
 51
243.0147334862274
  0
ARC
  5
4FAD
102
{ACAD_REACTORS
330
5021
102
}
330
2
100
AcDbEntity
  8
KIJUN
100
AcDbCircle
 10
59.66508345138709
 20
259.7966934111882
 30
0.0
 40
15.21172605090737
100
AcDbArc
 50
38.10676338659379
 51
83.54210425295402
  0
ARC
  5
4FAE
102
{ACAD_REACTORS
330
5021
102
}
330
2
100
AcDbEntity
  8
KIJUN
100
AcDbCircle
 10
66.45884682112807
 20
270.8221039670312
 30
0.0
 40
6.52394196288365
100
AcDbArc
 50
141.1789600659884
 51
170.6339491635835
  0
ARC
  5
4FB0
102
{ACAD_REACTORS
330
5021
102
}
330
2
100
AcDbEntity
  8
KIJUN
100
AcDbCircle
 10
45.5898015472203
 20
243.2945535436009
 30
0.0
 40
32.02547289506151
100
AcDbArc
 50
63.21501357712457
 51
99.12488076400904
  0
ARC
  5
4FB1
102
{ACAD_REACTORS
330
5021
102
}
330
2
100
AcDbEntity
  8
KIJUN
100
AcDbCircle
 10
40.82647366019273
 20
272.359583438432
 30
0.0
 40
2.574565141503017
100
AcDbArc
 50
97.03879182600964
 51
286.7611654424901
  0
ARC
  5
4FB2
102
{ACAD_REACTORS
330
5021
102
}
330
2
100
AcDbEntity
  8
KIJUN
100
AcDbCircle
 10
67.53847223653952
 20
287.5121395216339
 30
0.0
 40
33.94207950701014
100
AcDbArc
 50
251.9748563209007
 51
285.8434114716629
  0
ARC
  5
4FB3
102
{ACAD_REACTORS
330
5021
102
}
330
2
100
AcDbEntity
  8
KIJUN
100
AcDbCircle
 10
62.70378682452189
 20
254.7927909971347
 30
0.0
 40
5.685453506187958
100
AcDbArc
 50
129.6767998059589
 51
175.5298904993681
  0
ARC
  5
4FB4
102
{ACAD_REACTORS
330
5021
102
}
330
2
100
AcDbEntity
  8
KIJUN
100
AcDbCircle
 10
59.94602575951319
 20
268.5386682246103
 30
0.0
 40
9.410523627208839
100
AcDbArc
 50
176.51783320594
 51
264.682288780217
  0
ARC
  5
4FB5
102
{ACAD_REACTORS
330
5021
102
}
330
2
100
AcDbEntity
  8
KIJUN
100
AcDbCircle
 10
44.9461074335353
 20
256.7302532061027
 30
0.0
 40
13.59043831920184
100
AcDbArc
 50
65.63472199809956
 51
104.3885472985097
  0
ARC
  5
4FB6
102
{ACAD_REACTORS
330
5021
102
}
330
2
100
AcDbEntity
  8
KIJUN
100
AcDbCircle
 10
95.01817119693397
 20
284.1296725984925
 30
0.0
 40
14.29961714009145
100
AcDbArc
 50
234.5622207119638
 51
287.3199968123008
  0
ARC
  5
4FB7
102
{ACAD_REACTORS
330
5021
102
}
330
2
100
AcDbEntity
  8
KIJUN
100
AcDbCircle
 10
82.24321569841094
 20
278.1328605708994
 30
0.0
 40
8.752758346111708
100
AcDbArc
 50
222.8452497670315
 51
269.3286248567814
  0
ARC
  5
4FB8
102
{ACAD_REACTORS
330
5021
102
}
330
2
100
AcDbEntity
  8
KIJUN
100
AcDbCircle
 10
70.64068554127891
 20
278.6635610234139
 30
0.0
 40
10.01225368214508
100
AcDbArc
 50
226.4800433412386
 51
261.655413217319
  0
ARC
  5
4FB9
102
{ACAD_REACTORS
330
5021
102
}
330
2
100
AcDbEntity
  8
KIJUN
100
AcDbCircle
 10
72.49575239632645
 20
294.0522544316379
 30
0.0
 40
28.30312664943667
100
AcDbArc
 50
235.8759267307828
 51
271.047710271883
  0
ARC
  5
4FBA
102
{ACAD_REACTORS
330
5021
102
}
330
2
100
AcDbEntity
  8
KIJUN
100
AcDbCircle
 10
45.59685001275897
 20
253.9499029599416
 30
0.0
 40
19.98583705432247
100
AcDbArc
 50
56.5333496558667
 51
87.73465991172781
  0
ARC
  5
4FBB
102
{ACAD_REACTORS
330
5021
102
}
330
2
100
AcDbEntity
  8
KIJUN
100
AcDbCircle
 10
73.59885367549487
 20
317.6425191696406
 30
0.0
 40
51.89196366919179
100
AcDbArc
 50
269.3534271310753
 51
285.8668946488628
  0
ARC
  5
4FBC
102
{ACAD_REACTORS
330
5021
102
}
330
2
100
AcDbEntity
  8
KIJUN
100
AcDbCircle
 10
72.70595150302938
 20
296.8994115161289
 30
0.0
 40
34.16738083796982
100
AcDbArc
 50
241.7119017856293
 51
282.6185684458593
  0
ARC
  5
4FBD
102
{ACAD_REACTORS
330
5021
102
}
330
2
100
AcDbEntity
  8
KIJUN
100
AcDbCircle
 10
73.03351389032366
 20
300.7850194668258
 30
0.0
 40
40.15524303013807
100
AcDbArc
 50
250.4467849532495
 51
272.3989364916097
  0
ARC
  5
4FBE
102
{ACAD_REACTORS
330
5021
102
}
330
2
100
AcDbEntity
  8
KIJUN
100
AcDbCircle
 10
66.74162759550734
 20
306.9640776277195
 30
0.0
 40
49.87975541146602
100
AcDbArc
 50
267.7114154391871
 51
286.237676136547
  0
ARC
  5
4FBF
102
{ACAD_REACTORS
330
5021
102
}
330
2
100
AcDbEntity
  8
KIJUN
100
AcDbCircle
 10
115.3401954451392
 20
420.5785828598481
 30
0.0
 40
168.7316421141193
100
AcDbArc
 50
243.1547500704112
 51
247.7679138756143
  0
ARC
  5
4FC3
102
{ACAD_REACTORS
330
5021
102
}
330
2
100
AcDbEntity
  8
KIJUN
100
AcDbCircle
 10
17.4181800494855
 20
228.6516757245288
 30
0.0
 40
46.73626354102341
100
AcDbArc
 50
62.2988823916653
 51
88.13858316782139
  0
ARC
  5
4FC4
102
{ACAD_REACTORS
330
5021
102
}
330
2
100
AcDbEntity
  8
KIJUN
100
AcDbCircle
 10
13.07159896319092
 20
261.0583059251331
 30
0.0
 40
15.86675047721002
100
AcDbArc
 50
304.7682013571661
 51
28.55427664230889
  0
ARC
  5
4FC5
102
{ACAD_REACTORS
330
5021
102
}
330
2
100
AcDbEntity
  8
KIJUN
100
AcDbCircle
 10
8.645191699865449
 20
267.1522067548115
 30
0.0
 40
23.39742905084606
100
AcDbArc
 50
250.2818251984497
 51
305.1625801661491
  0
ARC
  5
4FC6
102
{ACAD_REACTORS
330
5021
102
}
330
2
100
AcDbEntity
  8
KIJUN
100
AcDbCircle
 10
10.95439151439416
 20
261.1839429668298
 30
0.0
 40
9.475240634266722
100
AcDbArc
 50
342.7107936433251
 51
73.8182203583719
  0
ARC
  5
4FC7
102
{ACAD_REACTORS
330
5021
102
}
330
2
100
AcDbEntity
  8
KIJUN
100
AcDbCircle
 10
23.1301212156618
 20
260.9145295224177
 30
0.0
 40
8.469610368279873
100
AcDbArc
 50
157.688871389308
 51
197.3381810990504
  0
ARC
  5
4FC8
102
{ACAD_REACTORS
330
5021
102
}
330
2
100
AcDbEntity
  8
KIJUN
100
AcDbCircle
 10
12.01044430953845
 20
263.0912460897512
 30
0.0
 40
3.444465425477935
100
AcDbArc
 50
17.55024674383554
 51
143.7981167530359
  0
ARC
  5
4FCA
102
{ACAD_REACTORS
330
5021
102
}
330
2
100
AcDbEntity
  8
KIJUN
100
AcDbCircle
 10
1.426334331513771
 20
266.0068333832562
 30
0.0
 40
7.854216592124131
100
AcDbArc
 50
353.5583474608023
 51
46.90676249720706
  0
ARC
  5
4FCB
102
{ACAD_REACTORS
330
5021
102
}
330
2
100
AcDbEntity
  8
KIJUN
100
AcDbCircle
 10
17.52697024755412
 20
259.1575545612856
 30
0.0
 40
2.597465441128615
100
AcDbArc
 50
197.1762420957055
 51
342.3025370561664
  0
LINE
  5
4FCC
102
{ACAD_REACTORS
330
5021
102
}
330
2
100
AcDbEntity
  8
KIJUN
100
AcDbLine
 10
18.93627380367593
 20
275.3632772934056
 30
0.0
 11
10.27617784714925
 21
275.3632772934058
 31
0.0
  0
ARC
  5
4FCD
102
{ACAD_REACTORS
330
5021
102
}
330
2
100
AcDbEntity
  8
KIJUN
100
AcDbCircle
 10
251.8053887561446
 20
256.5684879704625
 30
0.0
 40
22.79333735859764
100
AcDbArc
 50
321.7301524013485
 51
55.54530727289017
  0
ARC
  5
4FCE
102
{ACAD_REACTORS
330
5021
102
}
330
2
100
AcDbEntity
  8
KIJUN
100
AcDbCircle
 10
-6.963926277063706
 20
226.3002224938889
 30
0.0
 40
20.34595112620966
100
AcDbArc
 50
67.71652031518908
 51
113.3382966615917
  0
ARC
  5
4FCF
102
{ACAD_REACTORS
330
5021
102
}
330
2
100
AcDbEntity
  8
KIJUN
100
AcDbCircle
 10
-22.38323944328818
 20
264.5463603328236
 30
0.0
 40
20.90309972015493
100
AcDbArc
 50
273.2421320553356
 51
290.6131607751933
  0
ARC
  5
4FD0
102
{ACAD_REACTORS
330
5021
102
}
330
2
100
AcDbEntity
  8
KIJUN
100
AcDbCircle
 10
6.456619587686873
 20
264.9034873988139
 30
0.0
 40
6.847062351620687
100
AcDbArc
 50
87.19044387769345
 51
193.0204518875716
  0
ARC
  5
4FD1
102
{ACAD_REACTORS
330
5021
102
}
330
2
100
AcDbEntity
  8
KIJUN
100
AcDbCircle
 10
-2.49687331759128
 20
259.4241950259958
 30
0.0
 40
4.550488018296137
100
AcDbArc
 50
59.89487784020726
 51
114.7608956894104
  0
ARC
  5
4FD2
102
{ACAD_REACTORS
330
5021
102
}
330
2
100
AcDbEntity
  8
KIJUN
100
AcDbCircle
 10
-16.34246474727286
 20
263.7956520174391
 30
0.0
 40
11.94209781161371
100
AcDbArc
 50
358.851691331466
 51
75.61371215927858
  0
ARC
  5
4FDA
102
{ACAD_REACTORS
330
5021
102
}
330
2
100
AcDbEntity
  8
KIJUN
100
AcDbCircle
 10
0.2815030165934331
 20
227.7972898168555
 30
0.0
 40
44.52361888660597
100
AcDbArc
 50
72.60118076790343
 51
99.87763635653179
  0
ARC
  5
4FDC
102
{ACAD_REACTORS
330
5021
102
}
330
2
100
AcDbEntity
  8
KIJUN
100
AcDbCircle
 10
16.65572888976032
 20
259.7298530084466
 30
0.0
 40
6.68954476790952
100
AcDbArc
 50
180.1971077443265
 51
336.1006281444895
  0
ARC
  5
4FDD
102
{ACAD_REACTORS
330
5021
102
}
330
2
100
AcDbEntity
  8
KIJUN
100
AcDbCircle
 10
7.977859509514246
 20
263.6621391505115
 30
0.0
 40
16.21664755845976
100
AcDbArc
 50
335.8199297799461
 51
12.39780851954325
  0
ARC
  5
4FDE
102
{ACAD_REACTORS
330
5021
102
}
330
2
100
AcDbEntity
  8
KIJUN
100
AcDbCircle
 10
20.43221828709295
 20
265.0422261863811
 30
0.0
 40
15.06083128211123
100
AcDbArc
 50
163.6945974388074
 51
222.8241975170884
  0
ARC
  5
4FDF
102
{ACAD_REACTORS
330
5021
102
}
330
2
100
AcDbEntity
  8
KIJUN
100
AcDbCircle
 10
19.82235147533765
 20
272.4787449676379
 30
0.0
 40
22.4295076298573
100
AcDbArc
 50
210.9684210651518
 51
240.1652888223352
  0
ARC
  5
4FE0
102
{ACAD_REACTORS
330
5021
102
}
330
2
100
AcDbEntity
  8
KIJUN
100
AcDbCircle
 10
1.713958873921114
 20
278.8222127078722
 30
0.0
 40
17.80742560608351
100
AcDbArc
 50
203.4347189752882
 51
236.8318287631525
  0
ARC
  5
4FE1
102
{ACAD_REACTORS
330
5021
102
}
330
2
100
AcDbEntity
  8
KIJUN
100
AcDbCircle
 10
-8.564826022862348
 20
231.2262952930361
 30
0.0
 40
19.9350997613917
100
AcDbArc
 50
85.909943441356
 51
123.2091827698358
  0
ARC
  5
4FE2
102
{ACAD_REACTORS
330
5021
102
}
330
2
100
AcDbEntity
  8
KIJUN
100
AcDbCircle
 10
-9.102957254889702
 20
271.8291435974089
 30
0.0
 40
8.486903161772847
100
AcDbArc
 50
166.8291182000581
 51
247.9843740866467
  0
ARC
  5
4FE4
102
{ACAD_REACTORS
330
5021
102
}
330
2
100
AcDbEntity
  8
KIJUN
100
AcDbCircle
 10
-22.30077291176258
 20
256.3747271685047
 30
0.0
 40
11.13960876495868
100
AcDbArc
 50
35.94465164017448
 51
90.49542411238894
  0
ARC
  5
4FE5
102
{ACAD_REACTORS
330
5021
102
}
330
2
100
AcDbEntity
  8
KIJUN
100
AcDbCircle
 10
-17.28555104353449
 20
238.2783746734671
 30
0.0
 40
18.32104721571461
100
AcDbArc
 50
71.8165498400746
 51
115.3548401642557
  0
ARC
  5
4FE6
102
{ACAD_REACTORS
330
5021
102
}
330
2
100
AcDbEntity
  8
KIJUN
100
AcDbCircle
 10
15.4707522245684
 20
-363.7278093811719
 30
0.0
 40
639.1121972469735
100
AcDbArc
 50
90.4656936082674
 51
92.43813989259608
  0
LINE
  5
4FE7
102
{ACAD_REACTORS
330
5021
102
}
330
2
100
AcDbEntity
  8
KIJUN
100
AcDbLine
 10
-13.3753540959915
 20
275.3632772934056
 30
0.0
 11
-15.2991809583217
 21
275.3632772934056
 31
0.0
  0
ARC
  5
4FE8
102
{ACAD_REACTORS
330
5021
102
}
330
2
100
AcDbEntity
  8
KIJUN
100
AcDbCircle
 10
239.1026787671819
 20
259.3880804090812
 30
0.0
 40
7.391055781371703
100
AcDbArc
 50
299.4067392052038
 51
58.13256349478475
  0
ARC
  5
4FE9
102
{ACAD_REACTORS
330
5021
102
}
330
2
100
AcDbEntity
  8
KIJUN
100
AcDbCircle
 10
245.7375977751798
 20
261.2529580453748
 30
0.0
 40
12.32067246286647
100
AcDbArc
 50
321.0377785404625
 51
17.79784649137159
  0
ARC
  5
4FEA
102
{ACAD_REACTORS
330
5021
102
}
330
2
100
AcDbEntity
  8
KIJUN
100
AcDbCircle
 10
223.8151941227201
 20
179.518860156539
 30
0.0
 40
95.8444171368667
100
AcDbArc
 50
61.17358183033203
 51
110.9231054225104
  0
ARC
  5
4FEC
102
{ACAD_REACTORS
330
5021
102
}
330
2
100
AcDbEntity
  8
KIJUN
100
AcDbCircle
 10
158.9120834765432
 20
260.8155556246288
 30
0.0
 40
14.4446426558491
100
AcDbArc
 50
47.46889663852837
 51
143.0339232529039
  0
ARC
  5
4FED
102
{ACAD_REACTORS
330
5021
102
}
330
2
100
AcDbEntity
  8
KIJUN
100
AcDbCircle
 10
173.2637193381711
 20
269.7072271927559
 30
0.0
 40
4.910647862771375
100
AcDbArc
 50
80.912603279475
 51
159.0884806981945
  0
ARC
  5
4FEE
102
{ACAD_REACTORS
330
5021
102
}
330
2
100
AcDbEntity
  8
KIJUN
100
AcDbCircle
 10
164.3932325786212
 20
222.6679943286215
 30
0.0
 40
52.77723764035186
100
AcDbArc
 50
54.58970582296965
 51
79.46887254887093
  0
ARC
  5
4FEF
102
{ACAD_REACTORS
330
5021
102
}
330
2
100
AcDbEntity
  8
KIJUN
100
AcDbCircle
 10
202.1840644379237
 20
269.6120034279985
 30
0.0
 40
8.211399102928012
100
AcDbArc
 50
181.4892064245036
 51
208.5887111635405
  0
ARC
  5
4FF0
102
{ACAD_REACTORS
330
5021
102
}
330
2
100
AcDbEntity
  8
KIJUN
100
AcDbCircle
 10
197.5754813061809
 20
239.6612039355338
 30
0.0
 40
29.95451644932954
100
AcDbArc
 50
50.39421191967161
 51
96.90270041656413
  0
ARC
  5
4FF1
102
{ACAD_REACTORS
330
5021
102
}
330
2
100
AcDbEntity
  8
KIJUN
100
AcDbCircle
 10
223.8713987805367
 20
233.9551597512526
 30
0.0
 40
37.03522959183896
100
AcDbArc
 50
58.89367630652563
 51
114.7175603528153
  0
ARC
  5
4FF2
102
{ACAD_REACTORS
330
5021
102
}
330
2
100
AcDbEntity
  8
KIJUN
100
AcDbCircle
 10
235.0161937058173
 20
270.0740402500336
 30
0.0
 40
26.20424316599199
100
AcDbArc
 50
248.4161985560707
 51
320.781465781927
  0
ARC
  5
4FF3
102
{ACAD_REACTORS
330
5021
102
}
330
2
100
AcDbEntity
  8
KIJUN
100
AcDbCircle
 10
173.2422248859142
 20
244.6227912216293
 30
0.0
 40
6.998460738786834
100
AcDbArc
 50
87.81877818318102
 51
172.2761925531805
  0
ARC
  5
4FF4
102
{ACAD_REACTORS
330
5021
102
}
330
2
100
AcDbEntity
  8
KIJUN
100
AcDbCircle
 10
173.4653306095544
 20
263.0668985297944
 30
0.0
 40
18.91061908620897
100
AcDbArc
 50
247.7578801081128
 51
309.2656897757583
  0
ARC
  5
4FF5
102
{ACAD_REACTORS
330
5021
102
}
330
2
100
AcDbEntity
  8
KIJUN
100
AcDbCircle
 10
212.8550209337076
 20
221.3564854616699
 30
0.0
 40
27.38156093222013
100
AcDbArc
 50
62.78686834034773
 51
119.303763561382
  0
ARC
  5
4FF6
102
{ACAD_REACTORS
330
5021
102
}
330
2
100
AcDbEntity
  8
KIJUN
100
AcDbCircle
 10
226.4641570103598
 20
255.2218364265294
 30
0.0
 40
28.79815226274214
100
AcDbArc
 50
190.7457469096854
 51
200.2925916298009
  0
ARC
  5
4FF7
102
{ACAD_REACTORS
330
5021
102
}
330
2
100
AcDbEntity
  8
KIJUN
100
AcDbCircle
 10
173.087283395248
 20
287.5244603931966
 30
0.0
 40
45.25900915919725
100
AcDbArc
 50
287.9291284664926
 51
303.6574189119761
  0
ARC
  5
4FF9
102
{ACAD_REACTORS
330
5021
102
}
330
2
100
AcDbEntity
  8
KIJUN
100
AcDbCircle
 10
192.7363259817703
 20
249.0493327058496
 30
0.0
 40
7.32869856042731
100
AcDbArc
 50
184.8796509465285
 51
218.7380730995993
  0
ARC
  5
4FFA
102
{ACAD_REACTORS
330
5021
102
}
330
2
100
AcDbEntity
  8
KIJUN
100
AcDbCircle
 10
171.696676263727
 20
301.5845654744511
 30
0.0
 40
44.2467794989372
100
AcDbArc
 50
261.7017244643528
 51
283.5423438981747
  0
ARC
  5
4FFB
102
{ACAD_REACTORS
330
5021
102
}
330
2
100
AcDbEntity
  8
KIJUN
100
AcDbCircle
 10
171.9385547278473
 20
284.4128671067998
 30
0.0
 40
32.83424452359728
100
AcDbArc
 50
272.7407550583842
 51
294.7962993464363
  0
ARC
  5
4FFC
102
{ACAD_REACTORS
330
5021
102
}
330
2
100
AcDbEntity
  8
KIJUN
100
AcDbCircle
 10
184.2305274795243
 20
262.377433697357
 30
0.0
 40
7.911029791335849
100
AcDbArc
 50
239.6815447734813
 51
280.7713579780491
  0
ARC
  5
4FFD
102
{ACAD_REACTORS
330
5021
102
}
330
2
100
AcDbEntity
  8
KIJUN
100
AcDbCircle
 10
183.4579773933918
 20
255.6649614623056
 30
0.0
 40
3.223092259208466
100
AcDbArc
 50
115.7508805709941
 51
182.0730265498314
  0
ARC
  5
4FFE
102
{ACAD_REACTORS
330
5021
102
}
330
2
100
AcDbEntity
  8
KIJUN
100
AcDbCircle
 10
94.42618855944408
 20
-310.6880971478391
 30
0.0
 40
581.6920134873089
100
AcDbArc
 50
78.63722286392031
 51
83.93676280844458
  0
ARC
  5
4FFF
102
{ACAD_REACTORS
330
5021
102
}
330
2
100
AcDbEntity
  8
KIJUN
100
AcDbCircle
 10
175.868461460957
 20
201.0399397075411
 30
0.0
 40
61.08507532825786
100
AcDbArc
 50
85.58685567059988
 51
98.45069347727488
  0
ARC
  5
5000
102
{ACAD_REACTORS
330
5021
102
}
330
2
100
AcDbEntity
  8
KIJUN
100
AcDbCircle
 10
243.8559997843082
 20
449.738924470403
 30
0.0
 40
192.2339084330914
100
AcDbArc
 50
248.3821258366167
 51
252.7997109909259
  0
ARC
  5
5001
102
{ACAD_REACTORS
330
5021
102
}
330
2
100
AcDbEntity
  8
KIJUN
100
AcDbCircle
 10
134.0462233862472
 20
83.00297553674107
 30
0.0
 40
194.8411807168753
100
AcDbArc
 50
66.69243712325405
 51
70.42942836644813
  0
ARC
  5
5002
102
{ACAD_REACTORS
330
5021
102
}
330
2
100
AcDbEntity
  8
KIJUN
100
AcDbCircle
 10
210.7107705869303
 20
233.9395493094785
 30
0.0
 40
17.45283448412583
100
AcDbArc
 50
85.46039595138374
 51
122.3113184205318
  0
ARC
  5
5003
102
{ACAD_REACTORS
330
5021
102
}
330
2
100
AcDbEntity
  8
KIJUN
100
AcDbCircle
 10
203.425610416802
 20
227.8786752703239
 30
0.0
 40
25.09047940914253
100
AcDbArc
 50
99.6849640212288
 51
125.9059176837822
  0
ARC
  5
5004
102
{ACAD_REACTORS
330
5021
102
}
330
2
100
AcDbEntity
  8
KIJUN
100
AcDbCircle
 10
211.3252111054891
 20
194.2794162101034
 30
0.0
 40
62.74680888313913
100
AcDbArc
 50
95.97097286485663
 51
116.0066555066601
  0
ARC
  5
5005
102
{ACAD_REACTORS
330
5021
102
}
330
2
100
AcDbEntity
  8
KIJUN
100
AcDbCircle
 10
174.1562070160858
 20
268.532108488799
 30
0.0
 40
20.30267890392399
100
AcDbArc
 50
267.5002543111601
 51
298.3987714974821
  0
ARC
  5
5007
102
{ACAD_REACTORS
330
5021
102
}
330
2
100
AcDbEntity
  8
KIJUN
100
AcDbCircle
 10
196.7372616606636
 20
206.1972514866566
 30
0.0
 40
52.5561565150361
100
AcDbArc
 50
87.73463470202962
 51
102.7816760623723
  0
ARC
  5
5008
102
{ACAD_REACTORS
330
5021
102
}
330
2
100
AcDbEntity
  8
KIJUN
100
AcDbCircle
 10
219.385676552945
 20
259.4986315861809
 30
0.0
 40
12.34455811717056
100
AcDbArc
 50
12.91465986227203
 51
66.31251360318316
  0
ARC
  5
5009
102
{ACAD_REACTORS
330
5021
102
}
330
2
100
AcDbEntity
  8
KIJUN
100
AcDbCircle
 10
228.696780816289
 20
263.3873907242196
 30
0.0
 40
8.598316673566833
100
AcDbArc
 50
120.4051521226079
 51
183.9930776597702
  0
ARC
  5
500A
102
{ACAD_REACTORS
330
5021
102
}
330
2
100
AcDbEntity
  8
KIJUN
100
AcDbCircle
 10
218.4622981022274
 20
258.0608505042301
 30
0.0
 40
5.009766382220474
100
AcDbArc
 50
70.68498760264495
 51
110.9438812470481
  0
ARC
  5
500B
102
{ACAD_REACTORS
330
5021
102
}
330
2
100
AcDbEntity
  8
KIJUN
100
AcDbCircle
 10
233.9663254447041
 20
259.8424503773148
 30
0.0
 40
3.511017384854454
100
AcDbArc
 50
16.89180717936396
 51
136.5369050780824
  0
ARC
  5
500C
102
{ACAD_REACTORS
330
5021
102
}
330
2
100
AcDbEntity
  8
KIJUN
100
AcDbCircle
 10
240.6921866962523
 20
257.3591597095183
 30
0.0
 40
4.858647903517502
100
AcDbArc
 50
133.856333089594
 51
294.8204810087053
  0
ARC
  5
500D
102
{ACAD_REACTORS
330
5021
102
}
330
2
100
AcDbEntity
  8
KIJUN
100
AcDbCircle
 10
240.3226230570496
 20
260.9981092914083
 30
0.0
 40
10.06635862383124
100
AcDbArc
 50
281.9140666721612
 51
32.31339352681652
  0
ARC
  5
500E
102
{ACAD_REACTORS
330
5021
102
}
330
2
100
AcDbEntity
  8
KIJUN
100
AcDbCircle
 10
239.7613259391187
 20
256.9424841785891
 30
0.0
 40
5.560963671393503
100
AcDbArc
 50
168.9189667490962
 51
223.1491548415172
  0
ARC
  5
5010
102
{ACAD_REACTORS
330
5021
102
}
330
2
100
AcDbEntity
  8
KIJUN
100
AcDbCircle
 10
240.8216398838302
 20
258.0951948381184
 30
0.0
 40
7.123823748574195
100
AcDbArc
 50
224.0808880687865
 51
282.8070455230082
  0
ARC
  5
5011
102
{ACAD_REACTORS
330
5021
102
}
330
2
100
AcDbEntity
  8
KIJUN
100
AcDbCircle
 10
249.4159145591361
 20
270.8507330391287
 30
0.0
 40
25.07629363607768
100
AcDbArc
 50
192.4604558030787
 51
225.564566420305
  0
ARC
  5
5012
102
{ACAD_REACTORS
330
5021
102
}
330
2
100
AcDbEntity
  8
KIJUN
100
AcDbCircle
 10
237.8645496520249
 20
269.0938178696614
 30
0.0
 40
19.61242317829314
100
AcDbArc
 50
206.4859215802151
 51
240.6753183511091
  0
ARC
  5
5014
102
{ACAD_REACTORS
330
5021
102
}
330
2
100
AcDbEntity
  8
KIJUN
100
AcDbCircle
 10
252.6134670511424
 20
248.5441360691406
 30
0.0
 40
17.17527084197602
100
AcDbArc
 50
12.91348584179481
 51
73.57963623384744
  0
ARC
  5
5015
102
{ACAD_REACTORS
330
5021
102
}
330
2
100
AcDbEntity
  8
KIJUN
100
AcDbCircle
 10
262.2318790711406
 20
251.1589697219683
 30
0.0
 40
6.969362335454328
100
AcDbArc
 50
115.658345478001
 51
250.1355846416774
  0
ARC
  5
5016
102
{ACAD_REACTORS
330
5021
102
}
330
2
100
AcDbEntity
  8
KIJUN
100
AcDbCircle
 10
265.4972099433942
 20
261.7068251486442
 30
0.0
 40
18.00646935969211
100
AcDbArc
 50
251.7683786304945
 51
288.5502343714116
  0
ARC
  5
5017
102
{ACAD_REACTORS
330
5021
102
}
330
2
100
AcDbEntity
  8
KIJUN
100
AcDbCircle
 10
260.5129480997695
 20
253.5340791596195
 30
0.0
 40
4.117250556345602
100
AcDbArc
 50
336.4177563769489
 51
108.3886165358367
  0
ARC
  5
5018
102
{ACAD_REACTORS
330
5021
102
}
330
2
100
AcDbEntity
  8
KIJUN
100
AcDbCircle
 10
266.45223526068
 20
255.8994534768483
 30
0.0
 40
4.559773936111921
100
AcDbArc
 50
241.6408080040832
 51
309.5283968685964
  0
ARC
  5
5019
102
{ACAD_REACTORS
330
5021
102
}
330
2
100
AcDbEntity
  8
KIJUN
100
AcDbCircle
 10
241.9111227165827
 20
232.0918907513181
 30
0.0
 40
38.79288111170504
100
AcDbArc
 50
35.99927764328061
 51
69.69472898756009
  0
ARC
  5
501B
102
{ACAD_REACTORS
330
5021
102
}
330
2
100
AcDbEntity
  8
KIJUN
100
AcDbCircle
 10
226.7004220518948
 20
189.5617036201282
 30
0.0
 40
83.96001218934532
100
AcDbArc
 50
70.03146671077094
 51
109.1123959712526
  0
ARC
  5
501C
102
{ACAD_REACTORS
330
5021
102
}
330
2
100
AcDbEntity
  8
KIJUN
100
AcDbCircle
 10
258.6623523116851
 20
272.8540482696987
 30
0.0
 40
4.036760224022418
100
AcDbArc
 50
177.8877230703948
 51
229.5438677368761
  0
ARC
  5
501D
102
{ACAD_REACTORS
330
5021
102
}
330
2
100
AcDbEntity
  8
KIJUN
100
AcDbCircle
 10
261.4206903379706
 20
264.4102938446806
 30
0.0
 40
10.95298344872504
100
AcDbArc
 50
64.55292029668209
 51
128.3261733156603
  0
ARC
  5
501E
102
{ACAD_REACTORS
330
5021
102
}
330
2
100
AcDbEntity
  8
KIJUN
100
AcDbCircle
 10
283.9045314015753
 20
270.0043873799081
 30
0.0
 40
15.33159608062953
100
AcDbArc
 50
194.5042051899801
 51
232.4602629637421
  0
ARC
  5
501F
102
{ACAD_REACTORS
330
5021
102
}
330
2
100
AcDbEntity
  8
KIJUN
100
AcDbCircle
 10
258.5412894273818
 20
248.0595590537325
 30
0.0
 40
20.93962072263127
100
AcDbArc
 50
59.84042611035588
 51
91.02508170182227
  0
ARC
  5
5020
102
{ACAD_REACTORS
330
5021
102
}
330
2
100
AcDbEntity
  8
KIJUN
100
AcDbCircle
 10
258.4148512087915
 20
247.2726592762016
 30
0.0
 40
24.29556766971832
100
AcDbArc
 50
56.65904160317541
 51
87.43488177234601
  0
TEXT
  5
50B3
330
2
100
AcDbEntity
  8
HOJO
100
AcDbText
 10
1.389285221192494
 20
-16.39041031893816
 30
0.0
 40
9.0
  1
※ FRP製の為、若干の寸法誤差がある場合があります。
  7
SUNPOU
100
AcDbText
  0
ENDSEC
  0
SECTION
  2
OBJECTS
  0
DICTIONARY
  5
1A
330
0
100
AcDbDictionary
281
     1
  3
ACAD_COLOR
350
144
  3
ACAD_GROUP
350
18
  3
ACAD_LAYOUT
350
58
  3
ACAD_MATERIAL
350
143
  3
ACAD_MLINESTYLE
350
19
  3
ACAD_PLOTSETTINGS
350
59
  3
ACAD_PLOTSTYLENAME
350
56
  3
ACAD_TABLESTYLE
350
145
  3
ACDBHEADERROUNDTRIPXREC
350
50BB
  3
AcDbVariableDictionary
350
1D1
  0
DICTIONARY
  5
1B4
330
A
100
AcDbDictionary
280
     1
281
     1
  3
ACAD_LAYERFILTERS
360
3D0D
  3
ACAD_LAYERSTATES
360
50AB
  3
ACLYDICTIONARY
360
3D0C
  0
DICTIONARY
  5
D13
330
2
100
AcDbDictionary
280
     1
281
     1
  3
ACAD_SORTENTS
360
D14
  0
DICTIONARY
  5
144
102
{ACAD_REACTORS
330
1A
102
}
330
1A
100
AcDbDictionary
281
     1
  0
DICTIONARY
  5
18
102
{ACAD_REACTORS
330
1A
102
}
330
1A
100
AcDbDictionary
281
     1
  3
*A1
350
E0D
  3
*A10
350
2B84
  3
*A11
350
1555
  3
*A12
350
3959
  3
*A13
350
4376
  3
*A14
350
1CBC
  3
*A15
350
39BC
  3
*A16
350
1A98
  3
*A17
350
307D
  3
*A18
350
265A
  3
*A19
350
3695
  3
*A2
350
3349
  3
*A20
350
2D78
  3
*A21
350
213E
  3
*A22
350
3467
  3
*A23
350
2C6B
  3
*A24
350
44A7
  3
*A25
350
395F
  3
*A26
350
34BB
  3
*A27
350
36C9
  3
*A28
350
2905
  3
*A29
350
17BC
  3
*A3
350
4891
  3
*A30
350
1EFE
  3
*A31
350
2037
  3
*A32
350
4648
  3
*A33
350
4D58
  3
*A34
350
22C8
  3
*A35
350
4DF5
  3
*A36
350
2EE1
  3
*A37
350
2573
  3
*A38
350
2F81
  3
*A39
350
2A17
  3
*A4
350
476C
  3
*A40
350
24D6
  3
*A41
350
5021
  3
*A42
350
3181
  3
*A43
350
31DF
  3
*A44
350
32E4
  3
*A45
350
275E
  3
*A46
350
3EE1
  3
*A5
350
26DD
  3
*A6
350
35A5
  3
*A7
350
FF8
  3
*A8
350
241A
  3
*A9
350
136A
  0
DICTIONARY
  5
58
102
{ACAD_REACTORS
330
1A
102
}
330
1A
100
AcDbDictionary
281
     1
  3
Model
350
5A
  3
ﾚｲｱｳﾄ1
350
5B
  0
DICTIONARY
  5
143
102
{ACAD_REACTORS
330
1A
102
}
330
1A
100
AcDbDictionary
281
     1
  0
DICTIONARY
  5
19
102
{ACAD_REACTORS
330
1A
102
}
330
1A
100
AcDbDictionary
281
     1
  3
STANDARD
350
1D
  0
DICTIONARY
  5
59
102
{ACAD_REACTORS
330
1A
102
}
330
1A
100
AcDbDictionary
281
     1
  0
ACDBDICTIONARYWDFLT
  5
56
102
{ACAD_REACTORS
330
1A
102
}
330
1A
100
AcDbDictionary
281
     1
  3
Normal
350
57
100
AcDbDictionaryWithDefault
340
57
  0
DICTIONARY
  5
145
102
{ACAD_REACTORS
330
1A
102
}
330
1A
100
AcDbDictionary
281
     1
  3
Standard
350
146
  0
DICTIONARY
  5
50BB
102
{ACAD_REACTORS
330
1A
102
}
330
1A
100
AcDbDictionary
281
     1
  0
DICTIONARY
  5
1D1
102
{ACAD_REACTORS
330
1A
102
}
330
1A
100
AcDbDictionary
281
     1
  3
CTABLESTYLE
350
1D2
  3
DIMASSOC
350
D03
  3
PROJECTNAME
350
D04
  0
DICTIONARY
  5
3D0D
102
{ACAD_REACTORS
330
1B4
102
}
330
1B4
100
AcDbDictionary
281
     1
  0
DICTIONARY
  5
50AB
102
{ACAD_REACTORS
330
1B4
102
}
330
1B4
100
AcDbDictionary
281
     1
  0
DICTIONARY
  5
3D0C
102
{ACAD_REACTORS
330
1B4
102
}
330
1B4
100
AcDbDictionary
281
     1
1001
ACAD
1000
<All
  0
SORTENTSTABLE
  5
D14
102
{ACAD_REACTORS
330
D13
102
}
330
D13
100
AcDbSortentsTable
330
2
331
20
  5
41A9
331
4FDC
  5
4FDD
331
4FA5
  5
4FA5
331
501B
  5
501B
331
4EB7
  5
4EB8
331
4FE4
  5
4FE5
331
4FAD
  5
4FAD
331
4FEC
  5
4FEC
331
4FB5
  5
4FB5
331
4FF4
  5
4FF4
331
4F3E
  5
4F3E
331
4FFC
  5
4FFC
331
4F46
  5
4F46
331
4FBD
  5
4FBD
331
4FC5
  5
4FC7
331
4F8E
  5
4F8E
331
5004
  5
5004
331
4FCD
  5
4FCF
331
4EFF
  5
4F00
331
4F96
  5
4F96
331
500C
  5
500C
331
5014
  5
5014
331
4F07
  5
4F19
331
4F9E
  5
4F9E
331
21
  5
41B3
331
4FDD
  5
4FDE
331
4FA6
  5
4FA6
331
4EB8
  5
4EB9
331
4F27
  5
4F27
331
4FE5
  5
4FE6
331
4FAE
  5
4FAE
331
4FED
  5
4FED
331
4FB6
  5
4FB6
331
4F3F
  5
4F3F
331
4FF5
  5
4FF5
331
4FFD
  5
4FFD
331
4F47
  5
4F47
331
4EC8
  5
4ECA
331
4FBE
  5
4FBE
331
5005
  5
5005
331
4FC6
  5
4FC8
331
4F8F
  5
4F8F
331
500D
  5
500D
331
4FCE
  5
4FD0
331
4F00
  5
4F01
331
4F97
  5
4F97
331
4F9F
  5
4F9F
331
5015
  5
5015
331
4EB1
  5
4EB3
331
4FDE
  5
4FDF
331
4FA7
  5
4FA7
331
4F28
  5
4F28
331
4EB9
  5
4EBA
331
4F30
  5
4F30
331
4FE6
  5
4FE7
331
4FEE
  5
4FEE
331
4FB7
  5
4FB7
331
4F38
  5
4F38
331
4FF6
  5
4FF6
331
434B
  5
48B6
331
4F40
  5
4F40
331
4FFE
  5
4FFE
331
4FBF
  5
4FBF
331
4FC7
  5
4FCB
331
4F90
  5
4F90
331
4FCF
  5
4FD1
331
500E
  5
500E
331
4F01
  5
4F02
331
4F98
  5
4F98
331
5016
  5
5016
331
23
  5
43CA
331
43B3
  5
4EAE
331
4FA0
  5
4FA0
331
4FDF
  5
4FE0
331
4EBA
  5
4EBB
331
4FA8
  5
4FA8
331
4FE7
  5
4FC4
331
4FB0
  5
4FB0
331
3635
  5
44A9
331
4F31
  5
4F31
331
4FEF
  5
4FEF
331
4F39
  5
4F39
331
4FF7
  5
4FF7
331
4F41
  5
4F41
331
4FB8
  5
4FB8
331
4FFF
  5
4FFF
331
4ECA
  5
4ECB
331
5007
  5
5007
331
4FC8
  5
4FCD
331
4F91
  5
4F91
331
4F02
  5
4F03
331
4F99
  5
4F99
331
4FD0
  5
4FD2
331
5017
  5
5017
331
4EB3
  5
4EB4
331
4FA1
  5
4FA1
331
4FA9
  5
4FA9
331
4EBB
  5
4EC5
331
4FE0
  5
4FE1
331
4FE8
  5
4FE8
331
4FB1
  5
4FB1
331
4F32
  5
4F32
331
4FF0
  5
4FF0
331
4F3A
  5
4F3A
331
4F42
  5
4F42
331
4FB9
  5
4FB9
331
4ECB
  5
4ECD
331
5000
  5
5000
331
4F92
  5
4F92
331
5008
  5
5008
331
4FD1
  5
4FDA
331
5010
  5
5010
331
4F03
  5
4F04
331
4F9A
  5
4F9A
331
5018
  5
5018
331
4EB4
  5
4EB5
331
4FA2
  5
4FA2
331
4FE1
  5
4FE2
331
4FAA
  5
4FAA
331
4FE9
  5
4FE9
331
4FB2
  5
4FB2
331
4F33
  5
4F33
331
4F3B
  5
4F3B
331
4FF1
  5
4FF1
331
4FF9
  5
4FF9
331
4F43
  5
4F43
331
4FBA
  5
4FBB
331
5001
  5
5001
331
5009
  5
5009
331
4FCA
  5
4FCE
331
4EFC
  5
4EFD
331
4F93
  5
4F93
331
4F04
  5
4F05
331
4F9B
  5
4F9B
331
4FD2
  5
4FDC
331
5011
  5
5011
331
4FDA
  5
4FCA
331
4EB5
  5
4EB6
331
3628
  5
43D6
331
4FA3
  5
4FA3
331
5019
  5
5019
331
4FAB
  5
4FAB
331
4FE2
  5
4FE4
331
4FEA
  5
4FEA
331
4FB3
  5
4FB3
331
4F34
  5
4F34
331
4FF2
  5
4FF2
331
4F3C
  5
4F3C
331
4FFA
  5
4FFA
331
4F44
  5
4F44
331
4FBB
  5
4FBA
331
1F
  5
41A8
331
4EC5
  5
4EC6
331
4FC3
  5
4FC5
331
4F8C
  5
4F8C
331
5002
  5
5002
331
4FCB
  5
4FCC
331
4EFD
  5
4EFE
331
4F94
  5
4F94
331
500A
  5
500A
331
5012
  5
5012
331
4F05
  5
4F06
331
4F9C
  5
4F9C
331
4EAE
  5
4EAF
331
4EB6
  5
4EB7
331
4FAC
  5
4FAC
331
4FB4
  5
4FB4
331
4F35
  5
4F35
331
4F3D
  5
4F3D
331
4FF3
  5
4FF3
331
4FFB
  5
4FFB
331
4EC6
  5
4EC8
331
4F45
  5
4F45
331
4FBC
  5
4FBC
331
5003
  5
5003
331
4FC4
  5
4FC6
331
4F8D
  5
4F8D
331
500B
  5
500B
331
4FCC
  5
4FC3
331
4EFE
  5
4EFF
331
4F95
  5
4F95
331
4F06
  5
4F07
331
4F9D
  5
4F9D
  0
GROUP
  5
E0D
102
{ACAD_REACTORS
330
18
102
}
330
18
100
AcDbGroup
300

 70
     1
 71
     1
  0
GROUP
  5
2B84
102
{ACAD_REACTORS
330
18
102
}
330
18
100
AcDbGroup
300

 70
     1
 71
     1
  0
GROUP
  5
1555
102
{ACAD_REACTORS
330
18
102
}
330
18
100
AcDbGroup
300

 70
     1
 71
     1
  0
GROUP
  5
3959
102
{ACAD_REACTORS
330
18
102
}
330
18
100
AcDbGroup
300

 70
     1
 71
     1
  0
GROUP
  5
4376
102
{ACAD_REACTORS
330
18
102
}
330
18
100
AcDbGroup
300

 70
     1
 71
     1
  0
GROUP
  5
1CBC
102
{ACAD_REACTORS
330
18
102
}
330
18
100
AcDbGroup
300

 70
     1
 71
     1
  0
GROUP
  5
39BC
102
{ACAD_REACTORS
330
18
102
}
330
18
100
AcDbGroup
300

 70
     1
 71
     1
  0
GROUP
  5
1A98
102
{ACAD_REACTORS
330
18
102
}
330
18
100
AcDbGroup
300

 70
     1
 71
     1
  0
GROUP
  5
307D
102
{ACAD_REACTORS
330
18
102
}
330
18
100
AcDbGroup
300

 70
     1
 71
     1
  0
GROUP
  5
265A
102
{ACAD_REACTORS
330
18
102
}
330
18
100
AcDbGroup
300

 70
     1
 71
     1
  0
GROUP
  5
3695
102
{ACAD_REACTORS
330
18
102
}
330
18
100
AcDbGroup
300

 70
     1
 71
     1
  0
GROUP
  5
3349
102
{ACAD_REACTORS
330
18
102
}
330
18
100
AcDbGroup
300

 70
     1
 71
     1
  0
GROUP
  5
2D78
102
{ACAD_REACTORS
330
18
102
}
330
18
100
AcDbGroup
300

 70
     1
 71
     1
  0
GROUP
  5
213E
102
{ACAD_REACTORS
330
18
102
}
330
18
100
AcDbGroup
300

 70
     1
 71
     1
  0
GROUP
  5
3467
102
{ACAD_REACTORS
330
18
102
}
330
18
100
AcDbGroup
300

 70
     1
 71
     1
  0
GROUP
  5
2C6B
102
{ACAD_REACTORS
330
18
102
}
330
18
100
AcDbGroup
300

 70
     1
 71
     1
  0
GROUP
  5
44A7
102
{ACAD_REACTORS
330
18
102
}
330
18
100
AcDbGroup
300

 70
     1
 71
     1
  0
GROUP
  5
395F
102
{ACAD_REACTORS
330
18
102
}
330
18
100
AcDbGroup
300

 70
     1
 71
     1
  0
GROUP
  5
34BB
102
{ACAD_REACTORS
330
18
102
}
330
18
100
AcDbGroup
300

 70
     1
 71
     1
  0
GROUP
  5
36C9
102
{ACAD_REACTORS
330
18
102
}
330
18
100
AcDbGroup
300

 70
     1
 71
     1
  0
GROUP
  5
2905
102
{ACAD_REACTORS
330
18
102
}
330
18
100
AcDbGroup
300

 70
     1
 71
     1
  0
GROUP
  5
17BC
102
{ACAD_REACTORS
330
18
102
}
330
18
100
AcDbGroup
300

 70
     1
 71
     1
  0
GROUP
  5
4891
102
{ACAD_REACTORS
330
18
102
}
330
18
100
AcDbGroup
300

 70
     1
 71
     1
  0
GROUP
  5
1EFE
102
{ACAD_REACTORS
330
18
102
}
330
18
100
AcDbGroup
300

 70
     1
 71
     1
  0
GROUP
  5
2037
102
{ACAD_REACTORS
330
18
102
}
330
18
100
AcDbGroup
300

 70
     1
 71
     1
  0
GROUP
  5
4648
102
{ACAD_REACTORS
330
18
102
}
330
18
100
AcDbGroup
300

 70
     1
 71
     1
  0
GROUP
  5
4D58
102
{ACAD_REACTORS
330
18
102
}
330
18
100
AcDbGroup
300

 70
     1
 71
     1
  0
GROUP
  5
22C8
102
{ACAD_REACTORS
330
18
102
}
330
18
100
AcDbGroup
300

 70
     1
 71
     1
  0
GROUP
  5
4DF5
102
{ACAD_REACTORS
330
18
102
}
330
18
100
AcDbGroup
300

 70
     1
 71
     1
  0
GROUP
  5
2EE1
102
{ACAD_REACTORS
330
18
102
}
330
18
100
AcDbGroup
300

 70
     1
 71
     1
  0
GROUP
  5
2573
102
{ACAD_REACTORS
330
18
102
}
330
18
100
AcDbGroup
300

 70
     1
 71
     1
  0
GROUP
  5
2F81
102
{ACAD_REACTORS
330
18
102
}
330
18
100
AcDbGroup
300

 70
     1
 71
     1
  0
GROUP
  5
2A17
102
{ACAD_REACTORS
330
18
102
}
330
18
100
AcDbGroup
300

 70
     1
 71
     1
  0
GROUP
  5
476C
102
{ACAD_REACTORS
330
18
102
}
330
18
100
AcDbGroup
300

 70
     1
 71
     1
  0
GROUP
  5
24D6
102
{ACAD_REACTORS
330
18
102
}
330
18
100
AcDbGroup
300

 70
     1
 71
     1
  0
GROUP
  5
5021
102
{ACAD_REACTORS
330
18
102
}
330
18
100
AcDbGroup
300

 70
     1
 71
     1
340
5020
340
501F
340
501E
340
501D
340
501C
340
501B
340
5019
340
5018
340
5017
340
5016
340
5015
340
5014
340
5012
340
5011
340
5010
340
500E
340
500D
340
500C
340
500B
340
500A
340
5009
340
5008
340
5007
340
5005
340
5004
340
5003
340
5002
340
5001
340
5000
340
4FFF
340
4FFE
340
4FFD
340
4FFC
340
4FFB
340
4FFA
340
4FF9
340
4FF7
340
4FF6
340
4FF5
340
4FF4
340
4FF3
340
4FF2
340
4FF1
340
4FF0
340
4FEF
340
4FEE
340
4FED
340
4FEC
340
4FEA
340
4FE9
340
4FE8
340
4FE6
340
4FE5
340
4FE4
340
4FE2
340
4FE1
340
4FE0
340
4FDF
340
4FDE
340
4FDD
340
4FDC
340
4FD2
340
4FD1
340
4FD0
340
4FCF
340
4FCE
340
4FCD
340
4FCA
340
4FC8
340
4FCB
340
4FC7
340
4FDA
340
4FC6
340
4FC5
340
4FC4
340
4FC3
340
4FE7
340
4FCC
340
4FBF
340
4FBE
340
4FBD
340
4FBC
340
4FBA
340
4FBB
340
4FB9
340
4FB8
340
4FB7
340
4FB6
340
4FB5
340
4FB4
340
4FB3
340
4FB2
340
4FB1
340
4FB0
340
4FAE
340
4FAD
340
4FAC
340
4FAB
340
4FAA
340
4FA9
340
4FA8
340
4FA7
340
4FA6
340
4FA5
340
4FA3
340
4FA2
340
4FA1
340
4FA0
340
4F9F
340
4F9E
340
4F9D
340
4F9C
340
4F9B
340
4F9A
340
4F99
340
4F98
340
4F97
340
4F96
340
4F95
340
4F94
340
4F93
340
4F92
340
4F91
340
4F90
340
4F8F
340
4F8E
340
4F8D
340
4F8C
340
4F47
340
4F46
340
4F45
340
4F44
340
4F43
340
4F42
340
4F41
340
4F40
340
4F3F
340
4F3E
340
4F3D
340
4F3C
340
4F3B
340
4F3A
340
4F39
340
4F38
340
4F35
340
4F34
340
4F33
340
4F32
340
4F31
340
4F30
340
4F28
340
4F27
340
4F07
340
4F06
340
4F05
340
4F04
340
4F03
340
4F02
340
4F01
340
4F00
340
4EFF
340
4EFE
340
4EFD
340
4EFC
340
4ECB
340
4ECA
340
4EC8
340
4EC6
340
4EC5
340
4EBB
340
4EBA
340
4EB9
340
4EB8
340
4EB7
340
4EB6
340
4EB5
340
4EB4
340
4EB3
340
4EB1
340
4EAE
  0
GROUP
  5
3181
102
{ACAD_REACTORS
330
18
102
}
330
18
100
AcDbGroup
300

 70
     1
 71
     1
  0
GROUP
  5
31DF
102
{ACAD_REACTORS
330
18
102
}
330
18
100
AcDbGroup
300

 70
     1
 71
     1
  0
GROUP
  5
32E4
102
{ACAD_REACTORS
330
18
102
}
330
18
100
AcDbGroup
300

 70
     1
 71
     1
  0
GROUP
  5
275E
102
{ACAD_REACTORS
330
18
102
}
330
18
100
AcDbGroup
300

 70
     1
 71
     1
  0
GROUP
  5
3EE1
102
{ACAD_REACTORS
330
18
102
}
330
18
100
AcDbGroup
300

 70
     1
 71
     1
  0
GROUP
  5
26DD
102
{ACAD_REACTORS
330
18
102
}
330
18
100
AcDbGroup
300

 70
     1
 71
     1
  0
GROUP
  5
35A5
102
{ACAD_REACTORS
330
18
102
}
330
18
100
AcDbGroup
300

 70
     1
 71
     1
  0
GROUP
  5
FF8
102
{ACAD_REACTORS
330
18
102
}
330
18
100
AcDbGroup
300

 70
     1
 71
     1
  0
GROUP
  5
241A
102
{ACAD_REACTORS
330
18
102
}
330
18
100
AcDbGroup
300

 70
     1
 71
     1
  0
GROUP
  5
136A
102
{ACAD_REACTORS
330
18
102
}
330
18
100
AcDbGroup
300

 70
     1
 71
     1
  0
LAYOUT
  5
5A
102
{ACAD_XDICTIONARY
360
50BC
102
}
102
{ACAD_REACTORS
330
58
102
}
330
58
100
AcDbPlotSettings
  1

  2
none_device
  4
Letter_(8.50_x_11.00_Inches)
  6

 40
6.349999904632568
 41
6.349999904632568
 42
6.350006103515625
 43
6.350006103515625
 44
215.8999938964844
 45
279.3999938964844
 46
0.0
 47
0.0
 48
0.0
 49
0.0
140
0.0
141
0.0
142
1.0
143
56.1487857219155
 70
 11952
 72
     0
 73
     1
 74
     0
  7
monochrome.ctb
 75
     0
147
0.017809824151009
148
5906.460377060824
149
233.5965544000385
100
AcDbLayout
  1
Model
 70
     1
 71
     0
 10
0.0
 20
0.0
 11
12.0
 21
9.0
 12
0.0
 22
0.0
 32
0.0
 14
0.0
 24
0.0
 34
0.0
 15
0.0
 25
0.0
 35
0.0
146
0.0
 13
0.0
 23
0.0
 33
0.0
 16
1.0
 26
0.0
 36
0.0
 17
0.0
 27
1.0
 37
0.0
 76
     0
330
2
1001
ACAD_PSEXT
1000
なし
1000
なし
1000
適切ではありません
1000
新しいプロッタ環境設定名を選択しない限り、レイアウトは印刷されません。
1070
     0
  0
LAYOUT
  5
5B
102
{ACAD_XDICTIONARY
360
50BE
102
}
102
{ACAD_REACTORS
330
58
102
}
330
58
100
AcDbPlotSettings
  1

  2
なし
  4

  6

 40
0.0
 41
0.0
 42
0.0
 43
0.0
 44
0.0
 45
0.0
 46
0.0
 47
0.0
 48
0.0
 49
0.0
140
0.0
141
0.0
142
1.0
143
1.0
 70
   688
 72
     0
 73
     0
 74
     5
  7
monochrome.ctb
 75
    16
147
1.0
148
0.0
149
0.0
100
AcDbLayout
  1
ﾚｲｱｳﾄ1
 70
     1
 71
     1
 10
0.0
 20
0.0
 11
12.0
 21
9.0
 12
0.0
 22
0.0
 32
0.0
 14
1.000000000000000E+20
 24
1.000000000000000E+20
 34
1.000000000000000E+20
 15
-1.000000000000000E+20
 25
-1.000000000000000E+20
 35
-1.000000000000000E+20
146
0.0
 13
0.0
 23
0.0
 33
0.0
 16
1.0
 26
0.0
 36
0.0
 17
0.0
 27
1.0
 37
0.0
 76
     0
330
7
  0
MLINESTYLE
  5
1D
102
{ACAD_REACTORS
330
19
102
}
330
19
100
AcDbMlineStyle
  2
STANDARD
 70
     0
  3

 62
   256
 51
90.0
 52
90.0
 71
     2
 49
0.5
 62
   256
  6
BYLAYER
 49
-0.5
 62
   256
  6
BYLAYER
  0
ACDBPLACEHOLDER
  5
57
102
{ACAD_REACTORS
330
56
102
}
330
56
  0
TABLESTYLE
  5
146
102
{ACAD_REACTORS
330
145
102
}
330
145
100
AcDbTableStyle
  3
Standard
 70
     0
 71
     0
 40
0.06
 41
0.06
280
     0
281
     0
  7
STANDARD
140
0.18
170
     2
 62
     0
 63
     7
283
     0
274
    -2
284
     1
 64
     0
275
    -2
285
     1
 65
     0
276
    -2
286
     1
 66
     0
277
    -2
287
     1
 67
     0
278
    -2
288
     1
 68
     0
279
    -2
289
     1
 69
     0
  7
STANDARD
140
0.25
170
     5
 62
     0
 63
     7
283
     0
274
    -2
284
     1
 64
     0
275
    -2
285
     1
 65
     0
276
    -2
286
     1
 66
     0
277
    -2
287
     1
 67
     0
278
    -2
288
     1
 68
     0
279
    -2
289
     1
 69
     0
  7
STANDARD
140
0.18
170
     5
 62
     0
 63
     7
283
     0
274
    -2
284
     1
 64
     0
275
    -2
285
     1
 65
     0
276
    -2
286
     1
 66
     0
277
    -2
287
     1
 67
     0
278
    -2
288
     1
 68
     0
279
    -2
289
     1
 69
     0
  0
DICTIONARYVAR
  5
1D2
102
{ACAD_REACTORS
330
1D1
102
}
330
1D1
100
DictionaryVariables
280
     0
  1
STANDARD
  0
DICTIONARYVAR
  5
D03
102
{ACAD_REACTORS
330
1D1
102
}
330
1D1
100
DictionaryVariables
280
     0
  1
1
  0
DICTIONARYVAR
  5
D04
102
{ACAD_REACTORS
330
1D1
102
}
330
1D1
100
DictionaryVariables
280
     0
  1

  0
DICTIONARY
  5
50BC
330
5A
100
AcDbDictionary
280
     1
281
     1
  3
ACAD_XREC_ROUNDTRIP
360
50BD
  0
DICTIONARY
  5
50BE
330
5B
100
AcDbDictionary
280
     1
281
     1
  3
ACAD_XREC_ROUNDTRIP
360
50BF
  0
XRECORD
  5
50BD
102
{ACAD_REACTORS
330
50BC
102
}
330
50BC
100
AcDbXrecord
280
     1
102
SHADEPLOT
 70
     0
102
SHADEPLOTRESLEVEL
 70
     2
102
SHADEPLOTCUSTOMDPI
 70
   300
  0
XRECORD
  5
50BF
102
{ACAD_REACTORS
330
50BE
102
}
330
50BE
100
AcDbXrecord
280
     1
102
SHADEPLOT
 70
     0
102
SHADEPLOTRESLEVEL
 70
     2
102
SHADEPLOTCUSTOMDPI
 70
   300
  0
ENDSEC
  0
EOF
