  0
SECTION
  2
HEADER
  9
$ACADVER
  1
AC1015
  9
$ACADMAINTVER
 70
    20
  9
$DWGCODEPAGE
  3
ANSI_932
  9
$INSBASE
 10
922.019522
 20
-675.4306699999999
 30
0.0
  9
$EXTMIN
 10
-120.4488716493465
 20
-16.56064708174199
 30
-0.000000000000013
  9
$EXTMAX
 10
298.2911755422149
 20
465.319369657481
 30
0.0000000000000023
  9
$LIMMIN
 10
0.0
 20
0.0
  9
$LIMMAX
 10
420.0
 20
297.0
  9
$ORTHOMODE
 70
     0
  9
$REGENMODE
 70
     1
  9
$FILLMODE
 70
     1
  9
$QTEXTMODE
 70
     0
  9
$MIRRTEXT
 70
     1
  9
$LTSCALE
 40
10.0
  9
$ATTMODE
 70
     1
  9
$TEXTSIZE
 40
30.0
  9
$TRACEWID
 40
0.05
  9
$TEXTSTYLE
  7
SUNPOU
  9
$CLAYER
  8
0
  9
$CELTYPE
  6
BYLAYER
  9
$CECOLOR
 62
   256
  9
$CELTSCALE
 40
1.0
  9
$DISPSILH
 70
     0
  9
$DIMSCALE
 40
1.0
  9
$DIMASZ
 40
2.0
  9
$DIMEXO
 40
10.0
  9
$DIMDLI
 40
0.38
  9
$DIMRND
 40
0.0
  9
$DIMDLE
 40
0.0
  9
$DIMEXE
 40
0.0
  9
$DIMTP
 40
0.0
  9
$DIMTM
 40
0.0
  9
$DIMTXT
 40
5.0
  9
$DIMCEN
 40
0.0
  9
$DIMTSZ
 40
0.0
  9
$DIMTOL
 70
     0
  9
$DIMLIM
 70
     0
  9
$DIMTIH
 70
     0
  9
$DIMTOH
 70
     0
  9
$DIMSE1
 70
     0
  9
$DIMSE2
 70
     0
  9
$DIMTAD
 70
     1
  9
$DIMZIN
 70
     0
  9
$DIMBLK
  1
Dot
  9
$DIMASO
 70
     1
  9
$DIMSHO
 70
     1
  9
$DIMPOST
  1

  9
$DIMAPOST
  1

  9
$DIMALT
 70
     0
  9
$DIMALTD
 70
     2
  9
$DIMALTF
 40
25.4
  9
$DIMLFAC
 40
1.0
  9
$DIMTOFL
 70
     0
  9
$DIMTVP
 40
0.0
  9
$DIMTIX
 70
     0
  9
$DIMSOXD
 70
     0
  9
$DIMSAH
 70
     0
  9
$DIMBLK1
  1

  9
$DIMBLK2
  1

  9
$DIMSTYLE
  2
STANDARD
  9
$DIMCLRD
 70
    60
  9
$DIMCLRE
 70
    70
  9
$DIMCLRT
 70
    60
  9
$DIMTFAC
 40
0.064286
  9
$DIMGAP
 40
3.0
  9
$DIMJUST
 70
     0
  9
$DIMSD1
 70
     0
  9
$DIMSD2
 70
     0
  9
$DIMTOLJ
 70
     1
  9
$DIMTZIN
 70
     0
  9
$DIMALTZ
 70
     0
  9
$DIMALTTZ
 70
     0
  9
$DIMUPT
 70
     0
  9
$DIMDEC
 70
     0
  9
$DIMTDEC
 70
     0
  9
$DIMALTU
 70
     2
  9
$DIMALTTD
 70
     2
  9
$DIMTXSTY
  7
SUNPOU
  9
$DIMAUNIT
 70
     0
  9
$DIMADEC
 70
     0
  9
$DIMALTRND
 40
0.0
  9
$DIMAZIN
 70
     0
  9
$DIMDSEP
 70
    46
  9
$DIMATFIT
 70
     3
  9
$DIMFRAC
 70
     0
  9
$DIMLDRBLK
  1

  9
$DIMLUNIT
 70
     2
  9
$DIMLWD
 70
    -2
  9
$DIMLWE
 70
    -2
  9
$DIMTMOVE
 70
     0
  9
$LUNITS
 70
     2
  9
$LUPREC
 70
     5
  9
$SKETCHINC
 40
0.1
  9
$FILLETRAD
 40
0.0
  9
$AUNITS
 70
     0
  9
$AUPREC
 70
     0
  9
$MENU
  1
acad
  9
$ELEVATION
 40
0.0
  9
$PELEVATION
 40
0.0
  9
$THICKNESS
 40
0.0
  9
$LIMCHECK
 70
     0
  9
$CHAMFERA
 40
0.0
  9
$CHAMFERB
 40
0.0
  9
$CHAMFERC
 40
0.0
  9
$CHAMFERD
 40
0.0
  9
$SKPOLY
 70
     0
  9
$TDCREATE
 40
2450623.654673033
  9
$TDUCREATE
 40
2450623.279673032
  9
$TDUPDATE
 40
2454579.418189700
  9
$TDUUPDATE
 40
2454579.043189700
  9
$TDINDWG
 40
1.6096365394
  9
$TDUSRTIMER
 40
1.6096363657
  9
$USRTIMER
 70
     1
  9
$ANGBASE
 50
0.0
  9
$ANGDIR
 70
     0
  9
$PDMODE
 70
     0
  9
$PDSIZE
 40
0.0
  9
$PLINEWID
 40
0.0
  9
$SPLFRAME
 70
     0
  9
$SPLINETYPE
 70
     6
  9
$SPLINESEGS
 70
     8
  9
$HANDSEED
  5
4AFE
  9
$SURFTAB1
 70
     6
  9
$SURFTAB2
 70
     6
  9
$SURFTYPE
 70
     6
  9
$SURFU
 70
     6
  9
$SURFV
 70
     6
  9
$UCSBASE
  2

  9
$UCSNAME
  2

  9
$UCSORG
 10
0.0
 20
0.0
 30
0.0
  9
$UCSXDIR
 10
1.0
 20
0.0
 30
0.0
  9
$UCSYDIR
 10
0.0
 20
1.0
 30
0.0
  9
$UCSORTHOREF
  2

  9
$UCSORTHOVIEW
 70
     0
  9
$UCSORGTOP
 10
0.0
 20
0.0
 30
0.0
  9
$UCSORGBOTTOM
 10
0.0
 20
0.0
 30
0.0
  9
$UCSORGLEFT
 10
0.0
 20
0.0
 30
0.0
  9
$UCSORGRIGHT
 10
0.0
 20
0.0
 30
0.0
  9
$UCSORGFRONT
 10
0.0
 20
0.0
 30
0.0
  9
$UCSORGBACK
 10
0.0
 20
0.0
 30
0.0
  9
$PUCSBASE
  2

  9
$PUCSNAME
  2

  9
$PUCSORG
 10
0.0
 20
0.0
 30
0.0
  9
$PUCSXDIR
 10
1.0
 20
0.0
 30
0.0
  9
$PUCSYDIR
 10
0.0
 20
1.0
 30
0.0
  9
$PUCSORTHOREF
  2

  9
$PUCSORTHOVIEW
 70
     0
  9
$PUCSORGTOP
 10
0.0
 20
0.0
 30
0.0
  9
$PUCSORGBOTTOM
 10
0.0
 20
0.0
 30
0.0
  9
$PUCSORGLEFT
 10
0.0
 20
0.0
 30
0.0
  9
$PUCSORGRIGHT
 10
0.0
 20
0.0
 30
0.0
  9
$PUCSORGFRONT
 10
0.0
 20
0.0
 30
0.0
  9
$PUCSORGBACK
 10
0.0
 20
0.0
 30
0.0
  9
$USERI1
 70
     0
  9
$USERI2
 70
     0
  9
$USERI3
 70
     0
  9
$USERI4
 70
     0
  9
$USERI5
 70
     0
  9
$USERR1
 40
0.0
  9
$USERR2
 40
0.0
  9
$USERR3
 40
0.0
  9
$USERR4
 40
0.0
  9
$USERR5
 40
0.0
  9
$WORLDVIEW
 70
     1
  9
$SHADEDGE
 70
     3
  9
$SHADEDIF
 70
    70
  9
$TILEMODE
 70
     1
  9
$MAXACTVP
 70
    16
  9
$PINSBASE
 10
0.0
 20
0.0
 30
0.0
  9
$PLIMCHECK
 70
     0
  9
$PEXTMIN
 10
1.000000000000000E+20
 20
1.000000000000000E+20
 30
1.000000000000000E+20
  9
$PEXTMAX
 10
-1.000000000000000E+20
 20
-1.000000000000000E+20
 30
-1.000000000000000E+20
  9
$PLIMMIN
 10
0.0
 20
0.0
  9
$PLIMMAX
 10
12.0
 20
9.0
  9
$UNITMODE
 70
     0
  9
$VISRETAIN
 70
     0
  9
$PLINEGEN
 70
     0
  9
$PSLTSCALE
 70
     1
  9
$TREEDEPTH
 70
  3020
  9
$CMLSTYLE
  2
STANDARD
  9
$CMLJUST
 70
     0
  9
$CMLSCALE
 40
1.0
  9
$PROXYGRAPHICS
 70
     1
  9
$MEASUREMENT
 70
     0
  9
$CELWEIGHT
370
    -1
  9
$ENDCAPS
280
     0
  9
$JOINSTYLE
280
     0
  9
$LWDISPLAY
290
     0
  9
$INSUNITS
 70
     0
  9
$HYPERLINKBASE
  1

  9
$STYLESHEET
  1
monochrome.ctb
  9
$XEDIT
290
     1
  9
$CEPSNTYPE
380
     0
  9
$PSTYLEMODE
290
     1
  9
$FINGERPRINTGUID
  2
{FB88A696-E29C-4009-92AF-A3599A8169D5}
  9
$VERSIONGUID
  2
{09AF7902-E9CD-415F-9106-3F697CCE1ABF}
  9
$EXTNAMES
290
     1
  9
$PSVPSCALE
 40
0.0
  9
$OLESTARTUP
290
     0
  0
ENDSEC
  0
SECTION
  2
CLASSES
  0
CLASS
  1
DICTIONARYVAR
  2
AcDbDictionaryVar
  3
ObjectDBX Classes
 90
        0
280
     0
281
     0
  0
CLASS
  1
ACDBDICTIONARYWDFLT
  2
AcDbDictionaryWithDefault
  3
ObjectDBX Classes
 90
        0
280
     0
281
     0
  0
CLASS
  1
ACDBPLACEHOLDER
  2
AcDbPlaceHolder
  3
ObjectDBX Classes
 90
        0
280
     0
281
     0
  0
CLASS
  1
LAYOUT
  2
AcDbLayout
  3
ObjectDBX Classes
 90
        0
280
     0
281
     0
  0
CLASS
  1
TABLESTYLE
  2
AcDbTableStyle
  3
ObjectDBX Classes
 90
     2047
280
     0
281
     0
  0
CLASS
  1
SORTENTSTABLE
  2
AcDbSortentsTable
  3
ObjectDBX Classes
 90
        0
280
     0
281
     0
  0
ENDSEC
  0
SECTION
  2
TABLES
  0
TABLE
  2
VPORT
  5
12
330
0
100
AcDbSymbolTable
 70
     3
  0
VPORT
  5
4AF8
330
12
100
AcDbSymbolTableRecord
100
AcDbViewportTableRecord
  2
*Active
 70
     0
 10
0.0
 20
0.0
 11
1.0
 21
1.0
 12
88.92115194643414
 22
224.3793612878695
 13
0.0
 23
0.0
 14
1.0
 24
1.0
 15
0.0
 25
0.0
 16
0.0
 26
0.0
 36
1.0
 17
0.0
 27
0.0
 37
0.0
 40
485.5538161044521
 41
1.529262086513995
 42
50.0
 43
0.0
 44
0.0
 50
0.0
 51
0.0
 71
     0
 72
 20000
 73
     1
 74
     1
 75
     0
 76
     0
 77
     0
 78
     0
281
     0
 65
     1
110
0.0
120
0.0
130
0.0
111
1.0
121
0.0
131
0.0
112
0.0
122
1.0
132
0.0
 79
     0
146
0.0
  0
ENDTAB
  0
TABLE
  2
LTYPE
  5
D
330
0
100
AcDbSymbolTable
 70
     2
  0
LTYPE
  5
E
330
D
100
AcDbSymbolTableRecord
100
AcDbLinetypeTableRecord
  2
BYBLOCK
 70
     0
  3

 72
    65
 73
     0
 40
0.0
  0
LTYPE
  5
F
330
D
100
AcDbSymbolTableRecord
100
AcDbLinetypeTableRecord
  2
BYLAYER
 70
     0
  3

 72
    65
 73
     0
 40
0.0
  0
LTYPE
  5
5
330
D
100
AcDbSymbolTableRecord
100
AcDbLinetypeTableRecord
  2
CONTINUOUS
 70
     0
  3
Solid line
 72
    65
 73
     0
 40
0.0
  0
LTYPE
  5
4890
330
D
100
AcDbSymbolTableRecord
100
AcDbLinetypeTableRecord
  2
DASHED
 70
     0
  3
Dashed __ __ __ __ __ __ __ __ __ __ __ __ __ _
 72
    65
 73
     2
 40
0.75
 49
0.5
 74
     0
 49
-0.25
 74
     0
  0
ENDTAB
  0
TABLE
  2
LAYER
  5
A
102
{ACAD_XDICTIONARY
360
1B4
102
}
330
0
100
AcDbSymbolTable
 70
     6
  0
LAYER
  5
4
330
A
100
AcDbSymbolTableRecord
100
AcDbLayerTableRecord
  2
0
 70
     0
 62
     7
  6
CONTINUOUS
370
    -3
390
57
  0
LAYER
  5
25
330
A
100
AcDbSymbolTableRecord
100
AcDbLayerTableRecord
  2
KIJUN
 70
     0
 62
     7
  6
CONTINUOUS
370
    -3
390
57
  0
LAYER
  5
22
330
A
100
AcDbSymbolTableRecord
100
AcDbLayerTableRecord
  2
HOJO
 70
     0
 62
     3
  6
CONTINUOUS
370
    -3
390
57
  0
LAYER
  5
1B
330
A
100
AcDbSymbolTableRecord
100
AcDbLayerTableRecord
  2
WAKU
 70
     0
 62
     1
  6
CONTINUOUS
370
    -3
390
57
  0
LAYER
  5
31
330
A
100
AcDbSymbolTableRecord
100
AcDbLayerTableRecord
  2
DEFPOINTS
 70
     0
 62
     7
  6
CONTINUOUS
290
     0
370
    -3
390
57
  0
LAYER
  5
28
330
A
100
AcDbSymbolTableRecord
100
AcDbLayerTableRecord
  2
SUNPOU
 70
     0
 62
    70
  6
CONTINUOUS
370
    -3
390
57
  0
ENDTAB
  0
TABLE
  2
STYLE
  5
B
330
0
100
AcDbSymbolTable
 70
     2
  0
STYLE
  5
C
330
B
100
AcDbSymbolTableRecord
100
AcDbTextStyleTableRecord
  2
STANDARD
 70
     0
 40
0.0
 41
1.0
 50
0.0
 71
     0
 42
0.2
  3
txt
  4

  0
STYLE
  5
1C
330
B
100
AcDbSymbolTableRecord
100
AcDbTextStyleTableRecord
  2
SUNPOU
 70
     0
 40
0.0
 41
1.0
 50
0.0
 71
     0
 42
30.0
  3
txt
  4
bigfont
  0
ENDTAB
  0
TABLE
  2
VIEW
  5
10
330
0
100
AcDbSymbolTable
 70
     0
  0
ENDTAB
  0
TABLE
  2
UCS
  5
11
330
0
100
AcDbSymbolTable
 70
     0
  0
ENDTAB
  0
TABLE
  2
APPID
  5
14
330
0
100
AcDbSymbolTable
 70
    11
  0
APPID
  5
15
330
14
100
AcDbSymbolTableRecord
100
AcDbRegAppTableRecord
  2
ACAD
 70
     0
  0
APPID
  5
1D3
330
14
100
AcDbSymbolTableRecord
100
AcDbRegAppTableRecord
  2
ACAD_DSTYLE_DIMTEXT_FILL
 70
     0
  0
APPID
  5
1D4
330
14
100
AcDbSymbolTableRecord
100
AcDbRegAppTableRecord
  2
ACAD_DSTYLE_DIMEXT_LENGTH
 70
     0
  0
APPID
  5
1D5
330
14
100
AcDbSymbolTableRecord
100
AcDbRegAppTableRecord
  2
ACAD_DSTYLE_DIMEXT_ENABLED
 70
     0
  0
APPID
  5
1D6
330
14
100
AcDbSymbolTableRecord
100
AcDbRegAppTableRecord
  2
ACAD_DSTYLE_DIM_LINETYPE
 70
     0
  0
APPID
  5
1D7
330
14
100
AcDbSymbolTableRecord
100
AcDbRegAppTableRecord
  2
ACAD_DSTYLE_DIM_EXT1_LINETYPE
 70
     0
  0
APPID
  5
1D8
330
14
100
AcDbSymbolTableRecord
100
AcDbRegAppTableRecord
  2
ACAD_DSTYLE_DIM_EXT2_LINETYPE
 70
     0
  0
APPID
  5
294
330
14
100
AcDbSymbolTableRecord
100
AcDbRegAppTableRecord
  2
ACAD_DSTYLE_DIMJOGGED_JOGANGLE_SYMBOL
 70
     0
  0
APPID
  5
478
330
14
100
AcDbSymbolTableRecord
100
AcDbRegAppTableRecord
  2
ACAD_DSTYLE_DIMARC_LENGTH_SYMBOL
 70
     0
  0
APPID
  5
F55
330
14
100
AcDbSymbolTableRecord
100
AcDbRegAppTableRecord
  2
ACAD_EXEMPT_FROM_CAD_STANDARDS
 70
     0
  0
APPID
  5
3D72
330
14
100
AcDbSymbolTableRecord
100
AcDbRegAppTableRecord
  2
ACAD_PSEXT
 70
     0
  0
ENDTAB
  0
TABLE
  2
DIMSTYLE
  5
16
330
0
100
AcDbSymbolTable
 70
     1
100
AcDbDimStyleTable
 71
     1
340
1E
  0
DIMSTYLE
105
1E
102
{ACAD_REACTORS
330
3628
330
3635
330
434B
330
43B3
102
}
330
16
100
AcDbSymbolTableRecord
100
AcDbDimStyleTableRecord
  2
STANDARD
 70
     0
340
C
  0
ENDTAB
  0
TABLE
  2
BLOCK_RECORD
  5
1
330
0
100
AcDbSymbolTable
 70
     6
  0
BLOCK_RECORD
  5
2
102
{ACAD_XDICTIONARY
360
D13
102
}
330
1
100
AcDbSymbolTableRecord
100
AcDbBlockTableRecord
  2
*MODEL_SPACE
340
5A
  0
BLOCK_RECORD
  5
7
330
1
100
AcDbSymbolTableRecord
100
AcDbBlockTableRecord
  2
*PAPER_SPACE
340
5B
  0
BLOCK_RECORD
  5
109
330
1
100
AcDbSymbolTableRecord
100
AcDbBlockTableRecord
  2
_Dot
340
0
102
{BLKREFS
331
4A7E
331
4A7F
331
4A90
331
4A91
331
4AA2
331
4AA3
331
4AD3
331
4AD4
102
}
  0
BLOCK_RECORD
  5
3629
330
1
100
AcDbSymbolTableRecord
100
AcDbBlockTableRecord
  2
*D1
340
0
  0
BLOCK_RECORD
  5
3636
330
1
100
AcDbSymbolTableRecord
100
AcDbBlockTableRecord
  2
*D2
340
0
  0
BLOCK_RECORD
  5
434C
330
1
100
AcDbSymbolTableRecord
100
AcDbBlockTableRecord
  2
*D3
340
0
  0
BLOCK_RECORD
  5
43B4
330
1
100
AcDbSymbolTableRecord
100
AcDbBlockTableRecord
  2
*D4
340
0
  0
ENDTAB
  0
ENDSEC
  0
SECTION
  2
BLOCKS
  0
BLOCK
  5
3
330
2
100
AcDbEntity
  8
0
100
AcDbBlockBegin
  2
*MODEL_SPACE
 70
     0
 10
0.0
 20
0.0
 30
0.0
  3
*MODEL_SPACE
  1

  0
ENDBLK
  5
6
330
2
100
AcDbEntity
  8
0
100
AcDbBlockEnd
  0
BLOCK
  5
8
330
7
100
AcDbEntity
 67
     1
  8
0
100
AcDbBlockBegin
  2
*PAPER_SPACE
 70
     0
 10
0.0
 20
0.0
 30
0.0
  3
*PAPER_SPACE
  1

  0
ENDBLK
  5
9
330
7
100
AcDbEntity
 67
     1
  8
0
100
AcDbBlockEnd
  0
BLOCK
  5
10C
330
109
100
AcDbEntity
  8
0
100
AcDbBlockBegin
  2
_Dot
 70
     0
 10
0.0
 20
0.0
 30
0.0
  3
_Dot
  1

  0
LWPOLYLINE
  5
10A
330
109
100
AcDbEntity
  8
0
  6
ByBlock
 62
     0
100
AcDbPolyline
 90
        2
 70
     1
 43
0.5
 10
-0.25
 20
0.0
 42
1.0
 10
0.25
 20
0.0
 42
1.0
  0
LINE
  5
10B
330
109
100
AcDbEntity
  8
0
  6
ByBlock
 62
     0
370
    -2
100
AcDbLine
 10
-0.5
 20
0.0
 30
0.0
 11
-1.0
 21
0.0
 31
0.0
  0
ENDBLK
  5
10D
330
109
100
AcDbEntity
  8
0
100
AcDbBlockEnd
  0
BLOCK
  5
3633
330
3629
100
AcDbEntity
  8
0
100
AcDbBlockBegin
  2
*D1
 70
     1
 10
0.0
 20
0.0
 30
0.0
  3
*D1
  1

  0
LINE
  5
4A7B
330
3629
100
AcDbEntity
  8
SUNPOU
 62
    70
370
    -2
100
AcDbLine
 10
297.2814615019754
 20
426.67260629626
 30
0.0
 11
297.2814615019754
 21
457.2941669812949
 31
0.0
  0
LINE
  5
4A7C
330
3629
100
AcDbEntity
  8
SUNPOU
 62
    70
370
    -2
100
AcDbLine
 10
-62.71853849802472
 20
426.67260629626
 30
0.0
 11
-62.71853849802472
 21
457.2941669812949
 31
0.0
  0
LINE
  5
4A7D
330
3629
100
AcDbEntity
  8
SUNPOU
 62
    60
370
    -2
100
AcDbLine
 10
295.2814615019754
 20
457.2941669812949
 30
0.0
 11
-60.71853849802471
 21
457.2941669812949
 31
0.0
  0
INSERT
  5
4A7E
330
3629
100
AcDbEntity
  8
SUNPOU
 62
    60
370
    -2
100
AcDbBlockReference
  2
_Dot
 10
297.2814615019754
 20
457.2941669812949
 30
0.0
 41
2.0
 42
2.0
 43
2.0
  0
INSERT
  5
4A7F
330
3629
100
AcDbEntity
  8
SUNPOU
 62
    60
370
    -2
100
AcDbBlockReference
  2
_Dot
 10
-62.71853849802472
 20
457.2941669812949
 30
0.0
 41
2.0
 42
2.0
 43
2.0
 50
180.0
  0
MTEXT
  5
4A80
330
3629
100
AcDbEntity
  8
SUNPOU
 62
    60
100
AcDbMText
 10
117.2814615019753
 20
462.7941669812949
 30
0.0
 40
5.0
 41
0.0
 71
     5
 72
     1
  1
\A1;360
  7
SUNPOU
 73
     1
 44
1.0
1001
ACAD
1000
MTEXTBEGIN
1070
    73
1070
     1
1070
    44
1040
1.0
1070
    74
1070
     0
1000
MTEXTEND
  0
POINT
  5
4A81
330
3629
100
AcDbEntity
  8
DEFPOINTS
 62
     0
100
AcDbPoint
 10
297.2814615019754
 20
416.67260629626
 30
0.0
  0
POINT
  5
4A82
330
3629
100
AcDbEntity
  8
DEFPOINTS
 62
     0
100
AcDbPoint
 10
-62.71853849802472
 20
416.67260629626
 30
0.0
  0
POINT
  5
4A83
330
3629
100
AcDbEntity
  8
DEFPOINTS
 62
     0
100
AcDbPoint
 10
-62.71853849802472
 20
457.2941669812949
 30
0.0
  0
ENDBLK
  5
3634
330
3629
100
AcDbEntity
  8
0
100
AcDbBlockEnd
  0
BLOCK
  5
3640
330
3636
100
AcDbEntity
  8
0
100
AcDbBlockBegin
  2
*D2
 70
     1
 10
0.0
 20
0.0
 30
0.0
  3
*D2
  1

  0
LINE
  5
4A8D
330
3636
100
AcDbEntity
  8
SUNPOU
 62
    70
370
    -2
100
AcDbLine
 10
-72.7185384980247
 20
416.67260629626
 30
0.0
 11
-112.4279993487853
 21
416.67260629626
 31
0.0
  0
LINE
  5
4A8E
330
3636
100
AcDbEntity
  8
SUNPOU
 62
    70
370
    -2
100
AcDbLine
 10
-6.468538498024827
 20
131.67260629626
 30
0.0
 11
-112.4279993487854
 21
131.67260629626
 31
0.0
  0
LINE
  5
4A8F
330
3636
100
AcDbEntity
  8
SUNPOU
 62
    60
370
    -2
100
AcDbLine
 10
-112.4279993487853
 20
414.67260629626
 30
0.0
 11
-112.4279993487854
 21
133.67260629626
 31
0.0
  0
INSERT
  5
4A90
330
3636
100
AcDbEntity
  8
SUNPOU
 62
    60
370
    -2
100
AcDbBlockReference
  2
_Dot
 10
-112.4279993487853
 20
416.67260629626
 30
0.0
 41
2.0
 42
2.0
 43
2.0
 50
90.0
  0
INSERT
  5
4A91
330
3636
100
AcDbEntity
  8
SUNPOU
 62
    60
370
    -2
100
AcDbBlockReference
  2
_Dot
 10
-112.4279993487854
 20
131.67260629626
 30
0.0
 41
2.0
 42
2.0
 43
2.0
 50
270.0
  0
MTEXT
  5
4A92
330
3636
100
AcDbEntity
  8
SUNPOU
 62
    60
100
AcDbMText
 10
-117.9279993487854
 20
274.17260629626
 30
0.0
 40
5.0
 41
0.0
 71
     5
 72
     1
  1
\A1;285
  7
SUNPOU
 11
0.0000000000000001
 21
1.0
 31
0.0
 73
     1
 44
1.0
1001
ACAD
1000
MTEXTBEGIN
1070
    73
1070
     1
1070
    44
1040
1.0
1070
    74
1070
     0
1000
MTEXTEND
  0
POINT
  5
4A93
330
3636
100
AcDbEntity
  8
DEFPOINTS
 62
     0
100
AcDbPoint
 10
-62.71853849802472
 20
416.67260629626
 30
0.0
  0
POINT
  5
4A94
330
3636
100
AcDbEntity
  8
DEFPOINTS
 62
     0
100
AcDbPoint
 10
3.531461501975172
 20
131.67260629626
 30
0.0
  0
POINT
  5
4A95
330
3636
100
AcDbEntity
  8
DEFPOINTS
 62
     0
100
AcDbPoint
 10
-112.4279993487854
 20
131.67260629626
 30
0.0
  0
ENDBLK
  5
3641
330
3636
100
AcDbEntity
  8
0
100
AcDbBlockEnd
  0
BLOCK
  5
4356
330
434C
100
AcDbEntity
  8
0
100
AcDbBlockBegin
  2
*D3
 70
     1
 10
0.0
 20
0.0
 30
0.0
  3
*D3
  1

  0
LINE
  5
4A9F
330
434C
100
AcDbEntity
  8
SUNPOU
 62
    70
370
    -2
100
AcDbLine
 10
-6.468538498024827
 20
131.67260629626
 30
0.0
 11
-112.4279993487853
 21
131.67260629626
 31
0.0
  0
LINE
  5
4AA0
330
434C
100
AcDbEntity
  8
SUNPOU
 62
    70
370
    -2
100
AcDbLine
 10
12.28146150197517
 20
86.67260629626003
 30
0.0
 11
-112.4279993487853
 21
86.67260629626007
 31
0.0
  0
LINE
  5
4AA1
330
434C
100
AcDbEntity
  8
SUNPOU
 62
    60
370
    -2
100
AcDbLine
 10
-112.4279993487853
 20
129.67260629626
 30
0.0
 11
-112.4279993487853
 21
88.67260629626008
 31
0.0
  0
INSERT
  5
4AA2
330
434C
100
AcDbEntity
  8
SUNPOU
 62
    60
370
    -2
100
AcDbBlockReference
  2
_Dot
 10
-112.4279993487853
 20
131.67260629626
 30
0.0
 41
2.0
 42
2.0
 43
2.0
 50
90.0
  0
INSERT
  5
4AA3
330
434C
100
AcDbEntity
  8
SUNPOU
 62
    60
370
    -2
100
AcDbBlockReference
  2
_Dot
 10
-112.4279993487853
 20
86.67260629626007
 30
0.0
 41
2.0
 42
2.0
 43
2.0
 50
270.0
  0
MTEXT
  5
4AA4
330
434C
100
AcDbEntity
  8
SUNPOU
 62
    60
100
AcDbMText
 10
-117.9279993487853
 20
109.17260629626
 30
0.0
 40
5.0
 41
0.0
 71
     5
 72
     1
  1
\A1;45
  7
SUNPOU
 11
0.0000000000000001
 21
1.0
 31
0.0
 73
     1
 44
1.0
1001
ACAD
1000
MTEXTBEGIN
1070
    73
1070
     1
1070
    44
1040
1.0
1070
    74
1070
     0
1000
MTEXTEND
  0
POINT
  5
4AA5
330
434C
100
AcDbEntity
  8
DEFPOINTS
 62
     0
100
AcDbPoint
 10
3.531461501975172
 20
131.67260629626
 30
0.0
  0
POINT
  5
4AA6
330
434C
100
AcDbEntity
  8
DEFPOINTS
 62
     0
100
AcDbPoint
 10
22.28146150197517
 20
86.67260629626003
 30
0.0
  0
POINT
  5
4AA7
330
434C
100
AcDbEntity
  8
DEFPOINTS
 62
     0
100
AcDbPoint
 10
-112.4279993487853
 20
86.67260629626007
 30
0.0
  0
ENDBLK
  5
4357
330
434C
100
AcDbEntity
  8
0
100
AcDbBlockEnd
  0
BLOCK
  5
43BE
330
43B4
100
AcDbEntity
  8
0
100
AcDbBlockBegin
  2
*D4
 70
     1
 10
0.0
 20
0.0
 30
0.0
  3
*D4
  1

  0
LINE
  5
4AD0
330
43B4
100
AcDbEntity
  8
SUNPOU
 62
    70
370
    -2
100
AcDbLine
 10
22.28146150197517
 20
76.67260629626003
 30
0.0
 11
22.28146150197517
 21
51.82027644979917
 31
0.0
  0
LINE
  5
4AD1
330
43B4
100
AcDbEntity
  8
SUNPOU
 62
    70
370
    -2
100
AcDbLine
 10
212.2814615019756
 20
76.6726062962598
 30
0.0
 11
212.2814615019756
 21
51.82027644979917
 31
0.0
  0
LINE
  5
4AD2
330
43B4
100
AcDbEntity
  8
SUNPOU
 62
    60
370
    -2
100
AcDbLine
 10
24.28146150197517
 20
51.82027644979917
 30
0.0
 11
210.2814615019756
 21
51.82027644979917
 31
0.0
  0
INSERT
  5
4AD3
330
43B4
100
AcDbEntity
  8
SUNPOU
 62
    60
370
    -2
100
AcDbBlockReference
  2
_Dot
 10
22.28146150197517
 20
51.82027644979917
 30
0.0
 41
2.0
 42
2.0
 43
2.0
 50
180.0
  0
INSERT
  5
4AD4
330
43B4
100
AcDbEntity
  8
SUNPOU
 62
    60
370
    -2
100
AcDbBlockReference
  2
_Dot
 10
212.2814615019756
 20
51.82027644979917
 30
0.0
 41
2.0
 42
2.0
 43
2.0
  0
MTEXT
  5
4AD5
330
43B4
100
AcDbEntity
  8
SUNPOU
 62
    60
100
AcDbMText
 10
117.2814615019754
 20
57.32027644979917
 30
0.0
 40
5.0
 41
0.0
 71
     5
 72
     1
  1
\A1;φ190
  7
SUNPOU
 73
     1
 44
1.0
1001
ACAD
1000
MTEXTBEGIN
1070
    73
1070
     1
1070
    44
1040
1.0
1070
    74
1070
     0
1000
MTEXTEND
  0
POINT
  5
4AD6
330
43B4
100
AcDbEntity
  8
DEFPOINTS
 62
     0
100
AcDbPoint
 10
22.28146150197517
 20
86.67260629626003
 30
0.0
  0
POINT
  5
4AD7
330
43B4
100
AcDbEntity
  8
DEFPOINTS
 62
     0
100
AcDbPoint
 10
212.2814615019756
 20
86.6726062962598
 30
0.0
  0
POINT
  5
4AD8
330
43B4
100
AcDbEntity
  8
DEFPOINTS
 62
     0
100
AcDbPoint
 10
212.2814615019756
 20
51.82027644979917
 30
0.0
  0
ENDBLK
  5
43BF
330
43B4
100
AcDbEntity
  8
0
100
AcDbBlockEnd
  0
ENDSEC
  0
SECTION
  2
ENTITIES
  0
LINE
  5
1F
330
2
100
AcDbEntity
  8
WAKU
100
AcDbLine
 10
0.0
 20
21.0
 30
0.0
 11
237.3614398378393
 21
21.0
 31
0.0
  0
LINE
  5
20
330
2
100
AcDbEntity
  8
WAKU
100
AcDbLine
 10
0.0
 20
0.0
 30
0.0
 11
237.3614398378393
 21
0.0
 31
0.0
  0
TEXT
  5
21
330
2
100
AcDbEntity
  8
HOJO
100
AcDbText
 10
14.48094900000004
 20
3.549939000000037
 30
0.0
 40
13.5
  1
ML913(1)
  7
SUNPOU
100
AcDbText
  0
TEXT
  5
23
330
2
100
AcDbEntity
  8
HOJO
100
AcDbText
 10
124.4167871859402
 20
7.566579000000047
 30
0.0
 40
9.0
  1
285×360×360
  7
SUNPOU
100
AcDbText
  0
DIMENSION
  5
3628
330
2
100
AcDbEntity
  8
SUNPOU
100
AcDbDimension
  2
*D1
 10
-62.71853849802472
 20
457.2941669812949
 30
0.0
 11
117.2814615019753
 21
462.7941669812949
 31
0.0
 70
    32
 71
     5
 42
360.0000000000001
  3
STANDARD
100
AcDbAlignedDimension
 13
297.2814615019754
 23
416.67260629626
 33
0.0
 14
-62.71853849802472
 24
416.67260629626
 34
0.0
 50
180.0
100
AcDbRotatedDimension
1001
ACAD
1000
DSTYLE
1002
{
1070
    41
1040
2.0
1070
    42
1040
10.0
1070
    44
1040
0.0
1070
    73
1070
     0
1070
    74
1070
     0
1070
    77
1070
     1
1070
   140
1040
5.0
1070
   141
1040
0.0
1070
   146
1040
0.064286
1070
   147
1040
3.0
1070
   176
1070
    60
1070
   177
1070
    70
1070
   178
1070
    60
1070
   271
1070
     0
1070
   272
1070
     0
1070
   340
1005
1C
1070
   342
1005
109
1002
}
  0
DIMENSION
  5
3635
330
2
100
AcDbEntity
  8
SUNPOU
100
AcDbDimension
  2
*D2
 10
-112.4279993487854
 20
131.67260629626
 30
0.0
 11
-117.9279993487854
 21
274.17260629626
 31
0.0
 70
    32
 71
     5
 42
285.0
  3
STANDARD
100
AcDbAlignedDimension
 13
-62.71853849802472
 23
416.67260629626
 33
0.0
 14
3.531461501975172
 24
131.67260629626
 34
0.0
 50
90.0
100
AcDbRotatedDimension
1001
ACAD
1000
DSTYLE
1002
{
1070
    41
1040
2.0
1070
    42
1040
10.0
1070
    44
1040
0.0
1070
    73
1070
     0
1070
    74
1070
     0
1070
    77
1070
     1
1070
   140
1040
5.0
1070
   141
1040
0.0
1070
   146
1040
0.064286
1070
   147
1040
3.0
1070
   176
1070
    60
1070
   177
1070
    70
1070
   178
1070
    60
1070
   271
1070
     0
1070
   272
1070
     0
1070
   340
1005
1C
1070
   342
1005
109
1002
}
  0
DIMENSION
  5
434B
330
2
100
AcDbEntity
  8
SUNPOU
100
AcDbDimension
  2
*D3
 10
-112.4279993487853
 20
86.67260629626007
 30
0.0
 11
-117.9279993487853
 21
109.17260629626
 31
0.0
 70
    32
 71
     5
 42
45.0
  3
STANDARD
100
AcDbAlignedDimension
 13
3.531461501975172
 23
131.67260629626
 33
0.0
 14
22.28146150197517
 24
86.67260629626003
 34
0.0
 50
90.0
100
AcDbRotatedDimension
1001
ACAD
1000
DSTYLE
1002
{
1070
    41
1040
2.0
1070
    42
1040
10.0
1070
    44
1040
0.0
1070
    73
1070
     0
1070
    74
1070
     0
1070
    77
1070
     1
1070
   140
1040
5.0
1070
   141
1040
0.0
1070
   146
1040
0.064286
1070
   147
1040
3.0
1070
   176
1070
    60
1070
   177
1070
    70
1070
   178
1070
    60
1070
   271
1070
     0
1070
   272
1070
     0
1070
   340
1005
1C
1070
   342
1005
109
1002
}
  0
DIMENSION
  5
43B3
330
2
100
AcDbEntity
  8
SUNPOU
100
AcDbDimension
  2
*D4
 10
212.2814615019756
 20
51.82027644979917
 30
0.0
 11
117.2814615019754
 21
57.32027644979917
 31
0.0
 70
    32
  1
φ190
 71
     5
 42
190.0000000000004
  3
STANDARD
100
AcDbAlignedDimension
 13
22.28146150197517
 23
86.67260629626003
 33
0.0
 14
212.2814615019756
 24
86.6726062962598
 34
0.0
100
AcDbRotatedDimension
1001
ACAD
1000
DSTYLE
1002
{
1070
    41
1040
2.0
1070
    42
1040
10.0
1070
    44
1040
0.0
1070
    73
1070
     0
1070
    74
1070
     0
1070
    77
1070
     1
1070
   140
1040
5.0
1070
   141
1040
0.0
1070
   146
1040
0.064286
1070
   147
1040
3.0
1070
   176
1070
    60
1070
   177
1070
    70
1070
   178
1070
    60
1070
   271
1070
     0
1070
   272
1070
     0
1070
   340
1005
1C
1070
   342
1005
109
1002
}
  0
LINE
  5
48B6
102
{ACAD_REACTORS
330
4A68
102
}
330
2
100
AcDbEntity
  8
KIJUN
100
AcDbLine
 10
-62.71853849802472
 20
416.67260629626
 30
0.0
 11
297.2814615019754
 21
416.67260629626
 31
0.0
  0
LINE
  5
48B7
102
{ACAD_REACTORS
330
4A68
102
}
330
2
100
AcDbEntity
  8
KIJUN
100
AcDbLine
 10
3.531461501975172
 20
131.67260629626
 30
0.0
 11
231.0314615019754
 21
131.67260629626
 31
0.0
  0
LINE
  5
48B9
102
{ACAD_REACTORS
330
4A68
102
}
330
2
100
AcDbEntity
  8
KIJUN
  6
DASHED
100
AcDbLine
 10
22.28146150197517
 20
86.67260629626003
 30
0.0
 11
212.2814615019756
 21
86.6726062962598
 31
0.0
  0
LINE
  5
48BB
102
{ACAD_REACTORS
330
4A68
102
}
330
2
100
AcDbEntity
  8
KIJUN
100
AcDbLine
 10
-62.71853849802472
 20
416.67260629626
 30
0.0
 11
-62.71853849802472
 21
373.67260629626
 31
0.0
  0
LINE
  5
48BC
102
{ACAD_REACTORS
330
4A68
102
}
330
2
100
AcDbEntity
  8
KIJUN
  6
DASHED
100
AcDbLine
 10
22.28146150197517
 20
131.67260629626
 30
0.0
 11
22.28146150197517
 21
86.67260629626003
 31
0.0
  0
LINE
  5
48BD
102
{ACAD_REACTORS
330
4A68
102
}
330
2
100
AcDbEntity
  8
KIJUN
100
AcDbLine
 10
-62.71853849802472
 20
373.67260629626
 30
0.0
 11
297.2814615019754
 21
373.67260629626
 31
0.0
  0
LINE
  5
48CB
102
{ACAD_REACTORS
330
4A68
102
}
330
2
100
AcDbEntity
  8
KIJUN
100
AcDbLine
 10
-47.71853849802448
 20
349.6726062962602
 30
0.0
 11
282.2814615019752
 21
349.6726062962602
 31
0.0
  0
LINE
  5
48CD
102
{ACAD_REACTORS
330
4A68
102
}
330
2
100
AcDbEntity
  8
KIJUN
100
AcDbLine
 10
-32.7185384980246
 20
333.67260629626
 30
0.0
 11
267.2814615019754
 21
333.67260629626
 31
0.0
  0
LINE
  5
48CF
102
{ACAD_REACTORS
330
4A68
102
}
330
2
100
AcDbEntity
  8
KIJUN
100
AcDbLine
 10
-47.7185384980246
 20
373.67260629626
 30
0.0
 11
-47.71853849802448
 21
349.6726062962602
 31
0.0
  0
LINE
  5
48D0
102
{ACAD_REACTORS
330
4A68
102
}
330
2
100
AcDbEntity
  8
KIJUN
100
AcDbLine
 10
-32.71853849802472
 20
349.67260629626
 30
0.0
 11
-32.7185384980246
 21
333.67260629626
 31
0.0
  0
LINE
  5
48D1
102
{ACAD_REACTORS
330
4A68
102
}
330
2
100
AcDbEntity
  8
KIJUN
100
AcDbLine
 10
4.281461501975286
 20
349.67260629626
 30
0.0
 11
4.2814615019754
 21
333.67260629626
 31
0.0
  0
LINE
  5
48D2
102
{ACAD_REACTORS
330
4A68
102
}
330
2
100
AcDbEntity
  8
KIJUN
100
AcDbLine
 10
-17.7185384980246
 20
321.67260629626
 30
0.0
 11
252.2814615019752
 21
321.67260629626
 31
0.0
  0
LINE
  5
48D3
102
{ACAD_REACTORS
330
4A68
102
}
330
2
100
AcDbEntity
  8
KIJUN
100
AcDbLine
 10
-17.71853849802471
 20
333.67260629626
 30
0.0
 11
-17.71853849802448
 21
326.67260629626
 31
0.0
  0
LINE
  5
48D6
102
{ACAD_REACTORS
330
4A68
102
}
330
2
100
AcDbEntity
  8
KIJUN
100
AcDbLine
 10
-17.71853849802448
 20
326.67260629626
 30
0.0
 11
252.2814615019752
 21
326.67260629626
 31
0.0
  0
ARC
  5
48D8
102
{ACAD_REACTORS
330
4A68
102
}
330
2
100
AcDbEntity
  8
KIJUN
100
AcDbCircle
 10
-18.20929741953728
 20
318.5855438061426
 30
0.0
 40
8.101939523232156
100
AcDbArc
 50
22.39734847255394
 51
86.52729594349469
  0
LINE
  5
48E1
102
{ACAD_REACTORS
330
4A68
102
}
330
2
100
AcDbEntity
  8
KIJUN
100
AcDbLine
 10
15.28146150197449
 20
321.6726062962603
 30
0.0
 11
15.28146150197449
 21
326.67260629626
 31
0.0
  0
LINE
  5
48E2
102
{ACAD_REACTORS
330
4A68
102
}
330
2
100
AcDbEntity
  8
KIJUN
100
AcDbLine
 10
12.28146150197529
 20
333.67260629626
 30
0.0
 11
12.28146150197551
 21
326.67260629626
 31
0.0
  0
LINE
  5
48E4
102
{ACAD_REACTORS
330
4A68
102
}
330
2
100
AcDbEntity
  8
KIJUN
100
AcDbLine
 10
3.531461501975172
 20
144.17260629626
 30
0.0
 11
231.0314615019754
 21
144.17260629626
 31
0.0
  0
LINE
  5
48E5
102
{ACAD_REACTORS
330
4A68
102
}
330
2
100
AcDbEntity
  8
KIJUN
100
AcDbLine
 10
3.531461501975172
 20
156.67260629626
 30
0.0
 11
231.0314615019754
 21
156.67260629626
 31
0.0
  0
ARC
  5
48E8
102
{ACAD_REACTORS
330
4A68
102
}
330
2
100
AcDbEntity
  8
KIJUN
100
AcDbCircle
 10
3.5314615019754
 20
137.92260629626
 30
0.0
 40
6.25
100
AcDbArc
 50
90.0
 51
270.0
  0
ARC
  5
48E9
102
{ACAD_REACTORS
330
4A68
102
}
330
2
100
AcDbEntity
  8
KIJUN
100
AcDbCircle
 10
3.5314615019754
 20
150.42260629626
 30
0.0
 40
6.25
100
AcDbArc
 50
90.0
 51
270.0
  0
ARC
  5
48FF
102
{ACAD_REACTORS
330
4A68
102
}
330
2
100
AcDbEntity
  8
KIJUN
100
AcDbCircle
 10
117.2814615019763
 20
-72.59353374965394
 30
0.0
 40
348.2608314288198
100
AcDbArc
 50
84.38259896282124
 51
95.61740103717875
  0
ARC
  5
4900
102
{ACAD_REACTORS
330
4A68
102
}
330
2
100
AcDbEntity
  8
KIJUN
100
AcDbCircle
 10
-66.38827818052914
 20
230.7651200007754
 30
0.0
 40
138.5412443222502
100
AcDbArc
 50
357.180844363143
 51
11.64895267902865
  0
ARC
  5
4901
102
{ACAD_REACTORS
330
4A68
102
}
330
2
100
AcDbEntity
  8
KIJUN
100
AcDbCircle
 10
84.08041681776955
 20
259.2323509831254
 30
0.0
 40
14.78921460060036
100
AcDbArc
 50
93.44434043268753
 51
181.9130504487528
  0
ARC
  5
4903
102
{ACAD_REACTORS
330
4A68
102
}
330
2
100
AcDbEntity
  8
KIJUN
100
AcDbCircle
 10
86.05439912404813
 20
227.0422717680942
 30
0.0
 40
14.40467578637679
100
AcDbArc
 50
192.3915680973671
 51
223.1179349182914
  0
ARC
  5
4904
102
{ACAD_REACTORS
330
4A68
102
}
330
2
100
AcDbEntity
  8
KIJUN
100
AcDbCircle
 10
-171.6087826286356
 20
-37.16449447365415
 30
0.0
 40
354.6575464604564
100
AcDbArc
 50
39.28468602004696
 51
45.82396117621252
  0
ARC
  5
4905
102
{ACAD_REACTORS
330
4A68
102
}
330
2
100
AcDbEntity
  8
KIJUN
100
AcDbCircle
 10
90.5785457152524
 20
179.5817661207518
 30
0.0
 40
14.5897221840846
100
AcDbArc
 50
313.1351337628796
 51
32.38195147357939
  0
ARC
  5
4906
102
{ACAD_REACTORS
330
4A68
102
}
330
2
100
AcDbEntity
  8
KIJUN
100
AcDbCircle
 10
98.38698908689629
 20
171.8199830135602
 30
0.0
 40
3.608091289638492
100
AcDbArc
 50
129.6177641200629
 51
306.9097434917882
  0
ARC
  5
4907
102
{ACAD_REACTORS
330
4A68
102
}
330
2
100
AcDbEntity
  8
KIJUN
100
AcDbCircle
 10
94.6262790888743
 20
176.2457340052644
 30
0.0
 40
2.200470275743315
100
AcDbArc
 50
311.565688349154
 51
116.8472949759103
  0
ARC
  5
4908
102
{ACAD_REACTORS
330
4A68
102
}
330
2
100
AcDbEntity
  8
KIJUN
100
AcDbCircle
 10
86.45845090314651
 20
186.4050413191387
 30
0.0
 40
10.89228720533345
100
AcDbArc
 50
311.1960140663645
 51
29.23526725806468
  0
ARC
  5
4909
102
{ACAD_REACTORS
330
4A68
102
}
330
2
100
AcDbEntity
  8
KIJUN
100
AcDbCircle
 10
82.96072310621445
 20
187.4782080212553
 30
0.0
 40
2.906094315975177
100
AcDbArc
 50
3.741118775248212
 51
88.62069175582881
  0
ARC
  5
490A
102
{ACAD_REACTORS
330
4A68
102
}
330
2
100
AcDbEntity
  8
KIJUN
100
AcDbCircle
 10
94.87409888261982
 20
179.829801581877
 30
0.0
 40
11.94476231925088
100
AcDbArc
 50
84.76814880353577
 51
138.9901133621988
  0
ARC
  5
490B
102
{ACAD_REACTORS
330
4A68
102
}
330
2
100
AcDbEntity
  8
KIJUN
100
AcDbCircle
 10
79.2330649149776
 20
195.5333680874507
 30
0.0
 40
6.398703088295664
100
AcDbArc
 50
306.4055620061088
 51
46.61818509358102
  0
ARC
  5
490C
102
{ACAD_REACTORS
330
4A68
102
}
330
2
100
AcDbEntity
  8
KIJUN
100
AcDbCircle
 10
86.25244392860054
 20
191.8985365005496
 30
0.0
 40
8.691066110582186
100
AcDbArc
 50
107.5755813573052
 51
134.6302424887531
  0
ARC
  5
490D
102
{ACAD_REACTORS
330
4A68
102
}
330
2
100
AcDbEntity
  8
KIJUN
100
AcDbCircle
 10
67.22929528514396
 20
201.635135652318
 30
0.0
 40
13.39676841708588
100
AcDbArc
 50
344.626784258568
 51
76.4326724569146
  0
ARC
  5
490E
102
{ACAD_REACTORS
330
4A68
102
}
330
2
100
AcDbEntity
  8
KIJUN
100
AcDbCircle
 10
89.64464617483349
 20
180.8601393553843
 30
0.0
 40
26.66789953824765
100
AcDbArc
 50
294.9072736144414
 51
32.65657997520023
  0
ARC
  5
490F
102
{ACAD_REACTORS
330
4A68
102
}
330
2
100
AcDbEntity
  8
KIJUN
100
AcDbCircle
 10
578.9545931220016
 20
549.7829195542922
 30
0.0
 40
586.2163155936356
100
AcDbArc
 50
214.9730831926093
 51
217.2131122721712
  0
ARC
  5
4910
102
{ACAD_REACTORS
330
4A68
102
}
330
2
100
AcDbEntity
  8
KIJUN
100
AcDbCircle
 10
117.2814615019754
 20
210.7927941948737
 30
0.0
 40
6.542744013946845
100
AcDbArc
 50
221.1893104307641
 51
318.8106895692335
  0
ARC
  5
4911
102
{ACAD_REACTORS
330
4A68
102
}
330
2
100
AcDbEntity
  8
KIJUN
100
AcDbCircle
 10
107.9047300620093
 20
209.3065945529404
 30
0.0
 40
5.272232586950519
100
AcDbArc
 50
234.4253271978736
 51
327.6319808227717
  0
ARC
  5
4912
102
{ACAD_REACTORS
330
4A68
102
}
330
2
100
AcDbEntity
  8
KIJUN
100
AcDbCircle
 10
117.2814615019755
 20
205.8341457321783
 30
0.0
 40
12.26655544442209
100
AcDbArc
 50
61.82673134663369
 51
118.1732686533808
  0
ARC
  5
4913
102
{ACAD_REACTORS
330
4A68
102
}
330
2
100
AcDbEntity
  8
KIJUN
100
AcDbCircle
 10
106.6827538501828
 20
207.8644675091264
 30
0.0
 40
10.01244305375289
100
AcDbArc
 50
61.30671051860209
 51
143.8651418521982
  0
ARC
  5
4914
102
{ACAD_REACTORS
330
4A68
102
}
330
2
100
AcDbEntity
  8
KIJUN
100
AcDbCircle
 10
115.0063522710645
 20
224.2935294980016
 30
0.0
 40
19.49510693249096
100
AcDbArc
 50
172.1264793142974
 51
212.6748695220202
  0
ARC
  5
4916
102
{ACAD_REACTORS
330
4A68
102
}
330
2
100
AcDbEntity
  8
KIJUN
100
AcDbCircle
 10
91.52008693179437
 20
232.7379855196063
 30
0.0
 40
7.125157851295815
100
AcDbArc
 50
229.9193577651508
 51
337.5530021112169
  0
ARC
  5
4917
102
{ACAD_REACTORS
330
4A68
102
}
330
2
100
AcDbEntity
  8
KIJUN
100
AcDbCircle
 10
95.69955244837501
 20
232.6623885032541
 30
0.0
 40
10.28421242511711
100
AcDbArc
 50
159.5382536318755
 51
211.5173349695234
  0
ARC
  5
4918
102
{ACAD_REACTORS
330
4A68
102
}
330
2
100
AcDbEntity
  8
KIJUN
100
AcDbCircle
 10
84.72261901454249
 20
254.7288839093851
 30
0.0
 40
6.033865033908138
100
AcDbArc
 50
327.4806465928157
 51
250.1768184020412
  0
ARC
  5
4919
102
{ACAD_REACTORS
330
4A68
102
}
330
2
100
AcDbEntity
  8
KIJUN
100
AcDbCircle
 10
87.31294562857533
 20
259.7843841255349
 30
0.0
 40
11.69056488883645
100
AcDbArc
 50
246.6339643604371
 51
342.4160459915199
  0
ARC
  5
491A
102
{ACAD_REACTORS
330
4A68
102
}
330
2
100
AcDbEntity
  8
KIJUN
100
AcDbCircle
 10
85.45257861003085
 20
259.3850177390919
 30
0.0
 40
13.3766182232272
100
AcDbArc
 50
346.4573645175833
 51
71.14382224555376
  0
ARC
  5
491B
102
{ACAD_REACTORS
330
4A68
102
}
330
2
100
AcDbEntity
  8
KIJUN
100
AcDbCircle
 10
90.40743359540806
 20
244.2535380997949
 30
0.0
 40
9.099404746935297
100
AcDbArc
 50
148.1700520025003
 51
241.490264591372
  0
ARC
  5
491C
102
{ACAD_REACTORS
330
4A68
102
}
330
2
100
AcDbEntity
  8
KIJUN
100
AcDbCircle
 10
104.1851388922014
 20
234.0590922373292
 30
0.0
 40
7.300589317305955
100
AcDbArc
 50
213.6151855045101
 51
277.3636624811203
  0
ARC
  5
491D
102
{ACAD_REACTORS
330
4A68
102
}
330
2
100
AcDbEntity
  8
KIJUN
100
AcDbCircle
 10
143.2046128077399
 20
217.2222890147686
 30
0.0
 40
39.27423843884369
100
AcDbArc
 50
136.6263322475091
 51
165.8569306122431
  0
ARC
  5
491E
102
{ACAD_REACTORS
330
4A68
102
}
330
2
100
AcDbEntity
  8
KIJUN
100
AcDbCircle
 10
63.32103473796758
 20
247.7071048725024
 30
0.0
 40
51.45557954817746
100
AcDbArc
 50
356.0851243295393
 51
19.48048242828314
  0
ARC
  5
491F
102
{ACAD_REACTORS
330
4A68
102
}
330
2
100
AcDbEntity
  8
KIJUN
100
AcDbCircle
 10
96.52895101720481
 20
259.2077133079301
 30
0.0
 40
16.31500789491153
100
AcDbArc
 50
20.29563904951785
 51
54.26803489270123
  0
ARC
  5
4920
102
{ACAD_REACTORS
330
4A68
102
}
330
2
100
AcDbEntity
  8
KIJUN
100
AcDbCircle
 10
40.36878385674936
 20
238.7784273913728
 30
0.0
 40
74.48489989398005
100
AcDbArc
 50
342.7152402709753
 51
4.169490488446491
  0
ARC
  5
4921
102
{ACAD_REACTORS
330
4A68
102
}
330
2
100
AcDbEntity
  8
KIJUN
100
AcDbCircle
 10
98.63672893849548
 20
207.6030926215283
 30
0.0
 40
7.889534524934292
100
AcDbArc
 50
358.6563643771242
 51
60.6145851643926
  0
ARC
  5
4923
102
{ACAD_REACTORS
330
4A68
102
}
330
2
100
AcDbEntity
  8
KIJUN
100
AcDbCircle
 10
57.85245584082145
 20
269.5563554775715
 30
0.0
 40
49.62447670571851
100
AcDbArc
 50
314.1370540060884
 51
345.908422028239
  0
ARC
  5
4924
102
{ACAD_REACTORS
330
4A68
102
}
330
2
100
AcDbEntity
  8
KIJUN
100
AcDbCircle
 10
83.8026824557544
 20
258.6911636947673
 30
0.0
 40
9.381865208538593
100
AcDbArc
 50
309.8185110885413
 51
156.3023495332474
  0
ARC
  5
4925
102
{ACAD_REACTORS
330
4A68
102
}
330
2
100
AcDbEntity
  8
KIJUN
100
AcDbCircle
 10
105.0486800437334
 20
250.500072810232
 30
0.0
 40
32.14524572497688
100
AcDbArc
 50
158.1538276363606
 51
180.5030743150481
  0
ARC
  5
4927
102
{ACAD_REACTORS
330
4A68
102
}
330
2
100
AcDbEntity
  8
KIJUN
100
AcDbCircle
 10
102.033102833794
 20
293.1671680565898
 30
0.0
 40
26.88063934017157
100
AcDbArc
 50
144.2241996864697
 51
225.4990546875399
  0
ARC
  5
4928
102
{ACAD_REACTORS
330
4A68
102
}
330
2
100
AcDbEntity
  8
KIJUN
100
AcDbCircle
 10
164.1091975606554
 20
297.9108277329146
 30
0.0
 40
62.59506668218484
100
AcDbArc
 50
176.9648550497975
 51
192.7622379048438
  0
ARC
  5
4929
102
{ACAD_REACTORS
330
4A68
102
}
330
2
100
AcDbEntity
  8
KIJUN
100
AcDbCircle
 10
89.7347711429718
 20
301.7633589122204
 30
0.0
 40
11.87936402122915
100
AcDbArc
 50
357.4032213524175
 51
143.1842393210921
  0
ARC
  5
492A
102
{ACAD_REACTORS
330
4A68
102
}
330
2
100
AcDbEntity
  8
KIJUN
100
AcDbCircle
 10
88.88885232704387
 20
279.4937018192491
 30
0.0
 40
7.145478346664461
100
AcDbArc
 50
320.129101026207
 51
72.01239904482303
  0
ARC
  5
492B
102
{ACAD_REACTORS
330
4A68
102
}
330
2
100
AcDbEntity
  8
KIJUN
100
AcDbCircle
 10
89.90370687180973
 20
280.2875519779857
 30
0.0
 40
6.276095997766097
100
AcDbArc
 50
107.1499800462187
 51
202.5274847192617
  0
ARC
  5
492C
102
{ACAD_REACTORS
330
4A68
102
}
330
2
100
AcDbEntity
  8
KIJUN
100
AcDbCircle
 10
97.13070468108458
 20
292.0312405678339
 30
0.0
 40
19.23024120802653
100
AcDbArc
 50
137.3135334430756
 51
227.3687706625359
  0
ARC
  5
492D
102
{ACAD_REACTORS
330
4A68
102
}
330
2
100
AcDbEntity
  8
KIJUN
100
AcDbCircle
 10
79.64021965340816
 20
301.6290976818218
 30
0.0
 40
4.805025430584589
100
AcDbArc
 50
332.6822133857822
 51
45.7180424595436
  0
ARC
  5
492E
102
{ACAD_REACTORS
330
4A68
102
}
330
2
100
AcDbEntity
  8
KIJUN
100
AcDbCircle
 10
83.54770182245784
 20
297.274631161056
 30
0.0
 40
2.179534052563933
100
AcDbArc
 50
80.44842120438064
 51
283.2286371305767
  0
ARC
  5
492F
102
{ACAD_REACTORS
330
4A68
102
}
330
2
100
AcDbEntity
  8
KIJUN
100
AcDbCircle
 10
96.11051661997862
 20
295.2640661752141
 30
0.0
 40
12.06456766200216
100
AcDbArc
 50
180.5277951359165
 51
228.0977283613275
  0
ARC
  5
4930
102
{ACAD_REACTORS
330
4A68
102
}
330
2
100
AcDbEntity
  8
KIJUN
100
AcDbCircle
 10
99.28268078126416
 20
303.4068122356032
 30
0.0
 40
3.656186876602641
100
AcDbArc
 50
125.3400734267386
 51
207.3550017752333
  0
ARC
  5
4931
102
{ACAD_REACTORS
330
4A68
102
}
330
2
100
AcDbEntity
  8
KIJUN
100
AcDbCircle
 10
95.46769784824983
 20
299.0831824107797
 30
0.0
 40
2.703859705394275
100
AcDbArc
 50
262.2859570408059
 51
77.88126732244336
  0
ARC
  5
4932
102
{ACAD_REACTORS
330
4A68
102
}
330
2
100
AcDbEntity
  8
KIJUN
100
AcDbCircle
 10
82.68217651415978
 20
295.47670781544
 30
0.0
 40
12.45713036455037
100
AcDbArc
 50
312.4835582472124
 51
4.268009627387923
  0
ARC
  5
4933
102
{ACAD_REACTORS
330
4A68
102
}
330
2
100
AcDbEntity
  8
KIJUN
100
AcDbCircle
 10
8.180323868405707
 20
302.5898375964696
 30
0.0
 40
82.10671998993296
100
AcDbArc
 50
353.3324889877669
 51
4.113109868454723
  0
ARC
  5
4934
102
{ACAD_REACTORS
330
4A68
102
}
330
2
100
AcDbEntity
  8
KIJUN
100
AcDbCircle
 10
72.09485704679877
 20
295.9154980259814
 30
0.0
 40
27.17268179974681
100
AcDbArc
 50
356.5737939622181
 51
22.67185592235022
  0
ARC
  5
4935
102
{ACAD_REACTORS
330
4A68
102
}
330
2
100
AcDbEntity
  8
KIJUN
100
AcDbCircle
 10
127.6295377634785
 20
294.436359866728
 30
0.0
 40
24.44449617026224
100
AcDbArc
 50
185.2707633539118
 51
203.1981722401487
  0
ARC
  5
4936
102
{ACAD_REACTORS
330
4A68
102
}
330
2
100
AcDbEntity
  8
KIJUN
100
AcDbCircle
 10
107.4355734269827
 20
292.705182395712
 30
0.0
 40
4.178948022475483
100
AcDbArc
 50
92.51087403294015
 51
187.0700254013124
  0
ARC
  5
4938
102
{ACAD_REACTORS
330
4A68
102
}
330
2
100
AcDbEntity
  8
KIJUN
100
AcDbCircle
 10
104.1160501975448
 20
284.4305849235702
 30
0.0
 40
1.111207842066909
100
AcDbArc
 50
198.2162104532142
 51
19.82038456263843
  0
ARC
  5
4939
102
{ACAD_REACTORS
330
4A68
102
}
330
2
100
AcDbEntity
  8
KIJUN
100
AcDbCircle
 10
117.281461501975
 20
311.2113755420623
 30
0.0
 40
4.608913551534611
100
AcDbArc
 50
315.0359547184832
 51
224.9640452815185
  0
ARC
  5
493A
102
{ACAD_REACTORS
330
4A68
102
}
330
2
100
AcDbEntity
  8
KIJUN
100
AcDbCircle
 10
124.941999661439
 20
293.6746218473652
 30
0.0
 40
17.97758825528114
100
AcDbArc
 50
127.4097249054428
 51
169.728945204771
  0
ARC
  5
493B
102
{ACAD_REACTORS
330
4A68
102
}
330
2
100
AcDbEntity
  8
KIJUN
100
AcDbCircle
 10
190.7087297475287
 20
288.942363682703
 30
0.0
 40
74.43053320153705
100
AcDbArc
 50
171.3568597661863
 51
185.9620711499512
  0
ARC
  5
493C
102
{ACAD_REACTORS
330
4A68
102
}
330
2
100
AcDbEntity
  8
KIJUN
100
AcDbCircle
 10
23.95827799669417
 20
262.5181001179026
 30
0.0
 40
92.82764857298536
100
AcDbArc
 50
11.32881419039199
 51
18.76099253827534
  0
ARC
  5
493D
102
{ACAD_REACTORS
330
4A68
102
}
330
2
100
AcDbEntity
  8
KIJUN
100
AcDbCircle
 10
35.46400813434571
 20
171.6453987344891
 30
0.0
 40
104.2743160492609
100
AcDbArc
 50
78.97396609429574
 51
109.5710158130553
  0
ARC
  5
493E
102
{ACAD_REACTORS
330
4A68
102
}
330
2
100
AcDbEntity
  8
KIJUN
100
AcDbCircle
 10
-166.2157997634663
 20
240.0840048509406
 30
0.0
 40
236.2528861175725
100
AcDbArc
 50
356.4663623232697
 51
4.528816378494635
  0
ARC
  5
493F
102
{ACAD_REACTORS
330
4A68
102
}
330
2
100
AcDbEntity
  8
KIJUN
100
AcDbCircle
 10
51.74672937387413
 20
256.7083732767455
 30
0.0
 40
17.66974350797682
100
AcDbArc
 50
6.597917317144638
 51
78.04469180142389
  0
ARC
  5
4940
102
{ACAD_REACTORS
330
4A68
102
}
330
2
100
AcDbEntity
  8
KIJUN
100
AcDbCircle
 10
59.02347258619101
 20
225.7524271839116
 30
0.0
 40
10.56694444015811
100
AcDbArc
 50
316.6114650375298
 51
358.7541250912479
  0
ARC
  5
4941
102
{ACAD_REACTORS
330
4A68
102
}
330
2
100
AcDbEntity
  8
KIJUN
100
AcDbCircle
 10
131.3336230650321
 20
161.7993905096807
 30
0.0
 40
85.97323257627259
100
AcDbArc
 50
138.7428494092961
 51
165.5103094815242
  0
ARC
  5
4942
102
{ACAD_REACTORS
330
4A68
102
}
330
2
100
AcDbEntity
  8
KIJUN
100
AcDbCircle
 10
67.89850926595477
 20
178.2136130779838
 30
0.0
 40
20.44889638576349
100
AcDbArc
 50
165.5671793409182
 51
210.9098590892829
  0
ARC
  5
4943
102
{ACAD_REACTORS
330
4A68
102
}
330
2
100
AcDbEntity
  8
KIJUN
100
AcDbCircle
 10
53.30329766487477
 20
169.6213787723502
 30
0.0
 40
3.51505187956535
100
AcDbArc
 50
212.9553522812625
 51
51.88272684848463
  0
ARC
  5
4944
102
{ACAD_REACTORS
330
4A68
102
}
330
2
100
AcDbEntity
  8
KIJUN
100
AcDbCircle
 10
56.93300880977358
 20
174.0332242721663
 30
0.0
 40
2.200470275743315
100
AcDbArc
 50
63.1527050240897
 51
228.4343116508436
  0
ARC
  5
4945
102
{ACAD_REACTORS
330
4A68
102
}
330
2
100
AcDbEntity
  8
KIJUN
100
AcDbCircle
 10
66.35394693530452
 20
184.8955765116061
 30
0.0
 40
12.25604336198901
100
AcDbArc
 50
167.4554756391391
 51
226.5600935476395
  0
ARC
  5
4946
102
{ACAD_REACTORS
330
4A68
102
}
330
2
100
AcDbEntity
  8
KIJUN
100
AcDbCircle
 10
62.45463274900635
 20
190.4426034079335
 30
0.0
 40
2.732583279816096
100
AcDbArc
 50
106.6990727752713
 51
222.3034527076269
  0
ARC
  5
4947
102
{ACAD_REACTORS
330
4A68
102
}
330
2
100
AcDbEntity
  8
KIJUN
100
AcDbCircle
 10
57.90312693629357
 20
185.2430197055996
 30
0.0
 40
4.206635117979792
100
AcDbArc
 50
53.01881107891119
 51
146.6183349383429
  0
ARC
  5
4948
102
{ACAD_REACTORS
330
4A68
102
}
330
2
100
AcDbEntity
  8
KIJUN
100
AcDbCircle
 10
66.7904351831138
 20
196.7746371792541
 30
0.0
 40
6.326415900910602
100
AcDbArc
 50
158.7466532419962
 51
215.9565475345088
  0
ARC
  5
4949
102
{ACAD_REACTORS
330
4A68
102
}
330
2
100
AcDbEntity
  8
KIJUN
100
AcDbCircle
 10
63.00709594318073
 20
191.2013057630693
 30
0.0
 40
8.145394671729329
100
AcDbArc
 50
72.49346510308504
 51
105.0335953723158
  0
ARC
  5
494A
102
{ACAD_REACTORS
330
4A68
102
}
330
2
100
AcDbEntity
  8
KIJUN
100
AcDbCircle
 10
78.55022270833103
 20
203.482029046643
 30
0.0
 40
13.84871497798376
100
AcDbArc
 50
126.1952789368826
 51
199.0170709714027
  0
ARC
  5
494B
102
{ACAD_REACTORS
330
4A68
102
}
330
2
100
AcDbEntity
  8
KIJUN
100
AcDbCircle
 10
77.75563273990599
 20
182.7799979761655
 30
0.0
 40
36.40229625334708
100
AcDbArc
 50
161.6927557937208
 51
225.8230314148547
  0
ARC
  5
494C
102
{ACAD_REACTORS
330
4A68
102
}
330
2
100
AcDbEntity
  8
KIJUN
100
AcDbCircle
 10
-25.33601739691448
 20
216.7457978430559
 30
0.0
 40
72.14065922693658
100
AcDbArc
 50
341.8005544072216
 51
358.9693684194259
  0
ARC
  5
494D
102
{ACAD_REACTORS
330
4A68
102
}
330
2
100
AcDbEntity
  8
KIJUN
100
AcDbCircle
 10
33.38333786624071
 20
210.065329023128
 30
0.0
 40
7.193135239777472
100
AcDbArc
 50
42.8928769037429
 51
311.3712540556568
  0
ARC
  5
494E
102
{ACAD_REACTORS
330
4A68
102
}
330
2
100
AcDbEntity
  8
KIJUN
100
AcDbCircle
 10
43.0596008370751
 20
209.5805797337173
 30
0.0
 40
6.95464682155536
100
AcDbArc
 50
57.53280378047577
 51
290.506058710037
  0
ARC
  5
4951
102
{ACAD_REACTORS
330
4A68
102
}
330
2
100
AcDbEntity
  8
KIJUN
100
AcDbCircle
 10
-179.2618761615472
 20
219.7908629148287
 30
0.0
 40
226.0965559211455
100
AcDbArc
 50
358.899447586994
 51
2.012053912648332
  0
ARC
  5
4952
102
{ACAD_REACTORS
330
4A68
102
}
330
2
100
AcDbEntity
  8
KIJUN
100
AcDbCircle
 10
52.16646217794959
 20
235.1206781009207
 30
0.0
 40
9.196188339055632
100
AcDbArc
 50
212.4197887268199
 51
277.0636785466394
  0
ARC
  5
4953
102
{ACAD_REACTORS
330
4A68
102
}
330
2
100
AcDbEntity
  8
KIJUN
100
AcDbCircle
 10
38.18113546707639
 20
230.0309783473585
 30
0.0
 40
15.64590968740322
100
AcDbArc
 50
345.0484046359169
 51
23.45126403237312
  0
ARC
  5
4954
102
{ACAD_REACTORS
330
4A68
102
}
330
2
100
AcDbEntity
  8
KIJUN
100
AcDbCircle
 10
52.3633398824063
 20
251.2073222519628
 30
0.0
 40
6.073695729972511
100
AcDbArc
 50
254.7846521102335
 51
177.9694875496099
  0
ARC
  5
4955
102
{ACAD_REACTORS
330
4A68
102
}
330
2
100
AcDbEntity
  8
KIJUN
100
AcDbCircle
 10
52.94343355914747
 20
258.0617525697448
 30
0.0
 40
12.89975286813936
100
AcDbArc
 50
192.7395749132788
 51
260.2970728271646
  0
ARC
  5
4956
102
{ACAD_REACTORS
330
4A68
102
}
330
2
100
AcDbEntity
  8
KIJUN
100
AcDbCircle
 10
52.32915529953846
 20
258.0262832357018
 30
0.0
 40
12.29318873001736
100
AcDbArc
 50
107.7834416546998
 51
193.2096866569047
  0
ARC
  5
4957
102
{ACAD_REACTORS
330
4A68
102
}
330
2
100
AcDbEntity
  8
KIJUN
100
AcDbCircle
 10
50.16707602460053
 20
243.7304443284349
 30
0.0
 40
7.838971885054028
100
AcDbArc
 50
287.5795353138179
 51
27.90305327306267
  0
ARC
  5
4958
102
{ACAD_REACTORS
330
4A68
102
}
330
2
100
AcDbEntity
  8
KIJUN
100
AcDbCircle
 10
29.54218999087743
 20
232.7603677309037
 30
0.0
 40
15.08194485287996
100
AcDbArc
 50
331.4254343004249
 51
350.1890320825145
  0
ARC
  5
4959
102
{ACAD_REACTORS
330
4A68
102
}
330
2
100
AcDbEntity
  8
KIJUN
100
AcDbCircle
 10
80.01734713402333
 20
263.2630555074961
 30
0.0
 40
52.9964176500554
100
AcDbArc
 50
211.0688148667696
 51
225.3716505477832
  0
ARC
  5
495A
102
{ACAD_REACTORS
330
4A68
102
}
330
2
100
AcDbEntity
  8
KIJUN
100
AcDbCircle
 10
57.8872128930393
 20
251.5030396859716
 30
0.0
 40
28.00437839381136
100
AcDbArc
 50
136.7595370763401
 51
213.8270482541289
  0
ARC
  5
495C
102
{ACAD_REACTORS
330
4A68
102
}
330
2
100
AcDbEntity
  8
KIJUN
100
AcDbCircle
 10
0.1949116725787689
 20
218.4278792803354
 30
0.0
 40
38.61424506300766
100
AcDbArc
 50
354.8491964302581
 51
26.92502442480049
  0
ARC
  5
495E
102
{ACAD_REACTORS
330
4A68
102
}
330
2
100
AcDbEntity
  8
KIJUN
100
AcDbCircle
 10
92.3296285964435
 20
274.7227984926408
 30
0.0
 40
60.54758948723258
100
AcDbArc
 50
197.1657464630679
 51
224.5500389197824
  0
ARC
  5
495F
102
{ACAD_REACTORS
330
4A68
102
}
330
2
100
AcDbEntity
  8
KIJUN
100
AcDbCircle
 10
54.85076570189903
 20
256.7614013780919
 30
0.0
 40
10.08618526317006
100
AcDbArc
 50
31.18947298533349
 51
211.9599105952298
  0
ARC
  5
4960
102
{ACAD_REACTORS
330
4A68
102
}
330
2
100
AcDbEntity
  8
KIJUN
100
AcDbCircle
 10
39.8734818997375
 20
248.9779115096847
 30
0.0
 40
26.9518465050794
100
AcDbArc
 50
1.097696916406138
 51
28.85501026568923
  0
ARC
  5
4973
102
{ACAD_REACTORS
330
4A68
102
}
330
2
100
AcDbEntity
  8
KIJUN
100
AcDbCircle
 10
59.90270042650945
 20
171.1915693703111
 30
0.0
 40
14.67792645858247
100
AcDbArc
 50
278.4400799751714
 51
333.9725771107362
  0
ARC
  5
4974
102
{ACAD_REACTORS
330
4A68
102
}
330
2
100
AcDbEntity
  8
KIJUN
100
AcDbCircle
 10
87.40380072426068
 20
172.3736527429116
 30
0.0
 40
16.21520469574912
100
AcDbArc
 50
208.0408220569933
 51
255.5329790015119
  0
ARC
  5
4975
102
{ACAD_REACTORS
330
4A68
102
}
330
2
100
AcDbEntity
  8
KIJUN
100
AcDbCircle
 10
24.44763641085274
 20
208.9569448189395
 30
0.0
 40
7.034607571727144
100
AcDbArc
 50
58.59481004945025
 51
315.5468918330174
  0
ARC
  5
4977
102
{ACAD_REACTORS
330
4A68
102
}
330
2
100
AcDbEntity
  8
KIJUN
100
AcDbCircle
 10
100.8368060771658
 20
173.8626562953916
 30
0.0
 40
12.92196619673485
100
AcDbArc
 50
149.4155462460772
 51
243.5525610136966
  0
ARC
  5
4978
102
{ACAD_REACTORS
330
4A68
102
}
330
2
100
AcDbEntity
  8
KIJUN
100
AcDbCircle
 10
42.67119270566263
 20
171.2284023737281
 30
0.0
 40
20.72200110423343
100
AcDbArc
 50
341.2335538610236
 51
43.13144991128433
  0
ARC
  5
4979
102
{ACAD_REACTORS
330
4A68
102
}
330
2
100
AcDbEntity
  8
KIJUN
100
AcDbCircle
 10
42.2453199542083
 20
172.7204154720746
 30
0.0
 40
27.96027340276312
100
AcDbArc
 50
4.810397729367075
 51
41.11693089480136
  0
ARC
  5
497A
102
{ACAD_REACTORS
330
4A68
102
}
330
2
100
AcDbEntity
  8
KIJUN
100
AcDbCircle
 10
111.6094948295014
 20
175.0920363845459
 30
0.0
 40
32.89409904641214
100
AcDbArc
 50
155.1588335117524
 51
183.4081893690551
  0
ARC
  5
497B
102
{ACAD_REACTORS
330
4A68
102
}
330
2
100
AcDbEntity
  8
KIJUN
100
AcDbCircle
 10
-427.0883930490166
 20
170.5657475162427
 30
0.0
 40
500.9516530133307
100
AcDbArc
 50
0.8635710254123067
 51
4.484936357504566
  0
ARC
  5
497C
102
{ACAD_REACTORS
330
4A68
102
}
330
2
100
AcDbEntity
  8
KIJUN
100
AcDbCircle
 10
40.05570355414079
 20
181.1003500184263
 30
0.0
 40
32.68490437179651
100
AcDbArc
 50
9.557008325189821
 51
30.26950162837492
  0
ARC
  5
497D
102
{ACAD_REACTORS
330
4A68
102
}
330
2
100
AcDbEntity
  8
KIJUN
100
AcDbCircle
 10
94.62642534960014
 20
185.6742303880105
 30
0.0
 40
19.17842812164731
100
AcDbArc
 50
148.4053103280856
 51
182.9920498461214
  0
ARC
  5
497E
102
{ACAD_REACTORS
330
4A68
102
}
330
2
100
AcDbEntity
  8
KIJUN
100
AcDbCircle
 10
200.849837274342
 20
282.4165886693579
 30
0.0
 40
209.8675054534446
100
AcDbArc
 50
169.2192410314037
 51
182.7358757590872
  0
ARC
  5
497F
102
{ACAD_REACTORS
330
4A68
102
}
330
2
100
AcDbEntity
  8
KIJUN
100
AcDbCircle
 10
50.5994672512395
 20
298.1400583407515
 30
0.0
 40
11.19092027096567
100
AcDbArc
 50
126.1230227714673
 51
286.0168054330215
  0
ARC
  5
4980
102
{ACAD_REACTORS
330
4A68
102
}
330
2
100
AcDbEntity
  8
KIJUN
100
AcDbCircle
 10
49.33676721666984
 20
297.2290448215656
 30
0.0
 40
11.29028299548717
100
AcDbArc
 50
1.454656017521893
 51
118.1962593321627
  0
ARC
  5
4981
102
{ACAD_REACTORS
330
4A68
102
}
330
2
100
AcDbEntity
  8
KIJUN
100
AcDbCircle
 10
44.60402094792743
 20
296.0624766950873
 30
0.0
 40
17.90705578418182
100
AcDbArc
 50
220.4829828599234
 51
291.9291520531524
  0
ARC
  5
4982
102
{ACAD_REACTORS
330
4A68
102
}
330
2
100
AcDbEntity
  8
KIJUN
100
AcDbCircle
 10
42.63814939320718
 20
295.3638811225112
 30
0.0
 40
18.11352539361451
100
AcDbArc
 50
298.5374756559323
 51
6.822501354263747
  0
ARC
  5
4983
102
{ACAD_REACTORS
330
4A68
102
}
330
2
100
AcDbEntity
  8
KIJUN
100
AcDbCircle
 10
47.72110100046541
 20
299.8258676067615
 30
0.0
 40
22.73665606451137
100
AcDbArc
 50
106.0833304127577
 51
222.5970987095192
  0
ARC
  5
4985
102
{ACAD_REACTORS
330
4A68
102
}
330
2
100
AcDbEntity
  8
KIJUN
100
AcDbCircle
 10
44.81674236276762
 20
294.7087863410445
 30
0.0
 40
11.50412887813204
100
AcDbArc
 50
228.8869633730628
 51
320.4502828017
  0
ARC
  5
4986
102
{ACAD_REACTORS
330
4A68
102
}
330
2
100
AcDbEntity
  8
KIJUN
100
AcDbCircle
 10
49.74481905900768
 20
299.055646407847
 30
0.0
 40
18.03980843530898
100
AcDbArc
 50
104.4369975662103
 51
226.1716178844237
  0
ARC
  5
4987
102
{ACAD_REACTORS
330
4A68
102
}
330
2
100
AcDbEntity
  8
KIJUN
100
AcDbCircle
 10
49.03850195125392
 20
298.2633388001416
 30
0.0
 40
18.65184527421241
100
AcDbArc
 50
9.883660993332888
 51
101.7280009825838
  0
ARC
  5
4988
102
{ACAD_REACTORS
330
4A68
102
}
330
2
100
AcDbEntity
  8
KIJUN
100
AcDbCircle
 10
12.77016720758479
 20
327.8802847462496
 30
0.0
 40
17.5383240797419
100
AcDbArc
 50
219.834390340493
 51
318.5279688958853
  0
ARC
  5
4989
102
{ACAD_REACTORS
330
4A68
102
}
330
2
100
AcDbEntity
  8
KIJUN
100
AcDbCircle
 10
13.60766042609975
 20
268.1781236325828
 30
0.0
 40
19.92071765393849
100
AcDbArc
 50
49.9787855057146
 51
133.8412007377017
  0
ARC
  5
498A
102
{ACAD_REACTORS
330
4A68
102
}
330
2
100
AcDbEntity
  8
KIJUN
100
AcDbCircle
 10
6.066817242651154
 20
309.0463162480753
 30
0.0
 40
39.53975525526649
100
AcDbArc
 50
247.9477562246346
 51
261.9572332725432
  0
ARC
  5
4997
102
{ACAD_REACTORS
330
4A68
102
}
330
2
100
AcDbEntity
  8
KIJUN
100
AcDbCircle
 10
24.55975759624426
 20
262.1135904114606
 30
0.0
 40
25.25391226047666
100
AcDbArc
 50
162.05247643658
 51
226.798527011974
  0
ARC
  5
4998
102
{ACAD_REACTORS
330
4A68
102
}
330
2
100
AcDbEntity
  8
KIJUN
100
AcDbCircle
 10
-26.77963685937937
 20
210.7271484048813
 30
0.0
 40
47.40274629622824
100
AcDbArc
 50
4.864515217608707
 51
44.08215971863062
  0
ARC
  5
499B
102
{ACAD_REACTORS
330
4A68
102
}
330
2
100
AcDbEntity
  8
KIJUN
100
AcDbCircle
 10
126.7881571445316
 20
322.4439241487385
 30
0.0
 40
144.5087541180808
100
AcDbArc
 50
180.30581861784
 51
200.2617340606908
  0
ARC
  5
499C
102
{ACAD_REACTORS
330
4A68
102
}
330
2
100
AcDbEntity
  8
KIJUN
100
AcDbCircle
 10
-9.006897714204114
 20
248.7672633677671
 30
0.0
 40
23.63305535385355
100
AcDbArc
 50
89.44616338775354
 51
233.5002606895958
  0
ARC
  5
499D
102
{ACAD_REACTORS
330
4A68
102
}
330
2
100
AcDbEntity
  8
KIJUN
100
AcDbCircle
 10
-9.718288560348355
 20
206.0847572769021
 30
0.0
 40
7.919910070222741
100
AcDbArc
 50
98.63635927768591
 51
289.4281927060454
  0
ARC
  5
499E
102
{ACAD_REACTORS
330
4A68
102
}
330
2
100
AcDbEntity
  8
KIJUN
100
AcDbCircle
 10
-41.78247163789433
 20
202.8293212849724
 30
0.0
 40
32.80471319033321
100
AcDbArc
 50
19.7505260458652
 51
55.20832541748345
  0
ARC
  5
499F
102
{ACAD_REACTORS
330
4A68
102
}
330
2
100
AcDbEntity
  8
KIJUN
100
AcDbCircle
 10
333.8372611629513
 20
291.9483686073236
 30
0.0
 40
353.466012738225
100
AcDbArc
 50
192.7540652378519
 51
202.5017852992228
  0
ARC
  5
49A2
102
{ACAD_REACTORS
330
4A68
102
}
330
2
100
AcDbEntity
  8
KIJUN
100
AcDbCircle
 10
-229.2180903875773
 20
229.0748156537495
 30
0.0
 40
218.8362628458183
100
AcDbArc
 50
356.0276355238732
 51
5.45887073274368
  0
ARC
  5
49A3
102
{ACAD_REACTORS
330
4A68
102
}
330
2
100
AcDbEntity
  8
KIJUN
100
AcDbCircle
 10
-19.3418670890544
 20
248.9929223299764
 30
0.0
 40
8.018236412267354
100
AcDbArc
 50
6.445039744871153
 51
257.8122998682715
  0
ARC
  5
49A6
102
{ACAD_REACTORS
330
4A68
102
}
330
2
100
AcDbEntity
  8
KIJUN
100
AcDbCircle
 10
48.41593072963542
 20
252.9832432818712
 30
0.0
 40
26.48723275861677
100
AcDbArc
 50
133.8527210855081
 51
216.8545529608364
  0
ARC
  5
49A7
102
{ACAD_REACTORS
330
4A68
102
}
330
2
100
AcDbEntity
  8
KIJUN
100
AcDbCircle
 10
1.595295873410805
 20
220.1508810253367
 30
0.0
 40
30.72261323028103
100
AcDbArc
 50
354.4052083508601
 51
33.47484722794979
  0
ARC
  5
49AE
102
{ACAD_REACTORS
330
4A68
102
}
330
2
100
AcDbEntity
  8
KIJUN
100
AcDbCircle
 10
270.1478530732763
 20
423.8760973552311
 30
0.0
 40
335.6071154490569
100
AcDbArc
 50
217.5849766396139
 51
224.4139608401463
  0
ARC
  5
49AF
102
{ACAD_REACTORS
330
4A68
102
}
330
2
100
AcDbEntity
  8
KIJUN
100
AcDbCircle
 10
17.85301504615495
 20
177.1309356166759
 30
0.0
 40
17.29199639928184
100
AcDbArc
 50
326.9849963566187
 51
43.3709690409093
  0
ARC
  5
49B0
102
{ACAD_REACTORS
330
4A68
102
}
330
2
100
AcDbEntity
  8
KIJUN
100
AcDbCircle
 10
29.20919607749488
 20
169.2818554535147
 30
0.0
 40
3.51505187956535
100
AcDbArc
 50
134.4960128683912
 51
333.4233874356212
  0
ARC
  5
49B1
102
{ACAD_REACTORS
330
4A68
102
}
330
2
100
AcDbEntity
  8
KIJUN
100
AcDbCircle
 10
25.1117988950391
 20
173.2631266121843
 30
0.0
 40
2.200470275743315
100
AcDbArc
 50
317.9444280660411
 51
123.2260346927977
  0
ARC
  5
49B2
102
{ACAD_REACTORS
330
4A68
102
}
330
2
100
AcDbEntity
  8
KIJUN
100
AcDbCircle
 10
14.54237455865541
 20
183.011564463256
 30
0.0
 40
12.25604336198901
100
AcDbArc
 50
319.8186461692521
 51
18.92326407773808
  0
ARC
  5
49B3
102
{ACAD_REACTORS
330
4A68
102
}
330
2
100
AcDbEntity
  8
KIJUN
100
AcDbCircle
 10
17.8012732605091
 20
188.9574653843194
 30
0.0
 40
2.732583279816095
100
AcDbArc
 50
324.0752870092448
 51
79.67966694160629
  0
ARC
  5
49B4
102
{ACAD_REACTORS
330
4A68
102
}
330
2
100
AcDbEntity
  8
KIJUN
100
AcDbCircle
 10
22.90227632820915
 20
184.2957442918418
 30
0.0
 40
4.206635117979791
100
AcDbArc
 50
39.76040477854335
 51
133.3599286379653
  0
ARC
  5
49B5
102
{ACAD_REACTORS
330
4A68
102
}
330
2
100
AcDbEntity
  8
KIJUN
100
AcDbCircle
 10
12.78882279671768
 20
194.7685904713219
 30
0.0
 40
6.326415900910601
100
AcDbArc
 50
330.4221921823685
 51
27.63208647488587
  0
ARC
  5
49B6
102
{ACAD_REACTORS
330
4A68
102
}
330
2
100
AcDbEntity
  8
KIJUN
100
AcDbCircle
 10
17.1679382840075
 20
189.6500920168896
 30
0.0
 40
8.145394671729327
100
AcDbArc
 50
81.34514434456729
 51
113.8852746137931
  0
ARC
  5
49B7
102
{ACAD_REACTORS
330
4A68
102
}
330
2
100
AcDbEntity
  8
KIJUN
100
AcDbCircle
 10
3.142081206589182
 20
198.5915720955561
 30
0.0
 40
10.83121939741147
100
AcDbArc
 50
352.0733985440114
 51
68.57438727772707
  0
ARC
  5
49B8
102
{ACAD_REACTORS
330
4A68
102
}
330
2
100
AcDbEntity
  8
KIJUN
100
AcDbCircle
 10
5.298237656774517
 20
182.581232880392
 30
0.0
 40
36.01795938218984
100
AcDbArc
 50
314.0012025175874
 51
9.632142329773712
  0
ARC
  5
49B9
102
{ACAD_REACTORS
330
4A68
102
}
330
2
100
AcDbEntity
  8
KIJUN
100
AcDbCircle
 10
18.45549601478933
 20
182.7401623134712
 30
0.0
 40
23.11023607718283
100
AcDbArc
 50
14.7083464892938
 51
63.46198053602286
  0
ARC
  5
49BA
102
{ACAD_REACTORS
330
4A68
102
}
330
2
100
AcDbEntity
  8
KIJUN
100
AcDbCircle
 10
25.05584713694316
 20
165.7912164315967
 30
0.0
 40
10.12738324619767
100
AcDbArc
 50
188.1848700280962
 51
244.2095804381181
  0
ARC
  5
49BB
102
{ACAD_REACTORS
330
4A68
102
}
330
2
100
AcDbEntity
  8
KIJUN
100
AcDbCircle
 10
39.59693933205517
 20
172.0601590359958
 30
0.0
 40
20.72200110423342
100
AcDbArc
 50
143.2472898056
 51
205.1451858558579
  0
ARC
  5
49BC
102
{ACAD_REACTORS
330
4A68
102
}
330
2
100
AcDbEntity
  8
KIJUN
100
AcDbCircle
 10
39.85441267939496
 20
173.5902499357396
 30
0.0
 40
27.96027340276312
100
AcDbArc
 50
145.2618088220715
 51
181.5683419875148
  0
ARC
  5
49BD
102
{ACAD_REACTORS
330
4A68
102
}
330
2
100
AcDbEntity
  8
KIJUN
100
AcDbCircle
 10
506.5219644439334
 20
223.5919787607056
 30
0.0
 40
500.9516530133306
100
AcDbArc
 50
181.8938033593743
 51
185.5151686914686
  0
ARC
  5
49BE
102
{ACAD_REACTORS
330
4A68
102
}
330
2
100
AcDbEntity
  8
KIJUN
100
AcDbCircle
 10
41.09946143456318
 20
182.1615728545095
 30
0.0
 40
32.6849043717965
100
AcDbArc
 50
156.1092380885098
 51
176.8217313916925
  0
ARC
  5
49C0
102
{ACAD_REACTORS
330
4A68
102
}
330
2
100
AcDbEntity
  8
KIJUN
100
AcDbCircle
 10
-14.37139461513334
 20
167.576030911672
 30
0.0
 40
29.57952917273264
100
AcDbArc
 50
338.3698437900187
 51
353.737539735202
  0
ARC
  5
49C1
102
{ACAD_REACTORS
330
4A68
102
}
330
2
100
AcDbEntity
  8
KIJUN
100
AcDbCircle
 10
-216.9527375022588
 20
237.5821903561603
 30
0.0
 40
221.9134528864432
100
AcDbArc
 50
345.5035138048407
 51
355.2424429153368
  0
ARC
  5
49C2
102
{ACAD_REACTORS
330
4A68
102
}
330
2
100
AcDbEntity
  8
KIJUN
100
AcDbCircle
 10
12.58725954848398
 20
231.7219619598454
 30
0.0
 40
12.51673402003098
100
AcDbArc
 50
323.446025349705
 51
3.872289448790423
  0
ARC
  5
49C3
102
{ACAD_REACTORS
330
4A68
102
}
330
2
100
AcDbEntity
  8
KIJUN
100
AcDbCircle
 10
38.10999476423388
 20
245.8786399231344
 30
0.0
 40
26.57657024535214
100
AcDbArc
 50
213.7909832080192
 51
234.4072676633756
  0
ARC
  5
49C8
102
{ACAD_REACTORS
330
4A68
102
}
330
2
100
AcDbEntity
  8
KIJUN
100
AcDbCircle
 10
36.98093314687117
 20
241.8259655024665
 30
0.0
 40
15.08194485287996
100
AcDbArc
 50
217.8715928619264
 51
236.6351906440077
  0
ARC
  5
49C9
102
{ACAD_REACTORS
330
4A68
102
}
330
2
100
AcDbEntity
  8
KIJUN
100
AcDbCircle
 10
-21.90952051569991
 20
244.9992788557495
 30
0.0
 40
52.9964176500554
100
AcDbArc
 50
342.6889743966562
 51
346.577575964004
  0
ARC
  5
49CB
102
{ACAD_REACTORS
330
4A68
102
}
330
2
100
AcDbEntity
  8
KIJUN
100
AcDbCircle
 10
162.1679226873857
 20
295.4827582620835
 30
0.0
 40
155.0428535553109
100
AcDbArc
 50
196.5771680635955
 51
204.3619925863528
  0
LINE
  5
49CE
102
{ACAD_REACTORS
330
4A68
102
}
330
2
100
AcDbEntity
  8
KIJUN
100
AcDbLine
 10
297.2814615019754
 20
416.67260629626
 30
0.0
 11
297.2814615019754
 21
373.67260629626
 31
0.0
  0
LINE
  5
49CF
102
{ACAD_REACTORS
330
4A68
102
}
330
2
100
AcDbEntity
  8
KIJUN
  6
DASHED
100
AcDbLine
 10
212.2814615019756
 20
131.67260629626
 30
0.0
 11
212.2814615019756
 21
86.6726062962598
 31
0.0
  0
LINE
  5
49D0
102
{ACAD_REACTORS
330
4A68
102
}
330
2
100
AcDbEntity
  8
KIJUN
100
AcDbLine
 10
282.2814615019754
 20
373.67260629626
 30
0.0
 11
282.2814615019752
 21
349.6726062962602
 31
0.0
  0
LINE
  5
49D1
102
{ACAD_REACTORS
330
4A68
102
}
330
2
100
AcDbEntity
  8
KIJUN
100
AcDbLine
 10
267.2814615019754
 20
349.67260629626
 30
0.0
 11
267.2814615019754
 21
333.67260629626
 31
0.0
  0
LINE
  5
49D2
102
{ACAD_REACTORS
330
4A68
102
}
330
2
100
AcDbEntity
  8
KIJUN
100
AcDbLine
 10
230.2814615019754
 20
349.67260629626
 30
0.0
 11
230.2814615019754
 21
333.67260629626
 31
0.0
  0
LINE
  5
49D3
102
{ACAD_REACTORS
330
4A68
102
}
330
2
100
AcDbEntity
  8
KIJUN
100
AcDbLine
 10
252.2814615019754
 20
333.67260629626
 30
0.0
 11
252.2814615019752
 21
326.67260629626
 31
0.0
  0
ARC
  5
49D4
102
{ACAD_REACTORS
330
4A68
102
}
330
2
100
AcDbEntity
  8
KIJUN
100
AcDbCircle
 10
252.7722204234881
 20
318.5855438061426
 30
0.0
 40
8.101939523232156
100
AcDbArc
 50
93.4727040565053
 51
157.6026515274462
  0
LINE
  5
49D5
102
{ACAD_REACTORS
330
4A68
102
}
330
2
100
AcDbEntity
  8
KIJUN
100
AcDbLine
 10
219.2814615019763
 20
321.6726062962603
 30
0.0
 11
219.2814615019763
 21
326.67260629626
 31
0.0
  0
LINE
  5
49D6
102
{ACAD_REACTORS
330
4A68
102
}
330
2
100
AcDbEntity
  8
KIJUN
100
AcDbLine
 10
222.2814615019754
 20
333.67260629626
 30
0.0
 11
222.2814615019752
 21
326.67260629626
 31
0.0
  0
ARC
  5
49D7
102
{ACAD_REACTORS
330
4A68
102
}
330
2
100
AcDbEntity
  8
KIJUN
100
AcDbCircle
 10
231.0314615019754
 20
137.92260629626
 30
0.0
 40
6.25
100
AcDbArc
 50
270.0
 51
90.0
  0
ARC
  5
49D8
102
{ACAD_REACTORS
330
4A68
102
}
330
2
100
AcDbEntity
  8
KIJUN
100
AcDbCircle
 10
231.0314615019754
 20
150.42260629626
 30
0.0
 40
6.25
100
AcDbArc
 50
270.0
 51
90.0
  0
ARC
  5
49D9
102
{ACAD_REACTORS
330
4A68
102
}
330
2
100
AcDbEntity
  8
KIJUN
100
AcDbCircle
 10
300.9512011844799
 20
230.7651200007754
 30
0.0
 40
138.5412443222502
100
AcDbArc
 50
168.3510473209713
 51
182.819155636857
  0
ARC
  5
49DA
102
{ACAD_REACTORS
330
4A68
102
}
330
2
100
AcDbEntity
  8
KIJUN
100
AcDbCircle
 10
150.4825061861811
 20
259.2323509831254
 30
0.0
 40
14.78921460060036
100
AcDbArc
 50
358.0869495512472
 51
86.55565956731246
  0
ARC
  5
49DB
102
{ACAD_REACTORS
330
4A68
102
}
330
2
100
AcDbEntity
  8
KIJUN
100
AcDbCircle
 10
148.5085238799024
 20
227.0422717680942
 30
0.0
 40
14.40467578637679
100
AcDbArc
 50
316.8820650817086
 51
347.6084319026329
  0
ARC
  5
49DC
102
{ACAD_REACTORS
330
4A68
102
}
330
2
100
AcDbEntity
  8
KIJUN
100
AcDbCircle
 10
406.1717056325862
 20
-37.16449447365415
 30
0.0
 40
354.6575464604564
100
AcDbArc
 50
134.1760388237875
 51
140.715313979953
  0
ARC
  5
49DD
102
{ACAD_REACTORS
330
4A68
102
}
330
2
100
AcDbEntity
  8
KIJUN
100
AcDbCircle
 10
143.9843772886981
 20
179.5817661207518
 30
0.0
 40
14.5897221840846
100
AcDbArc
 50
147.6180485264204
 51
226.8648662371134
  0
ARC
  5
49DE
102
{ACAD_REACTORS
330
4A68
102
}
330
2
100
AcDbEntity
  8
KIJUN
100
AcDbCircle
 10
136.1759339170544
 20
171.8199830135602
 30
0.0
 40
3.608091289638492
100
AcDbArc
 50
233.0902565082118
 51
50.38223587993708
  0
ARC
  5
49DF
102
{ACAD_REACTORS
330
4A68
102
}
330
2
100
AcDbEntity
  8
KIJUN
100
AcDbCircle
 10
139.9366439150765
 20
176.2457340052644
 30
0.0
 40
2.200470275743315
100
AcDbArc
 50
63.1527050240897
 51
228.4343116508436
  0
ARC
  5
49E0
102
{ACAD_REACTORS
330
4A68
102
}
330
2
100
AcDbEntity
  8
KIJUN
100
AcDbCircle
 10
148.1044721008041
 20
186.4050413191387
 30
0.0
 40
10.89228720533345
100
AcDbArc
 50
150.7647327419353
 51
228.8039859336355
  0
ARC
  5
49E1
102
{ACAD_REACTORS
330
4A68
102
}
330
2
100
AcDbEntity
  8
KIJUN
100
AcDbCircle
 10
151.6021998977362
 20
187.4782080212553
 30
0.0
 40
2.906094315975177
100
AcDbArc
 50
91.37930824417118
 51
176.2588812247518
  0
ARC
  5
49E2
102
{ACAD_REACTORS
330
4A68
102
}
330
2
100
AcDbEntity
  8
KIJUN
100
AcDbCircle
 10
139.6888241213309
 20
179.829801581877
 30
0.0
 40
11.94476231925088
100
AcDbArc
 50
41.0098866378012
 51
95.23185119646424
  0
ARC
  5
49E3
102
{ACAD_REACTORS
330
4A68
102
}
330
2
100
AcDbEntity
  8
KIJUN
100
AcDbCircle
 10
155.3298580889731
 20
195.5333680874507
 30
0.0
 40
6.398703088295664
100
AcDbArc
 50
133.381814906419
 51
233.5944379938912
  0
ARC
  5
49E4
102
{ACAD_REACTORS
330
4A68
102
}
330
2
100
AcDbEntity
  8
KIJUN
100
AcDbCircle
 10
148.3104790753502
 20
191.8985365005496
 30
0.0
 40
8.691066110582186
100
AcDbArc
 50
45.36975751124451
 51
72.42441864269477
  0
ARC
  5
49E5
102
{ACAD_REACTORS
330
4A68
102
}
330
2
100
AcDbEntity
  8
KIJUN
100
AcDbCircle
 10
167.3336277188067
 20
201.635135652318
 30
0.0
 40
13.39676841708588
100
AcDbArc
 50
103.5673275430852
 51
195.373215741432
  0
ARC
  5
49E6
102
{ACAD_REACTORS
330
4A68
102
}
330
2
100
AcDbEntity
  8
KIJUN
100
AcDbCircle
 10
144.9182768291173
 20
180.8601393553843
 30
0.0
 40
26.66789953824765
100
AcDbArc
 50
147.3434200247998
 51
245.092726385557
  0
ARC
  5
49E7
102
{ACAD_REACTORS
330
4A68
102
}
330
2
100
AcDbEntity
  8
KIJUN
100
AcDbCircle
 10
-344.3916701180508
 20
549.7829195542922
 30
0.0
 40
586.2163155936356
100
AcDbArc
 50
322.7868877278288
 51
325.0269168073907
  0
ARC
  5
49E8
102
{ACAD_REACTORS
330
4A68
102
}
330
2
100
AcDbEntity
  8
KIJUN
100
AcDbCircle
 10
126.6581929419414
 20
209.3065945529404
 30
0.0
 40
5.272232586950519
100
AcDbArc
 50
212.3680191772319
 51
305.5746728021264
  0
ARC
  5
49E9
102
{ACAD_REACTORS
330
4A68
102
}
330
2
100
AcDbEntity
  8
KIJUN
100
AcDbCircle
 10
127.8801691537678
 20
207.8644675091264
 30
0.0
 40
10.01244305375289
100
AcDbArc
 50
36.13485814779771
 51
118.6932894813979
  0
ARC
  5
49EA
102
{ACAD_REACTORS
330
4A68
102
}
330
2
100
AcDbEntity
  8
KIJUN
100
AcDbCircle
 10
119.5565707328861
 20
224.2935294980016
 30
0.0
 40
19.49510693249096
100
AcDbArc
 50
327.3251304779798
 51
7.873520685702533
  0
ARC
  5
49EB
102
{ACAD_REACTORS
330
4A68
102
}
330
2
100
AcDbEntity
  8
KIJUN
100
AcDbCircle
 10
143.0428360721562
 20
232.7379855196063
 30
0.0
 40
7.125157851295815
100
AcDbArc
 50
202.4469978887864
 51
310.0806422348492
  0
ARC
  5
49EC
102
{ACAD_REACTORS
330
4A68
102
}
330
2
100
AcDbEntity
  8
KIJUN
100
AcDbCircle
 10
138.8633705555758
 20
232.6623885032541
 30
0.0
 40
10.28421242511711
100
AcDbArc
 50
328.4826650304767
 51
20.46174636812445
  0
ARC
  5
49ED
102
{ACAD_REACTORS
330
4A68
102
}
330
2
100
AcDbEntity
  8
KIJUN
100
AcDbCircle
 10
149.8403039894081
 20
254.7288839093851
 30
0.0
 40
6.033865033908138
100
AcDbArc
 50
289.8231815979587
 51
212.5193534071843
  0
ARC
  5
49EE
102
{ACAD_REACTORS
330
4A68
102
}
330
2
100
AcDbEntity
  8
KIJUN
100
AcDbCircle
 10
147.2499773753752
 20
259.7843841255349
 30
0.0
 40
11.69056488883645
100
AcDbArc
 50
197.5839540084801
 51
293.3660356395629
  0
ARC
  5
49EF
102
{ACAD_REACTORS
330
4A68
102
}
330
2
100
AcDbEntity
  8
KIJUN
100
AcDbCircle
 10
149.1103443939198
 20
259.3850177390919
 30
0.0
 40
13.3766182232272
100
AcDbArc
 50
108.8561777544462
 51
193.5426354824167
  0
ARC
  5
49F0
102
{ACAD_REACTORS
330
4A68
102
}
330
2
100
AcDbEntity
  8
KIJUN
100
AcDbCircle
 10
144.1554894085426
 20
244.2535380997949
 30
0.0
 40
9.099404746935297
100
AcDbArc
 50
298.5097354086278
 51
31.82994799749963
  0
ARC
  5
49F1
102
{ACAD_REACTORS
330
4A68
102
}
330
2
100
AcDbEntity
  8
KIJUN
100
AcDbCircle
 10
130.3777841117494
 20
234.0590922373292
 30
0.0
 40
7.300589317305955
100
AcDbArc
 50
262.6363375188797
 51
326.3848144954899
  0
ARC
  5
49F2
102
{ACAD_REACTORS
330
4A68
102
}
330
2
100
AcDbEntity
  8
KIJUN
100
AcDbCircle
 10
91.35831019621059
 20
217.2222890147686
 30
0.0
 40
39.27423843884369
100
AcDbArc
 50
14.14306938775689
 51
43.37366775249089
  0
ARC
  5
49F3
102
{ACAD_REACTORS
330
4A68
102
}
330
2
100
AcDbEntity
  8
KIJUN
100
AcDbCircle
 10
171.2418882659831
 20
247.7071048725024
 30
0.0
 40
51.45557954817746
100
AcDbArc
 50
160.5195175717186
 51
183.9148756704608
  0
ARC
  5
49F4
102
{ACAD_REACTORS
330
4A68
102
}
330
2
100
AcDbEntity
  8
KIJUN
100
AcDbCircle
 10
138.0339719867459
 20
259.2077133079301
 30
0.0
 40
16.31500789491153
100
AcDbArc
 50
125.7319651072987
 51
159.7043609504841
  0
ARC
  5
49F5
102
{ACAD_REACTORS
330
4A68
102
}
330
2
100
AcDbEntity
  8
KIJUN
100
AcDbCircle
 10
194.1941391472014
 20
238.7784273913728
 30
0.0
 40
74.48489989398005
100
AcDbArc
 50
175.8305095115535
 51
197.2847597290246
  0
ARC
  5
49F6
102
{ACAD_REACTORS
330
4A68
102
}
330
2
100
AcDbEntity
  8
KIJUN
100
AcDbCircle
 10
135.9261940654551
 20
207.6030926215283
 30
0.0
 40
7.889534524934292
100
AcDbArc
 50
119.3854148356074
 51
181.3436356228757
  0
ARC
  5
49F7
102
{ACAD_REACTORS
330
4A68
102
}
330
2
100
AcDbEntity
  8
KIJUN
100
AcDbCircle
 10
176.7104671631291
 20
269.5563554775715
 30
0.0
 40
49.62447670571851
100
AcDbArc
 50
194.0915779717609
 51
225.8629459939116
  0
ARC
  5
49F8
102
{ACAD_REACTORS
330
4A68
102
}
330
2
100
AcDbEntity
  8
KIJUN
100
AcDbCircle
 10
150.7602405481964
 20
258.6911636947673
 30
0.0
 40
9.381865208538593
100
AcDbArc
 50
23.69765046675257
 51
230.1814889114587
  0
ARC
  5
49F9
102
{ACAD_REACTORS
330
4A68
102
}
330
2
100
AcDbEntity
  8
KIJUN
100
AcDbCircle
 10
129.5142429602173
 20
250.500072810232
 30
0.0
 40
32.14524572497688
100
AcDbArc
 50
359.4969256849519
 51
21.84617236363939
  0
ARC
  5
49FA
102
{ACAD_REACTORS
330
4A68
102
}
330
2
100
AcDbEntity
  8
KIJUN
100
AcDbCircle
 10
132.5298201701566
 20
293.1671680565898
 30
0.0
 40
26.88063934017157
100
AcDbArc
 50
314.5009453124601
 51
35.77580031353025
  0
ARC
  5
49FB
102
{ACAD_REACTORS
330
4A68
102
}
330
2
100
AcDbEntity
  8
KIJUN
100
AcDbCircle
 10
70.4537254432953
 20
297.9108277329146
 30
0.0
 40
62.59506668218484
100
AcDbArc
 50
347.2377620951562
 51
3.035144950202514
  0
ARC
  5
49FC
102
{ACAD_REACTORS
330
4A68
102
}
330
2
100
AcDbEntity
  8
KIJUN
100
AcDbCircle
 10
144.828151860979
 20
301.7633589122204
 30
0.0
 40
11.87936402122915
100
AcDbArc
 50
36.81576067890796
 51
182.5967786475825
  0
ARC
  5
49FD
102
{ACAD_REACTORS
330
4A68
102
}
330
2
100
AcDbEntity
  8
KIJUN
100
AcDbCircle
 10
145.6740706769068
 20
279.4937018192491
 30
0.0
 40
7.145478346664461
100
AcDbArc
 50
107.9876009551769
 51
219.8708989737931
  0
ARC
  5
49FE
102
{ACAD_REACTORS
330
4A68
102
}
330
2
100
AcDbEntity
  8
KIJUN
100
AcDbCircle
 10
144.6592161321409
 20
280.2875519779857
 30
0.0
 40
6.276095997766097
100
AcDbArc
 50
337.4725152807382
 51
72.85001995378124
  0
ARC
  5
49FF
102
{ACAD_REACTORS
330
4A68
102
}
330
2
100
AcDbEntity
  8
KIJUN
100
AcDbCircle
 10
137.4322183228661
 20
292.0312405678339
 30
0.0
 40
19.23024120802653
100
AcDbArc
 50
312.6312293374641
 51
42.68646655692441
  0
ARC
  5
4A00
102
{ACAD_REACTORS
330
4A68
102
}
330
2
100
AcDbEntity
  8
KIJUN
100
AcDbCircle
 10
154.9227033505425
 20
301.6290976818218
 30
0.0
 40
4.805025430584589
100
AcDbArc
 50
134.2819575404563
 51
207.3177866142178
  0
ARC
  5
4A01
102
{ACAD_REACTORS
330
4A68
102
}
330
2
100
AcDbEntity
  8
KIJUN
100
AcDbCircle
 10
151.0152211814929
 20
297.274631161056
 30
0.0
 40
2.179534052563933
100
AcDbArc
 50
256.7713628694233
 51
99.55157879561937
  0
ARC
  5
4A02
102
{ACAD_REACTORS
330
4A68
102
}
330
2
100
AcDbEntity
  8
KIJUN
100
AcDbCircle
 10
138.4524063839719
 20
295.2640661752141
 30
0.0
 40
12.06456766200216
100
AcDbArc
 50
311.9022716386723
 51
359.4722048640835
  0
ARC
  5
4A03
102
{ACAD_REACTORS
330
4A68
102
}
330
2
100
AcDbEntity
  8
KIJUN
100
AcDbCircle
 10
135.2802422226864
 20
303.4068122356032
 30
0.0
 40
3.656186876602641
100
AcDbArc
 50
332.6449982247667
 51
54.6599265732614
  0
ARC
  5
4A04
102
{ACAD_REACTORS
330
4A68
102
}
330
2
100
AcDbEntity
  8
KIJUN
100
AcDbCircle
 10
139.0952251557007
 20
299.0831824107797
 30
0.0
 40
2.703859705394275
100
AcDbArc
 50
102.1187326775566
 51
277.7140429591941
  0
ARC
  5
4A05
102
{ACAD_REACTORS
330
4A68
102
}
330
2
100
AcDbEntity
  8
KIJUN
100
AcDbCircle
 10
151.8807464897909
 20
295.47670781544
 30
0.0
 40
12.45713036455037
100
AcDbArc
 50
175.731990372612
 51
227.5164417527875
  0
ARC
  5
4A06
102
{ACAD_REACTORS
330
4A68
102
}
330
2
100
AcDbEntity
  8
KIJUN
100
AcDbCircle
 10
226.382599135545
 20
302.5898375964696
 30
0.0
 40
82.10671998993296
100
AcDbArc
 50
175.8868901315453
 51
186.667511012233
  0
ARC
  5
4A07
102
{ACAD_REACTORS
330
4A68
102
}
330
2
100
AcDbEntity
  8
KIJUN
100
AcDbCircle
 10
162.4680659571518
 20
295.9154980259814
 30
0.0
 40
27.17268179974681
100
AcDbArc
 50
157.3281440776497
 51
183.4262060377819
  0
ARC
  5
4A08
102
{ACAD_REACTORS
330
4A68
102
}
330
2
100
AcDbEntity
  8
KIJUN
100
AcDbCircle
 10
106.9333852404722
 20
294.436359866728
 30
0.0
 40
24.44449617026224
100
AcDbArc
 50
336.8018277598513
 51
354.7292366460882
  0
ARC
  5
4A09
102
{ACAD_REACTORS
330
4A68
102
}
330
2
100
AcDbEntity
  8
KIJUN
100
AcDbCircle
 10
127.127349576968
 20
292.705182395712
 30
0.0
 40
4.178948022475483
100
AcDbArc
 50
352.9299745986876
 51
87.48912596705983
  0
ARC
  5
4A0A
102
{ACAD_REACTORS
330
4A68
102
}
330
2
100
AcDbEntity
  8
KIJUN
100
AcDbCircle
 10
130.4468728064059
 20
284.4305849235702
 30
0.0
 40
1.111207842066909
100
AcDbArc
 50
160.1796154373616
 51
341.7837895467859
  0
ARC
  5
4A0B
102
{ACAD_REACTORS
330
4A68
102
}
330
2
100
AcDbEntity
  8
KIJUN
100
AcDbCircle
 10
109.6209233425118
 20
293.6746218473652
 30
0.0
 40
17.97758825528114
100
AcDbArc
 50
10.27105479522895
 51
52.59027509455724
  0
ARC
  5
4A0D
102
{ACAD_REACTORS
330
4A68
102
}
330
2
100
AcDbEntity
  8
KIJUN
100
AcDbCircle
 10
210.6046450072565
 20
262.5181001179026
 30
0.0
 40
92.82764857298536
100
AcDbArc
 50
161.2390074617247
 51
168.671185809608
  0
ARC
  5
4A0E
102
{ACAD_REACTORS
330
4A68
102
}
330
2
100
AcDbEntity
  8
KIJUN
100
AcDbCircle
 10
199.098914869605
 20
171.6453987344891
 30
0.0
 40
104.2743160492609
100
AcDbArc
 50
70.42898418694469
 51
101.0260339057042
  0
ARC
  5
4A0F
102
{ACAD_REACTORS
330
4A68
102
}
330
2
100
AcDbEntity
  8
KIJUN
100
AcDbCircle
 10
400.778722767417
 20
240.0840048509406
 30
0.0
 40
236.2528861175725
100
AcDbArc
 50
175.4711836215053
 51
183.5336376767303
  0
ARC
  5
4A10
102
{ACAD_REACTORS
330
4A68
102
}
330
2
100
AcDbEntity
  8
KIJUN
100
AcDbCircle
 10
182.8161936300766
 20
256.7083732767455
 30
0.0
 40
17.66974350797682
100
AcDbArc
 50
101.9553081985761
 51
173.4020826828554
  0
ARC
  5
4A11
102
{ACAD_REACTORS
330
4A68
102
}
330
2
100
AcDbEntity
  8
KIJUN
100
AcDbCircle
 10
175.5394504177596
 20
225.7524271839116
 30
0.0
 40
10.56694444015811
100
AcDbArc
 50
181.2458749087521
 51
223.3885349624702
  0
ARC
  5
4A12
102
{ACAD_REACTORS
330
4A68
102
}
330
2
100
AcDbEntity
  8
KIJUN
100
AcDbCircle
 10
103.2292999389185
 20
161.7993905096807
 30
0.0
 40
85.97323257627259
100
AcDbArc
 50
14.48969051847573
 51
41.25715059070389
  0
ARC
  5
4A13
102
{ACAD_REACTORS
330
4A68
102
}
330
2
100
AcDbEntity
  8
KIJUN
100
AcDbCircle
 10
166.664413737996
 20
178.2136130779838
 30
0.0
 40
20.44889638576349
100
AcDbArc
 50
329.090140910717
 51
14.43282065908176
  0
ARC
  5
4A14
102
{ACAD_REACTORS
330
4A68
102
}
330
2
100
AcDbEntity
  8
KIJUN
100
AcDbCircle
 10
181.2596253390759
 20
169.6213787723502
 30
0.0
 40
3.51505187956535
100
AcDbArc
 50
128.117273151513
 51
327.0446477187375
  0
ARC
  5
4A15
102
{ACAD_REACTORS
330
4A68
102
}
330
2
100
AcDbEntity
  8
KIJUN
100
AcDbCircle
 10
177.629914194177
 20
174.0332242721663
 30
0.0
 40
2.200470275743315
100
AcDbArc
 50
311.5656883491563
 51
116.8472949759103
  0
ARC
  5
4A16
102
{ACAD_REACTORS
330
4A68
102
}
330
2
100
AcDbEntity
  8
KIJUN
100
AcDbCircle
 10
168.208976068646
 20
184.8955765116061
 30
0.0
 40
12.25604336198901
100
AcDbArc
 50
313.4399064523603
 51
12.54452436086087
  0
ARC
  5
4A17
102
{ACAD_REACTORS
330
4A68
102
}
330
2
100
AcDbEntity
  8
KIJUN
100
AcDbCircle
 10
172.1082902549443
 20
190.4426034079335
 30
0.0
 40
2.732583279816096
100
AcDbArc
 50
317.6965472923732
 51
73.30092722472871
  0
ARC
  5
4A18
102
{ACAD_REACTORS
330
4A68
102
}
330
2
100
AcDbEntity
  8
KIJUN
100
AcDbCircle
 10
176.659796067657
 20
185.2430197055996
 30
0.0
 40
4.206635117979792
100
AcDbArc
 50
33.3816650616571
 51
126.9811889210888
  0
ARC
  5
4A19
102
{ACAD_REACTORS
330
4A68
102
}
330
2
100
AcDbEntity
  8
KIJUN
100
AcDbCircle
 10
167.7724878208369
 20
196.7746371792541
 30
0.0
 40
6.326415900910602
100
AcDbArc
 50
324.0434524654911
 51
21.25334675800357
  0
ARC
  5
4A1A
102
{ACAD_REACTORS
330
4A68
102
}
330
2
100
AcDbEntity
  8
KIJUN
100
AcDbCircle
 10
171.5558270607699
 20
191.2013057630693
 30
0.0
 40
8.145394671729329
100
AcDbArc
 50
74.9664046276842
 51
107.5065348969149
  0
ARC
  5
4A1B
102
{ACAD_REACTORS
330
4A68
102
}
330
2
100
AcDbEntity
  8
KIJUN
100
AcDbCircle
 10
156.0127002956196
 20
203.482029046643
 30
0.0
 40
13.84871497798376
100
AcDbArc
 50
340.9829290285973
 51
53.80472106311733
  0
ARC
  5
4A1C
102
{ACAD_REACTORS
330
4A68
102
}
330
2
100
AcDbEntity
  8
KIJUN
100
AcDbCircle
 10
156.8072902640447
 20
182.7799979761655
 30
0.0
 40
36.40229625334708
100
AcDbArc
 50
314.176968585143
 51
18.307244206279
  0
ARC
  5
4A1D
102
{ACAD_REACTORS
330
4A68
102
}
330
2
100
AcDbEntity
  8
KIJUN
100
AcDbCircle
 10
259.8989404008653
 20
216.7457978430559
 30
0.0
 40
72.14065922693658
100
AcDbArc
 50
181.030631580574
 51
198.1994455927784
  0
ARC
  5
4A1E
102
{ACAD_REACTORS
330
4A68
102
}
330
2
100
AcDbEntity
  8
KIJUN
100
AcDbCircle
 10
201.17958513771
 20
210.065329023128
 30
0.0
 40
7.193135239777472
100
AcDbArc
 50
228.628745944343
 51
137.107123096257
  0
ARC
  5
4A1F
102
{ACAD_REACTORS
330
4A68
102
}
330
2
100
AcDbEntity
  8
KIJUN
100
AcDbCircle
 10
191.5033221668756
 20
209.5805797337173
 30
0.0
 40
6.95464682155536
100
AcDbArc
 50
249.493941289963
 51
122.4671962195242
  0
ARC
  5
4A20
102
{ACAD_REACTORS
330
4A68
102
}
330
2
100
AcDbEntity
  8
KIJUN
100
AcDbCircle
 10
413.824799165498
 20
219.7908629148287
 30
0.0
 40
226.0965559211455
100
AcDbArc
 50
177.9879460873516
 51
181.100552413006
  0
ARC
  5
4A21
102
{ACAD_REACTORS
330
4A68
102
}
330
2
100
AcDbEntity
  8
KIJUN
100
AcDbCircle
 10
182.3964608260011
 20
235.1206781009207
 30
0.0
 40
9.196188339055632
100
AcDbArc
 50
262.9363214533606
 51
327.58021127318
  0
ARC
  5
4A22
102
{ACAD_REACTORS
330
4A68
102
}
330
2
100
AcDbEntity
  8
KIJUN
100
AcDbCircle
 10
196.3817875368743
 20
230.0309783473585
 30
0.0
 40
15.64590968740322
100
AcDbArc
 50
156.5487359676269
 51
194.9515953640831
  0
ARC
  5
4A23
102
{ACAD_REACTORS
330
4A68
102
}
330
2
100
AcDbEntity
  8
KIJUN
100
AcDbCircle
 10
182.1995831215444
 20
251.2073222519628
 30
0.0
 40
6.073695729972511
100
AcDbArc
 50
2.030512450390077
 51
285.2153478897665
  0
ARC
  5
4A24
102
{ACAD_REACTORS
330
4A68
102
}
330
2
100
AcDbEntity
  8
KIJUN
100
AcDbCircle
 10
181.6194894448032
 20
258.0617525697448
 30
0.0
 40
12.89975286813936
100
AcDbArc
 50
279.7029271728354
 51
347.2604250867245
  0
ARC
  5
4A25
102
{ACAD_REACTORS
330
4A68
102
}
330
2
100
AcDbEntity
  8
KIJUN
100
AcDbCircle
 10
182.2337677044122
 20
258.0262832357018
 30
0.0
 40
12.29318873001736
100
AcDbArc
 50
346.7903133430954
 51
72.21655834530015
  0
ARC
  5
4A26
102
{ACAD_REACTORS
330
4A68
102
}
330
2
100
AcDbEntity
  8
KIJUN
100
AcDbCircle
 10
184.3958469793501
 20
243.7304443284349
 30
0.0
 40
7.838971885054028
100
AcDbArc
 50
152.0969467269336
 51
252.4204646861819
  0
ARC
  5
4A27
102
{ACAD_REACTORS
330
4A68
102
}
330
2
100
AcDbEntity
  8
KIJUN
100
AcDbCircle
 10
205.0207330130731
 20
232.7603677309037
 30
0.0
 40
15.08194485287996
100
AcDbArc
 50
189.8109679174855
 51
208.5745656995715
  0
ARC
  5
4A28
102
{ACAD_REACTORS
330
4A68
102
}
330
2
100
AcDbEntity
  8
KIJUN
100
AcDbCircle
 10
154.5455758699273
 20
263.2630555074961
 30
0.0
 40
52.9964176500554
100
AcDbArc
 50
314.6283494522168
 51
328.9311851332304
  0
ARC
  5
4A29
102
{ACAD_REACTORS
330
4A68
102
}
330
2
100
AcDbEntity
  8
KIJUN
100
AcDbCircle
 10
176.6757101109113
 20
251.5030396859716
 30
0.0
 40
28.00437839381136
100
AcDbArc
 50
326.172951745871
 51
43.2404629236668
  0
ARC
  5
4A2A
102
{ACAD_REACTORS
330
4A68
102
}
330
2
100
AcDbEntity
  8
KIJUN
100
AcDbCircle
 10
234.3680113313719
 20
218.4278792803354
 30
0.0
 40
38.61424506300766
100
AcDbArc
 50
153.0749755751996
 51
185.1508035697419
  0
ARC
  5
4A2B
102
{ACAD_REACTORS
330
4A68
102
}
330
2
100
AcDbEntity
  8
KIJUN
100
AcDbCircle
 10
142.2332944075072
 20
274.7227984926408
 30
0.0
 40
60.54758948723258
100
AcDbArc
 50
315.4499610802176
 51
342.8342535369321
  0
ARC
  5
4A2C
102
{ACAD_REACTORS
330
4A68
102
}
330
2
100
AcDbEntity
  8
KIJUN
100
AcDbCircle
 10
179.7121573020516
 20
256.7614013780919
 30
0.0
 40
10.08618526317006
100
AcDbArc
 50
328.0400894047702
 51
148.8105270146665
  0
ARC
  5
4A2D
102
{ACAD_REACTORS
330
4A68
102
}
330
2
100
AcDbEntity
  8
KIJUN
100
AcDbCircle
 10
194.6894411042133
 20
248.9779115096847
 30
0.0
 40
26.9518465050794
100
AcDbArc
 50
151.1449897343107
 51
178.9023030835938
  0
ARC
  5
4A2E
102
{ACAD_REACTORS
330
4A68
102
}
330
2
100
AcDbEntity
  8
KIJUN
100
AcDbCircle
 10
174.6602225774411
 20
171.1915693703111
 30
0.0
 40
14.67792645858247
100
AcDbArc
 50
206.0274228892638
 51
261.5599200248285
  0
ARC
  5
4A2F
102
{ACAD_REACTORS
330
4A68
102
}
330
2
100
AcDbEntity
  8
KIJUN
100
AcDbCircle
 10
147.1591222796899
 20
172.3736527429116
 30
0.0
 40
16.21520469574912
100
AcDbArc
 50
284.4670209984882
 51
331.9591779430067
  0
ARC
  5
4A30
102
{ACAD_REACTORS
330
4A68
102
}
330
2
100
AcDbEntity
  8
KIJUN
100
AcDbCircle
 10
210.1152865930978
 20
208.9569448189395
 30
0.0
 40
7.034607571727144
100
AcDbArc
 50
224.4531081669826
 51
121.4051899505497
  0
ARC
  5
4A31
102
{ACAD_REACTORS
330
4A68
102
}
330
2
100
AcDbEntity
  8
KIJUN
100
AcDbCircle
 10
133.7261169267847
 20
173.8626562953916
 30
0.0
 40
12.92196619673485
100
AcDbArc
 50
296.4474389863034
 51
30.5844537539228
  0
ARC
  5
4A32
102
{ACAD_REACTORS
330
4A68
102
}
330
2
100
AcDbEntity
  8
KIJUN
100
AcDbCircle
 10
191.8917302982881
 20
171.2284023737281
 30
0.0
 40
20.72200110423343
100
AcDbArc
 50
136.8685500887156
 51
198.7664461389763
  0
ARC
  5
4A33
102
{ACAD_REACTORS
330
4A68
102
}
330
2
100
AcDbEntity
  8
KIJUN
100
AcDbCircle
 10
192.3176030497423
 20
172.7204154720746
 30
0.0
 40
27.96027340276312
100
AcDbArc
 50
138.8830691051986
 51
175.1896022706329
  0
ARC
  5
4A34
102
{ACAD_REACTORS
330
4A68
102
}
330
2
100
AcDbEntity
  8
KIJUN
100
AcDbCircle
 10
122.9534281744493
 20
175.0920363845459
 30
0.0
 40
32.89409904641214
100
AcDbArc
 50
356.5918106309449
 51
24.8411664882476
  0
ARC
  5
4A35
102
{ACAD_REACTORS
330
4A68
102
}
330
2
100
AcDbEntity
  8
KIJUN
100
AcDbCircle
 10
661.6513160529673
 20
170.5657475162427
 30
0.0
 40
500.9516530133307
100
AcDbArc
 50
175.5150636424954
 51
179.1364289745877
  0
ARC
  5
4A36
102
{ACAD_REACTORS
330
4A68
102
}
330
2
100
AcDbEntity
  8
KIJUN
100
AcDbCircle
 10
194.5072194498098
 20
181.1003500184263
 30
0.0
 40
32.68490437179651
100
AcDbArc
 50
149.7304983716251
 51
170.4429916748102
  0
ARC
  5
4A37
102
{ACAD_REACTORS
330
4A68
102
}
330
2
100
AcDbEntity
  8
KIJUN
100
AcDbCircle
 10
139.9364976543506
 20
185.6742303880105
 30
0.0
 40
19.17842812164731
100
AcDbArc
 50
357.0079501538785
 51
31.59468967191437
  0
ARC
  5
4A38
102
{ACAD_REACTORS
330
4A68
102
}
330
2
100
AcDbEntity
  8
KIJUN
100
AcDbCircle
 10
33.71308572960868
 20
282.4165886693579
 30
0.0
 40
209.8675054534446
100
AcDbArc
 50
357.2641242409127
 51
10.7807589685963
  0
ARC
  5
4A39
102
{ACAD_REACTORS
330
4A68
102
}
330
2
100
AcDbEntity
  8
KIJUN
100
AcDbCircle
 10
183.963455752711
 20
298.1400583407515
 30
0.0
 40
11.19092027096567
100
AcDbArc
 50
253.9831945669785
 51
53.87697722853266
  0
ARC
  5
4A3A
102
{ACAD_REACTORS
330
4A68
102
}
330
2
100
AcDbEntity
  8
KIJUN
100
AcDbCircle
 10
185.2261557872807
 20
297.2290448215656
 30
0.0
 40
11.29028299548717
100
AcDbArc
 50
61.80374066783729
 51
178.5453439824781
  0
ARC
  5
4A3B
102
{ACAD_REACTORS
330
4A68
102
}
330
2
100
AcDbEntity
  8
KIJUN
100
AcDbCircle
 10
189.9589020560233
 20
296.0624766950873
 30
0.0
 40
17.90705578418182
100
AcDbArc
 50
248.0708479468474
 51
319.5170171400766
  0
ARC
  5
4A3C
102
{ACAD_REACTORS
330
4A68
102
}
330
2
100
AcDbEntity
  8
KIJUN
100
AcDbCircle
 10
191.9247736107436
 20
295.3638811225112
 30
0.0
 40
18.11352539361451
100
AcDbArc
 50
173.1774986457362
 51
241.4625243440677
  0
ARC
  5
4A3D
102
{ACAD_REACTORS
330
4A68
102
}
330
2
100
AcDbEntity
  8
KIJUN
100
AcDbCircle
 10
186.8418220034852
 20
299.8258676067615
 30
0.0
 40
22.73665606451137
100
AcDbArc
 50
317.4029012904808
 51
73.91666958724229
  0
ARC
  5
4A3E
102
{ACAD_REACTORS
330
4A68
102
}
330
2
100
AcDbEntity
  8
KIJUN
100
AcDbCircle
 10
189.7461806411829
 20
294.7087863410445
 30
0.0
 40
11.50412887813204
100
AcDbArc
 50
219.5497171982999
 51
311.1130366269372
  0
ARC
  5
4A3F
102
{ACAD_REACTORS
330
4A68
102
}
330
2
100
AcDbEntity
  8
KIJUN
100
AcDbCircle
 10
184.818103944943
 20
299.055646407847
 30
0.0
 40
18.03980843530898
100
AcDbArc
 50
313.8283821155762
 51
75.56300243378963
  0
ARC
  5
4A40
102
{ACAD_REACTORS
330
4A68
102
}
330
2
100
AcDbEntity
  8
KIJUN
100
AcDbCircle
 10
185.5244210526966
 20
298.2633388001416
 30
0.0
 40
18.65184527421241
100
AcDbArc
 50
78.27199901741622
 51
170.1163390066671
  0
ARC
  5
4A41
102
{ACAD_REACTORS
330
4A68
102
}
330
2
100
AcDbEntity
  8
KIJUN
100
AcDbCircle
 10
221.792755796366
 20
327.8802847462496
 30
0.0
 40
17.5383240797419
100
AcDbArc
 50
221.4720311041084
 51
320.1656096595115
  0
ARC
  5
4A42
102
{ACAD_REACTORS
330
4A68
102
}
330
2
100
AcDbEntity
  8
KIJUN
100
AcDbCircle
 10
220.9552625778509
 20
268.1781236325828
 30
0.0
 40
19.92071765393849
100
AcDbArc
 50
46.15879926229818
 51
130.0212144942854
  0
ARC
  5
4A43
102
{ACAD_REACTORS
330
4A68
102
}
330
2
100
AcDbEntity
  8
KIJUN
100
AcDbCircle
 10
228.4961057612995
 20
309.0463162480753
 30
0.0
 40
39.53975525526649
100
AcDbArc
 50
278.0427667274568
 51
292.0522437753654
  0
ARC
  5
4A44
102
{ACAD_REACTORS
330
4A68
102
}
330
2
100
AcDbEntity
  8
KIJUN
100
AcDbCircle
 10
210.0031654077064
 20
262.1135904114606
 30
0.0
 40
25.25391226047666
100
AcDbArc
 50
313.201472988026
 51
17.94752356342
  0
ARC
  5
4A45
102
{ACAD_REACTORS
330
4A68
102
}
330
2
100
AcDbEntity
  8
KIJUN
100
AcDbCircle
 10
261.3425598633301
 20
210.7271484048813
 30
0.0
 40
47.40274629622824
100
AcDbArc
 50
135.9178402813693
 51
175.1354847823913
  0
ARC
  5
4A46
102
{ACAD_REACTORS
330
4A68
102
}
330
2
100
AcDbEntity
  8
KIJUN
100
AcDbCircle
 10
107.774765859419
 20
322.4439241487385
 30
0.0
 40
144.5087541180808
100
AcDbArc
 50
339.7382659393092
 51
359.69418138216
  0
ARC
  5
4A47
102
{ACAD_REACTORS
330
4A68
102
}
330
2
100
AcDbEntity
  8
KIJUN
100
AcDbCircle
 10
243.5698207181549
 20
248.7672633677671
 30
0.0
 40
23.63305535385355
100
AcDbArc
 50
306.4997393104043
 51
90.55383661224643
  0
ARC
  5
4A48
102
{ACAD_REACTORS
330
4A68
102
}
330
2
100
AcDbEntity
  8
KIJUN
100
AcDbCircle
 10
244.2812115642992
 20
206.0847572769021
 30
0.0
 40
7.919910070222741
100
AcDbArc
 50
250.5718072939546
 51
81.3636407223141
  0
ARC
  5
4A49
102
{ACAD_REACTORS
330
4A68
102
}
330
2
100
AcDbEntity
  8
KIJUN
100
AcDbCircle
 10
276.3453946418451
 20
202.8293212849724
 30
0.0
 40
32.80471319033321
100
AcDbArc
 50
124.7916745825165
 51
160.2494739541348
  0
ARC
  5
4A4A
102
{ACAD_REACTORS
330
4A68
102
}
330
2
100
AcDbEntity
  8
KIJUN
100
AcDbCircle
 10
-99.27433815900066
 20
291.9483686073236
 30
0.0
 40
353.466012738225
100
AcDbArc
 50
337.4982147007738
 51
347.245934762148
  0
ARC
  5
4A4B
102
{ACAD_REACTORS
330
4A68
102
}
330
2
100
AcDbEntity
  8
KIJUN
100
AcDbCircle
 10
463.7810133915279
 20
229.0748156537495
 30
0.0
 40
218.8362628458183
100
AcDbArc
 50
174.5411292672563
 51
183.9723644761268
  0
ARC
  5
4A4C
102
{ACAD_REACTORS
330
4A68
102
}
330
2
100
AcDbEntity
  8
KIJUN
100
AcDbCircle
 10
253.9047900930052
 20
248.9929223299764
 30
0.0
 40
8.018236412267354
100
AcDbArc
 50
282.1877001317286
 51
173.5549602551288
  0
ARC
  5
4A4D
102
{ACAD_REACTORS
330
4A68
102
}
330
2
100
AcDbEntity
  8
KIJUN
100
AcDbCircle
 10
186.1469922743151
 20
252.9832432818712
 30
0.0
 40
26.48723275861677
100
AcDbArc
 50
323.1454470391636
 51
46.14727891449189
  0
ARC
  5
4A4E
102
{ACAD_REACTORS
330
4A68
102
}
330
2
100
AcDbEntity
  8
KIJUN
100
AcDbCircle
 10
232.96762713054
 20
220.1508810253367
 30
0.0
 40
30.72261323028103
100
AcDbArc
 50
146.5251527720502
 51
185.59479164914
  0
ARC
  5
4A4F
102
{ACAD_REACTORS
330
4A68
102
}
330
2
100
AcDbEntity
  8
KIJUN
100
AcDbCircle
 10
-35.58493006932565
 20
423.8760973552311
 30
0.0
 40
335.6071154490569
100
AcDbArc
 50
315.5860391598536
 51
322.4150233603901
  0
ARC
  5
4A50
102
{ACAD_REACTORS
330
4A68
102
}
330
2
100
AcDbEntity
  8
KIJUN
100
AcDbCircle
 10
216.7099079577957
 20
177.1309356166759
 30
0.0
 40
17.29199639928184
100
AcDbArc
 50
136.6290309590907
 51
213.0150036433812
  0
ARC
  5
4A51
102
{ACAD_REACTORS
330
4A68
102
}
330
2
100
AcDbEntity
  8
KIJUN
100
AcDbCircle
 10
205.3537269264559
 20
169.2818554535147
 30
0.0
 40
3.51505187956535
100
AcDbArc
 50
206.5766125643788
 51
45.50398713160876
  0
ARC
  5
4A52
102
{ACAD_REACTORS
330
4A68
102
}
330
2
100
AcDbEntity
  8
KIJUN
100
AcDbCircle
 10
209.4511241089117
 20
173.2631266121843
 30
0.0
 40
2.200470275743315
100
AcDbArc
 50
56.7739653072045
 51
222.0555719339588
  0
ARC
  5
4A53
102
{ACAD_REACTORS
330
4A68
102
}
330
2
100
AcDbEntity
  8
KIJUN
100
AcDbCircle
 10
220.0205484452951
 20
183.011564463256
 30
0.0
 40
12.25604336198901
100
AcDbArc
 50
161.0767359222584
 51
220.1813538307479
  0
ARC
  5
4A54
102
{ACAD_REACTORS
330
4A68
102
}
330
2
100
AcDbEntity
  8
KIJUN
100
AcDbCircle
 10
216.7616497434415
 20
188.9574653843194
 30
0.0
 40
2.732583279816095
100
AcDbArc
 50
100.3203330583937
 51
215.9247129907516
  0
ARC
  5
4A55
102
{ACAD_REACTORS
330
4A68
102
}
330
2
100
AcDbEntity
  8
KIJUN
100
AcDbCircle
 10
211.6606466757414
 20
184.2957442918418
 30
0.0
 40
4.206635117979791
100
AcDbArc
 50
46.6400713620347
 51
140.239595221463
  0
ARC
  5
4A56
102
{ACAD_REACTORS
330
4A68
102
}
330
2
100
AcDbEntity
  8
KIJUN
100
AcDbCircle
 10
221.774100207233
 20
194.7685904713219
 30
0.0
 40
6.326415900910601
100
AcDbArc
 50
152.3679135251177
 51
209.5778078176315
  0
ARC
  5
4A57
102
{ACAD_REACTORS
330
4A68
102
}
330
2
100
AcDbEntity
  8
KIJUN
100
AcDbCircle
 10
217.394984719943
 20
189.6500920168896
 30
0.0
 40
8.145394671729327
100
AcDbArc
 50
66.11472538620674
 51
98.65485565543272
  0
ARC
  5
4A58
102
{ACAD_REACTORS
330
4A68
102
}
330
2
100
AcDbEntity
  8
KIJUN
100
AcDbCircle
 10
231.4208417973616
 20
198.5915720955561
 30
0.0
 40
10.83121939741147
100
AcDbArc
 50
111.4256127222729
 51
187.9266014559886
  0
ARC
  5
4A59
102
{ACAD_REACTORS
330
4A68
102
}
330
2
100
AcDbEntity
  8
KIJUN
100
AcDbCircle
 10
229.2646853471763
 20
182.581232880392
 30
0.0
 40
36.01795938218984
100
AcDbArc
 50
170.3678576702263
 51
225.9987974824125
  0
ARC
  5
4A5A
102
{ACAD_REACTORS
330
4A68
102
}
330
2
100
AcDbEntity
  8
KIJUN
100
AcDbCircle
 10
216.1074269891614
 20
182.7401623134712
 30
0.0
 40
23.11023607718283
100
AcDbArc
 50
116.5380194639771
 51
165.2916535107062
  0
ARC
  5
4A5B
102
{ACAD_REACTORS
330
4A68
102
}
330
2
100
AcDbEntity
  8
KIJUN
100
AcDbCircle
 10
209.5070758670075
 20
165.7912164315967
 30
0.0
 40
10.12738324619767
100
AcDbArc
 50
295.7904195618817
 51
351.8151299719038
  0
ARC
  5
4A5C
102
{ACAD_REACTORS
330
4A68
102
}
330
2
100
AcDbEntity
  8
KIJUN
100
AcDbCircle
 10
194.9659836718956
 20
172.0601590359958
 30
0.0
 40
20.72200110423342
100
AcDbArc
 50
334.8548141441454
 51
36.75271019439996
  0
ARC
  5
4A5D
102
{ACAD_REACTORS
330
4A68
102
}
330
2
100
AcDbEntity
  8
KIJUN
100
AcDbCircle
 10
194.7085103245556
 20
173.5902499357396
 30
0.0
 40
27.96027340276312
100
AcDbArc
 50
358.4316580124852
 51
34.73819117792129
  0
ARC
  5
4A5E
102
{ACAD_REACTORS
330
4A68
102
}
330
2
100
AcDbEntity
  8
KIJUN
100
AcDbCircle
 10
-271.9590414399828
 20
223.5919787607056
 30
0.0
 40
500.9516530133306
100
AcDbArc
 50
354.4848313085314
 51
358.1061966406256
  0
ARC
  5
4A5F
102
{ACAD_REACTORS
330
4A68
102
}
330
2
100
AcDbEntity
  8
KIJUN
100
AcDbCircle
 10
193.4634615693873
 20
182.1615728545095
 30
0.0
 40
32.6849043717965
100
AcDbArc
 50
3.178268608307522
 51
23.89076191148795
  0
ARC
  5
4A60
102
{ACAD_REACTORS
330
4A68
102
}
330
2
100
AcDbEntity
  8
KIJUN
100
AcDbCircle
 10
248.9343176190841
 20
167.576030911672
 30
0.0
 40
29.57952917273264
100
AcDbArc
 50
186.262460264798
 51
201.6301562099813
  0
ARC
  5
4A61
102
{ACAD_REACTORS
330
4A68
102
}
330
2
100
AcDbEntity
  8
KIJUN
100
AcDbCircle
 10
451.5156605062095
 20
237.5821903561603
 30
0.0
 40
221.9134528864432
100
AcDbArc
 50
184.7575570846632
 51
194.4964861951593
  0
ARC
  5
4A62
102
{ACAD_REACTORS
330
4A68
102
}
330
2
100
AcDbEntity
  8
KIJUN
100
AcDbCircle
 10
221.9756634554667
 20
231.7219619598454
 30
0.0
 40
12.51673402003098
100
AcDbArc
 50
176.1277105512096
 51
216.5539746502949
  0
ARC
  5
4A63
102
{ACAD_REACTORS
330
4A68
102
}
330
2
100
AcDbEntity
  8
KIJUN
100
AcDbCircle
 10
196.4529282397168
 20
245.8786399231344
 30
0.0
 40
26.57657024535214
100
AcDbArc
 50
305.5927323366244
 51
326.2090167919807
  0
ARC
  5
4A64
102
{ACAD_REACTORS
330
4A68
102
}
330
2
100
AcDbEntity
  8
KIJUN
100
AcDbCircle
 10
197.5819898570796
 20
241.8259655024665
 30
0.0
 40
15.08194485287996
100
AcDbArc
 50
303.3648093559922
 51
322.1284071380713
  0
ARC
  5
4A65
102
{ACAD_REACTORS
330
4A68
102
}
330
2
100
AcDbEntity
  8
KIJUN
100
AcDbCircle
 10
256.4724435196506
 20
244.9992788557495
 30
0.0
 40
52.9964176500554
100
AcDbArc
 50
193.422424035996
 51
197.3110256033437
  0
ARC
  5
4A66
102
{ACAD_REACTORS
330
4A68
102
}
330
2
100
AcDbEntity
  8
KIJUN
100
AcDbCircle
 10
72.39500031656508
 20
295.4827582620835
 30
0.0
 40
155.0428535553109
100
AcDbArc
 50
335.6380074136471
 51
343.4228319364045
  0
TEXT
  5
4AF1
330
2
100
AcDbEntity
  8
HOJO
100
AcDbText
 10
1.641833161713975
 20
-16.55361425998876
 30
0.0
 40
9.0
  1
※ FRP製の為、若干の寸法誤差がある場合があります。
  7
SUNPOU
100
AcDbText
  0
ENDSEC
  0
SECTION
  2
OBJECTS
  0
DICTIONARY
  5
1A
330
0
100
AcDbDictionary
281
     1
  3
ACAD_COLOR
350
144
  3
ACAD_GROUP
350
18
  3
ACAD_LAYOUT
350
58
  3
ACAD_MATERIAL
350
143
  3
ACAD_MLINESTYLE
350
19
  3
ACAD_PLOTSETTINGS
350
59
  3
ACAD_PLOTSTYLENAME
350
56
  3
ACAD_TABLESTYLE
350
145
  3
ACDBHEADERROUNDTRIPXREC
350
4AF9
  3
AcDbVariableDictionary
350
1D1
  0
DICTIONARY
  5
1B4
330
A
100
AcDbDictionary
280
     1
281
     1
  3
ACAD_LAYERFILTERS
360
3D0D
  3
ACAD_LAYERSTATES
360
4AE9
  3
ACLYDICTIONARY
360
3D0C
  0
DICTIONARY
  5
D13
330
2
100
AcDbDictionary
280
     1
281
     1
  3
ACAD_SORTENTS
360
D14
  0
DICTIONARY
  5
144
102
{ACAD_REACTORS
330
1A
102
}
330
1A
100
AcDbDictionary
281
     1
  0
DICTIONARY
  5
18
102
{ACAD_REACTORS
330
1A
102
}
330
1A
100
AcDbDictionary
281
     1
  3
*A1
350
E0D
  3
*A10
350
476C
  3
*A11
350
1A98
  3
*A12
350
36C9
  3
*A13
350
2EE1
  3
*A14
350
2573
  3
*A15
350
2F81
  3
*A16
350
2A17
  3
*A17
350
24D6
  3
*A18
350
3959
  3
*A19
350
2C6B
  3
*A2
350
22C8
  3
*A20
350
3181
  3
*A21
350
31DF
  3
*A22
350
32E4
  3
*A23
350
275E
  3
*A24
350
3EE1
  3
*A25
350
3349
  3
*A26
350
4891
  3
*A27
350
26DD
  3
*A28
350
35A5
  3
*A29
350
FF8
  3
*A3
350
241A
  3
*A30
350
136A
  3
*A31
350
2B84
  3
*A32
350
1555
  3
*A33
350
4376
  3
*A34
350
1CBC
  3
*A35
350
39BC
  3
*A36
350
307D
  3
*A37
350
265A
  3
*A38
350
3695
  3
*A39
350
4A68
  3
*A4
350
2D78
  3
*A40
350
213E
  3
*A41
350
3467
  3
*A42
350
44A7
  3
*A43
350
395F
  3
*A44
350
34BB
  3
*A5
350
2905
  3
*A6
350
17BC
  3
*A7
350
1EFE
  3
*A8
350
2037
  3
*A9
350
4648
  0
DICTIONARY
  5
58
102
{ACAD_REACTORS
330
1A
102
}
330
1A
100
AcDbDictionary
281
     1
  3
Model
350
5A
  3
ﾚｲｱｳﾄ1
350
5B
  0
DICTIONARY
  5
143
102
{ACAD_REACTORS
330
1A
102
}
330
1A
100
AcDbDictionary
281
     1
  0
DICTIONARY
  5
19
102
{ACAD_REACTORS
330
1A
102
}
330
1A
100
AcDbDictionary
281
     1
  3
STANDARD
350
1D
  0
DICTIONARY
  5
59
102
{ACAD_REACTORS
330
1A
102
}
330
1A
100
AcDbDictionary
281
     1
  0
ACDBDICTIONARYWDFLT
  5
56
102
{ACAD_REACTORS
330
1A
102
}
330
1A
100
AcDbDictionary
281
     1
  3
Normal
350
57
100
AcDbDictionaryWithDefault
340
57
  0
DICTIONARY
  5
145
102
{ACAD_REACTORS
330
1A
102
}
330
1A
100
AcDbDictionary
281
     1
  3
Standard
350
146
  0
DICTIONARY
  5
4AF9
102
{ACAD_REACTORS
330
1A
102
}
330
1A
100
AcDbDictionary
281
     1
  0
DICTIONARY
  5
1D1
102
{ACAD_REACTORS
330
1A
102
}
330
1A
100
AcDbDictionary
281
     1
  3
CTABLESTYLE
350
1D2
  3
DIMASSOC
350
D03
  3
PROJECTNAME
350
D04
  0
DICTIONARY
  5
3D0D
102
{ACAD_REACTORS
330
1B4
102
}
330
1B4
100
AcDbDictionary
281
     1
  0
DICTIONARY
  5
4AE9
102
{ACAD_REACTORS
330
1B4
102
}
330
1B4
100
AcDbDictionary
281
     1
  0
DICTIONARY
  5
3D0C
102
{ACAD_REACTORS
330
1B4
102
}
330
1B4
100
AcDbDictionary
281
     1
1001
ACAD
1000
<All
  0
SORTENTSTABLE
  5
D14
102
{ACAD_REACTORS
330
D13
102
}
330
D13
100
AcDbSortentsTable
330
2
331
4908
  5
4908
331
20
  5
41A8
331
21
  5
41A9
331
4909
  5
4909
331
48E1
  5
48E2
331
23
  5
41B3
331
48CB
  5
48CD
331
490B
  5
490B
331
43B3
  5
48B6
331
48CD
  5
48CF
331
490C
  5
490C
331
48E4
  5
48E5
331
48CF
  5
48D0
331
48D0
  5
48D1
331
490F
  5
490F
331
490E
  5
490E
331
490D
  5
490D
331
48E5
  5
48E6
331
48D1
  5
48D2
331
4910
  5
4910
331
48E8
  5
48E9
331
48D2
  5
48D3
331
434B
  5
44A9
331
48D3
  5
48D6
331
48D6
  5
48D8
331
4916
  5
4916
331
4917
  5
4917
331
4914
  5
4914
331
4913
  5
4913
331
4912
  5
4912
331
4911
  5
4911
331
48D8
  5
48E1
331
4918
  5
4918
331
4919
  5
4919
331
491A
  5
491A
331
491B
  5
491B
331
491D
  5
491D
331
491C
  5
491C
331
3628
  5
43CA
331
491E
  5
491E
331
48FF
  5
48FF
331
491F
  5
491F
331
48B7
  5
48B9
331
48B6
  5
48B7
331
48E9
  5
48EB
331
490A
  5
490A
331
48E2
  5
48E4
331
48B9
  5
48BA
331
48BB
  5
48BC
331
48BC
  5
48BD
331
3635
  5
43D6
331
48BD
  5
48CB
331
1F
  5
3F30
331
4906
  5
4906
331
4907
  5
4907
331
4905
  5
4905
331
4904
  5
4904
331
4903
  5
4903
331
4901
  5
4901
331
4900
  5
4900
  0
GROUP
  5
E0D
102
{ACAD_REACTORS
330
18
102
}
330
18
100
AcDbGroup
300

 70
     1
 71
     1
  0
GROUP
  5
476C
102
{ACAD_REACTORS
330
18
102
}
330
18
100
AcDbGroup
300

 70
     1
 71
     1
  0
GROUP
  5
1A98
102
{ACAD_REACTORS
330
18
102
}
330
18
100
AcDbGroup
300

 70
     1
 71
     1
  0
GROUP
  5
36C9
102
{ACAD_REACTORS
330
18
102
}
330
18
100
AcDbGroup
300

 70
     1
 71
     1
  0
GROUP
  5
2EE1
102
{ACAD_REACTORS
330
18
102
}
330
18
100
AcDbGroup
300

 70
     1
 71
     1
  0
GROUP
  5
2573
102
{ACAD_REACTORS
330
18
102
}
330
18
100
AcDbGroup
300

 70
     1
 71
     1
  0
GROUP
  5
2F81
102
{ACAD_REACTORS
330
18
102
}
330
18
100
AcDbGroup
300

 70
     1
 71
     1
  0
GROUP
  5
2A17
102
{ACAD_REACTORS
330
18
102
}
330
18
100
AcDbGroup
300

 70
     1
 71
     1
  0
GROUP
  5
24D6
102
{ACAD_REACTORS
330
18
102
}
330
18
100
AcDbGroup
300

 70
     1
 71
     1
  0
GROUP
  5
3959
102
{ACAD_REACTORS
330
18
102
}
330
18
100
AcDbGroup
300

 70
     1
 71
     1
  0
GROUP
  5
2C6B
102
{ACAD_REACTORS
330
18
102
}
330
18
100
AcDbGroup
300

 70
     1
 71
     1
  0
GROUP
  5
22C8
102
{ACAD_REACTORS
330
18
102
}
330
18
100
AcDbGroup
300

 70
     1
 71
     1
  0
GROUP
  5
3181
102
{ACAD_REACTORS
330
18
102
}
330
18
100
AcDbGroup
300

 70
     1
 71
     1
  0
GROUP
  5
31DF
102
{ACAD_REACTORS
330
18
102
}
330
18
100
AcDbGroup
300

 70
     1
 71
     1
  0
GROUP
  5
32E4
102
{ACAD_REACTORS
330
18
102
}
330
18
100
AcDbGroup
300

 70
     1
 71
     1
  0
GROUP
  5
275E
102
{ACAD_REACTORS
330
18
102
}
330
18
100
AcDbGroup
300

 70
     1
 71
     1
  0
GROUP
  5
3EE1
102
{ACAD_REACTORS
330
18
102
}
330
18
100
AcDbGroup
300

 70
     1
 71
     1
  0
GROUP
  5
3349
102
{ACAD_REACTORS
330
18
102
}
330
18
100
AcDbGroup
300

 70
     1
 71
     1
  0
GROUP
  5
4891
102
{ACAD_REACTORS
330
18
102
}
330
18
100
AcDbGroup
300

 70
     1
 71
     1
  0
GROUP
  5
26DD
102
{ACAD_REACTORS
330
18
102
}
330
18
100
AcDbGroup
300

 70
     1
 71
     1
  0
GROUP
  5
35A5
102
{ACAD_REACTORS
330
18
102
}
330
18
100
AcDbGroup
300

 70
     1
 71
     1
  0
GROUP
  5
FF8
102
{ACAD_REACTORS
330
18
102
}
330
18
100
AcDbGroup
300

 70
     1
 71
     1
  0
GROUP
  5
241A
102
{ACAD_REACTORS
330
18
102
}
330
18
100
AcDbGroup
300

 70
     1
 71
     1
  0
GROUP
  5
136A
102
{ACAD_REACTORS
330
18
102
}
330
18
100
AcDbGroup
300

 70
     1
 71
     1
  0
GROUP
  5
2B84
102
{ACAD_REACTORS
330
18
102
}
330
18
100
AcDbGroup
300

 70
     1
 71
     1
  0
GROUP
  5
1555
102
{ACAD_REACTORS
330
18
102
}
330
18
100
AcDbGroup
300

 70
     1
 71
     1
  0
GROUP
  5
4376
102
{ACAD_REACTORS
330
18
102
}
330
18
100
AcDbGroup
300

 70
     1
 71
     1
  0
GROUP
  5
1CBC
102
{ACAD_REACTORS
330
18
102
}
330
18
100
AcDbGroup
300

 70
     1
 71
     1
  0
GROUP
  5
39BC
102
{ACAD_REACTORS
330
18
102
}
330
18
100
AcDbGroup
300

 70
     1
 71
     1
  0
GROUP
  5
307D
102
{ACAD_REACTORS
330
18
102
}
330
18
100
AcDbGroup
300

 70
     1
 71
     1
  0
GROUP
  5
265A
102
{ACAD_REACTORS
330
18
102
}
330
18
100
AcDbGroup
300

 70
     1
 71
     1
  0
GROUP
  5
3695
102
{ACAD_REACTORS
330
18
102
}
330
18
100
AcDbGroup
300

 70
     1
 71
     1
  0
GROUP
  5
4A68
102
{ACAD_REACTORS
330
18
102
}
330
18
100
AcDbGroup
300

 70
     1
 71
     1
340
4A66
340
4A65
340
4A64
340
4A63
340
4A62
340
4A61
340
4A60
340
4A5F
340
4A5E
340
4A5D
340
4A5C
340
4A5B
340
4A5A
340
4A59
340
4A58
340
4A57
340
4A56
340
4A55
340
4A54
340
4A53
340
4A52
340
4A51
340
4A50
340
4A4F
340
4A4E
340
4A4D
340
4A4C
340
4A4B
340
4A4A
340
4A49
340
4A48
340
4A47
340
4A46
340
4A45
340
4A44
340
4A43
340
4A42
340
4A41
340
4A40
340
4A3F
340
4A3E
340
4A3D
340
4A3C
340
4A3B
340
4A3A
340
4A39
340
4A38
340
4A37
340
4A36
340
4A35
340
4A34
340
4A33
340
4A32
340
4A31
340
4A30
340
4A2F
340
4A2E
340
4A2D
340
4A2C
340
4A2B
340
4A2A
340
4A29
340
4A28
340
4A27
340
4A26
340
4A25
340
4A24
340
4A23
340
4A22
340
4A21
340
4A20
340
4A1F
340
4A1E
340
4A1D
340
4A1C
340
4A1B
340
4A1A
340
4A19
340
4A18
340
4A17
340
4A16
340
4A15
340
4A14
340
4A13
340
4A12
340
4A11
340
4A10
340
4A0F
340
4A0E
340
4A0D
340
4A0B
340
4A0A
340
4A09
340
4A08
340
4A07
340
4A06
340
4A05
340
4A04
340
4A03
340
4A02
340
4A01
340
4A00
340
49FF
340
49FE
340
49FD
340
49FC
340
49FB
340
49FA
340
49F9
340
49F8
340
49F7
340
49F6
340
49F5
340
49F4
340
49F3
340
49F2
340
49F1
340
49F0
340
49EF
340
49EE
340
49ED
340
49EC
340
49EB
340
49EA
340
49E9
340
49E8
340
49E7
340
49E6
340
49E5
340
49E4
340
49E3
340
49E2
340
49E1
340
49E0
340
49DF
340
49DE
340
49DD
340
49DC
340
49DB
340
49DA
340
49D9
340
49D8
340
49D7
340
49D6
340
49D5
340
49D4
340
49D3
340
49D2
340
49D1
340
49D0
340
49CF
340
49CE
340
49CB
340
49C9
340
49C8
340
49C3
340
49C2
340
49C1
340
49C0
340
49BE
340
49BD
340
49BC
340
49BB
340
49BA
340
49B9
340
49B8
340
49B7
340
49B6
340
49B5
340
49B4
340
49B3
340
49B2
340
49B1
340
49B0
340
49AF
340
49AE
340
49A7
340
49A6
340
49A3
340
49A2
340
499F
340
499E
340
499D
340
499C
340
499B
340
4998
340
4997
340
498A
340
4989
340
4988
340
4987
340
4986
340
4985
340
4983
340
4982
340
4981
340
4980
340
497F
340
497E
340
497D
340
497C
340
497B
340
497A
340
4979
340
4978
340
4977
340
4975
340
4974
340
4973
340
4960
340
495F
340
495E
340
495C
340
495A
340
4959
340
4958
340
4957
340
4956
340
4955
340
4954
340
4953
340
4952
340
4951
340
494E
340
494D
340
494C
340
494B
340
494A
340
4949
340
4948
340
4947
340
4946
340
4945
340
4944
340
4943
340
4942
340
4941
340
4940
340
493F
340
493E
340
493D
340
493C
340
493B
340
493A
340
4939
340
4938
340
4936
340
4935
340
4934
340
4933
340
4932
340
4931
340
4930
340
492F
340
492E
340
492D
340
492C
340
492B
340
492A
340
4929
340
4928
340
4927
340
4925
340
4924
340
4923
340
4921
340
4920
340
491F
340
491E
340
491D
340
491C
340
491B
340
491A
340
4919
340
4918
340
4917
340
4916
340
4914
340
4913
340
4912
340
4911
340
4910
340
490F
340
490E
340
490D
340
490C
340
490B
340
490A
340
4909
340
4908
340
4907
340
4906
340
4905
340
4904
340
4903
340
4901
340
4900
340
48FF
340
48E9
340
48E8
340
48E5
340
48E4
340
48E2
340
48E1
340
48D8
340
48D6
340
48D3
340
48D2
340
48D1
340
48D0
340
48CF
340
48CD
340
48CB
340
48BD
340
48BC
340
48BB
340
48B9
340
48B7
340
48B6
  0
GROUP
  5
2D78
102
{ACAD_REACTORS
330
18
102
}
330
18
100
AcDbGroup
300

 70
     1
 71
     1
  0
GROUP
  5
213E
102
{ACAD_REACTORS
330
18
102
}
330
18
100
AcDbGroup
300

 70
     1
 71
     1
  0
GROUP
  5
3467
102
{ACAD_REACTORS
330
18
102
}
330
18
100
AcDbGroup
300

 70
     1
 71
     1
  0
GROUP
  5
44A7
102
{ACAD_REACTORS
330
18
102
}
330
18
100
AcDbGroup
300

 70
     1
 71
     1
  0
GROUP
  5
395F
102
{ACAD_REACTORS
330
18
102
}
330
18
100
AcDbGroup
300

 70
     1
 71
     1
  0
GROUP
  5
34BB
102
{ACAD_REACTORS
330
18
102
}
330
18
100
AcDbGroup
300

 70
     1
 71
     1
  0
GROUP
  5
2905
102
{ACAD_REACTORS
330
18
102
}
330
18
100
AcDbGroup
300

 70
     1
 71
     1
  0
GROUP
  5
17BC
102
{ACAD_REACTORS
330
18
102
}
330
18
100
AcDbGroup
300

 70
     1
 71
     1
  0
GROUP
  5
1EFE
102
{ACAD_REACTORS
330
18
102
}
330
18
100
AcDbGroup
300

 70
     1
 71
     1
  0
GROUP
  5
2037
102
{ACAD_REACTORS
330
18
102
}
330
18
100
AcDbGroup
300

 70
     1
 71
     1
  0
GROUP
  5
4648
102
{ACAD_REACTORS
330
18
102
}
330
18
100
AcDbGroup
300

 70
     1
 71
     1
  0
LAYOUT
  5
5A
102
{ACAD_XDICTIONARY
360
4AFA
102
}
102
{ACAD_REACTORS
330
58
102
}
330
58
100
AcDbPlotSettings
  1

  2
none_device
  4
Letter_(8.50_x_11.00_Inches)
  6

 40
6.349999904632568
 41
6.349999904632568
 42
6.350006103515625
 43
6.350006103515625
 44
215.8999938964844
 45
279.3999938964844
 46
0.0
 47
0.0
 48
0.0
 49
0.0
140
0.0
141
0.0
142
1.0
143
56.1487857219155
 70
 11952
 72
     0
 73
     1
 74
     0
  7
monochrome.ctb
 75
     0
147
0.017809824151009
148
5906.460377060824
149
233.5965544000385
100
AcDbLayout
  1
Model
 70
     1
 71
     0
 10
0.0
 20
0.0
 11
12.0
 21
9.0
 12
0.0
 22
0.0
 32
0.0
 14
0.0
 24
0.0
 34
0.0
 15
0.0
 25
0.0
 35
0.0
146
0.0
 13
0.0
 23
0.0
 33
0.0
 16
1.0
 26
0.0
 36
0.0
 17
0.0
 27
1.0
 37
0.0
 76
     0
330
2
1001
ACAD_PSEXT
1000
なし
1000
なし
1000
適切ではありません
1000
新しいプロッタ環境設定名を選択しない限り、レイアウトは印刷されません。
1070
     0
  0
LAYOUT
  5
5B
102
{ACAD_XDICTIONARY
360
4AFC
102
}
102
{ACAD_REACTORS
330
58
102
}
330
58
100
AcDbPlotSettings
  1

  2
なし
  4

  6

 40
0.0
 41
0.0
 42
0.0
 43
0.0
 44
0.0
 45
0.0
 46
0.0
 47
0.0
 48
0.0
 49
0.0
140
0.0
141
0.0
142
1.0
143
1.0
 70
   688
 72
     0
 73
     0
 74
     5
  7
monochrome.ctb
 75
    16
147
1.0
148
0.0
149
0.0
100
AcDbLayout
  1
ﾚｲｱｳﾄ1
 70
     1
 71
     1
 10
0.0
 20
0.0
 11
12.0
 21
9.0
 12
0.0
 22
0.0
 32
0.0
 14
1.000000000000000E+20
 24
1.000000000000000E+20
 34
1.000000000000000E+20
 15
-1.000000000000000E+20
 25
-1.000000000000000E+20
 35
-1.000000000000000E+20
146
0.0
 13
0.0
 23
0.0
 33
0.0
 16
1.0
 26
0.0
 36
0.0
 17
0.0
 27
1.0
 37
0.0
 76
     0
330
7
  0
MLINESTYLE
  5
1D
102
{ACAD_REACTORS
330
19
102
}
330
19
100
AcDbMlineStyle
  2
STANDARD
 70
     0
  3

 62
   256
 51
90.0
 52
90.0
 71
     2
 49
0.5
 62
   256
  6
BYLAYER
 49
-0.5
 62
   256
  6
BYLAYER
  0
ACDBPLACEHOLDER
  5
57
102
{ACAD_REACTORS
330
56
102
}
330
56
  0
TABLESTYLE
  5
146
102
{ACAD_REACTORS
330
145
102
}
330
145
100
AcDbTableStyle
  3
Standard
 70
     0
 71
     0
 40
0.06
 41
0.06
280
     0
281
     0
  7
STANDARD
140
0.18
170
     2
 62
     0
 63
     7
283
     0
274
    -2
284
     1
 64
     0
275
    -2
285
     1
 65
     0
276
    -2
286
     1
 66
     0
277
    -2
287
     1
 67
     0
278
    -2
288
     1
 68
     0
279
    -2
289
     1
 69
     0
  7
STANDARD
140
0.25
170
     5
 62
     0
 63
     7
283
     0
274
    -2
284
     1
 64
     0
275
    -2
285
     1
 65
     0
276
    -2
286
     1
 66
     0
277
    -2
287
     1
 67
     0
278
    -2
288
     1
 68
     0
279
    -2
289
     1
 69
     0
  7
STANDARD
140
0.18
170
     5
 62
     0
 63
     7
283
     0
274
    -2
284
     1
 64
     0
275
    -2
285
     1
 65
     0
276
    -2
286
     1
 66
     0
277
    -2
287
     1
 67
     0
278
    -2
288
     1
 68
     0
279
    -2
289
     1
 69
     0
  0
DICTIONARYVAR
  5
1D2
102
{ACAD_REACTORS
330
1D1
102
}
330
1D1
100
DictionaryVariables
280
     0
  1
STANDARD
  0
DICTIONARYVAR
  5
D03
102
{ACAD_REACTORS
330
1D1
102
}
330
1D1
100
DictionaryVariables
280
     0
  1
1
  0
DICTIONARYVAR
  5
D04
102
{ACAD_REACTORS
330
1D1
102
}
330
1D1
100
DictionaryVariables
280
     0
  1

  0
DICTIONARY
  5
4AFA
330
5A
100
AcDbDictionary
280
     1
281
     1
  3
ACAD_XREC_ROUNDTRIP
360
4AFB
  0
DICTIONARY
  5
4AFC
330
5B
100
AcDbDictionary
280
     1
281
     1
  3
ACAD_XREC_ROUNDTRIP
360
4AFD
  0
XRECORD
  5
4AFB
102
{ACAD_REACTORS
330
4AFA
102
}
330
4AFA
100
AcDbXrecord
280
     1
102
SHADEPLOT
 70
     0
102
SHADEPLOTRESLEVEL
 70
     2
102
SHADEPLOTCUSTOMDPI
 70
   300
  0
XRECORD
  5
4AFD
102
{ACAD_REACTORS
330
4AFC
102
}
330
4AFC
100
AcDbXrecord
280
     1
102
SHADEPLOT
 70
     0
102
SHADEPLOTRESLEVEL
 70
     2
102
SHADEPLOTCUSTOMDPI
 70
   300
  0
ENDSEC
  0
EOF
