  0
SECTION
  2
HEADER
  9
$ACADVER
  1
AC1015
  9
$ACADMAINTVER
 70
    20
  9
$DWGCODEPAGE
  3
ANSI_932
  9
$INSBASE
 10
922.019522
 20
-675.4306699999999
 30
0.0
  9
$EXTMIN
 10
-82.35606186564451
 20
-15.32862149522884
 30
-0.000000000000013
  9
$EXTMAX
 10
277.7016841541206
 20
438.6616820722833
 30
0.0000000000000023
  9
$LIMMIN
 10
0.0
 20
0.0
  9
$LIMMAX
 10
420.0
 20
297.0
  9
$ORTHOMODE
 70
     1
  9
$REGENMODE
 70
     1
  9
$FILLMODE
 70
     1
  9
$QTEXTMODE
 70
     0
  9
$MIRRTEXT
 70
     1
  9
$LTSCALE
 40
10.0
  9
$ATTMODE
 70
     1
  9
$TEXTSIZE
 40
30.0
  9
$TRACEWID
 40
0.05
  9
$TEXTSTYLE
  7
SUNPOU
  9
$CLAYER
  8
0
  9
$CELTYPE
  6
BYLAYER
  9
$CECOLOR
 62
   256
  9
$CELTSCALE
 40
1.0
  9
$DISPSILH
 70
     0
  9
$DIMSCALE
 40
1.0
  9
$DIMASZ
 40
2.0
  9
$DIMEXO
 40
10.0
  9
$DIMDLI
 40
0.38
  9
$DIMRND
 40
0.0
  9
$DIMDLE
 40
0.0
  9
$DIMEXE
 40
0.0
  9
$DIMTP
 40
0.0
  9
$DIMTM
 40
0.0
  9
$DIMTXT
 40
5.0
  9
$DIMCEN
 40
0.0
  9
$DIMTSZ
 40
0.0
  9
$DIMTOL
 70
     0
  9
$DIMLIM
 70
     0
  9
$DIMTIH
 70
     0
  9
$DIMTOH
 70
     0
  9
$DIMSE1
 70
     0
  9
$DIMSE2
 70
     0
  9
$DIMTAD
 70
     1
  9
$DIMZIN
 70
     0
  9
$DIMBLK
  1
Dot
  9
$DIMASO
 70
     1
  9
$DIMSHO
 70
     1
  9
$DIMPOST
  1

  9
$DIMAPOST
  1

  9
$DIMALT
 70
     0
  9
$DIMALTD
 70
     2
  9
$DIMALTF
 40
25.4
  9
$DIMLFAC
 40
1.0
  9
$DIMTOFL
 70
     0
  9
$DIMTVP
 40
0.0
  9
$DIMTIX
 70
     0
  9
$DIMSOXD
 70
     0
  9
$DIMSAH
 70
     0
  9
$DIMBLK1
  1

  9
$DIMBLK2
  1

  9
$DIMSTYLE
  2
STANDARD
  9
$DIMCLRD
 70
    60
  9
$DIMCLRE
 70
    70
  9
$DIMCLRT
 70
    60
  9
$DIMTFAC
 40
0.064286
  9
$DIMGAP
 40
3.0
  9
$DIMJUST
 70
     0
  9
$DIMSD1
 70
     0
  9
$DIMSD2
 70
     0
  9
$DIMTOLJ
 70
     1
  9
$DIMTZIN
 70
     0
  9
$DIMALTZ
 70
     0
  9
$DIMALTTZ
 70
     0
  9
$DIMUPT
 70
     0
  9
$DIMDEC
 70
     0
  9
$DIMTDEC
 70
     0
  9
$DIMALTU
 70
     2
  9
$DIMALTTD
 70
     2
  9
$DIMTXSTY
  7
SUNPOU
  9
$DIMAUNIT
 70
     0
  9
$DIMADEC
 70
     0
  9
$DIMALTRND
 40
0.0
  9
$DIMAZIN
 70
     0
  9
$DIMDSEP
 70
    46
  9
$DIMATFIT
 70
     3
  9
$DIMFRAC
 70
     0
  9
$DIMLDRBLK
  1

  9
$DIMLUNIT
 70
     2
  9
$DIMLWD
 70
    -2
  9
$DIMLWE
 70
    -2
  9
$DIMTMOVE
 70
     0
  9
$LUNITS
 70
     2
  9
$LUPREC
 70
     5
  9
$SKETCHINC
 40
0.1
  9
$FILLETRAD
 40
0.0
  9
$AUNITS
 70
     0
  9
$AUPREC
 70
     0
  9
$MENU
  1
acad
  9
$ELEVATION
 40
0.0
  9
$PELEVATION
 40
0.0
  9
$THICKNESS
 40
0.0
  9
$LIMCHECK
 70
     0
  9
$CHAMFERA
 40
0.0
  9
$CHAMFERB
 40
0.0
  9
$CHAMFERC
 40
0.0
  9
$CHAMFERD
 40
0.0
  9
$SKPOLY
 70
     0
  9
$TDCREATE
 40
2450623.654673033
  9
$TDUCREATE
 40
2450623.279673032
  9
$TDUPDATE
 40
2454579.420802975
  9
$TDUUPDATE
 40
2454579.045802975
  9
$TDINDWG
 40
2.1658334375
  9
$TDUSRTIMER
 40
2.1658332639
  9
$USRTIMER
 70
     1
  9
$ANGBASE
 50
0.0
  9
$ANGDIR
 70
     0
  9
$PDMODE
 70
     0
  9
$PDSIZE
 40
0.0
  9
$PLINEWID
 40
0.0
  9
$SPLFRAME
 70
     0
  9
$SPLINETYPE
 70
     6
  9
$SPLINESEGS
 70
     8
  9
$HANDSEED
  5
524B
  9
$SURFTAB1
 70
     6
  9
$SURFTAB2
 70
     6
  9
$SURFTYPE
 70
     6
  9
$SURFU
 70
     6
  9
$SURFV
 70
     6
  9
$UCSBASE
  2

  9
$UCSNAME
  2

  9
$UCSORG
 10
0.0
 20
0.0
 30
0.0
  9
$UCSXDIR
 10
1.0
 20
0.0
 30
0.0
  9
$UCSYDIR
 10
0.0
 20
1.0
 30
0.0
  9
$UCSORTHOREF
  2

  9
$UCSORTHOVIEW
 70
     0
  9
$UCSORGTOP
 10
0.0
 20
0.0
 30
0.0
  9
$UCSORGBOTTOM
 10
0.0
 20
0.0
 30
0.0
  9
$UCSORGLEFT
 10
0.0
 20
0.0
 30
0.0
  9
$UCSORGRIGHT
 10
0.0
 20
0.0
 30
0.0
  9
$UCSORGFRONT
 10
0.0
 20
0.0
 30
0.0
  9
$UCSORGBACK
 10
0.0
 20
0.0
 30
0.0
  9
$PUCSBASE
  2

  9
$PUCSNAME
  2

  9
$PUCSORG
 10
0.0
 20
0.0
 30
0.0
  9
$PUCSXDIR
 10
1.0
 20
0.0
 30
0.0
  9
$PUCSYDIR
 10
0.0
 20
1.0
 30
0.0
  9
$PUCSORTHOREF
  2

  9
$PUCSORTHOVIEW
 70
     0
  9
$PUCSORGTOP
 10
0.0
 20
0.0
 30
0.0
  9
$PUCSORGBOTTOM
 10
0.0
 20
0.0
 30
0.0
  9
$PUCSORGLEFT
 10
0.0
 20
0.0
 30
0.0
  9
$PUCSORGRIGHT
 10
0.0
 20
0.0
 30
0.0
  9
$PUCSORGFRONT
 10
0.0
 20
0.0
 30
0.0
  9
$PUCSORGBACK
 10
0.0
 20
0.0
 30
0.0
  9
$USERI1
 70
     0
  9
$USERI2
 70
     0
  9
$USERI3
 70
     0
  9
$USERI4
 70
     0
  9
$USERI5
 70
     0
  9
$USERR1
 40
0.0
  9
$USERR2
 40
0.0
  9
$USERR3
 40
0.0
  9
$USERR4
 40
0.0
  9
$USERR5
 40
0.0
  9
$WORLDVIEW
 70
     1
  9
$SHADEDGE
 70
     3
  9
$SHADEDIF
 70
    70
  9
$TILEMODE
 70
     1
  9
$MAXACTVP
 70
    16
  9
$PINSBASE
 10
0.0
 20
0.0
 30
0.0
  9
$PLIMCHECK
 70
     0
  9
$PEXTMIN
 10
1.000000000000000E+20
 20
1.000000000000000E+20
 30
1.000000000000000E+20
  9
$PEXTMAX
 10
-1.000000000000000E+20
 20
-1.000000000000000E+20
 30
-1.000000000000000E+20
  9
$PLIMMIN
 10
0.0
 20
0.0
  9
$PLIMMAX
 10
12.0
 20
9.0
  9
$UNITMODE
 70
     0
  9
$VISRETAIN
 70
     0
  9
$PLINEGEN
 70
     0
  9
$PSLTSCALE
 70
     1
  9
$TREEDEPTH
 70
  3020
  9
$CMLSTYLE
  2
STANDARD
  9
$CMLJUST
 70
     0
  9
$CMLSCALE
 40
1.0
  9
$PROXYGRAPHICS
 70
     1
  9
$MEASUREMENT
 70
     0
  9
$CELWEIGHT
370
    -1
  9
$ENDCAPS
280
     0
  9
$JOINSTYLE
280
     0
  9
$LWDISPLAY
290
     0
  9
$INSUNITS
 70
     0
  9
$HYPERLINKBASE
  1

  9
$STYLESHEET
  1
monochrome.ctb
  9
$XEDIT
290
     1
  9
$CEPSNTYPE
380
     0
  9
$PSTYLEMODE
290
     1
  9
$FINGERPRINTGUID
  2
{FB88A696-E29C-4009-92AF-A3599A8169D5}
  9
$VERSIONGUID
  2
{10FF9AFC-8EBE-4DCA-A3A2-B669CC5E6363}
  9
$EXTNAMES
290
     1
  9
$PSVPSCALE
 40
0.0
  9
$OLESTARTUP
290
     0
  0
ENDSEC
  0
SECTION
  2
CLASSES
  0
CLASS
  1
DICTIONARYVAR
  2
AcDbDictionaryVar
  3
ObjectDBX Classes
 90
        0
280
     0
281
     0
  0
CLASS
  1
ACDBDICTIONARYWDFLT
  2
AcDbDictionaryWithDefault
  3
ObjectDBX Classes
 90
        0
280
     0
281
     0
  0
CLASS
  1
ACDBPLACEHOLDER
  2
AcDbPlaceHolder
  3
ObjectDBX Classes
 90
        0
280
     0
281
     0
  0
CLASS
  1
LAYOUT
  2
AcDbLayout
  3
ObjectDBX Classes
 90
        0
280
     0
281
     0
  0
CLASS
  1
TABLESTYLE
  2
AcDbTableStyle
  3
ObjectDBX Classes
 90
     2047
280
     0
281
     0
  0
CLASS
  1
SORTENTSTABLE
  2
AcDbSortentsTable
  3
ObjectDBX Classes
 90
        0
280
     0
281
     0
  0
ENDSEC
  0
SECTION
  2
TABLES
  0
TABLE
  2
VPORT
  5
12
330
0
100
AcDbSymbolTable
 70
     3
  0
VPORT
  5
5245
330
12
100
AcDbSymbolTableRecord
100
AcDbViewportTableRecord
  2
*Active
 70
     0
 10
0.0
 20
0.0
 11
1.0
 21
1.0
 12
97.67281114423804
 22
211.6665302885273
 13
0.0
 23
0.0
 14
1.0
 24
1.0
 15
0.0
 25
0.0
 16
0.0
 26
0.0
 36
1.0
 17
0.0
 27
0.0
 37
0.0
 40
457.451474878065
 41
1.529262086513995
 42
50.0
 43
0.0
 44
0.0
 50
0.0
 51
0.0
 71
     0
 72
 20000
 73
     1
 74
     1
 75
     0
 76
     0
 77
     0
 78
     0
281
     0
 65
     1
110
0.0
120
0.0
130
0.0
111
1.0
121
0.0
131
0.0
112
0.0
122
1.0
132
0.0
 79
     0
146
0.0
  0
ENDTAB
  0
TABLE
  2
LTYPE
  5
D
330
0
100
AcDbSymbolTable
 70
     2
  0
LTYPE
  5
E
330
D
100
AcDbSymbolTableRecord
100
AcDbLinetypeTableRecord
  2
BYBLOCK
 70
     0
  3

 72
    65
 73
     0
 40
0.0
  0
LTYPE
  5
F
330
D
100
AcDbSymbolTableRecord
100
AcDbLinetypeTableRecord
  2
BYLAYER
 70
     0
  3

 72
    65
 73
     0
 40
0.0
  0
LTYPE
  5
5
330
D
100
AcDbSymbolTableRecord
100
AcDbLinetypeTableRecord
  2
CONTINUOUS
 70
     0
  3
Solid line
 72
    65
 73
     0
 40
0.0
  0
LTYPE
  5
4890
330
D
100
AcDbSymbolTableRecord
100
AcDbLinetypeTableRecord
  2
DASHED
 70
     0
  3
Dashed __ __ __ __ __ __ __ __ __ __ __ __ __ _
 72
    65
 73
     2
 40
0.75
 49
0.5
 74
     0
 49
-0.25
 74
     0
  0
ENDTAB
  0
TABLE
  2
LAYER
  5
A
102
{ACAD_XDICTIONARY
360
1B4
102
}
330
0
100
AcDbSymbolTable
 70
     6
  0
LAYER
  5
4
330
A
100
AcDbSymbolTableRecord
100
AcDbLayerTableRecord
  2
0
 70
     0
 62
     7
  6
CONTINUOUS
370
    -3
390
57
  0
LAYER
  5
25
330
A
100
AcDbSymbolTableRecord
100
AcDbLayerTableRecord
  2
KIJUN
 70
     0
 62
     7
  6
CONTINUOUS
370
    -3
390
57
  0
LAYER
  5
22
330
A
100
AcDbSymbolTableRecord
100
AcDbLayerTableRecord
  2
HOJO
 70
     0
 62
     3
  6
CONTINUOUS
370
    -3
390
57
  0
LAYER
  5
1B
330
A
100
AcDbSymbolTableRecord
100
AcDbLayerTableRecord
  2
WAKU
 70
     0
 62
     1
  6
CONTINUOUS
370
    -3
390
57
  0
LAYER
  5
31
330
A
100
AcDbSymbolTableRecord
100
AcDbLayerTableRecord
  2
DEFPOINTS
 70
     0
 62
     7
  6
CONTINUOUS
290
     0
370
    -3
390
57
  0
LAYER
  5
28
330
A
100
AcDbSymbolTableRecord
100
AcDbLayerTableRecord
  2
SUNPOU
 70
     0
 62
    70
  6
CONTINUOUS
370
    -3
390
57
  0
ENDTAB
  0
TABLE
  2
STYLE
  5
B
330
0
100
AcDbSymbolTable
 70
     2
  0
STYLE
  5
C
330
B
100
AcDbSymbolTableRecord
100
AcDbTextStyleTableRecord
  2
STANDARD
 70
     0
 40
0.0
 41
1.0
 50
0.0
 71
     0
 42
0.2
  3
txt
  4

  0
STYLE
  5
1C
330
B
100
AcDbSymbolTableRecord
100
AcDbTextStyleTableRecord
  2
SUNPOU
 70
     0
 40
0.0
 41
1.0
 50
0.0
 71
     0
 42
30.0
  3
txt
  4
bigfont
  0
ENDTAB
  0
TABLE
  2
VIEW
  5
10
330
0
100
AcDbSymbolTable
 70
     0
  0
ENDTAB
  0
TABLE
  2
UCS
  5
11
330
0
100
AcDbSymbolTable
 70
     0
  0
ENDTAB
  0
TABLE
  2
APPID
  5
14
330
0
100
AcDbSymbolTable
 70
    11
  0
APPID
  5
15
330
14
100
AcDbSymbolTableRecord
100
AcDbRegAppTableRecord
  2
ACAD
 70
     0
  0
APPID
  5
1D3
330
14
100
AcDbSymbolTableRecord
100
AcDbRegAppTableRecord
  2
ACAD_DSTYLE_DIMTEXT_FILL
 70
     0
  0
APPID
  5
1D4
330
14
100
AcDbSymbolTableRecord
100
AcDbRegAppTableRecord
  2
ACAD_DSTYLE_DIMEXT_LENGTH
 70
     0
  0
APPID
  5
1D5
330
14
100
AcDbSymbolTableRecord
100
AcDbRegAppTableRecord
  2
ACAD_DSTYLE_DIMEXT_ENABLED
 70
     0
  0
APPID
  5
1D6
330
14
100
AcDbSymbolTableRecord
100
AcDbRegAppTableRecord
  2
ACAD_DSTYLE_DIM_LINETYPE
 70
     0
  0
APPID
  5
1D7
330
14
100
AcDbSymbolTableRecord
100
AcDbRegAppTableRecord
  2
ACAD_DSTYLE_DIM_EXT1_LINETYPE
 70
     0
  0
APPID
  5
1D8
330
14
100
AcDbSymbolTableRecord
100
AcDbRegAppTableRecord
  2
ACAD_DSTYLE_DIM_EXT2_LINETYPE
 70
     0
  0
APPID
  5
294
330
14
100
AcDbSymbolTableRecord
100
AcDbRegAppTableRecord
  2
ACAD_DSTYLE_DIMJOGGED_JOGANGLE_SYMBOL
 70
     0
  0
APPID
  5
478
330
14
100
AcDbSymbolTableRecord
100
AcDbRegAppTableRecord
  2
ACAD_DSTYLE_DIMARC_LENGTH_SYMBOL
 70
     0
  0
APPID
  5
F55
330
14
100
AcDbSymbolTableRecord
100
AcDbRegAppTableRecord
  2
ACAD_EXEMPT_FROM_CAD_STANDARDS
 70
     0
  0
APPID
  5
3D72
330
14
100
AcDbSymbolTableRecord
100
AcDbRegAppTableRecord
  2
ACAD_PSEXT
 70
     0
  0
ENDTAB
  0
TABLE
  2
DIMSTYLE
  5
16
330
0
100
AcDbSymbolTable
 70
     1
100
AcDbDimStyleTable
 71
     1
340
1E
  0
DIMSTYLE
105
1E
102
{ACAD_REACTORS
330
3628
330
3635
330
434B
330
43B3
102
}
330
16
100
AcDbSymbolTableRecord
100
AcDbDimStyleTableRecord
  2
STANDARD
 70
     0
340
C
  0
ENDTAB
  0
TABLE
  2
BLOCK_RECORD
  5
1
330
0
100
AcDbSymbolTable
 70
     6
  0
BLOCK_RECORD
  5
2
102
{ACAD_XDICTIONARY
360
D13
102
}
330
1
100
AcDbSymbolTableRecord
100
AcDbBlockTableRecord
  2
*MODEL_SPACE
340
5A
  0
BLOCK_RECORD
  5
7
330
1
100
AcDbSymbolTableRecord
100
AcDbBlockTableRecord
  2
*PAPER_SPACE
340
5B
  0
BLOCK_RECORD
  5
109
330
1
100
AcDbSymbolTableRecord
100
AcDbBlockTableRecord
  2
_Dot
340
0
102
{BLKREFS
331
50D8
331
50D9
331
513C
331
513D
331
5201
331
5202
331
520A
331
520B
102
}
  0
BLOCK_RECORD
  5
3629
330
1
100
AcDbSymbolTableRecord
100
AcDbBlockTableRecord
  2
*D1
340
0
  0
BLOCK_RECORD
  5
3636
330
1
100
AcDbSymbolTableRecord
100
AcDbBlockTableRecord
  2
*D2
340
0
  0
BLOCK_RECORD
  5
434C
330
1
100
AcDbSymbolTableRecord
100
AcDbBlockTableRecord
  2
*D3
340
0
  0
BLOCK_RECORD
  5
43B4
330
1
100
AcDbSymbolTableRecord
100
AcDbBlockTableRecord
  2
*D4
340
0
  0
ENDTAB
  0
ENDSEC
  0
SECTION
  2
BLOCKS
  0
BLOCK
  5
3
330
2
100
AcDbEntity
  8
0
100
AcDbBlockBegin
  2
*MODEL_SPACE
 70
     0
 10
0.0
 20
0.0
 30
0.0
  3
*MODEL_SPACE
  1

  0
ENDBLK
  5
6
330
2
100
AcDbEntity
  8
0
100
AcDbBlockEnd
  0
BLOCK
  5
8
330
7
100
AcDbEntity
 67
     1
  8
0
100
AcDbBlockBegin
  2
*PAPER_SPACE
 70
     0
 10
0.0
 20
0.0
 30
0.0
  3
*PAPER_SPACE
  1

  0
ENDBLK
  5
9
330
7
100
AcDbEntity
 67
     1
  8
0
100
AcDbBlockEnd
  0
BLOCK
  5
10C
330
109
100
AcDbEntity
  8
0
100
AcDbBlockBegin
  2
_Dot
 70
     0
 10
0.0
 20
0.0
 30
0.0
  3
_Dot
  1

  0
LWPOLYLINE
  5
10A
330
109
100
AcDbEntity
  8
0
  6
ByBlock
 62
     0
100
AcDbPolyline
 90
        2
 70
     1
 43
0.5
 10
-0.25
 20
0.0
 42
1.0
 10
0.25
 20
0.0
 42
1.0
  0
LINE
  5
10B
330
109
100
AcDbEntity
  8
0
  6
ByBlock
 62
     0
370
    -2
100
AcDbLine
 10
-0.5
 20
0.0
 30
0.0
 11
-1.0
 21
0.0
 31
0.0
  0
ENDBLK
  5
10D
330
109
100
AcDbEntity
  8
0
100
AcDbBlockEnd
  0
BLOCK
  5
3633
330
3629
100
AcDbEntity
  8
0
100
AcDbBlockBegin
  2
*D1
 70
     1
 10
0.0
 20
0.0
 30
0.0
  3
*D1
  1

  0
LINE
  5
5139
330
3629
100
AcDbEntity
  8
SUNPOU
 62
    70
370
    -2
100
AcDbLine
 10
276.700819041677
 20
84.45107090970404
 30
0.0
 11
276.700819041677
 21
48.32068790365398
 31
0.0
  0
LINE
  5
513A
330
3629
100
AcDbEntity
  8
SUNPOU
 62
    70
370
    -2
100
AcDbLine
 10
-27.29918095832309
 20
84.45107090970402
 30
0.0
 11
-27.29918095832309
 21
48.32068790365398
 31
0.0
  0
LINE
  5
513B
330
3629
100
AcDbEntity
  8
SUNPOU
 62
    60
370
    -2
100
AcDbLine
 10
274.700819041677
 20
48.32068790365398
 30
0.0
 11
-25.29918095832309
 21
48.32068790365398
 31
0.0
  0
INSERT
  5
513C
330
3629
100
AcDbEntity
  8
SUNPOU
 62
    60
370
    -2
100
AcDbBlockReference
  2
_Dot
 10
276.700819041677
 20
48.32068790365398
 30
0.0
 41
2.0
 42
2.0
 43
2.0
  0
INSERT
  5
513D
330
3629
100
AcDbEntity
  8
SUNPOU
 62
    60
370
    -2
100
AcDbBlockReference
  2
_Dot
 10
-27.29918095832309
 20
48.32068790365398
 30
0.0
 41
2.0
 42
2.0
 43
2.0
 50
180.0
  0
MTEXT
  5
513E
330
3629
100
AcDbEntity
  8
SUNPOU
 62
    60
100
AcDbMText
 10
124.700819041677
 20
53.82068790365398
 30
0.0
 40
5.0
 41
0.0
 71
     5
 72
     1
  1
\A1;304
  7
SUNPOU
 73
     1
 44
1.0
1001
ACAD
1000
MTEXTBEGIN
1070
    73
1070
     1
1070
    44
1040
1.0
1070
    74
1070
     0
1000
MTEXTEND
  0
POINT
  5
513F
330
3629
100
AcDbEntity
  8
DEFPOINTS
 62
     0
100
AcDbPoint
 10
276.700819041677
 20
94.45107090970404
 30
0.0
  0
POINT
  5
5140
330
3629
100
AcDbEntity
  8
DEFPOINTS
 62
     0
100
AcDbPoint
 10
-27.29918095832309
 20
94.45107090970402
 30
0.0
  0
POINT
  5
5141
330
3629
100
AcDbEntity
  8
DEFPOINTS
 62
     0
100
AcDbPoint
 10
-27.29918095832309
 20
48.32068790365398
 30
0.0
  0
ENDBLK
  5
3634
330
3629
100
AcDbEntity
  8
0
100
AcDbBlockEnd
  0
BLOCK
  5
3640
330
3636
100
AcDbEntity
  8
0
100
AcDbBlockBegin
  2
*D2
 70
     1
 10
0.0
 20
0.0
 30
0.0
  3
*D2
  1

  0
LINE
  5
5207
330
3636
100
AcDbEntity
  8
SUNPOU
 62
    70
370
    -2
100
AcDbLine
 10
-37.29918095832309
 20
94.45107090970404
 30
0.0
 11
-74.35207750425512
 21
94.45107090970404
 31
0.0
  0
LINE
  5
5208
330
3636
100
AcDbEntity
  8
SUNPOU
 62
    70
370
    -2
100
AcDbLine
 10
23.93065632608694
 20
347.451070909704
 30
0.0
 11
-74.35207750425506
 21
347.451070909704
 31
0.0
  0
LINE
  5
5209
330
3636
100
AcDbEntity
  8
SUNPOU
 62
    60
370
    -2
100
AcDbLine
 10
-74.35207750425511
 20
96.45107090970405
 30
0.0
 11
-74.35207750425506
 21
345.451070909704
 31
0.0
  0
INSERT
  5
520A
330
3636
100
AcDbEntity
  8
SUNPOU
 62
    60
370
    -2
100
AcDbBlockReference
  2
_Dot
 10
-74.35207750425512
 20
94.45107090970404
 30
0.0
 41
2.0
 42
2.0
 43
2.0
 50
270.0
  0
INSERT
  5
520B
330
3636
100
AcDbEntity
  8
SUNPOU
 62
    60
370
    -2
100
AcDbBlockReference
  2
_Dot
 10
-74.35207750425506
 20
347.451070909704
 30
0.0
 41
2.0
 42
2.0
 43
2.0
 50
90.0
  0
MTEXT
  5
520C
330
3636
100
AcDbEntity
  8
SUNPOU
 62
    60
100
AcDbMText
 10
-79.85207750425512
 20
220.951070909704
 30
0.0
 40
5.0
 41
0.0
 71
     5
 72
     1
  1
\A1;253
  7
SUNPOU
 11
0.0000000000000001
 21
1.0
 31
0.0
 73
     1
 44
1.0
1001
ACAD
1000
MTEXTBEGIN
1070
    73
1070
     1
1070
    44
1040
1.0
1070
    74
1070
     0
1000
MTEXTEND
  0
POINT
  5
520D
330
3636
100
AcDbEntity
  8
DEFPOINTS
 62
     0
100
AcDbPoint
 10
-27.29918095832309
 20
94.45107090970402
 30
0.0
  0
POINT
  5
520E
330
3636
100
AcDbEntity
  8
DEFPOINTS
 62
     0
100
AcDbPoint
 10
33.93065632608694
 20
347.451070909704
 30
0.0
  0
POINT
  5
520F
330
3636
100
AcDbEntity
  8
DEFPOINTS
 62
     0
100
AcDbPoint
 10
-74.35207750425506
 20
347.451070909704
 30
0.0
  0
ENDBLK
  5
3641
330
3636
100
AcDbEntity
  8
0
100
AcDbBlockEnd
  0
BLOCK
  5
4356
330
434C
100
AcDbEntity
  8
0
100
AcDbBlockBegin
  2
*D3
 70
     1
 10
0.0
 20
0.0
 30
0.0
  3
*D3
  1

  0
LINE
  5
51FE
330
434C
100
AcDbEntity
  8
SUNPOU
 62
    70
370
    -2
100
AcDbLine
 10
23.93065632608694
 20
347.451070909704
 30
0.0
 11
-74.35207750425506
 21
347.451070909704
 31
0.0
  0
LINE
  5
51FF
330
434C
100
AcDbEntity
  8
SUNPOU
 62
    70
370
    -2
100
AcDbLine
 10
44.70081904167716
 20
387.4510709097041
 30
0.0
 11
-74.35207750425504
 21
387.4510709097041
 31
0.0
  0
LINE
  5
5200
330
434C
100
AcDbEntity
  8
SUNPOU
 62
    60
370
    -2
100
AcDbLine
 10
-74.35207750425506
 20
349.451070909704
 30
0.0
 11
-74.35207750425504
 21
385.4510709097041
 31
0.0
  0
INSERT
  5
5201
330
434C
100
AcDbEntity
  8
SUNPOU
 62
    60
370
    -2
100
AcDbBlockReference
  2
_Dot
 10
-74.35207750425506
 20
347.451070909704
 30
0.0
 41
2.0
 42
2.0
 43
2.0
 50
270.0
  0
INSERT
  5
5202
330
434C
100
AcDbEntity
  8
SUNPOU
 62
    60
370
    -2
100
AcDbBlockReference
  2
_Dot
 10
-74.35207750425504
 20
387.4510709097041
 30
0.0
 41
2.0
 42
2.0
 43
2.0
 50
90.0
  0
MTEXT
  5
5203
330
434C
100
AcDbEntity
  8
SUNPOU
 62
    60
100
AcDbMText
 10
-79.85207750425511
 20
367.4510709097041
 30
0.0
 40
5.0
 41
0.0
 71
     5
 72
     1
  1
\A1;40
  7
SUNPOU
 11
0.0000000000000001
 21
1.0
 31
0.0
 73
     1
 44
1.0
1001
ACAD
1000
MTEXTBEGIN
1070
    73
1070
     1
1070
    44
1040
1.0
1070
    74
1070
     0
1000
MTEXTEND
  0
POINT
  5
5204
330
434C
100
AcDbEntity
  8
DEFPOINTS
 62
     0
100
AcDbPoint
 10
33.93065632608694
 20
347.451070909704
 30
0.0
  0
POINT
  5
5205
330
434C
100
AcDbEntity
  8
DEFPOINTS
 62
     0
100
AcDbPoint
 10
54.70081904167717
 20
387.4510709097041
 30
0.0
  0
POINT
  5
5206
330
434C
100
AcDbEntity
  8
DEFPOINTS
 62
     0
100
AcDbPoint
 10
-74.35207750425504
 20
387.4510709097041
 30
0.0
  0
ENDBLK
  5
4357
330
434C
100
AcDbEntity
  8
0
100
AcDbBlockEnd
  0
BLOCK
  5
43BE
330
43B4
100
AcDbEntity
  8
0
100
AcDbBlockBegin
  2
*D4
 70
     1
 10
0.0
 20
0.0
 30
0.0
  3
*D4
  1

  0
LINE
  5
50D5
330
43B4
100
AcDbEntity
  8
SUNPOU
 62
    70
370
    -2
100
AcDbLine
 10
54.70081904167717
 20
397.4510709097041
 30
0.0
 11
54.70081904167717
 21
430.648357150327
 31
0.0
  0
LINE
  5
50D6
330
43B4
100
AcDbEntity
  8
SUNPOU
 62
    70
370
    -2
100
AcDbLine
 10
194.7008190416769
 20
397.451070909704
 30
0.0
 11
194.7008190416769
 21
430.648357150327
 31
0.0
  0
LINE
  5
50D7
330
43B4
100
AcDbEntity
  8
SUNPOU
 62
    60
370
    -2
100
AcDbLine
 10
56.70081904167716
 20
430.648357150327
 30
0.0
 11
192.700819041677
 21
430.648357150327
 31
0.0
  0
INSERT
  5
50D8
330
43B4
100
AcDbEntity
  8
SUNPOU
 62
    60
370
    -2
100
AcDbBlockReference
  2
_Dot
 10
54.70081904167717
 20
430.648357150327
 30
0.0
 41
2.0
 42
2.0
 43
2.0
 50
180.0
  0
INSERT
  5
50D9
330
43B4
100
AcDbEntity
  8
SUNPOU
 62
    60
370
    -2
100
AcDbBlockReference
  2
_Dot
 10
194.7008190416769
 20
430.648357150327
 30
0.0
 41
2.0
 42
2.0
 43
2.0
  0
MTEXT
  5
50DA
330
43B4
100
AcDbEntity
  8
SUNPOU
 62
    60
100
AcDbMText
 10
124.700819041677
 20
436.148357150327
 30
0.0
 40
5.0
 41
0.0
 71
     5
 72
     1
  1
\A1;φ140
  7
SUNPOU
 73
     1
 44
1.0
1001
ACAD
1000
MTEXTBEGIN
1070
    73
1070
     1
1070
    44
1040
1.0
1070
    74
1070
     0
1000
MTEXTEND
  0
POINT
  5
50DB
330
43B4
100
AcDbEntity
  8
DEFPOINTS
 62
     0
100
AcDbPoint
 10
54.70081904167717
 20
387.4510709097041
 30
0.0
  0
POINT
  5
50DC
330
43B4
100
AcDbEntity
  8
DEFPOINTS
 62
     0
100
AcDbPoint
 10
194.7008190416769
 20
387.451070909704
 30
0.0
  0
POINT
  5
50DD
330
43B4
100
AcDbEntity
  8
DEFPOINTS
 62
     0
100
AcDbPoint
 10
194.7008190416769
 20
430.648357150327
 30
0.0
  0
ENDBLK
  5
43BF
330
43B4
100
AcDbEntity
  8
0
100
AcDbBlockEnd
  0
ENDSEC
  0
SECTION
  2
ENTITIES
  0
LINE
  5
1F
330
2
100
AcDbEntity
  8
WAKU
100
AcDbLine
 10
0.0
 20
21.0
 30
0.0
 11
237.3614398378393
 21
21.0
 31
0.0
  0
LINE
  5
20
330
2
100
AcDbEntity
  8
WAKU
100
AcDbLine
 10
0.0
 20
0.0
 30
0.0
 11
237.3614398378393
 21
0.0
 31
0.0
  0
TEXT
  5
21
330
2
100
AcDbEntity
  8
HOJO
100
AcDbText
 10
14.48094900000004
 20
3.549939000000037
 30
0.0
 40
13.5
  1
ML931(3)
  7
SUNPOU
100
AcDbText
  0
TEXT
  5
23
330
2
100
AcDbEntity
  8
HOJO
100
AcDbText
 10
135.1977778031908
 20
7.566579000000047
 30
0.0
 40
9.0
  1
253×304×304
  7
SUNPOU
100
AcDbText
  0
DIMENSION
  5
3628
330
2
100
AcDbEntity
  8
SUNPOU
100
AcDbDimension
  2
*D1
 10
-27.29918095832309
 20
48.32068790365398
 30
0.0
 11
124.700819041677
 21
53.82068790365398
 31
0.0
 70
    32
 71
     5
 42
304.0000000000001
  3
STANDARD
100
AcDbAlignedDimension
 13
276.700819041677
 23
94.45107090970404
 33
0.0
 14
-27.29918095832309
 24
94.45107090970402
 34
0.0
 50
180.0
100
AcDbRotatedDimension
1001
ACAD
1000
DSTYLE
1002
{
1070
    41
1040
2.0
1070
    42
1040
10.0
1070
    44
1040
0.0
1070
    73
1070
     0
1070
    74
1070
     0
1070
    77
1070
     1
1070
   140
1040
5.0
1070
   141
1040
0.0
1070
   146
1040
0.064286
1070
   147
1040
3.0
1070
   176
1070
    60
1070
   177
1070
    70
1070
   178
1070
    60
1070
   271
1070
     0
1070
   272
1070
     0
1070
   340
1005
1C
1070
   342
1005
109
1002
}
  0
DIMENSION
  5
3635
330
2
100
AcDbEntity
  8
SUNPOU
100
AcDbDimension
  2
*D2
 10
-74.35207750425506
 20
347.451070909704
 30
0.0
 11
-79.85207750425512
 21
220.951070909704
 31
0.0
 70
    32
 71
     5
 42
253.0
  3
STANDARD
100
AcDbAlignedDimension
 13
-27.29918095832309
 23
94.45107090970402
 33
0.0
 14
33.93065632608694
 24
347.451070909704
 34
0.0
 50
270.0
100
AcDbRotatedDimension
1001
ACAD
1000
DSTYLE
1002
{
1070
    41
1040
2.0
1070
    42
1040
10.0
1070
    44
1040
0.0
1070
    73
1070
     0
1070
    74
1070
     0
1070
    77
1070
     1
1070
   140
1040
5.0
1070
   141
1040
0.0
1070
   146
1040
0.064286
1070
   147
1040
3.0
1070
   176
1070
    60
1070
   177
1070
    70
1070
   178
1070
    60
1070
   271
1070
     0
1070
   272
1070
     0
1070
   340
1005
1C
1070
   342
1005
109
1002
}
  0
DIMENSION
  5
434B
330
2
100
AcDbEntity
  8
SUNPOU
100
AcDbDimension
  2
*D3
 10
-74.35207750425504
 20
387.4510709097041
 30
0.0
 11
-79.85207750425511
 21
367.4510709097041
 31
0.0
 70
    32
 71
     5
 42
40.00000000000006
  3
STANDARD
100
AcDbAlignedDimension
 13
33.93065632608694
 23
347.451070909704
 33
0.0
 14
54.70081904167717
 24
387.4510709097041
 34
0.0
 50
270.0
100
AcDbRotatedDimension
1001
ACAD
1000
DSTYLE
1002
{
1070
    41
1040
2.0
1070
    42
1040
10.0
1070
    44
1040
0.0
1070
    73
1070
     0
1070
    74
1070
     0
1070
    77
1070
     1
1070
   140
1040
5.0
1070
   141
1040
0.0
1070
   146
1040
0.064286
1070
   147
1040
3.0
1070
   176
1070
    60
1070
   177
1070
    70
1070
   178
1070
    60
1070
   271
1070
     0
1070
   272
1070
     0
1070
   340
1005
1C
1070
   342
1005
109
1002
}
  0
DIMENSION
  5
43B3
330
2
100
AcDbEntity
  8
SUNPOU
100
AcDbDimension
  2
*D4
 10
194.7008190416769
 20
430.648357150327
 30
0.0
 11
124.700819041677
 21
436.148357150327
 31
0.0
 70
    32
  1
φ140
 71
     5
 42
139.9999999999998
  3
STANDARD
100
AcDbAlignedDimension
 13
54.70081904167717
 23
387.4510709097041
 33
0.0
 14
194.7008190416769
 24
387.451070909704
 34
0.0
100
AcDbRotatedDimension
1001
ACAD
1000
DSTYLE
1002
{
1070
    41
1040
2.0
1070
    42
1040
10.0
1070
    44
1040
0.0
1070
    73
1070
     0
1070
    74
1070
     0
1070
    77
1070
     1
1070
   140
1040
5.0
1070
   141
1040
0.0
1070
   146
1040
0.064286
1070
   147
1040
3.0
1070
   176
1070
    60
1070
   177
1070
    70
1070
   178
1070
    60
1070
   271
1070
     0
1070
   272
1070
     0
1070
   340
1005
1C
1070
   342
1005
109
1002
}
  0
LINE
  5
4EB1
102
{ACAD_REACTORS
330
522B
102
}
330
2
100
AcDbEntity
  8
KIJUN
100
AcDbLine
 10
276.700819041677
 20
94.45107090970404
 30
0.0
 11
276.700819041677
 21
194.451070909704
 31
0.0
  0
LINE
  5
4EB4
102
{ACAD_REACTORS
330
522B
102
}
330
2
100
AcDbEntity
  8
KIJUN
100
AcDbLine
 10
215.4709817572621
 20
347.4510709097041
 30
0.0
 11
33.93065632608694
 21
347.451070909704
 31
0.0
  0
LINE
  5
4EB5
102
{ACAD_REACTORS
330
522B
102
}
330
2
100
AcDbEntity
  8
KIJUN
  6
DASHED
100
AcDbLine
 10
194.7008190416769
 20
387.451070909704
 30
0.0
 11
54.70081904167717
 21
387.4510709097041
 31
0.0
  0
LINE
  5
4EB6
102
{ACAD_REACTORS
330
522B
102
}
330
2
100
AcDbEntity
  8
KIJUN
  6
DASHED
100
AcDbLine
 10
194.7008190416769
 20
347.4510709097041
 30
0.0
 11
194.7008190416769
 21
387.451070909704
 31
0.0
  0
LINE
  5
4EB8
102
{ACAD_REACTORS
330
522B
102
}
330
2
100
AcDbEntity
  8
KIJUN
100
AcDbLine
 10
224.3392942267346
 20
327.4510709097041
 30
0.0
 11
25.06234385663026
 21
327.4510709097041
 31
0.0
  0
LINE
  5
4EBA
102
{ACAD_REACTORS
330
522B
102
}
330
2
100
AcDbEntity
  8
KIJUN
100
AcDbLine
 10
254.5955300762596
 20
249.4510709097041
 30
0.0
 11
-5.194228101885533
 21
249.4510709097041
 31
0.0
  0
LINE
  5
4EBB
102
{ACAD_REACTORS
330
522B
102
}
330
2
100
AcDbEntity
  8
KIJUN
100
AcDbLine
 10
255.4785000689598
 20
239.3177375763707
 30
0.0
 11
-6.076861985606056
 21
239.3177375763708
 31
0.0
  0
LINE
  5
4EC5
102
{ACAD_REACTORS
330
522B
102
}
330
2
100
AcDbEntity
  8
KIJUN
100
AcDbLine
 10
234.700819041677
 20
280.4510709097041
 30
0.0
 11
234.700819041677
 21
285.4510709097041
 31
0.0
  0
ARC
  5
4EC6
102
{ACAD_REACTORS
330
522B
102
}
330
2
100
AcDbEntity
  8
KIJUN
100
AcDbCircle
 10
250.9570485697457
 20
216.0541939233873
 30
0.0
 40
23.6988604568661
100
AcDbArc
 50
294.2770540494797
 51
79.00124193499069
  0
ARC
  5
4EC8
102
{ACAD_REACTORS
330
522B
102
}
330
2
100
AcDbEntity
  8
KIJUN
100
AcDbCircle
 10
254.5956981340157
 20
244.3459500048088
 30
0.0
 40
5.105120907661282
100
AcDbArc
 50
279.9579159778473
 51
90.00188614536554
  0
ARC
  5
4EFC
102
{ACAD_REACTORS
330
522B
102
}
330
2
100
AcDbEntity
  8
KIJUN
100
AcDbCircle
 10
223.7406354622434
 20
321.5271648672588
 30
0.0
 40
5.954078863771334
100
AcDbArc
 50
305.9189489668837
 51
84.22938803141011
  0
ARC
  5
4EFD
102
{ACAD_REACTORS
330
522B
102
}
330
2
100
AcDbEntity
  8
KIJUN
100
AcDbCircle
 10
236.9016915176759
 20
302.4960487749108
 30
0.0
 40
17.1864804448438
100
AcDbArc
 50
124.2319253815915
 51
262.6425933420585
  0
LINE
  5
4EFE
102
{ACAD_REACTORS
330
522B
102
}
330
2
100
AcDbEntity
  8
KIJUN
100
AcDbLine
 10
-27.29918095832309
 20
94.45107090970402
 30
0.0
 11
-27.29918095832297
 21
194.451070909704
 31
0.0
  0
LINE
  5
4EFF
102
{ACAD_REACTORS
330
522B
102
}
330
2
100
AcDbEntity
  8
KIJUN
  6
DASHED
100
AcDbLine
 10
54.70081904167717
 20
347.4510709097041
 30
0.0
 11
54.70081904167717
 21
387.4510709097041
 31
0.0
  0
ARC
  5
4F27
102
{ACAD_REACTORS
330
522B
102
}
330
2
100
AcDbEntity
  8
KIJUN
100
AcDbCircle
 10
138.9148342352959
 20
305.4027743311575
 30
0.0
 40
25.91367572484605
100
AcDbArc
 50
127.4226234209524
 51
151.1191309868025
  0
ARC
  5
4F28
102
{ACAD_REACTORS
330
522B
102
}
330
2
100
AcDbEntity
  8
KIJUN
100
AcDbCircle
 10
131.9262692384656
 20
307.7780255634451
 30
0.0
 40
23.00591349644126
100
AcDbArc
 50
128.1911558818678
 51
154.3326375991259
  0
ARC
  5
4F30
102
{ACAD_REACTORS
330
522B
102
}
330
2
100
AcDbEntity
  8
KIJUN
100
AcDbCircle
 10
116.4529711824198
 20
305.4027743311575
 30
0.0
 40
25.91367572484605
100
AcDbArc
 50
127.4226234209524
 51
151.1191309868025
  0
ARC
  5
4F31
102
{ACAD_REACTORS
330
522B
102
}
330
2
100
AcDbEntity
  8
KIJUN
100
AcDbCircle
 10
109.4644061855895
 20
307.7780255634451
 30
0.0
 40
23.00591349644126
100
AcDbArc
 50
128.1911558818678
 51
154.3326375991259
  0
ARC
  5
4F32
102
{ACAD_REACTORS
330
522B
102
}
330
2
100
AcDbEntity
  8
KIJUN
100
AcDbCircle
 10
87.41529790888497
 20
309.5255898276389
 30
0.0
 40
18.74402210348903
100
AcDbArc
 50
118.5984754580209
 51
153.3985452600834
  0
ARC
  5
4F33
102
{ACAD_REACTORS
330
522B
102
}
330
2
100
AcDbEntity
  8
KIJUN
100
AcDbCircle
 10
82.05043533741367
 20
311.0489764984484
 30
0.0
 40
16.92239550223357
100
AcDbArc
 50
118.9305051304944
 51
156.6985813045665
  0
ARC
  5
4F34
102
{ACAD_REACTORS
330
522B
102
}
330
2
100
AcDbEntity
  8
KIJUN
100
AcDbCircle
 10
65.58917560846015
 20
310.5129850246238
 30
0.0
 40
17.0336225517805
100
AcDbArc
 50
114.7435090406477
 51
154.2288604998721
  0
ARC
  5
4F35
102
{ACAD_REACTORS
330
522B
102
}
330
2
100
AcDbEntity
  8
KIJUN
100
AcDbCircle
 10
60.98247154947124
 20
311.8443390093962
 30
0.0
 40
15.44962561421188
100
AcDbArc
 50
114.8846016801597
 51
157.5550465816451
  0
ARC
  5
4F38
102
{ACAD_REACTORS
330
522B
102
}
330
2
100
AcDbEntity
  8
KIJUN
100
AcDbCircle
 10
33.43764007062823
 20
315.0235016927569
 30
0.0
 40
11.16918091724943
100
AcDbArc
 50
101.1259791274235
 51
164.9759771339956
  0
ARC
  5
4F39
102
{ACAD_REACTORS
330
522B
102
}
330
2
100
AcDbEntity
  8
KIJUN
100
AcDbCircle
 10
31.364826151106
 20
315.7595303260123
 30
0.0
 40
10.2734905272497
100
AcDbArc
 50
100.5431605559708
 51
168.868536031927
  0
ARC
  5
4F3A
102
{ACAD_REACTORS
330
522B
102
}
330
2
100
AcDbEntity
  8
KIJUN
100
AcDbCircle
 10
43.71502691449115
 20
313.2402441669448
 30
0.0
 40
13.49744462356637
100
AcDbArc
 50
109.2535092213365
 51
159.7188603191781
  0
ARC
  5
4F3B
102
{ACAD_REACTORS
330
522B
102
}
330
2
100
AcDbEntity
  8
KIJUN
100
AcDbCircle
 10
40.5946286888844
 20
314.1982879599769
 30
0.0
 40
12.34282341783667
100
AcDbArc
 50
109.1290380354666
 51
163.3106102263431
  0
ARC
  5
4F3C
102
{ACAD_REACTORS
330
522B
102
}
330
2
100
AcDbEntity
  8
KIJUN
100
AcDbCircle
 10
160.707817135914
 20
305.4027743311575
 30
0.0
 40
25.91367572484605
100
AcDbArc
 50
127.4226234209524
 51
151.1191309868003
  0
ARC
  5
4F3D
102
{ACAD_REACTORS
330
522B
102
}
330
2
100
AcDbEntity
  8
KIJUN
100
AcDbCircle
 10
153.7192521390837
 20
307.7780255634451
 30
0.0
 40
23.00591349644127
100
AcDbArc
 50
128.1911558818669
 51
154.3326375991199
  0
ARC
  5
4F3E
102
{ACAD_REACTORS
330
522B
102
}
330
2
100
AcDbEntity
  8
KIJUN
100
AcDbCircle
 10
183.16968018879
 20
305.4027743311575
 30
0.0
 40
25.91367572484605
100
AcDbArc
 50
127.4226234209524
 51
151.1191309868003
  0
ARC
  5
4F3F
102
{ACAD_REACTORS
330
522B
102
}
330
2
100
AcDbEntity
  8
KIJUN
100
AcDbCircle
 10
176.1811151919597
 20
307.7780255634451
 30
0.0
 40
23.00591349644125
100
AcDbArc
 50
128.1911558818669
 51
154.3326375991199
  0
ARC
  5
4F40
102
{ACAD_REACTORS
330
522B
102
}
330
2
100
AcDbEntity
  8
KIJUN
100
AcDbCircle
 10
198.6018069534181
 20
309.5255898276389
 30
0.0
 40
18.74402210348902
100
AcDbArc
 50
118.5984754580211
 51
153.3985452600781
  0
ARC
  5
4F41
102
{ACAD_REACTORS
330
522B
102
}
330
2
100
AcDbEntity
  8
KIJUN
100
AcDbCircle
 10
193.2369443819468
 20
311.0489764984484
 30
0.0
 40
16.92239550223357
100
AcDbArc
 50
118.9305051304948
 51
156.6985813045713
  0
ARC
  5
4F42
102
{ACAD_REACTORS
330
522B
102
}
330
2
100
AcDbEntity
  8
KIJUN
100
AcDbCircle
 10
216.3968401967615
 20
310.5129850246238
 30
0.0
 40
17.0336225517805
100
AcDbArc
 50
114.7435090406477
 51
154.2288604998721
  0
ARC
  5
4F43
102
{ACAD_REACTORS
330
522B
102
}
330
2
100
AcDbEntity
  8
KIJUN
100
AcDbCircle
 10
211.7901361377726
 20
311.8443390093962
 30
0.0
 40
15.44962561421188
100
AcDbArc
 50
114.8846016801597
 51
157.5550465816476
  0
ARC
  5
4F44
102
{ACAD_REACTORS
330
522B
102
}
330
2
100
AcDbEntity
  8
KIJUN
100
AcDbCircle
 10
233.0910795953774
 20
315.0235016927569
 30
0.0
 40
11.16918091724943
100
AcDbArc
 50
114.5458657286262
 51
164.9759771339911
  0
ARC
  5
4F45
102
{ACAD_REACTORS
330
522B
102
}
330
2
100
AcDbEntity
  8
KIJUN
100
AcDbCircle
 10
231.0182656758551
 20
315.7595303260123
 30
0.0
 40
10.2734905272497
100
AcDbArc
 50
106.5653133968984
 51
168.868536031927
  0
ARC
  5
4F46
102
{ACAD_REACTORS
330
522B
102
}
330
2
100
AcDbEntity
  8
KIJUN
100
AcDbCircle
 10
228.0610473973753
 20
313.2402441669448
 30
0.0
 40
13.49744462356637
100
AcDbArc
 50
109.2535092213365
 51
159.7188603191735
  0
ARC
  5
4F47
102
{ACAD_REACTORS
330
522B
102
}
330
2
100
AcDbEntity
  8
KIJUN
100
AcDbCircle
 10
224.9406491717686
 20
314.1982879599769
 30
0.0
 40
12.34282341783667
100
AcDbArc
 50
109.1290380354666
 51
163.3106102263461
  0
ARC
  5
4F8C
102
{ACAD_REACTORS
330
522B
102
}
330
2
100
AcDbEntity
  8
KIJUN
100
AcDbCircle
 10
107.1967415570593
 20
274.7805060077892
 30
0.0
 40
15.20990542241936
100
AcDbArc
 50
296.2071672838381
 51
331.4281370578935
  0
ARC
  5
4F8D
102
{ACAD_REACTORS
330
522B
102
}
330
2
100
AcDbEntity
  8
KIJUN
100
AcDbCircle
 10
113.7361768915498
 20
267.2131039105372
 30
0.0
 40
6.780011634115641
100
AcDbArc
 50
175.3489177001829
 51
241.9846241809638
  0
ARC
  5
4F8E
102
{ACAD_REACTORS
330
522B
102
}
330
2
100
AcDbEntity
  8
KIJUN
100
AcDbCircle
 10
121.6405899763408
 20
271.0356431534559
 30
0.0
 40
3.692807818152896
100
AcDbArc
 50
252.8934728059664
 51
15.79528814775393
  0
ARC
  5
4F8F
102
{ACAD_REACTORS
330
522B
102
}
330
2
100
AcDbEntity
  8
KIJUN
100
AcDbCircle
 10
130.2294978543334
 20
265.5845807708121
 30
0.0
 40
8.187783717921341
100
AcDbArc
 50
55.35874807563666
 51
127.952382526323
  0
ARC
  5
4F90
102
{ACAD_REACTORS
330
522B
102
}
330
2
100
AcDbEntity
  8
KIJUN
100
AcDbCircle
 10
125.0155623723738
 20
274.7032209734817
 30
0.0
 40
12.89119760183872
100
AcDbArc
 50
283.8201389142637
 51
327.9872503618102
  0
ARC
  5
4F91
102
{ACAD_REACTORS
330
522B
102
}
330
2
100
AcDbEntity
  8
KIJUN
100
AcDbCircle
 10
117.758801377332
 20
305.4481967441597
 30
0.0
 40
44.48057020004179
100
AcDbArc
 50
265.0409187966048
 51
283.4368993946172
  0
ARC
  5
4F92
102
{ACAD_REACTORS
330
522B
102
}
330
2
100
AcDbEntity
  8
KIJUN
100
AcDbCircle
 10
132.8146621471019
 20
269.4744096169824
 30
0.0
 40
3.519022489230092
100
AcDbArc
 50
332.8662988555895
 51
53.98713513860396
  0
ARC
  5
4F93
102
{ACAD_REACTORS
330
522B
102
}
330
2
100
AcDbEntity
  8
KIJUN
100
AcDbCircle
 10
108.0569979808658
 20
307.2144911436937
 30
0.0
 40
46.05453620955499
100
AcDbArc
 50
252.4064811172146
 51
273.1049527675908
  0
ARC
  5
4F94
102
{ACAD_REACTORS
330
522B
102
}
330
2
100
AcDbEntity
  8
KIJUN
100
AcDbCircle
 10
66.57516720159255
 20
301.6142467626195
 30
0.0
 40
47.18602837258982
100
AcDbArc
 50
246.2081260573428
 51
317.8449058224191
  0
ARC
  5
4F95
102
{ACAD_REACTORS
330
522B
102
}
330
2
100
AcDbEntity
  8
KIJUN
100
AcDbCircle
 10
105.6290350987166
 20
272.2377676097193
 30
0.0
 40
4.673934679355499
100
AcDbArc
 50
209.3646773844844
 51
286.7813199287899
  0
ARC
  5
4F96
102
{ACAD_REACTORS
330
522B
102
}
330
2
100
AcDbEntity
  8
KIJUN
100
AcDbCircle
 10
124.043027285252
 20
254.9302967952376
 30
0.0
 40
23.09041506322669
100
AcDbArc
 50
82.88870700788081
 51
135.8767958412492
  0
ARC
  5
4F97
102
{ACAD_REACTORS
330
522B
102
}
330
2
100
AcDbEntity
  8
KIJUN
100
AcDbCircle
 10
129.2396961372159
 20
261.7224653557453
 30
0.0
 40
16.28930501388406
100
AcDbArc
 50
98.25265923705458
 51
164.5403341007098
  0
ARC
  5
4F98
102
{ACAD_REACTORS
330
522B
102
}
330
2
100
AcDbEntity
  8
KIJUN
100
AcDbCircle
 10
129.0602932069926
 20
268.1283670489593
 30
0.0
 40
8.533640945003636
100
AcDbArc
 50
96.90521472345304
 51
160.1000976906941
  0
ARC
  5
4F99
102
{ACAD_REACTORS
330
522B
102
}
330
2
100
AcDbEntity
  8
KIJUN
100
AcDbCircle
 10
129.7729533157747
 20
261.6833996147959
 30
0.0
 40
15.01769142290777
100
AcDbArc
 50
60.55192453848601
 51
96.64818414969117
  0
ARC
  5
4F9A
102
{ACAD_REACTORS
330
522B
102
}
330
2
100
AcDbEntity
  8
KIJUN
100
AcDbCircle
 10
123.894259438088
 20
271.7759202412799
 30
0.0
 40
16.40036172219766
100
AcDbArc
 50
299.1986319913989
 51
352.1808105376221
  0
ARC
  5
4F9B
102
{ACAD_REACTORS
330
522B
102
}
330
2
100
AcDbEntity
  8
KIJUN
100
AcDbCircle
 10
135.1618784143207
 20
270.1564784004007
 30
0.0
 40
5.017693310693156
100
AcDbArc
 50
352.9967614521109
 51
66.58102176719978
  0
ARC
  5
4F9C
102
{ACAD_REACTORS
330
522B
102
}
330
2
100
AcDbEntity
  8
KIJUN
100
AcDbCircle
 10
121.1830385557429
 20
397.9431922205838
 30
0.0
 40
144.2496609904167
100
AcDbArc
 50
255.5515376545572
 51
290.9221679752198
  0
ARC
  5
4F9D
102
{ACAD_REACTORS
330
522B
102
}
330
2
100
AcDbEntity
  8
KIJUN
100
AcDbCircle
 10
119.8544504738913
 20
387.5047780010594
 30
0.0
 40
131.5811019426269
100
AcDbArc
 50
256.145967829199
 51
289.4849980043778
  0
ARC
  5
4F9E
102
{ACAD_REACTORS
330
522B
102
}
330
2
100
AcDbEntity
  8
KIJUN
100
AcDbCircle
 10
137.8270867689156
 20
315.1232877049768
 30
0.0
 40
53.83793899219739
100
AcDbArc
 50
275.6280270547856
 51
293.1507974217335
  0
ARC
  5
4F9F
102
{ACAD_REACTORS
330
522B
102
}
330
2
100
AcDbEntity
  8
KIJUN
100
AcDbCircle
 10
133.6274608256742
 20
269.0435150994042
 30
0.0
 40
12.08679114678726
100
AcDbArc
 50
321.6546622390795
 51
32.2954962172417
  0
ARC
  5
4FA0
102
{ACAD_REACTORS
330
522B
102
}
330
2
100
AcDbEntity
  8
KIJUN
100
AcDbCircle
 10
160.125436263971
 20
269.0139365704
 30
0.0
 40
3.576985060452149
100
AcDbArc
 50
183.7478868077612
 51
251.5534114069525
  0
ARC
  5
4FA1
102
{ACAD_REACTORS
330
522B
102
}
330
2
100
AcDbEntity
  8
KIJUN
100
AcDbCircle
 10
158.2050987677291
 20
287.2800226770362
 30
0.0
 40
18.57324717855788
100
AcDbArc
 50
219.3588880113934
 51
264.906374323079
  0
ARC
  5
4FA2
102
{ACAD_REACTORS
330
522B
102
}
330
2
100
AcDbEntity
  8
KIJUN
100
AcDbCircle
 10
125.2929047737423
 20
226.9984155780334
 30
0.0
 40
53.45265533167076
100
AcDbArc
 50
75.5858039654123
 51
105.1780197013572
  0
ARC
  5
4FA3
102
{ACAD_REACTORS
330
522B
102
}
330
2
100
AcDbEntity
  8
KIJUN
100
AcDbCircle
 10
136.475451759391
 20
269.5145418515311
 30
0.0
 40
9.494415982253157
100
AcDbArc
 50
39.09126734877251
 51
77.07656180007095
  0
ARC
  5
4FA5
102
{ACAD_REACTORS
330
522B
102
}
330
2
100
AcDbEntity
  8
KIJUN
100
AcDbCircle
 10
104.6055530983093
 20
308.0836330910464
 30
0.0
 40
30.24682746026103
100
AcDbArc
 50
246.7981929658453
 51
282.7830893746112
  0
ARC
  5
4FA6
102
{ACAD_REACTORS
330
522B
102
}
330
2
100
AcDbEntity
  8
KIJUN
100
AcDbCircle
 10
91.9184137436806
 20
278.5821267571886
 30
0.0
 40
1.867439610933069
100
AcDbArc
 50
65.62283977749048
 51
191.6868878075075
  0
ARC
  5
4FA7
102
{ACAD_REACTORS
330
522B
102
}
330
2
100
AcDbEntity
  8
KIJUN
100
AcDbCircle
 10
86.62737688302918
 20
277.5201678334193
 30
0.0
 40
7.115536355987813
100
AcDbArc
 50
168.505335667851
 51
198.7474206233312
  0
ARC
  5
4FA8
102
{ACAD_REACTORS
330
522B
102
}
330
2
100
AcDbEntity
  8
KIJUN
100
AcDbCircle
 10
84.2951297195759
 20
270.3710990804176
 30
0.0
 40
9.74314751924374
100
AcDbArc
 50
53.50649747983354
 51
118.4434489381949
  0
ARC
  5
4FA9
102
{ACAD_REACTORS
330
522B
102
}
330
2
100
AcDbEntity
  8
KIJUN
100
AcDbCircle
 10
49.99070707362787
 20
263.9597938013092
 30
0.0
 40
6.041158583086668
100
AcDbArc
 50
130.234976487935
 51
246.0627342989215
  0
ARC
  5
4FAA
102
{ACAD_REACTORS
330
522B
102
}
330
2
100
AcDbEntity
  8
KIJUN
100
AcDbCircle
 10
49.18210645746063
 20
264.3131766863008
 30
0.0
 40
5.263487433825072
100
AcDbArc
 50
318.9628871066154
 51
125.996332010676
  0
ARC
  5
4FAB
102
{ACAD_REACTORS
330
522B
102
}
330
2
100
AcDbEntity
  8
KIJUN
100
AcDbCircle
 10
58.1905715495195
 20
270.1404321139269
 30
0.0
 40
7.905889709994608
100
AcDbArc
 50
240.8093312495771
 51
303.83002100655
  0
ARC
  5
4FAC
102
{ACAD_REACTORS
330
522B
102
}
330
2
100
AcDbEntity
  8
KIJUN
100
AcDbCircle
 10
230.2904533060226
 20
592.9090959415566
 30
0.0
 40
369.5740569430731
100
AcDbArc
 50
239.4077518224895
 51
243.0147334862274
  0
ARC
  5
4FAD
102
{ACAD_REACTORS
330
522B
102
}
330
2
100
AcDbEntity
  8
KIJUN
100
AcDbCircle
 10
69.7817534320976
 20
267.3059556313871
 30
0.0
 40
12.84545755409955
100
AcDbArc
 50
38.1067633865939
 51
83.54210425295411
  0
ARC
  5
4FAE
102
{ACAD_REACTORS
330
522B
102
}
330
2
100
AcDbEntity
  8
KIJUN
100
AcDbCircle
 10
75.51870916654555
 20
276.6163023229879
 30
0.0
 40
5.509106546435083
100
AcDbArc
 50
141.1789600659885
 51
170.6339491635833
  0
ARC
  5
4FB0
102
{ACAD_REACTORS
330
522B
102
}
330
2
100
AcDbEntity
  8
KIJUN
100
AcDbCircle
 10
57.89595982413453
 20
253.3708152987578
 30
0.0
 40
27.04373266694084
100
AcDbArc
 50
63.21501357712442
 51
99.12488076400904
  0
ARC
  5
4FB1
102
{ACAD_REACTORS
330
522B
102
}
330
2
100
AcDbEntity
  8
KIJUN
100
AcDbCircle
 10
53.8735940528668
 20
277.9146183210596
 30
0.0
 40
2.174077230602548
100
AcDbArc
 50
97.03879182600958
 51
286.7611654424899
  0
ARC
  5
4FB2
102
{ACAD_REACTORS
330
522B
102
}
330
2
100
AcDbEntity
  8
KIJUN
100
AcDbCircle
 10
76.43039285067075
 20
290.7101101246524
 30
0.0
 40
28.66220047258634
100
AcDbArc
 50
251.9748563209006
 51
285.843411471663
  0
ARC
  5
4FB3
102
{ACAD_REACTORS
330
522B
102
}
330
2
100
AcDbEntity
  8
KIJUN
100
AcDbCircle
 10
72.34776961385588
 20
263.0804380372975
 30
0.0
 40
4.801049627447609
100
AcDbArc
 50
129.6767998059589
 51
175.5298904993682
  0
ARC
  5
4FB4
102
{ACAD_REACTORS
330
522B
102
}
330
2
100
AcDbEntity
  8
KIJUN
100
AcDbCircle
 10
70.01899360340408
 20
274.6880676960547
 30
0.0
 40
7.946664396309686
100
AcDbArc
 50
176.5178332059398
 51
264.6822887802171
  0
ARC
  5
4FB5
102
{ACAD_REACTORS
330
522B
102
}
330
2
100
AcDbEntity
  8
KIJUN
100
AcDbCircle
 10
57.35239590591165
 20
264.7165172359816
 30
0.0
 40
11.47637013621488
100
AcDbArc
 50
65.63472199809961
 51
104.3885472985096
  0
ARC
  5
4FB6
102
{ACAD_REACTORS
330
522B
102
}
330
2
100
AcDbEntity
  8
KIJUN
100
AcDbCircle
 10
99.63547197278163
 20
287.8538047228886
 30
0.0
 40
12.07523225163278
100
AcDbArc
 50
234.562220711964
 51
287.3199968123007
  0
ARC
  5
4FB7
102
{ACAD_REACTORS
330
522B
102
}
330
2
100
AcDbEntity
  8
KIJUN
100
AcDbCircle
 10
88.84773177402886
 20
282.7898301218099
 30
0.0
 40
7.391218158938776
100
AcDbArc
 50
222.8452497670316
 51
269.3286248567815
  0
ARC
  5
4FB8
102
{ACAD_REACTORS
330
522B
102
}
330
2
100
AcDbEntity
  8
KIJUN
100
AcDbCircle
 10
79.05003964133958
 20
283.2379771705999
 30
0.0
 40
8.454791998255851
100
AcDbArc
 50
226.4800433412385
 51
261.655413217319
  0
ARC
  5
4FB9
102
{ACAD_REACTORS
330
522B
102
}
330
2
100
AcDbEntity
  8
KIJUN
100
AcDbCircle
 10
80.6165405411575
 20
296.2328738264336
 30
0.0
 40
23.9004180595243
100
AcDbArc
 50
235.8759267307829
 51
271.047710271883
  0
ARC
  5
4FBA
102
{ACAD_REACTORS
330
522B
102
}
330
2
100
AcDbEntity
  8
KIJUN
100
AcDbCircle
 10
57.90191186170052
 20
262.3686659170012
 30
0.0
 40
16.87692906809453
100
AcDbArc
 50
56.53334965586666
 51
87.73465991172789
  0
ARC
  5
4FBB
102
{ACAD_REACTORS
330
522B
102
}
330
2
100
AcDbEntity
  8
KIJUN
100
AcDbCircle
 10
81.54804828801083
 20
316.1535418274136
 30
0.0
 40
43.81988043176195
100
AcDbArc
 50
269.3534271310754
 51
285.8668946488629
  0
ARC
  5
4FBC
102
{ACAD_REACTORS
330
522B
102
}
330
2
100
AcDbEntity
  8
KIJUN
100
AcDbCircle
 10
80.79404200903999
 20
298.6371398088926
 30
0.0
 40
28.85245492984119
100
AcDbArc
 50
241.7119017856293
 51
282.6185684458594
  0
ARC
  5
4FBD
102
{ACAD_REACTORS
330
522B
102
}
330
2
100
AcDbEntity
  8
KIJUN
100
AcDbCircle
 10
81.07065024719959
 20
301.9183198561478
 30
0.0
 40
33.90887189211659
100
AcDbArc
 50
250.4467849532495
 51
272.3989364916096
  0
ARC
  5
4FBE
102
{ACAD_REACTORS
330
522B
102
}
330
2
100
AcDbEntity
  8
KIJUN
100
AcDbCircle
 10
75.7575018204658
 20
307.1361911920135
 30
0.0
 40
42.12068234746019
100
AcDbArc
 50
267.7114154391872
 51
286.2376761365468
  0
ARC
  5
4FBF
102
{ACAD_REACTORS
330
522B
102
}
330
2
100
AcDbEntity
  8
KIJUN
100
AcDbCircle
 10
116.7962924490438
 20
403.0773289435889
 30
0.0
 40
142.4844977852563
100
AcDbArc
 50
243.1547500704112
 51
247.7679138756143
  0
ARC
  5
4FC3
102
{ACAD_REACTORS
330
522B
102
}
330
2
100
AcDbEntity
  8
KIJUN
100
AcDbCircle
 10
34.1065905593807
 20
241.0057184737636
 30
0.0
 40
39.46617810130867
100
AcDbArc
 50
62.2988823916653
 51
88.1385831678215
  0
ARC
  5
4FC4
102
{ACAD_REACTORS
330
522B
102
}
330
2
100
AcDbEntity
  8
KIJUN
100
AcDbCircle
 10
30.43614430873195
 20
268.3713173098295
 30
0.0
 40
13.39858929186624
100
AcDbArc
 50
304.7682013571661
 51
28.5542766423089
  0
ARC
  5
4FC5
102
{ACAD_REACTORS
330
522B
102
}
330
2
100
AcDbEntity
  8
KIJUN
100
AcDbCircle
 10
26.69828928636821
 20
273.5172780104468
 30
0.0
 40
19.75782897627
100
AcDbArc
 50
250.2818251984497
 51
305.1625801661491
  0
ARC
  5
4FC6
102
{ACAD_REACTORS
330
522B
102
}
330
2
100
AcDbEntity
  8
KIJUN
100
AcDbCircle
 10
28.64828024085912
 20
268.4774108117067
 30
0.0
 40
8.001314313380786
100
AcDbArc
 50
342.7107936433249
 51
73.81822035837186
  0
ARC
  5
4FC7
102
{ACAD_REACTORS
330
522B
102
}
330
2
100
AcDbEntity
  8
KIJUN
100
AcDbCircle
 10
38.9300075441518
 20
268.2499061253143
 30
0.0
 40
7.152115422103004
100
AcDbArc
 50
157.6888713893077
 51
197.3381810990505
  0
ARC
  5
4FC8
102
{ACAD_REACTORS
330
522B
102
}
330
2
100
AcDbEntity
  8
KIJUN
100
AcDbCircle
 10
29.54005815675876
 20
270.0880223377292
 30
0.0
 40
2.908659692625812
100
AcDbArc
 50
17.55024674383551
 51
143.7981167530358
  0
ARC
  5
4FCA
102
{ACAD_REACTORS
330
522B
102
}
330
2
100
AcDbEntity
  8
KIJUN
100
AcDbCircle
 10
20.6023652864268
 20
272.5500738300224
 30
0.0
 40
6.632449566682599
100
AcDbArc
 50
353.5583474608024
 51
46.90676249720704
  0
ARC
  5
4FCB
102
{ACAD_REACTORS
330
522B
102
}
330
2
100
AcDbEntity
  8
KIJUN
100
AcDbCircle
 10
34.19845783774976
 20
266.7662383803583
 30
0.0
 40
2.193415261397497
100
AcDbArc
 50
197.1762420957055
 51
342.3025370561664
  0
LINE
  5
4FCC
102
{ACAD_REACTORS
330
522B
102
}
330
2
100
AcDbEntity
  8
KIJUN
100
AcDbLine
 10
35.38853639625262
 20
280.4510709097041
 30
0.0
 11
28.07556647740787
 21
280.4510709097042
 31
0.0
  0
ARC
  5
4FCD
102
{ACAD_REACTORS
330
522B
102
}
330
2
100
AcDbEntity
  8
KIJUN
100
AcDbCircle
 10
233.5567255624638
 20
264.3417399942638
 30
0.0
 40
16.14990688618157
100
AcDbArc
 50
292.7755890425924
 51
85.93764335073254
  0
ARC
  5
4FCE
102
{ACAD_REACTORS
330
522B
102
}
330
2
100
AcDbEntity
  8
KIJUN
100
AcDbCircle
 10
13.51725632807248
 20
239.0200468567789
 30
0.0
 40
17.18102539546593
100
AcDbArc
 50
67.71652031518913
 51
113.3382966615918
  0
ARC
  5
4FCF
102
{ACAD_REACTORS
330
522B
102
}
330
2
100
AcDbEntity
  8
KIJUN
100
AcDbCircle
 10
0.4965029877051493
 20
271.3167854763236
 30
0.0
 40
17.65150643035305
100
AcDbArc
 50
279.8124584882182
 51
290.6131607751933
  0
ARC
  5
4FD0
102
{ACAD_REACTORS
330
522B
102
}
330
2
100
AcDbEntity
  8
KIJUN
100
AcDbCircle
 10
24.85016172497297
 20
271.61835944316
 30
0.0
 40
5.781963763590802
100
AcDbArc
 50
87.19044387769342
 51
193.0204518875715
  0
ARC
  5
4FD1
102
{ACAD_REACTORS
330
522B
102
}
330
2
100
AcDbEntity
  8
KIJUN
100
AcDbCircle
 10
17.28943438273808
 20
266.9914014394469
 30
0.0
 40
3.842634326561182
100
AcDbArc
 50
59.89487784020706
 51
114.7608956894103
  0
ARC
  5
4FD2
102
{ACAD_REACTORS
330
522B
102
}
330
2
100
AcDbEntity
  8
KIJUN
100
AcDbCircle
 10
5.597601619895863
 20
270.682854009999
 30
0.0
 40
10.08443815202936
100
AcDbArc
 50
358.851691331466
 51
61.5305608951954
  0
ARC
  5
4FDA
102
{ACAD_REACTORS
330
522B
102
}
330
2
100
AcDbEntity
  8
KIJUN
100
AcDbCircle
 10
19.63561884271628
 20
240.2842370406173
 30
0.0
 40
37.59772261535616
100
AcDbArc
 50
72.60118076790333
 51
99.87763635653173
  0
ARC
  5
4FDC
102
{ACAD_REACTORS
330
522B
102
}
330
2
100
AcDbEntity
  8
KIJUN
100
AcDbCircle
 10
33.46274291339055
 20
267.2495126246275
 30
0.0
 40
5.648948915123595
100
AcDbArc
 50
180.1971077443266
 51
336.1006281444895
  0
ARC
  5
4FDD
102
{ACAD_REACTORS
330
522B
102
}
330
2
100
AcDbEntity
  8
KIJUN
100
AcDbCircle
 10
26.1347643256272
 20
270.5701098112602
 30
0.0
 40
13.69405793825491
100
AcDbArc
 50
335.8199297799459
 51
12.39780851954336
  0
ARC
  5
4FDE
102
{ACAD_REACTORS
330
522B
102
}
330
2
100
AcDbEntity
  8
KIJUN
100
AcDbCircle
 10
36.65177840447144
 20
271.73551664155
 30
0.0
 40
12.71803530489393
100
AcDbArc
 50
163.6945974388073
 51
222.8241975170883
  0
ARC
  5
4FDF
102
{ACAD_REACTORS
330
522B
102
}
330
2
100
AcDbEntity
  8
KIJUN
100
AcDbCircle
 10
36.13677976343363
 20
278.0152436123891
 30
0.0
 40
18.94047310965727
100
AcDbArc
 50
210.9684210651519
 51
240.1652888223352
  0
ARC
  5
4FE0
102
{ACAD_REACTORS
330
522B
102
}
330
2
100
AcDbEntity
  8
KIJUN
100
AcDbCircle
 10
20.84524823334855
 20
283.3719497041425
 30
0.0
 40
15.03738162291496
100
AcDbArc
 50
203.4347189752884
 51
236.8318287631526
  0
ARC
  5
4FE1
102
{ACAD_REACTORS
330
522B
102
}
330
2
100
AcDbEntity
  8
KIJUN
100
AcDbCircle
 10
12.16538543162029
 20
243.1798416649476
 30
0.0
 40
16.83408424295299
100
AcDbArc
 50
85.909943441356
 51
123.2091827698358
  0
ARC
  5
4FE2
102
{ACAD_REACTORS
330
522B
102
}
330
2
100
AcDbEntity
  8
KIJUN
100
AcDbCircle
 10
11.71096350235275
 20
277.4666913441957
 30
0.0
 40
7.166718225497071
100
AcDbArc
 50
191.6326416083834
 51
247.9843740866465
  0
ARC
  5
4FE4
102
{ACAD_REACTORS
330
522B
102
}
330
2
100
AcDbEntity
  8
KIJUN
100
AcDbCircle
 10
0.5661413921045444
 20
264.4162952486766
 30
0.0
 40
9.406780734853995
100
AcDbArc
 50
35.94465164017466
 51
77.44519792929541
  0
ARC
  5
4FE5
102
{ACAD_REACTORS
330
522B
102
}
330
2
100
AcDbEntity
  8
KIJUN
100
AcDbCircle
 10
4.801217636386034
 20
249.1349309195338
 30
0.0
 40
15.47110653771455
100
AcDbArc
 50
71.81654984007446
 51
109.2281495688039
  0
ARC
  5
4FE6
102
{ACAD_REACTORS
330
522B
102
}
330
2
100
AcDbEntity
  8
KIJUN
100
AcDbCircle
 10
32.46209595167292
 20
-259.2258467266059
 30
0.0
 40
539.6947443418887
100
AcDbArc
 50
90.46569360826742
 51
92.14414724116315
  0
ARC
  5
4FE8
102
{ACAD_REACTORS
330
522B
102
}
330
2
100
AcDbEntity
  8
KIJUN
100
AcDbCircle
 10
221.3068339209911
 20
266.9609046518301
 30
0.0
 40
6.241335993158327
100
AcDbArc
 50
299.4067392052037
 51
58.13256349478466
  0
ARC
  5
4FE9
102
{ACAD_REACTORS
330
522B
102
}
330
2
100
AcDbEntity
  8
KIJUN
100
AcDbCircle
 10
226.9096544166337
 20
268.535690211367
 30
0.0
 40
10.40412341308724
100
AcDbArc
 50
321.0377785404627
 51
17.79784649137183
  0
ARC
  5
4FEA
102
{ACAD_REACTORS
330
522B
102
}
330
2
100
AcDbEntity
  8
KIJUN
100
AcDbCircle
 10
208.3974024434454
 20
199.5157853274611
 30
0.0
 40
80.93528558224299
100
AcDbArc
 50
61.17358183033197
 51
110.9231054225104
  0
ARC
  5
4FEC
102
{ACAD_REACTORS
330
522B
102
}
330
2
100
AcDbEntity
  8
KIJUN
100
AcDbCircle
 10
153.5903312311183
 20
268.1663281671814
 30
0.0
 40
12.19769824271702
100
AcDbArc
 50
47.46889663852836
 51
143.0339232529039
  0
ARC
  5
4FED
102
{ACAD_REACTORS
330
522B
102
}
330
2
100
AcDbEntity
  8
KIJUN
100
AcDbCircle
 10
165.7094904031596
 20
275.674850824711
 30
0.0
 40
4.146769306340272
100
AcDbArc
 50
80.91260327947502
 51
159.0884806981947
  0
ARC
  5
4FEE
102
{ACAD_REACTORS
330
522B
102
}
330
2
100
AcDbEntity
  8
KIJUN
100
AcDbCircle
 10
158.2188571395397
 20
235.9528319616642
 30
0.0
 40
44.56744511851934
100
AcDbArc
 50
54.5897058229695
 51
79.46887254887082
  0
ARC
  5
4FEF
102
{ACAD_REACTORS
330
522B
102
}
330
2
100
AcDbEntity
  8
KIJUN
100
AcDbCircle
 10
190.1311151540618
 20
275.5944396455825
 30
0.0
 40
6.934070353583654
100
AcDbArc
 50
181.4892064245037
 51
208.5887111635405
  0
ARC
  5
4FF0
102
{ACAD_REACTORS
330
522B
102
}
330
2
100
AcDbEntity
  8
KIJUN
100
AcDbCircle
 10
186.2394227317012
 20
250.3026534075012
 30
0.0
 40
25.29492500165605
100
AcDbArc
 50
50.39421191967149
 51
96.90270041656411
  0
ARC
  5
4FF1
102
{ACAD_REACTORS
330
522B
102
}
330
2
100
AcDbEntity
  8
KIJUN
100
AcDbCircle
 10
208.4448641544906
 20
245.4842160963304
 30
0.0
 40
31.2741938775529
100
AcDbArc
 50
58.89367630652579
 51
114.7175603528153
  0
ARC
  5
4FF2
102
{ACAD_REACTORS
330
522B
102
}
330
2
100
AcDbEntity
  8
KIJUN
100
AcDbCircle
 10
217.8560243136165
 20
275.9846040730788
 30
0.0
 40
22.12802756239323
100
AcDbArc
 50
248.4161985560705
 51
320.7814657819269
  0
ARC
  5
4FF3
102
{ACAD_REACTORS
330
522B
102
}
330
2
100
AcDbEntity
  8
KIJUN
100
AcDbCircle
 10
165.6913395323649
 20
254.4924382268707
 30
0.0
 40
5.909811290531104
100
AcDbArc
 50
87.81877818318109
 51
172.2761925531802
  0
ARC
  5
4FF4
102
{ACAD_REACTORS
330
522B
102
}
330
2
100
AcDbEntity
  8
KIJUN
100
AcDbCircle
 10
165.8797399212166
 20
270.0674621759879
 30
0.0
 40
15.96896722835424
100
AcDbArc
 50
247.7578801081128
 51
309.2656897757584
  0
ARC
  5
4FF5
102
{ACAD_REACTORS
330
522B
102
}
330
2
100
AcDbEntity
  8
KIJUN
100
AcDbCircle
 10
199.1421450838349
 20
234.8453355851273
 30
0.0
 40
23.12220700943033
100
AcDbArc
 50
62.78686834034786
 51
119.3037635613821
  0
ARC
  5
4FF6
102
{ACAD_REACTORS
330
522B
102
}
330
2
100
AcDbEntity
  8
KIJUN
100
AcDbCircle
 10
210.6343044374523
 20
263.4427430665642
 30
0.0
 40
24.31843968853781
100
AcDbArc
 50
190.7457469096856
 51
200.2925916298007
  0
ARC
  5
4FF7
102
{ACAD_REACTORS
330
522B
102
}
330
2
100
AcDbEntity
  8
KIJUN
100
AcDbCircle
 10
165.5605000513579
 20
290.7205144161942
 30
0.0
 40
38.21871884554435
100
AcDbArc
 50
287.9291284664926
 51
303.6574189119761
  0
ARC
  5
4FF9
102
{ACAD_REACTORS
330
522B
102
}
330
2
100
AcDbEntity
  8
KIJUN
100
AcDbCircle
 10
182.1530249021989
 20
258.2304065913235
 30
0.0
 40
6.18867878436084
100
AcDbArc
 50
184.8796509465284
 51
218.7380730995991
  0
ARC
  5
4FFA
102
{ACAD_REACTORS
330
522B
102
}
330
2
100
AcDbEntity
  8
KIJUN
100
AcDbCircle
 10
164.3862095847402
 20
302.5934920403647
 30
0.0
 40
37.36394713243586
100
AcDbArc
 50
261.7017244643528
 51
283.5423438981747
  0
ARC
  5
4FFB
102
{ACAD_REACTORS
330
522B
102
}
330
2
100
AcDbEntity
  8
KIJUN
100
AcDbCircle
 10
164.5904625099973
 20
288.0929467521258
 30
0.0
 40
27.72669537548215
100
AcDbArc
 50
272.7407550583842
 51
294.7962993464365
  0
ARC
  5
4FFC
102
{ACAD_REACTORS
330
522B
102
}
330
2
100
AcDbEntity
  8
KIJUN
100
AcDbCircle
 10
174.9703506114135
 20
269.4852474285963
 30
0.0
 40
6.68042515712805
100
AcDbArc
 50
239.6815447734812
 51
280.771357978049
  0
ARC
  5
4FFD
102
{ACAD_REACTORS
330
522B
102
}
330
2
100
AcDbEntity
  8
KIJUN
100
AcDbCircle
 10
174.3179749831238
 20
263.8169375412196
 30
0.0
 40
2.721722352220483
100
AcDbArc
 50
115.7508805709941
 51
182.0730265498314
  0
ARC
  5
4FFE
102
{ACAD_REACTORS
330
522B
102
}
330
2
100
AcDbEntity
  8
KIJUN
100
AcDbCircle
 10
99.13557552334573
 20
-214.4367563962359
 30
0.0
 40
491.2065891670608
100
AcDbArc
 50
78.63722286392041
 51
83.93676280844468
  0
ARC
  5
4FFF
102
{ACAD_REACTORS
330
522B
102
}
330
2
100
AcDbEntity
  8
KIJUN
100
AcDbCircle
 10
167.9090504179566
 20
217.6891413927517
 30
0.0
 40
51.58295249941775
100
AcDbArc
 50
85.58685567060001
 51
98.45069347727495
  0
ARC
  5
5000
102
{ACAD_REACTORS
330
522B
102
}
330
2
100
AcDbEntity
  8
KIJUN
100
AcDbCircle
 10
225.3207494465643
 20
427.7016174147241
 30
0.0
 40
162.330856010166
100
AcDbArc
 50
248.3821258366166
 51
252.799710990926
  0
ARC
  5
5001
102
{ACAD_REACTORS
330
522B
102
}
330
2
100
AcDbEntity
  8
KIJUN
100
AcDbCircle
 10
132.592493821535
 20
118.0134827596318
 30
0.0
 40
164.5325526053613
100
AcDbArc
 50
66.6924371232541
 51
70.42942836644812
  0
ARC
  5
5002
102
{ACAD_REACTORS
330
522B
102
}
330
2
100
AcDbEntity
  8
KIJUN
100
AcDbCircle
 10
197.3314447910007
 20
245.4710339454989
 30
0.0
 40
14.73794911992848
100
AcDbArc
 50
85.46039595138365
 51
122.3113184205317
  0
ARC
  5
5003
102
{ACAD_REACTORS
330
522B
102
}
330
2
100
AcDbEntity
  8
KIJUN
100
AcDbCircle
 10
191.179531758448
 20
240.3529625346572
 30
0.0
 40
21.18751594549814
100
AcDbArc
 50
99.68496402122875
 51
125.9059176837822
  0
ARC
  5
5004
102
{ACAD_REACTORS
330
522B
102
}
330
2
100
AcDbEntity
  8
KIJUN
100
AcDbCircle
 10
197.8503056733392
 20
211.9802548838044
 30
0.0
 40
52.98619416798415
100
AcDbArc
 50
95.97097286485654
 51
116.0066555066603
  0
ARC
  5
5005
102
{ACAD_REACTORS
330
522B
102
}
330
2
100
AcDbEntity
  8
KIJUN
100
AcDbCircle
 10
166.4631466645098
 20
274.6825283635918
 30
0.0
 40
17.14448440775803
100
AcDbArc
 50
267.5002543111602
 51
298.3987714974821
  0
ARC
  5
5007
102
{ACAD_REACTORS
330
522B
102
}
330
2
100
AcDbEntity
  8
KIJUN
100
AcDbCircle
 10
185.53159280882
 20
222.0442046728938
 30
0.0
 40
44.38075439047493
100
AcDbArc
 50
87.73463470202958
 51
102.7816760623722
  0
ARC
  5
5008
102
{ACAD_REACTORS
330
522B
102
}
330
2
100
AcDbEntity
  8
KIJUN
100
AcDbCircle
 10
204.6569209400799
 20
267.0542589791588
 30
0.0
 40
10.42429352116625
100
AcDbArc
 50
12.91465986227225
 51
66.3125136031831
  0
ARC
  5
5009
102
{ACAD_REACTORS
330
522B
102
}
330
2
100
AcDbEntity
  8
KIJUN
100
AcDbCircle
 10
212.5196312069036
 20
270.3381000290581
 30
0.0
 40
7.260800746567547
100
AcDbArc
 50
120.4051521226077
 51
183.9930776597703
  0
ARC
  5
500A
102
{ACAD_REACTORS
330
522B
102
}
330
2
100
AcDbEntity
  8
KIJUN
100
AcDbCircle
 10
203.8771791372516
 20
265.8401327321781
 30
0.0
 40
4.230469389430623
100
AcDbArc
 50
70.684987602645
 51
110.9438812470483
  0
ARC
  5
500B
102
{ACAD_REACTORS
330
522B
102
}
330
2
100
AcDbEntity
  8
KIJUN
100
AcDbCircle
 10
216.9694688931208
 20
267.3445948472273
 30
0.0
 40
2.964859124988205
100
AcDbArc
 50
16.89180717936407
 51
136.5369050780825
  0
ARC
  5
500C
102
{ACAD_REACTORS
330
522B
102
}
330
2
100
AcDbEntity
  8
KIJUN
100
AcDbCircle
 10
222.6490850610949
 20
265.2475938388659
 30
0.0
 40
4.102858229637001
100
AcDbArc
 50
133.8563330895941
 51
294.8204810087054
  0
ARC
  5
500D
102
{ACAD_REACTORS
330
522B
102
}
330
2
100
AcDbEntity
  8
KIJUN
100
AcDbCircle
 10
222.3370090991015
 20
268.3204845969064
 30
0.0
 40
8.500480615679713
100
AcDbArc
 50
281.9140666721612
 51
32.31339352681636
  0
ARC
  5
500E
102
{ACAD_REACTORS
330
522B
102
}
330
2
100
AcDbEntity
  8
KIJUN
100
AcDbCircle
 10
221.8630248661821
 20
264.8957345016368
 30
0.0
 40
4.695924878065625
100
AcDbArc
 50
168.9189667490962
 51
223.1491548415169
  0
ARC
  5
5010
102
{ACAD_REACTORS
330
522B
102
}
330
2
100
AcDbEntity
  8
KIJUN
100
AcDbCircle
 10
222.7584010861607
 20
265.8691346141282
 30
0.0
 40
6.015673387684875
100
AcDbArc
 50
224.0808880687864
 51
282.8070455230082
  0
ARC
  5
5011
102
{ACAD_REACTORS
330
522B
102
}
330
2
100
AcDbEntity
  8
KIJUN
100
AcDbCircle
 10
230.0157885897523
 20
276.6404779838702
 30
0.0
 40
21.17553684824338
100
AcDbArc
 50
192.4604558030787
 51
225.564566420305
  0
ARC
  5
5012
102
{ACAD_REACTORS
330
522B
102
}
330
2
100
AcDbEntity
  8
KIJUN
100
AcDbCircle
 10
220.2613026681918
 20
275.1568607296534
 30
0.0
 40
16.56160179500309
100
AcDbArc
 50
206.4859215802148
 51
240.6753183511092
  0
ARC
  5
5014
102
{ACAD_REACTORS
330
522B
102
}
330
2
100
AcDbEntity
  8
KIJUN
100
AcDbCircle
 10
232.7159440274465
 20
257.8037960981025
 30
0.0
 40
14.5035620443353
100
AcDbArc
 50
12.91348584179462
 51
73.57963623384745
  0
ARC
  5
5015
102
{ACAD_REACTORS
330
522B
102
}
330
2
100
AcDbEntity
  8
KIJUN
100
AcDbCircle
 10
240.8381586221117
 20
260.0118778493792
 30
0.0
 40
5.885239305494766
100
AcDbArc
 50
115.6583454780011
 51
250.1355846416775
  0
ARC
  5
5016
102
{ACAD_REACTORS
330
522B
102
}
330
2
100
AcDbEntity
  8
KIJUN
100
AcDbCircle
 10
243.5955491364591
 20
268.9189557652388
 30
0.0
 40
15.20546301485111
100
AcDbArc
 50
251.7683786304945
 51
278.576055298253
  0
ARC
  5
5017
102
{ACAD_REACTORS
330
522B
102
}
330
2
100
AcDbEntity
  8
KIJUN
100
AcDbCircle
 10
239.3866169129538
 20
262.0175258189513
 30
0.0
 40
3.476789358691842
100
AcDbArc
 50
336.4177563769487
 51
108.3886165358367
  0
ARC
  5
5018
102
{ACAD_REACTORS
330
522B
102
}
330
2
100
AcDbEntity
  8
KIJUN
100
AcDbCircle
 10
244.4020149599449
 20
264.0149530201668
 30
0.0
 40
3.850475768272288
100
AcDbArc
 50
241.6408080040831
 51
309.5283968685964
  0
ARC
  5
5019
102
{ACAD_REACTORS
330
522B
102
}
330
2
100
AcDbEntity
  8
KIJUN
100
AcDbCircle
 10
223.6784088115961
 20
243.9107889408302
 30
0.0
 40
32.75843293877314
100
AcDbArc
 50
37.4121297791365
 51
69.69472898756007
  0
ARC
  5
501B
102
{ACAD_REACTORS
330
522B
102
}
330
2
100
AcDbEntity
  8
KIJUN
100
AcDbCircle
 10
210.8338171391931
 20
207.9964086967143
 30
0.0
 40
70.89956584878049
100
AcDbArc
 50
70.03146671077098
 51
109.1123959712525
  0
ARC
  5
501C
102
{ACAD_REACTORS
330
522B
102
}
330
2
100
AcDbEntity
  8
KIJUN
100
AcDbCircle
 10
237.8238915807937
 20
278.3321664007959
 30
0.0
 40
3.408819744730042
100
AcDbArc
 50
177.8877230703947
 51
229.5438677368761
  0
ARC
  5
501D
102
{ACAD_REACTORS
330
522B
102
}
330
2
100
AcDbEntity
  8
KIJUN
100
AcDbCircle
 10
240.1531548029904
 20
271.2018848863363
 30
0.0
 40
9.249186023367812
100
AcDbArc
 50
107.3654962786919
 51
128.3261733156602
  0
ARC
  5
501E
102
{ACAD_REACTORS
330
522B
102
}
330
2
100
AcDbEntity
  8
KIJUN
100
AcDbCircle
 10
259.1395094789232
 20
275.9257860938617
 30
0.0
 40
12.94668113475382
100
AcDbArc
 50
194.5042051899802
 51
221.3424161241474
  0
ARC
  5
501F
102
{ACAD_REACTORS
330
522B
102
}
330
2
100
AcDbEntity
  8
KIJUN
100
AcDbCircle
 10
237.7216607007154
 20
257.3945977295356
 30
0.0
 40
17.68234638799973
100
AcDbArc
 50
59.84042611035584
 51
91.02508170182229
  0
ARC
  5
5020
102
{ACAD_REACTORS
330
522B
102
}
330
2
100
AcDbEntity
  8
KIJUN
100
AcDbCircle
 10
237.6148906494614
 20
256.7301045840651
 30
0.0
 40
20.51625714331769
100
AcDbArc
 50
69.55890659689209
 51
87.43488177234601
  0
LINE
  5
511D
102
{ACAD_REACTORS
330
522B
102
}
330
2
100
AcDbEntity
  8
KIJUN
100
AcDbLine
 10
276.700819041677
 20
94.45107090970404
 30
0.0
 11
-27.29918095832309
 21
94.45107090970402
 31
0.0
  0
LINE
  5
5154
102
{ACAD_REACTORS
330
522B
102
}
330
2
100
AcDbEntity
  8
KIJUN
100
AcDbLine
 10
276.700819041677
 20
194.451070909704
 30
0.0
 11
-27.29918095832297
 21
194.451070909704
 31
0.0
  0
LINE
  5
518E
102
{ACAD_REACTORS
330
522B
102
}
330
2
100
AcDbEntity
  8
KIJUN
100
AcDbLine
 10
215.4709817572625
 20
337.4510709097041
 30
0.0
 11
33.93065632608732
 21
337.4510709097041
 31
0.0
  0
ARC
  5
5191
102
{ACAD_REACTORS
330
522B
102
}
330
2
100
AcDbEntity
  8
KIJUN
100
AcDbCircle
 10
214.6307039794888
 20
342.4510709097041
 30
0.0
 40
5.070115062188177
100
AcDbArc
 50
279.5397314554265
 51
80.46026854457847
  0
ARC
  5
5192
102
{ACAD_REACTORS
330
522B
102
}
330
2
100
AcDbEntity
  8
KIJUN
100
AcDbCircle
 10
214.6307039794888
 20
332.4510709097041
 30
0.0
 40
5.070115062188177
100
AcDbArc
 50
279.5397314554723
 51
80.46026854452597
  0
LINE
  5
51F4
102
{ACAD_REACTORS
330
522B
102
}
330
2
100
AcDbEntity
  8
KIJUN
100
AcDbLine
 10
234.700819041677
 20
285.451070909704
 30
0.0
 11
14.70081904167696
 21
285.451070909704
 31
0.0
  0
LINE
  5
51F6
102
{ACAD_REACTORS
330
522B
102
}
330
2
100
AcDbEntity
  8
KIJUN
100
AcDbLine
 10
14.70081904167696
 20
280.4510709097041
 30
0.0
 11
14.70081904167696
 21
285.451070909704
 31
0.0
  0
ARC
  5
51F8
102
{ACAD_REACTORS
330
522B
102
}
330
2
100
AcDbEntity
  8
KIJUN
100
AcDbCircle
 10
-5.194060050661761
 20
244.3459500048088
 30
0.0
 40
5.105120907661282
100
AcDbArc
 50
89.99811385463438
 51
260.0420840221527
  0
ARC
  5
51F9
102
{ACAD_REACTORS
330
522B
102
}
330
2
100
AcDbEntity
  8
KIJUN
100
AcDbCircle
 10
25.66100262111053
 20
321.5271648672588
 30
0.0
 40
5.954078863771334
100
AcDbArc
 50
95.77061196859061
 51
234.0810510331165
  0
ARC
  5
51FA
102
{ACAD_REACTORS
330
522B
102
}
330
2
100
AcDbEntity
  8
KIJUN
100
AcDbCircle
 10
12.49994656567807
 20
302.4960487749108
 30
0.0
 40
17.1864804448438
100
AcDbArc
 50
277.357406657942
 51
55.76807461840825
  0
ARC
  5
51FB
102
{ACAD_REACTORS
330
522B
102
}
330
2
100
AcDbEntity
  8
KIJUN
100
AcDbCircle
 10
15.84491252089017
 20
264.3417399942638
 30
0.0
 40
16.14990688618157
100
AcDbArc
 50
94.06235664926731
 51
247.2244109574073
  0
ARC
  5
51FC
102
{ACAD_REACTORS
330
522B
102
}
330
2
100
AcDbEntity
  8
KIJUN
100
AcDbCircle
 10
34.77093410386513
 20
342.4510709097041
 30
0.0
 40
5.070115062188177
100
AcDbArc
 50
99.5397314554212
 51
260.4602685445738
  0
ARC
  5
51FD
102
{ACAD_REACTORS
330
522B
102
}
330
2
100
AcDbEntity
  8
KIJUN
100
AcDbCircle
 10
34.77093410386513
 20
332.4510709097041
 30
0.0
 40
5.070115062188177
100
AcDbArc
 50
99.53973145547402
 51
260.4602685445276
  0
ARC
  5
5224
102
{ACAD_REACTORS
330
522B
102
}
330
2
100
AcDbEntity
  8
KIJUN
100
AcDbCircle
 10
-1.555410486391764
 20
216.0541939233873
 30
0.0
 40
23.6988604568661
100
AcDbArc
 50
100.9987580650092
 51
245.7229459505205
  0
TEXT
  5
523E
330
2
100
AcDbEntity
  8
HOJO
100
AcDbText
 10
0.8467928137279159
 20
-15.31052990517844
 30
0.0
 40
9.0
  1
※ FRP製の為、若干の寸法誤差がある場合があります。
  7
SUNPOU
100
AcDbText
  0
ENDSEC
  0
SECTION
  2
OBJECTS
  0
DICTIONARY
  5
1A
330
0
100
AcDbDictionary
281
     1
  3
ACAD_COLOR
350
144
  3
ACAD_GROUP
350
18
  3
ACAD_LAYOUT
350
58
  3
ACAD_MATERIAL
350
143
  3
ACAD_MLINESTYLE
350
19
  3
ACAD_PLOTSETTINGS
350
59
  3
ACAD_PLOTSTYLENAME
350
56
  3
ACAD_TABLESTYLE
350
145
  3
ACDBHEADERROUNDTRIPXREC
350
5246
  3
AcDbVariableDictionary
350
1D1
  0
DICTIONARY
  5
1B4
330
A
100
AcDbDictionary
280
     1
281
     1
  3
ACAD_LAYERFILTERS
360
3D0D
  3
ACAD_LAYERSTATES
360
5236
  3
ACLYDICTIONARY
360
3D0C
  0
DICTIONARY
  5
D13
330
2
100
AcDbDictionary
280
     1
281
     1
  3
ACAD_SORTENTS
360
D14
  0
DICTIONARY
  5
144
102
{ACAD_REACTORS
330
1A
102
}
330
1A
100
AcDbDictionary
281
     1
  0
DICTIONARY
  5
18
102
{ACAD_REACTORS
330
1A
102
}
330
1A
100
AcDbDictionary
281
     1
  3
*A1
350
E0D
  3
*A10
350
265A
  3
*A11
350
3695
  3
*A12
350
3349
  3
*A13
350
2D78
  3
*A14
350
213E
  3
*A15
350
3467
  3
*A16
350
2C6B
  3
*A17
350
44A7
  3
*A18
350
395F
  3
*A19
350
34BB
  3
*A2
350
2B84
  3
*A20
350
36C9
  3
*A21
350
2905
  3
*A22
350
17BC
  3
*A23
350
4891
  3
*A24
350
1EFE
  3
*A25
350
2037
  3
*A26
350
4648
  3
*A27
350
4D58
  3
*A28
350
22C8
  3
*A29
350
4DF5
  3
*A3
350
1555
  3
*A30
350
2EE1
  3
*A31
350
2573
  3
*A32
350
2F81
  3
*A33
350
2A17
  3
*A34
350
476C
  3
*A35
350
24D6
  3
*A36
350
3181
  3
*A37
350
31DF
  3
*A38
350
32E4
  3
*A39
350
275E
  3
*A4
350
3959
  3
*A40
350
3EE1
  3
*A41
350
522B
  3
*A42
350
26DD
  3
*A43
350
35A5
  3
*A44
350
FF8
  3
*A45
350
241A
  3
*A46
350
136A
  3
*A5
350
4376
  3
*A6
350
1CBC
  3
*A7
350
39BC
  3
*A8
350
1A98
  3
*A9
350
307D
  0
DICTIONARY
  5
58
102
{ACAD_REACTORS
330
1A
102
}
330
1A
100
AcDbDictionary
281
     1
  3
Model
350
5A
  3
ﾚｲｱｳﾄ1
350
5B
  0
DICTIONARY
  5
143
102
{ACAD_REACTORS
330
1A
102
}
330
1A
100
AcDbDictionary
281
     1
  0
DICTIONARY
  5
19
102
{ACAD_REACTORS
330
1A
102
}
330
1A
100
AcDbDictionary
281
     1
  3
STANDARD
350
1D
  0
DICTIONARY
  5
59
102
{ACAD_REACTORS
330
1A
102
}
330
1A
100
AcDbDictionary
281
     1
  0
ACDBDICTIONARYWDFLT
  5
56
102
{ACAD_REACTORS
330
1A
102
}
330
1A
100
AcDbDictionary
281
     1
  3
Normal
350
57
100
AcDbDictionaryWithDefault
340
57
  0
DICTIONARY
  5
145
102
{ACAD_REACTORS
330
1A
102
}
330
1A
100
AcDbDictionary
281
     1
  3
Standard
350
146
  0
DICTIONARY
  5
5246
102
{ACAD_REACTORS
330
1A
102
}
330
1A
100
AcDbDictionary
281
     1
  0
DICTIONARY
  5
1D1
102
{ACAD_REACTORS
330
1A
102
}
330
1A
100
AcDbDictionary
281
     1
  3
CTABLESTYLE
350
1D2
  3
DIMASSOC
350
D03
  3
PROJECTNAME
350
D04
  0
DICTIONARY
  5
3D0D
102
{ACAD_REACTORS
330
1B4
102
}
330
1B4
100
AcDbDictionary
281
     1
  0
DICTIONARY
  5
5236
102
{ACAD_REACTORS
330
1B4
102
}
330
1B4
100
AcDbDictionary
281
     1
  0
DICTIONARY
  5
3D0C
102
{ACAD_REACTORS
330
1B4
102
}
330
1B4
100
AcDbDictionary
281
     1
1001
ACAD
1000
<All
  0
SORTENTSTABLE
  5
D14
102
{ACAD_REACTORS
330
D13
102
}
330
D13
100
AcDbSortentsTable
330
2
331
20
  5
41A9
331
4FB5
  5
4FB5
331
4FEC
  5
4FEC
331
4FBD
  5
4FBD
331
4F3E
  5
4F3E
331
4FF4
  5
4FF4
331
4FC5
  5
4FC7
331
4F46
  5
4F46
331
4FFC
  5
4FFC
331
5004
  5
5004
331
4F8E
  5
4F8E
331
500C
  5
500C
331
4F96
  5
4F96
331
4FCD
  5
4FCF
331
4F9E
  5
4F9E
331
5014
  5
5014
331
4EFF
  5
4F00
331
4F27
  5
4F27
331
4FA6
  5
4FA6
331
4FDD
  5
4FDE
331
4FAE
  5
4FAE
331
4FE5
  5
4FE6
331
21
  5
41B3
331
4EB8
  5
4EB9
331
4FB6
  5
4FB6
331
4FED
  5
4FED
331
4FBE
  5
4FBE
331
4FF5
  5
4FF5
331
4F3F
  5
4F3F
331
4FC6
  5
4FC8
331
4F47
  5
4F47
331
4FFD
  5
4FFD
331
4F8F
  5
4F8F
331
5005
  5
5005
331
4EC8
  5
4ECA
331
4F97
  5
4F97
331
4FCE
  5
4FD0
331
500D
  5
500D
331
5015
  5
5015
331
4F9F
  5
4F9F
331
4F28
  5
4F28
331
4FA7
  5
4FA7
331
4FDE
  5
4FDF
331
4FE6
  5
4FE7
331
4EB1
  5
4EB3
331
4F30
  5
4F30
331
4F38
  5
4F38
331
4FB7
  5
4FB7
331
4FEE
  5
4FEE
331
4FBF
  5
4FBF
331
4F40
  5
4F40
331
4FF6
  5
4FF6
331
4FC7
  5
4FCB
331
4FFE
  5
4FFE
331
4F90
  5
4F90
331
434B
  5
48B6
331
500E
  5
500E
331
4F98
  5
4F98
331
4FCF
  5
4FD1
331
4FA0
  5
4FA0
331
5016
  5
5016
331
4FA8
  5
4FA8
331
4FDF
  5
4FE0
331
23
  5
43CA
331
43B3
  5
4EAE
331
4F31
  5
4F31
331
4FB0
  5
4FB0
331
4EBA
  5
4EBB
331
4FB8
  5
4FB8
331
4F39
  5
4F39
331
4FEF
  5
4FEF
331
4F41
  5
4F41
331
4FF7
  5
4FF7
331
3635
  5
44A9
331
4FFF
  5
4FFF
331
5007
  5
5007
331
4F91
  5
4F91
331
4FC8
  5
4FCD
331
4FD0
  5
4FD2
331
4F99
  5
4F99
331
4FA1
  5
4FA1
331
5017
  5
5017
331
4FE0
  5
4FE1
331
4FA9
  5
4FA9
331
4F32
  5
4F32
331
4FB1
  5
4FB1
331
4FE8
  5
4FE8
331
4EBB
  5
4EC5
331
4FB9
  5
4FB9
331
4F3A
  5
4F3A
331
4FF0
  5
4FF0
331
4F42
  5
4F42
331
5000
  5
5000
331
5008
  5
5008
331
4F92
  5
4F92
331
5010
  5
5010
331
4F9A
  5
4F9A
331
4FD1
  5
4FDA
331
4FA2
  5
4FA2
331
5018
  5
5018
331
4FAA
  5
4FAA
331
4FE1
  5
4FE2
331
4EB4
  5
4EB5
331
4F33
  5
4F33
331
4FB2
  5
4FB2
331
4FE9
  5
4FE9
331
4FBA
  5
4FBB
331
4FF1
  5
4FF1
331
4F3B
  5
4F3B
331
4F43
  5
4F43
331
4FF9
  5
4FF9
331
5001
  5
5001
331
4F93
  5
4F93
331
4FCA
  5
4FCE
331
5009
  5
5009
331
5011
  5
5011
331
4FD2
  5
4FDC
331
4F9B
  5
4F9B
331
4EFC
  5
4EFD
331
5019
  5
5019
331
4FA3
  5
4FA3
331
4FDA
  5
4FCA
331
4FE2
  5
4FE4
331
4FAB
  5
4FAB
331
4EB5
  5
4EB6
331
4F34
  5
4F34
331
4FB3
  5
4FB3
331
4FEA
  5
4FEA
331
3628
  5
43D6
331
4FBB
  5
4FBA
331
4EC5
  5
4EC6
331
4F3C
  5
4F3C
331
4FF2
  5
4FF2
331
4FC3
  5
4FC5
331
4F44
  5
4F44
331
4FFA
  5
4FFA
331
5002
  5
5002
331
4F8C
  5
4F8C
331
500A
  5
500A
331
4F94
  5
4F94
331
4FCB
  5
4FCC
331
1F
  5
41A8
331
4F9C
  5
4F9C
331
5012
  5
5012
331
4EFD
  5
4EFE
331
4FAC
  5
4FAC
331
4EB6
  5
4EB7
331
4F35
  5
4F35
331
4FB4
  5
4FB4
331
4FBC
  5
4FBC
331
4FF3
  5
4FF3
331
4EC6
  5
4EC8
331
4F3D
  5
4F3D
331
4FC4
  5
4FC6
331
4F45
  5
4F45
331
4FFB
  5
4FFB
331
4F8D
  5
4F8D
331
5003
  5
5003
331
4F95
  5
4F95
331
4FCC
  5
4FC3
331
500B
  5
500B
331
4F9D
  5
4F9D
331
4EFE
  5
4EFF
331
501B
  5
501B
331
4FA5
  5
4FA5
331
4FDC
  5
4FDD
331
4FAD
  5
4FAD
331
4FE4
  5
4FE5
  0
GROUP
  5
E0D
102
{ACAD_REACTORS
330
18
102
}
330
18
100
AcDbGroup
300

 70
     1
 71
     1
  0
GROUP
  5
265A
102
{ACAD_REACTORS
330
18
102
}
330
18
100
AcDbGroup
300

 70
     1
 71
     1
  0
GROUP
  5
3695
102
{ACAD_REACTORS
330
18
102
}
330
18
100
AcDbGroup
300

 70
     1
 71
     1
  0
GROUP
  5
3349
102
{ACAD_REACTORS
330
18
102
}
330
18
100
AcDbGroup
300

 70
     1
 71
     1
  0
GROUP
  5
2D78
102
{ACAD_REACTORS
330
18
102
}
330
18
100
AcDbGroup
300

 70
     1
 71
     1
  0
GROUP
  5
213E
102
{ACAD_REACTORS
330
18
102
}
330
18
100
AcDbGroup
300

 70
     1
 71
     1
  0
GROUP
  5
3467
102
{ACAD_REACTORS
330
18
102
}
330
18
100
AcDbGroup
300

 70
     1
 71
     1
  0
GROUP
  5
2C6B
102
{ACAD_REACTORS
330
18
102
}
330
18
100
AcDbGroup
300

 70
     1
 71
     1
  0
GROUP
  5
44A7
102
{ACAD_REACTORS
330
18
102
}
330
18
100
AcDbGroup
300

 70
     1
 71
     1
  0
GROUP
  5
395F
102
{ACAD_REACTORS
330
18
102
}
330
18
100
AcDbGroup
300

 70
     1
 71
     1
  0
GROUP
  5
34BB
102
{ACAD_REACTORS
330
18
102
}
330
18
100
AcDbGroup
300

 70
     1
 71
     1
  0
GROUP
  5
2B84
102
{ACAD_REACTORS
330
18
102
}
330
18
100
AcDbGroup
300

 70
     1
 71
     1
  0
GROUP
  5
36C9
102
{ACAD_REACTORS
330
18
102
}
330
18
100
AcDbGroup
300

 70
     1
 71
     1
  0
GROUP
  5
2905
102
{ACAD_REACTORS
330
18
102
}
330
18
100
AcDbGroup
300

 70
     1
 71
     1
  0
GROUP
  5
17BC
102
{ACAD_REACTORS
330
18
102
}
330
18
100
AcDbGroup
300

 70
     1
 71
     1
  0
GROUP
  5
4891
102
{ACAD_REACTORS
330
18
102
}
330
18
100
AcDbGroup
300

 70
     1
 71
     1
  0
GROUP
  5
1EFE
102
{ACAD_REACTORS
330
18
102
}
330
18
100
AcDbGroup
300

 70
     1
 71
     1
  0
GROUP
  5
2037
102
{ACAD_REACTORS
330
18
102
}
330
18
100
AcDbGroup
300

 70
     1
 71
     1
  0
GROUP
  5
4648
102
{ACAD_REACTORS
330
18
102
}
330
18
100
AcDbGroup
300

 70
     1
 71
     1
  0
GROUP
  5
4D58
102
{ACAD_REACTORS
330
18
102
}
330
18
100
AcDbGroup
300

 70
     1
 71
     1
  0
GROUP
  5
22C8
102
{ACAD_REACTORS
330
18
102
}
330
18
100
AcDbGroup
300

 70
     1
 71
     1
  0
GROUP
  5
4DF5
102
{ACAD_REACTORS
330
18
102
}
330
18
100
AcDbGroup
300

 70
     1
 71
     1
  0
GROUP
  5
1555
102
{ACAD_REACTORS
330
18
102
}
330
18
100
AcDbGroup
300

 70
     1
 71
     1
  0
GROUP
  5
2EE1
102
{ACAD_REACTORS
330
18
102
}
330
18
100
AcDbGroup
300

 70
     1
 71
     1
  0
GROUP
  5
2573
102
{ACAD_REACTORS
330
18
102
}
330
18
100
AcDbGroup
300

 70
     1
 71
     1
  0
GROUP
  5
2F81
102
{ACAD_REACTORS
330
18
102
}
330
18
100
AcDbGroup
300

 70
     1
 71
     1
  0
GROUP
  5
2A17
102
{ACAD_REACTORS
330
18
102
}
330
18
100
AcDbGroup
300

 70
     1
 71
     1
  0
GROUP
  5
476C
102
{ACAD_REACTORS
330
18
102
}
330
18
100
AcDbGroup
300

 70
     1
 71
     1
  0
GROUP
  5
24D6
102
{ACAD_REACTORS
330
18
102
}
330
18
100
AcDbGroup
300

 70
     1
 71
     1
  0
GROUP
  5
3181
102
{ACAD_REACTORS
330
18
102
}
330
18
100
AcDbGroup
300

 70
     1
 71
     1
  0
GROUP
  5
31DF
102
{ACAD_REACTORS
330
18
102
}
330
18
100
AcDbGroup
300

 70
     1
 71
     1
  0
GROUP
  5
32E4
102
{ACAD_REACTORS
330
18
102
}
330
18
100
AcDbGroup
300

 70
     1
 71
     1
  0
GROUP
  5
275E
102
{ACAD_REACTORS
330
18
102
}
330
18
100
AcDbGroup
300

 70
     1
 71
     1
  0
GROUP
  5
3959
102
{ACAD_REACTORS
330
18
102
}
330
18
100
AcDbGroup
300

 70
     1
 71
     1
  0
GROUP
  5
3EE1
102
{ACAD_REACTORS
330
18
102
}
330
18
100
AcDbGroup
300

 70
     1
 71
     1
  0
GROUP
  5
522B
102
{ACAD_REACTORS
330
18
102
}
330
18
100
AcDbGroup
300

 70
     1
 71
     1
340
5224
340
51FD
340
51FC
340
51FB
340
51FA
340
51F9
340
51F8
340
51F6
340
51F4
340
5192
340
5191
340
518E
340
5154
340
511D
340
5020
340
501F
340
501E
340
501D
340
501C
340
501B
340
5019
340
5018
340
5017
340
5016
340
5015
340
5014
340
5012
340
5011
340
5010
340
500E
340
500D
340
500C
340
500B
340
500A
340
5009
340
5008
340
5007
340
5005
340
5004
340
5003
340
5002
340
5001
340
5000
340
4FFF
340
4FFE
340
4FFD
340
4FFC
340
4FFB
340
4FFA
340
4FF9
340
4FF7
340
4FF6
340
4FF5
340
4FF4
340
4FF3
340
4FF2
340
4FF1
340
4FF0
340
4FEF
340
4FEE
340
4FED
340
4FEC
340
4FEA
340
4FE9
340
4FE8
340
4FE6
340
4FE5
340
4FE4
340
4FE2
340
4FE1
340
4FE0
340
4FDF
340
4FDE
340
4FDD
340
4FDC
340
4FD2
340
4FD1
340
4FD0
340
4FCF
340
4FCE
340
4FCD
340
4FCA
340
4FC8
340
4FCB
340
4FC7
340
4FDA
340
4FC6
340
4FC5
340
4FC4
340
4FC3
340
4FCC
340
4FBF
340
4FBE
340
4FBD
340
4FBC
340
4FBA
340
4FBB
340
4FB9
340
4FB8
340
4FB7
340
4FB6
340
4FB5
340
4FB4
340
4FB3
340
4FB2
340
4FB1
340
4FB0
340
4FAE
340
4FAD
340
4FAC
340
4FAB
340
4FAA
340
4FA9
340
4FA8
340
4FA7
340
4FA6
340
4FA5
340
4FA3
340
4FA2
340
4FA1
340
4FA0
340
4F9F
340
4F9E
340
4F9D
340
4F9C
340
4F9B
340
4F9A
340
4F99
340
4F98
340
4F97
340
4F96
340
4F95
340
4F94
340
4F93
340
4F92
340
4F91
340
4F90
340
4F8F
340
4F8E
340
4F8D
340
4F8C
340
4F47
340
4F46
340
4F45
340
4F44
340
4F43
340
4F42
340
4F41
340
4F40
340
4F3F
340
4F3E
340
4F3D
340
4F3C
340
4F3B
340
4F3A
340
4F39
340
4F38
340
4F35
340
4F34
340
4F33
340
4F32
340
4F31
340
4F30
340
4F28
340
4F27
340
4EFF
340
4EFE
340
4EFD
340
4EFC
340
4EC8
340
4EC6
340
4EC5
340
4EBB
340
4EBA
340
4EB8
340
4EB6
340
4EB5
340
4EB4
340
4EB1
  0
GROUP
  5
26DD
102
{ACAD_REACTORS
330
18
102
}
330
18
100
AcDbGroup
300

 70
     1
 71
     1
  0
GROUP
  5
35A5
102
{ACAD_REACTORS
330
18
102
}
330
18
100
AcDbGroup
300

 70
     1
 71
     1
  0
GROUP
  5
FF8
102
{ACAD_REACTORS
330
18
102
}
330
18
100
AcDbGroup
300

 70
     1
 71
     1
  0
GROUP
  5
241A
102
{ACAD_REACTORS
330
18
102
}
330
18
100
AcDbGroup
300

 70
     1
 71
     1
  0
GROUP
  5
136A
102
{ACAD_REACTORS
330
18
102
}
330
18
100
AcDbGroup
300

 70
     1
 71
     1
  0
GROUP
  5
4376
102
{ACAD_REACTORS
330
18
102
}
330
18
100
AcDbGroup
300

 70
     1
 71
     1
  0
GROUP
  5
1CBC
102
{ACAD_REACTORS
330
18
102
}
330
18
100
AcDbGroup
300

 70
     1
 71
     1
  0
GROUP
  5
39BC
102
{ACAD_REACTORS
330
18
102
}
330
18
100
AcDbGroup
300

 70
     1
 71
     1
  0
GROUP
  5
1A98
102
{ACAD_REACTORS
330
18
102
}
330
18
100
AcDbGroup
300

 70
     1
 71
     1
  0
GROUP
  5
307D
102
{ACAD_REACTORS
330
18
102
}
330
18
100
AcDbGroup
300

 70
     1
 71
     1
  0
LAYOUT
  5
5A
102
{ACAD_XDICTIONARY
360
5247
102
}
102
{ACAD_REACTORS
330
58
102
}
330
58
100
AcDbPlotSettings
  1

  2
none_device
  4
Letter_(8.50_x_11.00_Inches)
  6

 40
6.349999904632568
 41
6.349999904632568
 42
6.350006103515625
 43
6.350006103515625
 44
215.8999938964844
 45
279.3999938964844
 46
0.0
 47
0.0
 48
0.0
 49
0.0
140
0.0
141
0.0
142
1.0
143
56.1487857219155
 70
 11952
 72
     0
 73
     1
 74
     0
  7
monochrome.ctb
 75
     0
147
0.017809824151009
148
5906.460377060824
149
233.5965544000385
100
AcDbLayout
  1
Model
 70
     1
 71
     0
 10
0.0
 20
0.0
 11
12.0
 21
9.0
 12
0.0
 22
0.0
 32
0.0
 14
0.0
 24
0.0
 34
0.0
 15
0.0
 25
0.0
 35
0.0
146
0.0
 13
0.0
 23
0.0
 33
0.0
 16
1.0
 26
0.0
 36
0.0
 17
0.0
 27
1.0
 37
0.0
 76
     0
330
2
1001
ACAD_PSEXT
1000
なし
1000
なし
1000
適切ではありません
1000
新しいプロッタ環境設定名を選択しない限り、レイアウトは印刷されません。
1070
     0
  0
LAYOUT
  5
5B
102
{ACAD_XDICTIONARY
360
5249
102
}
102
{ACAD_REACTORS
330
58
102
}
330
58
100
AcDbPlotSettings
  1

  2
なし
  4

  6

 40
0.0
 41
0.0
 42
0.0
 43
0.0
 44
0.0
 45
0.0
 46
0.0
 47
0.0
 48
0.0
 49
0.0
140
0.0
141
0.0
142
1.0
143
1.0
 70
   688
 72
     0
 73
     0
 74
     5
  7
monochrome.ctb
 75
    16
147
1.0
148
0.0
149
0.0
100
AcDbLayout
  1
ﾚｲｱｳﾄ1
 70
     1
 71
     1
 10
0.0
 20
0.0
 11
12.0
 21
9.0
 12
0.0
 22
0.0
 32
0.0
 14
1.000000000000000E+20
 24
1.000000000000000E+20
 34
1.000000000000000E+20
 15
-1.000000000000000E+20
 25
-1.000000000000000E+20
 35
-1.000000000000000E+20
146
0.0
 13
0.0
 23
0.0
 33
0.0
 16
1.0
 26
0.0
 36
0.0
 17
0.0
 27
1.0
 37
0.0
 76
     0
330
7
  0
MLINESTYLE
  5
1D
102
{ACAD_REACTORS
330
19
102
}
330
19
100
AcDbMlineStyle
  2
STANDARD
 70
     0
  3

 62
   256
 51
90.0
 52
90.0
 71
     2
 49
0.5
 62
   256
  6
BYLAYER
 49
-0.5
 62
   256
  6
BYLAYER
  0
ACDBPLACEHOLDER
  5
57
102
{ACAD_REACTORS
330
56
102
}
330
56
  0
TABLESTYLE
  5
146
102
{ACAD_REACTORS
330
145
102
}
330
145
100
AcDbTableStyle
  3
Standard
 70
     0
 71
     0
 40
0.06
 41
0.06
280
     0
281
     0
  7
STANDARD
140
0.18
170
     2
 62
     0
 63
     7
283
     0
274
    -2
284
     1
 64
     0
275
    -2
285
     1
 65
     0
276
    -2
286
     1
 66
     0
277
    -2
287
     1
 67
     0
278
    -2
288
     1
 68
     0
279
    -2
289
     1
 69
     0
  7
STANDARD
140
0.25
170
     5
 62
     0
 63
     7
283
     0
274
    -2
284
     1
 64
     0
275
    -2
285
     1
 65
     0
276
    -2
286
     1
 66
     0
277
    -2
287
     1
 67
     0
278
    -2
288
     1
 68
     0
279
    -2
289
     1
 69
     0
  7
STANDARD
140
0.18
170
     5
 62
     0
 63
     7
283
     0
274
    -2
284
     1
 64
     0
275
    -2
285
     1
 65
     0
276
    -2
286
     1
 66
     0
277
    -2
287
     1
 67
     0
278
    -2
288
     1
 68
     0
279
    -2
289
     1
 69
     0
  0
DICTIONARYVAR
  5
1D2
102
{ACAD_REACTORS
330
1D1
102
}
330
1D1
100
DictionaryVariables
280
     0
  1
STANDARD
  0
DICTIONARYVAR
  5
D03
102
{ACAD_REACTORS
330
1D1
102
}
330
1D1
100
DictionaryVariables
280
     0
  1
1
  0
DICTIONARYVAR
  5
D04
102
{ACAD_REACTORS
330
1D1
102
}
330
1D1
100
DictionaryVariables
280
     0
  1

  0
DICTIONARY
  5
5247
330
5A
100
AcDbDictionary
280
     1
281
     1
  3
ACAD_XREC_ROUNDTRIP
360
5248
  0
DICTIONARY
  5
5249
330
5B
100
AcDbDictionary
280
     1
281
     1
  3
ACAD_XREC_ROUNDTRIP
360
524A
  0
XRECORD
  5
5248
102
{ACAD_REACTORS
330
5247
102
}
330
5247
100
AcDbXrecord
280
     1
102
SHADEPLOT
 70
     0
102
SHADEPLOTRESLEVEL
 70
     2
102
SHADEPLOTCUSTOMDPI
 70
   300
  0
XRECORD
  5
524A
102
{ACAD_REACTORS
330
5249
102
}
330
5249
100
AcDbXrecord
280
     1
102
SHADEPLOT
 70
     0
102
SHADEPLOTRESLEVEL
 70
     2
102
SHADEPLOTCUSTOMDPI
 70
   300
  0
ENDSEC
  0
EOF
