  0
SECTION
  2
HEADER
  9
$ACADVER
  1
AC1018
  9
$ACADMAINTVER
 70
    76
  9
$DWGCODEPAGE
  3
ANSI_932
  9
$INSBASE
 10
922.019522
 20
-675.4306699999999
 30
0.0
  9
$EXTMIN
 10
-79.0661305401386
 20
-15.73756716116611
 30
-0.000000000000013
  9
$EXTMAX
 10
273.8358353690544
 20
425.3074657486036
 30
0.0000000000000023
  9
$LIMMIN
 10
0.0
 20
0.0
  9
$LIMMAX
 10
420.0
 20
297.0
  9
$ORTHOMODE
 70
     0
  9
$REGENMODE
 70
     1
  9
$FILLMODE
 70
     1
  9
$QTEXTMODE
 70
     0
  9
$MIRRTEXT
 70
     1
  9
$LTSCALE
 40
10.0
  9
$ATTMODE
 70
     1
  9
$TEXTSIZE
 40
30.0
  9
$TRACEWID
 40
0.05
  9
$TEXTSTYLE
  7
SUNPOU
  9
$CLAYER
  8
0
  9
$CELTYPE
  6
BYLAYER
  9
$CECOLOR
 62
   256
  9
$CELTSCALE
 40
1.0
  9
$DISPSILH
 70
     0
  9
$DIMSCALE
 40
1.0
  9
$DIMASZ
 40
2.0
  9
$DIMEXO
 40
10.0
  9
$DIMDLI
 40
0.38
  9
$DIMRND
 40
0.0
  9
$DIMDLE
 40
0.0
  9
$DIMEXE
 40
0.0
  9
$DIMTP
 40
0.0
  9
$DIMTM
 40
0.0
  9
$DIMTXT
 40
5.0
  9
$DIMCEN
 40
0.0
  9
$DIMTSZ
 40
0.0
  9
$DIMTOL
 70
     0
  9
$DIMLIM
 70
     0
  9
$DIMTIH
 70
     0
  9
$DIMTOH
 70
     0
  9
$DIMSE1
 70
     0
  9
$DIMSE2
 70
     0
  9
$DIMTAD
 70
     1
  9
$DIMZIN
 70
     0
  9
$DIMBLK
  1
Dot
  9
$DIMASO
 70
     1
  9
$DIMSHO
 70
     1
  9
$DIMPOST
  1

  9
$DIMAPOST
  1

  9
$DIMALT
 70
     0
  9
$DIMALTD
 70
     2
  9
$DIMALTF
 40
25.4
  9
$DIMLFAC
 40
1.0
  9
$DIMTOFL
 70
     0
  9
$DIMTVP
 40
0.0
  9
$DIMTIX
 70
     0
  9
$DIMSOXD
 70
     0
  9
$DIMSAH
 70
     0
  9
$DIMBLK1
  1

  9
$DIMBLK2
  1

  9
$DIMSTYLE
  2
STANDARD
  9
$DIMCLRD
 70
    60
  9
$DIMCLRE
 70
    70
  9
$DIMCLRT
 70
    60
  9
$DIMTFAC
 40
0.064286
  9
$DIMGAP
 40
3.0
  9
$DIMJUST
 70
     0
  9
$DIMSD1
 70
     0
  9
$DIMSD2
 70
     0
  9
$DIMTOLJ
 70
     1
  9
$DIMTZIN
 70
     0
  9
$DIMALTZ
 70
     0
  9
$DIMALTTZ
 70
     0
  9
$DIMUPT
 70
     0
  9
$DIMDEC
 70
     0
  9
$DIMTDEC
 70
     0
  9
$DIMALTU
 70
     2
  9
$DIMALTTD
 70
     2
  9
$DIMTXSTY
  7
SUNPOU
  9
$DIMAUNIT
 70
     0
  9
$DIMADEC
 70
     0
  9
$DIMALTRND
 40
0.0
  9
$DIMAZIN
 70
     0
  9
$DIMDSEP
 70
    46
  9
$DIMATFIT
 70
     3
  9
$DIMFRAC
 70
     0
  9
$DIMLDRBLK
  1

  9
$DIMLUNIT
 70
     2
  9
$DIMLWD
 70
    -2
  9
$DIMLWE
 70
    -2
  9
$DIMTMOVE
 70
     0
  9
$LUNITS
 70
     2
  9
$LUPREC
 70
     5
  9
$SKETCHINC
 40
0.1
  9
$FILLETRAD
 40
0.0
  9
$AUNITS
 70
     0
  9
$AUPREC
 70
     0
  9
$MENU
  1
acad
  9
$ELEVATION
 40
0.0
  9
$PELEVATION
 40
0.0
  9
$THICKNESS
 40
0.0
  9
$LIMCHECK
 70
     0
  9
$CHAMFERA
 40
0.0
  9
$CHAMFERB
 40
0.0
  9
$CHAMFERC
 40
0.0
  9
$CHAMFERD
 40
0.0
  9
$SKPOLY
 70
     0
  9
$TDCREATE
 40
2450623.654673033
  9
$TDUCREATE
 40
2450623.279673032
  9
$TDUPDATE
 40
2454579.420170000
  9
$TDUUPDATE
 40
2454579.045170000
  9
$TDINDWG
 40
2.1331634954
  9
$TDUSRTIMER
 40
2.1331633218
  9
$USRTIMER
 70
     1
  9
$ANGBASE
 50
0.0
  9
$ANGDIR
 70
     0
  9
$PDMODE
 70
     0
  9
$PDSIZE
 40
0.0
  9
$PLINEWID
 40
0.0
  9
$SPLFRAME
 70
     0
  9
$SPLINETYPE
 70
     6
  9
$SPLINESEGS
 70
     8
  9
$HANDSEED
  5
52AE
  9
$SURFTAB1
 70
     6
  9
$SURFTAB2
 70
     6
  9
$SURFTYPE
 70
     6
  9
$SURFU
 70
     6
  9
$SURFV
 70
     6
  9
$UCSBASE
  2

  9
$UCSNAME
  2

  9
$UCSORG
 10
0.0
 20
0.0
 30
0.0
  9
$UCSXDIR
 10
1.0
 20
0.0
 30
0.0
  9
$UCSYDIR
 10
0.0
 20
1.0
 30
0.0
  9
$UCSORTHOREF
  2

  9
$UCSORTHOVIEW
 70
     0
  9
$UCSORGTOP
 10
0.0
 20
0.0
 30
0.0
  9
$UCSORGBOTTOM
 10
0.0
 20
0.0
 30
0.0
  9
$UCSORGLEFT
 10
0.0
 20
0.0
 30
0.0
  9
$UCSORGRIGHT
 10
0.0
 20
0.0
 30
0.0
  9
$UCSORGFRONT
 10
0.0
 20
0.0
 30
0.0
  9
$UCSORGBACK
 10
0.0
 20
0.0
 30
0.0
  9
$PUCSBASE
  2

  9
$PUCSNAME
  2

  9
$PUCSORG
 10
0.0
 20
0.0
 30
0.0
  9
$PUCSXDIR
 10
1.0
 20
0.0
 30
0.0
  9
$PUCSYDIR
 10
0.0
 20
1.0
 30
0.0
  9
$PUCSORTHOREF
  2

  9
$PUCSORTHOVIEW
 70
     0
  9
$PUCSORGTOP
 10
0.0
 20
0.0
 30
0.0
  9
$PUCSORGBOTTOM
 10
0.0
 20
0.0
 30
0.0
  9
$PUCSORGLEFT
 10
0.0
 20
0.0
 30
0.0
  9
$PUCSORGRIGHT
 10
0.0
 20
0.0
 30
0.0
  9
$PUCSORGFRONT
 10
0.0
 20
0.0
 30
0.0
  9
$PUCSORGBACK
 10
0.0
 20
0.0
 30
0.0
  9
$USERI1
 70
     0
  9
$USERI2
 70
     0
  9
$USERI3
 70
     0
  9
$USERI4
 70
     0
  9
$USERI5
 70
     0
  9
$USERR1
 40
0.0
  9
$USERR2
 40
0.0
  9
$USERR3
 40
0.0
  9
$USERR4
 40
0.0
  9
$USERR5
 40
0.0
  9
$WORLDVIEW
 70
     1
  9
$SHADEDGE
 70
     3
  9
$SHADEDIF
 70
    70
  9
$TILEMODE
 70
     1
  9
$MAXACTVP
 70
    16
  9
$PINSBASE
 10
0.0
 20
0.0
 30
0.0
  9
$PLIMCHECK
 70
     0
  9
$PEXTMIN
 10
1.000000000000000E+20
 20
1.000000000000000E+20
 30
1.000000000000000E+20
  9
$PEXTMAX
 10
-1.000000000000000E+20
 20
-1.000000000000000E+20
 30
-1.000000000000000E+20
  9
$PLIMMIN
 10
0.0
 20
0.0
  9
$PLIMMAX
 10
12.0
 20
9.0
  9
$UNITMODE
 70
     0
  9
$VISRETAIN
 70
     0
  9
$PLINEGEN
 70
     0
  9
$PSLTSCALE
 70
     1
  9
$TREEDEPTH
 70
  3020
  9
$CMLSTYLE
  2
STANDARD
  9
$CMLJUST
 70
     0
  9
$CMLSCALE
 40
1.0
  9
$PROXYGRAPHICS
 70
     1
  9
$MEASUREMENT
 70
     0
  9
$CELWEIGHT
370
    -1
  9
$ENDCAPS
280
     0
  9
$JOINSTYLE
280
     0
  9
$LWDISPLAY
290
     0
  9
$INSUNITS
 70
     0
  9
$HYPERLINKBASE
  1

  9
$STYLESHEET
  1
monochrome.ctb
  9
$XEDIT
290
     1
  9
$CEPSNTYPE
380
     0
  9
$PSTYLEMODE
290
     1
  9
$FINGERPRINTGUID
  2
{FB88A696-E29C-4009-92AF-A3599A8169D5}
  9
$VERSIONGUID
  2
{6AFDEEFE-C2F5-483C-85F4-75BF3456BD5A}
  9
$EXTNAMES
290
     1
  9
$PSVPSCALE
 40
0.0
  9
$OLESTARTUP
290
     0
  9
$SORTENTS
280
   127
  9
$INDEXCTL
280
     0
  9
$HIDETEXT
280
     0
  9
$XCLIPFRAME
290
     0
  9
$HALOGAP
280
     0
  9
$OBSCOLOR
 70
   257
  9
$OBSLTYPE
280
     0
  9
$INTERSECTIONDISPLAY
280
     0
  9
$INTERSECTIONCOLOR
 70
   257
  9
$DIMASSOC
280
     1
  9
$PROJECTNAME
  1

  0
ENDSEC
  0
SECTION
  2
CLASSES
  0
CLASS
  1
DICTIONARYVAR
  2
AcDbDictionaryVar
  3
ObjectDBX Classes
 90
        0
 91
        3
280
     0
281
     0
  0
CLASS
  1
ACDBDICTIONARYWDFLT
  2
AcDbDictionaryWithDefault
  3
ObjectDBX Classes
 90
        0
 91
        1
280
     0
281
     0
  0
CLASS
  1
TABLESTYLE
  2
AcDbTableStyle
  3
ObjectDBX Classes
 90
     2047
 91
        1
280
     0
281
     0
  0
CLASS
  1
SORTENTSTABLE
  2
AcDbSortentsTable
  3
ObjectDBX Classes
 90
        0
 91
        2
280
     0
281
     0
  0
ENDSEC
  0
SECTION
  2
TABLES
  0
TABLE
  2
VPORT
  5
12
330
0
100
AcDbSymbolTable
 70
     3
  0
VPORT
  5
52AD
330
12
100
AcDbSymbolTableRecord
100
AcDbViewportTableRecord
  2
*Active
 70
     0
 10
0.0
 20
0.0
 11
1.0
 21
1.0
 12
97.3848524144579
 22
204.7849492937187
 13
0.0
 23
0.0
 14
1.0
 24
1.0
 15
0.0
 25
0.0
 16
0.0
 26
0.0
 36
1.0
 17
0.0
 27
0.0
 37
0.0
 40
444.4075109243295
 41
1.529262086513995
 42
50.0
 43
0.0
 44
0.0
 50
0.0
 51
0.0
 71
     0
 72
 20000
 73
     1
 74
     1
 75
     0
 76
     0
 77
     0
 78
     0
281
     0
 65
     1
110
0.0
120
0.0
130
0.0
111
1.0
121
0.0
131
0.0
112
0.0
122
1.0
132
0.0
 79
     0
146
0.0
  0
ENDTAB
  0
TABLE
  2
LTYPE
  5
D
330
0
100
AcDbSymbolTable
 70
     2
  0
LTYPE
  5
E
330
D
100
AcDbSymbolTableRecord
100
AcDbLinetypeTableRecord
  2
BYBLOCK
 70
     0
  3

 72
    65
 73
     0
 40
0.0
  0
LTYPE
  5
F
330
D
100
AcDbSymbolTableRecord
100
AcDbLinetypeTableRecord
  2
BYLAYER
 70
     0
  3

 72
    65
 73
     0
 40
0.0
  0
LTYPE
  5
5
330
D
100
AcDbSymbolTableRecord
100
AcDbLinetypeTableRecord
  2
CONTINUOUS
 70
     0
  3
Solid line
 72
    65
 73
     0
 40
0.0
  0
LTYPE
  5
4890
330
D
100
AcDbSymbolTableRecord
100
AcDbLinetypeTableRecord
  2
DASHED
 70
     0
  3
Dashed __ __ __ __ __ __ __ __ __ __ __ __ __ _
 72
    65
 73
     2
 40
0.75
 49
0.5
 74
     0
 49
-0.25
 74
     0
  0
ENDTAB
  0
TABLE
  2
LAYER
  5
A
102
{ACAD_XDICTIONARY
360
1B4
102
}
330
0
100
AcDbSymbolTable
 70
     6
  0
LAYER
  5
4
330
A
100
AcDbSymbolTableRecord
100
AcDbLayerTableRecord
  2
0
 70
     0
 62
     7
  6
CONTINUOUS
370
    -3
390
57
  0
LAYER
  5
25
330
A
100
AcDbSymbolTableRecord
100
AcDbLayerTableRecord
  2
KIJUN
 70
     0
 62
     7
  6
CONTINUOUS
370
    -3
390
57
  0
LAYER
  5
22
330
A
100
AcDbSymbolTableRecord
100
AcDbLayerTableRecord
  2
HOJO
 70
     0
 62
     3
  6
CONTINUOUS
370
    -3
390
57
  0
LAYER
  5
1B
330
A
100
AcDbSymbolTableRecord
100
AcDbLayerTableRecord
  2
WAKU
 70
     0
 62
     1
  6
CONTINUOUS
370
    -3
390
57
  0
LAYER
  5
31
330
A
100
AcDbSymbolTableRecord
100
AcDbLayerTableRecord
  2
DEFPOINTS
 70
     0
 62
     7
  6
CONTINUOUS
290
     0
370
    -3
390
57
  0
LAYER
  5
28
330
A
100
AcDbSymbolTableRecord
100
AcDbLayerTableRecord
  2
SUNPOU
 70
     0
 62
    70
  6
CONTINUOUS
370
    -3
390
57
  0
ENDTAB
  0
TABLE
  2
STYLE
  5
B
330
0
100
AcDbSymbolTable
 70
     2
  0
STYLE
  5
C
330
B
100
AcDbSymbolTableRecord
100
AcDbTextStyleTableRecord
  2
STANDARD
 70
     0
 40
0.0
 41
1.0
 50
0.0
 71
     0
 42
0.2
  3
txt
  4

  0
STYLE
  5
1C
330
B
100
AcDbSymbolTableRecord
100
AcDbTextStyleTableRecord
  2
SUNPOU
 70
     0
 40
0.0
 41
1.0
 50
0.0
 71
     0
 42
30.0
  3
txt
  4
bigfont
  0
ENDTAB
  0
TABLE
  2
VIEW
  5
10
330
0
100
AcDbSymbolTable
 70
     0
  0
ENDTAB
  0
TABLE
  2
UCS
  5
11
330
0
100
AcDbSymbolTable
 70
     0
  0
ENDTAB
  0
TABLE
  2
APPID
  5
14
330
0
100
AcDbSymbolTable
 70
    11
  0
APPID
  5
15
330
14
100
AcDbSymbolTableRecord
100
AcDbRegAppTableRecord
  2
ACAD
 70
     0
  0
APPID
  5
1D3
330
14
100
AcDbSymbolTableRecord
100
AcDbRegAppTableRecord
  2
ACAD_DSTYLE_DIMTEXT_FILL
 70
     0
  0
APPID
  5
1D4
330
14
100
AcDbSymbolTableRecord
100
AcDbRegAppTableRecord
  2
ACAD_DSTYLE_DIMEXT_LENGTH
 70
     0
  0
APPID
  5
1D5
330
14
100
AcDbSymbolTableRecord
100
AcDbRegAppTableRecord
  2
ACAD_DSTYLE_DIMEXT_ENABLED
 70
     0
  0
APPID
  5
1D6
330
14
100
AcDbSymbolTableRecord
100
AcDbRegAppTableRecord
  2
ACAD_DSTYLE_DIM_LINETYPE
 70
     0
  0
APPID
  5
1D7
330
14
100
AcDbSymbolTableRecord
100
AcDbRegAppTableRecord
  2
ACAD_DSTYLE_DIM_EXT1_LINETYPE
 70
     0
  0
APPID
  5
1D8
330
14
100
AcDbSymbolTableRecord
100
AcDbRegAppTableRecord
  2
ACAD_DSTYLE_DIM_EXT2_LINETYPE
 70
     0
  0
APPID
  5
294
330
14
100
AcDbSymbolTableRecord
100
AcDbRegAppTableRecord
  2
ACAD_DSTYLE_DIMJOGGED_JOGANGLE_SYMBOL
 70
     0
  0
APPID
  5
478
330
14
100
AcDbSymbolTableRecord
100
AcDbRegAppTableRecord
  2
ACAD_DSTYLE_DIMARC_LENGTH_SYMBOL
 70
     0
  0
APPID
  5
F55
330
14
100
AcDbSymbolTableRecord
100
AcDbRegAppTableRecord
  2
ACAD_EXEMPT_FROM_CAD_STANDARDS
 70
     0
  0
APPID
  5
3D72
330
14
100
AcDbSymbolTableRecord
100
AcDbRegAppTableRecord
  2
ACAD_PSEXT
 70
     0
  0
ENDTAB
  0
TABLE
  2
DIMSTYLE
  5
16
330
0
100
AcDbSymbolTable
 70
     1
100
AcDbDimStyleTable
 71
     1
340
1E
  0
DIMSTYLE
105
1E
102
{ACAD_REACTORS
330
5186
330
5187
330
5188
330
5189
102
}
330
16
100
AcDbSymbolTableRecord
100
AcDbDimStyleTableRecord
  2
STANDARD
 70
     0
340
C
  0
ENDTAB
  0
TABLE
  2
BLOCK_RECORD
  5
1
330
0
100
AcDbSymbolTable
 70
     6
  0
BLOCK_RECORD
  5
2
102
{ACAD_XDICTIONARY
360
D13
102
}
330
1
100
AcDbSymbolTableRecord
100
AcDbBlockTableRecord
  2
*MODEL_SPACE
340
5A
  0
BLOCK_RECORD
  5
7
330
1
100
AcDbSymbolTableRecord
100
AcDbBlockTableRecord
  2
*PAPER_SPACE
340
5B
  0
BLOCK_RECORD
  5
109
330
1
100
AcDbSymbolTableRecord
100
AcDbBlockTableRecord
  2
_Dot
340
0
102
{BLKREFS
331
5274
331
5275
331
527D
331
527E
331
5286
331
5287
331
528F
331
5290
102
}
  0
BLOCK_RECORD
  5
521C
330
1
100
AcDbSymbolTableRecord
100
AcDbBlockTableRecord
  2
*D1
340
0
  0
BLOCK_RECORD
  5
5228
330
1
100
AcDbSymbolTableRecord
100
AcDbBlockTableRecord
  2
*D2
340
0
  0
BLOCK_RECORD
  5
5234
330
1
100
AcDbSymbolTableRecord
100
AcDbBlockTableRecord
  2
*D3
340
0
  0
BLOCK_RECORD
  5
5240
330
1
100
AcDbSymbolTableRecord
100
AcDbBlockTableRecord
  2
*D4
340
0
  0
ENDTAB
  0
ENDSEC
  0
SECTION
  2
BLOCKS
  0
BLOCK
  5
3
330
2
100
AcDbEntity
  8
0
100
AcDbBlockBegin
  2
*MODEL_SPACE
 70
     0
 10
0.0
 20
0.0
 30
0.0
  3
*MODEL_SPACE
  1

  0
ENDBLK
  5
6
330
2
100
AcDbEntity
  8
0
100
AcDbBlockEnd
  0
BLOCK
  5
8
330
7
100
AcDbEntity
 67
     1
  8
0
100
AcDbBlockBegin
  2
*PAPER_SPACE
 70
     0
 10
0.0
 20
0.0
 30
0.0
  3
*PAPER_SPACE
  1

  0
ENDBLK
  5
9
330
7
100
AcDbEntity
 67
     1
  8
0
100
AcDbBlockEnd
  0
BLOCK
  5
10C
330
109
100
AcDbEntity
  8
0
100
AcDbBlockBegin
  2
_Dot
 70
     0
 10
0.0
 20
0.0
 30
0.0
  3
_Dot
  1

  0
LWPOLYLINE
  5
10A
330
109
100
AcDbEntity
  8
0
  6
ByBlock
 62
     0
100
AcDbPolyline
 90
        2
 70
     1
 43
0.5
 10
-0.25
 20
0.0
 42
1.0
 10
0.25
 20
0.0
 42
1.0
  0
LINE
  5
10B
330
109
100
AcDbEntity
  8
0
  6
ByBlock
 62
     0
370
    -2
100
AcDbLine
 10
-0.5
 20
0.0
 30
0.0
 11
-1.0
 21
0.0
 31
0.0
  0
ENDBLK
  5
10D
330
109
100
AcDbEntity
  8
0
100
AcDbBlockEnd
  0
BLOCK
  5
5226
330
521C
100
AcDbEntity
  8
0
100
AcDbBlockBegin
  2
*D1
 70
     1
 10
0.0
 20
0.0
 30
0.0
  3
*D1
  1

  0
LINE
  5
5271
330
521C
100
AcDbEntity
  8
SUNPOU
 62
    70
370
    -2
100
AcDbLine
 10
272.8024007640258
 20
67.63518710396102
 30
0.0
 11
272.8024007640258
 21
43.99364229030971
 31
0.0
  0
LINE
  5
5272
330
521C
100
AcDbEntity
  8
SUNPOU
 62
    70
370
    -2
100
AcDbLine
 10
-27.19759923597383
 20
67.63518710396102
 30
0.0
 11
-27.19759923597383
 21
43.99364229030971
 31
0.0
  0
LINE
  5
5273
330
521C
100
AcDbEntity
  8
SUNPOU
 62
    60
370
    -2
100
AcDbLine
 10
270.8024007640258
 20
43.99364229030971
 30
0.0
 11
-25.19759923597383
 21
43.99364229030971
 31
0.0
  0
INSERT
  5
5274
330
521C
100
AcDbEntity
  8
SUNPOU
 62
    60
370
    -2
100
AcDbBlockReference
  2
_Dot
 10
272.8024007640258
 20
43.99364229030971
 30
0.0
 41
2.0
 42
2.0
 43
2.0
  0
INSERT
  5
5275
330
521C
100
AcDbEntity
  8
SUNPOU
 62
    60
370
    -2
100
AcDbBlockReference
  2
_Dot
 10
-27.19759923597383
 20
43.99364229030971
 30
0.0
 41
2.0
 42
2.0
 43
2.0
 50
180.0
  0
MTEXT
  5
5276
330
521C
100
AcDbEntity
  8
SUNPOU
 62
    60
100
AcDbMText
 10
122.802400764026
 20
49.49364229030971
 30
0.0
 40
5.0
 41
0.0
 71
     5
 72
     1
  1
\A1;300
  7
SUNPOU
 73
     1
 44
1.0
  0
POINT
  5
5277
330
521C
100
AcDbEntity
  8
DEFPOINTS
 62
     0
100
AcDbPoint
 10
272.8024007640258
 20
77.63518710396102
 30
0.0
  0
POINT
  5
5278
330
521C
100
AcDbEntity
  8
DEFPOINTS
 62
     0
100
AcDbPoint
 10
-27.19759923597383
 20
77.63518710396102
 30
0.0
  0
POINT
  5
5279
330
521C
100
AcDbEntity
  8
DEFPOINTS
 62
     0
100
AcDbPoint
 10
-27.19759923597383
 20
43.99364229030971
 30
0.0
  0
ENDBLK
  5
5227
330
521C
100
AcDbEntity
  8
0
100
AcDbBlockEnd
  0
BLOCK
  5
5232
330
5228
100
AcDbEntity
  8
0
100
AcDbBlockBegin
  2
*D2
 70
     1
 10
0.0
 20
0.0
 30
0.0
  3
*D2
  1

  0
LINE
  5
527A
330
5228
100
AcDbEntity
  8
SUNPOU
 62
    70
370
    -2
100
AcDbLine
 10
-37.19759923597383
 20
77.63518710396103
 30
0.0
 11
-71.05852380458628
 21
77.63518710396103
 31
0.0
  0
LINE
  5
527B
330
5228
100
AcDbEntity
  8
SUNPOU
 62
    70
370
    -2
100
AcDbLine
 10
17.50828311712968
 20
347.635187103961
 30
0.0
 11
-71.05852380458625
 21
347.635187103961
 31
0.0
  0
LINE
  5
527C
330
5228
100
AcDbEntity
  8
SUNPOU
 62
    60
370
    -2
100
AcDbLine
 10
-71.05852380458628
 20
79.63518710396103
 30
0.0
 11
-71.05852380458623
 21
345.635187103961
 31
0.0
  0
INSERT
  5
527D
330
5228
100
AcDbEntity
  8
SUNPOU
 62
    60
370
    -2
100
AcDbBlockReference
  2
_Dot
 10
-71.05852380458628
 20
77.63518710396103
 30
0.0
 41
2.0
 42
2.0
 43
2.0
 50
270.0
  0
INSERT
  5
527E
330
5228
100
AcDbEntity
  8
SUNPOU
 62
    60
370
    -2
100
AcDbBlockReference
  2
_Dot
 10
-71.05852380458623
 20
347.635187103961
 30
0.0
 41
2.0
 42
2.0
 43
2.0
 50
90.0
  0
MTEXT
  5
527F
330
5228
100
AcDbEntity
  8
SUNPOU
 62
    60
100
AcDbMText
 10
-76.55852380458629
 20
212.635187103961
 30
0.0
 40
5.0
 41
0.0
 71
     5
 72
     1
  1
\A1;270
  7
SUNPOU
 11
0.0000000000000001
 21
1.0
 31
0.0
 73
     1
 44
1.0
  0
POINT
  5
5280
330
5228
100
AcDbEntity
  8
DEFPOINTS
 62
     0
100
AcDbPoint
 10
-27.19759923597383
 20
77.63518710396102
 30
0.0
  0
POINT
  5
5281
330
5228
100
AcDbEntity
  8
DEFPOINTS
 62
     0
100
AcDbPoint
 10
27.50828311712968
 20
347.635187103961
 30
0.0
  0
POINT
  5
5282
330
5228
100
AcDbEntity
  8
DEFPOINTS
 62
     0
100
AcDbPoint
 10
-71.05852380458623
 20
347.635187103961
 30
0.0
  0
ENDBLK
  5
5233
330
5228
100
AcDbEntity
  8
0
100
AcDbBlockEnd
  0
BLOCK
  5
523E
330
5234
100
AcDbEntity
  8
0
100
AcDbBlockBegin
  2
*D3
 70
     1
 10
0.0
 20
0.0
 30
0.0
  3
*D3
  1

  0
LINE
  5
5283
330
5234
100
AcDbEntity
  8
SUNPOU
 62
    70
370
    -2
100
AcDbLine
 10
17.50828311712968
 20
347.635187103961
 30
0.0
 11
-71.05852380458613
 21
347.635187103961
 31
0.0
  0
LINE
  5
5284
330
5234
100
AcDbEntity
  8
SUNPOU
 62
    70
370
    -2
100
AcDbLine
 10
42.80240076402606
 20
382.635187103961
 30
0.0
 11
-71.05852380458611
 21
382.635187103961
 31
0.0
  0
LINE
  5
5285
330
5234
100
AcDbEntity
  8
SUNPOU
 62
    60
370
    -2
100
AcDbLine
 10
-71.05852380458613
 20
349.635187103961
 30
0.0
 11
-71.05852380458611
 21
380.635187103961
 31
0.0
  0
INSERT
  5
5286
330
5234
100
AcDbEntity
  8
SUNPOU
 62
    60
370
    -2
100
AcDbBlockReference
  2
_Dot
 10
-71.05852380458613
 20
347.635187103961
 30
0.0
 41
2.0
 42
2.0
 43
2.0
 50
270.0
  0
INSERT
  5
5287
330
5234
100
AcDbEntity
  8
SUNPOU
 62
    60
370
    -2
100
AcDbBlockReference
  2
_Dot
 10
-71.05852380458611
 20
382.635187103961
 30
0.0
 41
2.0
 42
2.0
 43
2.0
 50
90.0
  0
MTEXT
  5
5288
330
5234
100
AcDbEntity
  8
SUNPOU
 62
    60
100
AcDbMText
 10
-76.55852380458617
 20
365.135187103961
 30
0.0
 40
5.0
 41
0.0
 71
     5
 72
     1
  1
\A1;35
  7
SUNPOU
 11
0.0000000000000001
 21
1.0
 31
0.0
 73
     1
 44
1.0
  0
POINT
  5
5289
330
5234
100
AcDbEntity
  8
DEFPOINTS
 62
     0
100
AcDbPoint
 10
27.50828311712968
 20
347.635187103961
 30
0.0
  0
POINT
  5
528A
330
5234
100
AcDbEntity
  8
DEFPOINTS
 62
     0
100
AcDbPoint
 10
52.80240076402606
 20
382.635187103961
 30
0.0
  0
POINT
  5
528B
330
5234
100
AcDbEntity
  8
DEFPOINTS
 62
     0
100
AcDbPoint
 10
-71.05852380458611
 20
382.635187103961
 30
0.0
  0
ENDBLK
  5
523F
330
5234
100
AcDbEntity
  8
0
100
AcDbBlockEnd
  0
BLOCK
  5
524A
330
5240
100
AcDbEntity
  8
0
100
AcDbBlockBegin
  2
*D4
 70
     1
 10
0.0
 20
0.0
 30
0.0
  3
*D4
  1

  0
LINE
  5
528C
330
5240
100
AcDbEntity
  8
SUNPOU
 62
    70
370
    -2
100
AcDbLine
 10
52.80240076402606
 20
392.635187103961
 30
0.0
 11
52.80240076402606
 21
417.2835676326508
 31
0.0
  0
LINE
  5
528D
330
5240
100
AcDbEntity
  8
SUNPOU
 62
    70
370
    -2
100
AcDbLine
 10
192.802400764026
 20
392.635187103961
 30
0.0
 11
192.802400764026
 21
417.2835676326508
 31
0.0
  0
LINE
  5
528E
330
5240
100
AcDbEntity
  8
SUNPOU
 62
    60
370
    -2
100
AcDbLine
 10
54.80240076402606
 20
417.2835676326508
 30
0.0
 11
190.802400764026
 21
417.2835676326508
 31
0.0
  0
INSERT
  5
528F
330
5240
100
AcDbEntity
  8
SUNPOU
 62
    60
370
    -2
100
AcDbBlockReference
  2
_Dot
 10
52.80240076402606
 20
417.2835676326508
 30
0.0
 41
2.0
 42
2.0
 43
2.0
 50
180.0
  0
INSERT
  5
5290
330
5240
100
AcDbEntity
  8
SUNPOU
 62
    60
370
    -2
100
AcDbBlockReference
  2
_Dot
 10
192.802400764026
 20
417.2835676326508
 30
0.0
 41
2.0
 42
2.0
 43
2.0
  0
MTEXT
  5
5291
330
5240
100
AcDbEntity
  8
SUNPOU
 62
    60
100
AcDbMText
 10
122.802400764026
 20
422.7835676326508
 30
0.0
 40
5.0
 41
0.0
 71
     5
 72
     1
  1
\A1;φ140
  7
SUNPOU
 73
     1
 44
1.0
  0
POINT
  5
5292
330
5240
100
AcDbEntity
  8
DEFPOINTS
 62
     0
100
AcDbPoint
 10
52.80240076402606
 20
382.635187103961
 30
0.0
  0
POINT
  5
5293
330
5240
100
AcDbEntity
  8
DEFPOINTS
 62
     0
100
AcDbPoint
 10
192.802400764026
 20
382.635187103961
 30
0.0
  0
POINT
  5
5294
330
5240
100
AcDbEntity
  8
DEFPOINTS
 62
     0
100
AcDbPoint
 10
192.802400764026
 20
417.2835676326508
 30
0.0
  0
ENDBLK
  5
524B
330
5240
100
AcDbEntity
  8
0
100
AcDbBlockEnd
  0
ENDSEC
  0
SECTION
  2
ENTITIES
  0
LINE
  5
5182
330
2
100
AcDbEntity
  8
WAKU
100
AcDbLine
 10
0.0
 20
21.0
 30
0.0
 11
237.3614398378393
 21
21.0
 31
0.0
  0
LINE
  5
5183
330
2
100
AcDbEntity
  8
WAKU
100
AcDbLine
 10
0.0
 20
0.0
 30
0.0
 11
237.3614398378393
 21
0.0
 31
0.0
  0
TEXT
  5
5184
330
2
100
AcDbEntity
  8
HOJO
100
AcDbText
 10
14.48094900000001
 20
3.549938999999994
 30
0.0
 40
13.5
  1
ML930(3)
  7
SUNPOU
100
AcDbText
  0
TEXT
  5
5185
330
2
100
AcDbEntity
  8
HOJO
100
AcDbText
 10
124.4167871859401
 20
7.566578999999819
 30
0.0
 40
9.0
  1
270×300×300
  7
SUNPOU
100
AcDbText
  0
DIMENSION
  5
5186
330
2
100
AcDbEntity
  8
SUNPOU
100
AcDbDimension
  2
*D1
 10
-27.19759923597383
 20
43.99364229030971
 30
0.0
 11
122.802400764026
 21
49.49364229030971
 31
0.0
 70
    32
 71
     5
 42
299.9999999999996
  3
STANDARD
100
AcDbAlignedDimension
 13
272.8024007640258
 23
77.63518710396102
 33
0.0
 14
-27.19759923597383
 24
77.63518710396102
 34
0.0
 50
180.0
100
AcDbRotatedDimension
1001
ACAD
1000
DSTYLE
1002
{
1070
    41
1040
2.0
1070
    42
1040
10.0
1070
    44
1040
0.0
1070
    73
1070
     0
1070
    74
1070
     0
1070
    77
1070
     1
1070
   140
1040
5.0
1070
   141
1040
0.0
1070
   146
1040
0.064286
1070
   147
1040
3.0
1070
   176
1070
    60
1070
   177
1070
    70
1070
   178
1070
    60
1070
   271
1070
     0
1070
   272
1070
     0
1070
   340
1005
1C
1070
   342
1005
109
1002
}
  0
DIMENSION
  5
5187
330
2
100
AcDbEntity
  8
SUNPOU
100
AcDbDimension
  2
*D2
 10
-71.05852380458623
 20
347.635187103961
 30
0.0
 11
-76.55852380458629
 21
212.635187103961
 31
0.0
 70
    32
 71
     5
 42
270.0
  3
STANDARD
100
AcDbAlignedDimension
 13
-27.19759923597383
 23
77.63518710396102
 33
0.0
 14
27.50828311712968
 24
347.635187103961
 34
0.0
 50
270.0
100
AcDbRotatedDimension
1001
ACAD
1000
DSTYLE
1002
{
1070
    41
1040
2.0
1070
    42
1040
10.0
1070
    44
1040
0.0
1070
    73
1070
     0
1070
    74
1070
     0
1070
    77
1070
     1
1070
   140
1040
5.0
1070
   141
1040
0.0
1070
   146
1040
0.064286
1070
   147
1040
3.0
1070
   176
1070
    60
1070
   177
1070
    70
1070
   178
1070
    60
1070
   271
1070
     0
1070
   272
1070
     0
1070
   340
1005
1C
1070
   342
1005
109
1002
}
  0
DIMENSION
  5
5188
330
2
100
AcDbEntity
  8
SUNPOU
100
AcDbDimension
  2
*D3
 10
-71.05852380458611
 20
382.635187103961
 30
0.0
 11
-76.55852380458617
 21
365.135187103961
 31
0.0
 70
    32
 71
     5
 42
35.0
  3
STANDARD
100
AcDbAlignedDimension
 13
27.50828311712968
 23
347.635187103961
 33
0.0
 14
52.80240076402606
 24
382.635187103961
 34
0.0
 50
270.0
100
AcDbRotatedDimension
1001
ACAD
1000
DSTYLE
1002
{
1070
    41
1040
2.0
1070
    42
1040
10.0
1070
    44
1040
0.0
1070
    73
1070
     0
1070
    74
1070
     0
1070
    77
1070
     1
1070
   140
1040
5.0
1070
   141
1040
0.0
1070
   146
1040
0.064286
1070
   147
1040
3.0
1070
   176
1070
    60
1070
   177
1070
    70
1070
   178
1070
    60
1070
   271
1070
     0
1070
   272
1070
     0
1070
   340
1005
1C
1070
   342
1005
109
1002
}
  0
DIMENSION
  5
5189
330
2
100
AcDbEntity
  8
SUNPOU
100
AcDbDimension
  2
*D4
 10
192.802400764026
 20
417.2835676326508
 30
0.0
 11
122.802400764026
 21
422.7835676326508
 31
0.0
 70
    32
  1
φ140
 71
     5
 42
140.0
  3
STANDARD
100
AcDbAlignedDimension
 13
52.80240076402606
 23
382.635187103961
 33
0.0
 14
192.802400764026
 24
382.635187103961
 34
0.0
100
AcDbRotatedDimension
1001
ACAD
1000
DSTYLE
1002
{
1070
    41
1040
2.0
1070
    42
1040
10.0
1070
    44
1040
0.0
1070
    73
1070
     0
1070
    74
1070
     0
1070
    77
1070
     1
1070
   140
1040
5.0
1070
   141
1040
0.0
1070
   146
1040
0.064286
1070
   147
1040
3.0
1070
   176
1070
    60
1070
   177
1070
    70
1070
   178
1070
    60
1070
   271
1070
     0
1070
   272
1070
     0
1070
   340
1005
1C
1070
   342
1005
109
1002
}
  0
LINE
  5
518A
102
{ACAD_REACTORS
330
5270
102
}
330
2
100
AcDbEntity
  8
KIJUN
100
AcDbLine
 10
-27.19759923597383
 20
77.63518710396102
 30
0.0
 11
272.8024007640258
 21
77.63518710396102
 31
0.0
  0
LINE
  5
518B
102
{ACAD_REACTORS
330
5270
102
}
330
2
100
AcDbEntity
  8
KIJUN
100
AcDbLine
 10
-27.19759923597383
 20
77.63518710396102
 30
0.0
 11
-27.19759923597377
 21
172.6351871039615
 31
0.0
  0
LINE
  5
518C
102
{ACAD_REACTORS
330
5270
102
}
330
2
100
AcDbEntity
  8
KIJUN
100
AcDbLine
 10
27.50828311712968
 20
347.635187103961
 30
0.0
 11
218.0965184109225
 21
347.635187103961
 31
0.0
  0
LINE
  5
518D
102
{ACAD_REACTORS
330
5270
102
}
330
2
100
AcDbEntity
  8
KIJUN
  6
DASHED
100
AcDbLine
 10
52.80240076402606
 20
382.635187103961
 30
0.0
 11
192.802400764026
 21
382.635187103961
 31
0.0
  0
LINE
  5
518E
102
{ACAD_REACTORS
330
5270
102
}
330
2
100
AcDbEntity
  8
KIJUN
  6
DASHED
100
AcDbLine
 10
52.80240076402606
 20
347.635187103961
 30
0.0
 11
52.80240076402606
 21
382.635187103961
 31
0.0
  0
LINE
  5
518F
102
{ACAD_REACTORS
330
5270
102
}
330
2
100
AcDbEntity
  8
KIJUN
100
AcDbLine
 10
-16.19759923598531
 20
182.6270766860539
 30
0.0
 11
261.8024007640258
 21
182.6270766860552
 31
0.0
  0
LINE
  5
5190
102
{ACAD_REACTORS
330
5270
102
}
330
2
100
AcDbEntity
  8
KIJUN
100
AcDbLine
 10
-16.19759923597388
 20
180.1351871039619
 30
0.0
 11
261.8024007640258
 21
180.1351871039596
 31
0.0
  0
LINE
  5
5191
102
{ACAD_REACTORS
330
5270
102
}
330
2
100
AcDbEntity
  8
KIJUN
100
AcDbLine
 10
-27.19759923597377
 20
172.6351871039615
 30
0.0
 11
272.8024007640258
 21
172.6351871039615
 31
0.0
  0
LINE
  5
5192
102
{ACAD_REACTORS
330
5270
102
}
330
2
100
AcDbEntity
  8
KIJUN
100
AcDbLine
 10
-16.19759923597388
 20
180.1351871039619
 30
0.0
 11
-16.19759923597382
 21
182.6270766860539
 31
0.0
  0
LINE
  5
5193
102
{ACAD_REACTORS
330
5270
102
}
330
2
100
AcDbEntity
  8
KIJUN
100
AcDbLine
 10
27.5082831171269
 20
329.6351871039906
 30
0.0
 11
218.0965184109642
 21
329.6351871039901
 31
0.0
  0
LINE
  5
5194
102
{ACAD_REACTORS
330
5270
102
}
330
2
100
AcDbEntity
  8
KIJUN
100
AcDbLine
 10
7.802400764026003
 20
237.635187103991
 30
0.0
 11
237.8024007640261
 21
237.635187103991
 31
0.0
  0
ARC
  5
5195
102
{ACAD_REACTORS
330
5270
102
}
330
2
100
AcDbEntity
  8
KIJUN
100
AcDbCircle
 10
33.64574124734327
 20
339.259387113902
 30
0.0
 40
11.41462299556745
100
AcDbArc
 50
164.483646814118
 51
237.4738945970918
  0
ARC
  5
5196
102
{ACAD_REACTORS
330
5270
102
}
330
2
100
AcDbEntity
  8
KIJUN
100
AcDbCircle
 10
30.9455231307727
 20
339.6146067883246
 30
0.0
 40
8.726071711313899
100
AcDbArc
 50
113.1976758858045
 51
161.9872928345816
  0
LINE
  5
5197
102
{ACAD_REACTORS
330
5270
102
}
330
2
100
AcDbEntity
  8
KIJUN
100
AcDbLine
 10
3.802400764038907
 20
230.6351871039906
 30
0.0
 11
241.8024007640767
 21
230.635187103991
 31
0.0
  0
ARC
  5
5198
102
{ACAD_REACTORS
330
5270
102
}
330
2
100
AcDbEntity
  8
KIJUN
100
AcDbCircle
 10
147.2801588059795
 20
-92.67989461086608
 30
0.0
 40
350.2220677903621
100
AcDbArc
 50
114.8554325148583
 51
117.6186982491865
  0
ARC
  5
5199
102
{ACAD_REACTORS
330
5270
102
}
330
2
100
AcDbEntity
  8
KIJUN
100
AcDbCircle
 10
-8.892636505573932
 20
199.4112710387417
 30
0.0
 40
18.30496273039984
100
AcDbArc
 50
109.7480907664988
 51
246.4799431677094
  0
ARC
  5
519A
102
{ACAD_REACTORS
330
5270
102
}
330
2
100
AcDbEntity
  8
KIJUN
100
AcDbCircle
 10
-2.744746277141416
 20
231.0249779654332
 30
0.0
 40
6.558740069139139
100
AcDbArc
 50
295.4264944285266
 51
356.5928609881414
  0
ARC
  5
519B
102
{ACAD_REACTORS
330
5270
102
}
330
2
100
AcDbEntity
  8
KIJUN
100
AcDbCircle
 10
122.8024007637452
 20
366.1935994263095
 30
0.0
 40
126.4709400106253
100
AcDbArc
 50
263.1884391582286
 51
276.8115608420239
  0
ARC
  5
519C
102
{ACAD_REACTORS
330
5270
102
}
330
2
100
AcDbEntity
  8
KIJUN
100
AcDbCircle
 10
1014.756729969034
 20
127.8806835819032
 30
0.0
 40
913.9339464841814
100
AcDbArc
 50
167.4088751289181
 51
172.9144624054509
  0
ARC
  5
519D
102
{ACAD_REACTORS
330
5270
102
}
330
2
100
AcDbEntity
  8
KIJUN
100
AcDbCircle
 10
79.88165782610167
 20
255.1230310008518
 30
0.0
 40
71.92582416979511
100
AcDbArc
 50
64.70957943866977
 51
113.6666043841473
  0
ARC
  5
519E
102
{ACAD_REACTORS
330
5270
102
}
330
2
100
AcDbEntity
  8
KIJUN
100
AcDbCircle
 10
60.33508977098882
 20
307.6582141153967
 30
0.0
 40
25.31040180519391
100
AcDbArc
 50
128.2895412490369
 51
185.1535577021975
  0
ARC
  5
519F
102
{ACAD_REACTORS
330
5270
102
}
330
2
100
AcDbEntity
  8
KIJUN
100
AcDbCircle
 10
79.88428473341162
 20
514.8597141674408
 30
0.0
 40
275.6617432888587
100
AcDbArc
 50
263.5877718509453
 51
275.8126941836273
  0
ARC
  5
51A0
102
{ACAD_REACTORS
330
5270
102
}
330
2
100
AcDbEntity
  8
KIJUN
100
AcDbCircle
 10
43.40412676540575
 20
258.0569498270224
 30
0.0
 40
18.05578408477608
100
AcDbArc
 50
223.4830304355003
 51
288.3822167774388
  0
ARC
  5
51A1
102
{ACAD_REACTORS
330
5270
102
}
330
2
100
AcDbEntity
  8
KIJUN
100
AcDbCircle
 10
125.6821683464586
 20
307.8975406946947
 30
0.0
 40
19.42810969184479
100
AcDbArc
 50
98.52418412223194
 51
203.1297966898495
  0
ARC
  5
51A2
102
{ACAD_REACTORS
330
5270
102
}
330
2
100
AcDbEntity
  8
KIJUN
100
AcDbCircle
 10
97.90399890965716
 20
295.3129044176026
 30
0.0
 40
11.08037055958418
100
AcDbArc
 50
26.55165622959819
 51
112.6988823737038
  0
ARC
  5
51A3
102
{ACAD_REACTORS
330
5270
102
}
330
2
100
AcDbEntity
  8
KIJUN
100
AcDbCircle
 10
120.9440130718246
 20
300.6104070885717
 30
0.0
 40
27.75616823252302
100
AcDbArc
 50
169.7801773003998
 51
220.3219796334943
  0
ARC
  5
51A4
102
{ACAD_REACTORS
330
5270
102
}
330
2
100
AcDbEntity
  8
KIJUN
100
AcDbCircle
 10
86.56755151366713
 20
264.3299308290689
 30
0.0
 40
22.58863083485946
100
AcDbArc
 50
54.19622667622434
 51
94.53178197945804
  0
ARC
  5
51A5
102
{ACAD_REACTORS
330
5270
102
}
330
2
100
AcDbEntity
  8
KIJUN
100
AcDbCircle
 10
101.1769129254044
 20
278.3088880045129
 30
0.0
 40
18.48467300232316
100
AcDbArc
 50
152.4867838925269
 51
220.5101825311194
  0
CIRCLE
  5
51A6
102
{ACAD_REACTORS
330
5270
102
}
330
2
100
AcDbEntity
  8
KIJUN
100
AcDbCircle
 10
73.30829852818022
 20
251.7123347064953
 30
0.0
 40
3.655787110107491
  0
ARC
  5
51A7
102
{ACAD_REACTORS
330
5270
102
}
330
2
100
AcDbEntity
  8
KIJUN
100
AcDbCircle
 10
86.18992075514325
 20
253.2940385520705
 30
0.0
 40
13.04095425666824
100
AcDbArc
 50
85.89614424226949
 51
170.8486261310197
  0
ARC
  5
51A8
102
{ACAD_REACTORS
330
5270
102
}
330
2
100
AcDbEntity
  8
KIJUN
100
AcDbCircle
 10
70.2395221067004
 20
272.8057798589903
 30
0.0
 40
40.12633327500267
100
AcDbArc
 50
5.094535488530834
 51
44.26173178923222
  0
ARC
  5
51A9
102
{ACAD_REACTORS
330
5270
102
}
330
2
100
AcDbEntity
  8
KIJUN
100
AcDbCircle
 10
58.82818231861495
 20
253.4487298601757
 30
0.0
 40
41.5565789278085
100
AcDbArc
 50
348.3351350983265
 51
44.03482692784812
  0
ARC
  5
51AA
102
{ACAD_REACTORS
330
5270
102
}
330
2
100
AcDbEntity
  8
KIJUN
100
AcDbCircle
 10
70.44720090936675
 20
247.8783443164157
 30
0.0
 40
15.77262370280279
100
AcDbArc
 50
0.1213532430273639
 51
42.68599571004684
  0
ARC
  5
51AB
102
{ACAD_REACTORS
330
5270
102
}
330
2
100
AcDbEntity
  8
KIJUN
100
AcDbCircle
 10
79.11656361531959
 20
256.8100416196012
 30
0.0
 40
12.41752455416925
100
AcDbArc
 50
355.2218964264091
 51
49.85047986626406
  0
ARC
  5
51AC
102
{ACAD_REACTORS
330
5270
102
}
330
2
100
AcDbEntity
  8
KIJUN
100
AcDbCircle
 10
-67.95133600493631
 20
313.3301026257291
 30
0.0
 40
113.9777408953455
100
AcDbArc
 50
342.2848511952849
 51
353.7035010106919
  0
ARC
  5
51AD
102
{ACAD_REACTORS
330
5270
102
}
330
2
100
AcDbEntity
  8
KIJUN
100
AcDbCircle
 10
-42.05369526050151
 20
311.9366654433329
 30
0.0
 40
88.09552086413175
100
AcDbArc
 50
352.75698542678
 51
10.19143887389558
  0
ARC
  5
51AE
102
{ACAD_REACTORS
330
5270
102
}
330
2
100
AcDbEntity
  8
KIJUN
100
AcDbCircle
 10
87.94035789907139
 20
269.4649147907699
 30
0.0
 40
48.20157179539539
100
AcDbArc
 50
169.0167279286893
 51
216.3095398602159
  0
ARC
  5
51AF
102
{ACAD_REACTORS
330
5270
102
}
330
2
100
AcDbEntity
  8
KIJUN
100
AcDbCircle
 10
36.63540509936752
 20
313.3525063207498
 30
0.0
 40
16.2818031280386
100
AcDbArc
 50
330.563572358354
 51
60.50440320348744
  0
ARC
  5
51B0
102
{ACAD_REACTORS
330
5270
102
}
330
2
100
AcDbEntity
  8
KIJUN
100
AcDbCircle
 10
56.840836002385
 20
298.865522562181
 30
0.0
 40
8.852404775055466
100
AcDbArc
 50
58.24343124943577
 51
132.8961745770208
  0
ARC
  5
51B1
102
{ACAD_REACTORS
330
5270
102
}
330
2
100
AcDbEntity
  8
KIJUN
100
AcDbCircle
 10
38.72116447321616
 20
303.5952690512345
 30
0.0
 40
22.94991855045257
100
AcDbArc
 50
309.4560086404261
 51
7.001232504733232
  0
ARC
  5
51B2
102
{ACAD_REACTORS
330
5270
102
}
330
2
100
AcDbEntity
  8
KIJUN
100
AcDbCircle
 10
48.81146773105434
 20
278.79557954651
 30
0.0
 40
19.17606751732713
100
AcDbArc
 50
320.5781471928493
 51
24.97305837572828
  0
ARC
  5
51B3
102
{ACAD_REACTORS
330
5270
102
}
330
2
100
AcDbEntity
  8
KIJUN
100
AcDbCircle
 10
61.94953964457681
 20
255.3770195996822
 30
0.0
 40
11.3654208433896
100
AcDbArc
 50
359.9551135939468
 51
81.52365181718057
  0
ARC
  5
51B4
102
{ACAD_REACTORS
330
5270
102
}
330
2
100
AcDbEntity
  8
KIJUN
100
AcDbCircle
 10
119.4507360978759
 20
244.433836356136
 30
0.0
 40
85.15341722581977
100
AcDbArc
 50
136.4276555966659
 51
150.4581666972081
  0
ARC
  5
51B5
102
{ACAD_REACTORS
330
5270
102
}
330
2
100
AcDbEntity
  8
KIJUN
100
AcDbCircle
 10
77.06720834335874
 20
258.2250307729064
 30
0.0
 40
27.49585486960937
100
AcDbArc
 50
120.956920737683
 51
203.5517074945861
  0
ARC
  5
51B6
102
{ACAD_REACTORS
330
5270
102
}
330
2
100
AcDbEntity
  8
KIJUN
100
AcDbCircle
 10
76.03247090462992
 20
252.6317024141544
 30
0.0
 40
11.38191706523877
100
AcDbArc
 50
153.9044828172805
 51
198.7007614149689
  0
ARC
  5
51B7
102
{ACAD_REACTORS
330
5270
102
}
330
2
100
AcDbEntity
  8
KIJUN
100
AcDbCircle
 10
70.16323327468683
 20
255.1633823189945
 30
0.0
 40
13.18961332275402
100
AcDbArc
 50
119.7175524300736
 51
183.2912900514601
  0
ARC
  5
51B8
102
{ACAD_REACTORS
330
5270
102
}
330
2
100
AcDbEntity
  8
KIJUN
100
AcDbCircle
 10
61.32741622082074
 20
266.3776014635382
 30
0.0
 40
21.08347745669551
100
AcDbArc
 50
76.65243631887836
 51
112.363617511497
  0
ARC
  5
51B9
102
{ACAD_REACTORS
330
5270
102
}
330
2
100
AcDbEntity
  8
KIJUN
100
AcDbCircle
 10
78.33635173347204
 20
261.6153628917177
 30
0.0
 40
50.62258263891932
100
AcDbArc
 50
148.8781258885236
 51
198.4051835163839
  0
ARC
  5
51BA
102
{ACAD_REACTORS
330
5270
102
}
330
2
100
AcDbEntity
  8
KIJUN
100
AcDbCircle
 10
-38.16666960761319
 20
326.592927865453
 30
0.0
 40
82.82376356687088
100
AcDbArc
 50
332.0553271910366
 51
0.6441672488065189
  0
ARC
  5
51BB
102
{ACAD_REACTORS
330
5270
102
}
330
2
100
AcDbEntity
  8
KIJUN
100
AcDbCircle
 10
27.99312213651274
 20
299.9662742293844
 30
0.0
 40
8.958326057726958
100
AcDbArc
 50
37.21790052112543
 51
99.91852452825201
  0
ARC
  5
51BC
102
{ACAD_REACTORS
330
5270
102
}
330
2
100
AcDbEntity
  8
KIJUN
100
AcDbCircle
 10
53.97130655418823
 20
298.5827009259129
 30
0.0
 40
29.35339372336522
100
AcDbArc
 50
159.649488124507
 51
206.5080022657481
  0
ARC
  5
51BD
102
{ACAD_REACTORS
330
5270
102
}
330
2
100
AcDbEntity
  8
KIJUN
100
AcDbCircle
 10
18.6071495154784
 20
272.836822272694
 30
0.0
 40
15.57688385349941
100
AcDbArc
 50
54.26886687514007
 51
98.32587766750343
  0
ARC
  5
51BE
102
{ACAD_REACTORS
330
5270
102
}
330
2
100
AcDbEntity
  8
KIJUN
100
AcDbCircle
 10
42.36394249381965
 20
280.6785634091948
 30
0.0
 40
27.09175511345618
100
AcDbArc
 50
163.7722239405355
 51
218.389408006235
  0
ARC
  5
51BF
102
{ACAD_REACTORS
330
5270
102
}
330
2
100
AcDbEntity
  8
KIJUN
100
AcDbCircle
 10
16.24499539140231
 20
257.9384404687935
 30
0.0
 40
7.671719676393352
100
AcDbArc
 50
50.4574820306002
 51
159.6602416321144
  0
ARC
  5
51C0
102
{ACAD_REACTORS
330
5270
102
}
330
2
100
AcDbEntity
  8
KIJUN
100
AcDbCircle
 10
13.81437112378342
 20
293.6049799503349
 30
0.0
 40
19.1509537242728
100
AcDbArc
 50
349.0423027189609
 51
35.07008234865181
  0
ARC
  5
51C1
102
{ACAD_REACTORS
330
5270
102
}
330
2
100
AcDbEntity
  8
KIJUN
100
AcDbCircle
 10
7.742507051407415
 20
267.8839448088111
 30
0.0
 40
19.3889358060683
100
AcDbArc
 50
353.0396033650772
 51
54.69630068239629
  0
ARC
  5
51C2
102
{ACAD_REACTORS
330
5270
102
}
330
2
100
AcDbEntity
  8
KIJUN
100
AcDbCircle
 10
1.475931812735552
 20
250.4602456982125
 30
0.0
 40
18.65762925754241
100
AcDbArc
 50
353.6601481306022
 51
30.21299378669568
  0
ARC
  5
51C3
102
{ACAD_REACTORS
330
5270
102
}
330
2
100
AcDbEntity
  8
KIJUN
100
AcDbCircle
 10
4.201821211584217
 20
251.8918587683192
 30
0.0
 40
20.72778533831595
100
AcDbArc
 50
0.8824341322284693
 51
35.24900065466718
  0
ARC
  5
51C4
102
{ACAD_REACTORS
330
5270
102
}
330
2
100
AcDbEntity
  8
KIJUN
100
AcDbCircle
 10
-264.312863888968
 20
541.7030055056261
 30
0.0
 40
360.7386054216866
100
AcDbArc
 50
316.6321078315033
 51
323.9939164445756
  0
ARC
  5
51C5
102
{ACAD_REACTORS
330
5270
102
}
330
2
100
AcDbEntity
  8
KIJUN
100
AcDbCircle
 10
23.09371174613659
 20
269.3567279874378
 30
0.0
 40
35.2147745636916
100
AcDbArc
 50
135.6097488481429
 51
244.2636933411829
  0
LINE
  5
51C6
102
{ACAD_REACTORS
330
5270
102
}
330
2
100
AcDbEntity
  8
KIJUN
  6
DASHED
100
AcDbLine
 10
192.8024007640259
 20
347.635187103961
 30
0.0
 11
192.8024007640259
 21
382.635187103961
 31
0.0
  0
ARC
  5
51C7
102
{ACAD_REACTORS
330
5270
102
}
330
2
100
AcDbEntity
  8
KIJUN
100
AcDbCircle
 10
211.9590602807087
 20
339.259387113902
 30
0.0
 40
11.41462299556745
100
AcDbArc
 50
302.5261054030552
 51
15.51635318588195
  0
ARC
  5
51C8
102
{ACAD_REACTORS
330
5270
102
}
330
2
100
AcDbEntity
  8
KIJUN
100
AcDbCircle
 10
214.6592783972793
 20
339.6146067883246
 30
0.0
 40
8.726071711313899
100
AcDbArc
 50
18.0127071654184
 51
66.80232411419549
  0
ARC
  5
51C9
102
{ACAD_REACTORS
330
5270
102
}
330
2
100
AcDbEntity
  8
KIJUN
100
AcDbCircle
 10
-13.54683032377056
 20
167.8042644093189
 30
0.0
 40
12.6126218657013
100
AcDbArc
 50
102.1321948641559
 51
157.4789473203853
  0
LINE
  5
51CA
102
{ACAD_REACTORS
330
5270
102
}
330
2
100
AcDbEntity
  8
KIJUN
100
AcDbLine
 10
7.802400764025946
 20
230.6351871039906
 30
0.0
 11
7.802400764026003
 21
237.635187103991
 31
0.0
  0
LINE
  5
51CB
102
{ACAD_REACTORS
330
5270
102
}
330
2
100
AcDbEntity
  8
KIJUN
100
AcDbLine
 10
-15.07761534628309
 20
217.635187103961
 30
0.0
 11
260.6824168743351
 21
217.6351871039606
 31
0.0
  0
LINE
  5
51CC
102
{ACAD_REACTORS
330
5270
102
}
330
2
100
AcDbEntity
  8
KIJUN
100
AcDbLine
 10
-15.07761534628309
 20
217.6351871039665
 30
0.0
 11
-15.07761534628309
 21
216.6396690287311
 31
0.0
  0
LINE
  5
51CD
102
{ACAD_REACTORS
330
5270
102
}
330
2
100
AcDbEntity
  8
KIJUN
100
AcDbLine
 10
-15.07761534628309
 20
216.6396690287311
 30
0.0
 11
260.6824168743351
 21
216.6396690287311
 31
0.0
  0
ARC
  5
51CE
102
{ACAD_REACTORS
330
5270
102
}
330
2
100
AcDbEntity
  8
KIJUN
100
AcDbCircle
 10
64.27580904466004
 20
246.6813936096482
 30
0.0
 40
77.62342375958782
100
AcDbArc
 50
134.5666514959021
 51
151.7124447705249
  0
ARC
  5
51CF
102
{ACAD_REACTORS
330
5270
102
}
330
2
100
AcDbEntity
  8
KIJUN
100
AcDbCircle
 10
-71.34184802559463
 20
373.5491087938144
 30
0.0
 40
108.1962606569933
100
AcDbArc
 50
318.5896703076413
 51
335.284299405912
  0
ARC
  5
51D0
102
{ACAD_REACTORS
330
5270
102
}
330
2
100
AcDbEntity
  8
KIJUN
100
AcDbCircle
 10
28.11410615492912
 20
268.964610082307
 30
0.0
 40
35.30776599144763
100
AcDbArc
 50
155.7487138348143
 51
223.2735724399018
  0
ARC
  5
51D1
102
{ACAD_REACTORS
330
5270
102
}
330
2
100
AcDbEntity
  8
KIJUN
100
AcDbCircle
 10
3.325853475043231
 20
327.2055128659717
 30
0.0
 40
23.64292980833642
100
AcDbArc
 50
301.9792089070218
 51
2.678825890406797
  0
ARC
  5
51D2
102
{ACAD_REACTORS
330
5270
102
}
330
2
100
AcDbEntity
  8
KIJUN
100
AcDbCircle
 10
19.05825834997955
 20
295.1687185501774
 30
0.0
 40
12.40465993094698
100
AcDbArc
 50
79.78249937347631
 51
105.0013160651889
  0
ARC
  5
51D3
102
{ACAD_REACTORS
330
5270
102
}
330
2
100
AcDbEntity
  8
KIJUN
100
AcDbCircle
 10
-2.415603417784495
 20
310.517688425432
 30
0.0
 40
23.88172879280219
100
AcDbArc
 50
288.5932093987192
 51
352.4423106883047
  0
ARC
  5
51D4
102
{ACAD_REACTORS
330
5270
102
}
330
2
100
AcDbEntity
  8
KIJUN
100
AcDbCircle
 10
-11.43014057496373
 20
282.5318830566848
 30
0.0
 40
22.86214375076949
100
AcDbArc
 50
310.30411234072
 51
13.60971733025913
  0
ARC
  5
51D5
102
{ACAD_REACTORS
330
5270
102
}
330
2
100
AcDbEntity
  8
KIJUN
100
AcDbCircle
 10
4.723695481359072
 20
260.9733843558915
 30
0.0
 40
4.343575148726578
100
AcDbArc
 50
355.1351657159705
 51
108.3240915440022
  0
ARC
  5
51D6
102
{ACAD_REACTORS
330
5270
102
}
330
2
100
AcDbEntity
  8
KIJUN
100
AcDbCircle
 10
42.11228544862342
 20
269.796657046038
 30
0.0
 40
42.38221786806549
100
AcDbArc
 50
123.0055103213962
 51
141.9111301350826
  0
ARC
  5
51D7
102
{ACAD_REACTORS
330
5270
102
}
330
2
100
AcDbEntity
  8
KIJUN
100
AcDbCircle
 10
31.5641668017073
 20
255.7043429445343
 30
0.0
 40
36.40807716871164
100
AcDbArc
 50
127.2997909435705
 51
156.6213375450016
  0
ARC
  5
51D8
102
{ACAD_REACTORS
330
5270
102
}
330
2
100
AcDbEntity
  8
KIJUN
100
AcDbCircle
 10
12.64990481843552
 20
255.9050050266137
 30
0.0
 40
8.978400509197765
100
AcDbArc
 50
136.5861959954449
 51
193.1884184608017
  0
ARC
  5
51D9
102
{ACAD_REACTORS
330
5270
102
}
330
2
100
AcDbEntity
  8
KIJUN
100
AcDbCircle
 10
8.736853098055121
 20
256.855902378385
 30
0.0
 40
9.840822739238744
100
AcDbArc
 50
123.1323152490751
 51
176.0438437338802
  0
ARC
  5
51DA
102
{ACAD_REACTORS
330
5270
102
}
330
2
100
AcDbEntity
  8
KIJUN
100
AcDbCircle
 10
8.086672811646849
 20
270.1744107473664
 30
0.0
 40
17.94192834646275
100
AcDbArc
 50
81.33399742873271
 51
99.26173705260998
  0
ARC
  5
51DB
102
{ACAD_REACTORS
330
5270
102
}
330
2
100
AcDbEntity
  8
KIJUN
100
AcDbCircle
 10
31.80855555290771
 20
319.4620338781579
 30
0.0
 40
8.370994498613105
100
AcDbArc
 50
19.77766736022602
 51
125.4736310438549
  0
LINE
  5
51DC
102
{ACAD_REACTORS
330
5270
102
}
330
2
100
AcDbEntity
  8
KIJUN
100
AcDbLine
 10
272.8024007640258
 20
77.63518710396102
 30
0.0
 11
272.8024007640258
 21
172.6351871039615
 31
0.0
  0
LINE
  5
51DD
102
{ACAD_REACTORS
330
5270
102
}
330
2
100
AcDbEntity
  8
KIJUN
100
AcDbLine
 10
261.8024007640258
 20
180.1351871039596
 30
0.0
 11
261.8024007640258
 21
182.6270766860552
 31
0.0
  0
ARC
  5
51DE
102
{ACAD_REACTORS
330
5270
102
}
330
2
100
AcDbEntity
  8
KIJUN
100
AcDbCircle
 10
98.32464272207245
 20
-92.67989461086608
 30
0.0
 40
350.2220677903621
100
AcDbArc
 50
62.38130175081347
 51
65.14456748514167
  0
ARC
  5
51DF
102
{ACAD_REACTORS
330
5270
102
}
330
2
100
AcDbEntity
  8
KIJUN
100
AcDbCircle
 10
254.497438033626
 20
199.4112710387417
 30
0.0
 40
18.30496273039984
100
AcDbArc
 50
293.5200568322906
 51
70.25190923350116
  0
ARC
  5
51E0
102
{ACAD_REACTORS
330
5270
102
}
330
2
100
AcDbEntity
  8
KIJUN
100
AcDbCircle
 10
248.3495478051934
 20
231.0249779654332
 30
0.0
 40
6.558740069139139
100
AcDbArc
 50
183.4071390118849
 51
244.5735055714734
  0
ARC
  5
51E1
102
{ACAD_REACTORS
330
5270
102
}
330
2
100
AcDbEntity
  8
KIJUN
100
AcDbCircle
 10
-769.1519284409821
 20
127.8806835819032
 30
0.0
 40
913.9339464841814
100
AcDbArc
 50
7.085537594549003
 51
12.59112487108187
  0
ARC
  5
51E2
102
{ACAD_REACTORS
330
5270
102
}
330
2
100
AcDbEntity
  8
KIJUN
100
AcDbCircle
 10
165.7231437019504
 20
255.1230310008518
 30
0.0
 40
71.92582416979511
100
AcDbArc
 50
66.33339561585265
 51
115.2904205613302
  0
ARC
  5
51E3
102
{ACAD_REACTORS
330
5270
102
}
330
2
100
AcDbEntity
  8
KIJUN
100
AcDbCircle
 10
185.2697117570632
 20
307.6582141153967
 30
0.0
 40
25.31040180519391
100
AcDbArc
 50
354.8464422978024
 51
51.71045875094653
  0
ARC
  5
51E4
102
{ACAD_REACTORS
330
5270
102
}
330
2
100
AcDbEntity
  8
KIJUN
100
AcDbCircle
 10
165.7205167946404
 20
514.8597141674408
 30
0.0
 40
275.6617432888587
100
AcDbArc
 50
264.1873058163727
 51
276.4122281490547
  0
ARC
  5
51E5
102
{ACAD_REACTORS
330
5270
102
}
330
2
100
AcDbEntity
  8
KIJUN
100
AcDbCircle
 10
202.2006747626463
 20
258.0569498270224
 30
0.0
 40
18.05578408477608
100
AcDbArc
 50
251.6177832225612
 51
316.5169695644997
  0
ARC
  5
51E6
102
{ACAD_REACTORS
330
5270
102
}
330
2
100
AcDbEntity
  8
KIJUN
100
AcDbCircle
 10
119.9226331815935
 20
307.8975406946947
 30
0.0
 40
19.42810969184479
100
AcDbArc
 50
336.8702033101505
 51
81.47581587776803
  0
ARC
  5
51E7
102
{ACAD_REACTORS
330
5270
102
}
330
2
100
AcDbEntity
  8
KIJUN
100
AcDbCircle
 10
147.7008026183948
 20
295.3129044176026
 30
0.0
 40
11.08037055958418
100
AcDbArc
 50
67.30111762629615
 51
153.4483437704018
  0
ARC
  5
51E8
102
{ACAD_REACTORS
330
5270
102
}
330
2
100
AcDbEntity
  8
KIJUN
100
AcDbCircle
 10
124.6607884562275
 20
300.6104070885717
 30
0.0
 40
27.75616823252302
100
AcDbArc
 50
319.6780203665057
 51
10.21982269960021
  0
ARC
  5
51E9
102
{ACAD_REACTORS
330
5270
102
}
330
2
100
AcDbEntity
  8
KIJUN
100
AcDbCircle
 10
159.0372500143849
 20
264.3299308290689
 30
0.0
 40
22.58863083485946
100
AcDbArc
 50
85.46821802054195
 51
125.8037733237756
  0
ARC
  5
51EA
102
{ACAD_REACTORS
330
5270
102
}
330
2
100
AcDbEntity
  8
KIJUN
100
AcDbCircle
 10
144.4278886026476
 20
278.3088880045129
 30
0.0
 40
18.48467300232316
100
AcDbArc
 50
319.4898174688806
 51
27.51321610747306
  0
CIRCLE
  5
51EB
102
{ACAD_REACTORS
330
5270
102
}
330
2
100
AcDbEntity
  8
KIJUN
100
AcDbCircle
 10
172.2965029998718
 20
251.7123347064953
 30
0.0
 40
3.655787110107491
  0
ARC
  5
51EC
102
{ACAD_REACTORS
330
5270
102
}
330
2
100
AcDbEntity
  8
KIJUN
100
AcDbCircle
 10
159.4148807729086
 20
253.2940385520705
 30
0.0
 40
13.04095425666824
100
AcDbArc
 50
9.151373868980334
 51
94.1038557577305
  0
ARC
  5
51ED
102
{ACAD_REACTORS
330
5270
102
}
330
2
100
AcDbEntity
  8
KIJUN
100
AcDbCircle
 10
175.3652794213516
 20
272.8057798589903
 30
0.0
 40
40.12633327500267
100
AcDbArc
 50
135.7382682107678
 51
174.9054645114691
  0
ARC
  5
51EE
102
{ACAD_REACTORS
330
5270
102
}
330
2
100
AcDbEntity
  8
KIJUN
100
AcDbCircle
 10
186.776619209437
 20
253.4487298601757
 30
0.0
 40
41.5565789278085
100
AcDbArc
 50
135.9651730721518
 51
191.6648649016734
  0
ARC
  5
51EF
102
{ACAD_REACTORS
330
5270
102
}
330
2
100
AcDbEntity
  8
KIJUN
100
AcDbCircle
 10
175.1576006186852
 20
247.8783443164157
 30
0.0
 40
15.77262370280279
100
AcDbArc
 50
137.3140042899531
 51
179.8786467569726
  0
ARC
  5
51F0
102
{ACAD_REACTORS
330
5270
102
}
330
2
100
AcDbEntity
  8
KIJUN
100
AcDbCircle
 10
166.4882379127325
 20
256.8100416196012
 30
0.0
 40
12.41752455416925
100
AcDbArc
 50
130.1495201337359
 51
184.7781035735908
  0
ARC
  5
51F1
102
{ACAD_REACTORS
330
5270
102
}
330
2
100
AcDbEntity
  8
KIJUN
100
AcDbCircle
 10
313.5561375329883
 20
313.3301026257291
 30
0.0
 40
113.9777408953455
100
AcDbArc
 50
186.2964989893081
 51
197.715148804715
  0
ARC
  5
51F2
102
{ACAD_REACTORS
330
5270
102
}
330
2
100
AcDbEntity
  8
KIJUN
100
AcDbCircle
 10
287.6584967885535
 20
311.9366654433329
 30
0.0
 40
88.09552086413175
100
AcDbArc
 50
169.8085611261044
 51
187.2430145732199
  0
ARC
  5
51F3
102
{ACAD_REACTORS
330
5270
102
}
330
2
100
AcDbEntity
  8
KIJUN
100
AcDbCircle
 10
157.6644436289805
 20
269.4649147907699
 30
0.0
 40
48.20157179539539
100
AcDbArc
 50
323.6904601397841
 51
10.98327207131069
  0
ARC
  5
51F4
102
{ACAD_REACTORS
330
5270
102
}
330
2
100
AcDbEntity
  8
KIJUN
100
AcDbCircle
 10
208.9693964286845
 20
313.3525063207498
 30
0.0
 40
16.2818031280386
100
AcDbArc
 50
119.4955967965125
 51
209.436427641646
  0
ARC
  5
51F5
102
{ACAD_REACTORS
330
5270
102
}
330
2
100
AcDbEntity
  8
KIJUN
100
AcDbCircle
 10
188.763965525667
 20
298.865522562181
 30
0.0
 40
8.852404775055466
100
AcDbArc
 50
47.10382542297919
 51
121.7565687505642
  0
ARC
  5
51F6
102
{ACAD_REACTORS
330
5270
102
}
330
2
100
AcDbEntity
  8
KIJUN
100
AcDbCircle
 10
206.8836370548358
 20
303.5952690512345
 30
0.0
 40
22.94991855045257
100
AcDbArc
 50
172.9987674952667
 51
230.5439913595738
  0
ARC
  5
51F7
102
{ACAD_REACTORS
330
5270
102
}
330
2
100
AcDbEntity
  8
KIJUN
100
AcDbCircle
 10
196.7933337969977
 20
278.79557954651
 30
0.0
 40
19.17606751732713
100
AcDbArc
 50
155.0269416242717
 51
219.4218528071508
  0
ARC
  5
51F8
102
{ACAD_REACTORS
330
5270
102
}
330
2
100
AcDbEntity
  8
KIJUN
100
AcDbCircle
 10
183.655261883475
 20
255.3770195996822
 30
0.0
 40
11.3654208433896
100
AcDbArc
 50
98.47634818281944
 51
180.0448864060531
  0
ARC
  5
51F9
102
{ACAD_REACTORS
330
5270
102
}
330
2
100
AcDbEntity
  8
KIJUN
100
AcDbCircle
 10
126.1540654301759
 20
244.433836356136
 30
0.0
 40
85.15341722581977
100
AcDbArc
 50
29.54183330279192
 51
43.57234440333412
  0
ARC
  5
51FA
102
{ACAD_REACTORS
330
5270
102
}
330
2
100
AcDbEntity
  8
KIJUN
100
AcDbCircle
 10
168.5375931846932
 20
258.2250307729064
 30
0.0
 40
27.49585486960937
100
AcDbArc
 50
336.4482925054137
 51
59.04307926231702
  0
ARC
  5
51FB
102
{ACAD_REACTORS
330
5270
102
}
330
2
100
AcDbEntity
  8
KIJUN
100
AcDbCircle
 10
169.5723306234221
 20
252.6317024141544
 30
0.0
 40
11.38191706523877
100
AcDbArc
 50
341.299238585031
 51
26.09551718271945
  0
ARC
  5
51FC
102
{ACAD_REACTORS
330
5270
102
}
330
2
100
AcDbEntity
  8
KIJUN
100
AcDbCircle
 10
175.4415682533652
 20
255.1633823189945
 30
0.0
 40
13.18961332275402
100
AcDbArc
 50
356.7087099485398
 51
60.28244756992635
  0
ARC
  5
51FD
102
{ACAD_REACTORS
330
5270
102
}
330
2
100
AcDbEntity
  8
KIJUN
100
AcDbCircle
 10
184.2773853072312
 20
266.3776014635382
 30
0.0
 40
21.08347745669551
100
AcDbArc
 50
67.63638248850302
 51
103.3475636811216
  0
ARC
  5
51FE
102
{ACAD_REACTORS
330
5270
102
}
330
2
100
AcDbEntity
  8
KIJUN
100
AcDbCircle
 10
167.2684497945799
 20
261.6153628917177
 30
0.0
 40
50.62258263891932
100
AcDbArc
 50
341.594816483616
 51
31.12187411147641
  0
ARC
  5
51FF
102
{ACAD_REACTORS
330
5270
102
}
330
2
100
AcDbEntity
  8
KIJUN
100
AcDbCircle
 10
283.7714711356653
 20
326.592927865453
 30
0.0
 40
82.82376356687088
100
AcDbArc
 50
179.3558327511934
 51
207.9446728089633
  0
ARC
  5
5200
102
{ACAD_REACTORS
330
5270
102
}
330
2
100
AcDbEntity
  8
KIJUN
100
AcDbCircle
 10
217.6116793915393
 20
299.9662742293844
 30
0.0
 40
8.958326057726958
100
AcDbArc
 50
80.08147547174798
 51
142.7820994788745
  0
ARC
  5
5201
102
{ACAD_REACTORS
330
5270
102
}
330
2
100
AcDbEntity
  8
KIJUN
100
AcDbCircle
 10
191.6334949738637
 20
298.5827009259129
 30
0.0
 40
29.35339372336522
100
AcDbArc
 50
333.4919977342519
 51
20.35051187549294
  0
ARC
  5
5202
102
{ACAD_REACTORS
330
5270
102
}
330
2
100
AcDbEntity
  8
KIJUN
100
AcDbCircle
 10
226.9976520125736
 20
272.836822272694
 30
0.0
 40
15.57688385349941
100
AcDbArc
 50
81.67412233249986
 51
125.7311331248599
  0
ARC
  5
5203
102
{ACAD_REACTORS
330
5270
102
}
330
2
100
AcDbEntity
  8
KIJUN
100
AcDbCircle
 10
203.2408590342322
 20
280.6785634091948
 30
0.0
 40
27.09175511345618
100
AcDbArc
 50
321.610591993765
 51
16.22777605946447
  0
ARC
  5
5204
102
{ACAD_REACTORS
330
5270
102
}
330
2
100
AcDbEntity
  8
KIJUN
100
AcDbCircle
 10
229.3598061366497
 20
257.9384404687935
 30
0.0
 40
7.671719676393352
100
AcDbArc
 50
20.33975836788555
 51
129.5425179693998
  0
ARC
  5
5205
102
{ACAD_REACTORS
330
5270
102
}
330
2
100
AcDbEntity
  8
KIJUN
100
AcDbCircle
 10
231.7904304042686
 20
293.6049799503349
 30
0.0
 40
19.1509537242728
100
AcDbArc
 50
144.9299176513481
 51
190.9576972810391
  0
ARC
  5
5206
102
{ACAD_REACTORS
330
5270
102
}
330
2
100
AcDbEntity
  8
KIJUN
100
AcDbCircle
 10
237.8622944766446
 20
267.8839448088111
 30
0.0
 40
19.3889358060683
100
AcDbArc
 50
125.3036993176037
 51
186.9603966349228
  0
ARC
  5
5207
102
{ACAD_REACTORS
330
5270
102
}
330
2
100
AcDbEntity
  8
KIJUN
100
AcDbCircle
 10
244.1288697153165
 20
250.4602456982125
 30
0.0
 40
18.65762925754241
100
AcDbArc
 50
149.7870062133043
 51
186.3398518693977
  0
ARC
  5
5208
102
{ACAD_REACTORS
330
5270
102
}
330
2
100
AcDbEntity
  8
KIJUN
100
AcDbCircle
 10
241.4029803164678
 20
251.8918587683192
 30
0.0
 40
20.72778533831595
100
AcDbArc
 50
144.7509993453328
 51
179.1175658677715
  0
ARC
  5
5209
102
{ACAD_REACTORS
330
5270
102
}
330
2
100
AcDbEntity
  8
KIJUN
100
AcDbCircle
 10
509.9176654170199
 20
541.7030055056261
 30
0.0
 40
360.7386054216866
100
AcDbArc
 50
216.0060835554243
 51
223.3678921684966
  0
ARC
  5
520A
102
{ACAD_REACTORS
330
5270
102
}
330
2
100
AcDbEntity
  8
KIJUN
100
AcDbCircle
 10
222.5110897819154
 20
269.3567279874378
 30
0.0
 40
35.2147745636916
100
AcDbArc
 50
295.736306658817
 51
44.39025115185709
  0
ARC
  5
520B
102
{ACAD_REACTORS
330
5270
102
}
330
2
100
AcDbEntity
  8
KIJUN
100
AcDbCircle
 10
259.1516318518226
 20
167.8042644093189
 30
0.0
 40
12.6126218657013
100
AcDbArc
 50
22.52105267961469
 51
77.86780513584403
  0
LINE
  5
520C
102
{ACAD_REACTORS
330
5270
102
}
330
2
100
AcDbEntity
  8
KIJUN
100
AcDbLine
 10
237.8024007640261
 20
230.6351871039906
 30
0.0
 11
237.8024007640261
 21
237.635187103991
 31
0.0
  0
LINE
  5
520D
102
{ACAD_REACTORS
330
5270
102
}
330
2
100
AcDbEntity
  8
KIJUN
100
AcDbLine
 10
260.6824168743351
 20
217.6351871039606
 30
0.0
 11
260.6824168743351
 21
216.6396690287311
 31
0.0
  0
ARC
  5
520E
102
{ACAD_REACTORS
330
5270
102
}
330
2
100
AcDbEntity
  8
KIJUN
100
AcDbCircle
 10
181.3289924833921
 20
246.6813936096482
 30
0.0
 40
77.62342375958782
100
AcDbArc
 50
28.28755522947507
 51
45.43334850409791
  0
ARC
  5
520F
102
{ACAD_REACTORS
330
5270
102
}
330
2
100
AcDbEntity
  8
KIJUN
100
AcDbCircle
 10
316.9466495536467
 20
373.5491087938144
 30
0.0
 40
108.1962606569933
100
AcDbArc
 50
204.715700594088
 51
221.4103296923588
  0
ARC
  5
5210
102
{ACAD_REACTORS
330
5270
102
}
330
2
100
AcDbEntity
  8
KIJUN
100
AcDbCircle
 10
217.4906953731229
 20
268.964610082307
 30
0.0
 40
35.30776599144763
100
AcDbArc
 50
316.7264275600983
 51
24.2512861651856
  0
ARC
  5
5211
102
{ACAD_REACTORS
330
5270
102
}
330
2
100
AcDbEntity
  8
KIJUN
100
AcDbCircle
 10
242.2789480530088
 20
327.2055128659717
 30
0.0
 40
23.64292980833642
100
AcDbArc
 50
177.3211741095932
 51
238.0207910929782
  0
ARC
  5
5212
102
{ACAD_REACTORS
330
5270
102
}
330
2
100
AcDbEntity
  8
KIJUN
100
AcDbCircle
 10
226.5465431780724
 20
295.1687185501774
 30
0.0
 40
12.40465993094698
100
AcDbArc
 50
74.99868393481104
 51
100.2175006265237
  0
ARC
  5
5213
102
{ACAD_REACTORS
330
5270
102
}
330
2
100
AcDbEntity
  8
KIJUN
100
AcDbCircle
 10
248.0204049458365
 20
310.517688425432
 30
0.0
 40
23.88172879280219
100
AcDbArc
 50
187.5576893116952
 51
251.4067906012808
  0
ARC
  5
5214
102
{ACAD_REACTORS
330
5270
102
}
330
2
100
AcDbEntity
  8
KIJUN
100
AcDbCircle
 10
257.0349421030158
 20
282.5318830566848
 30
0.0
 40
22.86214375076949
100
AcDbArc
 50
166.3902826697408
 51
229.69588765928
  0
ARC
  5
5215
102
{ACAD_REACTORS
330
5270
102
}
330
2
100
AcDbEntity
  8
KIJUN
100
AcDbCircle
 10
240.8811060466929
 20
260.9733843558915
 30
0.0
 40
4.343575148726578
100
AcDbArc
 50
71.67590845599779
 51
184.8648342840294
  0
ARC
  5
5216
102
{ACAD_REACTORS
330
5270
102
}
330
2
100
AcDbEntity
  8
KIJUN
100
AcDbCircle
 10
203.4925160794286
 20
269.796657046038
 30
0.0
 40
42.38221786806549
100
AcDbArc
 50
38.08886986491738
 51
56.9944896786038
  0
ARC
  5
5217
102
{ACAD_REACTORS
330
5270
102
}
330
2
100
AcDbEntity
  8
KIJUN
100
AcDbCircle
 10
214.0406347263447
 20
255.7043429445343
 30
0.0
 40
36.40807716871164
100
AcDbArc
 50
23.37866245499838
 51
52.70020905642944
  0
ARC
  5
5218
102
{ACAD_REACTORS
330
5270
102
}
330
2
100
AcDbEntity
  8
KIJUN
100
AcDbCircle
 10
232.9548967096165
 20
255.9050050266137
 30
0.0
 40
8.978400509197765
100
AcDbArc
 50
346.8115815391982
 51
43.41380400455503
  0
ARC
  5
5219
102
{ACAD_REACTORS
330
5270
102
}
330
2
100
AcDbEntity
  8
KIJUN
100
AcDbCircle
 10
236.8679484299969
 20
256.855902378385
 30
0.0
 40
9.840822739238744
100
AcDbArc
 50
3.956156266119783
 51
56.86768475092486
  0
ARC
  5
521A
102
{ACAD_REACTORS
330
5270
102
}
330
2
100
AcDbEntity
  8
KIJUN
100
AcDbCircle
 10
237.5181287164052
 20
270.1744107473664
 30
0.0
 40
17.94192834646275
100
AcDbArc
 50
80.73826294739005
 51
98.6660025712673
  0
ARC
  5
521B
102
{ACAD_REACTORS
330
5270
102
}
330
2
100
AcDbEntity
  8
KIJUN
100
AcDbCircle
 10
213.7962459751443
 20
319.4620338781579
 30
0.0
 40
8.370994498613105
100
AcDbArc
 50
54.52636895614507
 51
160.2223326397739
  0
TEXT
  5
52A6
330
2
100
AcDbEntity
  8
HOJO
100
AcDbText
 10
0.8025542122782098
 20
-15.73315066678174
 30
0.0
 40
9.0
  1
※ FRP製の為、若干の寸法誤差がある場合があります。
  7
SUNPOU
100
AcDbText
  0
ENDSEC
  0
SECTION
  2
OBJECTS
  0
DICTIONARY
  5
1A
330
0
100
AcDbDictionary
281
     1
  3
ACAD_COLOR
350
144
  3
ACAD_GROUP
350
18
  3
ACAD_LAYOUT
350
58
  3
ACAD_MATERIAL
350
143
  3
ACAD_MLINESTYLE
350
19
  3
ACAD_PLOTSETTINGS
350
59
  3
ACAD_PLOTSTYLENAME
350
56
  3
ACAD_TABLESTYLE
350
145
  3
AcDbVariableDictionary
350
1D1
  0
DICTIONARY
  5
1B4
330
A
100
AcDbDictionary
280
     1
281
     1
  3
ACAD_LAYERFILTERS
360
3D0D
  3
ACAD_LAYERSTATES
360
50E1
  3
ACLYDICTIONARY
360
3D0C
  0
DICTIONARY
  5
D13
330
2
100
AcDbDictionary
280
     1
281
     1
  3
ACAD_SORTENTS
360
D14
  0
DICTIONARY
  5
144
102
{ACAD_REACTORS
330
1A
102
}
330
1A
100
AcDbDictionary
281
     1
  0
DICTIONARY
  5
18
102
{ACAD_REACTORS
330
1A
102
}
330
1A
100
AcDbDictionary
281
     1
  3
*A1
350
E0D
  3
*A10
350
265A
  3
*A11
350
3695
  3
*A12
350
3349
  3
*A13
350
2D78
  3
*A14
350
213E
  3
*A15
350
3467
  3
*A16
350
2C6B
  3
*A17
350
44A7
  3
*A18
350
395F
  3
*A19
350
34BB
  3
*A2
350
2B84
  3
*A20
350
36C9
  3
*A21
350
2905
  3
*A22
350
17BC
  3
*A23
350
4891
  3
*A24
350
1EFE
  3
*A25
350
2037
  3
*A26
350
4648
  3
*A27
350
4D58
  3
*A28
350
22C8
  3
*A29
350
4DF5
  3
*A3
350
1555
  3
*A30
350
2EE1
  3
*A31
350
2573
  3
*A32
350
2F81
  3
*A33
350
2A17
  3
*A34
350
476C
  3
*A35
350
24D6
  3
*A36
350
5021
  3
*A37
350
3181
  3
*A38
350
31DF
  3
*A39
350
32E4
  3
*A4
350
3959
  3
*A40
350
275E
  3
*A41
350
3EE1
  3
*A42
350
5270
  3
*A43
350
26DD
  3
*A44
350
35A5
  3
*A45
350
FF8
  3
*A46
350
241A
  3
*A47
350
136A
  3
*A5
350
4376
  3
*A6
350
1CBC
  3
*A7
350
39BC
  3
*A8
350
1A98
  3
*A9
350
307D
  0
DICTIONARY
  5
58
102
{ACAD_REACTORS
330
1A
102
}
330
1A
100
AcDbDictionary
281
     1
  3
Model
350
5A
  3
ﾚｲｱｳﾄ1
350
5B
  0
DICTIONARY
  5
143
102
{ACAD_REACTORS
330
1A
102
}
330
1A
100
AcDbDictionary
281
     1
  0
DICTIONARY
  5
19
102
{ACAD_REACTORS
330
1A
102
}
330
1A
100
AcDbDictionary
281
     1
  3
STANDARD
350
1D
  0
DICTIONARY
  5
59
102
{ACAD_REACTORS
330
1A
102
}
330
1A
100
AcDbDictionary
281
     1
  0
ACDBDICTIONARYWDFLT
  5
56
102
{ACAD_REACTORS
330
1A
102
}
330
1A
100
AcDbDictionary
281
     1
  3
Normal
350
57
100
AcDbDictionaryWithDefault
340
57
  0
DICTIONARY
  5
145
102
{ACAD_REACTORS
330
1A
102
}
330
1A
100
AcDbDictionary
281
     1
  3
Standard
350
146
  0
DICTIONARY
  5
1D1
102
{ACAD_REACTORS
330
1A
102
}
330
1A
100
AcDbDictionary
281
     1
  3
CTABLESTYLE
350
1D2
  3
DIMASSOC
350
D03
  3
PROJECTNAME
350
D04
  0
DICTIONARY
  5
3D0D
102
{ACAD_REACTORS
330
1B4
102
}
330
1B4
100
AcDbDictionary
281
     1
  0
DICTIONARY
  5
50E1
102
{ACAD_REACTORS
330
1B4
102
}
330
1B4
100
AcDbDictionary
281
     1
  0
DICTIONARY
  5
3D0C
102
{ACAD_REACTORS
330
1B4
102
}
330
1B4
100
AcDbDictionary
281
     1
1001
ACAD
1000
<All
  0
SORTENTSTABLE
  5
D14
102
{ACAD_REACTORS
330
D13
102
}
330
D13
100
AcDbSortentsTable
330
2
  0
GROUP
  5
E0D
102
{ACAD_REACTORS
330
18
102
}
330
18
100
AcDbGroup
300

 70
     1
 71
     1
  0
GROUP
  5
265A
102
{ACAD_REACTORS
330
18
102
}
330
18
100
AcDbGroup
300

 70
     1
 71
     1
  0
GROUP
  5
3695
102
{ACAD_REACTORS
330
18
102
}
330
18
100
AcDbGroup
300

 70
     1
 71
     1
  0
GROUP
  5
3349
102
{ACAD_REACTORS
330
18
102
}
330
18
100
AcDbGroup
300

 70
     1
 71
     1
  0
GROUP
  5
2D78
102
{ACAD_REACTORS
330
18
102
}
330
18
100
AcDbGroup
300

 70
     1
 71
     1
  0
GROUP
  5
213E
102
{ACAD_REACTORS
330
18
102
}
330
18
100
AcDbGroup
300

 70
     1
 71
     1
  0
GROUP
  5
3467
102
{ACAD_REACTORS
330
18
102
}
330
18
100
AcDbGroup
300

 70
     1
 71
     1
  0
GROUP
  5
2C6B
102
{ACAD_REACTORS
330
18
102
}
330
18
100
AcDbGroup
300

 70
     1
 71
     1
  0
GROUP
  5
44A7
102
{ACAD_REACTORS
330
18
102
}
330
18
100
AcDbGroup
300

 70
     1
 71
     1
  0
GROUP
  5
395F
102
{ACAD_REACTORS
330
18
102
}
330
18
100
AcDbGroup
300

 70
     1
 71
     1
  0
GROUP
  5
34BB
102
{ACAD_REACTORS
330
18
102
}
330
18
100
AcDbGroup
300

 70
     1
 71
     1
  0
GROUP
  5
2B84
102
{ACAD_REACTORS
330
18
102
}
330
18
100
AcDbGroup
300

 70
     1
 71
     1
  0
GROUP
  5
36C9
102
{ACAD_REACTORS
330
18
102
}
330
18
100
AcDbGroup
300

 70
     1
 71
     1
  0
GROUP
  5
2905
102
{ACAD_REACTORS
330
18
102
}
330
18
100
AcDbGroup
300

 70
     1
 71
     1
  0
GROUP
  5
17BC
102
{ACAD_REACTORS
330
18
102
}
330
18
100
AcDbGroup
300

 70
     1
 71
     1
  0
GROUP
  5
4891
102
{ACAD_REACTORS
330
18
102
}
330
18
100
AcDbGroup
300

 70
     1
 71
     1
  0
GROUP
  5
1EFE
102
{ACAD_REACTORS
330
18
102
}
330
18
100
AcDbGroup
300

 70
     1
 71
     1
  0
GROUP
  5
2037
102
{ACAD_REACTORS
330
18
102
}
330
18
100
AcDbGroup
300

 70
     1
 71
     1
  0
GROUP
  5
4648
102
{ACAD_REACTORS
330
18
102
}
330
18
100
AcDbGroup
300

 70
     1
 71
     1
  0
GROUP
  5
4D58
102
{ACAD_REACTORS
330
18
102
}
330
18
100
AcDbGroup
300

 70
     1
 71
     1
  0
GROUP
  5
22C8
102
{ACAD_REACTORS
330
18
102
}
330
18
100
AcDbGroup
300

 70
     1
 71
     1
  0
GROUP
  5
4DF5
102
{ACAD_REACTORS
330
18
102
}
330
18
100
AcDbGroup
300

 70
     1
 71
     1
  0
GROUP
  5
1555
102
{ACAD_REACTORS
330
18
102
}
330
18
100
AcDbGroup
300

 70
     1
 71
     1
  0
GROUP
  5
2EE1
102
{ACAD_REACTORS
330
18
102
}
330
18
100
AcDbGroup
300

 70
     1
 71
     1
  0
GROUP
  5
2573
102
{ACAD_REACTORS
330
18
102
}
330
18
100
AcDbGroup
300

 70
     1
 71
     1
  0
GROUP
  5
2F81
102
{ACAD_REACTORS
330
18
102
}
330
18
100
AcDbGroup
300

 70
     1
 71
     1
  0
GROUP
  5
2A17
102
{ACAD_REACTORS
330
18
102
}
330
18
100
AcDbGroup
300

 70
     1
 71
     1
  0
GROUP
  5
476C
102
{ACAD_REACTORS
330
18
102
}
330
18
100
AcDbGroup
300

 70
     1
 71
     1
  0
GROUP
  5
24D6
102
{ACAD_REACTORS
330
18
102
}
330
18
100
AcDbGroup
300

 70
     1
 71
     1
  0
GROUP
  5
5021
102
{ACAD_REACTORS
330
18
102
}
330
18
100
AcDbGroup
300

 70
     1
 71
     1
  0
GROUP
  5
3181
102
{ACAD_REACTORS
330
18
102
}
330
18
100
AcDbGroup
300

 70
     1
 71
     1
  0
GROUP
  5
31DF
102
{ACAD_REACTORS
330
18
102
}
330
18
100
AcDbGroup
300

 70
     1
 71
     1
  0
GROUP
  5
32E4
102
{ACAD_REACTORS
330
18
102
}
330
18
100
AcDbGroup
300

 70
     1
 71
     1
  0
GROUP
  5
3959
102
{ACAD_REACTORS
330
18
102
}
330
18
100
AcDbGroup
300

 70
     1
 71
     1
  0
GROUP
  5
275E
102
{ACAD_REACTORS
330
18
102
}
330
18
100
AcDbGroup
300

 70
     1
 71
     1
  0
GROUP
  5
3EE1
102
{ACAD_REACTORS
330
18
102
}
330
18
100
AcDbGroup
300

 70
     1
 71
     1
  0
GROUP
  5
5270
102
{ACAD_REACTORS
330
18
102
}
330
18
100
AcDbGroup
300

 70
     1
 71
     1
340
521B
340
521A
340
5219
340
5218
340
5217
340
5216
340
5215
340
5214
340
5213
340
5212
340
5211
340
5210
340
520F
340
520E
340
520D
340
520C
340
520B
340
520A
340
5209
340
5208
340
5207
340
5206
340
5205
340
5204
340
5203
340
5202
340
5201
340
5200
340
51FF
340
51FE
340
51FD
340
51FC
340
51FB
340
51FA
340
51F9
340
51F8
340
51F7
340
51F6
340
51F5
340
51F4
340
51F3
340
51F2
340
51F1
340
51F0
340
51EF
340
51EE
340
51ED
340
51EC
340
51EB
340
51EA
340
51E9
340
51E8
340
51E7
340
51E6
340
51E5
340
51E4
340
51E3
340
51E2
340
51E1
340
51E0
340
51DF
340
51DE
340
51DD
340
51DC
340
51DB
340
51DA
340
51D9
340
51D8
340
51D7
340
51D6
340
51D5
340
51D4
340
51D3
340
51D2
340
51D1
340
51D0
340
51CF
340
51CE
340
51CD
340
51CC
340
51CB
340
51CA
340
51C9
340
51C8
340
51C7
340
51C6
340
51C5
340
51C4
340
51C3
340
51C2
340
51C1
340
51C0
340
51BF
340
51BE
340
51BD
340
51BC
340
51BB
340
51BA
340
51B9
340
51B8
340
51B7
340
51B6
340
51B5
340
51B4
340
51B3
340
51B2
340
51B1
340
51B0
340
51AF
340
51AE
340
51AD
340
51AC
340
51AB
340
51AA
340
51A9
340
51A8
340
51A7
340
51A6
340
51A5
340
51A4
340
51A3
340
51A2
340
51A1
340
51A0
340
519F
340
519E
340
519D
340
519C
340
519B
340
519A
340
5199
340
5198
340
5197
340
5196
340
5195
340
5194
340
5193
340
5192
340
5191
340
5190
340
518F
340
518E
340
518D
340
518C
340
518B
340
518A
  0
GROUP
  5
26DD
102
{ACAD_REACTORS
330
18
102
}
330
18
100
AcDbGroup
300

 70
     1
 71
     1
  0
GROUP
  5
35A5
102
{ACAD_REACTORS
330
18
102
}
330
18
100
AcDbGroup
300

 70
     1
 71
     1
  0
GROUP
  5
FF8
102
{ACAD_REACTORS
330
18
102
}
330
18
100
AcDbGroup
300

 70
     1
 71
     1
  0
GROUP
  5
241A
102
{ACAD_REACTORS
330
18
102
}
330
18
100
AcDbGroup
300

 70
     1
 71
     1
  0
GROUP
  5
136A
102
{ACAD_REACTORS
330
18
102
}
330
18
100
AcDbGroup
300

 70
     1
 71
     1
  0
GROUP
  5
4376
102
{ACAD_REACTORS
330
18
102
}
330
18
100
AcDbGroup
300

 70
     1
 71
     1
  0
GROUP
  5
1CBC
102
{ACAD_REACTORS
330
18
102
}
330
18
100
AcDbGroup
300

 70
     1
 71
     1
  0
GROUP
  5
39BC
102
{ACAD_REACTORS
330
18
102
}
330
18
100
AcDbGroup
300

 70
     1
 71
     1
  0
GROUP
  5
1A98
102
{ACAD_REACTORS
330
18
102
}
330
18
100
AcDbGroup
300

 70
     1
 71
     1
  0
GROUP
  5
307D
102
{ACAD_REACTORS
330
18
102
}
330
18
100
AcDbGroup
300

 70
     1
 71
     1
  0
LAYOUT
  5
5A
102
{ACAD_REACTORS
330
58
102
}
330
58
100
AcDbPlotSettings
  1

  2
none_device
  4
Letter_(8.50_x_11.00_Inches)
  6

 40
6.349999904632568
 41
6.349999904632568
 42
6.350006103515625
 43
6.350006103515625
 44
215.8999938964844
 45
279.3999938964844
 46
0.0
 47
0.0
 48
0.0
 49
0.0
140
0.0
141
0.0
142
1.0
143
56.1487857219155
 70
 11952
 72
     0
 73
     1
 74
     0
  7
monochrome.ctb
 75
     0
147
0.017809824151009
 76
     0
 77
     2
 78
   300
148
5906.460377060824
149
233.5965544000385
100
AcDbLayout
  1
Model
 70
     1
 71
     0
 10
0.0
 20
0.0
 11
12.0
 21
9.0
 12
0.0
 22
0.0
 32
0.0
 14
0.0
 24
0.0
 34
0.0
 15
0.0
 25
0.0
 35
0.0
146
0.0
 13
0.0
 23
0.0
 33
0.0
 16
1.0
 26
0.0
 36
0.0
 17
0.0
 27
1.0
 37
0.0
 76
     0
330
2
1001
ACAD_PSEXT
1000
なし
1000
なし
1000
適切ではありません
1000
新しいプロッタ環境設定名を選択しない限り、レイアウトは印刷されません。
1070
     0
  0
LAYOUT
  5
5B
102
{ACAD_REACTORS
330
58
102
}
330
58
100
AcDbPlotSettings
  1

  2
なし
  4

  6

 40
0.0
 41
0.0
 42
0.0
 43
0.0
 44
0.0
 45
0.0
 46
0.0
 47
0.0
 48
0.0
 49
0.0
140
0.0
141
0.0
142
1.0
143
1.0
 70
   688
 72
     0
 73
     0
 74
     5
  7
monochrome.ctb
 75
    16
147
1.0
 76
     0
 77
     2
 78
   300
148
0.0
149
0.0
100
AcDbLayout
  1
ﾚｲｱｳﾄ1
 70
     1
 71
     1
 10
0.0
 20
0.0
 11
12.0
 21
9.0
 12
0.0
 22
0.0
 32
0.0
 14
1.000000000000000E+20
 24
1.000000000000000E+20
 34
1.000000000000000E+20
 15
-1.000000000000000E+20
 25
-1.000000000000000E+20
 35
-1.000000000000000E+20
146
0.0
 13
0.0
 23
0.0
 33
0.0
 16
1.0
 26
0.0
 36
0.0
 17
0.0
 27
1.0
 37
0.0
 76
     0
330
7
  0
MLINESTYLE
  5
1D
102
{ACAD_REACTORS
330
19
102
}
330
19
100
AcDbMlineStyle
  2
STANDARD
 70
     0
  3

 62
   256
 51
90.0
 52
90.0
 71
     2
 49
0.5
 62
   256
  6
BYLAYER
 49
-0.5
 62
   256
  6
BYLAYER
  0
ACDBPLACEHOLDER
  5
57
102
{ACAD_REACTORS
330
56
102
}
330
56
  0
TABLESTYLE
  5
146
102
{ACAD_REACTORS
330
145
102
}
330
145
100
AcDbTableStyle
  3
Standard
 70
     0
 71
     0
 40
0.06
 41
0.06
280
     0
281
     0
  7
STANDARD
140
0.18
170
     2
 62
     0
 63
     7
283
     0
274
    -2
284
     1
 64
     0
275
    -2
285
     1
 65
     0
276
    -2
286
     1
 66
     0
277
    -2
287
     1
 67
     0
278
    -2
288
     1
 68
     0
279
    -2
289
     1
 69
     0
  7
STANDARD
140
0.25
170
     5
 62
     0
 63
     7
283
     0
274
    -2
284
     1
 64
     0
275
    -2
285
     1
 65
     0
276
    -2
286
     1
 66
     0
277
    -2
287
     1
 67
     0
278
    -2
288
     1
 68
     0
279
    -2
289
     1
 69
     0
  7
STANDARD
140
0.18
170
     5
 62
     0
 63
     7
283
     0
274
    -2
284
     1
 64
     0
275
    -2
285
     1
 65
     0
276
    -2
286
     1
 66
     0
277
    -2
287
     1
 67
     0
278
    -2
288
     1
 68
     0
279
    -2
289
     1
 69
     0
  0
DICTIONARYVAR
  5
1D2
102
{ACAD_REACTORS
330
1D1
102
}
330
1D1
100
DictionaryVariables
280
     0
  1
STANDARD
  0
DICTIONARYVAR
  5
D03
102
{ACAD_REACTORS
330
1D1
102
}
330
1D1
100
DictionaryVariables
280
     0
  1
1
  0
DICTIONARYVAR
  5
D04
102
{ACAD_REACTORS
330
1D1
102
}
330
1D1
100
DictionaryVariables
280
     0
  1

  0
ENDSEC
  0
EOF
