  0
SECTION
  2
HEADER
  9
$ACADVER
  1
AC1015
  9
$ACADMAINTVER
 70
    20
  9
$DWGCODEPAGE
  3
ANSI_932
  9
$INSBASE
 10
922.019522
 20
-675.4306699999999
 30
0.0
  9
$EXTMIN
 10
-79.28885531184062
 20
-16.4492237279851
 30
-0.000000000000013
  9
$EXTMAX
 10
273.7817608520029
 20
412.7332336940663
 30
0.0000000000000023
  9
$LIMMIN
 10
0.0
 20
0.0
  9
$LIMMAX
 10
420.0
 20
297.0
  9
$ORTHOMODE
 70
     0
  9
$REGENMODE
 70
     1
  9
$FILLMODE
 70
     1
  9
$QTEXTMODE
 70
     0
  9
$MIRRTEXT
 70
     1
  9
$LTSCALE
 40
10.0
  9
$ATTMODE
 70
     1
  9
$TEXTSIZE
 40
30.0
  9
$TRACEWID
 40
0.05
  9
$TEXTSTYLE
  7
SUNPOU
  9
$CLAYER
  8
0
  9
$CELTYPE
  6
BYLAYER
  9
$CECOLOR
 62
   256
  9
$CELTSCALE
 40
1.0
  9
$DISPSILH
 70
     0
  9
$DIMSCALE
 40
1.0
  9
$DIMASZ
 40
2.0
  9
$DIMEXO
 40
10.0
  9
$DIMDLI
 40
0.38
  9
$DIMRND
 40
0.0
  9
$DIMDLE
 40
0.0
  9
$DIMEXE
 40
0.0
  9
$DIMTP
 40
0.0
  9
$DIMTM
 40
0.0
  9
$DIMTXT
 40
5.0
  9
$DIMCEN
 40
0.0
  9
$DIMTSZ
 40
0.0
  9
$DIMTOL
 70
     0
  9
$DIMLIM
 70
     0
  9
$DIMTIH
 70
     0
  9
$DIMTOH
 70
     0
  9
$DIMSE1
 70
     0
  9
$DIMSE2
 70
     0
  9
$DIMTAD
 70
     1
  9
$DIMZIN
 70
     0
  9
$DIMBLK
  1
Dot
  9
$DIMASO
 70
     1
  9
$DIMSHO
 70
     1
  9
$DIMPOST
  1

  9
$DIMAPOST
  1

  9
$DIMALT
 70
     0
  9
$DIMALTD
 70
     2
  9
$DIMALTF
 40
25.4
  9
$DIMLFAC
 40
1.0
  9
$DIMTOFL
 70
     0
  9
$DIMTVP
 40
0.0
  9
$DIMTIX
 70
     0
  9
$DIMSOXD
 70
     0
  9
$DIMSAH
 70
     0
  9
$DIMBLK1
  1

  9
$DIMBLK2
  1

  9
$DIMSTYLE
  2
STANDARD
  9
$DIMCLRD
 70
    60
  9
$DIMCLRE
 70
    70
  9
$DIMCLRT
 70
    60
  9
$DIMTFAC
 40
0.064286
  9
$DIMGAP
 40
3.0
  9
$DIMJUST
 70
     0
  9
$DIMSD1
 70
     0
  9
$DIMSD2
 70
     0
  9
$DIMTOLJ
 70
     1
  9
$DIMTZIN
 70
     0
  9
$DIMALTZ
 70
     0
  9
$DIMALTTZ
 70
     0
  9
$DIMUPT
 70
     0
  9
$DIMDEC
 70
     0
  9
$DIMTDEC
 70
     0
  9
$DIMALTU
 70
     2
  9
$DIMALTTD
 70
     2
  9
$DIMTXSTY
  7
SUNPOU
  9
$DIMAUNIT
 70
     0
  9
$DIMADEC
 70
     0
  9
$DIMALTRND
 40
0.0
  9
$DIMAZIN
 70
     0
  9
$DIMDSEP
 70
    46
  9
$DIMATFIT
 70
     3
  9
$DIMFRAC
 70
     0
  9
$DIMLDRBLK
  1

  9
$DIMLUNIT
 70
     2
  9
$DIMLWD
 70
    -2
  9
$DIMLWE
 70
    -2
  9
$DIMTMOVE
 70
     0
  9
$LUNITS
 70
     2
  9
$LUPREC
 70
     5
  9
$SKETCHINC
 40
0.1
  9
$FILLETRAD
 40
0.0
  9
$AUNITS
 70
     0
  9
$AUPREC
 70
     0
  9
$MENU
  1
acad
  9
$ELEVATION
 40
0.0
  9
$PELEVATION
 40
0.0
  9
$THICKNESS
 40
0.0
  9
$LIMCHECK
 70
     0
  9
$CHAMFERA
 40
0.0
  9
$CHAMFERB
 40
0.0
  9
$CHAMFERC
 40
0.0
  9
$CHAMFERD
 40
0.0
  9
$SKPOLY
 70
     0
  9
$TDCREATE
 40
2450623.654673033
  9
$TDUCREATE
 40
2450623.279673032
  9
$TDUPDATE
 40
2454579.420541100
  9
$TDUUPDATE
 40
2454579.045541100
  9
$TDINDWG
 40
1.6975709028
  9
$TDUSRTIMER
 40
1.6975707292
  9
$USRTIMER
 70
     1
  9
$ANGBASE
 50
0.0
  9
$ANGDIR
 70
     0
  9
$PDMODE
 70
     0
  9
$PDSIZE
 40
0.0
  9
$PLINEWID
 40
0.0
  9
$SPLFRAME
 70
     0
  9
$SPLINETYPE
 70
     6
  9
$SPLINESEGS
 70
     8
  9
$HANDSEED
  5
4D78
  9
$SURFTAB1
 70
     6
  9
$SURFTAB2
 70
     6
  9
$SURFTYPE
 70
     6
  9
$SURFU
 70
     6
  9
$SURFV
 70
     6
  9
$UCSBASE
  2

  9
$UCSNAME
  2

  9
$UCSORG
 10
0.0
 20
0.0
 30
0.0
  9
$UCSXDIR
 10
1.0
 20
0.0
 30
0.0
  9
$UCSYDIR
 10
0.0
 20
1.0
 30
0.0
  9
$UCSORTHOREF
  2

  9
$UCSORTHOVIEW
 70
     0
  9
$UCSORGTOP
 10
0.0
 20
0.0
 30
0.0
  9
$UCSORGBOTTOM
 10
0.0
 20
0.0
 30
0.0
  9
$UCSORGLEFT
 10
0.0
 20
0.0
 30
0.0
  9
$UCSORGRIGHT
 10
0.0
 20
0.0
 30
0.0
  9
$UCSORGFRONT
 10
0.0
 20
0.0
 30
0.0
  9
$UCSORGBACK
 10
0.0
 20
0.0
 30
0.0
  9
$PUCSBASE
  2

  9
$PUCSNAME
  2

  9
$PUCSORG
 10
0.0
 20
0.0
 30
0.0
  9
$PUCSXDIR
 10
1.0
 20
0.0
 30
0.0
  9
$PUCSYDIR
 10
0.0
 20
1.0
 30
0.0
  9
$PUCSORTHOREF
  2

  9
$PUCSORTHOVIEW
 70
     0
  9
$PUCSORGTOP
 10
0.0
 20
0.0
 30
0.0
  9
$PUCSORGBOTTOM
 10
0.0
 20
0.0
 30
0.0
  9
$PUCSORGLEFT
 10
0.0
 20
0.0
 30
0.0
  9
$PUCSORGRIGHT
 10
0.0
 20
0.0
 30
0.0
  9
$PUCSORGFRONT
 10
0.0
 20
0.0
 30
0.0
  9
$PUCSORGBACK
 10
0.0
 20
0.0
 30
0.0
  9
$USERI1
 70
     0
  9
$USERI2
 70
     0
  9
$USERI3
 70
     0
  9
$USERI4
 70
     0
  9
$USERI5
 70
     0
  9
$USERR1
 40
0.0
  9
$USERR2
 40
0.0
  9
$USERR3
 40
0.0
  9
$USERR4
 40
0.0
  9
$USERR5
 40
0.0
  9
$WORLDVIEW
 70
     1
  9
$SHADEDGE
 70
     3
  9
$SHADEDIF
 70
    70
  9
$TILEMODE
 70
     1
  9
$MAXACTVP
 70
    16
  9
$PINSBASE
 10
0.0
 20
0.0
 30
0.0
  9
$PLIMCHECK
 70
     0
  9
$PEXTMIN
 10
1.000000000000000E+20
 20
1.000000000000000E+20
 30
1.000000000000000E+20
  9
$PEXTMAX
 10
-1.000000000000000E+20
 20
-1.000000000000000E+20
 30
-1.000000000000000E+20
  9
$PLIMMIN
 10
0.0
 20
0.0
  9
$PLIMMAX
 10
12.0
 20
9.0
  9
$UNITMODE
 70
     0
  9
$VISRETAIN
 70
     0
  9
$PLINEGEN
 70
     0
  9
$PSLTSCALE
 70
     1
  9
$TREEDEPTH
 70
  3020
  9
$CMLSTYLE
  2
STANDARD
  9
$CMLJUST
 70
     0
  9
$CMLSCALE
 40
1.0
  9
$PROXYGRAPHICS
 70
     1
  9
$MEASUREMENT
 70
     0
  9
$CELWEIGHT
370
    -1
  9
$ENDCAPS
280
     0
  9
$JOINSTYLE
280
     0
  9
$LWDISPLAY
290
     0
  9
$INSUNITS
 70
     0
  9
$HYPERLINKBASE
  1

  9
$STYLESHEET
  1
monochrome.ctb
  9
$XEDIT
290
     1
  9
$CEPSNTYPE
380
     0
  9
$PSTYLEMODE
290
     1
  9
$FINGERPRINTGUID
  2
{FB88A696-E29C-4009-92AF-A3599A8169D5}
  9
$VERSIONGUID
  2
{3D800DA6-CBEC-40F4-85D5-7D12AE6F42B6}
  9
$EXTNAMES
290
     1
  9
$PSVPSCALE
 40
0.0
  9
$OLESTARTUP
290
     0
  0
ENDSEC
  0
SECTION
  2
CLASSES
  0
CLASS
  1
DICTIONARYVAR
  2
AcDbDictionaryVar
  3
ObjectDBX Classes
 90
        0
280
     0
281
     0
  0
CLASS
  1
ACDBDICTIONARYWDFLT
  2
AcDbDictionaryWithDefault
  3
ObjectDBX Classes
 90
        0
280
     0
281
     0
  0
CLASS
  1
ACDBPLACEHOLDER
  2
AcDbPlaceHolder
  3
ObjectDBX Classes
 90
        0
280
     0
281
     0
  0
CLASS
  1
LAYOUT
  2
AcDbLayout
  3
ObjectDBX Classes
 90
        0
280
     0
281
     0
  0
CLASS
  1
TABLESTYLE
  2
AcDbTableStyle
  3
ObjectDBX Classes
 90
     2047
280
     0
281
     0
  0
CLASS
  1
SORTENTSTABLE
  2
AcDbSortentsTable
  3
ObjectDBX Classes
 90
        0
280
     0
281
     0
  0
ENDSEC
  0
SECTION
  2
TABLES
  0
TABLE
  2
VPORT
  5
12
330
0
100
AcDbSymbolTable
 70
     3
  0
VPORT
  5
4D72
330
12
100
AcDbSymbolTableRecord
100
AcDbViewportTableRecord
  2
*Active
 70
     0
 10
0.0
 20
0.0
 11
1.0
 21
1.0
 12
97.24645277008116
 22
198.1420049830406
 13
0.0
 23
0.0
 14
1.0
 24
1.0
 15
0.0
 25
0.0
 16
0.0
 26
0.0
 36
1.0
 17
0.0
 27
0.0
 37
0.0
 40
432.4544964875309
 41
1.529262086513995
 42
50.0
 43
0.0
 44
0.0
 50
0.0
 51
0.0
 71
     0
 72
 20000
 73
     1
 74
     1
 75
     0
 76
     0
 77
     0
 78
     0
281
     0
 65
     1
110
0.0
120
0.0
130
0.0
111
1.0
121
0.0
131
0.0
112
0.0
122
1.0
132
0.0
 79
     0
146
0.0
  0
ENDTAB
  0
TABLE
  2
LTYPE
  5
D
330
0
100
AcDbSymbolTable
 70
     2
  0
LTYPE
  5
E
330
D
100
AcDbSymbolTableRecord
100
AcDbLinetypeTableRecord
  2
BYBLOCK
 70
     0
  3

 72
    65
 73
     0
 40
0.0
  0
LTYPE
  5
F
330
D
100
AcDbSymbolTableRecord
100
AcDbLinetypeTableRecord
  2
BYLAYER
 70
     0
  3

 72
    65
 73
     0
 40
0.0
  0
LTYPE
  5
5
330
D
100
AcDbSymbolTableRecord
100
AcDbLinetypeTableRecord
  2
CONTINUOUS
 70
     0
  3
Solid line
 72
    65
 73
     0
 40
0.0
  0
LTYPE
  5
4890
330
D
100
AcDbSymbolTableRecord
100
AcDbLinetypeTableRecord
  2
DASHED
 70
     0
  3
Dashed __ __ __ __ __ __ __ __ __ __ __ __ __ _
 72
    65
 73
     2
 40
0.75
 49
0.5
 74
     0
 49
-0.25
 74
     0
  0
ENDTAB
  0
TABLE
  2
LAYER
  5
A
102
{ACAD_XDICTIONARY
360
1B4
102
}
330
0
100
AcDbSymbolTable
 70
     6
  0
LAYER
  5
4
330
A
100
AcDbSymbolTableRecord
100
AcDbLayerTableRecord
  2
0
 70
     0
 62
     7
  6
CONTINUOUS
370
    -3
390
57
  0
LAYER
  5
25
330
A
100
AcDbSymbolTableRecord
100
AcDbLayerTableRecord
  2
KIJUN
 70
     0
 62
     7
  6
CONTINUOUS
370
    -3
390
57
  0
LAYER
  5
22
330
A
100
AcDbSymbolTableRecord
100
AcDbLayerTableRecord
  2
HOJO
 70
     0
 62
     3
  6
CONTINUOUS
370
    -3
390
57
  0
LAYER
  5
1B
330
A
100
AcDbSymbolTableRecord
100
AcDbLayerTableRecord
  2
WAKU
 70
     0
 62
     1
  6
CONTINUOUS
370
    -3
390
57
  0
LAYER
  5
31
330
A
100
AcDbSymbolTableRecord
100
AcDbLayerTableRecord
  2
DEFPOINTS
 70
     0
 62
     7
  6
CONTINUOUS
290
     0
370
    -3
390
57
  0
LAYER
  5
28
330
A
100
AcDbSymbolTableRecord
100
AcDbLayerTableRecord
  2
SUNPOU
 70
     0
 62
    70
  6
CONTINUOUS
370
    -3
390
57
  0
ENDTAB
  0
TABLE
  2
STYLE
  5
B
330
0
100
AcDbSymbolTable
 70
     2
  0
STYLE
  5
C
330
B
100
AcDbSymbolTableRecord
100
AcDbTextStyleTableRecord
  2
STANDARD
 70
     0
 40
0.0
 41
1.0
 50
0.0
 71
     0
 42
0.2
  3
txt
  4

  0
STYLE
  5
1C
330
B
100
AcDbSymbolTableRecord
100
AcDbTextStyleTableRecord
  2
SUNPOU
 70
     0
 40
0.0
 41
1.0
 50
0.0
 71
     0
 42
30.0
  3
txt
  4
bigfont
  0
ENDTAB
  0
TABLE
  2
VIEW
  5
10
330
0
100
AcDbSymbolTable
 70
     0
  0
ENDTAB
  0
TABLE
  2
UCS
  5
11
330
0
100
AcDbSymbolTable
 70
     0
  0
ENDTAB
  0
TABLE
  2
APPID
  5
14
330
0
100
AcDbSymbolTable
 70
    11
  0
APPID
  5
15
330
14
100
AcDbSymbolTableRecord
100
AcDbRegAppTableRecord
  2
ACAD
 70
     0
  0
APPID
  5
1D3
330
14
100
AcDbSymbolTableRecord
100
AcDbRegAppTableRecord
  2
ACAD_DSTYLE_DIMTEXT_FILL
 70
     0
  0
APPID
  5
1D4
330
14
100
AcDbSymbolTableRecord
100
AcDbRegAppTableRecord
  2
ACAD_DSTYLE_DIMEXT_LENGTH
 70
     0
  0
APPID
  5
1D5
330
14
100
AcDbSymbolTableRecord
100
AcDbRegAppTableRecord
  2
ACAD_DSTYLE_DIMEXT_ENABLED
 70
     0
  0
APPID
  5
1D6
330
14
100
AcDbSymbolTableRecord
100
AcDbRegAppTableRecord
  2
ACAD_DSTYLE_DIM_LINETYPE
 70
     0
  0
APPID
  5
1D7
330
14
100
AcDbSymbolTableRecord
100
AcDbRegAppTableRecord
  2
ACAD_DSTYLE_DIM_EXT1_LINETYPE
 70
     0
  0
APPID
  5
1D8
330
14
100
AcDbSymbolTableRecord
100
AcDbRegAppTableRecord
  2
ACAD_DSTYLE_DIM_EXT2_LINETYPE
 70
     0
  0
APPID
  5
294
330
14
100
AcDbSymbolTableRecord
100
AcDbRegAppTableRecord
  2
ACAD_DSTYLE_DIMJOGGED_JOGANGLE_SYMBOL
 70
     0
  0
APPID
  5
478
330
14
100
AcDbSymbolTableRecord
100
AcDbRegAppTableRecord
  2
ACAD_DSTYLE_DIMARC_LENGTH_SYMBOL
 70
     0
  0
APPID
  5
F55
330
14
100
AcDbSymbolTableRecord
100
AcDbRegAppTableRecord
  2
ACAD_EXEMPT_FROM_CAD_STANDARDS
 70
     0
  0
APPID
  5
3D72
330
14
100
AcDbSymbolTableRecord
100
AcDbRegAppTableRecord
  2
ACAD_PSEXT
 70
     0
  0
ENDTAB
  0
TABLE
  2
DIMSTYLE
  5
16
330
0
100
AcDbSymbolTable
 70
     1
100
AcDbDimStyleTable
 71
     1
340
1E
  0
DIMSTYLE
105
1E
102
{ACAD_REACTORS
330
3628
330
3635
330
434B
330
43B3
102
}
330
16
100
AcDbSymbolTableRecord
100
AcDbDimStyleTableRecord
  2
STANDARD
 70
     0
340
C
  0
ENDTAB
  0
TABLE
  2
BLOCK_RECORD
  5
1
330
0
100
AcDbSymbolTable
 70
     6
  0
BLOCK_RECORD
  5
2
102
{ACAD_XDICTIONARY
360
D13
102
}
330
1
100
AcDbSymbolTableRecord
100
AcDbBlockTableRecord
  2
*MODEL_SPACE
340
5A
  0
BLOCK_RECORD
  5
7
330
1
100
AcDbSymbolTableRecord
100
AcDbBlockTableRecord
  2
*PAPER_SPACE
340
5B
  0
BLOCK_RECORD
  5
109
330
1
100
AcDbSymbolTableRecord
100
AcDbBlockTableRecord
  2
_Dot
340
0
102
{BLKREFS
331
4B53
331
4B54
331
4BC2
331
4BC3
331
4BCB
331
4BCC
331
4D10
331
4D11
102
}
  0
BLOCK_RECORD
  5
3629
330
1
100
AcDbSymbolTableRecord
100
AcDbBlockTableRecord
  2
*D1
340
0
  0
BLOCK_RECORD
  5
3636
330
1
100
AcDbSymbolTableRecord
100
AcDbBlockTableRecord
  2
*D2
340
0
  0
BLOCK_RECORD
  5
434C
330
1
100
AcDbSymbolTableRecord
100
AcDbBlockTableRecord
  2
*D3
340
0
  0
BLOCK_RECORD
  5
43B4
330
1
100
AcDbSymbolTableRecord
100
AcDbBlockTableRecord
  2
*D4
340
0
  0
ENDTAB
  0
ENDSEC
  0
SECTION
  2
BLOCKS
  0
BLOCK
  5
3
330
2
100
AcDbEntity
  8
0
100
AcDbBlockBegin
  2
*MODEL_SPACE
 70
     0
 10
0.0
 20
0.0
 30
0.0
  3
*MODEL_SPACE
  1

  0
ENDBLK
  5
6
330
2
100
AcDbEntity
  8
0
100
AcDbBlockEnd
  0
BLOCK
  5
8
330
7
100
AcDbEntity
 67
     1
  8
0
100
AcDbBlockBegin
  2
*PAPER_SPACE
 70
     0
 10
0.0
 20
0.0
 30
0.0
  3
*PAPER_SPACE
  1

  0
ENDBLK
  5
9
330
7
100
AcDbEntity
 67
     1
  8
0
100
AcDbBlockEnd
  0
BLOCK
  5
10C
330
109
100
AcDbEntity
  8
0
100
AcDbBlockBegin
  2
_Dot
 70
     0
 10
0.0
 20
0.0
 30
0.0
  3
_Dot
  1

  0
LWPOLYLINE
  5
10A
330
109
100
AcDbEntity
  8
0
  6
ByBlock
 62
     0
100
AcDbPolyline
 90
        2
 70
     1
 43
0.5
 10
-0.25
 20
0.0
 42
1.0
 10
0.25
 20
0.0
 42
1.0
  0
LINE
  5
10B
330
109
100
AcDbEntity
  8
0
  6
ByBlock
 62
     0
370
    -2
100
AcDbLine
 10
-0.5
 20
0.0
 30
0.0
 11
-1.0
 21
0.0
 31
0.0
  0
ENDBLK
  5
10D
330
109
100
AcDbEntity
  8
0
100
AcDbBlockEnd
  0
BLOCK
  5
3633
330
3629
100
AcDbEntity
  8
0
100
AcDbBlockBegin
  2
*D1
 70
     1
 10
0.0
 20
0.0
 30
0.0
  3
*D1
  1

  0
LINE
  5
4D0D
330
3629
100
AcDbEntity
  8
SUNPOU
 62
    70
370
    -2
100
AcDbLine
 10
268.1483747668687
 20
365.8161612164604
 30
0.0
 11
268.1483747668687
 21
404.7052442854843
 31
0.0
  0
LINE
  5
4D0E
330
3629
100
AcDbEntity
  8
SUNPOU
 62
    70
370
    -2
100
AcDbLine
 10
-31.85162523313137
 20
365.8161612164603
 30
0.0
 11
-31.85162523313137
 21
404.7052442854843
 31
0.0
  0
LINE
  5
4D0F
330
3629
100
AcDbEntity
  8
SUNPOU
 62
    60
370
    -2
100
AcDbLine
 10
266.1483747668687
 20
404.7052442854843
 30
0.0
 11
-29.85162523313137
 21
404.7052442854843
 31
0.0
  0
INSERT
  5
4D10
330
3629
100
AcDbEntity
  8
SUNPOU
 62
    60
370
    -2
100
AcDbBlockReference
  2
_Dot
 10
268.1483747668687
 20
404.7052442854843
 30
0.0
 41
2.0
 42
2.0
 43
2.0
  0
INSERT
  5
4D11
330
3629
100
AcDbEntity
  8
SUNPOU
 62
    60
370
    -2
100
AcDbBlockReference
  2
_Dot
 10
-31.85162523313137
 20
404.7052442854843
 30
0.0
 41
2.0
 42
2.0
 43
2.0
 50
180.0
  0
MTEXT
  5
4D12
330
3629
100
AcDbEntity
  8
SUNPOU
 62
    60
100
AcDbMText
 10
118.1483747668686
 20
410.2052442854843
 30
0.0
 40
5.0
 41
0.0
 71
     5
 72
     1
  1
\A1;300
  7
SUNPOU
 73
     1
 44
1.0
1001
ACAD
1000
MTEXTBEGIN
1070
    73
1070
     1
1070
    44
1040
1.0
1070
    74
1070
     0
1000
MTEXTEND
  0
POINT
  5
4D13
330
3629
100
AcDbEntity
  8
DEFPOINTS
 62
     0
100
AcDbPoint
 10
268.1483747668687
 20
355.8161612164604
 30
0.0
  0
POINT
  5
4D14
330
3629
100
AcDbEntity
  8
DEFPOINTS
 62
     0
100
AcDbPoint
 10
-31.85162523313137
 20
355.8161612164604
 30
0.0
  0
POINT
  5
4D15
330
3629
100
AcDbEntity
  8
DEFPOINTS
 62
     0
100
AcDbPoint
 10
-31.85162523313137
 20
404.7052442854843
 30
0.0
  0
ENDBLK
  5
3634
330
3629
100
AcDbEntity
  8
0
100
AcDbBlockEnd
  0
BLOCK
  5
3640
330
3636
100
AcDbEntity
  8
0
100
AcDbBlockBegin
  2
*D2
 70
     1
 10
0.0
 20
0.0
 30
0.0
  3
*D2
  1

  0
LINE
  5
4BC8
330
3636
100
AcDbEntity
  8
SUNPOU
 62
    70
370
    -2
100
AcDbLine
 10
-40.27267786313141
 20
355.8161612164604
 30
0.0
 11
-71.26118066946289
 21
355.8161612164604
 31
0.0
  0
LINE
  5
4BC9
330
3636
100
AcDbEntity
  8
SUNPOU
 62
    70
370
    -2
100
AcDbLine
 10
18.30188353874363
 20
120.8161612189603
 30
0.0
 11
-71.26118066946296
 21
120.8161612189603
 31
0.0
  0
LINE
  5
4BCA
330
3636
100
AcDbEntity
  8
SUNPOU
 62
    60
370
    -2
100
AcDbLine
 10
-71.26118066946289
 20
353.8161612164604
 30
0.0
 11
-71.26118066946294
 21
122.8161612189603
 31
0.0
  0
INSERT
  5
4BCB
330
3636
100
AcDbEntity
  8
SUNPOU
 62
    60
370
    -2
100
AcDbBlockReference
  2
_Dot
 10
-71.26118066946289
 20
355.8161612164604
 30
0.0
 41
2.0
 42
2.0
 43
2.0
 50
90.0
  0
INSERT
  5
4BCC
330
3636
100
AcDbEntity
  8
SUNPOU
 62
    60
370
    -2
100
AcDbBlockReference
  2
_Dot
 10
-71.26118066946294
 20
120.8161612189603
 30
0.0
 41
2.0
 42
2.0
 43
2.0
 50
270.0
  0
MTEXT
  5
4BCD
330
3636
100
AcDbEntity
  8
SUNPOU
 62
    60
100
AcDbMText
 10
-76.76118066946296
 20
238.3161612177103
 30
0.0
 40
5.0
 41
0.0
 71
     5
 72
     1
  1
\A1;235
  7
SUNPOU
 11
0.0000000000000001
 21
1.0
 31
0.0
 73
     1
 44
1.0
1001
ACAD
1000
MTEXTBEGIN
1070
    73
1070
     1
1070
    44
1040
1.0
1070
    74
1070
     0
1000
MTEXTEND
  0
POINT
  5
4BCE
330
3636
100
AcDbEntity
  8
DEFPOINTS
 62
     0
100
AcDbPoint
 10
-30.27267786313141
 20
355.8161612164604
 30
0.0
  0
POINT
  5
4BCF
330
3636
100
AcDbEntity
  8
DEFPOINTS
 62
     0
100
AcDbPoint
 10
28.30188353874363
 20
120.8161612189603
 30
0.0
  0
POINT
  5
4BD0
330
3636
100
AcDbEntity
  8
DEFPOINTS
 62
     0
100
AcDbPoint
 10
-71.26118066946294
 20
120.8161612189603
 30
0.0
  0
ENDBLK
  5
3641
330
3636
100
AcDbEntity
  8
0
100
AcDbBlockEnd
  0
BLOCK
  5
4356
330
434C
100
AcDbEntity
  8
0
100
AcDbBlockBegin
  2
*D3
 70
     1
 10
0.0
 20
0.0
 30
0.0
  3
*D3
  1

  0
LINE
  5
4BBF
330
434C
100
AcDbEntity
  8
SUNPOU
 62
    70
370
    -2
100
AcDbLine
 10
18.30188353874363
 20
120.8161612189603
 30
0.0
 11
-71.26118066946284
 21
120.8161612189603
 31
0.0
  0
LINE
  5
4BC0
330
434C
100
AcDbEntity
  8
SUNPOU
 62
    70
370
    -2
100
AcDbLine
 10
38.14837476686861
 20
80.81616121896033
 30
0.0
 11
-71.26118066946286
 21
80.81616121896038
 31
0.0
  0
LINE
  5
4BC1
330
434C
100
AcDbEntity
  8
SUNPOU
 62
    60
370
    -2
100
AcDbLine
 10
-71.26118066946284
 20
118.8161612189603
 30
0.0
 11
-71.26118066946286
 21
82.81616121896037
 31
0.0
  0
INSERT
  5
4BC2
330
434C
100
AcDbEntity
  8
SUNPOU
 62
    60
370
    -2
100
AcDbBlockReference
  2
_Dot
 10
-71.26118066946284
 20
120.8161612189603
 30
0.0
 41
2.0
 42
2.0
 43
2.0
 50
90.0
  0
INSERT
  5
4BC3
330
434C
100
AcDbEntity
  8
SUNPOU
 62
    60
370
    -2
100
AcDbBlockReference
  2
_Dot
 10
-71.26118066946286
 20
80.81616121896038
 30
0.0
 41
2.0
 42
2.0
 43
2.0
 50
270.0
  0
MTEXT
  5
4BC4
330
434C
100
AcDbEntity
  8
SUNPOU
 62
    60
100
AcDbMText
 10
-76.76118066946287
 20
100.8161612189603
 30
0.0
 40
5.0
 41
0.0
 71
     5
 72
     1
  1
\A1;40
  7
SUNPOU
 11
0.0000000000000001
 21
1.0
 31
0.0
 73
     1
 44
1.0
1001
ACAD
1000
MTEXTBEGIN
1070
    73
1070
     1
1070
    44
1040
1.0
1070
    74
1070
     0
1000
MTEXTEND
  0
POINT
  5
4BC5
330
434C
100
AcDbEntity
  8
DEFPOINTS
 62
     0
100
AcDbPoint
 10
28.30188353874363
 20
120.8161612189603
 30
0.0
  0
POINT
  5
4BC6
330
434C
100
AcDbEntity
  8
DEFPOINTS
 62
     0
100
AcDbPoint
 10
48.14837476686861
 20
80.81616121896033
 30
0.0
  0
POINT
  5
4BC7
330
434C
100
AcDbEntity
  8
DEFPOINTS
 62
     0
100
AcDbPoint
 10
-71.26118066946286
 20
80.81616121896038
 30
0.0
  0
ENDBLK
  5
4357
330
434C
100
AcDbEntity
  8
0
100
AcDbBlockEnd
  0
BLOCK
  5
43BE
330
43B4
100
AcDbEntity
  8
0
100
AcDbBlockBegin
  2
*D4
 70
     1
 10
0.0
 20
0.0
 30
0.0
  3
*D4
  1

  0
LINE
  5
4B50
330
43B4
100
AcDbEntity
  8
SUNPOU
 62
    70
370
    -2
100
AcDbLine
 10
48.14837476686861
 20
70.81616121896033
 30
0.0
 11
48.14837476686861
 21
48.56845149491721
 31
0.0
  0
LINE
  5
4B51
330
43B4
100
AcDbEntity
  8
SUNPOU
 62
    70
370
    -2
100
AcDbLine
 10
188.1483747668686
 20
70.81616121896018
 30
0.0
 11
188.1483747668686
 21
48.56845149491721
 31
0.0
  0
LINE
  5
4B52
330
43B4
100
AcDbEntity
  8
SUNPOU
 62
    60
370
    -2
100
AcDbLine
 10
50.14837476686861
 20
48.56845149491721
 30
0.0
 11
186.1483747668686
 21
48.56845149491721
 31
0.0
  0
INSERT
  5
4B53
330
43B4
100
AcDbEntity
  8
SUNPOU
 62
    60
370
    -2
100
AcDbBlockReference
  2
_Dot
 10
48.14837476686861
 20
48.56845149491721
 30
0.0
 41
2.0
 42
2.0
 43
2.0
 50
180.0
  0
INSERT
  5
4B54
330
43B4
100
AcDbEntity
  8
SUNPOU
 62
    60
370
    -2
100
AcDbBlockReference
  2
_Dot
 10
188.1483747668686
 20
48.56845149491721
 30
0.0
 41
2.0
 42
2.0
 43
2.0
  0
MTEXT
  5
4B55
330
43B4
100
AcDbEntity
  8
SUNPOU
 62
    60
100
AcDbMText
 10
118.1483747668686
 20
54.06845149491721
 30
0.0
 40
5.0
 41
0.0
 71
     5
 72
     1
  1
\A1;φ140
  7
SUNPOU
 73
     1
 44
1.0
1001
ACAD
1000
MTEXTBEGIN
1070
    73
1070
     1
1070
    44
1040
1.0
1070
    74
1070
     0
1000
MTEXTEND
  0
POINT
  5
4B56
330
43B4
100
AcDbEntity
  8
DEFPOINTS
 62
     0
100
AcDbPoint
 10
48.14837476686861
 20
80.81616121896033
 30
0.0
  0
POINT
  5
4B57
330
43B4
100
AcDbEntity
  8
DEFPOINTS
 62
     0
100
AcDbPoint
 10
188.1483747668686
 20
80.81616121896017
 30
0.0
  0
POINT
  5
4B58
330
43B4
100
AcDbEntity
  8
DEFPOINTS
 62
     0
100
AcDbPoint
 10
188.1483747668686
 20
48.56845149491721
 30
0.0
  0
ENDBLK
  5
43BF
330
43B4
100
AcDbEntity
  8
0
100
AcDbBlockEnd
  0
ENDSEC
  0
SECTION
  2
ENTITIES
  0
LINE
  5
1F
330
2
100
AcDbEntity
  8
WAKU
100
AcDbLine
 10
0.0
 20
21.0
 30
0.0
 11
237.3614398378393
 21
21.0
 31
0.0
  0
LINE
  5
20
330
2
100
AcDbEntity
  8
WAKU
100
AcDbLine
 10
0.0
 20
0.0
 30
0.0
 11
237.3614398378393
 21
0.0
 31
0.0
  0
TEXT
  5
21
330
2
100
AcDbEntity
  8
HOJO
100
AcDbText
 10
14.48094900000004
 20
3.549939000000037
 30
0.0
 40
13.5
  1
ML931(1)
  7
SUNPOU
100
AcDbText
  0
TEXT
  5
23
330
2
100
AcDbEntity
  8
HOJO
100
AcDbText
 10
124.4167871859402
 20
7.566579000000047
 30
0.0
 40
9.0
  1
235×300×300
  7
SUNPOU
100
AcDbText
  0
DIMENSION
  5
3628
330
2
100
AcDbEntity
  8
SUNPOU
100
AcDbDimension
  2
*D1
 10
-31.85162523313137
 20
404.7052442854843
 30
0.0
 11
118.1483747668686
 21
410.2052442854843
 31
0.0
 70
    32
 71
     5
 42
300.0
  3
STANDARD
100
AcDbAlignedDimension
 13
268.1483747668687
 23
355.8161612164604
 33
0.0
 14
-31.85162523313137
 24
355.8161612164604
 34
0.0
 50
180.0
100
AcDbRotatedDimension
1001
ACAD
1000
DSTYLE
1002
{
1070
    41
1040
2.0
1070
    42
1040
10.0
1070
    44
1040
0.0
1070
    73
1070
     0
1070
    74
1070
     0
1070
    77
1070
     1
1070
   140
1040
5.0
1070
   141
1040
0.0
1070
   146
1040
0.064286
1070
   147
1040
3.0
1070
   176
1070
    60
1070
   177
1070
    70
1070
   178
1070
    60
1070
   271
1070
     0
1070
   272
1070
     0
1070
   340
1005
1C
1070
   342
1005
109
1002
}
  0
DIMENSION
  5
3635
330
2
100
AcDbEntity
  8
SUNPOU
100
AcDbDimension
  2
*D2
 10
-71.26118066946294
 20
120.8161612189603
 30
0.0
 11
-76.76118066946296
 21
238.3161612177103
 31
0.0
 70
    32
 71
     5
 42
234.9999999975
  3
STANDARD
100
AcDbAlignedDimension
 13
-30.27267786313141
 23
355.8161612164604
 33
0.0
 14
28.30188353874363
 24
120.8161612189603
 34
0.0
 50
90.0
100
AcDbRotatedDimension
1001
ACAD
1000
DSTYLE
1002
{
1070
    41
1040
2.0
1070
    42
1040
10.0
1070
    44
1040
0.0
1070
    73
1070
     0
1070
    74
1070
     0
1070
    77
1070
     1
1070
   140
1040
5.0
1070
   141
1040
0.0
1070
   146
1040
0.064286
1070
   147
1040
3.0
1070
   176
1070
    60
1070
   177
1070
    70
1070
   178
1070
    60
1070
   271
1070
     0
1070
   272
1070
     0
1070
   340
1005
1C
1070
   342
1005
109
1002
}
  0
DIMENSION
  5
434B
330
2
100
AcDbEntity
  8
SUNPOU
100
AcDbDimension
  2
*D3
 10
-71.26118066946286
 20
80.81616121896038
 30
0.0
 11
-76.76118066946287
 21
100.8161612189603
 31
0.0
 70
    32
 71
     5
 42
40.00000000000001
  3
STANDARD
100
AcDbAlignedDimension
 13
28.30188353874363
 23
120.8161612189603
 33
0.0
 14
48.14837476686861
 24
80.81616121896033
 34
0.0
 50
90.0
100
AcDbRotatedDimension
1001
ACAD
1000
DSTYLE
1002
{
1070
    41
1040
2.0
1070
    42
1040
10.0
1070
    44
1040
0.0
1070
    73
1070
     0
1070
    74
1070
     0
1070
    77
1070
     1
1070
   140
1040
5.0
1070
   141
1040
0.0
1070
   146
1040
0.064286
1070
   147
1040
3.0
1070
   176
1070
    60
1070
   177
1070
    70
1070
   178
1070
    60
1070
   271
1070
     0
1070
   272
1070
     0
1070
   340
1005
1C
1070
   342
1005
109
1002
}
  0
DIMENSION
  5
43B3
330
2
100
AcDbEntity
  8
SUNPOU
100
AcDbDimension
  2
*D4
 10
188.1483747668686
 20
48.56845149491721
 30
0.0
 11
118.1483747668686
 21
54.06845149491721
 31
0.0
 70
    32
  1
φ140
 71
     5
 42
140.0
  3
STANDARD
100
AcDbAlignedDimension
 13
48.14837476686861
 23
80.81616121896033
 33
0.0
 14
188.1483747668686
 24
80.81616121896017
 34
0.0
100
AcDbRotatedDimension
1001
ACAD
1000
DSTYLE
1002
{
1070
    41
1040
2.0
1070
    42
1040
10.0
1070
    44
1040
0.0
1070
    73
1070
     0
1070
    74
1070
     0
1070
    77
1070
     1
1070
   140
1040
5.0
1070
   141
1040
0.0
1070
   146
1040
0.064286
1070
   147
1040
3.0
1070
   176
1070
    60
1070
   177
1070
    70
1070
   178
1070
    60
1070
   271
1070
     0
1070
   272
1070
     0
1070
   340
1005
1C
1070
   342
1005
109
1002
}
  0
LINE
  5
48B6
102
{ACAD_REACTORS
330
4D58
102
}
330
2
100
AcDbEntity
  8
KIJUN
100
AcDbLine
 10
-31.85162523313137
 20
355.8161612164604
 30
0.0
 11
268.1483747668687
 21
355.8161612164604
 31
0.0
  0
LINE
  5
48B7
102
{ACAD_REACTORS
330
4D58
102
}
330
2
100
AcDbEntity
  8
KIJUN
100
AcDbLine
 10
28.30188353874363
 20
120.8161612189603
 30
0.0
 11
207.9948659949936
 21
120.8161612189603
 31
0.0
  0
LINE
  5
48B9
102
{ACAD_REACTORS
330
4D58
102
}
330
2
100
AcDbEntity
  8
KIJUN
  6
DASHED
100
AcDbLine
 10
48.14837476686861
 20
80.81616121896033
 30
0.0
 11
188.1483747668686
 21
80.81616121896017
 31
0.0
  0
LINE
  5
48BC
102
{ACAD_REACTORS
330
4D58
102
}
330
2
100
AcDbEntity
  8
KIJUN
  6
DASHED
100
AcDbLine
 10
48.14837476686863
 20
120.8161612189603
 30
0.0
 11
48.14837476686861
 21
80.81616121896033
 31
0.0
  0
LINE
  5
48CB
102
{ACAD_REACTORS
330
4D58
102
}
330
2
100
AcDbEntity
  8
KIJUN
100
AcDbLine
 10
-19.3516252331312
 20
285.8161612164603
 30
0.0
 11
255.6483747668684
 21
285.8161612164603
 31
0.0
  0
LINE
  5
48CF
102
{ACAD_REACTORS
330
4D58
102
}
330
2
100
AcDbEntity
  8
KIJUN
100
AcDbLine
 10
-19.35162523313132
 20
310.8161612164603
 30
0.0
 11
-19.3516252331312
 21
285.8161612164603
 31
0.0
  0
LINE
  5
48D0
102
{ACAD_REACTORS
330
4D58
102
}
330
2
100
AcDbEntity
  8
KIJUN
100
AcDbLine
 10
-5.535835758131415
 20
285.8161612164601
 30
0.0
 11
-5.535835758131332
 21
273.8161612164603
 31
0.0
  0
LINE
  5
48D1
102
{ACAD_REACTORS
330
4D58
102
}
330
2
100
AcDbEntity
  8
KIJUN
100
AcDbLine
 10
24.97293617136858
 20
285.8161612164601
 30
0.0
 11
24.97293617136867
 21
273.8161612164603
 31
0.0
  0
LINE
  5
48D2
102
{ACAD_REACTORS
330
4D58
102
}
330
2
100
AcDbEntity
  8
KIJUN
100
AcDbLine
 10
18.1483747668686
 20
260.8161612164603
 30
0.0
 11
218.1483747668687
 21
260.8161612164603
 31
0.0
  0
LINE
  5
48D3
102
{ACAD_REACTORS
330
4D58
102
}
330
2
100
AcDbEntity
  8
KIJUN
100
AcDbLine
 10
18.14837476686848
 20
273.8161612164604
 30
0.0
 11
18.14837476686877
 21
264.9389682339604
 31
0.0
  0
LINE
  5
48D6
102
{ACAD_REACTORS
330
4D58
102
}
330
2
100
AcDbEntity
  8
KIJUN
100
AcDbLine
 10
18.14837476686877
 20
264.9389682339604
 30
0.0
 11
218.1483747668685
 21
264.9389682339603
 31
0.0
  0
ARC
  5
48D8
102
{ACAD_REACTORS
330
4D58
102
}
330
2
100
AcDbEntity
  8
KIJUN
100
AcDbCircle
 10
17.74371390176603
 20
258.2706886369143
 30
0.0
 40
6.680546624348426
100
AcDbArc
 50
22.39734847255393
 51
86.52729594349469
  0
LINE
  5
48E1
102
{ACAD_REACTORS
330
4D58
102
}
330
2
100
AcDbEntity
  8
KIJUN
100
AcDbLine
 10
45.35890108236792
 20
260.8161612164579
 30
0.0
 11
45.35890108236792
 21
264.9389682339578
 31
0.0
  0
LINE
  5
48E2
102
{ACAD_REACTORS
330
4D58
102
}
330
2
100
AcDbEntity
  8
KIJUN
100
AcDbLine
 10
42.88521687186847
 20
273.8161612164603
 30
0.0
 11
42.88521687186877
 21
264.9389682339578
 31
0.0
  0
LINE
  5
48E4
102
{ACAD_REACTORS
330
4D58
102
}
330
2
100
AcDbEntity
  8
KIJUN
100
AcDbLine
 10
28.30188353874363
 20
131.1231787627103
 30
0.0
 11
207.9948659949936
 21
131.1231787627103
 31
0.0
  0
LINE
  5
48E5
102
{ACAD_REACTORS
330
4D58
102
}
330
2
100
AcDbEntity
  8
KIJUN
100
AcDbLine
 10
28.14837476686861
 20
141.4279094982314
 30
0.0
 11
208.1483747668687
 21
141.4279094982315
 31
0.0
  0
ARC
  5
48E8
102
{ACAD_REACTORS
330
4D58
102
}
330
2
100
AcDbEntity
  8
KIJUN
100
AcDbCircle
 10
28.30188353874363
 20
125.9696699908353
 30
0.0
 40
5.153508771874999
100
AcDbArc
 50
90.0
 51
270.0
  0
ARC
  5
48E9
102
{ACAD_REACTORS
330
4D58
102
}
330
2
100
AcDbEntity
  8
KIJUN
100
AcDbCircle
 10
28.30188353874363
 20
136.2766875345853
 30
0.0
 40
5.153508771874992
100
AcDbArc
 50
91.70693527829515
 51
270.0000000000001
  0
ARC
  5
48FF
102
{ACAD_REACTORS
330
4D58
102
}
330
2
100
AcDbEntity
  8
KIJUN
100
AcDbCircle
 10
118.8034445122556
 20
12.05400062757206
 30
0.0
 40
203.4563787816196
100
AcDbArc
 50
84.19812307285594
 51
98.59047397747147
  0
ARC
  5
4900
102
{ACAD_REACTORS
330
4D58
102
}
330
2
100
AcDbEntity
  8
KIJUN
100
AcDbCircle
 10
-637.4938888198345
 20
84.86377100591745
 30
0.0
 40
727.4599010869962
100
AcDbArc
 50
8.540404935680969
 51
9.503290919138301
  0
ARC
  5
4901
102
{ACAD_REACTORS
330
4D58
102
}
330
2
100
AcDbEntity
  8
KIJUN
100
AcDbCircle
 10
90.53446100288265
 20
202.6295183648615
 30
0.0
 40
10.8085765408393
100
AcDbArc
 50
101.3194085537442
 51
167.4914552249188
  0
ARC
  5
4903
102
{ACAD_REACTORS
330
4D58
102
}
330
2
100
AcDbEntity
  8
KIJUN
100
AcDbCircle
 10
97.52079523385416
 20
196.2486144718549
 30
0.0
 40
15.97691154651727
100
AcDbArc
 50
192.1110919248695
 51
230.104731649052
  0
ARC
  5
4904
102
{ACAD_REACTORS
330
4D58
102
}
330
2
100
AcDbEntity
  8
KIJUN
100
AcDbCircle
 10
-23.97310007761192
 20
64.88677801920544
 30
0.0
 40
162.9771953300851
100
AcDbArc
 50
34.54249062465596
 51
46.95367078182134
  0
ARC
  5
4905
102
{ACAD_REACTORS
330
4D58
102
}
330
2
100
AcDbEntity
  8
KIJUN
100
AcDbCircle
 10
106.1980758785863
 20
154.1204526351269
 30
0.0
 40
5.166523669124579
100
AcDbArc
 50
156.383594981088
 51
37.94903886271645
  0
ARC
  5
4907
102
{ACAD_REACTORS
330
4D58
102
}
330
2
100
AcDbEntity
  8
KIJUN
100
AcDbCircle
 10
99.62344812282346
 20
156.9908752131282
 30
0.0
 40
2.007393955509874
100
AcDbArc
 50
336.4935299644492
 51
111.3833521164413
  0
ARC
  5
4908
102
{ACAD_REACTORS
330
4D58
102
}
330
2
100
AcDbEntity
  8
KIJUN
100
AcDbCircle
 10
92.79741183626983
 20
163.8087373644848
 30
0.0
 40
7.850322764367188
100
AcDbArc
 50
320.9221452455087
 51
31.07520432934763
  0
ARC
  5
4909
102
{ACAD_REACTORS
330
4D58
102
}
330
2
100
AcDbEntity
  8
KIJUN
100
AcDbCircle
 10
91.18751853721979
 20
166.795869449914
 30
0.0
 40
1.441766324036478
100
AcDbArc
 50
348.7728850714116
 51
98.67717865390646
  0
ARC
  5
490A
102
{ACAD_REACTORS
330
4D58
102
}
330
2
100
AcDbEntity
  8
KIJUN
100
AcDbCircle
 10
98.04078969623491
 20
157.0096533190695
 30
0.0
 40
10.95163971676408
100
AcDbArc
 50
82.23146416947821
 51
119.7783944040033
  0
ARC
  5
490B
102
{ACAD_REACTORS
330
4D58
102
}
330
2
100
AcDbEntity
  8
KIJUN
100
AcDbCircle
 10
80.971205218485
 20
171.5978902797969
 30
0.0
 40
10.55359906591581
100
AcDbArc
 50
341.3393375522752
 51
20.23390307925
  0
ARC
  5
490C
102
{ACAD_REACTORS
330
4D58
102
}
330
2
100
AcDbEntity
  8
KIJUN
100
AcDbCircle
 10
89.84550046730197
 20
171.0839222355068
 30
0.0
 40
4.288992523318868
100
AcDbArc
 50
76.13179420736623
 51
115.8208768892054
  0
ARC
  5
490D
102
{ACAD_REACTORS
330
4D58
102
}
330
2
100
AcDbEntity
  8
KIJUN
100
AcDbCircle
 10
76.77874860895059
 20
170.6092503700429
 30
0.0
 40
12.00856890169921
100
AcDbArc
 50
21.16345655800506
 51
65.25930122614124
  0
ARC
  5
490E
102
{ACAD_REACTORS
330
4D58
102
}
330
2
100
AcDbEntity
  8
KIJUN
100
AcDbCircle
 10
100.9432450848827
 20
156.487710575804
 30
0.0
 40
16.60193710709913
100
AcDbArc
 50
294.9072736144415
 51
32.65657997520035
  0
ARC
  5
490F
102
{ACAD_REACTORS
330
4D58
102
}
330
2
100
AcDbEntity
  8
KIJUN
100
AcDbCircle
 10
-54.93222091933086
 20
43.50383223528532
 30
0.0
 40
209.0931878116191
100
AcDbArc
 50
35.67565221839845
 51
39.50640861944962
  0
ARC
  5
4910
102
{ACAD_REACTORS
330
4D58
102
}
330
2
100
AcDbEntity
  8
KIJUN
100
AcDbCircle
 10
118.1483747668686
 20
175.1221010489266
 30
0.0
 40
4.073145111095331
100
AcDbArc
 50
221.1893104307638
 51
318.8106895692335
  0
ARC
  5
4911
102
{ACAD_REACTORS
330
4D58
102
}
330
2
100
AcDbEntity
  8
KIJUN
100
AcDbCircle
 10
112.2787850104682
 20
174.2439724883317
 30
0.0
 40
3.334651263821084
100
AcDbArc
 50
236.3653214385523
 51
327.2443578749551
  0
ARC
  5
4912
102
{ACAD_REACTORS
330
4D58
102
}
330
2
100
AcDbEntity
  8
KIJUN
100
AcDbCircle
 10
118.1483747668687
 20
172.0351248963497
 30
0.0
 40
7.63646877088925
100
AcDbArc
 50
61.82673134663358
 51
118.1732686533809
  0
ARC
  5
4913
102
{ACAD_REACTORS
330
4D58
102
}
330
2
100
AcDbEntity
  8
KIJUN
100
AcDbCircle
 10
111.5894712887001
 20
173.5765301893702
 30
0.0
 40
5.971781876781458
100
AcDbArc
 50
60.35903691448126
 51
150.4523208909007
  0
ARC
  5
4914
102
{ACAD_REACTORS
330
4D58
102
}
330
2
100
AcDbEntity
  8
KIJUN
100
AcDbCircle
 10
196.2814749686245
 20
264.332865607217
 30
0.0
 40
125.6603829343567
100
AcDbArc
 50
219.6804347630366
 51
224.3307365418033
  0
ARC
  5
4916
102
{ACAD_REACTORS
330
4D58
102
}
330
2
100
AcDbEntity
  8
KIJUN
100
AcDbCircle
 10
97.17894023699248
 20
191.4409115212216
 30
0.0
 40
7.722648896750297
100
AcDbArc
 50
262.8463403229079
 51
325.7113273787273
  0
ARC
  5
4917
102
{ACAD_REACTORS
330
4D58
102
}
330
2
100
AcDbEntity
  8
KIJUN
100
AcDbCircle
 10
108.3296032418195
 20
188.9463955053541
 30
0.0
 40
13.16882405405933
100
AcDbArc
 50
164.4054594129917
 51
203.1066192834137
  0
ARC
  5
4918
102
{ACAD_REACTORS
330
4D58
102
}
330
2
100
AcDbEntity
  8
KIJUN
100
AcDbCircle
 10
95.22810319765675
 20
202.4742439173976
 30
0.0
 40
3.756345626771096
100
AcDbArc
 50
327.4806465928156
 51
250.1768184020412
  0
ARC
  5
4919
102
{ACAD_REACTORS
330
4D58
102
}
330
2
100
AcDbEntity
  8
KIJUN
100
AcDbCircle
 10
96.84069512569145
 20
205.621514534383
 30
0.0
 40
7.27788938729734
100
AcDbArc
 50
246.6339643604372
 51
342.4160459915196
  0
ARC
  5
491A
102
{ACAD_REACTORS
330
4D58
102
}
330
2
100
AcDbEntity
  8
KIJUN
100
AcDbCircle
 10
95.68253506161516
 20
205.3728914427552
 30
0.0
 40
8.327531537652063
100
AcDbArc
 50
346.4573645175832
 51
71.14382224555374
  0
ARC
  5
491B
102
{ACAD_REACTORS
330
4D58
102
}
330
2
100
AcDbEntity
  8
KIJUN
100
AcDbCircle
 10
96.82240217659906
 20
196.2435225082937
 30
0.0
 40
3.936987302019985
100
AcDbArc
 50
136.7618589044435
 51
252.6070932926033
  0
ARC
  5
491C
102
{ACAD_REACTORS
330
4D58
102
}
330
2
100
AcDbEntity
  8
KIJUN
100
AcDbCircle
 10
108.4483180123266
 20
188.6191406937175
 30
0.0
 40
5.122337137745168
100
AcDbArc
 50
197.365938156225
 51
246.5340988147004
  0
ARC
  5
491D
102
{ACAD_REACTORS
330
4D58
102
}
330
2
100
AcDbEntity
  8
KIJUN
100
AcDbCircle
 10
97.87009810918949
 20
197.5409037476372
 30
0.0
 40
16.07553909550533
100
AcDbArc
 50
302.083046311238
 51
354.1980431514133
  0
ARC
  5
491E
102
{ACAD_REACTORS
330
4D58
102
}
330
2
100
AcDbEntity
  8
KIJUN
100
AcDbCircle
 10
81.90467831965355
 20
198.1028784942198
 30
0.0
 40
32.03335509206408
100
AcDbArc
 50
356.0851243295393
 51
19.4804824282829
  0
ARC
  5
491F
102
{ACAD_REACTORS
330
4D58
102
}
330
2
100
AcDbEntity
  8
KIJUN
100
AcDbCircle
 10
102.5780626908149
 20
205.2625116578481
 30
0.0
 40
10.15680798499608
100
AcDbArc
 50
20.29563904951768
 51
54.26803489270116
  0
ARC
  5
4920
102
{ACAD_REACTORS
330
4D58
102
}
330
2
100
AcDbEntity
  8
KIJUN
100
AcDbCircle
 10
76.93666274598349
 20
185.8644788804653
 30
0.0
 40
38.27015874688869
100
AcDbArc
 50
349.3119846776318
 51
15.22687638702247
  0
ARC
  5
4921
102
{ACAD_REACTORS
330
4D58
102
}
330
2
100
AcDbEntity
  8
KIJUN
100
AcDbCircle
 10
106.5412109947976
 20
173.1363719203483
 30
0.0
 40
4.911581273935352
100
AcDbArc
 50
358.6563643771244
 51
60.61458516439248
  0
ARC
  5
4923
102
{ACAD_REACTORS
330
4D58
102
}
330
2
100
AcDbEntity
  8
KIJUN
100
AcDbCircle
 10
78.50024810626468
 20
211.7049952961958
 30
0.0
 40
30.89341326111734
100
AcDbArc
 50
314.1370540060885
 51
345.9084220282387
  0
ARC
  5
4924
102
{ACAD_REACTORS
330
4D58
102
}
330
2
100
AcDbEntity
  8
KIJUN
100
AcDbCircle
 10
94.65540234172257
 20
204.9409368679729
 30
0.0
 40
5.840622577569304
100
AcDbArc
 50
309.8185110885411
 51
156.3023495332476
  0
ARC
  5
4925
102
{ACAD_REACTORS
330
4D58
102
}
330
2
100
AcDbEntity
  8
KIJUN
100
AcDbCircle
 10
107.8819676820982
 20
199.8416235340318
 30
0.0
 40
20.01182534278368
100
AcDbArc
 50
158.1538276363606
 51
180.5030743150479
  0
ARC
  5
4927
102
{ACAD_REACTORS
330
4D58
102
}
330
2
100
AcDbEntity
  8
KIJUN
100
AcDbCircle
 10
115.3539198392232
 20
237.9042129045614
 30
0.0
 40
36.53406104674732
100
AcDbArc
 50
178.4565478306755
 51
222.4878979993115
  0
ARC
  5
4928
102
{ACAD_REACTORS
330
4D58
102
}
330
2
100
AcDbEntity
  8
KIJUN
100
AcDbCircle
 10
141.5777970614726
 20
236.1482666672238
 30
0.0
 40
38.74614776698683
100
AcDbArc
 50
172.4305734261655
 51
200.3490809942846
  0
ARC
  5
4929
102
{ACAD_REACTORS
330
4D58
102
}
330
2
100
AcDbEntity
  8
KIJUN
100
AcDbCircle
 10
91.25451270912456
 20
237.4624264459728
 30
0.0
 40
12.50296567187597
100
AcDbArc
 50
17.64448158414791
 51
173.451763768152
  0
ARC
  5
492A
102
{ACAD_REACTORS
330
4D58
102
}
330
2
100
AcDbEntity
  8
KIJUN
100
AcDbCircle
 10
92.39578012952929
 20
218.5119511603224
 30
0.0
 40
6.481074219624958
100
AcDbArc
 50
320.3945723948156
 51
72.01239904482308
  0
ARC
  5
492B
102
{ACAD_REACTORS
330
4D58
102
}
330
2
100
AcDbEntity
  8
KIJUN
100
AcDbCircle
 10
93.31627100608782
 20
219.2319871814845
 30
0.0
 40
5.69252917686062
100
AcDbArc
 50
107.1499800462186
 51
202.5274847192618
  0
ARC
  5
492C
102
{ACAD_REACTORS
330
4D58
102
}
330
2
100
AcDbEntity
  8
KIJUN
100
AcDbCircle
 10
105.1521527608219
 20
232.3299723090331
 30
0.0
 40
22.92711482774063
100
AcDbArc
 50
155.0837169076897
 51
221.7908752114758
  0
ARC
  5
492D
102
{ACAD_REACTORS
330
4D58
102
}
330
2
100
AcDbEntity
  8
KIJUN
100
AcDbCircle
 10
81.82760700858464
 20
236.4913307794607
 30
0.0
 40
6.052478252345491
100
AcDbArc
 50
0.9249615339527206
 51
65.27648746688517
  0
ARC
  5
492E
102
{ACAD_REACTORS
330
4D58
102
}
330
2
100
AcDbEntity
  8
KIJUN
100
AcDbCircle
 10
87.55126291752647
 20
234.6395660192985
 30
0.0
 40
1.976875623093975
100
AcDbArc
 50
80.4484212043806
 51
283.2286371305768
  0
ARC
  5
492F
102
{ACAD_REACTORS
330
4D58
102
}
330
2
100
AcDbEntity
  8
KIJUN
100
AcDbCircle
 10
98.94595633901621
 20
232.8159483040894
 30
0.0
 40
10.94277452840133
100
AcDbArc
 50
180.5277951359165
 51
228.0977283613274
  0
ARC
  5
4930
102
{ACAD_REACTORS
330
4D58
102
}
330
2
100
AcDbEntity
  8
KIJUN
100
AcDbCircle
 10
102.058441189319
 20
241.5397869749495
 30
0.0
 40
4.278776458335657
100
AcDbArc
 50
154.4852430217174
 51
221.9815951037373
  0
ARC
  5
4931
102
{ACAD_REACTORS
330
4D58
102
}
330
2
100
AcDbEntity
  8
KIJUN
100
AcDbCircle
 10
98.36290843554209
 20
236.2799537317497
 30
0.0
 40
2.4524481889017
100
AcDbArc
 50
262.2859570408059
 51
77.88126732244326
  0
ARC
  5
4932
102
{ACAD_REACTORS
330
4D58
102
}
330
2
100
AcDbEntity
  8
KIJUN
100
AcDbCircle
 10
86.76621627825396
 20
233.0088180023273
 30
0.0
 40
11.29883578667373
100
AcDbArc
 50
312.4835582472123
 51
4.268009627387996
  0
ARC
  5
4933
102
{ACAD_REACTORS
330
4D58
102
}
330
2
100
AcDbEntity
  8
KIJUN
100
AcDbCircle
 10
19.19172887922747
 20
239.460551505403
 30
0.0
 40
74.47223549884871
100
AcDbArc
 50
353.3324889877669
 51
4.113109868454723
  0
ARC
  5
4934
102
{ACAD_REACTORS
330
4D58
102
}
330
2
100
AcDbEntity
  8
KIJUN
100
AcDbCircle
 10
88.26914871490016
 20
234.0079493220439
 30
0.0
 40
13.65466800962209
100
AcDbArc
 50
351.2632880605993
 51
43.3592480477434
  0
ARC
  5
4935
102
{ACAD_REACTORS
330
4D58
102
}
330
2
100
AcDbEntity
  8
KIJUN
100
AcDbCircle
 10
141.247905752954
 20
236.7113707710987
 30
0.0
 40
36.62411964111274
100
AcDbArc
 50
182.6129547216885
 51
201.4277990320675
  0
ARC
  5
4936
102
{ACAD_REACTORS
330
4D58
102
}
330
2
100
AcDbEntity
  8
KIJUN
100
AcDbCircle
 10
107.9253731312278
 20
235.7760933605234
 30
0.0
 40
3.345114822471448
100
AcDbArc
 50
44.81111260817796
 51
192.6818026852918
  0
ARC
  5
4938
102
{ACAD_REACTORS
330
4D58
102
}
330
2
100
AcDbEntity
  8
KIJUN
100
AcDbCircle
 10
106.207115741749
 20
222.9897907478783
 30
0.0
 40
1.007885007618386
100
AcDbArc
 50
198.2162104532141
 51
19.82038456263847
  0
ARC
  5
4939
102
{ACAD_REACTORS
330
4D58
102
}
330
2
100
AcDbEntity
  8
KIJUN
100
AcDbCircle
 10
118.1483747668683
 20
247.2804376770241
 30
0.0
 40
4.180365449329903
100
AcDbArc
 50
315.0359547184831
 51
224.9640452815184
  0
ARC
  5
493A
102
{ACAD_REACTORS
330
4D58
102
}
330
2
100
AcDbEntity
  8
KIJUN
100
AcDbCircle
 10
116.3841449799903
 20
238.3547967221121
 30
0.0
 40
6.089650788502273
100
AcDbArc
 50
101.3033173667562
 51
182.0812953850733
  0
ARC
  5
493B
102
{ACAD_REACTORS
330
4D58
102
}
330
2
100
AcDbEntity
  8
KIJUN
100
AcDbCircle
 10
264.324546521923
 20
230.2931496691523
 30
0.0
 40
147.0767256640429
100
AcDbArc
 50
175.7170874850954
 51
183.9858600303121
  0
ARC
  5
493C
102
{ACAD_REACTORS
330
4D58
102
}
330
2
100
AcDbEntity
  8
KIJUN
100
AcDbCircle
 10
1879.771306022268
 20
635.7064685630104
 30
0.0
 40
1812.121007863237
100
AcDbArc
 50
192.7478644012682
 51
193.2731737256135
  0
ARC
  5
493D
102
{ACAD_REACTORS
330
4D58
102
}
330
2
100
AcDbEntity
  8
KIJUN
100
AcDbCircle
 10
53.56573267582202
 20
122.805128466814
 30
0.0
 40
93.36923261158005
100
AcDbArc
 50
79.02978174685102
 51
90.32003726499668
  0
ARC
  5
493E
102
{ACAD_REACTORS
330
4D58
102
}
330
2
100
AcDbEntity
  8
KIJUN
100
AcDbCircle
 10
-160.0794731523067
 20
189.3880463013269
 30
0.0
 40
240.5671108787323
100
AcDbArc
 50
0.9270815706056543
 51
3.713866413934679
  0
ARC
  5
493F
102
{ACAD_REACTORS
330
4D58
102
}
330
2
100
AcDbEntity
  8
KIJUN
100
AcDbCircle
 10
69.05510445310318
 20
203.7065628682754
 30
0.0
 40
11.00019032234889
100
AcDbArc
 50
6.597917317144495
 51
78.04469180142409
  0
ARC
  5
4940
102
{ACAD_REACTORS
330
4D58
102
}
330
2
100
AcDbEntity
  8
KIJUN
100
AcDbCircle
 10
68.77580091136374
 20
192.9109115749282
 30
0.0
 40
11.68618845235595
100
AcDbArc
 50
307.1332369276257
 51
1.811867083724391
  0
ARC
  5
4941
102
{ACAD_REACTORS
330
4D58
102
}
330
2
100
AcDbEntity
  8
KIJUN
100
AcDbCircle
 10
100.9241304549713
 20
152.4491021086413
 30
0.0
 40
39.99646683722502
100
AcDbArc
 50
128.8584452280173
 51
179.5519889922774
  0
ARC
  5
4942
102
{ACAD_REACTORS
330
4D58
102
}
330
2
100
AcDbEntity
  8
KIJUN
100
AcDbCircle
 10
63.63031751137274
 20
152.6291322868074
 30
0.0
 40
2.704688953004514
100
AcDbArc
 50
177.1875657853709
 51
44.25764883800045
  0
ARC
  5
4944
102
{ACAD_REACTORS
330
4D58
102
}
330
2
100
AcDbEntity
  8
KIJUN
100
AcDbCircle
 10
67.42050138646217
 20
156.7985518750658
 30
0.0
 40
2.939506726769359
100
AcDbArc
 50
105.8946042086606
 51
230.9204391429011
  0
ARC
  5
4945
102
{ACAD_REACTORS
330
4D58
102
}
330
2
100
AcDbEntity
  8
KIJUN
100
AcDbCircle
 10
97.30196913122384
 20
173.3528753068374
 30
0.0
 40
33.61692683012574
100
AcDbArc
 50
193.1974225598362
 51
204.1007232267158
  0
ARC
  5
4946
102
{ACAD_REACTORS
330
4D58
102
}
330
2
100
AcDbEntity
  8
KIJUN
100
AcDbCircle
 10
73.11364172631441
 20
168.0085515304818
 30
0.0
 40
1.315487940112783
100
AcDbArc
 50
91.44732622853158
 51
214.0314571517626
  0
ARC
  5
4947
102
{ACAD_REACTORS
330
4D58
102
}
330
2
100
AcDbEntity
  8
KIJUN
100
AcDbCircle
 10
70.50651480472082
 20
156.1559508019445
 30
0.0
 40
11.2194140677413
100
AcDbArc
 50
82.22941677203477
 51
121.9291983319923
  0
ARC
  5
4948
102
{ACAD_REACTORS
330
4D58
102
}
330
2
100
AcDbEntity
  8
KIJUN
100
AcDbCircle
 10
81.21674004703072
 20
172.6389690184329
 30
0.0
 40
8.785859204983074
100
AcDbArc
 50
165.3794015127625
 51
202.1696688928789
  0
ARC
  5
4949
102
{ACAD_REACTORS
330
4D58
102
}
330
2
100
AcDbEntity
  8
KIJUN
100
AcDbCircle
 10
75.8268311390528
 20
169.288429570659
 30
0.0
 40
6.378592595366805
100
AcDbArc
 50
87.64278283332913
 51
119.1958106096395
  0
ARC
  5
494A
102
{ACAD_REACTORS
330
4D58
102
}
330
2
100
AcDbEntity
  8
KIJUN
100
AcDbCircle
 10
84.72643111670633
 20
172.9458741304536
 30
0.0
 40
9.05413755618907
100
AcDbArc
 50
108.8274813372219
 51
162.5456517823021
  0
ARC
  5
494B
102
{ACAD_REACTORS
330
4D58
102
}
330
2
100
AcDbEntity
  8
KIJUN
100
AcDbCircle
 10
77.11646108224046
 20
157.6829067715531
 30
0.0
 40
22.6620260094084
100
AcDbArc
 50
161.692755793721
 51
225.8230314148548
  0
ARC
  5
494C
102
{ACAD_REACTORS
330
4D58
102
}
330
2
100
AcDbEntity
  8
KIJUN
100
AcDbCircle
 10
247.778620497091
 20
106.4701681958841
 30
0.0
 40
200.8347261671489
100
AcDbArc
 50
161.4314581385732
 51
163.1154834712149
  0
ARC
  5
494D
102
{ACAD_REACTORS
330
4D58
102
}
330
2
100
AcDbEntity
  8
KIJUN
100
AcDbCircle
 10
49.49276137039376
 20
174.6692220731524
 30
0.0
 40
4.478042175101546
100
AcDbArc
 50
42.89287690374289
 51
311.3712540556567
  0
ARC
  5
494E
102
{ACAD_REACTORS
330
4D58
102
}
330
2
100
AcDbEntity
  8
KIJUN
100
AcDbCircle
 10
55.53174314930743
 20
174.3435663511052
 30
0.0
 40
4.341696514938363
100
AcDbArc
 50
57.86990330984477
 51
325.6613370317585
  0
ARC
  5
4951
102
{ACAD_REACTORS
330
4D58
102
}
330
2
100
AcDbEntity
  8
KIJUN
100
AcDbCircle
 10
-82.8882109049708
 20
180.7237934791757
 30
0.0
 40
140.7550225750262
100
AcDbArc
 50
358.8994475869941
 51
2.012053912648222
  0
ARC
  5
4952
102
{ACAD_REACTORS
330
4D58
102
}
330
2
100
AcDbEntity
  8
KIJUN
100
AcDbCircle
 10
61.86272225967917
 20
191.034256373601
 30
0.0
 40
6.713444204475338
100
AcDbArc
 50
214.8501213740746
 51
304.0328479580817
  0
ARC
  5
4953
102
{ACAD_REACTORS
330
4D58
102
}
330
2
100
AcDbEntity
  8
KIJUN
100
AcDbCircle
 10
57.32901287379869
 20
185.8609493373131
 30
0.0
 40
8.300188638193244
100
AcDbArc
 50
357.3052184842936
 51
43.9424964318839
  0
ARC
  5
4954
102
{ACAD_REACTORS
330
4D58
102
}
330
2
100
AcDbEntity
  8
KIJUN
100
AcDbCircle
 10
61.30864508155991
 20
200.2819173312168
 30
0.0
 40
3.781141982031258
100
AcDbArc
 50
254.7846521102334
 51
177.9694875496098
  0
ARC
  5
4955
102
{ACAD_REACTORS
330
4D58
102
}
330
2
100
AcDbEntity
  8
KIJUN
100
AcDbCircle
 10
61.66977883803259
 20
204.5491008368995
 30
0.0
 40
8.030661938965886
100
AcDbArc
 50
192.739574913279
 51
260.2970728271646
  0
ARC
  5
4956
102
{ACAD_REACTORS
330
4D58
102
}
330
2
100
AcDbEntity
  8
KIJUN
100
AcDbCircle
 10
61.2873636794011
 20
204.5270196207854
 30
0.0
 40
7.653049159298691
100
AcDbArc
 50
107.7834416546997
 51
193.2096866569045
  0
ARC
  5
4957
102
{ACAD_REACTORS
330
4D58
102
}
330
2
100
AcDbEntity
  8
KIJUN
100
AcDbCircle
 10
60.08110400415437
 20
194.8657250449907
 30
0.0
 40
4.574526129746899
100
AcDbArc
 50
314.8173186849755
 51
34.74733316340155
  0
ARC
  5
4958
102
{ACAD_REACTORS
330
4D58
102
}
330
2
100
AcDbEntity
  8
KIJUN
100
AcDbCircle
 10
47.10147834660751
 20
188.797879065027
 30
0.0
 40
9.389172159627227
100
AcDbArc
 50
331.4254343004248
 51
350.1890320825142
  0
ARC
  5
4959
102
{ACAD_REACTORS
330
4D58
102
}
330
2
100
AcDbEntity
  8
KIJUN
100
AcDbCircle
 10
78.52447749056327
 20
207.7871400429371
 30
0.0
 40
32.9925943910914
100
AcDbArc
 50
211.0688148667694
 51
225.371650547783
  0
ARC
  5
495A
102
{ACAD_REACTORS
330
4D58
102
}
330
2
100
AcDbEntity
  8
KIJUN
100
AcDbCircle
 10
72.62901991815008
 20
204.130192051693
 30
0.0
 40
26.05577559658723
100
AcDbArc
 50
157.2748280268796
 51
210.8711283434972
  0
ARC
  5
495C
102
{ACAD_REACTORS
330
4D58
102
}
330
2
100
AcDbEntity
  8
KIJUN
100
AcDbCircle
 10
28.83151043233122
 20
179.8752763867288
 30
0.0
 40
24.03906115870614
100
AcDbArc
 50
354.8491964302581
 51
26.92502442480041
  0
ARC
  5
495E
102
{ACAD_REACTORS
330
4D58
102
}
330
2
100
AcDbEntity
  8
KIJUN
100
AcDbCircle
 10
86.18941271318313
 20
214.92133267142
 30
0.0
 40
37.69353005143143
100
AcDbArc
 50
197.1657464630676
 51
224.5500389197824
  0
ARC
  5
495F
102
{ACAD_REACTORS
330
4D58
102
}
330
2
100
AcDbEntity
  8
KIJUN
100
AcDbCircle
 10
62.85717675180134
 20
203.7395751871571
 30
0.0
 40
6.279092702803197
100
AcDbArc
 50
31.18947298533328
 51
211.9599105952295
  0
ARC
  5
4960
102
{ACAD_REACTORS
330
4D58
102
}
330
2
100
AcDbEntity
  8
KIJUN
100
AcDbCircle
 10
53.53316068664259
 20
198.8940113629906
 30
0.0
 40
16.77870654776435
100
AcDbArc
 50
1.097696916406311
 51
28.85501026568906
  0
ARC
  5
4973
102
{ACAD_REACTORS
330
4D58
102
}
330
2
100
AcDbEntity
  8
KIJUN
100
AcDbCircle
 10
71.59376370204289
 20
153.1808093606253
 30
0.0
 40
11.87894888579712
100
AcDbArc
 50
278.4400799751713
 51
333.9725771107361
  0
ARC
  5
4974
102
{ACAD_REACTORS
330
4D58
102
}
330
2
100
AcDbEntity
  8
KIJUN
100
AcDbCircle
 10
93.85059716295373
 20
154.1374777293827
 30
0.0
 40
13.1230789510403
100
AcDbArc
 50
208.0408220569932
 51
255.5329790015117
  0
ARC
  5
4975
102
{ACAD_REACTORS
330
4D58
102
}
330
2
100
AcDbEntity
  8
KIJUN
100
AcDbCircle
 10
43.92989529774342
 20
173.9792042927101
 30
0.0
 40
4.379351748773371
100
AcDbArc
 50
58.59481004945027
 51
315.5468918330175
  0
ARC
  5
4977
102
{ACAD_REACTORS
330
4D58
102
}
330
2
100
AcDbEntity
  8
KIJUN
100
AcDbCircle
 10
102.5285339127856
 20
155.6302209262618
 30
0.0
 40
10.0402722595886
100
AcDbArc
 50
127.0958693994179
 51
234.6873122374626
  0
ARC
  5
4978
102
{ACAD_REACTORS
330
4D58
102
}
330
2
100
AcDbEntity
  8
KIJUN
100
AcDbCircle
 10
65.8326776017746
 20
155.0565231247283
 30
0.0
 40
9.415344046892757
100
AcDbArc
 50
328.7385706934165
 51
73.86822755507051
  0
ARC
  5
4979
102
{ACAD_REACTORS
330
4D58
102
}
330
2
100
AcDbEntity
  8
KIJUN
100
AcDbCircle
 10
57.30352177451968
 20
154.4181152395139
 30
0.0
 40
22.6284454770604
100
AcDbArc
 50
4.810397729366767
 51
41.11693089480122
  0
ARC
  5
497A
102
{ACAD_REACTORS
330
4D58
102
}
330
2
100
AcDbEntity
  8
KIJUN
100
AcDbCircle
 10
105.5451387594279
 20
156.8417063784718
 30
0.0
 40
18.79525482886465
100
AcDbArc
 50
146.1909857368422
 51
186.3747033388659
  0
ARC
  5
497B
102
{ACAD_REACTORS
330
4D58
102
}
330
2
100
AcDbEntity
  8
KIJUN
100
AcDbCircle
 10
-109.4813435115062
 20
161.3869366941047
 30
0.0
 40
192.2182866579041
100
AcDbArc
 50
355.9969655124651
 51
4.653356121902374
  0
ARC
  5
497C
102
{ACAD_REACTORS
330
4D58
102
}
330
2
100
AcDbEntity
  8
KIJUN
100
AcDbCircle
 10
58.98220345852351
 20
158.0330261959245
 30
0.0
 40
22.615162362699
100
AcDbArc
 50
14.13957727519759
 51
42.18897432468809
  0
ARC
  5
497D
102
{ACAD_REACTORS
330
4D58
102
}
330
2
100
AcDbEntity
  8
KIJUN
100
AcDbCircle
 10
110.1820676374172
 20
158.6516417028439
 30
0.0
 40
26.54951470413902
100
AcDbArc
 50
147.9355357313813
 51
168.1765239851852
  0
ARC
  5
497E
102
{ACAD_REACTORS
330
4D58
102
}
330
2
100
AcDbEntity
  8
KIJUN
100
AcDbCircle
 10
105.2008532734836
 20
227.33288786386
 30
0.0
 40
85.10413852961942
100
AcDbArc
 50
156.8313561150608
 51
180.8619845184554
  0
ARC
  5
497F
102
{ACAD_REACTORS
330
4D58
102
}
330
2
100
AcDbEntity
  8
KIJUN
100
AcDbCircle
 10
49.28651036807836
 20
236.5476355914447
 30
0.0
 40
9.245932962660738
100
AcDbArc
 50
121.2447336173545
 51
339.4771842721827
  0
ARC
  5
4980
102
{ACAD_REACTORS
330
4D58
102
}
330
2
100
AcDbEntity
  8
KIJUN
100
AcDbCircle
 10
50.52668600915914
 20
234.8045232242374
 30
0.0
 40
11.38056742431816
100
AcDbArc
 50
45.8788261901371
 51
122.0309345137551
  0
ARC
  5
4981
102
{ACAD_REACTORS
330
4D58
102
}
330
2
100
AcDbEntity
  8
KIJUN
100
AcDbCircle
 10
43.94438405718356
 20
235.0391312329168
 30
0.0
 40
17.28825372564564
100
AcDbArc
 50
229.8995677126325
 51
294.4584995007857
  0
ARC
  5
4982
102
{ACAD_REACTORS
330
4D58
102
}
330
2
100
AcDbEntity
  8
KIJUN
100
AcDbCircle
 10
48.54613778219407
 20
231.0258639659937
 30
0.0
 40
15.51911693661923
100
AcDbArc
 50
286.8483921759473
 51
50.34634749352749
  0
ARC
  5
4983
102
{ACAD_REACTORS
330
4D58
102
}
330
2
100
AcDbEntity
  8
KIJUN
100
AcDbCircle
 10
51.76109966877148
 20
235.8775414831718
 30
0.0
 40
23.59987250867467
100
AcDbArc
 50
133.2755164588641
 51
216.574754272747
  0
ARC
  5
4985
102
{ACAD_REACTORS
330
4D58
102
}
330
2
100
AcDbEntity
  8
KIJUN
100
AcDbCircle
 10
45.83064943072964
 20
234.9673094998965
 30
0.0
 40
12.2283288465419
100
AcDbArc
 50
232.3927988790478
 51
352.1927091811276
  0
ARC
  5
4986
102
{ACAD_REACTORS
330
4D58
102
}
330
2
100
AcDbEntity
  8
KIJUN
100
AcDbCircle
 10
49.21567136855871
 20
236.947697746105
 30
0.0
 40
15.93116574047041
100
AcDbArc
 50
88.89357674436833
 51
227.0871441328103
  0
ARC
  5
4987
102
{ACAD_REACTORS
330
4D58
102
}
330
2
100
AcDbEntity
  8
KIJUN
100
AcDbCircle
 10
48.85445833732124
 20
233.463314521236
 30
0.0
 40
19.42409720400454
100
AcDbArc
 50
27.16921536998922
 51
88.02672550038442
  0
ARC
  5
4988
102
{ACAD_REACTORS
330
4D58
102
}
330
2
100
AcDbEntity
  8
KIJUN
100
AcDbCircle
 10
30.71168795020583
 20
262.2614646313626
 30
0.0
 40
10.41164719869473
100
AcDbArc
 50
245.9197870357873
 51
297.8975510441832
  0
ARC
  5
4989
102
{ACAD_REACTORS
330
4D58
102
}
330
2
100
AcDbEntity
  8
KIJUN
100
AcDbCircle
 10
27.73293172478504
 20
217.4123944561283
 30
0.0
 40
6.719000989160942
100
AcDbArc
 50
40.93906208684389
 51
137.4999544225959
  0
ARC
  5
498A
102
{ACAD_REACTORS
330
4D58
102
}
330
2
100
AcDbEntity
  8
KIJUN
100
AcDbCircle
 10
5.067904187102954
 20
333.10216367726
 30
0.0
 40
120.8525090451055
100
AcDbArc
 50
277.6787044379854
 51
282.3632132820221
  0
ARC
  5
4997
102
{ACAD_REACTORS
330
4D58
102
}
330
2
100
AcDbEntity
  8
KIJUN
100
AcDbCircle
 10
47.60925245028434
 20
205.2736141583308
 30
0.0
 40
19.32281952665841
100
AcDbArc
 50
149.5978775171161
 51
228.6409992442624
  0
ARC
  5
4998
102
{ACAD_REACTORS
330
4D58
102
}
330
2
100
AcDbEntity
  8
KIJUN
100
AcDbCircle
 10
20.52728661462667
 20
175.3586897790759
 30
0.0
 40
21.03339423732135
100
AcDbArc
 50
6.07237961333513
 51
47.1146474728114
  0
ARC
  5
499B
102
{ACAD_REACTORS
330
4D58
102
}
330
2
100
AcDbEntity
  8
KIJUN
100
AcDbCircle
 10
155.2199441719841
 20
262.027154827976
 30
0.0
 40
137.0769187161301
100
AcDbArc
 50
180.5061809543319
 51
190.8054729327017
  0
ARC
  5
499C
102
{ACAD_REACTORS
330
4D58
102
}
330
2
100
AcDbEntity
  8
KIJUN
100
AcDbCircle
 10
22.74045430507708
 20
198.8457524511241
 30
0.0
 40
14.56758392662172
100
AcDbArc
 50
96.00700215517839
 51
234.840461390926
  0
ARC
  5
499D
102
{ACAD_REACTORS
330
4D58
102
}
330
2
100
AcDbEntity
  8
KIJUN
100
AcDbCircle
 10
22.66079278137112
 20
171.568344312036
 30
0.0
 40
5.583601530734537
100
AcDbArc
 50
106.5369730601197
 51
276.3432644016065
  0
ARC
  5
499E
102
{ACAD_REACTORS
330
4D58
102
}
330
2
100
AcDbEntity
  8
KIJUN
100
AcDbCircle
 10
7.182571582501897
 20
174.8637423022409
 30
0.0
 40
14.04047233057459
100
AcDbArc
 50
8.42545287717948
 51
59.29619725118668
  0
ARC
  5
499F
102
{ACAD_REACTORS
330
4D58
102
}
330
2
100
AcDbEntity
  8
KIJUN
100
AcDbCircle
 10
199.9121033369672
 20
187.2264863293275
 30
0.0
 40
177.7646986666822
100
AcDbArc
 50
183.296683738973
 51
194.9298338325311
  0
ARC
  5
49A2
102
{ACAD_REACTORS
330
4D58
102
}
330
2
100
AcDbEntity
  8
KIJUN
100
AcDbCircle
 10
-291.159279378849
 20
176.9049222602033
 30
0.0
 40
313.6008741637394
100
AcDbArc
 50
0.0180846760063655
 51
4.125111792129382
  0
ARC
  5
49A3
102
{ACAD_REACTORS
330
4D58
102
}
330
2
100
AcDbEntity
  8
KIJUN
100
AcDbCircle
 10
16.66900877708247
 20
198.9033562569914
 30
0.0
 40
4.99170384361895
100
AcDbArc
 50
6.445039744871115
 51
257.8122998682712
  0
ARC
  5
49A6
102
{ACAD_REACTORS
330
4D58
102
}
330
2
100
AcDbEntity
  8
KIJUN
100
AcDbCircle
 10
65.74119253183273
 20
209.2907884248004
 30
0.0
 40
28.08254028813548
100
AcDbArc
 50
169.7880202651793
 51
224.7994494739124
  0
ARC
  5
49A7
102
{ACAD_REACTORS
330
4D58
102
}
330
2
100
AcDbEntity
  8
KIJUN
100
AcDbCircle
 10
37.1189086716155
 20
181.4428452898226
 30
0.0
 40
11.85662615646942
100
AcDbArc
 50
348.5209532224453
 51
42.82855364725238
  0
ARC
  5
49AE
102
{ACAD_REACTORS
330
4D58
102
}
330
2
100
AcDbEntity
  8
KIJUN
100
AcDbCircle
 10
608.5235561538091
 20
588.500660059516
 30
0.0
 40
705.692999946038
100
AcDbArc
 50
214.7182456870968
 51
217.4718334848163
  0
ARC
  5
49AF
102
{ACAD_REACTORS
330
4D58
102
}
330
2
100
AcDbEntity
  8
KIJUN
100
AcDbCircle
 10
43.38714218832551
 20
154.8889825578636
 30
0.0
 40
6.633779496828392
100
AcDbArc
 50
276.7142555003411
 51
40.27302713551391
  0
ARC
  5
49B0
102
{ACAD_REACTORS
330
4D58
102
}
330
2
100
AcDbEntity
  8
KIJUN
100
AcDbCircle
 10
44.10459003899254
 20
150.9943446043101
 30
0.0
 40
2.6942721617032
100
AcDbArc
 50
142.8641030349556
 51
271.2368988968284
  0
ARC
  5
49B1
102
{ACAD_REACTORS
330
4D58
102
}
330
2
100
AcDbEntity
  8
KIJUN
100
AcDbCircle
 10
40.81481479990388
 20
153.8354984856959
 30
0.0
 40
1.6670811252719
100
AcDbArc
 50
313.2325474005244
 51
118.636479153701
  0
ARC
  5
49B2
102
{ACAD_REACTORS
330
4D58
102
}
330
2
100
AcDbEntity
  8
KIJUN
100
AcDbCircle
 10
25.92165339135288
 20
162.3839120319081
 30
0.0
 40
15.77490442217743
100
AcDbArc
 50
333.3110220151968
 51
0.5965533983906479
  0
ARC
  5
49B3
102
{ACAD_REACTORS
330
4D58
102
}
330
2
100
AcDbEntity
  8
KIJUN
100
AcDbCircle
 10
34.97660855382663
 20
163.0053362074033
 30
0.0
 40
2.109399128258842
100
AcDbArc
 50
336.9592820682796
 51
78.67701789396452
  0
ARC
  5
49B4
102
{ACAD_REACTORS
330
4D58
102
}
330
2
100
AcDbEntity
  8
KIJUN
100
AcDbCircle
 10
40.09362956733595
 20
152.1582647526343
 30
0.0
 40
10.51268036500428
100
AcDbArc
 50
81.2342911315941
 51
107.5838598592946
  0
ARC
  5
49B5
102
{ACAD_REACTORS
330
4D58
102
}
330
2
100
AcDbEntity
  8
KIJUN
100
AcDbCircle
 10
31.34321996847602
 20
168.0989227260096
 30
0.0
 40
5.053191239431617
100
AcDbArc
 50
323.2245786190753
 51
30.92195680296739
  0
ARC
  5
49B6
102
{ACAD_REACTORS
330
4D58
102
}
330
2
100
AcDbEntity
  8
KIJUN
100
AcDbCircle
 10
34.32756558671449
 20
165.3648295590416
 30
0.0
 40
5.499215444300863
100
AcDbArc
 50
75.78250810072849
 51
107.2182028106875
  0
ARC
  5
49B7
102
{ACAD_REACTORS
330
4D58
102
}
330
2
100
AcDbEntity
  8
KIJUN
100
AcDbCircle
 10
13.33525645372729
 20
164.224530166553
 30
0.0
 40
20.39250536073786
100
AcDbArc
 50
18.27032409996023
 51
42.08566238240634
  0
ARC
  5
49B8
102
{ACAD_REACTORS
330
4D58
102
}
330
2
100
AcDbEntity
  8
KIJUN
100
AcDbCircle
 10
32.0085546875463
 20
157.5591667816681
 30
0.0
 40
22.42275945023526
100
AcDbArc
 50
314.0012025175874
 51
9.632142329773579
  0
ARC
  5
49B9
102
{ACAD_REACTORS
330
4D58
102
}
330
2
100
AcDbEntity
  8
KIJUN
100
AcDbCircle
 10
33.16555745864489
 20
156.2557638018675
 30
0.0
 40
21.5509397599231
100
AcDbArc
 50
13.566322837475
 51
40.29254127555947
  0
ARC
  5
49BA
102
{ACAD_REACTORS
330
4D58
102
}
330
2
100
AcDbEntity
  8
KIJUN
100
AcDbCircle
 10
39.62005325284826
 20
147.1066451381739
 30
0.0
 40
6.304740254166686
100
AcDbArc
 50
188.1848700280962
 51
244.2095804381181
  0
ARC
  5
49BB
102
{ACAD_REACTORS
330
4D58
102
}
330
2
100
AcDbEntity
  8
KIJUN
100
AcDbCircle
 10
48.67252091141072
 20
151.0093368629939
 30
0.0
 40
12.90035454694562
100
AcDbArc
 50
143.2472898056002
 51
205.145185855858
  0
ARC
  5
49BC
102
{ACAD_REACTORS
330
4D58
102
}
330
2
100
AcDbEntity
  8
KIJUN
100
AcDbCircle
 10
64.72440024571209
 20
149.8673783425429
 30
0.0
 40
33.33086671166872
100
AcDbArc
 50
155.705680528576
 51
177.2173856431003
  0
ARC
  5
49BD
102
{ACAD_REACTORS
330
4D58
102
}
330
2
100
AcDbEntity
  8
KIJUN
100
AcDbCircle
 10
103.107127417207
 20
164.0414127316486
 30
0.0
 40
74.97413754807109
100
AcDbArc
 50
174.1999691266402
 51
188.3782684497167
  0
ARC
  5
49BE
102
{ACAD_REACTORS
330
4D58
102
}
330
2
100
AcDbEntity
  8
KIJUN
100
AcDbCircle
 10
38.56627213313812
 20
161.5259616750359
 30
0.0
 40
8.459353092062023
100
AcDbArc
 50
128.2792179154125
 51
187.1157643973371
  0
ARC
  5
49C0
102
{ACAD_REACTORS
330
4D58
102
}
330
2
100
AcDbEntity
  8
KIJUN
100
AcDbCircle
 10
15.07486599745263
 20
148.2177704333458
 30
0.0
 40
18.4145542576009
100
AcDbArc
 50
338.3698437900187
 51
353.7375397352021
  0
ARC
  5
49C1
102
{ACAD_REACTORS
330
4D58
102
}
330
2
100
AcDbEntity
  8
KIJUN
100
AcDbCircle
 10
98.86531569131875
 20
161.3344947443711
 30
0.0
 40
74.78483634641325
100
AcDbArc
 50
160.2713200636095
 51
180.1956036055028
  0
ARC
  5
49C2
102
{ACAD_REACTORS
330
4D58
102
}
330
2
100
AcDbEntity
  8
KIJUN
100
AcDbCircle
 10
30.06768326851118
 20
188.8817287664528
 30
0.0
 40
13.41901743119014
100
AcDbArc
 50
338.0730994613255
 51
359.6142146445318
  0
ARC
  5
49C3
102
{ACAD_REACTORS
330
4D58
102
}
330
2
100
AcDbEntity
  8
KIJUN
100
AcDbCircle
 10
45.94865071532737
 20
193.7740172973363
 30
0.0
 40
10.48130859334714
100
AcDbArc
 50
223.0312821136775
 51
250.8826668277564
  0
ARC
  5
49C8
102
{ACAD_REACTORS
330
4D58
102
}
330
2
100
AcDbEntity
  8
KIJUN
100
AcDbCircle
 10
47.91737703439761
 20
191.8180140827557
 30
0.0
 40
5.366015773705158
100
AcDbArc
 50
214.3355290148121
 51
251.2173142061156
  0
ARC
  5
49C9
102
{ACAD_REACTORS
330
4D58
102
}
330
2
100
AcDbEntity
  8
KIJUN
100
AcDbCircle
 10
31.673706398847
 20
186.1764481240765
 30
0.0
 40
14.52677138115226
100
AcDbArc
 50
2.214437747286255
 51
13.23813393880104
  0
ARC
  5
49CB
102
{ACAD_REACTORS
330
4D58
102
}
330
2
100
AcDbEntity
  8
KIJUN
100
AcDbCircle
 10
59.6504577144843
 20
204.9496059883366
 30
0.0
 40
25.24390577052777
100
AcDbArc
 50
185.0513722935915
 51
220.0686409890059
  0
LINE
  5
4B34
102
{ACAD_REACTORS
330
4D58
102
}
330
2
100
AcDbEntity
  8
KIJUN
  6
DASHED
100
AcDbLine
 10
188.1483747668686
 20
120.8161612189603
 30
0.0
 11
188.1483747668686
 21
80.81616121896017
 31
0.0
  0
LINE
  5
4BAB
102
{ACAD_REACTORS
330
4D58
102
}
330
2
100
AcDbEntity
  8
KIJUN
100
AcDbLine
 10
-31.85162523313137
 20
355.8161612164604
 30
0.0
 11
-31.85162523313137
 21
310.8161612164603
 31
0.0
  0
LINE
  5
4BE9
102
{ACAD_REACTORS
330
4D58
102
}
330
2
100
AcDbEntity
  8
KIJUN
100
AcDbLine
 10
-31.85162523313137
 20
310.8161612164603
 30
0.0
 11
268.1483747668686
 21
310.8161612164603
 31
0.0
  0
ARC
  5
4C60
102
{ACAD_REACTORS
330
4D58
102
}
330
2
100
AcDbEntity
  8
KIJUN
100
AcDbCircle
 10
36.26534187169906
 20
185.1079467373035
 30
0.0
 40
26.39664349199054
100
AcDbArc
 50
329.9620528933942
 51
358.3922104152922
  0
ARC
  5
4C62
102
{ACAD_REACTORS
330
4D58
102
}
330
2
100
AcDbEntity
  8
KIJUN
100
AcDbCircle
 10
42.34246921459969
 20
167.4787404965901
 30
0.0
 40
17.34664687001223
100
AcDbArc
 50
143.1065928360071
 51
178.5932348073105
  0
ARC
  5
4C63
102
{ACAD_REACTORS
330
4D58
102
}
330
2
100
AcDbEntity
  8
KIJUN
100
AcDbCircle
 10
31.30486038870552
 20
226.2465921525374
 30
0.0
 40
11.2001950789028
100
AcDbArc
 50
180.9924897636735
 51
268.1506858901465
  0
ARC
  5
4C64
102
{ACAD_REACTORS
330
4D58
102
}
330
2
100
AcDbEntity
  8
KIJUN
100
AcDbCircle
 10
37.80729013871255
 20
298.1748412111254
 30
0.0
 40
83.40552211616065
100
AcDbArc
 50
265.2794956932179
 51
280.5261748973465
  0
LINE
  5
4C67
102
{ACAD_REACTORS
330
4D58
102
}
330
2
100
AcDbEntity
  8
KIJUN
100
AcDbLine
 10
-5.535835758131332
 20
273.8161612164603
 30
0.0
 11
241.8325852918686
 21
273.8161612164603
 31
0.0
  0
LINE
  5
4C68
102
{ACAD_REACTORS
330
4D58
102
}
330
2
100
AcDbEntity
  8
KIJUN
100
AcDbLine
 10
255.6483747668686
 20
310.8161612164603
 30
0.0
 11
255.6483747668684
 21
285.8161612164603
 31
0.0
  0
LINE
  5
4C69
102
{ACAD_REACTORS
330
4D58
102
}
330
2
100
AcDbEntity
  8
KIJUN
100
AcDbLine
 10
241.8325852918687
 20
285.8161612164601
 30
0.0
 11
241.8325852918686
 21
273.8161612164603
 31
0.0
  0
LINE
  5
4C6A
102
{ACAD_REACTORS
330
4D58
102
}
330
2
100
AcDbEntity
  8
KIJUN
100
AcDbLine
 10
211.3238133623687
 20
285.8161612164601
 30
0.0
 11
211.3238133623686
 21
273.8161612164603
 31
0.0
  0
LINE
  5
4C6B
102
{ACAD_REACTORS
330
4D58
102
}
330
2
100
AcDbEntity
  8
KIJUN
100
AcDbLine
 10
218.1483747668687
 20
273.8161612164604
 30
0.0
 11
218.1483747668685
 21
264.9389682339603
 31
0.0
  0
ARC
  5
4C6C
102
{ACAD_REACTORS
330
4D58
102
}
330
2
100
AcDbEntity
  8
KIJUN
100
AcDbCircle
 10
218.5530356319712
 20
258.2706886369143
 30
0.0
 40
6.680546624348426
100
AcDbArc
 50
93.4727040565053
 51
157.6026515274459
  0
LINE
  5
4C6D
102
{ACAD_REACTORS
330
4D58
102
}
330
2
100
AcDbEntity
  8
KIJUN
100
AcDbLine
 10
190.9378484513693
 20
260.8161612164579
 30
0.0
 11
190.9378484513693
 21
264.9389682339578
 31
0.0
  0
LINE
  5
4C6E
102
{ACAD_REACTORS
330
4D58
102
}
330
2
100
AcDbEntity
  8
KIJUN
100
AcDbLine
 10
193.4115326618688
 20
273.8161612164603
 30
0.0
 11
193.4115326618685
 21
264.9389682339578
 31
0.0
  0
ARC
  5
4C6F
102
{ACAD_REACTORS
330
4D58
102
}
330
2
100
AcDbEntity
  8
KIJUN
100
AcDbCircle
 10
207.9948659949936
 20
125.9696699908353
 30
0.0
 40
5.153508771874999
100
AcDbArc
 50
270.0
 51
90.0
  0
ARC
  5
4C70
102
{ACAD_REACTORS
330
4D58
102
}
330
2
100
AcDbEntity
  8
KIJUN
100
AcDbCircle
 10
207.9948659949936
 20
136.2766875345854
 30
0.0
 40
5.153508771875038
100
AcDbArc
 50
270.0
 51
88.29306472170394
  0
ARC
  5
4C71
102
{ACAD_REACTORS
330
4D58
102
}
330
2
100
AcDbEntity
  8
KIJUN
100
AcDbCircle
 10
873.7906383535717
 20
84.86377100591745
 30
0.0
 40
727.4599010869962
100
AcDbArc
 50
170.4967090808616
 51
171.4595950643189
  0
ARC
  5
4C72
102
{ACAD_REACTORS
330
4D58
102
}
330
2
100
AcDbEntity
  8
KIJUN
100
AcDbCircle
 10
145.7622885308546
 20
202.6295183648615
 30
0.0
 40
10.8085765408393
100
AcDbArc
 50
12.50854477508109
 51
78.68059144625522
  0
ARC
  5
4C73
102
{ACAD_REACTORS
330
4D58
102
}
330
2
100
AcDbEntity
  8
KIJUN
100
AcDbCircle
 10
138.7759542998831
 20
196.2486144718549
 30
0.0
 40
15.97691154651727
100
AcDbArc
 50
309.8952683509482
 51
347.8889080751305
  0
ARC
  5
4C74
102
{ACAD_REACTORS
330
4D58
102
}
330
2
100
AcDbEntity
  8
KIJUN
100
AcDbCircle
 10
260.3101206009711
 20
64.85208066504404
 30
0.0
 40
163.0300408821618
100
AcDbArc
 50
133.0483486346693
 51
145.4554899588528
  0
ARC
  5
4C7E
102
{ACAD_REACTORS
330
4D58
102
}
330
2
100
AcDbEntity
  8
KIJUN
100
AcDbCircle
 10
135.3535044488545
 20
156.487710575804
 30
0.0
 40
16.60193710709913
100
AcDbArc
 50
147.3434200247998
 51
245.0927263855579
  0
ARC
  5
4C7F
102
{ACAD_REACTORS
330
4D58
102
}
330
2
100
AcDbEntity
  8
KIJUN
100
AcDbCircle
 10
291.2289704530681
 20
43.50383223528532
 30
0.0
 40
209.0931878116191
100
AcDbArc
 50
140.4935913805508
 51
144.3243477816019
  0
ARC
  5
4C80
102
{ACAD_REACTORS
330
4D58
102
}
330
2
100
AcDbEntity
  8
KIJUN
100
AcDbCircle
 10
124.017964523269
 20
174.2439724883317
 30
0.0
 40
3.334651263821084
100
AcDbArc
 50
212.7556421250452
 51
303.6346785614473
  0
ARC
  5
4C81
102
{ACAD_REACTORS
330
4D58
102
}
330
2
100
AcDbEntity
  8
KIJUN
100
AcDbCircle
 10
124.7072782450371
 20
173.5765301893702
 30
0.0
 40
5.971781876781458
100
AcDbArc
 50
29.5476791090993
 51
119.6409630855191
  0
ARC
  5
4C82
102
{ACAD_REACTORS
330
4D58
102
}
330
2
100
AcDbEntity
  8
KIJUN
100
AcDbCircle
 10
40.01527456511275
 20
264.332865607217
 30
0.0
 40
125.6603829343567
100
AcDbArc
 50
315.6692634581966
 51
320.3195652369636
  0
ARC
  5
4C83
102
{ACAD_REACTORS
330
4D58
102
}
330
2
100
AcDbEntity
  8
KIJUN
100
AcDbCircle
 10
139.1178092967447
 20
191.4409115212216
 30
0.0
 40
7.722648896750297
100
AcDbArc
 50
214.2886726212726
 51
277.1536596770914
  0
ARC
  5
4C84
102
{ACAD_REACTORS
330
4D58
102
}
330
2
100
AcDbEntity
  8
KIJUN
100
AcDbCircle
 10
127.9671462919177
 20
188.9463955053541
 30
0.0
 40
13.16882405405933
100
AcDbArc
 50
336.8933807165865
 51
15.59454058700851
  0
ARC
  5
4C85
102
{ACAD_REACTORS
330
4D58
102
}
330
2
100
AcDbEntity
  8
KIJUN
100
AcDbCircle
 10
141.0686463360805
 20
202.4742439173976
 30
0.0
 40
3.756345626771096
100
AcDbArc
 50
289.823181597959
 51
212.5193534071843
  0
ARC
  5
4C86
102
{ACAD_REACTORS
330
4D58
102
}
330
2
100
AcDbEntity
  8
KIJUN
100
AcDbCircle
 10
139.4560544080458
 20
205.621514534383
 30
0.0
 40
7.27788938729734
100
AcDbArc
 50
197.5839540084804
 51
293.3660356395633
  0
ARC
  5
4C87
102
{ACAD_REACTORS
330
4D58
102
}
330
2
100
AcDbEntity
  8
KIJUN
100
AcDbCircle
 10
140.6142144721221
 20
205.3728914427552
 30
0.0
 40
8.327531537652063
100
AcDbArc
 50
108.856177754447
 51
193.5426354824168
  0
ARC
  5
4C88
102
{ACAD_REACTORS
330
4D58
102
}
330
2
100
AcDbEntity
  8
KIJUN
100
AcDbCircle
 10
139.4743473571382
 20
196.2435225082937
 30
0.0
 40
3.936987302019985
100
AcDbArc
 50
287.3929067073973
 51
43.23814109555621
  0
ARC
  5
4C89
102
{ACAD_REACTORS
330
4D58
102
}
330
2
100
AcDbEntity
  8
KIJUN
100
AcDbCircle
 10
127.8484315214106
 20
188.6191406937175
 30
0.0
 40
5.122337137745168
100
AcDbArc
 50
293.4659011853003
 51
342.634061843775
  0
ARC
  5
4C8A
102
{ACAD_REACTORS
330
4D58
102
}
330
2
100
AcDbEntity
  8
KIJUN
100
AcDbCircle
 10
138.4266514245477
 20
197.5409037476372
 30
0.0
 40
16.07553909550533
100
AcDbArc
 50
185.8019568485867
 51
237.9169536887615
  0
ARC
  5
4C8B
102
{ACAD_REACTORS
330
4D58
102
}
330
2
100
AcDbEntity
  8
KIJUN
100
AcDbCircle
 10
154.3920712140837
 20
198.1028784942198
 30
0.0
 40
32.03335509206408
100
AcDbArc
 50
160.5195175717172
 51
183.9148756704606
  0
ARC
  5
4C8C
102
{ACAD_REACTORS
330
4D58
102
}
330
2
100
AcDbEntity
  8
KIJUN
100
AcDbCircle
 10
133.7186868429223
 20
205.2625116578481
 30
0.0
 40
10.15680798499608
100
AcDbArc
 50
125.731965107299
 51
159.7043609504822
  0
ARC
  5
4C8D
102
{ACAD_REACTORS
330
4D58
102
}
330
2
100
AcDbEntity
  8
KIJUN
100
AcDbCircle
 10
159.3600867877537
 20
185.8644788804653
 30
0.0
 40
38.27015874688869
100
AcDbArc
 50
164.7731236129777
 51
190.6880153223683
  0
ARC
  5
4C8E
102
{ACAD_REACTORS
330
4D58
102
}
330
2
100
AcDbEntity
  8
KIJUN
100
AcDbCircle
 10
129.7555385389396
 20
173.1363719203483
 30
0.0
 40
4.911581273935352
100
AcDbArc
 50
119.3854148356072
 51
181.3436356228756
  0
ARC
  5
4C8F
102
{ACAD_REACTORS
330
4D58
102
}
330
2
100
AcDbEntity
  8
KIJUN
100
AcDbCircle
 10
157.7965014274726
 20
211.7049952961958
 30
0.0
 40
30.89341326111734
100
AcDbArc
 50
194.0915779717613
 51
225.8629459939116
  0
ARC
  5
4C90
102
{ACAD_REACTORS
330
4D58
102
}
330
2
100
AcDbEntity
  8
KIJUN
100
AcDbCircle
 10
141.6413471920147
 20
204.9409368679729
 30
0.0
 40
5.840622577569304
100
AcDbArc
 50
23.69765046675257
 51
230.1814889114591
  0
ARC
  5
4C91
102
{ACAD_REACTORS
330
4D58
102
}
330
2
100
AcDbEntity
  8
KIJUN
100
AcDbCircle
 10
128.414781851639
 20
199.8416235340318
 30
0.0
 40
20.01182534278368
100
AcDbArc
 50
359.4969256849521
 51
21.84617236363955
  0
ARC
  5
4C92
102
{ACAD_REACTORS
330
4D58
102
}
330
2
100
AcDbEntity
  8
KIJUN
100
AcDbCircle
 10
120.942829694514
 20
237.9042129045614
 30
0.0
 40
36.53406104674732
100
AcDbArc
 50
317.5121020006882
 51
1.543452169324536
  0
ARC
  5
4C93
102
{ACAD_REACTORS
330
4D58
102
}
330
2
100
AcDbEntity
  8
KIJUN
100
AcDbCircle
 10
94.71895247226465
 20
236.1482666672238
 30
0.0
 40
38.74614776698683
100
AcDbArc
 50
339.6509190057153
 51
7.569426573834646
  0
ARC
  5
4C94
102
{ACAD_REACTORS
330
4D58
102
}
330
2
100
AcDbEntity
  8
KIJUN
100
AcDbCircle
 10
145.0422368246127
 20
237.4624264459728
 30
0.0
 40
12.50296567187597
100
AcDbArc
 50
6.548236231847981
 51
162.355518415852
  0
ARC
  5
4C95
102
{ACAD_REACTORS
330
4D58
102
}
330
2
100
AcDbEntity
  8
KIJUN
100
AcDbCircle
 10
143.9009694042079
 20
218.5119511603224
 30
0.0
 40
6.481074219624958
100
AcDbArc
 50
107.9876009551767
 51
219.6054276051845
  0
ARC
  5
4C96
102
{ACAD_REACTORS
330
4D58
102
}
330
2
100
AcDbEntity
  8
KIJUN
100
AcDbCircle
 10
142.9804785276494
 20
219.2319871814845
 30
0.0
 40
5.69252917686062
100
AcDbArc
 50
337.4725152807386
 51
72.85001995378124
  0
ARC
  5
4C97
102
{ACAD_REACTORS
330
4D58
102
}
330
2
100
AcDbEntity
  8
KIJUN
100
AcDbCircle
 10
131.1445967729153
 20
232.3299723090331
 30
0.0
 40
22.92711482774063
100
AcDbArc
 50
318.2091247885245
 51
24.91628309230999
  0
ARC
  5
4C98
102
{ACAD_REACTORS
330
4D58
102
}
330
2
100
AcDbEntity
  8
KIJUN
100
AcDbCircle
 10
154.4691425251526
 20
236.4913307794607
 30
0.0
 40
6.052478252345491
100
AcDbArc
 50
114.7235125331153
 51
179.0750384660473
  0
ARC
  5
4C99
102
{ACAD_REACTORS
330
4D58
102
}
330
2
100
AcDbEntity
  8
KIJUN
100
AcDbCircle
 10
148.7454866162107
 20
234.6395660192985
 30
0.0
 40
1.976875623093975
100
AcDbArc
 50
256.7713628694231
 51
99.55157879561918
  0
ARC
  5
4C9A
102
{ACAD_REACTORS
330
4D58
102
}
330
2
100
AcDbEntity
  8
KIJUN
100
AcDbCircle
 10
137.350793194721
 20
232.8159483040894
 30
0.0
 40
10.94277452840133
100
AcDbArc
 50
311.9022716386721
 51
359.4722048640835
  0
ARC
  5
4C9B
102
{ACAD_REACTORS
330
4D58
102
}
330
2
100
AcDbEntity
  8
KIJUN
100
AcDbCircle
 10
134.2383083444183
 20
241.5397869749495
 30
0.0
 40
4.278776458335657
100
AcDbArc
 50
318.0184048962623
 51
25.51475697828222
  0
ARC
  5
4C9C
102
{ACAD_REACTORS
330
4D58
102
}
330
2
100
AcDbEntity
  8
KIJUN
100
AcDbCircle
 10
137.9338410981951
 20
236.2799537317497
 30
0.0
 40
2.4524481889017
100
AcDbArc
 50
102.1187326775566
 51
277.7140429591941
  0
ARC
  5
4C9D
102
{ACAD_REACTORS
330
4D58
102
}
330
2
100
AcDbEntity
  8
KIJUN
100
AcDbCircle
 10
149.5305332554833
 20
233.0088180023273
 30
0.0
 40
11.29883578667373
100
AcDbArc
 50
175.7319903726119
 51
227.5164417527875
  0
ARC
  5
4C9E
102
{ACAD_REACTORS
330
4D58
102
}
330
2
100
AcDbEntity
  8
KIJUN
100
AcDbCircle
 10
217.1050206545098
 20
239.460551505403
 30
0.0
 40
74.47223549884871
100
AcDbArc
 50
175.8868901315452
 51
186.667511012233
  0
ARC
  5
4C9F
102
{ACAD_REACTORS
330
4D58
102
}
330
2
100
AcDbEntity
  8
KIJUN
100
AcDbCircle
 10
148.027600818837
 20
234.0079493220439
 30
0.0
 40
13.65466800962209
100
AcDbArc
 50
136.6407519522562
 51
188.7367119394007
  0
ARC
  5
4CA0
102
{ACAD_REACTORS
330
4D58
102
}
330
2
100
AcDbEntity
  8
KIJUN
100
AcDbCircle
 10
95.04884378078324
 20
236.7113707710987
 30
0.0
 40
36.62411964111274
100
AcDbArc
 50
338.5722009679326
 51
357.3870452783115
  0
ARC
  5
4CA1
102
{ACAD_REACTORS
330
4D58
102
}
330
2
100
AcDbEntity
  8
KIJUN
100
AcDbCircle
 10
128.3713764025094
 20
235.7760933605234
 30
0.0
 40
3.345114822471448
100
AcDbArc
 50
347.3181973147082
 51
135.1888873918223
  0
ARC
  5
4CA2
102
{ACAD_REACTORS
330
4D58
102
}
330
2
100
AcDbEntity
  8
KIJUN
100
AcDbCircle
 10
130.0896337919882
 20
222.9897907478783
 30
0.0
 40
1.007885007618386
100
AcDbArc
 50
160.1796154373618
 51
341.7837895467858
  0
ARC
  5
4CA3
102
{ACAD_REACTORS
330
4D58
102
}
330
2
100
AcDbEntity
  8
KIJUN
100
AcDbCircle
 10
119.9126045537469
 20
238.3547967221121
 30
0.0
 40
6.089650788502273
100
AcDbArc
 50
357.9187046149266
 51
78.69668263324403
  0
ARC
  5
4CA5
102
{ACAD_REACTORS
330
4D58
102
}
330
2
100
AcDbEntity
  8
KIJUN
100
AcDbCircle
 10
-1643.474556488531
 20
635.7064685630104
 30
0.0
 40
1812.121007863237
100
AcDbArc
 50
346.7268262743866
 51
347.2521355987319
  0
ARC
  5
4CA6
102
{ACAD_REACTORS
330
4D58
102
}
330
2
100
AcDbEntity
  8
KIJUN
100
AcDbCircle
 10
182.7310168579152
 20
122.805128466814
 30
0.0
 40
93.36923261158005
100
AcDbArc
 50
89.67996273500405
 51
100.9702182531492
  0
ARC
  5
4CA7
102
{ACAD_REACTORS
330
4D58
102
}
330
2
100
AcDbEntity
  8
KIJUN
100
AcDbCircle
 10
396.376222686044
 20
189.3880463013269
 30
0.0
 40
240.5671108787323
100
AcDbArc
 50
176.2861335860653
 51
179.0729184293944
  0
ARC
  5
4CA8
102
{ACAD_REACTORS
330
4D58
102
}
330
2
100
AcDbEntity
  8
KIJUN
100
AcDbCircle
 10
167.2416450806341
 20
203.7065628682754
 30
0.0
 40
11.00019032234889
100
AcDbArc
 50
101.9553081985761
 51
173.4020826828555
  0
ARC
  5
4CA9
102
{ACAD_REACTORS
330
4D58
102
}
330
2
100
AcDbEntity
  8
KIJUN
100
AcDbCircle
 10
167.3099507645107
 20
192.8733383163269
 30
0.0
 40
11.47656928312593
100
AcDbArc
 50
177.9673391071628
 51
230.5310587488289
  0
ARC
  5
4CAA
102
{ACAD_REACTORS
330
4D58
102
}
330
2
100
AcDbEntity
  8
KIJUN
100
AcDbCircle
 10
139.8641646598016
 20
154.7171981393212
 30
0.0
 40
35.55750312590844
100
AcDbArc
 50
356.8476358482533
 51
55.47927141683297
  0
ARC
  5
4CB4
102
{ACAD_REACTORS
330
4D58
102
}
330
2
100
AcDbEntity
  8
KIJUN
100
AcDbCircle
 10
159.1802884514968
 20
157.6829067715531
 30
0.0
 40
22.6620260094084
100
AcDbArc
 50
314.1769685851452
 51
18.30724420627911
  0
ARC
  5
4CB5
102
{ACAD_REACTORS
330
4D58
102
}
330
2
100
AcDbEntity
  8
KIJUN
100
AcDbCircle
 10
-11.48187096335377
 20
106.4701681958841
 30
0.0
 40
200.8347261671489
100
AcDbArc
 50
16.88451652878512
 51
18.56854186142658
  0
ARC
  5
4CB6
102
{ACAD_REACTORS
330
4D58
102
}
330
2
100
AcDbEntity
  8
KIJUN
100
AcDbCircle
 10
186.8039881633435
 20
174.6692220731524
 30
0.0
 40
4.478042175101546
100
AcDbArc
 50
228.6287459443433
 51
137.1071230962568
  0
ARC
  5
4CB7
102
{ACAD_REACTORS
330
4D58
102
}
330
2
100
AcDbEntity
  8
KIJUN
100
AcDbCircle
 10
180.7650063844298
 20
174.3435663511052
 30
0.0
 40
4.341696514938363
100
AcDbArc
 50
214.3386629682412
 51
122.1300966901555
  0
ARC
  5
4CB8
102
{ACAD_REACTORS
330
4D58
102
}
330
2
100
AcDbEntity
  8
KIJUN
100
AcDbCircle
 10
319.1849604387081
 20
180.7237934791757
 30
0.0
 40
140.7550225750262
100
AcDbArc
 50
177.9879460873518
 51
181.1005524130059
  0
ARC
  5
4CB9
102
{ACAD_REACTORS
330
4D58
102
}
330
2
100
AcDbEntity
  8
KIJUN
100
AcDbCircle
 10
174.4340272740581
 20
191.034256373601
 30
0.0
 40
6.713444204475338
100
AcDbArc
 50
235.9671520419177
 51
325.1498786259251
  0
ARC
  5
4CBA
102
{ACAD_REACTORS
330
4D58
102
}
330
2
100
AcDbEntity
  8
KIJUN
100
AcDbCircle
 10
178.9677366599385
 20
185.8609493373131
 30
0.0
 40
8.300188638193244
100
AcDbArc
 50
136.0575035681163
 51
182.6947815157064
  0
ARC
  5
4CBB
102
{ACAD_REACTORS
330
4D58
102
}
330
2
100
AcDbEntity
  8
KIJUN
100
AcDbCircle
 10
174.9881044521773
 20
200.2819173312168
 30
0.0
 40
3.781141982031258
100
AcDbArc
 50
2.030512450390169
 51
285.2153478897662
  0
ARC
  5
4CBC
102
{ACAD_REACTORS
330
4D58
102
}
330
2
100
AcDbEntity
  8
KIJUN
100
AcDbCircle
 10
174.6269706957046
 20
204.5491008368995
 30
0.0
 40
8.030661938965886
100
AcDbArc
 50
279.7029271728356
 51
347.2604250867209
  0
ARC
  5
4CBD
102
{ACAD_REACTORS
330
4D58
102
}
330
2
100
AcDbEntity
  8
KIJUN
100
AcDbCircle
 10
175.0093858543361
 20
204.5270196207854
 30
0.0
 40
7.653049159298691
100
AcDbArc
 50
346.7903133430954
 51
72.21655834530018
  0
ARC
  5
4CBE
102
{ACAD_REACTORS
330
4D58
102
}
330
2
100
AcDbEntity
  8
KIJUN
100
AcDbCircle
 10
176.2156455295828
 20
194.8657250449907
 30
0.0
 40
4.574526129746899
100
AcDbArc
 50
145.2526668365982
 51
225.1826813150244
  0
ARC
  5
4CBF
102
{ACAD_REACTORS
330
4D58
102
}
330
2
100
AcDbEntity
  8
KIJUN
100
AcDbCircle
 10
189.1952711871297
 20
188.797879065027
 30
0.0
 40
9.389172159627227
100
AcDbArc
 50
189.8109679174857
 51
208.5745656995753
  0
ARC
  5
4CC0
102
{ACAD_REACTORS
330
4D58
102
}
330
2
100
AcDbEntity
  8
KIJUN
100
AcDbCircle
 10
157.772272043174
 20
207.7871400429371
 30
0.0
 40
32.9925943910914
100
AcDbArc
 50
314.6283494522172
 51
328.9311851332304
  0
ARC
  5
4CC1
102
{ACAD_REACTORS
330
4D58
102
}
330
2
100
AcDbEntity
  8
KIJUN
100
AcDbCircle
 10
163.6677296155871
 20
204.130192051693
 30
0.0
 40
26.05577559658723
100
AcDbArc
 50
329.1288716565026
 51
22.72517197312061
  0
ARC
  5
4CC2
102
{ACAD_REACTORS
330
4D58
102
}
330
2
100
AcDbEntity
  8
KIJUN
100
AcDbCircle
 10
207.4652391014061
 20
179.8752763867288
 30
0.0
 40
24.03906115870614
100
AcDbArc
 50
153.0749755751997
 51
185.150803569742
  0
ARC
  5
4CC3
102
{ACAD_REACTORS
330
4D58
102
}
330
2
100
AcDbEntity
  8
KIJUN
100
AcDbCircle
 10
150.1073368205541
 20
214.92133267142
 30
0.0
 40
37.69353005143143
100
AcDbArc
 50
315.4499610802173
 51
342.8342535369326
  0
ARC
  5
4CC4
102
{ACAD_REACTORS
330
4D58
102
}
330
2
100
AcDbEntity
  8
KIJUN
100
AcDbCircle
 10
173.4395727819359
 20
203.7395751871571
 30
0.0
 40
6.279092702803197
100
AcDbArc
 50
328.0400894047705
 51
148.8105270146666
  0
ARC
  5
4CC5
102
{ACAD_REACTORS
330
4D58
102
}
330
2
100
AcDbEntity
  8
KIJUN
100
AcDbCircle
 10
182.7635888470947
 20
198.8940113629906
 30
0.0
 40
16.77870654776435
100
AcDbArc
 50
151.1449897343112
 51
178.9023030835937
  0
ARC
  5
4CC8
102
{ACAD_REACTORS
330
4D58
102
}
330
2
100
AcDbEntity
  8
KIJUN
100
AcDbCircle
 10
192.3668542359938
 20
173.9792042927101
 30
0.0
 40
4.379351748773371
100
AcDbArc
 50
224.453108166982
 51
121.4051899505497
  0
ARC
  5
4CD0
102
{ACAD_REACTORS
330
4D58
102
}
330
2
100
AcDbEntity
  8
KIJUN
100
AcDbCircle
 10
131.0958962602537
 20
227.33288786386
 30
0.0
 40
85.10413852961942
100
AcDbArc
 50
359.1380154815446
 51
23.16864388493887
  0
ARC
  5
4CD1
102
{ACAD_REACTORS
330
4D58
102
}
330
2
100
AcDbEntity
  8
KIJUN
100
AcDbCircle
 10
187.0102391656589
 20
236.5476355914447
 30
0.0
 40
9.245932962660738
100
AcDbArc
 50
200.5228157278172
 51
58.75526638264524
  0
ARC
  5
4CD2
102
{ACAD_REACTORS
330
4D58
102
}
330
2
100
AcDbEntity
  8
KIJUN
100
AcDbCircle
 10
185.7700635245781
 20
234.8045232242374
 30
0.0
 40
11.38056742431816
100
AcDbArc
 50
57.96906548624422
 51
134.1211738098627
  0
ARC
  5
4CD3
102
{ACAD_REACTORS
330
4D58
102
}
330
2
100
AcDbEntity
  8
KIJUN
100
AcDbCircle
 10
192.3523654765537
 20
235.0391312329168
 30
0.0
 40
17.28825372564564
100
AcDbArc
 50
245.5415004992143
 51
310.1004322873677
  0
ARC
  5
4CD4
102
{ACAD_REACTORS
330
4D58
102
}
330
2
100
AcDbEntity
  8
KIJUN
100
AcDbCircle
 10
187.7506117515432
 20
231.0258639659937
 30
0.0
 40
15.51911693661923
100
AcDbArc
 50
129.6536525064719
 51
253.1516078240532
  0
ARC
  5
4CD5
102
{ACAD_REACTORS
330
4D58
102
}
330
2
100
AcDbEntity
  8
KIJUN
100
AcDbCircle
 10
184.5356498649657
 20
235.8775414831718
 30
0.0
 40
23.59987250867467
100
AcDbArc
 50
323.4252457272533
 51
46.72448354113581
  0
ARC
  5
4CD6
102
{ACAD_REACTORS
330
4D58
102
}
330
2
100
AcDbEntity
  8
KIJUN
100
AcDbCircle
 10
190.4661001030076
 20
234.9673094998965
 30
0.0
 40
12.2283288465419
100
AcDbArc
 50
187.8072908188725
 51
307.607201120952
  0
ARC
  5
4CD7
102
{ACAD_REACTORS
330
4D58
102
}
330
2
100
AcDbEntity
  8
KIJUN
100
AcDbCircle
 10
187.0810781651785
 20
236.947697746105
 30
0.0
 40
15.93116574047041
100
AcDbArc
 50
312.9128558671896
 51
91.10642325563157
  0
ARC
  5
4CD8
102
{ACAD_REACTORS
330
4D58
102
}
330
2
100
AcDbEntity
  8
KIJUN
100
AcDbCircle
 10
187.442291196416
 20
233.463314521236
 30
0.0
 40
19.42409720400454
100
AcDbArc
 50
91.97327449961578
 51
152.8307846300109
  0
ARC
  5
4CD9
102
{ACAD_REACTORS
330
4D58
102
}
330
2
100
AcDbEntity
  8
KIJUN
100
AcDbCircle
 10
205.5850615835314
 20
262.2614646313626
 30
0.0
 40
10.41164719869473
100
AcDbArc
 50
242.1024489558171
 51
294.0802129642128
  0
ARC
  5
4CDA
102
{ACAD_REACTORS
330
4D58
102
}
330
2
100
AcDbEntity
  8
KIJUN
100
AcDbCircle
 10
208.5638178089522
 20
217.4123944561283
 30
0.0
 40
6.719000989160942
100
AcDbArc
 50
42.50004557740356
 51
139.0609379131566
  0
ARC
  5
4CDB
102
{ACAD_REACTORS
330
4D58
102
}
330
2
100
AcDbEntity
  8
KIJUN
100
AcDbCircle
 10
231.2288453466343
 20
333.10216367726
 30
0.0
 40
120.8525090451055
100
AcDbArc
 50
257.6367867179779
 51
262.3212955620151
  0
ARC
  5
4CDC
102
{ACAD_REACTORS
330
4D58
102
}
330
2
100
AcDbEntity
  8
KIJUN
100
AcDbCircle
 10
188.6874970834529
 20
205.2736141583308
 30
0.0
 40
19.32281952665841
100
AcDbArc
 50
311.3590007557381
 51
30.4021224828843
  0
ARC
  5
4CDD
102
{ACAD_REACTORS
330
4D58
102
}
330
2
100
AcDbEntity
  8
KIJUN
100
AcDbCircle
 10
215.7694629191106
 20
175.3586897790759
 30
0.0
 40
21.03339423732135
100
AcDbArc
 50
132.885352527188
 51
173.9276203866649
  0
ARC
  5
4CDE
102
{ACAD_REACTORS
330
4D58
102
}
330
2
100
AcDbEntity
  8
KIJUN
100
AcDbCircle
 10
81.07680536175308
 20
262.027154827976
 30
0.0
 40
137.0769187161301
100
AcDbArc
 50
349.1945270672983
 51
359.4938190456681
  0
ARC
  5
4CDF
102
{ACAD_REACTORS
330
4D58
102
}
330
2
100
AcDbEntity
  8
KIJUN
100
AcDbCircle
 10
213.5562952286602
 20
198.8457524511241
 30
0.0
 40
14.56758392662172
100
AcDbArc
 50
305.1595386090736
 51
83.99299784482158
  0
ARC
  5
4CE0
102
{ACAD_REACTORS
330
4D58
102
}
330
2
100
AcDbEntity
  8
KIJUN
100
AcDbCircle
 10
213.6359567523661
 20
171.568344312036
 30
0.0
 40
5.583601530734537
100
AcDbArc
 50
263.6567355983938
 51
73.46302693988036
  0
ARC
  5
4CE1
102
{ACAD_REACTORS
330
4D58
102
}
330
2
100
AcDbEntity
  8
KIJUN
100
AcDbCircle
 10
229.1141779512353
 20
174.8637423022409
 30
0.0
 40
14.04047233057459
100
AcDbArc
 50
120.7038027488134
 51
171.5745471228206
  0
ARC
  5
4CE2
102
{ACAD_REACTORS
330
4D58
102
}
330
2
100
AcDbEntity
  8
KIJUN
100
AcDbCircle
 10
36.38464619677001
 20
187.2264863293275
 30
0.0
 40
177.7646986666822
100
AcDbArc
 50
345.070166167469
 51
356.703316261027
  0
ARC
  5
4CE3
102
{ACAD_REACTORS
330
4D58
102
}
330
2
100
AcDbEntity
  8
KIJUN
100
AcDbCircle
 10
527.4560289125862
 20
176.9049222602033
 30
0.0
 40
313.6008741637394
100
AcDbArc
 50
175.8748882078706
 51
179.9819153239936
  0
ARC
  5
4CE4
102
{ACAD_REACTORS
330
4D58
102
}
330
2
100
AcDbEntity
  8
KIJUN
100
AcDbCircle
 10
219.6277407566548
 20
198.9033562569914
 30
0.0
 40
4.99170384361895
100
AcDbArc
 50
282.1877001317286
 51
173.5549602551289
  0
ARC
  5
4CE5
102
{ACAD_REACTORS
330
4D58
102
}
330
2
100
AcDbEntity
  8
KIJUN
100
AcDbCircle
 10
170.5555570019045
 20
209.2907884248004
 30
0.0
 40
28.08254028813548
100
AcDbArc
 50
315.2005505260875
 51
10.21197973482072
  0
ARC
  5
4CE6
102
{ACAD_REACTORS
330
4D58
102
}
330
2
100
AcDbEntity
  8
KIJUN
100
AcDbCircle
 10
199.1778408621217
 20
181.4428452898226
 30
0.0
 40
11.85662615646942
100
AcDbArc
 50
137.1714463527472
 51
191.4790467775547
  0
ARC
  5
4CE7
102
{ACAD_REACTORS
330
4D58
102
}
330
2
100
AcDbEntity
  8
KIJUN
100
AcDbCircle
 10
-354.123100806785
 20
575.6244006642514
 30
0.0
 40
683.4789217380436
100
AcDbArc
 50
322.3967325100563
 51
325.3046395402152
  0
ARC
  5
4CE8
102
{ACAD_REACTORS
330
4D58
102
}
330
2
100
AcDbEntity
  8
KIJUN
100
AcDbCircle
 10
192.9248404023814
 20
154.9099781573974
 30
0.0
 40
6.656424181536726
100
AcDbArc
 50
146.6211390353765
 51
263.1766533500859
  0
ARC
  5
4CF1
102
{ACAD_REACTORS
330
4D58
102
}
330
2
100
AcDbEntity
  8
KIJUN
100
AcDbCircle
 10
204.2881948461909
 20
157.5591667816681
 30
0.0
 40
22.42275945023526
100
AcDbArc
 50
170.3678576702264
 51
225.9987974824131
  0
ARC
  5
4CF2
102
{ACAD_REACTORS
330
4D58
102
}
330
2
100
AcDbEntity
  8
KIJUN
100
AcDbCircle
 10
203.1311920750924
 20
156.2557638018675
 30
0.0
 40
21.5509397599231
100
AcDbArc
 50
139.7074587244404
 51
166.433677162525
  0
ARC
  5
4CF9
102
{ACAD_REACTORS
330
4D58
102
}
330
2
100
AcDbEntity
  8
KIJUN
100
AcDbCircle
 10
137.4314338424185
 20
161.3344947443711
 30
0.0
 40
74.78483634641325
100
AcDbArc
 50
359.8043963944972
 51
19.72867993639055
  0
ARC
  5
4CFA
102
{ACAD_REACTORS
330
4D58
102
}
330
2
100
AcDbEntity
  8
KIJUN
100
AcDbCircle
 10
206.2290662652261
 20
188.8817287664528
 30
0.0
 40
13.41901743119014
100
AcDbArc
 50
180.3857853554682
 51
201.9269005386743
  0
ARC
  5
4CFB
102
{ACAD_REACTORS
330
4D58
102
}
330
2
100
AcDbEntity
  8
KIJUN
100
AcDbCircle
 10
190.3480988184099
 20
193.7740172973363
 30
0.0
 40
10.48130859334714
100
AcDbArc
 50
289.1173331722435
 51
316.9687178863226
  0
ARC
  5
4CFC
102
{ACAD_REACTORS
330
4D58
102
}
330
2
100
AcDbEntity
  8
KIJUN
100
AcDbCircle
 10
188.3793724993396
 20
191.8180140827557
 30
0.0
 40
5.366015773705158
100
AcDbArc
 50
288.7826857938844
 51
325.6644709851879
  0
ARC
  5
4CFD
102
{ACAD_REACTORS
330
4D58
102
}
330
2
100
AcDbEntity
  8
KIJUN
100
AcDbCircle
 10
204.6230431348902
 20
186.1764481240765
 30
0.0
 40
14.52677138115226
100
AcDbArc
 50
166.7618660611989
 51
177.7855622527137
  0
ARC
  5
4CFE
102
{ACAD_REACTORS
330
4D58
102
}
330
2
100
AcDbEntity
  8
KIJUN
100
AcDbCircle
 10
176.6462918192529
 20
204.9496059883366
 30
0.0
 40
25.24390577052777
100
AcDbArc
 50
319.9313590109936
 51
354.9486277064084
  0
LINE
  5
4CFF
102
{ACAD_REACTORS
330
4D58
102
}
330
2
100
AcDbEntity
  8
KIJUN
100
AcDbLine
 10
268.1483747668687
 20
355.8161612164604
 30
0.0
 11
268.1483747668686
 21
310.8161612164603
 31
0.0
  0
ARC
  5
4D00
102
{ACAD_REACTORS
330
4D58
102
}
330
2
100
AcDbEntity
  8
KIJUN
100
AcDbCircle
 10
200.0314076620382
 20
185.1079467373035
 30
0.0
 40
26.39664349199054
100
AcDbArc
 50
181.6077895847078
 51
210.0379471066062
  0
ARC
  5
4D02
102
{ACAD_REACTORS
330
4D58
102
}
330
2
100
AcDbEntity
  8
KIJUN
100
AcDbCircle
 10
204.9918891450317
 20
226.2465921525374
 30
0.0
 40
11.2001950789028
100
AcDbArc
 50
271.8493141098538
 51
359.0075102363264
  0
ARC
  5
4D03
102
{ACAD_REACTORS
330
4D58
102
}
330
2
100
AcDbEntity
  8
KIJUN
100
AcDbCircle
 10
198.4894593950247
 20
298.1748412111254
 30
0.0
 40
83.40552211616065
100
AcDbArc
 50
259.4738251026537
 51
274.7205043067812
  0
ARC
  5
4D30
102
{ACAD_REACTORS
330
4D58
102
}
330
2
100
AcDbEntity
  8
KIJUN
100
AcDbCircle
 10
130.0986736551509
 20
154.1204526351269
 30
0.0
 40
5.166523669124582
100
AcDbArc
 50
142.0509611372832
 51
23.61640501891165
  0
ARC
  5
4D31
102
{ACAD_REACTORS
330
4D58
102
}
330
2
100
AcDbEntity
  8
KIJUN
100
AcDbCircle
 10
136.6733014109138
 20
156.9908752131282
 30
0.0
 40
2.007393955509875
100
AcDbArc
 50
68.61664788355837
 51
203.5064700355508
  0
ARC
  5
4D32
102
{ACAD_REACTORS
330
4D58
102
}
330
2
100
AcDbEntity
  8
KIJUN
100
AcDbCircle
 10
143.4993376974674
 20
163.8087373644848
 30
0.0
 40
7.850322764367192
100
AcDbArc
 50
148.9247956706522
 51
219.0778547544912
  0
ARC
  5
4D33
102
{ACAD_REACTORS
330
4D58
102
}
330
2
100
AcDbEntity
  8
KIJUN
100
AcDbCircle
 10
145.1092309965175
 20
166.795869449914
 30
0.0
 40
1.441766324036479
100
AcDbArc
 50
81.32282134609301
 51
191.2271149285885
  0
ARC
  5
4D34
102
{ACAD_REACTORS
330
4D58
102
}
330
2
100
AcDbEntity
  8
KIJUN
100
AcDbCircle
 10
138.2559598375024
 20
157.0096533190695
 30
0.0
 40
10.95163971676409
100
AcDbArc
 50
60.22160559599605
 51
97.76853583052258
  0
ARC
  5
4D35
102
{ACAD_REACTORS
330
4D58
102
}
330
2
100
AcDbEntity
  8
KIJUN
100
AcDbCircle
 10
155.3255443152523
 20
171.5978902797969
 30
0.0
 40
10.55359906591581
100
AcDbArc
 50
159.7660969207501
 51
198.660662447725
  0
ARC
  5
4D36
102
{ACAD_REACTORS
330
4D58
102
}
330
2
100
AcDbEntity
  8
KIJUN
100
AcDbCircle
 10
146.4512490664353
 20
171.0839222355068
 30
0.0
 40
4.28899252331887
100
AcDbArc
 50
64.17912311079501
 51
103.8682057926345
  0
ARC
  5
4D37
102
{ACAD_REACTORS
330
4D58
102
}
330
2
100
AcDbEntity
  8
KIJUN
100
AcDbCircle
 10
159.5180009247867
 20
170.6092503700429
 30
0.0
 40
12.00856890169921
100
AcDbArc
 50
114.7406987738591
 51
158.836543441995
  0
ARC
  5
4D38
102
{ACAD_REACTORS
330
4D58
102
}
330
2
100
AcDbEntity
  8
KIJUN
100
AcDbCircle
 10
172.6664320223646
 20
152.6291322868074
 30
0.0
 40
2.704688953004516
100
AcDbArc
 50
135.7423511619997
 51
2.812434214629128
  0
ARC
  5
4D39
102
{ACAD_REACTORS
330
4D58
102
}
330
2
100
AcDbEntity
  8
KIJUN
100
AcDbCircle
 10
168.8762481472751
 20
156.7985518750658
 30
0.0
 40
2.93950672676936
100
AcDbArc
 50
309.0795608570995
 51
74.1053957913401
  0
ARC
  5
4D3A
102
{ACAD_REACTORS
330
4D58
102
}
330
2
100
AcDbEntity
  8
KIJUN
100
AcDbCircle
 10
138.9947804025134
 20
173.3528753068374
 30
0.0
 40
33.61692683012575
100
AcDbArc
 50
335.8992767732843
 51
346.802577440164
  0
ARC
  5
4D3B
102
{ACAD_REACTORS
330
4D58
102
}
330
2
100
AcDbEntity
  8
KIJUN
100
AcDbCircle
 10
163.1831078074229
 20
168.0085515304818
 30
0.0
 40
1.315487940112784
100
AcDbArc
 50
325.9685428482372
 51
88.5526737714677
  0
ARC
  5
4D3C
102
{ACAD_REACTORS
330
4D58
102
}
330
2
100
AcDbEntity
  8
KIJUN
100
AcDbCircle
 10
165.7902347290165
 20
156.1559508019445
 30
0.0
 40
11.2194140677413
100
AcDbArc
 50
58.07080166800773
 51
97.77058322796589
  0
ARC
  5
4D3D
102
{ACAD_REACTORS
330
4D58
102
}
330
2
100
AcDbEntity
  8
KIJUN
100
AcDbCircle
 10
155.0800094867066
 20
172.6389690184329
 30
0.0
 40
8.785859204983077
100
AcDbArc
 50
337.8303311071209
 51
14.62059848723759
  0
ARC
  5
4D3E
102
{ACAD_REACTORS
330
4D58
102
}
330
2
100
AcDbEntity
  8
KIJUN
100
AcDbCircle
 10
160.4699183946845
 20
169.288429570659
 30
0.0
 40
6.378592595366808
100
AcDbArc
 50
60.80418939036086
 51
92.35721716667148
  0
ARC
  5
4D3F
102
{ACAD_REACTORS
330
4D58
102
}
330
2
100
AcDbEntity
  8
KIJUN
100
AcDbCircle
 10
151.5703184170309
 20
172.9458741304536
 30
0.0
 40
9.054137556189074
100
AcDbArc
 50
17.45434821769808
 51
71.17251866277768
  0
ARC
  5
4D40
102
{ACAD_REACTORS
330
4D58
102
}
330
2
100
AcDbEntity
  8
KIJUN
100
AcDbCircle
 10
164.7029858316944
 20
153.1808093606253
 30
0.0
 40
11.87894888579712
100
AcDbArc
 50
206.0274228892641
 51
261.5599200248285
  0
ARC
  5
4D41
102
{ACAD_REACTORS
330
4D58
102
}
330
2
100
AcDbEntity
  8
KIJUN
100
AcDbCircle
 10
142.4461523707836
 20
154.1374777293827
 30
0.0
 40
13.12307895104031
100
AcDbArc
 50
284.467020998488
 51
331.9591779430067
  0
ARC
  5
4D42
102
{ACAD_REACTORS
330
4D58
102
}
330
2
100
AcDbEntity
  8
KIJUN
100
AcDbCircle
 10
133.7682156209517
 20
155.6302209262618
 30
0.0
 40
10.04027225958861
100
AcDbArc
 50
305.3126877625377
 51
52.90413060058248
  0
ARC
  5
4D43
102
{ACAD_REACTORS
330
4D58
102
}
330
2
100
AcDbEntity
  8
KIJUN
100
AcDbCircle
 10
170.4640719319627
 20
155.0565231247283
 30
0.0
 40
9.41534404689276
100
AcDbArc
 50
106.1317724449297
 51
211.2614293065833
  0
ARC
  5
4D44
102
{ACAD_REACTORS
330
4D58
102
}
330
2
100
AcDbEntity
  8
KIJUN
100
AcDbCircle
 10
178.9932277592176
 20
154.4181152395139
 30
0.0
 40
22.62844547706041
100
AcDbArc
 50
138.8830691051992
 51
175.1896022706332
  0
ARC
  5
4D45
102
{ACAD_REACTORS
330
4D58
102
}
330
2
100
AcDbEntity
  8
KIJUN
100
AcDbCircle
 10
130.7516107743094
 20
156.8417063784718
 30
0.0
 40
18.79525482886466
100
AcDbArc
 50
353.625296661134
 51
33.80901426315819
  0
ARC
  5
4D46
102
{ACAD_REACTORS
330
4D58
102
}
330
2
100
AcDbEntity
  8
KIJUN
100
AcDbCircle
 10
345.7780930452436
 20
161.3869366941047
 30
0.0
 40
192.2182866579042
100
AcDbArc
 50
175.3466438780975
 51
184.0030344875349
  0
ARC
  5
4D47
102
{ACAD_REACTORS
330
4D58
102
}
330
2
100
AcDbEntity
  8
KIJUN
100
AcDbCircle
 10
177.3145460752138
 20
158.0330261959245
 30
0.0
 40
22.61516236269901
100
AcDbArc
 50
137.811025675312
 51
165.8604227248025
  0
ARC
  5
4D48
102
{ACAD_REACTORS
330
4D58
102
}
330
2
100
AcDbEntity
  8
KIJUN
100
AcDbCircle
 10
126.11468189632
 20
158.6516417028439
 30
0.0
 40
26.54951470413903
100
AcDbArc
 50
11.82347601481473
 51
32.06446426861852
  0
ARC
  5
4D49
102
{ACAD_REACTORS
330
4D58
102
}
330
2
100
AcDbEntity
  8
KIJUN
100
AcDbCircle
 10
192.1921594947447
 20
150.9943446043101
 30
0.0
 40
2.694272161703202
100
AcDbArc
 50
268.7631011031721
 51
37.13589696504457
  0
ARC
  5
4D4A
102
{ACAD_REACTORS
330
4D58
102
}
330
2
100
AcDbEntity
  8
KIJUN
100
AcDbCircle
 10
195.4819347338334
 20
153.8354984856959
 30
0.0
 40
1.667081125271901
100
AcDbArc
 50
61.36352084629898
 51
226.7674525994751
  0
ARC
  5
4D4B
102
{ACAD_REACTORS
330
4D58
102
}
330
2
100
AcDbEntity
  8
KIJUN
100
AcDbCircle
 10
210.3750961423844
 20
162.3839120319081
 30
0.0
 40
15.77490442217744
100
AcDbArc
 50
179.4034466016093
 51
206.6889779848029
  0
ARC
  5
4D4C
102
{ACAD_REACTORS
330
4D58
102
}
330
2
100
AcDbEntity
  8
KIJUN
100
AcDbCircle
 10
201.3201409799107
 20
163.0053362074033
 30
0.0
 40
2.109399128258842
100
AcDbArc
 50
101.3229821060348
 51
203.0407179317205
  0
ARC
  5
4D4D
102
{ACAD_REACTORS
330
4D58
102
}
330
2
100
AcDbEntity
  8
KIJUN
100
AcDbCircle
 10
196.2031199664013
 20
152.1582647526343
 30
0.0
 40
10.51268036500429
100
AcDbArc
 50
72.41614014070574
 51
98.76570886840596
  0
ARC
  5
4D4E
102
{ACAD_REACTORS
330
4D58
102
}
330
2
100
AcDbEntity
  8
KIJUN
100
AcDbCircle
 10
204.9535295652613
 20
168.0989227260096
 30
0.0
 40
5.05319123943162
100
AcDbArc
 50
149.0780431970323
 51
216.7754213809244
  0
ARC
  5
4D4F
102
{ACAD_REACTORS
330
4D58
102
}
330
2
100
AcDbEntity
  8
KIJUN
100
AcDbCircle
 10
201.9691839470228
 20
165.3648295590416
 30
0.0
 40
5.499215444300865
100
AcDbArc
 50
72.78179718931234
 51
104.2174918992707
  0
ARC
  5
4D50
102
{ACAD_REACTORS
330
4D58
102
}
330
2
100
AcDbEntity
  8
KIJUN
100
AcDbCircle
 10
222.9614930800101
 20
164.224530166553
 30
0.0
 40
20.39250536073787
100
AcDbArc
 50
137.9143376175932
 51
161.7296759000398
  0
ARC
  5
4D51
102
{ACAD_REACTORS
330
4D58
102
}
330
2
100
AcDbEntity
  8
KIJUN
100
AcDbCircle
 10
196.6766962808891
 20
147.1066451381739
 30
0.0
 40
6.304740254166689
100
AcDbArc
 50
295.7904195618823
 51
351.8151299719038
  0
ARC
  5
4D52
102
{ACAD_REACTORS
330
4D58
102
}
330
2
100
AcDbEntity
  8
KIJUN
100
AcDbCircle
 10
187.6242286223266
 20
151.0093368629939
 30
0.0
 40
12.90035454694563
100
AcDbArc
 50
334.8548141441422
 51
36.75271019440024
  0
ARC
  5
4D53
102
{ACAD_REACTORS
330
4D58
102
}
330
2
100
AcDbEntity
  8
KIJUN
100
AcDbCircle
 10
171.5723492880252
 20
149.8673783425429
 30
0.0
 40
33.33086671166873
100
AcDbArc
 50
2.782614356899696
 51
24.29431947142403
  0
ARC
  5
4D54
102
{ACAD_REACTORS
330
4D58
102
}
330
2
100
AcDbEntity
  8
KIJUN
100
AcDbCircle
 10
133.1896221165302
 20
164.0414127316486
 30
0.0
 40
74.97413754807111
100
AcDbArc
 50
351.6217315502834
 51
5.800030873359697
  0
ARC
  5
4D55
102
{ACAD_REACTORS
330
4D58
102
}
330
2
100
AcDbEntity
  8
KIJUN
100
AcDbCircle
 10
197.7304774005992
 20
161.5259616750359
 30
0.0
 40
8.459353092062027
100
AcDbArc
 50
352.8842356026628
 51
51.72078208458801
  0
ARC
  5
4D56
102
{ACAD_REACTORS
330
4D58
102
}
330
2
100
AcDbEntity
  8
KIJUN
100
AcDbCircle
 10
221.2218835362847
 20
148.2177704333458
 30
0.0
 40
18.4145542576009
100
AcDbArc
 50
186.2624602647978
 51
201.6301562099814
  0
ARC
  5
4D57
102
{ACAD_REACTORS
330
4D58
102
}
330
2
100
AcDbEntity
  8
KIJUN
100
AcDbCircle
 10
193.9542803191376
 20
167.4787404965901
 30
0.0
 40
17.34664687001224
100
AcDbArc
 50
1.406765192689463
 51
36.89340716399293
  0
TEXT
  5
4D6B
330
2
100
AcDbEntity
  8
HOJO
100
AcDbText
 10
0.7604609944705772
 20
-16.44902838686357
 30
0.0
 40
9.0
  1
※ FRP製の為、若干の寸法誤差がある場合があります。
  7
SUNPOU
100
AcDbText
  0
ENDSEC
  0
SECTION
  2
OBJECTS
  0
DICTIONARY
  5
1A
330
0
100
AcDbDictionary
281
     1
  3
ACAD_COLOR
350
144
  3
ACAD_GROUP
350
18
  3
ACAD_LAYOUT
350
58
  3
ACAD_MATERIAL
350
143
  3
ACAD_MLINESTYLE
350
19
  3
ACAD_PLOTSETTINGS
350
59
  3
ACAD_PLOTSTYLENAME
350
56
  3
ACAD_TABLESTYLE
350
145
  3
ACDBHEADERROUNDTRIPXREC
350
4D73
  3
AcDbVariableDictionary
350
1D1
  0
DICTIONARY
  5
1B4
330
A
100
AcDbDictionary
280
     1
281
     1
  3
ACAD_LAYERFILTERS
360
3D0D
  3
ACAD_LAYERSTATES
360
4D63
  3
ACLYDICTIONARY
360
3D0C
  0
DICTIONARY
  5
D13
330
2
100
AcDbDictionary
280
     1
281
     1
  3
ACAD_SORTENTS
360
D14
  0
DICTIONARY
  5
144
102
{ACAD_REACTORS
330
1A
102
}
330
1A
100
AcDbDictionary
281
     1
  0
DICTIONARY
  5
18
102
{ACAD_REACTORS
330
1A
102
}
330
1A
100
AcDbDictionary
281
     1
  3
*A1
350
E0D
  3
*A10
350
3349
  3
*A11
350
4891
  3
*A12
350
476C
  3
*A13
350
26DD
  3
*A14
350
35A5
  3
*A15
350
FF8
  3
*A16
350
241A
  3
*A17
350
136A
  3
*A18
350
2B84
  3
*A19
350
1555
  3
*A2
350
3959
  3
*A20
350
4376
  3
*A21
350
1CBC
  3
*A22
350
39BC
  3
*A23
350
1A98
  3
*A24
350
307D
  3
*A25
350
265A
  3
*A26
350
3695
  3
*A27
350
2D78
  3
*A28
350
213E
  3
*A29
350
3467
  3
*A3
350
2C6B
  3
*A30
350
44A7
  3
*A31
350
395F
  3
*A32
350
34BB
  3
*A33
350
36C9
  3
*A34
350
2905
  3
*A35
350
17BC
  3
*A36
350
1EFE
  3
*A37
350
2037
  3
*A38
350
4648
  3
*A39
350
4D58
  3
*A4
350
22C8
  3
*A40
350
2EE1
  3
*A41
350
2573
  3
*A42
350
2F81
  3
*A43
350
2A17
  3
*A44
350
24D6
  3
*A5
350
3181
  3
*A6
350
31DF
  3
*A7
350
32E4
  3
*A8
350
275E
  3
*A9
350
3EE1
  0
DICTIONARY
  5
58
102
{ACAD_REACTORS
330
1A
102
}
330
1A
100
AcDbDictionary
281
     1
  3
Model
350
5A
  3
ﾚｲｱｳﾄ1
350
5B
  0
DICTIONARY
  5
143
102
{ACAD_REACTORS
330
1A
102
}
330
1A
100
AcDbDictionary
281
     1
  0
DICTIONARY
  5
19
102
{ACAD_REACTORS
330
1A
102
}
330
1A
100
AcDbDictionary
281
     1
  3
STANDARD
350
1D
  0
DICTIONARY
  5
59
102
{ACAD_REACTORS
330
1A
102
}
330
1A
100
AcDbDictionary
281
     1
  0
ACDBDICTIONARYWDFLT
  5
56
102
{ACAD_REACTORS
330
1A
102
}
330
1A
100
AcDbDictionary
281
     1
  3
Normal
350
57
100
AcDbDictionaryWithDefault
340
57
  0
DICTIONARY
  5
145
102
{ACAD_REACTORS
330
1A
102
}
330
1A
100
AcDbDictionary
281
     1
  3
Standard
350
146
  0
DICTIONARY
  5
4D73
102
{ACAD_REACTORS
330
1A
102
}
330
1A
100
AcDbDictionary
281
     1
  0
DICTIONARY
  5
1D1
102
{ACAD_REACTORS
330
1A
102
}
330
1A
100
AcDbDictionary
281
     1
  3
CTABLESTYLE
350
1D2
  3
DIMASSOC
350
D03
  3
PROJECTNAME
350
D04
  0
DICTIONARY
  5
3D0D
102
{ACAD_REACTORS
330
1B4
102
}
330
1B4
100
AcDbDictionary
281
     1
  0
DICTIONARY
  5
4D63
102
{ACAD_REACTORS
330
1B4
102
}
330
1B4
100
AcDbDictionary
281
     1
  0
DICTIONARY
  5
3D0C
102
{ACAD_REACTORS
330
1B4
102
}
330
1B4
100
AcDbDictionary
281
     1
1001
ACAD
1000
<All
  0
SORTENTSTABLE
  5
D14
102
{ACAD_REACTORS
330
D13
102
}
330
D13
100
AcDbSortentsTable
330
2
331
20
  5
41A8
331
48CF
  5
48D0
331
49CB
  5
49CB
331
494D
  5
494D
331
490E
  5
490E
331
4955
  5
4955
331
4916
  5
4916
331
499C
  5
499C
331
491E
  5
491E
331
4C62
  5
4C62
331
492E
  5
492E
331
49B4
  5
49B4
331
4975
  5
4975
331
4936
  5
4936
331
4BAB
  5
4BAB
331
49BC
  5
49BC
331
497D
  5
497D
331
493E
  5
493E
331
48FF
  5
48FF
331
4985
  5
4985
331
4946
  5
4946
331
4907
  5
4907
331
21
  5
41A9
331
48D0
  5
48D1
331
494E
  5
494E
331
490F
  5
490F
331
48D8
  5
48E1
331
4956
  5
4956
331
4917
  5
4917
331
4B34
  5
4B34
331
499D
  5
499D
331
495E
  5
495E
331
491F
  5
491F
331
4C63
  5
4C63
331
4927
  5
4927
331
492F
  5
492F
331
48E8
  5
48E9
331
49B5
  5
49B5
331
48B9
  5
48BA
331
49BD
  5
49BD
331
497E
  5
497E
331
493F
  5
493F
331
4900
  5
4900
331
4986
  5
4986
331
4947
  5
4947
331
4908
  5
4908
331
48D1
  5
48D2
331
4910
  5
4910
331
4957
  5
4957
331
4918
  5
4918
331
499E
  5
499E
331
495F
  5
495F
331
4920
  5
4920
331
4C64
  5
4C64
331
49A6
  5
49A6
331
4928
  5
4928
331
48E1
  5
48E2
331
434B
  5
44A9
331
49AE
  5
49AE
331
4930
  5
4930
331
48E9
  5
48EB
331
49B6
  5
49B6
331
4977
  5
4977
331
4938
  5
4938
331
49BE
  5
49BE
331
497F
  5
497F
331
4940
  5
4940
331
4901
  5
4901
331
4987
  5
4987
331
23
  5
41B3
331
43B3
  5
48B6
331
4948
  5
4948
331
4909
  5
4909
331
48D2
  5
48D3
331
4911
  5
4911
331
4997
  5
4997
331
4958
  5
4958
331
4919
  5
4919
331
3635
  5
43D6
331
499F
  5
499F
331
4921
  5
4921
331
49A7
  5
49A7
331
4960
  5
4960
331
4929
  5
4929
331
48E2
  5
48E4
331
49AF
  5
49AF
331
4931
  5
4931
331
49B7
  5
49B7
331
4978
  5
4978
331
4939
  5
4939
331
4980
  5
4980
331
4941
  5
4941
331
48CB
  5
48CD
331
4988
  5
4988
331
4949
  5
4949
331
48D3
  5
48D6
331
490A
  5
490A
331
4951
  5
4951
331
4912
  5
4912
331
4998
  5
4998
331
4959
  5
4959
331
491A
  5
491A
331
492A
  5
492A
331
49B0
  5
49B0
331
4932
  5
4932
331
49B8
  5
49B8
331
4979
  5
4979
331
493A
  5
493A
331
48BC
  5
48BD
331
49C0
  5
49C0
331
4981
  5
4981
331
4942
  5
4942
331
4903
  5
4903
331
49C8
  5
49C8
331
4989
  5
4989
331
494A
  5
494A
331
490B
  5
490B
331
4952
  5
4952
331
4913
  5
4913
331
495A
  5
495A
331
491B
  5
491B
331
4923
  5
4923
331
492B
  5
492B
331
48E4
  5
48E5
331
49B1
  5
49B1
331
4933
  5
4933
331
49B9
  5
49B9
331
497A
  5
497A
331
493B
  5
493B
331
49C1
  5
49C1
331
4982
  5
4982
331
4904
  5
4904
331
49C9
  5
49C9
331
498A
  5
498A
331
494B
  5
494B
331
490C
  5
490C
331
3628
  5
43CA
331
4953
  5
4953
331
4914
  5
4914
331
491C
  5
491C
331
4C60
  5
4C60
331
49A2
  5
49A2
331
4924
  5
4924
331
492C
  5
492C
331
48E5
  5
48E6
331
1F
  5
3F30
331
49B2
  5
49B2
331
4973
  5
4973
331
4934
  5
4934
331
48B6
  5
48B7
331
49BA
  5
49BA
331
497B
  5
497B
331
493C
  5
493C
331
49C2
  5
49C2
331
4983
  5
4983
331
4944
  5
4944
331
4905
  5
4905
331
494C
  5
494C
331
490D
  5
490D
331
48D6
  5
48D8
331
4954
  5
4954
331
4BE9
  5
4BE9
331
499B
  5
499B
331
495C
  5
495C
331
491D
  5
491D
331
49A3
  5
49A3
331
4925
  5
4925
331
492D
  5
492D
331
49B3
  5
49B3
331
4974
  5
4974
331
4935
  5
4935
331
48B7
  5
48B9
331
49BB
  5
49BB
331
497C
  5
497C
331
493D
  5
493D
331
49C3
  5
49C3
331
4945
  5
4945
  0
GROUP
  5
E0D
102
{ACAD_REACTORS
330
18
102
}
330
18
100
AcDbGroup
300

 70
     1
 71
     1
  0
GROUP
  5
3349
102
{ACAD_REACTORS
330
18
102
}
330
18
100
AcDbGroup
300

 70
     1
 71
     1
  0
GROUP
  5
4891
102
{ACAD_REACTORS
330
18
102
}
330
18
100
AcDbGroup
300

 70
     1
 71
     1
  0
GROUP
  5
476C
102
{ACAD_REACTORS
330
18
102
}
330
18
100
AcDbGroup
300

 70
     1
 71
     1
  0
GROUP
  5
26DD
102
{ACAD_REACTORS
330
18
102
}
330
18
100
AcDbGroup
300

 70
     1
 71
     1
  0
GROUP
  5
35A5
102
{ACAD_REACTORS
330
18
102
}
330
18
100
AcDbGroup
300

 70
     1
 71
     1
  0
GROUP
  5
FF8
102
{ACAD_REACTORS
330
18
102
}
330
18
100
AcDbGroup
300

 70
     1
 71
     1
  0
GROUP
  5
241A
102
{ACAD_REACTORS
330
18
102
}
330
18
100
AcDbGroup
300

 70
     1
 71
     1
  0
GROUP
  5
136A
102
{ACAD_REACTORS
330
18
102
}
330
18
100
AcDbGroup
300

 70
     1
 71
     1
  0
GROUP
  5
2B84
102
{ACAD_REACTORS
330
18
102
}
330
18
100
AcDbGroup
300

 70
     1
 71
     1
  0
GROUP
  5
1555
102
{ACAD_REACTORS
330
18
102
}
330
18
100
AcDbGroup
300

 70
     1
 71
     1
  0
GROUP
  5
3959
102
{ACAD_REACTORS
330
18
102
}
330
18
100
AcDbGroup
300

 70
     1
 71
     1
  0
GROUP
  5
4376
102
{ACAD_REACTORS
330
18
102
}
330
18
100
AcDbGroup
300

 70
     1
 71
     1
  0
GROUP
  5
1CBC
102
{ACAD_REACTORS
330
18
102
}
330
18
100
AcDbGroup
300

 70
     1
 71
     1
  0
GROUP
  5
39BC
102
{ACAD_REACTORS
330
18
102
}
330
18
100
AcDbGroup
300

 70
     1
 71
     1
  0
GROUP
  5
1A98
102
{ACAD_REACTORS
330
18
102
}
330
18
100
AcDbGroup
300

 70
     1
 71
     1
  0
GROUP
  5
307D
102
{ACAD_REACTORS
330
18
102
}
330
18
100
AcDbGroup
300

 70
     1
 71
     1
  0
GROUP
  5
265A
102
{ACAD_REACTORS
330
18
102
}
330
18
100
AcDbGroup
300

 70
     1
 71
     1
  0
GROUP
  5
3695
102
{ACAD_REACTORS
330
18
102
}
330
18
100
AcDbGroup
300

 70
     1
 71
     1
  0
GROUP
  5
2D78
102
{ACAD_REACTORS
330
18
102
}
330
18
100
AcDbGroup
300

 70
     1
 71
     1
  0
GROUP
  5
213E
102
{ACAD_REACTORS
330
18
102
}
330
18
100
AcDbGroup
300

 70
     1
 71
     1
  0
GROUP
  5
3467
102
{ACAD_REACTORS
330
18
102
}
330
18
100
AcDbGroup
300

 70
     1
 71
     1
  0
GROUP
  5
2C6B
102
{ACAD_REACTORS
330
18
102
}
330
18
100
AcDbGroup
300

 70
     1
 71
     1
  0
GROUP
  5
44A7
102
{ACAD_REACTORS
330
18
102
}
330
18
100
AcDbGroup
300

 70
     1
 71
     1
  0
GROUP
  5
395F
102
{ACAD_REACTORS
330
18
102
}
330
18
100
AcDbGroup
300

 70
     1
 71
     1
  0
GROUP
  5
34BB
102
{ACAD_REACTORS
330
18
102
}
330
18
100
AcDbGroup
300

 70
     1
 71
     1
  0
GROUP
  5
36C9
102
{ACAD_REACTORS
330
18
102
}
330
18
100
AcDbGroup
300

 70
     1
 71
     1
  0
GROUP
  5
2905
102
{ACAD_REACTORS
330
18
102
}
330
18
100
AcDbGroup
300

 70
     1
 71
     1
  0
GROUP
  5
17BC
102
{ACAD_REACTORS
330
18
102
}
330
18
100
AcDbGroup
300

 70
     1
 71
     1
  0
GROUP
  5
1EFE
102
{ACAD_REACTORS
330
18
102
}
330
18
100
AcDbGroup
300

 70
     1
 71
     1
  0
GROUP
  5
2037
102
{ACAD_REACTORS
330
18
102
}
330
18
100
AcDbGroup
300

 70
     1
 71
     1
  0
GROUP
  5
4648
102
{ACAD_REACTORS
330
18
102
}
330
18
100
AcDbGroup
300

 70
     1
 71
     1
  0
GROUP
  5
4D58
102
{ACAD_REACTORS
330
18
102
}
330
18
100
AcDbGroup
300

 70
     1
 71
     1
340
4D57
340
4D56
340
4D55
340
4D54
340
4D53
340
4D52
340
4D51
340
4D50
340
4D4F
340
4D4E
340
4D4D
340
4D4C
340
4D4B
340
4D4A
340
4D49
340
4D48
340
4D47
340
4D46
340
4D45
340
4D44
340
4D43
340
4D42
340
4D41
340
4D40
340
4D3F
340
4D3E
340
4D3D
340
4D3C
340
4D3B
340
4D3A
340
4D39
340
4D38
340
4D37
340
4D36
340
4D35
340
4D34
340
4D33
340
4D32
340
4D31
340
4D30
340
4D03
340
4D02
340
4D00
340
4CFF
340
4CFE
340
4CFD
340
4CFC
340
4CFB
340
4CFA
340
4CF9
340
4CF2
340
4CF1
340
4CE8
340
4CE7
340
4CE6
340
4CE5
340
4CE4
340
4CE3
340
4CE2
340
4CE1
340
4CE0
340
4CDF
340
4CDE
340
4CDD
340
4CDC
340
4CDB
340
4CDA
340
4CD9
340
4CD8
340
4CD7
340
4CD6
340
4CD5
340
4CD4
340
4CD3
340
4CD2
340
4CD1
340
4CD0
340
4CC8
340
4CC5
340
4CC4
340
4CC3
340
4CC2
340
4CC1
340
4CC0
340
4CBF
340
4CBE
340
4CBD
340
4CBC
340
4CBB
340
4CBA
340
4CB9
340
4CB8
340
4CB7
340
4CB6
340
4CB5
340
4CB4
340
4CAA
340
4CA9
340
4CA8
340
4CA7
340
4CA6
340
4CA5
340
4CA3
340
4CA2
340
4CA1
340
4CA0
340
4C9F
340
4C9E
340
4C9D
340
4C9C
340
4C9B
340
4C9A
340
4C99
340
4C98
340
4C97
340
4C96
340
4C95
340
4C94
340
4C93
340
4C92
340
4C91
340
4C90
340
4C8F
340
4C8E
340
4C8D
340
4C8C
340
4C8B
340
4C8A
340
4C89
340
4C88
340
4C87
340
4C86
340
4C85
340
4C84
340
4C83
340
4C82
340
4C81
340
4C80
340
4C7F
340
4C7E
340
4C74
340
4C73
340
4C72
340
4C71
340
4C70
340
4C6F
340
4C6E
340
4C6D
340
4C6C
340
4C6B
340
4C6A
340
4C69
340
4C68
340
4C67
340
4C64
340
4C63
340
4C62
340
4C60
340
4BE9
340
4BAB
340
4B34
340
49CB
340
49C9
340
49C8
340
49C3
340
49C2
340
49C1
340
49C0
340
49BE
340
49BD
340
49BC
340
49BB
340
49BA
340
49B9
340
49B8
340
49B7
340
49B6
340
49B5
340
49B4
340
49B3
340
49B2
340
49B1
340
49B0
340
49AF
340
49AE
340
49A7
340
49A6
340
49A3
340
49A2
340
499F
340
499E
340
499D
340
499C
340
499B
340
4998
340
4997
340
498A
340
4989
340
4988
340
4987
340
4986
340
4985
340
4983
340
4982
340
4981
340
4980
340
497F
340
497E
340
497D
340
497C
340
497B
340
497A
340
4979
340
4978
340
4977
340
4975
340
4974
340
4973
340
4960
340
495F
340
495E
340
495C
340
495A
340
4959
340
4958
340
4957
340
4956
340
4955
340
4954
340
4953
340
4952
340
4951
340
494E
340
494D
340
494C
340
494B
340
494A
340
4949
340
4948
340
4947
340
4946
340
4945
340
4944
340
4942
340
4941
340
4940
340
493F
340
493E
340
493D
340
493C
340
493B
340
493A
340
4939
340
4938
340
4936
340
4935
340
4934
340
4933
340
4932
340
4931
340
4930
340
492F
340
492E
340
492D
340
492C
340
492B
340
492A
340
4929
340
4928
340
4927
340
4925
340
4924
340
4923
340
4921
340
4920
340
491F
340
491E
340
491D
340
491C
340
491B
340
491A
340
4919
340
4918
340
4917
340
4916
340
4914
340
4913
340
4912
340
4911
340
4910
340
490F
340
490E
340
490D
340
490C
340
490B
340
490A
340
4909
340
4908
340
4907
340
4905
340
4904
340
4903
340
4901
340
4900
340
48FF
340
48E9
340
48E8
340
48E5
340
48E4
340
48E2
340
48E1
340
48D8
340
48D6
340
48D3
340
48D2
340
48D1
340
48D0
340
48CF
340
48CB
340
48BC
340
48B9
340
48B7
340
48B6
  0
GROUP
  5
22C8
102
{ACAD_REACTORS
330
18
102
}
330
18
100
AcDbGroup
300

 70
     1
 71
     1
  0
GROUP
  5
2EE1
102
{ACAD_REACTORS
330
18
102
}
330
18
100
AcDbGroup
300

 70
     1
 71
     1
  0
GROUP
  5
2573
102
{ACAD_REACTORS
330
18
102
}
330
18
100
AcDbGroup
300

 70
     1
 71
     1
  0
GROUP
  5
2F81
102
{ACAD_REACTORS
330
18
102
}
330
18
100
AcDbGroup
300

 70
     1
 71
     1
  0
GROUP
  5
2A17
102
{ACAD_REACTORS
330
18
102
}
330
18
100
AcDbGroup
300

 70
     1
 71
     1
  0
GROUP
  5
24D6
102
{ACAD_REACTORS
330
18
102
}
330
18
100
AcDbGroup
300

 70
     1
 71
     1
  0
GROUP
  5
3181
102
{ACAD_REACTORS
330
18
102
}
330
18
100
AcDbGroup
300

 70
     1
 71
     1
  0
GROUP
  5
31DF
102
{ACAD_REACTORS
330
18
102
}
330
18
100
AcDbGroup
300

 70
     1
 71
     1
  0
GROUP
  5
32E4
102
{ACAD_REACTORS
330
18
102
}
330
18
100
AcDbGroup
300

 70
     1
 71
     1
  0
GROUP
  5
275E
102
{ACAD_REACTORS
330
18
102
}
330
18
100
AcDbGroup
300

 70
     1
 71
     1
  0
GROUP
  5
3EE1
102
{ACAD_REACTORS
330
18
102
}
330
18
100
AcDbGroup
300

 70
     1
 71
     1
  0
LAYOUT
  5
5A
102
{ACAD_XDICTIONARY
360
4D74
102
}
102
{ACAD_REACTORS
330
58
102
}
330
58
100
AcDbPlotSettings
  1

  2
none_device
  4
Letter_(8.50_x_11.00_Inches)
  6

 40
6.349999904632568
 41
6.349999904632568
 42
6.350006103515625
 43
6.350006103515625
 44
215.8999938964844
 45
279.3999938964844
 46
0.0
 47
0.0
 48
0.0
 49
0.0
140
0.0
141
0.0
142
1.0
143
56.1487857219155
 70
 11952
 72
     0
 73
     1
 74
     0
  7
monochrome.ctb
 75
     0
147
0.017809824151009
148
5906.460377060824
149
233.5965544000385
100
AcDbLayout
  1
Model
 70
     1
 71
     0
 10
0.0
 20
0.0
 11
12.0
 21
9.0
 12
0.0
 22
0.0
 32
0.0
 14
0.0
 24
0.0
 34
0.0
 15
0.0
 25
0.0
 35
0.0
146
0.0
 13
0.0
 23
0.0
 33
0.0
 16
1.0
 26
0.0
 36
0.0
 17
0.0
 27
1.0
 37
0.0
 76
     0
330
2
1001
ACAD_PSEXT
1000
なし
1000
なし
1000
適切ではありません
1000
新しいプロッタ環境設定名を選択しない限り、レイアウトは印刷されません。
1070
     0
  0
LAYOUT
  5
5B
102
{ACAD_XDICTIONARY
360
4D76
102
}
102
{ACAD_REACTORS
330
58
102
}
330
58
100
AcDbPlotSettings
  1

  2
なし
  4

  6

 40
0.0
 41
0.0
 42
0.0
 43
0.0
 44
0.0
 45
0.0
 46
0.0
 47
0.0
 48
0.0
 49
0.0
140
0.0
141
0.0
142
1.0
143
1.0
 70
   688
 72
     0
 73
     0
 74
     5
  7
monochrome.ctb
 75
    16
147
1.0
148
0.0
149
0.0
100
AcDbLayout
  1
ﾚｲｱｳﾄ1
 70
     1
 71
     1
 10
0.0
 20
0.0
 11
12.0
 21
9.0
 12
0.0
 22
0.0
 32
0.0
 14
1.000000000000000E+20
 24
1.000000000000000E+20
 34
1.000000000000000E+20
 15
-1.000000000000000E+20
 25
-1.000000000000000E+20
 35
-1.000000000000000E+20
146
0.0
 13
0.0
 23
0.0
 33
0.0
 16
1.0
 26
0.0
 36
0.0
 17
0.0
 27
1.0
 37
0.0
 76
     0
330
7
  0
MLINESTYLE
  5
1D
102
{ACAD_REACTORS
330
19
102
}
330
19
100
AcDbMlineStyle
  2
STANDARD
 70
     0
  3

 62
   256
 51
90.0
 52
90.0
 71
     2
 49
0.5
 62
   256
  6
BYLAYER
 49
-0.5
 62
   256
  6
BYLAYER
  0
ACDBPLACEHOLDER
  5
57
102
{ACAD_REACTORS
330
56
102
}
330
56
  0
TABLESTYLE
  5
146
102
{ACAD_REACTORS
330
145
102
}
330
145
100
AcDbTableStyle
  3
Standard
 70
     0
 71
     0
 40
0.06
 41
0.06
280
     0
281
     0
  7
STANDARD
140
0.18
170
     2
 62
     0
 63
     7
283
     0
274
    -2
284
     1
 64
     0
275
    -2
285
     1
 65
     0
276
    -2
286
     1
 66
     0
277
    -2
287
     1
 67
     0
278
    -2
288
     1
 68
     0
279
    -2
289
     1
 69
     0
  7
STANDARD
140
0.25
170
     5
 62
     0
 63
     7
283
     0
274
    -2
284
     1
 64
     0
275
    -2
285
     1
 65
     0
276
    -2
286
     1
 66
     0
277
    -2
287
     1
 67
     0
278
    -2
288
     1
 68
     0
279
    -2
289
     1
 69
     0
  7
STANDARD
140
0.18
170
     5
 62
     0
 63
     7
283
     0
274
    -2
284
     1
 64
     0
275
    -2
285
     1
 65
     0
276
    -2
286
     1
 66
     0
277
    -2
287
     1
 67
     0
278
    -2
288
     1
 68
     0
279
    -2
289
     1
 69
     0
  0
DICTIONARYVAR
  5
1D2
102
{ACAD_REACTORS
330
1D1
102
}
330
1D1
100
DictionaryVariables
280
     0
  1
STANDARD
  0
DICTIONARYVAR
  5
D03
102
{ACAD_REACTORS
330
1D1
102
}
330
1D1
100
DictionaryVariables
280
     0
  1
1
  0
DICTIONARYVAR
  5
D04
102
{ACAD_REACTORS
330
1D1
102
}
330
1D1
100
DictionaryVariables
280
     0
  1

  0
DICTIONARY
  5
4D74
330
5A
100
AcDbDictionary
280
     1
281
     1
  3
ACAD_XREC_ROUNDTRIP
360
4D75
  0
DICTIONARY
  5
4D76
330
5B
100
AcDbDictionary
280
     1
281
     1
  3
ACAD_XREC_ROUNDTRIP
360
4D77
  0
XRECORD
  5
4D75
102
{ACAD_REACTORS
330
4D74
102
}
330
4D74
100
AcDbXrecord
280
     1
102
SHADEPLOT
 70
     0
102
SHADEPLOTRESLEVEL
 70
     2
102
SHADEPLOTCUSTOMDPI
 70
   300
  0
XRECORD
  5
4D77
102
{ACAD_REACTORS
330
4D76
102
}
330
4D76
100
AcDbXrecord
280
     1
102
SHADEPLOT
 70
     0
102
SHADEPLOTRESLEVEL
 70
     2
102
SHADEPLOTCUSTOMDPI
 70
   300
  0
ENDSEC
  0
EOF
