  0
SECTION
  2
HEADER
  9
$ACADVER
  1
AC1015
  9
$ACADMAINTVER
 70
    10
  9
$DWGCODEPAGE
  3
ANSI_932
  9
$INSBASE
 10
32.29518636067707
 20
336.8546171433584
 30
0.0
  9
$EXTMIN
 10
-0.0198931268971592
 20
-0.0085833716002526
 30
-0.0015258207003583
  9
$EXTMAX
 10
59.92842485361086
 20
117.9342574472934
 30
0.0000000349246037
  9
$LIMMIN
 10
8.003645833333331
 20
8.698177083333332
  9
$LIMMAX
 10
340.3871473524304
 20
290.0999498155382
  9
$ORTHOMODE
 70
     0
  9
$REGENMODE
 70
     1
  9
$FILLMODE
 70
     1
  9
$QTEXTMODE
 70
     0
  9
$MIRRTEXT
 70
     1
  9
$LTSCALE
 40
1.0
  9
$ATTMODE
 70
     1
  9
$TEXTSIZE
 40
0.0
  9
$TRACEWID
 40
0.05
  9
$TEXTSTYLE
  7
STANDARD
  9
$CLAYER
  8
0
  9
$CELTYPE
  6
CONTINUOUS
  9
$CECOLOR
 62
   256
  9
$CELTSCALE
 40
1.0
  9
$DISPSILH
 70
     0
  9
$DIMSCALE
 40
1.0
  9
$DIMASZ
 40
3.0
  9
$DIMEXO
 40
5.0
  9
$DIMDLI
 40
1.0
  9
$DIMRND
 40
0.0
  9
$DIMDLE
 40
0.0
  9
$DIMEXE
 40
0.0
  9
$DIMTP
 40
0.0
  9
$DIMTM
 40
0.0
  9
$DIMTXT
 40
4.5
  9
$DIMCEN
 40
3.0
  9
$DIMTSZ
 40
0.0
  9
$DIMTOL
 70
     0
  9
$DIMLIM
 70
     0
  9
$DIMTIH
 70
     0
  9
$DIMTOH
 70
     0
  9
$DIMSE1
 70
     0
  9
$DIMSE2
 70
     0
  9
$DIMTAD
 70
     1
  9
$DIMZIN
 70
     8
  9
$DIMBLK
  1
DOTSMALL
  9
$DIMASO
 70
     1
  9
$DIMSHO
 70
     1
  9
$DIMPOST
  1

  9
$DIMAPOST
  1

  9
$DIMALT
 70
     0
  9
$DIMALTD
 70
     2
  9
$DIMALTF
 40
25.4
  9
$DIMLFAC
 40
1.0
  9
$DIMTOFL
 70
     0
  9
$DIMTVP
 40
0.0
  9
$DIMTIX
 70
     0
  9
$DIMSOXD
 70
     0
  9
$DIMSAH
 70
     0
  9
$DIMBLK1
  1

  9
$DIMBLK2
  1

  9
$DIMSTYLE
  2
STANDARD
  9
$DIMCLRD
 70
     3
  9
$DIMCLRE
 70
     3
  9
$DIMCLRT
 70
     3
  9
$DIMTFAC
 40
1.0
  9
$DIMGAP
 40
1.0
  9
$DIMJUST
 70
     0
  9
$DIMSD1
 70
     0
  9
$DIMSD2
 70
     0
  9
$DIMTOLJ
 70
     1
  9
$DIMTZIN
 70
     0
  9
$DIMALTZ
 70
     0
  9
$DIMALTTZ
 70
     0
  9
$DIMUPT
 70
     0
  9
$DIMDEC
 70
     4
  9
$DIMTDEC
 70
     4
  9
$DIMALTU
 70
     2
  9
$DIMALTTD
 70
     2
  9
$DIMTXSTY
  7
STANDARD
  9
$DIMAUNIT
 70
     0
  9
$DIMADEC
 70
     0
  9
$DIMALTRND
 40
0.0
  9
$DIMAZIN
 70
     0
  9
$DIMDSEP
 70
    46
  9
$DIMATFIT
 70
     3
  9
$DIMFRAC
 70
     0
  9
$DIMLDRBLK
  1
DOTSMALL
  9
$DIMLUNIT
 70
     2
  9
$DIMLWD
 70
    -2
  9
$DIMLWE
 70
    -2
  9
$DIMTMOVE
 70
     0
  9
$LUNITS
 70
     2
  9
$LUPREC
 70
     4
  9
$SKETCHINC
 40
0.1
  9
$FILLETRAD
 40
0.0
  9
$AUNITS
 70
     0
  9
$AUPREC
 70
     0
  9
$MENU
  1
acad
  9
$ELEVATION
 40
0.0
  9
$PELEVATION
 40
0.0
  9
$THICKNESS
 40
0.0
  9
$LIMCHECK
 70
     0
  9
$CHAMFERA
 40
0.0
  9
$CHAMFERB
 40
0.0
  9
$CHAMFERC
 40
0.0
  9
$CHAMFERD
 40
0.0
  9
$SKPOLY
 70
     0
  9
$TDCREATE
 40
2444972.375000000
  9
$TDUCREATE
 40
2444972.000000000
  9
$TDUPDATE
 40
2453830.494790266
  9
$TDUUPDATE
 40
2453830.119790266
  9
$TDINDWG
 40
0.2392714699
  9
$TDUSRTIMER
 40
0.2392714699
  9
$USRTIMER
 70
     1
  9
$ANGBASE
 50
0.0
  9
$ANGDIR
 70
     0
  9
$PDMODE
 70
     0
  9
$PDSIZE
 40
0.0
  9
$PLINEWID
 40
0.0
  9
$SPLFRAME
 70
     0
  9
$SPLINETYPE
 70
     6
  9
$SPLINESEGS
 70
     8
  9
$HANDSEED
  5
14F
  9
$SURFTAB1
 70
     6
  9
$SURFTAB2
 70
     6
  9
$SURFTYPE
 70
     6
  9
$SURFU
 70
     6
  9
$SURFV
 70
     6
  9
$UCSBASE
  2

  9
$UCSNAME
  2

  9
$UCSORG
 10
0.0
 20
0.0
 30
0.0
  9
$UCSXDIR
 10
1.0
 20
0.0
 30
0.0
  9
$UCSYDIR
 10
0.0
 20
1.0
 30
0.0
  9
$UCSORTHOREF
  2

  9
$UCSORTHOVIEW
 70
     0
  9
$UCSORGTOP
 10
0.0
 20
0.0
 30
0.0
  9
$UCSORGBOTTOM
 10
0.0
 20
0.0
 30
0.0
  9
$UCSORGLEFT
 10
0.0
 20
0.0
 30
0.0
  9
$UCSORGRIGHT
 10
0.0
 20
0.0
 30
0.0
  9
$UCSORGFRONT
 10
0.0
 20
0.0
 30
0.0
  9
$UCSORGBACK
 10
0.0
 20
0.0
 30
0.0
  9
$PUCSBASE
  2

  9
$PUCSNAME
  2

  9
$PUCSORG
 10
0.0
 20
0.0
 30
0.0
  9
$PUCSXDIR
 10
1.0
 20
0.0
 30
0.0
  9
$PUCSYDIR
 10
0.0
 20
1.0
 30
0.0
  9
$PUCSORTHOREF
  2

  9
$PUCSORTHOVIEW
 70
     0
  9
$PUCSORGTOP
 10
0.0
 20
0.0
 30
0.0
  9
$PUCSORGBOTTOM
 10
0.0
 20
0.0
 30
0.0
  9
$PUCSORGLEFT
 10
0.0
 20
0.0
 30
0.0
  9
$PUCSORGRIGHT
 10
0.0
 20
0.0
 30
0.0
  9
$PUCSORGFRONT
 10
0.0
 20
0.0
 30
0.0
  9
$PUCSORGBACK
 10
0.0
 20
0.0
 30
0.0
  9
$USERI1
 70
     0
  9
$USERI2
 70
     0
  9
$USERI3
 70
     0
  9
$USERI4
 70
     0
  9
$USERI5
 70
     0
  9
$USERR1
 40
0.0
  9
$USERR2
 40
0.0
  9
$USERR3
 40
0.0
  9
$USERR4
 40
0.0
  9
$USERR5
 40
0.0
  9
$WORLDVIEW
 70
     1
  9
$SHADEDGE
 70
     3
  9
$SHADEDIF
 70
    70
  9
$TILEMODE
 70
     1
  9
$MAXACTVP
 70
    16
  9
$PINSBASE
 10
0.0
 20
0.0
 30
0.0
  9
$PLIMCHECK
 70
     0
  9
$PEXTMIN
 10
1.000000000000000E+20
 20
1.000000000000000E+20
 30
1.000000000000000E+20
  9
$PEXTMAX
 10
-1.000000000000000E+20
 20
-1.000000000000000E+20
 30
-1.000000000000000E+20
  9
$PLIMMIN
 10
0.0
 20
0.0
  9
$PLIMMAX
 10
12.0
 20
9.0
  9
$UNITMODE
 70
     0
  9
$VISRETAIN
 70
     0
  9
$PLINEGEN
 70
     1
  9
$PSLTSCALE
 70
     0
  9
$TREEDEPTH
 70
  3020
  9
$CMLSTYLE
  2
STANDARD
  9
$CMLJUST
 70
     0
  9
$CMLSCALE
 40
1.0
  9
$PROXYGRAPHICS
 70
     1
  9
$MEASUREMENT
 70
     0
  9
$CELWEIGHT
370
    -1
  9
$ENDCAPS
280
     0
  9
$JOINSTYLE
280
     0
  9
$LWDISPLAY
290
     0
  9
$INSUNITS
 70
     0
  9
$HYPERLINKBASE
  1

  9
$STYLESHEET
  1

  9
$XEDIT
290
     1
  9
$CEPSNTYPE
380
     0
  9
$PSTYLEMODE
290
     1
  9
$FINGERPRINTGUID
  2
{60AF16CA-74CB-4250-8653-2BBD13A1A007}
  9
$VERSIONGUID
  2
{703F7852-13E4-4B31-8950-FDF12F37A0B6}
  9
$EXTNAMES
290
     1
  9
$PSVPSCALE
 40
0.0
  9
$OLESTARTUP
290
     0
  0
ENDSEC
  0
SECTION
  2
CLASSES
  0
CLASS
  1
LWPOLYLINE
  2
AcDbPolyline
  3
AutoCAD 2000
 90
    32768
280
     0
281
     1
  0
CLASS
  1
IMAGE
  2
AcDbRasterImage
  3
ISM
 90
    32895
280
     1
281
     1
  0
CLASS
  1
OLE2FRAME
  2
AcDbOle2Frame
  3
AutoCAD 2000
 90
    32768
280
     0
281
     1
  0
CLASS
  1
HATCH
  2
AcDbHatch
  3
AutoCAD 2000
 90
    32768
280
     0
281
     1
  0
CLASS
  1
DICTIONARYVAR
  2
AcDbDictionaryVar
  3
AutoCAD 2000
 90
    32768
280
     0
281
     0
  0
CLASS
  1
RASTERVARIABLES
  2
AcDbRasterVariables
  3
ISM
 90
    32768
280
     1
281
     0
  0
CLASS
  1
IMAGEDEF
  2
AcDbRasterImageDef
  3
ISM
 90
    32768
280
     1
281
     0
  0
CLASS
  1
IMAGEDEF_REACTOR
  2
AcDbRasterImageDefReactor
  3
ISM
 90
    32769
280
     1
281
     0
  0
CLASS
  1
IDBUFFER
  2
AcDbIdBuffer
  3
AutoCAD 2000
 90
    32768
280
     0
281
     0
  0
CLASS
  1
SPATIAL_FILTER
  2
AcDbSpatialFilter
  3
AutoCAD 2000
 90
    32768
280
     0
281
     0
  0
CLASS
  1
XRECORD
  2
AcDbXrecord
  3
AutoCAD 2000
 90
    32768
280
     0
281
     0
  0
CLASS
  1
SORTENTSTABLE
  2
AcDbSortentsTable
  3
AutoCAD 2000
 90
    32768
280
     0
281
     0
  0
CLASS
  1
LAYER_INDEX
  2
AcDbLayerIndex
  3
AutoCAD 2000
 90
    32768
280
     0
281
     0
  0
CLASS
  1
SPATIAL_INDEX
  2
AcDbSpatialIndex
  3
AutoCAD 2000
 90
    32768
280
     0
281
     0
  0
CLASS
  1
OBJECT_PTR
  2
CAseDLPNTableRecord
  3
ASE-LPNTableRecord
 90
    32769
280
     1
281
     0
  0
CLASS
  1
LAYOUT
  2
AcDbLayout
  3
AutoCAD 2000
 90
        0
280
     0
281
     0
  0
CLASS
  1
PLOTSETTINGS
  2
AcDbPlotSettings
  3
AutoCAD 2000
 90
    32768
280
     0
281
     0
  0
CLASS
  1
ACDBDICTIONARYWDFLT
  2
AcDbDictionaryWithDefault
  3
AutoCAD 2000
 90
        0
280
     0
281
     0
  0
CLASS
  1
ACDBPLACEHOLDER
  2
AcDbPlaceHolder
  3
AutoCAD 2000
 90
        0
280
     0
281
     0
  0
CLASS
  1
VBA_PROJECT
  2
AcDbVbaProject
  3
acadvba
 90
    32768
280
     1
281
     0
  0
CLASS
  1
WIPEOUT
  2
AcDbWipeout
  3
WipeOut|AutoCAD Express Tool|expresstools@autodesk.com
 90
    32895
280
     1
281
     1
  0
CLASS
  1
WIPEOUTVARIABLES
  2
AcDbWipeoutVariables
  3
WipeOut|AutoCAD Express Tool|expresstools@autodesk.com
 90
    32768
280
     1
281
     0
  0
CLASS
  1
RTEXT
  2
RText
  3
RText|AutoCAD Express Tool|expresstools@autodesk.com
 90
    32768
280
     1
281
     1
  0
CLASS
  1
ARCALIGNEDTEXT
  2
AcDbArcAlignedText
  3
ATEXT|AutoCAD Express Tool|expresstools@autodesk.com
 90
    32768
280
     1
281
     1
  0
CLASS
  1
LONG_TRANSACTION
  2
AcDbLongTransaction
  3
AutoCAD 2000
 90
    32768
280
     0
281
     0
  0
CLASS
  1
LWPOLYLINE
  2
AcDbPolyline
  3
AutoCAD 2000
 90
    32768
280
     0
281
     1
  0
CLASS
  1
HATCH
  2
AcDbHatch
  3
AutoCAD 2000
 90
    32768
280
     0
281
     1
  0
CLASS
  1
XRECORD
  2
AcDbXrecord
  3
AutoCAD 2000
 90
    32768
280
     0
281
     0
  0
ENDSEC
  0
SECTION
  2
TABLES
  0
TABLE
  2
VPORT
  5
19
330
0
100
AcDbSymbolTable
 70
     3
  0
VPORT
  5
14E
330
19
100
AcDbSymbolTableRecord
100
AcDbViewportTableRecord
  2
*Active
 70
     0
 10
0.0
 20
0.0
 11
1.0
 21
1.0
 12
29.95426586335685
 22
58.96283703784661
 13
0.0
 23
0.0
 14
1.0
 24
1.0
 15
0.0
 25
0.0
 16
0.0
 26
0.0
 36
1.0
 17
0.0
 27
0.0
 37
0.0
 40
119.3196054977134
 41
1.84990253411306
 42
50.0
 43
0.0
 44
0.0
 50
0.0
 51
0.0
 71
     0
 72
  2000
 73
     1
 74
     1
 75
     0
 76
     0
 77
     0
 78
     0
281
     0
 65
     1
110
0.0
120
0.0
130
0.0
111
1.0
121
0.0
131
0.0
112
0.0
122
1.0
132
0.0
 79
     0
146
0.0
  0
ENDTAB
  0
TABLE
  2
LTYPE
  5
14
330
0
100
AcDbSymbolTable
 70
     1
  0
LTYPE
  5
15
330
14
100
AcDbSymbolTableRecord
100
AcDbLinetypeTableRecord
  2
BYBLOCK
 70
     0
  3

 72
    65
 73
     0
 40
0.0
  0
LTYPE
  5
16
330
14
100
AcDbSymbolTableRecord
100
AcDbLinetypeTableRecord
  2
BYLAYER
 70
     0
  3

 72
    65
 73
     0
 40
0.0
  0
LTYPE
  5
8
330
14
100
AcDbSymbolTableRecord
100
AcDbLinetypeTableRecord
  2
CONTINUOUS
 70
     0
  3
Solid line
 72
    65
 73
     0
 40
0.0
  0
ENDTAB
  0
TABLE
  2
LAYER
  5
10
330
0
100
AcDbSymbolTable
 70
     7
  0
LAYER
  5
4
330
10
100
AcDbSymbolTableRecord
100
AcDbLayerTableRecord
  2
0
 70
     0
 62
     7
  6
CONTINUOUS
370
    -3
390
93
  0
LAYER
  5
41
330
10
100
AcDbSymbolTableRecord
100
AcDbLayerTableRecord
  2
DEFPOINTS
 70
     0
 62
     7
  6
CONTINUOUS
290
     0
370
    -3
390
93
  0
LAYER
  5
B0
330
10
100
AcDbSymbolTableRecord
100
AcDbLayerTableRecord
  2
KIJUN
 70
     0
 62
     7
  6
CONTINUOUS
370
    -3
390
93
  0
LAYER
  5
B1
330
10
100
AcDbSymbolTableRecord
100
AcDbLayerTableRecord
  2
HOJO
 70
     0
 62
     3
  6
CONTINUOUS
370
    -3
390
93
  0
LAYER
  5
B2
330
10
100
AcDbSymbolTableRecord
100
AcDbLayerTableRecord
  2
WAKU
 70
     0
 62
     1
  6
CONTINUOUS
370
    -3
390
93
  0
LAYER
  5
B3
330
10
100
AcDbSymbolTableRecord
100
AcDbLayerTableRecord
  2
SUNPOU
 70
     0
 62
    70
  6
CONTINUOUS
370
    -3
390
93
  0
ENDTAB
  0
TABLE
  2
STYLE
  5
11
330
0
100
AcDbSymbolTable
 70
     3
  0
STYLE
  5
12
330
11
100
AcDbSymbolTableRecord
100
AcDbTextStyleTableRecord
  2
STANDARD
 70
     0
 40
0.0
 41
1.0
 50
0.0
 71
     0
 42
0.0
  3
txt
  4

  0
STYLE
  5
25
330
11
100
AcDbSymbolTableRecord
100
AcDbTextStyleTableRecord
  2
STD
 70
     0
 40
0.0
 41
1.0
 50
0.0
 71
     0
 42
0.0
  3
txt
  4

  0
STYLE
  5
B4
330
11
100
AcDbSymbolTableRecord
100
AcDbTextStyleTableRecord
  2
SUNPOU
 70
     0
 40
0.0
 41
1.0
 50
0.0
 71
     0
 42
30.0
  3
txt
  4
bigfont
  0
ENDTAB
  0
TABLE
  2
VIEW
  5
17
330
0
100
AcDbSymbolTable
 70
     0
  0
ENDTAB
  0
TABLE
  2
UCS
  5
18
330
0
100
AcDbSymbolTable
 70
     0
  0
ENDTAB
  0
TABLE
  2
APPID
  5
1B
330
0
100
AcDbSymbolTable
 70
     1
  0
APPID
  5
1C
330
1B
100
AcDbSymbolTableRecord
100
AcDbRegAppTableRecord
  2
ACAD
 70
     0
  0
ENDTAB
  0
TABLE
  2
DIMSTYLE
  5
1D
330
0
100
AcDbSymbolTable
 70
     1
100
AcDbDimStyleTable
 71
     0
  0
DIMSTYLE
105
1E
102
{ACAD_REACTORS
330
40
330
4E
102
}
330
1D
100
AcDbSymbolTableRecord
100
AcDbDimStyleTableRecord
  2
STANDARD
 70
     0
340
12
  0
ENDTAB
  0
TABLE
  2
BLOCK_RECORD
  5
1
330
0
100
AcDbSymbolTable
 70
     8
  0
BLOCK_RECORD
  5
2
102
{ACAD_XDICTIONARY
360
77
102
}
330
1
100
AcDbSymbolTableRecord
100
AcDbBlockTableRecord
  2
*MODEL_SPACE
340
94
  0
BLOCK_RECORD
  5
C
102
{ACAD_XDICTIONARY
360
79
102
}
330
1
100
AcDbSymbolTableRecord
100
AcDbBlockTableRecord
  2
*PAPER_SPACE
340
95
  0
BLOCK_RECORD
  5
3B
330
1
100
AcDbSymbolTableRecord
100
AcDbBlockTableRecord
  2
_DOTSMALL
340
0
102
{BLKREFS
331
81
331
82
331
8A
331
8B
331
F5
331
F6
331
FE
331
FF
331
12B
331
12C
331
134
331
135
331
13D
331
13E
331
146
331
147
102
}
  0
BLOCK_RECORD
  5
42
330
1
100
AcDbSymbolTableRecord
100
AcDbBlockTableRecord
  2
*D1
340
0
  0
BLOCK_RECORD
  5
4F
330
1
100
AcDbSymbolTableRecord
100
AcDbBlockTableRecord
  2
*D2
340
0
  0
BLOCK_RECORD
  5
98
330
1
100
AcDbSymbolTableRecord
100
AcDbBlockTableRecord
  2
*D3
340
0
  0
BLOCK_RECORD
  5
A4
330
1
100
AcDbSymbolTableRecord
100
AcDbBlockTableRecord
  2
*D4
340
0
  0
BLOCK_RECORD
  5
C8
330
1
100
AcDbSymbolTableRecord
100
AcDbBlockTableRecord
  2
*D6
340
0
  0
BLOCK_RECORD
  5
D4
330
1
100
AcDbSymbolTableRecord
100
AcDbBlockTableRecord
  2
*D7
340
0
  0
ENDTAB
  0
ENDSEC
  0
SECTION
  2
BLOCKS
  0
BLOCK
  5
3
330
2
100
AcDbEntity
  8
0
100
AcDbBlockBegin
  2
*MODEL_SPACE
 70
     0
 10
0.0
 20
0.0
 30
0.0
  3
*MODEL_SPACE
  1

  0
ENDBLK
  5
9
330
2
100
AcDbEntity
  8
0
100
AcDbBlockEnd
  0
BLOCK
  5
D
330
C
100
AcDbEntity
 67
     1
  8
0
100
AcDbBlockBegin
  2
*PAPER_SPACE
 70
     0
 10
0.0
 20
0.0
 30
0.0
  3
*PAPER_SPACE
  1

  0
ENDBLK
  5
E
330
C
100
AcDbEntity
 67
     1
  8
0
100
AcDbBlockEnd
  0
BLOCK
  5
3D
330
3B
100
AcDbEntity
  8
0
100
AcDbBlockBegin
  2
_DOTSMALL
 70
     0
 10
0.0
 20
0.0
 30
0.0
  3
_DOTSMALL
  1

  0
LWPOLYLINE
  5
3C
330
3B
100
AcDbEntity
  8
0
  6
ByBlock
 62
     0
100
AcDbPolyline
 90
        2
 70
     1
 43
0.5
 10
-0.0625
 20
0.0
 42
1.0
 10
0.0625
 20
0.0
 42
1.0
  0
ENDBLK
  5
3E
330
3B
100
AcDbEntity
  8
0
100
AcDbBlockEnd
  0
BLOCK
  5
4C
330
42
100
AcDbEntity
  8
0
100
AcDbBlockBegin
  2
*D1
 70
     1
 10
0.0
 20
0.0
 30
0.0
  3
*D1
  1

  0
LINE
  5
143
330
42
100
AcDbEntity
  8
SUNPOU
  6
Continuous
 62
     3
100
AcDbLine
 10
13.44404597149065
 20
102.5132360984152
 30
0.0
 11
13.44404597149065
 21
112.4250951816752
 31
0.0
  0
LINE
  5
144
330
42
100
AcDbEntity
  8
SUNPOU
  6
Continuous
 62
     3
100
AcDbLine
 10
35.44404597149066
 20
102.5132360984152
 30
0.0
 11
35.44404597149066
 21
112.4250951816752
 31
0.0
  0
LINE
  5
145
330
42
100
AcDbEntity
  8
SUNPOU
  6
Continuous
 62
     3
100
AcDbLine
 10
13.44404597149065
 20
112.4250951816752
 30
0.0
 11
35.44404597149066
 21
112.4250951816752
 31
0.0
  0
INSERT
  5
146
330
42
100
AcDbEntity
  8
SUNPOU
  6
Continuous
 62
     3
100
AcDbBlockReference
  2
_DOTSMALL
 10
13.44404597149065
 20
112.4250951816752
 30
0.0
 41
3.0
 42
3.0
 43
3.0
 50
180.0
  0
INSERT
  5
147
330
42
100
AcDbEntity
  8
SUNPOU
  6
Continuous
 62
     3
100
AcDbBlockReference
  2
_DOTSMALL
 10
35.44404597149066
 20
112.4250951816752
 30
0.0
 41
3.0
 42
3.0
 43
3.0
  0
MTEXT
  5
148
330
42
100
AcDbEntity
  8
SUNPOU
  6
Continuous
 62
     3
100
AcDbMText
 10
24.44404597149066
 20
115.6750951816752
 30
0.0
 40
4.5
 41
0.0
 71
     5
 72
     1
  1
\A1;22
 73
     1
 44
1.0
  0
POINT
  5
149
330
42
100
AcDbEntity
  8
DEFPOINTS
  6
Continuous
 62
     0
100
AcDbPoint
 10
13.44404597149065
 20
97.51323609841529
 30
0.0
  0
POINT
  5
14A
330
42
100
AcDbEntity
  8
DEFPOINTS
  6
Continuous
 62
     0
100
AcDbPoint
 10
35.44404597149066
 20
97.51323609841529
 30
0.0
  0
POINT
  5
14B
330
42
100
AcDbEntity
  8
DEFPOINTS
  6
Continuous
 62
     0
100
AcDbPoint
 10
35.44404597149066
 20
112.4250951816752
 30
0.0
  0
ENDBLK
  5
4D
330
42
100
AcDbEntity
  8
0
100
AcDbBlockEnd
  0
BLOCK
  5
59
330
4F
100
AcDbEntity
  8
0
100
AcDbBlockBegin
  2
*D2
 70
     1
 10
0.0
 20
0.0
 30
0.0
  3
*D2
  1

  0
LINE
  5
13A
330
4F
100
AcDbEntity
  8
SUNPOU
  6
Continuous
 62
     3
100
AcDbLine
 10
40.44404597149067
 20
97.51323609841529
 30
0.0
 11
52.72868218814439
 21
97.51323609841529
 31
0.0
  0
LINE
  5
13B
330
4F
100
AcDbEntity
  8
SUNPOU
  6
Continuous
 62
     3
100
AcDbLine
 10
23.67657183231437
 20
19.51323609841523
 30
0.0
 11
52.72868218814438
 21
19.51323609841522
 31
0.0
  0
LINE
  5
13C
330
4F
100
AcDbEntity
  8
SUNPOU
  6
Continuous
 62
     3
100
AcDbLine
 10
52.72868218814439
 20
97.51323609841529
 30
0.0
 11
52.72868218814437
 21
19.51323609841522
 31
0.0
  0
INSERT
  5
13D
330
4F
100
AcDbEntity
  8
SUNPOU
  6
Continuous
 62
     3
100
AcDbBlockReference
  2
_DOTSMALL
 10
52.72868218814439
 20
97.51323609841529
 30
0.0
 41
3.0
 42
3.0
 43
3.0
 50
90.0
  0
INSERT
  5
13E
330
4F
100
AcDbEntity
  8
SUNPOU
  6
Continuous
 62
     3
100
AcDbBlockReference
  2
_DOTSMALL
 10
52.72868218814437
 20
19.51323609841522
 30
0.0
 41
3.0
 42
3.0
 43
3.0
 50
270.0
  0
MTEXT
  5
13F
330
4F
100
AcDbEntity
  8
SUNPOU
  6
Continuous
 62
     3
100
AcDbMText
 10
49.47868218814438
 20
58.51323609841527
 30
0.0
 40
4.5
 41
0.0
 71
     5
 72
     1
  1
\A1;78
 11
0.0000000000000001
 21
1.0
 31
0.0
 73
     1
 44
1.0
  0
POINT
  5
140
330
4F
100
AcDbEntity
  8
DEFPOINTS
  6
Continuous
 62
     0
100
AcDbPoint
 10
35.44404597149066
 20
97.51323609841529
 30
0.0
  0
POINT
  5
141
330
4F
100
AcDbEntity
  8
DEFPOINTS
  6
Continuous
 62
     0
100
AcDbPoint
 10
18.67657183231438
 20
19.51323609841523
 30
0.0
  0
POINT
  5
142
330
4F
100
AcDbEntity
  8
DEFPOINTS
  6
Continuous
 62
     0
100
AcDbPoint
 10
52.72868218814437
 20
19.51323609841522
 30
0.0
  0
ENDBLK
  5
5A
330
4F
100
AcDbEntity
  8
0
100
AcDbBlockEnd
  0
BLOCK
  5
A2
330
98
100
AcDbEntity
  8
0
100
AcDbBlockBegin
  2
*D3
 70
     1
 10
0.0
 20
0.0
 30
0.0
  3
*D3
  1

  0
LINE
  5
99
330
98
100
AcDbEntity
  8
SUNPOU
 62
    70
370
    -2
100
AcDbLine
 10
44.87949943800811
 20
39.02875040444958
 30
0.0
 11
36.92162043800808
 21
39.02875040444958
 31
0.0
  0
LINE
  5
9A
330
98
100
AcDbEntity
  8
SUNPOU
 62
    70
370
    -2
100
AcDbLine
 10
44.87949943800811
 20
30.02875040444958
 30
0.0
 11
36.92162043800808
 21
30.02875040444959
 31
0.0
  0
LINE
  5
9B
330
98
100
AcDbEntity
  8
SUNPOU
 62
    60
370
    -2
100
AcDbLine
 10
36.92162043800808
 20
36.02875040444958
 30
0.0
 11
36.92162043800808
 21
33.02875040444959
 31
0.0
  0
SOLID
  5
9C
330
98
100
AcDbEntity
  8
SUNPOU
 62
    60
100
AcDbTrace
 10
36.42162043800808
 20
36.02875040444958
 30
0.0
 11
37.42162043800808
 21
36.02875040444958
 31
0.0
 12
36.92162043800808
 22
39.02875040444958
 32
0.0
 13
36.92162043800808
 23
39.02875040444958
 33
0.0
  0
SOLID
  5
9D
330
98
100
AcDbEntity
  8
SUNPOU
 62
    60
100
AcDbTrace
 10
36.42162043800808
 20
33.02875040444959
 30
0.0
 11
37.42162043800808
 21
33.02875040444959
 31
0.0
 12
36.92162043800808
 22
30.02875040444959
 32
0.0
 13
36.92162043800808
 23
30.02875040444959
 33
0.0
  0
MTEXT
  5
9E
330
98
100
AcDbEntity
  8
SUNPOU
 62
    60
100
AcDbMText
 10
35.43162043800807
 20
34.52875040444959
 30
0.0
 40
2.799999999999999
 41
0.0
 71
     5
 72
     1
  1
\A1;9
  7
SUNPOU
 11
0.0000000000000001
 21
1.0
 31
0.0
 73
     1
 44
1.0
  0
POINT
  5
9F
330
98
100
AcDbEntity
  8
DEFPOINTS
 62
     0
100
AcDbPoint
 10
46.87949943800811
 20
39.02875040444958
 30
0.0
  0
POINT
  5
A0
330
98
100
AcDbEntity
  8
DEFPOINTS
 62
     0
100
AcDbPoint
 10
46.87949943800811
 20
30.02875040444958
 30
0.0
  0
POINT
  5
A1
330
98
100
AcDbEntity
  8
DEFPOINTS
 62
     0
100
AcDbPoint
 10
36.92162043800808
 20
30.02875040444959
 30
0.0
  0
ENDBLK
  5
A3
330
98
100
AcDbEntity
  8
0
100
AcDbBlockEnd
  0
BLOCK
  5
AE
330
A4
100
AcDbEntity
  8
0
100
AcDbBlockBegin
  2
*D4
 70
     1
 10
0.0
 20
0.0
 30
0.0
  3
*D4
  1

  0
LINE
  5
A5
330
A4
100
AcDbEntity
  8
SUNPOU
 62
    70
370
    -2
100
AcDbLine
 10
55.87949943800811
 20
41.02875040444958
 30
0.0
 11
55.87949943800811
 21
49.04146440444957
 31
0.0
  0
LINE
  5
A6
330
A4
100
AcDbEntity
  8
SUNPOU
 62
    70
370
    -2
100
AcDbLine
 10
46.87949943800811
 20
41.02875040444958
 30
0.0
 11
46.87949943800811
 21
49.04146440444957
 31
0.0
  0
LINE
  5
A7
330
A4
100
AcDbEntity
  8
SUNPOU
 62
    60
370
    -2
100
AcDbLine
 10
52.87949943800811
 20
49.04146440444957
 30
0.0
 11
49.87949943800811
 21
49.04146440444957
 31
0.0
  0
SOLID
  5
A8
330
A4
100
AcDbEntity
  8
SUNPOU
 62
    60
100
AcDbTrace
 10
52.87949943800811
 20
49.54146440444957
 30
0.0
 11
52.87949943800811
 21
48.54146440444957
 31
0.0
 12
55.87949943800811
 22
49.04146440444957
 32
0.0
 13
55.87949943800811
 23
49.04146440444957
 33
0.0
  0
SOLID
  5
A9
330
A4
100
AcDbEntity
  8
SUNPOU
 62
    60
100
AcDbTrace
 10
49.87949943800811
 20
49.54146440444957
 30
0.0
 11
49.87949943800811
 21
48.54146440444957
 31
0.0
 12
46.87949943800811
 22
49.04146440444957
 32
0.0
 13
46.87949943800811
 23
49.04146440444957
 33
0.0
  0
MTEXT
  5
AA
330
A4
100
AcDbEntity
  8
SUNPOU
 62
    60
100
AcDbMText
 10
51.37949943800811
 20
50.53146440444957
 30
0.0
 40
2.799999999999999
 41
0.0
 71
     5
 72
     1
  1
\A1;9
  7
SUNPOU
 73
     1
 44
1.0
  0
POINT
  5
AB
330
A4
100
AcDbEntity
  8
DEFPOINTS
 62
     0
100
AcDbPoint
 10
55.87949943800811
 20
39.02875040444958
 30
0.0
  0
POINT
  5
AC
330
A4
100
AcDbEntity
  8
DEFPOINTS
 62
     0
100
AcDbPoint
 10
46.87949943800811
 20
39.02875040444958
 30
0.0
  0
POINT
  5
AD
330
A4
100
AcDbEntity
  8
DEFPOINTS
 62
     0
100
AcDbPoint
 10
46.87949943800811
 20
49.04146440444957
 30
0.0
  0
ENDBLK
  5
AF
330
A4
100
AcDbEntity
  8
0
100
AcDbBlockEnd
  0
BLOCK
  5
D2
330
C8
100
AcDbEntity
  8
0
100
AcDbBlockBegin
  2
*D6
 70
     1
 10
0.0
 20
0.0
 30
0.0
  3
*D6
  1

  0
LINE
  5
E0
330
C8
100
AcDbEntity
  8
SUNPOU
 62
    70
370
    -2
100
AcDbLine
 10
145.7774373222815
 20
265.0026141635675
 30
0.0
 11
145.7774373222815
 21
273.0153281635675
 31
0.0
  0
LINE
  5
E1
330
C8
100
AcDbEntity
  8
SUNPOU
 62
    70
370
    -2
100
AcDbLine
 10
136.7774373222815
 20
265.0026141635675
 30
0.0
 11
136.7774373222815
 21
273.0153281635675
 31
0.0
  0
LINE
  5
E2
330
C8
100
AcDbEntity
  8
SUNPOU
 62
    60
370
    -2
100
AcDbLine
 10
142.7774373222815
 20
273.0153281635675
 30
0.0
 11
139.7774373222815
 21
273.0153281635675
 31
0.0
  0
SOLID
  5
E3
330
C8
100
AcDbEntity
  8
SUNPOU
 62
    60
100
AcDbTrace
 10
142.7774373222815
 20
273.5153281635675
 30
0.0
 11
142.7774373222815
 21
272.5153281635675
 31
0.0
 12
145.7774373222815
 22
273.0153281635675
 32
0.0
 13
145.7774373222815
 23
273.0153281635675
 33
0.0
  0
SOLID
  5
E4
330
C8
100
AcDbEntity
  8
SUNPOU
 62
    60
100
AcDbTrace
 10
139.7774373222815
 20
273.5153281635675
 30
0.0
 11
139.7774373222815
 21
272.5153281635675
 31
0.0
 12
136.7774373222815
 22
273.0153281635675
 32
0.0
 13
136.7774373222815
 23
273.0153281635675
 33
0.0
  0
MTEXT
  5
E5
330
C8
100
AcDbEntity
  8
SUNPOU
 62
    60
100
AcDbMText
 10
141.2774373222815
 20
274.5053281635676
 30
0.0
 40
2.799999999999999
 41
0.0
 71
     5
 72
     1
  1
\A1;9
  7
SUNPOU
 73
     1
 44
1.0
  0
POINT
  5
E6
330
C8
100
AcDbEntity
  8
DEFPOINTS
 62
     0
100
AcDbPoint
 10
145.7774373222815
 20
263.0026141635675
 30
0.0
  0
POINT
  5
E7
330
C8
100
AcDbEntity
  8
DEFPOINTS
 62
     0
100
AcDbPoint
 10
136.7774373222815
 20
263.0026141635675
 30
0.0
  0
POINT
  5
E8
330
C8
100
AcDbEntity
  8
DEFPOINTS
 62
     0
100
AcDbPoint
 10
136.7774373222815
 20
273.0153281635675
 30
0.0
  0
ENDBLK
  5
D3
330
C8
100
AcDbEntity
  8
0
100
AcDbBlockEnd
  0
BLOCK
  5
DE
330
D4
100
AcDbEntity
  8
0
100
AcDbBlockBegin
  2
*D7
 70
     1
 10
0.0
 20
0.0
 30
0.0
  3
*D7
  1

  0
LINE
  5
E9
330
D4
100
AcDbEntity
  8
SUNPOU
 62
    70
370
    -2
100
AcDbLine
 10
134.7774373222815
 20
263.0026141635675
 30
0.0
 11
126.8195583222815
 21
263.0026141635676
 31
0.0
  0
LINE
  5
EA
330
D4
100
AcDbEntity
  8
SUNPOU
 62
    70
370
    -2
100
AcDbLine
 10
134.7774373222815
 20
254.0026141635675
 30
0.0
 11
126.8195583222815
 21
254.0026141635675
 31
0.0
  0
LINE
  5
EB
330
D4
100
AcDbEntity
  8
SUNPOU
 62
    60
370
    -2
100
AcDbLine
 10
126.8195583222815
 20
260.0026141635676
 30
0.0
 11
126.8195583222815
 21
257.0026141635675
 31
0.0
  0
SOLID
  5
EC
330
D4
100
AcDbEntity
  8
SUNPOU
 62
    60
100
AcDbTrace
 10
126.3195583222815
 20
260.0026141635676
 30
0.0
 11
127.3195583222815
 21
260.0026141635676
 31
0.0
 12
126.8195583222815
 22
263.0026141635676
 32
0.0
 13
126.8195583222815
 23
263.0026141635676
 33
0.0
  0
SOLID
  5
ED
330
D4
100
AcDbEntity
  8
SUNPOU
 62
    60
100
AcDbTrace
 10
126.3195583222815
 20
257.0026141635675
 30
0.0
 11
127.3195583222815
 21
257.0026141635675
 31
0.0
 12
126.8195583222815
 22
254.0026141635675
 32
0.0
 13
126.8195583222815
 23
254.0026141635675
 33
0.0
  0
MTEXT
  5
EE
330
D4
100
AcDbEntity
  8
SUNPOU
 62
    60
100
AcDbMText
 10
125.3295583222815
 20
258.5026141635676
 30
0.0
 40
2.799999999999999
 41
0.0
 71
     5
 72
     1
  1
\A1;9
  7
SUNPOU
 11
0.0000000000000001
 21
1.0
 31
0.0
 73
     1
 44
1.0
  0
POINT
  5
EF
330
D4
100
AcDbEntity
  8
DEFPOINTS
 62
     0
100
AcDbPoint
 10
136.7774373222815
 20
263.0026141635675
 30
0.0
  0
POINT
  5
F0
330
D4
100
AcDbEntity
  8
DEFPOINTS
 62
     0
100
AcDbPoint
 10
136.7774373222815
 20
254.0026141635675
 30
0.0
  0
POINT
  5
F1
330
D4
100
AcDbEntity
  8
DEFPOINTS
 62
     0
100
AcDbPoint
 10
126.8195583222815
 20
254.0026141635675
 30
0.0
  0
ENDBLK
  5
DF
330
D4
100
AcDbEntity
  8
0
100
AcDbBlockEnd
  0
ENDSEC
  0
SECTION
  2
ENTITIES
  0
DIMENSION
  5
40
330
2
100
AcDbEntity
  8
SUNPOU
  6
Continuous
100
AcDbDimension
  2
*D1
 10
35.44404597149066
 20
112.4250951816752
 30
0.0
 11
24.44404597149066
 21
115.6750951816752
 31
0.0
 70
    32
 71
     5
 42
22.00000000000001
  3
STANDARD
100
AcDbAlignedDimension
 13
13.44404597149065
 23
97.51323609841529
 33
0.0
 14
35.44404597149066
 24
97.51323609841529
 34
0.0
100
AcDbRotatedDimension
1001
ACAD
1000
DSTYLE
1002
{
1070
   287
1070
     3
1070
    41
1040
3.0
1070
    42
1040
5.0
1070
    43
1040
1.0
1070
    44
1040
0.0
1070
    73
1070
     0
1070
    74
1070
     0
1070
    77
1070
     1
1070
    78
1070
     8
1070
    79
1070
     2
1070
   140
1040
4.5
1070
   141
1040
3.0
1070
   147
1040
1.0
1070
   176
1070
     3
1070
   177
1070
     3
1070
   178
1070
     3
1070
   289
1070
     3
1070
   341
1005
3B
1070
     5
1000
DOTSMALL
1070
   371
1070
    -1
1070
   372
1070
    -1
1002
}
  0
DIMENSION
  5
4E
330
2
100
AcDbEntity
  8
SUNPOU
  6
Continuous
100
AcDbDimension
  2
*D2
 10
52.72868218814437
 20
19.51323609841522
 30
0.0
 11
49.47868218814438
 21
58.51323609841527
 31
0.0
 70
    32
 71
     5
 42
78.00000000000007
  3
STANDARD
100
AcDbAlignedDimension
 13
35.44404597149066
 23
97.51323609841529
 33
0.0
 14
18.67657183231438
 24
19.51323609841523
 34
0.0
 50
90.0
100
AcDbRotatedDimension
1001
ACAD
1000
DSTYLE
1002
{
1070
   287
1070
     3
1070
    41
1040
3.0
1070
    42
1040
5.0
1070
    43
1040
1.0
1070
    44
1040
0.0
1070
    73
1070
     0
1070
    74
1070
     0
1070
    77
1070
     1
1070
    78
1070
     8
1070
    79
1070
     2
1070
   140
1040
4.5
1070
   141
1040
3.0
1070
   147
1040
1.0
1070
   176
1070
     3
1070
   177
1070
     3
1070
   178
1070
     3
1070
   289
1070
     3
1070
   341
1005
3B
1070
     5
1000
DOTSMALL
1070
   371
1070
    -1
1070
   372
1070
    -1
1002
}
  0
TEXT
  5
C2
330
2
100
AcDbEntity
  8
HOJO
100
AcDbText
 10
4.826983000000012
 20
1.183312999999998
 30
0.0
 40
4.5
  1
E-2024
  7
SUNPOU
100
AcDbText
  0
LINE
  5
C3
330
2
100
AcDbEntity
  8
WAKU
100
AcDbLine
 10
0.0
 20
0.0
 30
0.0
 11
59.90736463108101
 21
0.0
 31
0.0
  0
LINE
  5
C4
330
2
100
AcDbEntity
  8
WAKU
100
AcDbLine
 10
0.0
 20
7.0
 30
0.0
 11
59.90736463108101
 21
7.0
 31
0.0
  0
TEXT
  5
C6
330
2
100
AcDbEntity
  8
HOJO
100
AcDbText
 10
38.74491150636049
 20
2.522193000000015
 30
0.0
 40
3.0
  1
78×22
  7
SUNPOU
100
AcDbText
  0
LWPOLYLINE
  5
14C
330
2
100
AcDbEntity
  8
KIJUN
  6
Continuous
100
AcDbPolyline
 90
       31
 70
   128
 43
0.0
 10
24.44405861766588
 20
51.45755588904859
 42
0.9094305643977213
 10
24.44405861766588
 20
75.64852423602281
 10
28.84624762906338
 20
75.64852423602281
 42
0.270115802492107
 10
30.26767762141622
 20
82.67463242778029
 10
35.44404597149065
 20
86.90328399382554
 10
35.44404597149065
 20
97.51323609841529
 10
13.44404597149065
 20
97.51323609841529
 10
13.44404597149065
 20
19.51323609841529
 10
18.67572126756587
 20
19.51323609841529
 42
0.0202563922431913
 10
18.90804706874121
 20
19.52261765435662
 42
0.149418448987686
 10
19.91681449671295
 20
19.87901160739113
 42
0.1565663870379954
 10
20.5481591793479
 20
20.80299403351397
 42
0.070119798227964
 10
20.80911338930548
 20
22.26771813751076
 42
-0.0347394275507542
 10
20.91166262918085
 20
23.16311210639872
 42
-0.1140678450182305
 10
21.23097970745471
 20
23.83015345328584
 42
-0.036599562897601
 10
21.87252919427942
 20
24.46962955385777
 42
-0.0033716991074679
 10
22.62401901235161
 20
25.12016576688263
 42
0.0865733537868464
 10
23.85924927328449
 20
26.67759923540462
 42
0.1836206990261918
 10
24.13089622157336
 20
28.8085138503581
 42
0.055826557456882
 10
24.94916599310509
 20
29.3658654261257
 42
0.1627395244112508
 10
25.60031919101203
 20
30.52462867193827
 42
0.0467472982362968
 10
25.67282252985687
 20
31.32530329520716
 10
25.67282252985705
 20
38.17630265967534
 42
0.1230414925151172
 10
27.25607809393306
 20
39.52976397590743
 42
0.1783023835947935
 10
27.57095328359836
 20
40.90191992283076
 42
0.076363804743888
 10
27.33311247591377
 20
41.73360982733409
 42
0.08024898232127
 10
30.17924669405362
 20
44.32956353796157
 42
0.1757565766915855
 10
30.68814406039037
 20
46.43866193420331
 42
0.0614119208663501
 10
30.27616621185391
 20
48.15656634402813
 42
0.0228947298297962
 10
28.84624762906332
 20
51.45755588904858
 10
24.44406160889146
 20
51.45755588904865
  0
ENDSEC
  0
SECTION
  2
OBJECTS
  0
DICTIONARY
  5
7
330
0
100
AcDbDictionary
281
     1
  3
ACAD_GROUP
350
20
  3
ACAD_LAYOUT
350
B
  3
ACAD_MLINESTYLE
350
21
  3
ACAD_PLOTSETTINGS
350
22
  3
ACAD_PLOTSTYLENAME
350
92
1001
ACAD
1000
TREAT_AS_HARD
1070
     0
  0
DICTIONARY
  5
77
330
2
100
AcDbDictionary
281
     1
  3
ACAD_LAYOUTSELFREF
350
78
  0
DICTIONARY
  5
79
330
C
100
AcDbDictionary
281
     1
  3
ACAD_LAYOUTSELFREF
350
7A
  0
DICTIONARY
  5
20
102
{ACAD_REACTORS
330
7
102
}
330
7
100
AcDbDictionary
281
     1
1001
ACAD
1000
TREAT_AS_HARD
1070
     0
  0
DICTIONARY
  5
B
102
{ACAD_REACTORS
330
7
102
}
330
7
100
AcDbDictionary
281
     1
  3
Model
350
94
  3
ﾚｲｱｳﾄ1
350
95
1001
ACAD
1000
TREAT_AS_HARD
1070
     0
  0
DICTIONARY
  5
21
102
{ACAD_REACTORS
330
7
102
}
330
7
100
AcDbDictionary
281
     1
  3
STANDARD
350
23
1001
ACAD
1000
TREAT_AS_HARD
1070
     0
  0
DICTIONARY
  5
22
102
{ACAD_REACTORS
330
7
102
}
330
7
100
AcDbDictionary
281
     1
1001
ACAD
1000
TREAT_AS_HARD
1070
     0
  0
ACDBDICTIONARYWDFLT
  5
92
102
{ACAD_REACTORS
330
7
102
}
330
7
100
AcDbDictionary
281
     1
  3
Normal
350
93
100
AcDbDictionaryWithDefault
340
93
  0
XRECORD
  5
78
102
{ACAD_REACTORS
330
77
102
}
330
77
100
AcDbXrecord
280
     1
340
2
  0
XRECORD
  5
7A
102
{ACAD_REACTORS
330
79
102
}
330
79
100
AcDbXrecord
280
     1
340
C
  0
LAYOUT
  5
94
102
{ACAD_REACTORS
330
B
102
}
330
B
100
AcDbPlotSettings
  1

  2
なし
  4

  6

 40
0.0
 41
0.0
 42
0.0
 43
0.0
 44
0.0
 45
0.0
 46
0.0
 47
0.0
 48
0.0
 49
0.0
140
0.0
141
0.0
142
1.0
143
1.0
 70
  1712
 72
     0
 73
     0
 74
     0
  7
monochrome.ctb
 75
     0
147
1.0
148
0.0
149
0.0
100
AcDbLayout
  1
Model
 70
     1
 71
     0
 10
0.0
 20
0.0
 11
12.0
 21
9.0
 12
0.0
 22
0.0
 32
0.0
 14
0.0
 24
0.0
 34
0.0
 15
0.0
 25
0.0
 35
0.0
146
0.0
 13
0.0
 23
0.0
 33
0.0
 16
1.0
 26
0.0
 36
0.0
 17
0.0
 27
1.0
 37
0.0
 76
     0
330
2
  0
LAYOUT
  5
95
102
{ACAD_REACTORS
330
B
102
}
330
B
100
AcDbPlotSettings
  1

  2
なし
  4

  6

 40
0.0
 41
0.0
 42
0.0
 43
0.0
 44
0.0
 45
0.0
 46
0.0
 47
0.0
 48
0.0
 49
0.0
140
0.0
141
0.0
142
1.0
143
1.0
 70
   688
 72
     0
 73
     0
 74
     5
  7
monochrome.ctb
 75
    16
147
1.0
148
0.0
149
0.0
100
AcDbLayout
  1
ﾚｲｱｳﾄ1
 70
     0
 71
     1
 10
0.0
 20
0.0
 11
12.0
 21
9.0
 12
0.0
 22
0.0
 32
0.0
 14
1.000000000000000E+20
 24
1.000000000000000E+20
 34
1.000000000000000E+20
 15
-1.000000000000000E+20
 25
-1.000000000000000E+20
 35
-1.000000000000000E+20
146
0.0
 13
0.0
 23
0.0
 33
0.0
 16
1.0
 26
0.0
 36
0.0
 17
0.0
 27
1.0
 37
0.0
 76
     0
330
C
  0
MLINESTYLE
  5
23
102
{ACAD_REACTORS
330
21
102
}
330
21
100
AcDbMlineStyle
  2
STANDARD
 70
     0
  3

 62
     0
 51
90.0
 52
90.0
 71
     2
 49
0.5
 62
   256
  6
BYLAYER
 49
-0.5
 62
   256
  6
BYLAYER
  0
ACDBPLACEHOLDER
  5
93
102
{ACAD_REACTORS
330
92
102
}
330
92
  0
ENDSEC
  0
EOF
