  0
SECTION
  2
HEADER
  9
$ACADVER
  1
AC1015
  9
$ACADMAINTVER
 70
    10
  9
$DWGCODEPAGE
  3
ANSI_932
  9
$INSBASE
 10
32.29518636067707
 20
336.8546171433584
 30
0.0
  9
$EXTMIN
 10
-0.0198931268971592
 20
-0.005456813360297
 30
-0.0015258207003583
  9
$EXTMAX
 10
59.92842485361086
 20
116.2505396485053
 30
0.0000000349246037
  9
$LIMMIN
 10
8.003645833333331
 20
8.698177083333332
  9
$LIMMAX
 10
340.3871473524304
 20
290.0999498155382
  9
$ORTHOMODE
 70
     0
  9
$REGENMODE
 70
     1
  9
$FILLMODE
 70
     1
  9
$QTEXTMODE
 70
     0
  9
$MIRRTEXT
 70
     1
  9
$LTSCALE
 40
1.0
  9
$ATTMODE
 70
     1
  9
$TEXTSIZE
 40
0.0
  9
$TRACEWID
 40
0.05
  9
$TEXTSTYLE
  7
STANDARD
  9
$CLAYER
  8
0
  9
$CELTYPE
  6
CONTINUOUS
  9
$CECOLOR
 62
   256
  9
$CELTSCALE
 40
1.0
  9
$DISPSILH
 70
     0
  9
$DIMSCALE
 40
1.0
  9
$DIMASZ
 40
3.0
  9
$DIMEXO
 40
5.0
  9
$DIMDLI
 40
1.0
  9
$DIMRND
 40
0.0
  9
$DIMDLE
 40
0.0
  9
$DIMEXE
 40
0.0
  9
$DIMTP
 40
0.0
  9
$DIMTM
 40
0.0
  9
$DIMTXT
 40
4.5
  9
$DIMCEN
 40
3.0
  9
$DIMTSZ
 40
0.0
  9
$DIMTOL
 70
     0
  9
$DIMLIM
 70
     0
  9
$DIMTIH
 70
     0
  9
$DIMTOH
 70
     0
  9
$DIMSE1
 70
     0
  9
$DIMSE2
 70
     0
  9
$DIMTAD
 70
     1
  9
$DIMZIN
 70
     8
  9
$DIMBLK
  1
DOTSMALL
  9
$DIMASO
 70
     1
  9
$DIMSHO
 70
     1
  9
$DIMPOST
  1

  9
$DIMAPOST
  1

  9
$DIMALT
 70
     0
  9
$DIMALTD
 70
     2
  9
$DIMALTF
 40
25.4
  9
$DIMLFAC
 40
1.0
  9
$DIMTOFL
 70
     0
  9
$DIMTVP
 40
0.0
  9
$DIMTIX
 70
     0
  9
$DIMSOXD
 70
     0
  9
$DIMSAH
 70
     0
  9
$DIMBLK1
  1

  9
$DIMBLK2
  1

  9
$DIMSTYLE
  2
STANDARD
  9
$DIMCLRD
 70
     3
  9
$DIMCLRE
 70
     3
  9
$DIMCLRT
 70
     3
  9
$DIMTFAC
 40
1.0
  9
$DIMGAP
 40
1.0
  9
$DIMJUST
 70
     0
  9
$DIMSD1
 70
     0
  9
$DIMSD2
 70
     0
  9
$DIMTOLJ
 70
     1
  9
$DIMTZIN
 70
     0
  9
$DIMALTZ
 70
     0
  9
$DIMALTTZ
 70
     0
  9
$DIMUPT
 70
     0
  9
$DIMDEC
 70
     4
  9
$DIMTDEC
 70
     4
  9
$DIMALTU
 70
     2
  9
$DIMALTTD
 70
     2
  9
$DIMTXSTY
  7
STANDARD
  9
$DIMAUNIT
 70
     0
  9
$DIMADEC
 70
     0
  9
$DIMALTRND
 40
0.0
  9
$DIMAZIN
 70
     0
  9
$DIMDSEP
 70
    46
  9
$DIMATFIT
 70
     3
  9
$DIMFRAC
 70
     0
  9
$DIMLDRBLK
  1
DOTSMALL
  9
$DIMLUNIT
 70
     2
  9
$DIMLWD
 70
    -2
  9
$DIMLWE
 70
    -2
  9
$DIMTMOVE
 70
     0
  9
$LUNITS
 70
     2
  9
$LUPREC
 70
     4
  9
$SKETCHINC
 40
0.1
  9
$FILLETRAD
 40
0.0
  9
$AUNITS
 70
     0
  9
$AUPREC
 70
     0
  9
$MENU
  1
acad
  9
$ELEVATION
 40
0.0
  9
$PELEVATION
 40
0.0
  9
$THICKNESS
 40
0.0
  9
$LIMCHECK
 70
     0
  9
$CHAMFERA
 40
0.0
  9
$CHAMFERB
 40
0.0
  9
$CHAMFERC
 40
0.0
  9
$CHAMFERD
 40
0.0
  9
$SKPOLY
 70
     0
  9
$TDCREATE
 40
2444972.375000000
  9
$TDUCREATE
 40
2444972.000000000
  9
$TDUPDATE
 40
2453830.453172673
  9
$TDUUPDATE
 40
2453830.078172673
  9
$TDINDWG
 40
0.2097764120
  9
$TDUSRTIMER
 40
0.2097764120
  9
$USRTIMER
 70
     1
  9
$ANGBASE
 50
0.0
  9
$ANGDIR
 70
     0
  9
$PDMODE
 70
     0
  9
$PDSIZE
 40
0.0
  9
$PLINEWID
 40
0.0
  9
$SPLFRAME
 70
     0
  9
$SPLINETYPE
 70
     6
  9
$SPLINESEGS
 70
     8
  9
$HANDSEED
  5
15C
  9
$SURFTAB1
 70
     6
  9
$SURFTAB2
 70
     6
  9
$SURFTYPE
 70
     6
  9
$SURFU
 70
     6
  9
$SURFV
 70
     6
  9
$UCSBASE
  2

  9
$UCSNAME
  2

  9
$UCSORG
 10
0.0
 20
0.0
 30
0.0
  9
$UCSXDIR
 10
1.0
 20
0.0
 30
0.0
  9
$UCSYDIR
 10
0.0
 20
1.0
 30
0.0
  9
$UCSORTHOREF
  2

  9
$UCSORTHOVIEW
 70
     0
  9
$UCSORGTOP
 10
0.0
 20
0.0
 30
0.0
  9
$UCSORGBOTTOM
 10
0.0
 20
0.0
 30
0.0
  9
$UCSORGLEFT
 10
0.0
 20
0.0
 30
0.0
  9
$UCSORGRIGHT
 10
0.0
 20
0.0
 30
0.0
  9
$UCSORGFRONT
 10
0.0
 20
0.0
 30
0.0
  9
$UCSORGBACK
 10
0.0
 20
0.0
 30
0.0
  9
$PUCSBASE
  2

  9
$PUCSNAME
  2

  9
$PUCSORG
 10
0.0
 20
0.0
 30
0.0
  9
$PUCSXDIR
 10
1.0
 20
0.0
 30
0.0
  9
$PUCSYDIR
 10
0.0
 20
1.0
 30
0.0
  9
$PUCSORTHOREF
  2

  9
$PUCSORTHOVIEW
 70
     0
  9
$PUCSORGTOP
 10
0.0
 20
0.0
 30
0.0
  9
$PUCSORGBOTTOM
 10
0.0
 20
0.0
 30
0.0
  9
$PUCSORGLEFT
 10
0.0
 20
0.0
 30
0.0
  9
$PUCSORGRIGHT
 10
0.0
 20
0.0
 30
0.0
  9
$PUCSORGFRONT
 10
0.0
 20
0.0
 30
0.0
  9
$PUCSORGBACK
 10
0.0
 20
0.0
 30
0.0
  9
$USERI1
 70
     0
  9
$USERI2
 70
     0
  9
$USERI3
 70
     0
  9
$USERI4
 70
     0
  9
$USERI5
 70
     0
  9
$USERR1
 40
0.0
  9
$USERR2
 40
0.0
  9
$USERR3
 40
0.0
  9
$USERR4
 40
0.0
  9
$USERR5
 40
0.0
  9
$WORLDVIEW
 70
     1
  9
$SHADEDGE
 70
     3
  9
$SHADEDIF
 70
    70
  9
$TILEMODE
 70
     1
  9
$MAXACTVP
 70
    16
  9
$PINSBASE
 10
0.0
 20
0.0
 30
0.0
  9
$PLIMCHECK
 70
     0
  9
$PEXTMIN
 10
1.000000000000000E+20
 20
1.000000000000000E+20
 30
1.000000000000000E+20
  9
$PEXTMAX
 10
-1.000000000000000E+20
 20
-1.000000000000000E+20
 30
-1.000000000000000E+20
  9
$PLIMMIN
 10
0.0
 20
0.0
  9
$PLIMMAX
 10
12.0
 20
9.0
  9
$UNITMODE
 70
     0
  9
$VISRETAIN
 70
     0
  9
$PLINEGEN
 70
     1
  9
$PSLTSCALE
 70
     0
  9
$TREEDEPTH
 70
  3020
  9
$CMLSTYLE
  2
STANDARD
  9
$CMLJUST
 70
     0
  9
$CMLSCALE
 40
1.0
  9
$PROXYGRAPHICS
 70
     1
  9
$MEASUREMENT
 70
     0
  9
$CELWEIGHT
370
    -1
  9
$ENDCAPS
280
     0
  9
$JOINSTYLE
280
     0
  9
$LWDISPLAY
290
     0
  9
$INSUNITS
 70
     0
  9
$HYPERLINKBASE
  1

  9
$STYLESHEET
  1

  9
$XEDIT
290
     1
  9
$CEPSNTYPE
380
     0
  9
$PSTYLEMODE
290
     1
  9
$FINGERPRINTGUID
  2
{25FE22A7-AB7A-4C12-BEC8-5C741678B72B}
  9
$VERSIONGUID
  2
{F973AE5E-8A2A-45E6-BD08-1E6206BCC8E7}
  9
$EXTNAMES
290
     1
  9
$PSVPSCALE
 40
0.0
  9
$OLESTARTUP
290
     0
  0
ENDSEC
  0
SECTION
  2
CLASSES
  0
CLASS
  1
LWPOLYLINE
  2
AcDbPolyline
  3
AutoCAD 2000
 90
    32768
280
     0
281
     1
  0
CLASS
  1
IMAGE
  2
AcDbRasterImage
  3
ISM
 90
    32895
280
     1
281
     1
  0
CLASS
  1
OLE2FRAME
  2
AcDbOle2Frame
  3
AutoCAD 2000
 90
    32768
280
     0
281
     1
  0
CLASS
  1
HATCH
  2
AcDbHatch
  3
AutoCAD 2000
 90
    32768
280
     0
281
     1
  0
CLASS
  1
DICTIONARYVAR
  2
AcDbDictionaryVar
  3
AutoCAD 2000
 90
    32768
280
     0
281
     0
  0
CLASS
  1
RASTERVARIABLES
  2
AcDbRasterVariables
  3
ISM
 90
    32768
280
     1
281
     0
  0
CLASS
  1
IMAGEDEF
  2
AcDbRasterImageDef
  3
ISM
 90
    32768
280
     1
281
     0
  0
CLASS
  1
IMAGEDEF_REACTOR
  2
AcDbRasterImageDefReactor
  3
ISM
 90
    32769
280
     1
281
     0
  0
CLASS
  1
IDBUFFER
  2
AcDbIdBuffer
  3
AutoCAD 2000
 90
    32768
280
     0
281
     0
  0
CLASS
  1
SPATIAL_FILTER
  2
AcDbSpatialFilter
  3
AutoCAD 2000
 90
    32768
280
     0
281
     0
  0
CLASS
  1
XRECORD
  2
AcDbXrecord
  3
AutoCAD 2000
 90
    32768
280
     0
281
     0
  0
CLASS
  1
SORTENTSTABLE
  2
AcDbSortentsTable
  3
AutoCAD 2000
 90
    32768
280
     0
281
     0
  0
CLASS
  1
LAYER_INDEX
  2
AcDbLayerIndex
  3
AutoCAD 2000
 90
    32768
280
     0
281
     0
  0
CLASS
  1
SPATIAL_INDEX
  2
AcDbSpatialIndex
  3
AutoCAD 2000
 90
    32768
280
     0
281
     0
  0
CLASS
  1
OBJECT_PTR
  2
CAseDLPNTableRecord
  3
ASE-LPNTableRecord
 90
    32769
280
     1
281
     0
  0
CLASS
  1
LAYOUT
  2
AcDbLayout
  3
AutoCAD 2000
 90
        0
280
     0
281
     0
  0
CLASS
  1
PLOTSETTINGS
  2
AcDbPlotSettings
  3
AutoCAD 2000
 90
    32768
280
     0
281
     0
  0
CLASS
  1
ACDBDICTIONARYWDFLT
  2
AcDbDictionaryWithDefault
  3
AutoCAD 2000
 90
        0
280
     0
281
     0
  0
CLASS
  1
ACDBPLACEHOLDER
  2
AcDbPlaceHolder
  3
AutoCAD 2000
 90
        0
280
     0
281
     0
  0
CLASS
  1
VBA_PROJECT
  2
AcDbVbaProject
  3
acadvba
 90
    32768
280
     1
281
     0
  0
CLASS
  1
WIPEOUT
  2
AcDbWipeout
  3
WipeOut|AutoCAD Express Tool|expresstools@autodesk.com
 90
    32895
280
     1
281
     1
  0
CLASS
  1
WIPEOUTVARIABLES
  2
AcDbWipeoutVariables
  3
WipeOut|AutoCAD Express Tool|expresstools@autodesk.com
 90
    32768
280
     1
281
     0
  0
CLASS
  1
RTEXT
  2
RText
  3
RText|AutoCAD Express Tool|expresstools@autodesk.com
 90
    32768
280
     1
281
     1
  0
CLASS
  1
ARCALIGNEDTEXT
  2
AcDbArcAlignedText
  3
ATEXT|AutoCAD Express Tool|expresstools@autodesk.com
 90
    32768
280
     1
281
     1
  0
CLASS
  1
LONG_TRANSACTION
  2
AcDbLongTransaction
  3
AutoCAD 2000
 90
    32768
280
     0
281
     0
  0
CLASS
  1
LWPOLYLINE
  2
AcDbPolyline
  3
AutoCAD 2000
 90
    32768
280
     0
281
     1
  0
CLASS
  1
HATCH
  2
AcDbHatch
  3
AutoCAD 2000
 90
    32768
280
     0
281
     1
  0
CLASS
  1
XRECORD
  2
AcDbXrecord
  3
AutoCAD 2000
 90
    32768
280
     0
281
     0
  0
ENDSEC
  0
SECTION
  2
TABLES
  0
TABLE
  2
VPORT
  5
19
330
0
100
AcDbSymbolTable
 70
     4
  0
VPORT
  5
15B
330
19
100
AcDbSymbolTableRecord
100
AcDbViewportTableRecord
  2
*Active
 70
     0
 10
0.0
 20
0.0
 11
1.0
 21
1.0
 12
29.95426586335685
 22
58.1225414175725
 13
0.0
 23
0.0
 14
1.0
 24
1.0
 15
0.0
 25
0.0
 16
0.0
 26
0.0
 36
1.0
 17
0.0
 27
0.0
 37
0.0
 40
117.6130703505255
 41
1.84990253411306
 42
50.0
 43
0.0
 44
0.0
 50
0.0
 51
0.0
 71
     0
 72
  2000
 73
     1
 74
     1
 75
     0
 76
     0
 77
     0
 78
     0
281
     0
 65
     1
110
0.0
120
0.0
130
0.0
111
1.0
121
0.0
131
0.0
112
0.0
122
1.0
132
0.0
 79
     0
146
0.0
  0
ENDTAB
  0
TABLE
  2
LTYPE
  5
14
330
0
100
AcDbSymbolTable
 70
     1
  0
LTYPE
  5
15
330
14
100
AcDbSymbolTableRecord
100
AcDbLinetypeTableRecord
  2
BYBLOCK
 70
     0
  3

 72
    65
 73
     0
 40
0.0
  0
LTYPE
  5
16
330
14
100
AcDbSymbolTableRecord
100
AcDbLinetypeTableRecord
  2
BYLAYER
 70
     0
  3

 72
    65
 73
     0
 40
0.0
  0
LTYPE
  5
8
330
14
100
AcDbSymbolTableRecord
100
AcDbLinetypeTableRecord
  2
CONTINUOUS
 70
     0
  3
Solid line
 72
    65
 73
     0
 40
0.0
  0
ENDTAB
  0
TABLE
  2
LAYER
  5
10
330
0
100
AcDbSymbolTable
 70
     7
  0
LAYER
  5
4
330
10
100
AcDbSymbolTableRecord
100
AcDbLayerTableRecord
  2
0
 70
     0
 62
     7
  6
CONTINUOUS
370
    -3
390
A0
  0
LAYER
  5
41
330
10
100
AcDbSymbolTableRecord
100
AcDbLayerTableRecord
  2
DEFPOINTS
 70
     0
 62
     7
  6
CONTINUOUS
290
     0
370
    -3
390
A0
  0
LAYER
  5
BD
330
10
100
AcDbSymbolTableRecord
100
AcDbLayerTableRecord
  2
KIJUN
 70
     0
 62
     7
  6
CONTINUOUS
370
    -3
390
A0
  0
LAYER
  5
BE
330
10
100
AcDbSymbolTableRecord
100
AcDbLayerTableRecord
  2
HOJO
 70
     0
 62
     3
  6
CONTINUOUS
370
    -3
390
A0
  0
LAYER
  5
BF
330
10
100
AcDbSymbolTableRecord
100
AcDbLayerTableRecord
  2
WAKU
 70
     0
 62
     1
  6
CONTINUOUS
370
    -3
390
A0
  0
LAYER
  5
C0
330
10
100
AcDbSymbolTableRecord
100
AcDbLayerTableRecord
  2
SUNPOU
 70
     0
 62
    70
  6
CONTINUOUS
370
    -3
390
A0
  0
ENDTAB
  0
TABLE
  2
STYLE
  5
11
330
0
100
AcDbSymbolTable
 70
     3
  0
STYLE
  5
12
330
11
100
AcDbSymbolTableRecord
100
AcDbTextStyleTableRecord
  2
STANDARD
 70
     0
 40
0.0
 41
1.0
 50
0.0
 71
     0
 42
0.0
  3
txt
  4

  0
STYLE
  5
25
330
11
100
AcDbSymbolTableRecord
100
AcDbTextStyleTableRecord
  2
STD
 70
     0
 40
0.0
 41
1.0
 50
0.0
 71
     0
 42
0.0
  3
txt
  4

  0
STYLE
  5
C1
330
11
100
AcDbSymbolTableRecord
100
AcDbTextStyleTableRecord
  2
SUNPOU
 70
     0
 40
0.0
 41
1.0
 50
0.0
 71
     0
 42
30.0
  3
txt
  4
bigfont
  0
ENDTAB
  0
TABLE
  2
VIEW
  5
17
330
0
100
AcDbSymbolTable
 70
     0
  0
ENDTAB
  0
TABLE
  2
UCS
  5
18
330
0
100
AcDbSymbolTable
 70
     0
  0
ENDTAB
  0
TABLE
  2
APPID
  5
1B
330
0
100
AcDbSymbolTable
 70
     1
  0
APPID
  5
1C
330
1B
100
AcDbSymbolTableRecord
100
AcDbRegAppTableRecord
  2
ACAD
 70
     0
  0
ENDTAB
  0
TABLE
  2
DIMSTYLE
  5
1D
330
0
100
AcDbSymbolTable
 70
     1
100
AcDbDimStyleTable
 71
     0
  0
DIMSTYLE
105
1E
102
{ACAD_REACTORS
330
40
330
4E
102
}
330
1D
100
AcDbSymbolTableRecord
100
AcDbDimStyleTableRecord
  2
STANDARD
 70
     0
340
12
  0
ENDTAB
  0
TABLE
  2
BLOCK_RECORD
  5
1
330
0
100
AcDbSymbolTable
 70
     8
  0
BLOCK_RECORD
  5
2
102
{ACAD_XDICTIONARY
360
84
102
}
330
1
100
AcDbSymbolTableRecord
100
AcDbBlockTableRecord
  2
*MODEL_SPACE
340
A1
  0
BLOCK_RECORD
  5
C
102
{ACAD_XDICTIONARY
360
86
102
}
330
1
100
AcDbSymbolTableRecord
100
AcDbBlockTableRecord
  2
*PAPER_SPACE
340
A2
  0
BLOCK_RECORD
  5
3B
330
1
100
AcDbSymbolTableRecord
100
AcDbBlockTableRecord
  2
_DOTSMALL
340
0
102
{BLKREFS
331
8E
331
8F
331
97
331
98
331
102
331
103
331
10B
331
10C
331
138
331
139
331
141
331
142
331
14A
331
14B
331
153
331
154
102
}
  0
BLOCK_RECORD
  5
42
330
1
100
AcDbSymbolTableRecord
100
AcDbBlockTableRecord
  2
*D1
340
0
  0
BLOCK_RECORD
  5
4F
330
1
100
AcDbSymbolTableRecord
100
AcDbBlockTableRecord
  2
*D2
340
0
  0
BLOCK_RECORD
  5
A5
330
1
100
AcDbSymbolTableRecord
100
AcDbBlockTableRecord
  2
*D3
340
0
  0
BLOCK_RECORD
  5
B1
330
1
100
AcDbSymbolTableRecord
100
AcDbBlockTableRecord
  2
*D4
340
0
  0
BLOCK_RECORD
  5
D5
330
1
100
AcDbSymbolTableRecord
100
AcDbBlockTableRecord
  2
*D6
340
0
  0
BLOCK_RECORD
  5
E1
330
1
100
AcDbSymbolTableRecord
100
AcDbBlockTableRecord
  2
*D7
340
0
  0
ENDTAB
  0
ENDSEC
  0
SECTION
  2
BLOCKS
  0
BLOCK
  5
3
330
2
100
AcDbEntity
  8
0
100
AcDbBlockBegin
  2
*MODEL_SPACE
 70
     0
 10
0.0
 20
0.0
 30
0.0
  3
*MODEL_SPACE
  1

  0
ENDBLK
  5
9
330
2
100
AcDbEntity
  8
0
100
AcDbBlockEnd
  0
BLOCK
  5
D
330
C
100
AcDbEntity
 67
     1
  8
0
100
AcDbBlockBegin
  2
*PAPER_SPACE
 70
     0
 10
0.0
 20
0.0
 30
0.0
  3
*PAPER_SPACE
  1

  0
ENDBLK
  5
E
330
C
100
AcDbEntity
 67
     1
  8
0
100
AcDbBlockEnd
  0
BLOCK
  5
3D
330
3B
100
AcDbEntity
  8
0
100
AcDbBlockBegin
  2
_DOTSMALL
 70
     0
 10
0.0
 20
0.0
 30
0.0
  3
_DOTSMALL
  1

  0
LWPOLYLINE
  5
3C
330
3B
100
AcDbEntity
  8
0
  6
ByBlock
 62
     0
100
AcDbPolyline
 90
        2
 70
     1
 43
0.5
 10
-0.0625
 20
0.0
 42
1.0
 10
0.0625
 20
0.0
 42
1.0
  0
ENDBLK
  5
3E
330
3B
100
AcDbEntity
  8
0
100
AcDbBlockEnd
  0
BLOCK
  5
4C
330
42
100
AcDbEntity
  8
0
100
AcDbBlockBegin
  2
*D1
 70
     1
 10
0.0
 20
0.0
 30
0.0
  3
*D1
  1

  0
LINE
  5
150
330
42
100
AcDbEntity
  8
SUNPOU
  6
Continuous
 62
     3
100
AcDbLine
 10
14.75487699291511
 20
100.837823244634
 30
0.0
 11
14.75487699291511
 21
110.749682327894
 31
0.0
  0
LINE
  5
151
330
42
100
AcDbEntity
  8
SUNPOU
  6
Continuous
 62
     3
100
AcDbLine
 10
36.75487699291511
 20
100.837823244634
 30
0.0
 11
36.75487699291511
 21
110.749682327894
 31
0.0
  0
LINE
  5
152
330
42
100
AcDbEntity
  8
SUNPOU
  6
Continuous
 62
     3
100
AcDbLine
 10
14.75487699291511
 20
110.749682327894
 30
0.0
 11
36.75487699291511
 21
110.749682327894
 31
0.0
  0
INSERT
  5
153
330
42
100
AcDbEntity
  8
SUNPOU
  6
Continuous
 62
     3
100
AcDbBlockReference
  2
_DOTSMALL
 10
14.75487699291511
 20
110.749682327894
 30
0.0
 41
3.0
 42
3.0
 43
3.0
 50
180.0
  0
INSERT
  5
154
330
42
100
AcDbEntity
  8
SUNPOU
  6
Continuous
 62
     3
100
AcDbBlockReference
  2
_DOTSMALL
 10
36.75487699291511
 20
110.749682327894
 30
0.0
 41
3.0
 42
3.0
 43
3.0
  0
MTEXT
  5
155
330
42
100
AcDbEntity
  8
SUNPOU
  6
Continuous
 62
     3
100
AcDbMText
 10
25.75487699291511
 20
113.999682327894
 30
0.0
 40
4.5
 41
0.0
 71
     5
 72
     1
  1
\A1;22
 73
     1
 44
1.0
  0
POINT
  5
156
330
42
100
AcDbEntity
  8
DEFPOINTS
  6
Continuous
 62
     0
100
AcDbPoint
 10
14.75487699291511
 20
95.83782324463404
 30
0.0
  0
POINT
  5
157
330
42
100
AcDbEntity
  8
DEFPOINTS
  6
Continuous
 62
     0
100
AcDbPoint
 10
36.75487699291511
 20
95.83782324463404
 30
0.0
  0
POINT
  5
158
330
42
100
AcDbEntity
  8
DEFPOINTS
  6
Continuous
 62
     0
100
AcDbPoint
 10
36.75487699291511
 20
110.749682327894
 30
0.0
  0
ENDBLK
  5
4D
330
42
100
AcDbEntity
  8
0
100
AcDbBlockEnd
  0
BLOCK
  5
59
330
4F
100
AcDbEntity
  8
0
100
AcDbBlockBegin
  2
*D2
 70
     1
 10
0.0
 20
0.0
 30
0.0
  3
*D2
  1

  0
LINE
  5
147
330
4F
100
AcDbEntity
  8
SUNPOU
  6
Continuous
 62
     3
100
AcDbLine
 10
41.75487699291511
 20
95.83782324463404
 30
0.0
 11
54.03951320956882
 21
95.83782324463404
 31
0.0
  0
LINE
  5
148
330
4F
100
AcDbEntity
  8
SUNPOU
  6
Continuous
 62
     3
100
AcDbLine
 10
24.9874028537389
 20
17.83782324463405
 30
0.0
 11
54.03951320956881
 21
17.83782324463404
 31
0.0
  0
LINE
  5
149
330
4F
100
AcDbEntity
  8
SUNPOU
  6
Continuous
 62
     3
100
AcDbLine
 10
54.03951320956882
 20
95.83782324463404
 30
0.0
 11
54.03951320956881
 21
17.83782324463404
 31
0.0
  0
INSERT
  5
14A
330
4F
100
AcDbEntity
  8
SUNPOU
  6
Continuous
 62
     3
100
AcDbBlockReference
  2
_DOTSMALL
 10
54.03951320956882
 20
95.83782324463404
 30
0.0
 41
3.0
 42
3.0
 43
3.0
 50
90.0
  0
INSERT
  5
14B
330
4F
100
AcDbEntity
  8
SUNPOU
  6
Continuous
 62
     3
100
AcDbBlockReference
  2
_DOTSMALL
 10
54.03951320956881
 20
17.83782324463404
 30
0.0
 41
3.0
 42
3.0
 43
3.0
 50
270.0
  0
MTEXT
  5
14C
330
4F
100
AcDbEntity
  8
SUNPOU
  6
Continuous
 62
     3
100
AcDbMText
 10
50.7895132095688
 20
56.83782324463406
 30
0.0
 40
4.5
 41
0.0
 71
     5
 72
     1
  1
\A1;78
 11
0.0000000000000001
 21
1.0
 31
0.0
 73
     1
 44
1.0
  0
POINT
  5
14D
330
4F
100
AcDbEntity
  8
DEFPOINTS
  6
Continuous
 62
     0
100
AcDbPoint
 10
36.75487699291511
 20
95.83782324463404
 30
0.0
  0
POINT
  5
14E
330
4F
100
AcDbEntity
  8
DEFPOINTS
  6
Continuous
 62
     0
100
AcDbPoint
 10
19.98740285373889
 20
17.83782324463405
 30
0.0
  0
POINT
  5
14F
330
4F
100
AcDbEntity
  8
DEFPOINTS
  6
Continuous
 62
     0
100
AcDbPoint
 10
54.03951320956881
 20
17.83782324463404
 30
0.0
  0
ENDBLK
  5
5A
330
4F
100
AcDbEntity
  8
0
100
AcDbBlockEnd
  0
BLOCK
  5
AF
330
A5
100
AcDbEntity
  8
0
100
AcDbBlockBegin
  2
*D3
 70
     1
 10
0.0
 20
0.0
 30
0.0
  3
*D3
  1

  0
LINE
  5
A6
330
A5
100
AcDbEntity
  8
SUNPOU
 62
    70
370
    -2
100
AcDbLine
 10
44.87949943800811
 20
39.02875040444958
 30
0.0
 11
36.92162043800808
 21
39.02875040444958
 31
0.0
  0
LINE
  5
A7
330
A5
100
AcDbEntity
  8
SUNPOU
 62
    70
370
    -2
100
AcDbLine
 10
44.87949943800811
 20
30.02875040444958
 30
0.0
 11
36.92162043800808
 21
30.02875040444959
 31
0.0
  0
LINE
  5
A8
330
A5
100
AcDbEntity
  8
SUNPOU
 62
    60
370
    -2
100
AcDbLine
 10
36.92162043800808
 20
36.02875040444958
 30
0.0
 11
36.92162043800808
 21
33.02875040444959
 31
0.0
  0
SOLID
  5
A9
330
A5
100
AcDbEntity
  8
SUNPOU
 62
    60
100
AcDbTrace
 10
36.42162043800808
 20
36.02875040444958
 30
0.0
 11
37.42162043800808
 21
36.02875040444958
 31
0.0
 12
36.92162043800808
 22
39.02875040444958
 32
0.0
 13
36.92162043800808
 23
39.02875040444958
 33
0.0
  0
SOLID
  5
AA
330
A5
100
AcDbEntity
  8
SUNPOU
 62
    60
100
AcDbTrace
 10
36.42162043800808
 20
33.02875040444959
 30
0.0
 11
37.42162043800808
 21
33.02875040444959
 31
0.0
 12
36.92162043800808
 22
30.02875040444959
 32
0.0
 13
36.92162043800808
 23
30.02875040444959
 33
0.0
  0
MTEXT
  5
AB
330
A5
100
AcDbEntity
  8
SUNPOU
 62
    60
100
AcDbMText
 10
35.43162043800807
 20
34.52875040444959
 30
0.0
 40
2.799999999999999
 41
0.0
 71
     5
 72
     1
  1
\A1;9
  7
SUNPOU
 11
0.0000000000000001
 21
1.0
 31
0.0
 73
     1
 44
1.0
  0
POINT
  5
AC
330
A5
100
AcDbEntity
  8
DEFPOINTS
 62
     0
100
AcDbPoint
 10
46.87949943800811
 20
39.02875040444958
 30
0.0
  0
POINT
  5
AD
330
A5
100
AcDbEntity
  8
DEFPOINTS
 62
     0
100
AcDbPoint
 10
46.87949943800811
 20
30.02875040444958
 30
0.0
  0
POINT
  5
AE
330
A5
100
AcDbEntity
  8
DEFPOINTS
 62
     0
100
AcDbPoint
 10
36.92162043800808
 20
30.02875040444959
 30
0.0
  0
ENDBLK
  5
B0
330
A5
100
AcDbEntity
  8
0
100
AcDbBlockEnd
  0
BLOCK
  5
BB
330
B1
100
AcDbEntity
  8
0
100
AcDbBlockBegin
  2
*D4
 70
     1
 10
0.0
 20
0.0
 30
0.0
  3
*D4
  1

  0
LINE
  5
B2
330
B1
100
AcDbEntity
  8
SUNPOU
 62
    70
370
    -2
100
AcDbLine
 10
55.87949943800811
 20
41.02875040444958
 30
0.0
 11
55.87949943800811
 21
49.04146440444957
 31
0.0
  0
LINE
  5
B3
330
B1
100
AcDbEntity
  8
SUNPOU
 62
    70
370
    -2
100
AcDbLine
 10
46.87949943800811
 20
41.02875040444958
 30
0.0
 11
46.87949943800811
 21
49.04146440444957
 31
0.0
  0
LINE
  5
B4
330
B1
100
AcDbEntity
  8
SUNPOU
 62
    60
370
    -2
100
AcDbLine
 10
52.87949943800811
 20
49.04146440444957
 30
0.0
 11
49.87949943800811
 21
49.04146440444957
 31
0.0
  0
SOLID
  5
B5
330
B1
100
AcDbEntity
  8
SUNPOU
 62
    60
100
AcDbTrace
 10
52.87949943800811
 20
49.54146440444957
 30
0.0
 11
52.87949943800811
 21
48.54146440444957
 31
0.0
 12
55.87949943800811
 22
49.04146440444957
 32
0.0
 13
55.87949943800811
 23
49.04146440444957
 33
0.0
  0
SOLID
  5
B6
330
B1
100
AcDbEntity
  8
SUNPOU
 62
    60
100
AcDbTrace
 10
49.87949943800811
 20
49.54146440444957
 30
0.0
 11
49.87949943800811
 21
48.54146440444957
 31
0.0
 12
46.87949943800811
 22
49.04146440444957
 32
0.0
 13
46.87949943800811
 23
49.04146440444957
 33
0.0
  0
MTEXT
  5
B7
330
B1
100
AcDbEntity
  8
SUNPOU
 62
    60
100
AcDbMText
 10
51.37949943800811
 20
50.53146440444957
 30
0.0
 40
2.799999999999999
 41
0.0
 71
     5
 72
     1
  1
\A1;9
  7
SUNPOU
 73
     1
 44
1.0
  0
POINT
  5
B8
330
B1
100
AcDbEntity
  8
DEFPOINTS
 62
     0
100
AcDbPoint
 10
55.87949943800811
 20
39.02875040444958
 30
0.0
  0
POINT
  5
B9
330
B1
100
AcDbEntity
  8
DEFPOINTS
 62
     0
100
AcDbPoint
 10
46.87949943800811
 20
39.02875040444958
 30
0.0
  0
POINT
  5
BA
330
B1
100
AcDbEntity
  8
DEFPOINTS
 62
     0
100
AcDbPoint
 10
46.87949943800811
 20
49.04146440444957
 30
0.0
  0
ENDBLK
  5
BC
330
B1
100
AcDbEntity
  8
0
100
AcDbBlockEnd
  0
BLOCK
  5
DF
330
D5
100
AcDbEntity
  8
0
100
AcDbBlockBegin
  2
*D6
 70
     1
 10
0.0
 20
0.0
 30
0.0
  3
*D6
  1

  0
LINE
  5
ED
330
D5
100
AcDbEntity
  8
SUNPOU
 62
    70
370
    -2
100
AcDbLine
 10
254.7777946568424
 20
151.3258414318503
 30
0.0
 11
254.7777946568424
 21
159.3385554318503
 31
0.0
  0
LINE
  5
EE
330
D5
100
AcDbEntity
  8
SUNPOU
 62
    70
370
    -2
100
AcDbLine
 10
245.7777946568425
 20
151.3258414318503
 30
0.0
 11
245.7777946568425
 21
159.3385554318503
 31
0.0
  0
LINE
  5
EF
330
D5
100
AcDbEntity
  8
SUNPOU
 62
    60
370
    -2
100
AcDbLine
 10
251.7777946568425
 20
159.3385554318503
 30
0.0
 11
248.7777946568424
 21
159.3385554318503
 31
0.0
  0
SOLID
  5
F0
330
D5
100
AcDbEntity
  8
SUNPOU
 62
    60
100
AcDbTrace
 10
251.7777946568425
 20
159.8385554318503
 30
0.0
 11
251.7777946568425
 21
158.8385554318503
 31
0.0
 12
254.7777946568424
 22
159.3385554318503
 32
0.0
 13
254.7777946568424
 23
159.3385554318503
 33
0.0
  0
SOLID
  5
F1
330
D5
100
AcDbEntity
  8
SUNPOU
 62
    60
100
AcDbTrace
 10
248.7777946568424
 20
159.8385554318503
 30
0.0
 11
248.7777946568424
 21
158.8385554318503
 31
0.0
 12
245.7777946568425
 22
159.3385554318503
 32
0.0
 13
245.7777946568425
 23
159.3385554318503
 33
0.0
  0
MTEXT
  5
F2
330
D5
100
AcDbEntity
  8
SUNPOU
 62
    60
100
AcDbMText
 10
250.2777946568425
 20
160.8285554318503
 30
0.0
 40
2.799999999999999
 41
0.0
 71
     5
 72
     1
  1
\A1;9
  7
SUNPOU
 73
     1
 44
1.0
  0
POINT
  5
F3
330
D5
100
AcDbEntity
  8
DEFPOINTS
 62
     0
100
AcDbPoint
 10
254.7777946568424
 20
149.3258414318503
 30
0.0
  0
POINT
  5
F4
330
D5
100
AcDbEntity
  8
DEFPOINTS
 62
     0
100
AcDbPoint
 10
245.7777946568425
 20
149.3258414318503
 30
0.0
  0
POINT
  5
F5
330
D5
100
AcDbEntity
  8
DEFPOINTS
 62
     0
100
AcDbPoint
 10
245.7777946568425
 20
159.3385554318503
 30
0.0
  0
ENDBLK
  5
E0
330
D5
100
AcDbEntity
  8
0
100
AcDbBlockEnd
  0
BLOCK
  5
EB
330
E1
100
AcDbEntity
  8
0
100
AcDbBlockBegin
  2
*D7
 70
     1
 10
0.0
 20
0.0
 30
0.0
  3
*D7
  1

  0
LINE
  5
F6
330
E1
100
AcDbEntity
  8
SUNPOU
 62
    70
370
    -2
100
AcDbLine
 10
243.7777946568425
 20
149.3258414318503
 30
0.0
 11
235.8199156568424
 21
149.3258414318503
 31
0.0
  0
LINE
  5
F7
330
E1
100
AcDbEntity
  8
SUNPOU
 62
    70
370
    -2
100
AcDbLine
 10
243.7777946568425
 20
140.3258414318503
 30
0.0
 11
235.8199156568424
 21
140.3258414318503
 31
0.0
  0
LINE
  5
F8
330
E1
100
AcDbEntity
  8
SUNPOU
 62
    60
370
    -2
100
AcDbLine
 10
235.8199156568424
 20
146.3258414318503
 30
0.0
 11
235.8199156568424
 21
143.3258414318503
 31
0.0
  0
SOLID
  5
F9
330
E1
100
AcDbEntity
  8
SUNPOU
 62
    60
100
AcDbTrace
 10
235.3199156568424
 20
146.3258414318503
 30
0.0
 11
236.3199156568424
 21
146.3258414318503
 31
0.0
 12
235.8199156568424
 22
149.3258414318503
 32
0.0
 13
235.8199156568424
 23
149.3258414318503
 33
0.0
  0
SOLID
  5
FA
330
E1
100
AcDbEntity
  8
SUNPOU
 62
    60
100
AcDbTrace
 10
235.3199156568424
 20
143.3258414318503
 30
0.0
 11
236.3199156568424
 21
143.3258414318503
 31
0.0
 12
235.8199156568424
 22
140.3258414318503
 32
0.0
 13
235.8199156568424
 23
140.3258414318503
 33
0.0
  0
MTEXT
  5
FB
330
E1
100
AcDbEntity
  8
SUNPOU
 62
    60
100
AcDbMText
 10
234.3299156568424
 20
144.8258414318503
 30
0.0
 40
2.799999999999999
 41
0.0
 71
     5
 72
     1
  1
\A1;9
  7
SUNPOU
 11
0.0000000000000001
 21
1.0
 31
0.0
 73
     1
 44
1.0
  0
POINT
  5
FC
330
E1
100
AcDbEntity
  8
DEFPOINTS
 62
     0
100
AcDbPoint
 10
245.7777946568425
 20
149.3258414318503
 30
0.0
  0
POINT
  5
FD
330
E1
100
AcDbEntity
  8
DEFPOINTS
 62
     0
100
AcDbPoint
 10
245.7777946568425
 20
140.3258414318503
 30
0.0
  0
POINT
  5
FE
330
E1
100
AcDbEntity
  8
DEFPOINTS
 62
     0
100
AcDbPoint
 10
235.8199156568424
 20
140.3258414318503
 30
0.0
  0
ENDBLK
  5
EC
330
E1
100
AcDbEntity
  8
0
100
AcDbBlockEnd
  0
ENDSEC
  0
SECTION
  2
ENTITIES
  0
DIMENSION
  5
40
330
2
100
AcDbEntity
  8
SUNPOU
  6
Continuous
100
AcDbDimension
  2
*D1
 10
36.75487699291511
 20
110.749682327894
 30
0.0
 11
25.75487699291511
 21
113.999682327894
 31
0.0
 70
    32
 71
     5
 42
22.0
  3
STANDARD
100
AcDbAlignedDimension
 13
14.75487699291511
 23
95.83782324463404
 33
0.0
 14
36.75487699291511
 24
95.83782324463404
 34
0.0
100
AcDbRotatedDimension
1001
ACAD
1000
DSTYLE
1002
{
1070
   287
1070
     3
1070
    41
1040
3.0
1070
    42
1040
5.0
1070
    43
1040
1.0
1070
    44
1040
0.0
1070
    73
1070
     0
1070
    74
1070
     0
1070
    77
1070
     1
1070
    78
1070
     8
1070
    79
1070
     2
1070
   140
1040
4.5
1070
   141
1040
3.0
1070
   147
1040
1.0
1070
   176
1070
     3
1070
   177
1070
     3
1070
   178
1070
     3
1070
   289
1070
     3
1070
   341
1005
3B
1070
     5
1000
DOTSMALL
1070
   371
1070
    -1
1070
   372
1070
    -1
1002
}
  0
DIMENSION
  5
4E
330
2
100
AcDbEntity
  8
SUNPOU
  6
Continuous
100
AcDbDimension
  2
*D2
 10
54.03951320956881
 20
17.83782324463404
 30
0.0
 11
50.7895132095688
 21
56.83782324463406
 31
0.0
 70
    32
 71
     5
 42
78.00000000000001
  3
STANDARD
100
AcDbAlignedDimension
 13
36.75487699291511
 23
95.83782324463404
 33
0.0
 14
19.98740285373889
 24
17.83782324463405
 34
0.0
 50
90.0
100
AcDbRotatedDimension
1001
ACAD
1000
DSTYLE
1002
{
1070
   287
1070
     3
1070
    41
1040
3.0
1070
    42
1040
5.0
1070
    43
1040
1.0
1070
    44
1040
0.0
1070
    73
1070
     0
1070
    74
1070
     0
1070
    77
1070
     1
1070
    78
1070
     8
1070
    79
1070
     2
1070
   140
1040
4.5
1070
   141
1040
3.0
1070
   147
1040
1.0
1070
   176
1070
     3
1070
   177
1070
     3
1070
   178
1070
     3
1070
   289
1070
     3
1070
   341
1005
3B
1070
     5
1000
DOTSMALL
1070
   371
1070
    -1
1070
   372
1070
    -1
1002
}
  0
TEXT
  5
CF
330
2
100
AcDbEntity
  8
HOJO
100
AcDbText
 10
4.826983000000012
 20
1.183313000000012
 30
0.0
 40
4.5
  1
E-2021
  7
SUNPOU
100
AcDbText
  0
LINE
  5
D0
330
2
100
AcDbEntity
  8
WAKU
100
AcDbLine
 10
0.0
 20
0.0
 30
0.0
 11
59.90736463108101
 21
0.0
 31
0.0
  0
LINE
  5
D1
330
2
100
AcDbEntity
  8
WAKU
100
AcDbLine
 10
0.0
 20
7.0
 30
0.0
 11
59.90736463108101
 21
7.0
 31
0.0
  0
TEXT
  5
D3
330
2
100
AcDbEntity
  8
HOJO
100
AcDbText
 10
38.74491150636049
 20
2.522193000000015
 30
0.0
 40
3.0
  1
78×22
  7
SUNPOU
100
AcDbText
  0
LWPOLYLINE
  5
159
330
2
100
AcDbEntity
  8
KIJUN
  6
Continuous
100
AcDbPolyline
 90
       29
 70
   129
 43
0.0
 10
31.33796641776257
 20
42.43261606148538
 42
0.2049413457452966
 10
31.98235909216609
 20
44.94307450372665
 42
0.0461413252292057
 10
31.64767594239231
 20
46.29245843625645
 42
0.0278758822326589
 10
30.1570786504879
 20
49.78214303526735
 10
32.75489263031587
 20
49.78214303526735
 10
32.75489263031587
 20
73.97311138224171
 10
30.1570786504879
 20
73.97311138224165
 42
0.2728362911371072
 10
31.57850864284071
 20
80.99921957399917
 10
36.75487699291511
 20
85.22787114004444
 10
36.75487699291511
 20
95.83782324463408
 10
14.75487699291511
 20
95.83782324463404
 10
14.75487699291514
 20
17.83782324463405
 10
19.97505351497756
 20
17.83782324463405
 42
0.0565196061739779
 10
20.61873453731686
 20
17.90941718526411
 42
0.2358664015659442
 10
21.75557829141496
 20
18.87187411809913
 42
0.0917995773412902
 10
22.09803007569067
 20
20.36765293925927
 42
-0.0168209585740313
 10
22.19418007980809
 20
21.3356150973297
 42
-0.1219613600961916
 10
22.46190285541229
 20
22.04115016401536
 42
-0.0428419774993901
 10
22.90414729896326
 20
22.54734163323678
 42
0.0020397875828466
 10
23.72573821075856
 20
23.26238005696566
 42
0.1236112205597708
 10
25.29088202737924
 20
25.2738956779309
 42
0.1583897878392461
 10
25.44172724299773
 20
27.13310099657684
 42
0.0336349975038494
 10
26.11914157509228
 20
27.56899822533116
 42
0.1529527057233672
 10
26.83600924572346
 20
28.5716061953421
 42
0.0733364360038398
 10
26.98365355128137
 20
29.623002746146
 10
26.98365355128152
 20
36.50088980589416
 42
0.1057608043253584
 10
28.45179632196661
 20
37.69023559155732
 42
0.1440138596053048
 10
28.890698007672
 20
38.80052546301792
 42
0.1255129127785816
 10
28.64394349733973
 20
40.05819697354946
 42
0.0641304684611321
  0
ENDSEC
  0
SECTION
  2
OBJECTS
  0
DICTIONARY
  5
7
330
0
100
AcDbDictionary
281
     1
  3
ACAD_GROUP
350
20
  3
ACAD_LAYOUT
350
B
  3
ACAD_MLINESTYLE
350
21
  3
ACAD_PLOTSETTINGS
350
22
  3
ACAD_PLOTSTYLENAME
350
9F
1001
ACAD
1000
TREAT_AS_HARD
1070
     0
  0
DICTIONARY
  5
84
330
2
100
AcDbDictionary
281
     1
  3
ACAD_LAYOUTSELFREF
350
85
  0
DICTIONARY
  5
86
330
C
100
AcDbDictionary
281
     1
  3
ACAD_LAYOUTSELFREF
350
87
  0
DICTIONARY
  5
20
102
{ACAD_REACTORS
330
7
102
}
330
7
100
AcDbDictionary
281
     1
1001
ACAD
1000
TREAT_AS_HARD
1070
     0
  0
DICTIONARY
  5
B
102
{ACAD_REACTORS
330
7
102
}
330
7
100
AcDbDictionary
281
     1
  3
Model
350
A1
  3
ﾚｲｱｳﾄ1
350
A2
1001
ACAD
1000
TREAT_AS_HARD
1070
     0
  0
DICTIONARY
  5
21
102
{ACAD_REACTORS
330
7
102
}
330
7
100
AcDbDictionary
281
     1
  3
STANDARD
350
23
1001
ACAD
1000
TREAT_AS_HARD
1070
     0
  0
DICTIONARY
  5
22
102
{ACAD_REACTORS
330
7
102
}
330
7
100
AcDbDictionary
281
     1
1001
ACAD
1000
TREAT_AS_HARD
1070
     0
  0
ACDBDICTIONARYWDFLT
  5
9F
102
{ACAD_REACTORS
330
7
102
}
330
7
100
AcDbDictionary
281
     1
  3
Normal
350
A0
100
AcDbDictionaryWithDefault
340
A0
  0
XRECORD
  5
85
102
{ACAD_REACTORS
330
84
102
}
330
84
100
AcDbXrecord
280
     1
340
2
  0
XRECORD
  5
87
102
{ACAD_REACTORS
330
86
102
}
330
86
100
AcDbXrecord
280
     1
340
C
  0
LAYOUT
  5
A1
102
{ACAD_REACTORS
330
B
102
}
330
B
100
AcDbPlotSettings
  1

  2
なし
  4

  6

 40
0.0
 41
0.0
 42
0.0
 43
0.0
 44
0.0
 45
0.0
 46
0.0
 47
0.0
 48
0.0
 49
0.0
140
0.0
141
0.0
142
1.0
143
1.0
 70
  1712
 72
     0
 73
     0
 74
     0
  7
monochrome.ctb
 75
     0
147
1.0
148
0.0
149
0.0
100
AcDbLayout
  1
Model
 70
     1
 71
     0
 10
0.0
 20
0.0
 11
12.0
 21
9.0
 12
0.0
 22
0.0
 32
0.0
 14
0.0
 24
0.0
 34
0.0
 15
0.0
 25
0.0
 35
0.0
146
0.0
 13
0.0
 23
0.0
 33
0.0
 16
1.0
 26
0.0
 36
0.0
 17
0.0
 27
1.0
 37
0.0
 76
     0
330
2
  0
LAYOUT
  5
A2
102
{ACAD_REACTORS
330
B
102
}
330
B
100
AcDbPlotSettings
  1

  2
なし
  4

  6

 40
0.0
 41
0.0
 42
0.0
 43
0.0
 44
0.0
 45
0.0
 46
0.0
 47
0.0
 48
0.0
 49
0.0
140
0.0
141
0.0
142
1.0
143
1.0
 70
   688
 72
     0
 73
     0
 74
     5
  7
monochrome.ctb
 75
    16
147
1.0
148
0.0
149
0.0
100
AcDbLayout
  1
ﾚｲｱｳﾄ1
 70
     0
 71
     1
 10
0.0
 20
0.0
 11
12.0
 21
9.0
 12
0.0
 22
0.0
 32
0.0
 14
1.000000000000000E+20
 24
1.000000000000000E+20
 34
1.000000000000000E+20
 15
-1.000000000000000E+20
 25
-1.000000000000000E+20
 35
-1.000000000000000E+20
146
0.0
 13
0.0
 23
0.0
 33
0.0
 16
1.0
 26
0.0
 36
0.0
 17
0.0
 27
1.0
 37
0.0
 76
     0
330
C
  0
MLINESTYLE
  5
23
102
{ACAD_REACTORS
330
21
102
}
330
21
100
AcDbMlineStyle
  2
STANDARD
 70
     0
  3

 62
     0
 51
90.0
 52
90.0
 71
     2
 49
0.5
 62
   256
  6
BYLAYER
 49
-0.5
 62
   256
  6
BYLAYER
  0
ACDBPLACEHOLDER
  5
A0
102
{ACAD_REACTORS
330
9F
102
}
330
9F
  0
ENDSEC
  0
EOF
