  0
SECTION
  2
HEADER
  9
$ACADVER
  1
AC1015
  9
$ACADMAINTVER
 70
    20
  9
$DWGCODEPAGE
  3
ANSI_932
  9
$INSBASE
 10
208.0403630208994
 20
205.1029084864564
 30
0.0
  9
$EXTMIN
 10
-0.0103869988486167
 20
-0.0088524724512808
 30
-0.0015258207003583
  9
$EXTMAX
 10
167.3629011211489
 20
71.72377799173171
 30
0.0000000349246037
  9
$LIMMIN
 10
8.003645833333331
 20
8.698177083333332
  9
$LIMMAX
 10
340.3871473524305
 20
290.0999498155382
  9
$ORTHOMODE
 70
     1
  9
$REGENMODE
 70
     1
  9
$FILLMODE
 70
     1
  9
$QTEXTMODE
 70
     0
  9
$MIRRTEXT
 70
     1
  9
$LTSCALE
 40
1.0
  9
$ATTMODE
 70
     1
  9
$TEXTSIZE
 40
0.0
  9
$TRACEWID
 40
0.05
  9
$TEXTSTYLE
  7
STANDARD
  9
$CLAYER
  8
0
  9
$CELTYPE
  6
CONTINUOUS
  9
$CECOLOR
 62
   256
  9
$CELTSCALE
 40
1.0
  9
$DISPSILH
 70
     0
  9
$DIMSCALE
 40
1.0
  9
$DIMASZ
 40
3.0
  9
$DIMEXO
 40
5.0
  9
$DIMDLI
 40
1.0
  9
$DIMRND
 40
0.0
  9
$DIMDLE
 40
0.0
  9
$DIMEXE
 40
0.0
  9
$DIMTP
 40
0.0
  9
$DIMTM
 40
0.0
  9
$DIMTXT
 40
4.5
  9
$DIMCEN
 40
3.0
  9
$DIMTSZ
 40
0.0
  9
$DIMTOL
 70
     0
  9
$DIMLIM
 70
     0
  9
$DIMTIH
 70
     0
  9
$DIMTOH
 70
     0
  9
$DIMSE1
 70
     0
  9
$DIMSE2
 70
     0
  9
$DIMTAD
 70
     1
  9
$DIMZIN
 70
     8
  9
$DIMBLK
  1
DOTSMALL
  9
$DIMASO
 70
     1
  9
$DIMSHO
 70
     1
  9
$DIMPOST
  1

  9
$DIMAPOST
  1

  9
$DIMALT
 70
     0
  9
$DIMALTD
 70
     2
  9
$DIMALTF
 40
25.4
  9
$DIMLFAC
 40
1.0
  9
$DIMTOFL
 70
     0
  9
$DIMTVP
 40
0.0
  9
$DIMTIX
 70
     0
  9
$DIMSOXD
 70
     0
  9
$DIMSAH
 70
     0
  9
$DIMBLK1
  1

  9
$DIMBLK2
  1

  9
$DIMSTYLE
  2
STANDARD
  9
$DIMCLRD
 70
     3
  9
$DIMCLRE
 70
     3
  9
$DIMCLRT
 70
     3
  9
$DIMTFAC
 40
1.0
  9
$DIMGAP
 40
1.0
  9
$DIMJUST
 70
     0
  9
$DIMSD1
 70
     0
  9
$DIMSD2
 70
     0
  9
$DIMTOLJ
 70
     1
  9
$DIMTZIN
 70
     0
  9
$DIMALTZ
 70
     0
  9
$DIMALTTZ
 70
     0
  9
$DIMUPT
 70
     0
  9
$DIMDEC
 70
     4
  9
$DIMTDEC
 70
     4
  9
$DIMALTU
 70
     2
  9
$DIMALTTD
 70
     2
  9
$DIMTXSTY
  7
STANDARD
  9
$DIMAUNIT
 70
     0
  9
$DIMADEC
 70
     0
  9
$DIMALTRND
 40
0.0
  9
$DIMAZIN
 70
     0
  9
$DIMDSEP
 70
    46
  9
$DIMATFIT
 70
     3
  9
$DIMFRAC
 70
     0
  9
$DIMLDRBLK
  1
DOTSMALL
  9
$DIMLUNIT
 70
     2
  9
$DIMLWD
 70
    -2
  9
$DIMLWE
 70
    -2
  9
$DIMTMOVE
 70
     0
  9
$LUNITS
 70
     2
  9
$LUPREC
 70
     4
  9
$SKETCHINC
 40
0.1
  9
$FILLETRAD
 40
0.0
  9
$AUNITS
 70
     0
  9
$AUPREC
 70
     0
  9
$MENU
  1
acad
  9
$ELEVATION
 40
0.0
  9
$PELEVATION
 40
0.0
  9
$THICKNESS
 40
0.0
  9
$LIMCHECK
 70
     0
  9
$CHAMFERA
 40
0.0
  9
$CHAMFERB
 40
0.0
  9
$CHAMFERC
 40
0.0
  9
$CHAMFERD
 40
0.0
  9
$SKPOLY
 70
     0
  9
$TDCREATE
 40
2444972.375000000
  9
$TDUCREATE
 40
2444972.000000000
  9
$TDUPDATE
 40
2454582.787708333
  9
$TDUUPDATE
 40
2454582.412708333
  9
$TDINDWG
 40
0.3963658333
  9
$TDUSRTIMER
 40
0.3963656481
  9
$USRTIMER
 70
     1
  9
$ANGBASE
 50
0.0
  9
$ANGDIR
 70
     0
  9
$PDMODE
 70
     0
  9
$PDSIZE
 40
0.0
  9
$PLINEWID
 40
0.0
  9
$SPLFRAME
 70
     0
  9
$SPLINETYPE
 70
     6
  9
$SPLINESEGS
 70
     8
  9
$HANDSEED
  5
250
  9
$SURFTAB1
 70
     6
  9
$SURFTAB2
 70
     6
  9
$SURFTYPE
 70
     6
  9
$SURFU
 70
     6
  9
$SURFV
 70
     6
  9
$UCSBASE
  2

  9
$UCSNAME
  2

  9
$UCSORG
 10
0.0
 20
0.0
 30
0.0
  9
$UCSXDIR
 10
1.0
 20
0.0
 30
0.0
  9
$UCSYDIR
 10
0.0
 20
1.0
 30
0.0
  9
$UCSORTHOREF
  2

  9
$UCSORTHOVIEW
 70
     0
  9
$UCSORGTOP
 10
0.0
 20
0.0
 30
0.0
  9
$UCSORGBOTTOM
 10
0.0
 20
0.0
 30
0.0
  9
$UCSORGLEFT
 10
0.0
 20
0.0
 30
0.0
  9
$UCSORGRIGHT
 10
0.0
 20
0.0
 30
0.0
  9
$UCSORGFRONT
 10
0.0
 20
0.0
 30
0.0
  9
$UCSORGBACK
 10
0.0
 20
0.0
 30
0.0
  9
$PUCSBASE
  2

  9
$PUCSNAME
  2

  9
$PUCSORG
 10
0.0
 20
0.0
 30
0.0
  9
$PUCSXDIR
 10
1.0
 20
0.0
 30
0.0
  9
$PUCSYDIR
 10
0.0
 20
1.0
 30
0.0
  9
$PUCSORTHOREF
  2

  9
$PUCSORTHOVIEW
 70
     0
  9
$PUCSORGTOP
 10
0.0
 20
0.0
 30
0.0
  9
$PUCSORGBOTTOM
 10
0.0
 20
0.0
 30
0.0
  9
$PUCSORGLEFT
 10
0.0
 20
0.0
 30
0.0
  9
$PUCSORGRIGHT
 10
0.0
 20
0.0
 30
0.0
  9
$PUCSORGFRONT
 10
0.0
 20
0.0
 30
0.0
  9
$PUCSORGBACK
 10
0.0
 20
0.0
 30
0.0
  9
$USERI1
 70
     0
  9
$USERI2
 70
     0
  9
$USERI3
 70
     0
  9
$USERI4
 70
     0
  9
$USERI5
 70
     0
  9
$USERR1
 40
0.0
  9
$USERR2
 40
0.0
  9
$USERR3
 40
0.0
  9
$USERR4
 40
0.0
  9
$USERR5
 40
0.0
  9
$WORLDVIEW
 70
     1
  9
$SHADEDGE
 70
     3
  9
$SHADEDIF
 70
    70
  9
$TILEMODE
 70
     1
  9
$MAXACTVP
 70
    16
  9
$PINSBASE
 10
0.0
 20
0.0
 30
0.0
  9
$PLIMCHECK
 70
     0
  9
$PEXTMIN
 10
1.000000000000000E+20
 20
1.000000000000000E+20
 30
1.000000000000000E+20
  9
$PEXTMAX
 10
-1.000000000000000E+20
 20
-1.000000000000000E+20
 30
-1.000000000000000E+20
  9
$PLIMMIN
 10
0.0
 20
0.0
  9
$PLIMMAX
 10
12.0
 20
9.0
  9
$UNITMODE
 70
     0
  9
$VISRETAIN
 70
     0
  9
$PLINEGEN
 70
     1
  9
$PSLTSCALE
 70
     0
  9
$TREEDEPTH
 70
  3020
  9
$CMLSTYLE
  2
STANDARD
  9
$CMLJUST
 70
     0
  9
$CMLSCALE
 40
1.0
  9
$PROXYGRAPHICS
 70
     1
  9
$MEASUREMENT
 70
     0
  9
$CELWEIGHT
370
    -1
  9
$ENDCAPS
280
     0
  9
$JOINSTYLE
280
     0
  9
$LWDISPLAY
290
     0
  9
$INSUNITS
 70
     0
  9
$HYPERLINKBASE
  1

  9
$STYLESHEET
  1

  9
$XEDIT
290
     1
  9
$CEPSNTYPE
380
     0
  9
$PSTYLEMODE
290
     1
  9
$FINGERPRINTGUID
  2
{FC171925-8E2D-4576-BFE7-C86BAD5E54AA}
  9
$VERSIONGUID
  2
{B5D4C988-D9B8-4EF5-A1F0-FB5B72EC4114}
  9
$EXTNAMES
290
     1
  9
$PSVPSCALE
 40
0.0
  9
$OLESTARTUP
290
     0
  0
ENDSEC
  0
SECTION
  2
CLASSES
  0
CLASS
  1
IMAGE
  2
AcDbRasterImage
  3
ISM
 90
    32895
280
     1
281
     1
  0
CLASS
  1
DICTIONARYVAR
  2
AcDbDictionaryVar
  3
ObjectDBX Classes
 90
        0
280
     0
281
     0
  0
CLASS
  1
RASTERVARIABLES
  2
AcDbRasterVariables
  3
ISM
 90
    32768
280
     1
281
     0
  0
CLASS
  1
IMAGEDEF
  2
AcDbRasterImageDef
  3
ISM
 90
    32768
280
     1
281
     0
  0
CLASS
  1
IMAGEDEF_REACTOR
  2
AcDbRasterImageDefReactor
  3
ISM
 90
    32769
280
     1
281
     0
  0
CLASS
  1
IDBUFFER
  2
AcDbIdBuffer
  3
ObjectDBX Classes
 90
    32768
280
     0
281
     0
  0
CLASS
  1
SPATIAL_FILTER
  2
AcDbSpatialFilter
  3
ObjectDBX Classes
 90
    32768
280
     0
281
     0
  0
CLASS
  1
SORTENTSTABLE
  2
AcDbSortentsTable
  3
ObjectDBX Classes
 90
        0
280
     0
281
     0
  0
CLASS
  1
LAYER_INDEX
  2
AcDbLayerIndex
  3
ObjectDBX Classes
 90
    32768
280
     0
281
     0
  0
CLASS
  1
SPATIAL_INDEX
  2
AcDbSpatialIndex
  3
ObjectDBX Classes
 90
    32768
280
     0
281
     0
  0
CLASS
  1
OBJECT_PTR
  2
CAseDLPNTableRecord
  3
ASE-LPNTableRecord
 90
    32769
280
     1
281
     0
  0
CLASS
  1
LAYOUT
  2
AcDbLayout
  3
ObjectDBX Classes
 90
        0
280
     0
281
     0
  0
CLASS
  1
PLOTSETTINGS
  2
AcDbPlotSettings
  3
ObjectDBX Classes
 90
    32768
280
     0
281
     0
  0
CLASS
  1
ACDBDICTIONARYWDFLT
  2
AcDbDictionaryWithDefault
  3
ObjectDBX Classes
 90
        0
280
     0
281
     0
  0
CLASS
  1
ACDBPLACEHOLDER
  2
AcDbPlaceHolder
  3
ObjectDBX Classes
 90
        0
280
     0
281
     0
  0
CLASS
  1
VBA_PROJECT
  2
AcDbVbaProject
  3
acad
 90
    32768
280
     0
281
     0
  0
CLASS
  1
WIPEOUT
  2
AcDbWipeout
  3
WipeOut|AutoCAD Express Tool|expresstools@autodesk.com
 90
    32895
280
     1
281
     1
  0
CLASS
  1
WIPEOUTVARIABLES
  2
AcDbWipeoutVariables
  3
WipeOut|AutoCAD Express Tool|expresstools@autodesk.com
 90
    32768
280
     1
281
     0
  0
CLASS
  1
RTEXT
  2
RText
  3
RText|AutoCAD Express Tool|expresstools@autodesk.com
 90
    32768
280
     1
281
     1
  0
CLASS
  1
ARCALIGNEDTEXT
  2
AcDbArcAlignedText
  3
ATEXT|AutoCAD Express Tool|expresstools@autodesk.com
 90
    32768
280
     1
281
     1
  0
CLASS
  1
TABLESTYLE
  2
AcDbTableStyle
  3
ObjectDBX Classes
 90
     2047
280
     0
281
     0
  0
ENDSEC
  0
SECTION
  2
TABLES
  0
TABLE
  2
VPORT
  5
19
330
0
100
AcDbSymbolTable
 70
     3
  0
VPORT
  5
24A
330
19
100
AcDbSymbolTableRecord
100
AcDbViewportTableRecord
  2
*Active
 70
     0
 10
0.0
 20
0.0
 11
1.0
 21
1.0
 12
83.67625706115017
 22
35.85746275964022
 13
0.0
 23
0.0
 14
1.0
 24
1.0
 15
0.0
 25
0.0
 16
0.0
 26
0.0
 36
1.0
 17
0.0
 27
0.0
 37
0.0
 40
109.7610135975767
 41
1.532484076433121
 42
50.0
 43
0.0
 44
0.0
 50
0.0
 51
0.0
 71
     0
 72
   100
 73
     1
 74
     1
 75
     0
 76
     0
 77
     0
 78
     0
281
     0
 65
     1
110
0.0
120
0.0
130
0.0
111
1.0
121
0.0
131
0.0
112
0.0
122
1.0
132
0.0
 79
     0
146
0.0
  0
ENDTAB
  0
TABLE
  2
LTYPE
  5
14
330
0
100
AcDbSymbolTable
 70
     1
  0
LTYPE
  5
15
330
14
100
AcDbSymbolTableRecord
100
AcDbLinetypeTableRecord
  2
BYBLOCK
 70
     0
  3

 72
    65
 73
     0
 40
0.0
  0
LTYPE
  5
16
330
14
100
AcDbSymbolTableRecord
100
AcDbLinetypeTableRecord
  2
BYLAYER
 70
     0
  3

 72
    65
 73
     0
 40
0.0
  0
LTYPE
  5
8
330
14
100
AcDbSymbolTableRecord
100
AcDbLinetypeTableRecord
  2
CONTINUOUS
 70
     0
  3
Solid line
 72
    65
 73
     0
 40
0.0
  0
ENDTAB
  0
TABLE
  2
LAYER
  5
10
330
0
100
AcDbSymbolTable
 70
     6
  0
LAYER
  5
4
330
10
100
AcDbSymbolTableRecord
100
AcDbLayerTableRecord
  2
0
 70
     0
 62
     7
  6
CONTINUOUS
370
    -3
390
A4
  0
LAYER
  5
54
330
10
100
AcDbSymbolTableRecord
100
AcDbLayerTableRecord
  2
DEFPOINTS
 70
     0
 62
     7
  6
CONTINUOUS
290
     0
370
    -3
390
A4
  0
LAYER
  5
C1
330
10
100
AcDbSymbolTableRecord
100
AcDbLayerTableRecord
  2
KIJUN
 70
     0
 62
     7
  6
CONTINUOUS
370
    -3
390
A4
  0
LAYER
  5
C2
330
10
100
AcDbSymbolTableRecord
100
AcDbLayerTableRecord
  2
HOJO
 70
     0
 62
     3
  6
CONTINUOUS
370
    -3
390
A4
  0
LAYER
  5
C3
330
10
100
AcDbSymbolTableRecord
100
AcDbLayerTableRecord
  2
WAKU
 70
     0
 62
     1
  6
CONTINUOUS
370
    -3
390
A4
  0
LAYER
  5
C4
330
10
100
AcDbSymbolTableRecord
100
AcDbLayerTableRecord
  2
SUNPOU
 70
     0
 62
    70
  6
CONTINUOUS
370
    -3
390
A4
  0
ENDTAB
  0
TABLE
  2
STYLE
  5
11
330
0
100
AcDbSymbolTable
 70
     2
  0
STYLE
  5
12
330
11
100
AcDbSymbolTableRecord
100
AcDbTextStyleTableRecord
  2
STANDARD
 70
     0
 40
0.0
 41
1.0
 50
0.0
 71
     0
 42
0.0
  3
txt
  4

  0
STYLE
  5
C5
330
11
100
AcDbSymbolTableRecord
100
AcDbTextStyleTableRecord
  2
SUNPOU
 70
     0
 40
0.0
 41
1.0
 50
0.0
 71
     0
 42
30.0
  3
txt
  4
bigfont
  0
ENDTAB
  0
TABLE
  2
VIEW
  5
17
330
0
100
AcDbSymbolTable
 70
     0
  0
ENDTAB
  0
TABLE
  2
UCS
  5
18
330
0
100
AcDbSymbolTable
 70
     0
  0
ENDTAB
  0
TABLE
  2
APPID
  5
1B
330
0
100
AcDbSymbolTable
 70
     1
  0
APPID
  5
1C
330
1B
100
AcDbSymbolTableRecord
100
AcDbRegAppTableRecord
  2
ACAD
 70
     0
  0
ENDTAB
  0
TABLE
  2
DIMSTYLE
  5
1D
330
0
100
AcDbSymbolTable
 70
     1
100
AcDbDimStyleTable
 71
     1
340
1E
  0
DIMSTYLE
105
1E
102
{ACAD_REACTORS
330
53
330
61
330
207
102
}
330
1D
100
AcDbSymbolTableRecord
100
AcDbDimStyleTableRecord
  2
STANDARD
 70
     0
340
12
  0
ENDTAB
  0
TABLE
  2
BLOCK_RECORD
  5
1
330
0
100
AcDbSymbolTable
 70
     4
  0
BLOCK_RECORD
  5
2
102
{ACAD_XDICTIONARY
360
88
102
}
330
1
100
AcDbSymbolTableRecord
100
AcDbBlockTableRecord
  2
*MODEL_SPACE
340
A5
  0
BLOCK_RECORD
  5
C
102
{ACAD_XDICTIONARY
360
8A
102
}
330
1
100
AcDbSymbolTableRecord
100
AcDbBlockTableRecord
  2
*PAPER_SPACE
340
A6
  0
BLOCK_RECORD
  5
23
330
1
100
AcDbSymbolTableRecord
100
AcDbBlockTableRecord
  2
_DOTSMALL
340
0
102
{BLKREFS
331
12A
331
12B
331
133
331
134
331
22A
331
22B
102
}
  0
BLOCK_RECORD
  5
55
330
1
100
AcDbSymbolTableRecord
100
AcDbBlockTableRecord
  2
*D1
340
0
  0
BLOCK_RECORD
  5
62
330
1
100
AcDbSymbolTableRecord
100
AcDbBlockTableRecord
  2
*D2
340
0
  0
BLOCK_RECORD
  5
208
330
1
100
AcDbSymbolTableRecord
100
AcDbBlockTableRecord
  2
*D3
340
0
  0
ENDTAB
  0
ENDSEC
  0
SECTION
  2
BLOCKS
  0
BLOCK
  5
3
330
2
100
AcDbEntity
  8
0
100
AcDbBlockBegin
  2
*MODEL_SPACE
 70
     0
 10
0.0
 20
0.0
 30
0.0
  3
*MODEL_SPACE
  1

  0
ENDBLK
  5
9
330
2
100
AcDbEntity
  8
0
100
AcDbBlockEnd
  0
BLOCK
  5
D
330
C
100
AcDbEntity
 67
     1
  8
0
100
AcDbBlockBegin
  2
*PAPER_SPACE
 70
     0
 10
0.0
 20
0.0
 30
0.0
  3
*PAPER_SPACE
  1

  0
ENDBLK
  5
E
330
C
100
AcDbEntity
 67
     1
  8
0
100
AcDbBlockEnd
  0
BLOCK
  5
25
330
23
100
AcDbEntity
  8
0
100
AcDbBlockBegin
  2
_DOTSMALL
 70
     0
 10
0.0
 20
0.0
 30
0.0
  3
_DOTSMALL
  1

  0
LWPOLYLINE
  5
24
330
23
100
AcDbEntity
  8
0
  6
ByBlock
 62
     0
100
AcDbPolyline
 90
        2
 70
     1
 43
0.5
 10
-0.0625
 20
0.0
 42
1.0
 10
0.0625
 20
0.0
 42
1.0
  0
ENDBLK
  5
26
330
23
100
AcDbEntity
  8
0
100
AcDbBlockEnd
  0
BLOCK
  5
5F
330
55
100
AcDbEntity
  8
0
100
AcDbBlockBegin
  2
*D1
 70
     1
 10
0.0
 20
0.0
 30
0.0
  3
*D1
  1

  0
LINE
  5
130
330
55
100
AcDbEntity
  8
SUNPOU
  6
Continuous
 62
     3
100
AcDbLine
 10
20.8126755099297
 20
56.42755258665872
 30
0.0
 11
20.8126755099297
 21
66.21694886011344
 31
0.0
  0
LINE
  5
131
330
55
100
AcDbEntity
  8
SUNPOU
  6
Continuous
 62
     3
100
AcDbLine
 10
29.81267550992982
 20
56.42755258665872
 30
0.0
 11
29.81267550992982
 21
66.21694886011344
 31
0.0
  0
LINE
  5
132
330
55
100
AcDbEntity
  8
SUNPOU
  6
Continuous
 62
     3
100
AcDbLine
 10
20.8126755099297
 20
66.21694886011344
 30
0.0
 11
29.81267550992982
 21
66.21694886011344
 31
0.0
  0
INSERT
  5
133
330
55
100
AcDbEntity
  8
SUNPOU
  6
Continuous
 62
     3
100
AcDbBlockReference
  2
_DOTSMALL
 10
20.8126755099297
 20
66.21694886011344
 30
0.0
 41
3.0
 42
3.0
 43
3.0
 50
180.0
  0
INSERT
  5
134
330
55
100
AcDbEntity
  8
SUNPOU
  6
Continuous
 62
     3
100
AcDbBlockReference
  2
_DOTSMALL
 10
29.81267550992982
 20
66.21694886011344
 30
0.0
 41
3.0
 42
3.0
 43
3.0
  0
MTEXT
  5
135
330
55
100
AcDbEntity
  8
SUNPOU
  6
Continuous
 62
     3
100
AcDbMText
 10
25.31267550992976
 20
69.46694886011343
 30
0.0
 40
4.5
 41
0.0
 71
     5
 72
     1
  1
\A1;9
 73
     1
 44
1.0
1001
ACAD
1000
MTEXTBEGIN
1070
    73
1070
     1
1070
    44
1040
1.0
1070
    74
1070
     0
1000
MTEXTEND
  0
POINT
  5
136
330
55
100
AcDbEntity
  8
DEFPOINTS
  6
Continuous
 62
     0
100
AcDbPoint
 10
20.8126755099297
 20
51.42755258665872
 30
0.0
  0
POINT
  5
137
330
55
100
AcDbEntity
  8
DEFPOINTS
  6
Continuous
 62
     0
100
AcDbPoint
 10
29.81267550992982
 20
51.42755258665872
 30
0.0
  0
POINT
  5
138
330
55
100
AcDbEntity
  8
DEFPOINTS
  6
Continuous
 62
     0
100
AcDbPoint
 10
29.81267550992982
 20
66.21694886011344
 30
0.0
  0
ENDBLK
  5
60
330
55
100
AcDbEntity
  8
0
100
AcDbBlockEnd
  0
BLOCK
  5
6C
330
62
100
AcDbEntity
  8
0
100
AcDbBlockBegin
  2
*D2
 70
     1
 10
0.0
 20
0.0
 30
0.0
  3
*D2
  1

  0
LINE
  5
127
330
62
100
AcDbEntity
  8
SUNPOU
  6
Continuous
 62
     3
100
AcDbLine
 10
34.81267550992982
 20
51.42755258665872
 30
0.0
 11
52.48860923842228
 21
51.42755258665872
 31
0.0
  0
LINE
  5
128
330
62
100
AcDbEntity
  8
SUNPOU
  6
Continuous
 62
     3
100
AcDbLine
 10
34.81267550992983
 20
16.42755258665872
 30
0.0
 11
52.48860923842227
 21
16.42755258665872
 31
0.0
  0
LINE
  5
129
330
62
100
AcDbEntity
  8
SUNPOU
  6
Continuous
 62
     3
100
AcDbLine
 10
52.48860923842228
 20
51.42755258665872
 30
0.0
 11
52.48860923842227
 21
16.42755258665872
 31
0.0
  0
INSERT
  5
12A
330
62
100
AcDbEntity
  8
SUNPOU
  6
Continuous
 62
     3
100
AcDbBlockReference
  2
_DOTSMALL
 10
52.48860923842228
 20
51.42755258665872
 30
0.0
 41
3.0
 42
3.0
 43
3.0
 50
90.0
  0
INSERT
  5
12B
330
62
100
AcDbEntity
  8
SUNPOU
  6
Continuous
 62
     3
100
AcDbBlockReference
  2
_DOTSMALL
 10
52.48860923842227
 20
16.42755258665872
 30
0.0
 41
3.0
 42
3.0
 43
3.0
 50
270.0
  0
MTEXT
  5
12C
330
62
100
AcDbEntity
  8
SUNPOU
  6
Continuous
 62
     3
100
AcDbMText
 10
49.23860923842227
 20
33.92755258665873
 30
0.0
 40
4.5
 41
0.0
 71
     5
 72
     1
  1
\A1;35
 11
0.0000000000000001
 21
1.0
 31
0.0
 73
     1
 44
1.0
1001
ACAD
1000
MTEXTBEGIN
1070
    73
1070
     1
1070
    44
1040
1.0
1070
    74
1070
     0
1000
MTEXTEND
  0
POINT
  5
12D
330
62
100
AcDbEntity
  8
DEFPOINTS
  6
Continuous
 62
     0
100
AcDbPoint
 10
29.81267550992982
 20
51.42755258665872
 30
0.0
  0
POINT
  5
12E
330
62
100
AcDbEntity
  8
DEFPOINTS
  6
Continuous
 62
     0
100
AcDbPoint
 10
29.81267550992982
 20
16.42755258665872
 30
0.0
  0
POINT
  5
12F
330
62
100
AcDbEntity
  8
DEFPOINTS
  6
Continuous
 62
     0
100
AcDbPoint
 10
52.48860923842227
 20
16.42755258665872
 30
0.0
  0
ENDBLK
  5
6D
330
62
100
AcDbEntity
  8
0
100
AcDbBlockEnd
  0
BLOCK
  5
212
330
208
100
AcDbEntity
  8
0
100
AcDbBlockBegin
  2
*D3
 70
     1
 10
0.0
 20
0.0
 30
0.0
  3
*D3
  1

  0
LINE
  5
227
330
208
100
AcDbEntity
  8
SUNPOU
  6
Continuous
 62
     3
100
AcDbLine
 10
95.84311703598434
 20
52.92755258665883
 30
0.0
 11
95.84311703598434
 21
66.21694886011344
 31
0.0
  0
LINE
  5
228
330
208
100
AcDbEntity
  8
SUNPOU
  6
Continuous
 62
     3
100
AcDbLine
 10
130.8431170359843
 20
52.92755258665883
 30
0.0
 11
130.8431170359843
 21
66.21694886011344
 31
0.0
  0
LINE
  5
229
330
208
100
AcDbEntity
  8
SUNPOU
  6
Continuous
 62
     3
100
AcDbLine
 10
95.84311703598434
 20
66.21694886011344
 30
0.0
 11
130.8431170359843
 21
66.21694886011344
 31
0.0
  0
INSERT
  5
22A
330
208
100
AcDbEntity
  8
SUNPOU
  6
Continuous
 62
     3
100
AcDbBlockReference
  2
_DOTSMALL
 10
95.84311703598434
 20
66.21694886011344
 30
0.0
 41
3.0
 42
3.0
 43
3.0
 50
180.0
  0
INSERT
  5
22B
330
208
100
AcDbEntity
  8
SUNPOU
  6
Continuous
 62
     3
100
AcDbBlockReference
  2
_DOTSMALL
 10
130.8431170359843
 20
66.21694886011344
 30
0.0
 41
3.0
 42
3.0
 43
3.0
  0
MTEXT
  5
22C
330
208
100
AcDbEntity
  8
SUNPOU
  6
Continuous
 62
     3
100
AcDbMText
 10
113.3431170359843
 20
69.46694886011343
 30
0.0
 40
4.5
 41
0.0
 71
     5
 72
     1
  1
\A1;35
 73
     1
 44
1.0
1001
ACAD
1000
MTEXTBEGIN
1070
    73
1070
     1
1070
    44
1040
1.0
1070
    74
1070
     0
1000
MTEXTEND
  0
POINT
  5
22D
330
208
100
AcDbEntity
  8
DEFPOINTS
  6
Continuous
 62
     0
100
AcDbPoint
 10
95.84311703598434
 20
47.92755258665883
 30
0.0
  0
POINT
  5
22E
330
208
100
AcDbEntity
  8
DEFPOINTS
  6
Continuous
 62
     0
100
AcDbPoint
 10
130.8431170359843
 20
47.92755258665883
 30
0.0
  0
POINT
  5
22F
330
208
100
AcDbEntity
  8
DEFPOINTS
  6
Continuous
 62
     0
100
AcDbPoint
 10
130.8431170359843
 20
66.21694886011344
 30
0.0
  0
ENDBLK
  5
213
330
208
100
AcDbEntity
  8
0
100
AcDbBlockEnd
  0
ENDSEC
  0
SECTION
  2
ENTITIES
  0
DIMENSION
  5
53
330
2
100
AcDbEntity
  8
SUNPOU
  6
Continuous
100
AcDbDimension
  2
*D1
 10
29.81267550992982
 20
66.21694886011344
 30
0.0
 11
25.31267550992976
 21
69.46694886011343
 31
0.0
 70
    32
 71
     5
 42
9.000000000000113
  3
STANDARD
100
AcDbAlignedDimension
 13
20.8126755099297
 23
51.42755258665872
 33
0.0
 14
29.81267550992982
 24
51.42755258665872
 34
0.0
100
AcDbRotatedDimension
1001
ACAD
1000
DSTYLE
1002
{
1070
   287
1070
     3
1070
    41
1040
3.0
1070
    42
1040
5.0
1070
    43
1040
1.0
1070
    44
1040
0.0
1070
    73
1070
     0
1070
    74
1070
     0
1070
    77
1070
     1
1070
    78
1070
     8
1070
    79
1070
     2
1070
   140
1040
4.5
1070
   141
1040
3.0
1070
   147
1040
1.0
1070
   176
1070
     3
1070
   177
1070
     3
1070
   178
1070
     3
1070
   289
1070
     3
1070
   341
1005
23
1070
     5
1000
DOTSMALL
1070
   371
1070
    -1
1070
   372
1070
    -1
1002
}
  0
DIMENSION
  5
61
330
2
100
AcDbEntity
  8
SUNPOU
  6
Continuous
100
AcDbDimension
  2
*D2
 10
52.48860923842227
 20
16.42755258665872
 30
0.0
 11
49.23860923842227
 21
33.92755258665873
 31
0.0
 70
    32
 71
     5
 42
35.0
  3
STANDARD
100
AcDbAlignedDimension
 13
29.81267550992982
 23
51.42755258665872
 33
0.0
 14
29.81267550992982
 24
16.42755258665872
 34
0.0
 50
90.0
100
AcDbRotatedDimension
1001
ACAD
1000
DSTYLE
1002
{
1070
   287
1070
     3
1070
    41
1040
3.0
1070
    42
1040
5.0
1070
    43
1040
1.0
1070
    44
1040
0.0
1070
    73
1070
     0
1070
    74
1070
     0
1070
    77
1070
     1
1070
    78
1070
     8
1070
    79
1070
     2
1070
   140
1040
4.5
1070
   141
1040
3.0
1070
   147
1040
1.0
1070
   176
1070
     3
1070
   177
1070
     3
1070
   178
1070
     3
1070
   289
1070
     3
1070
   341
1005
23
1070
     5
1000
DOTSMALL
1070
   371
1070
    -1
1070
   372
1070
    -1
1002
}
  0
TEXT
  5
D3
330
2
100
AcDbEntity
  8
HOJO
100
AcDbText
 10
4.826983000000041
 20
1.183312999999998
 30
0.0
 40
4.5
  1
E-2013L
  7
SUNPOU
100
AcDbText
  0
LINE
  5
D4
330
2
100
AcDbEntity
  8
WAKU
100
AcDbLine
 10
0.0
 20
0.0
 30
0.0
 11
59.90736463108101
 21
0.0
 31
0.0
  0
LINE
  5
D5
330
2
100
AcDbEntity
  8
WAKU
100
AcDbLine
 10
0.0
 20
7.0
 30
0.0
 11
59.90736463108101
 21
7.0
 31
0.0
  0
TEXT
  5
D7
330
2
100
AcDbEntity
  8
HOJO
100
AcDbText
 10
38.7449115063605
 20
2.522193000000015
 30
0.0
 40
3.0
  1
35×9
  7
SUNPOU
100
AcDbText
  0
LWPOLYLINE
  5
139
330
2
100
AcDbEntity
  8
KIJUN
  6
Continuous
100
AcDbPolyline
 90
       16
 70
   129
 43
0.0
 10
29.81267550992982
 20
41.42755258665872
 10
27.81267550992982
 20
41.42755258665872
 10
27.8126755099297
 20
43.92755258665872
 10
25.81267550992971
 20
43.92755258665872
 10
25.81267550992971
 20
47.92755258665883
 10
23.81267550992971
 20
47.92755258665872
 10
23.81267550992971
 20
51.42755258665872
 10
20.8126755099297
 20
51.42755258665872
 10
20.8126755099297
 20
16.42755258665872
 10
23.81267550992971
 20
16.42755258665872
 10
23.81267550992971
 20
19.92755258665872
 10
25.81267550992971
 20
19.92755258665872
 10
25.81267550992971
 20
23.92755258665872
 10
27.8126755099297
 20
23.92755258665872
 10
27.81267550992982
 20
26.42755258665872
 10
29.81267550992982
 20
26.42755258665872
  0
LINE
  5
151
330
2
100
AcDbEntity
  8
KIJUN
  6
Continuous
100
AcDbLine
 10
62.34311703598433
 20
51.42755258665872
 30
0.0
 11
167.3431170359843
 21
51.42755258665872
 31
0.0
  0
LINE
  5
152
330
2
100
AcDbEntity
  8
KIJUN
  6
Continuous
100
AcDbLine
 10
62.34311703598433
 20
16.42755258665872
 30
0.0
 11
167.3431170359843
 21
16.42755258665872
 31
0.0
  0
LINE
  5
155
330
2
100
AcDbEntity
  8
KIJUN
  6
Continuous
100
AcDbLine
 10
62.34311703598433
 20
47.92755258665883
 30
0.0
 11
95.84311703598434
 21
47.92755258665883
 31
0.0
  0
LINE
  5
156
330
2
100
AcDbEntity
  8
KIJUN
  6
Continuous
100
AcDbLine
 10
68.59311703598433
 20
43.92755258665872
 30
0.0
 11
89.59311703598435
 21
43.92755258665872
 31
0.0
  0
LINE
  5
157
330
2
100
AcDbEntity
  8
KIJUN
  6
Continuous
100
AcDbLine
 10
72.09311703598434
 20
41.42755258665872
 30
0.0
 11
86.09311703598436
 21
41.42755258665872
 31
0.0
  0
LINE
  5
158
330
2
100
AcDbEntity
  8
KIJUN
  6
Continuous
100
AcDbLine
 10
72.09311703598434
 20
26.42755258665872
 30
0.0
 11
86.09311703598436
 21
26.42755258665872
 31
0.0
  0
LINE
  5
159
330
2
100
AcDbEntity
  8
KIJUN
  6
Continuous
100
AcDbLine
 10
68.59311703598433
 20
23.92755258665872
 30
0.0
 11
89.59311703598435
 21
23.92755258665872
 31
0.0
  0
LINE
  5
15A
330
2
100
AcDbEntity
  8
KIJUN
  6
Continuous
100
AcDbLine
 10
62.34311703598433
 20
19.92755258665872
 30
0.0
 11
95.84311703598434
 21
19.92755258665872
 31
0.0
  0
LINE
  5
163
330
2
100
AcDbEntity
  8
KIJUN
  6
Continuous
100
AcDbLine
 10
95.84311703598434
 20
47.92755258665883
 30
0.0
 11
95.84311703598434
 21
19.92755258665872
 31
0.0
  0
LINE
  5
172
330
2
100
AcDbEntity
  8
KIJUN
  6
Continuous
100
AcDbLine
 10
72.09311703598434
 20
41.42755258665872
 30
0.0
 11
72.09311703598434
 21
26.42755258665872
 31
0.0
  0
LINE
  5
174
330
2
100
AcDbEntity
  8
KIJUN
  6
Continuous
100
AcDbLine
 10
68.59311703598433
 20
43.92755258665872
 30
0.0
 11
68.59311703598433
 21
23.92755258665872
 31
0.0
  0
LINE
  5
175
330
2
100
AcDbEntity
  8
KIJUN
  6
Continuous
100
AcDbLine
 10
65.59311703598433
 20
47.92755258665883
 30
0.0
 11
65.59311703598432
 21
19.92755258665872
 31
0.0
  0
LINE
  5
177
330
2
100
AcDbEntity
  8
KIJUN
  6
Continuous
100
AcDbLine
 10
86.09311703598436
 20
41.42755258665872
 30
0.0
 11
86.09311703598436
 21
26.42755258665872
 31
0.0
  0
LINE
  5
178
330
2
100
AcDbEntity
  8
KIJUN
  6
Continuous
100
AcDbLine
 10
89.59311703598435
 20
43.92755258665872
 30
0.0
 11
89.59311703598435
 21
23.92755258665872
 31
0.0
  0
LINE
  5
179
330
2
100
AcDbEntity
  8
KIJUN
  6
Continuous
100
AcDbLine
 10
92.59311703598436
 20
47.92755258665883
 30
0.0
 11
92.59311703598438
 21
19.92755258665872
 31
0.0
  0
LINE
  5
17A
330
2
100
AcDbEntity
  8
KIJUN
  6
Continuous
100
AcDbLine
 10
97.34311703598432
 20
47.92755258665883
 30
0.0
 11
130.8431170359843
 21
47.92755258665883
 31
0.0
  0
LINE
  5
17B
330
2
100
AcDbEntity
  8
KIJUN
  6
Continuous
100
AcDbLine
 10
103.5931170359843
 20
43.92755258665872
 30
0.0
 11
124.5931170359843
 21
43.92755258665872
 31
0.0
  0
LINE
  5
17C
330
2
100
AcDbEntity
  8
KIJUN
  6
Continuous
100
AcDbLine
 10
107.0931170359843
 20
41.42755258665872
 30
0.0
 11
121.0931170359843
 21
41.42755258665872
 31
0.0
  0
LINE
  5
17D
330
2
100
AcDbEntity
  8
KIJUN
  6
Continuous
100
AcDbLine
 10
107.0931170359843
 20
26.42755258665872
 30
0.0
 11
121.0931170359843
 21
26.42755258665872
 31
0.0
  0
LINE
  5
17E
330
2
100
AcDbEntity
  8
KIJUN
  6
Continuous
100
AcDbLine
 10
103.5931170359843
 20
23.92755258665872
 30
0.0
 11
124.5931170359843
 21
23.92755258665872
 31
0.0
  0
LINE
  5
17F
330
2
100
AcDbEntity
  8
KIJUN
  6
Continuous
100
AcDbLine
 10
97.34311703598431
 20
19.92755258665872
 30
0.0
 11
130.8431170359843
 21
19.92755258665872
 31
0.0
  0
LINE
  5
180
330
2
100
AcDbEntity
  8
KIJUN
  6
Continuous
100
AcDbLine
 10
97.34311703598432
 20
47.92755258665883
 30
0.0
 11
97.34311703598431
 21
19.92755258665872
 31
0.0
  0
LINE
  5
181
330
2
100
AcDbEntity
  8
KIJUN
  6
Continuous
100
AcDbLine
 10
130.8431170359843
 20
47.92755258665883
 30
0.0
 11
130.8431170359843
 21
19.92755258665872
 31
0.0
  0
LINE
  5
182
330
2
100
AcDbEntity
  8
KIJUN
  6
Continuous
100
AcDbLine
 10
107.0931170359843
 20
41.42755258665872
 30
0.0
 11
107.0931170359843
 21
26.42755258665872
 31
0.0
  0
LINE
  5
183
330
2
100
AcDbEntity
  8
KIJUN
  6
Continuous
100
AcDbLine
 10
103.5931170359843
 20
43.92755258665872
 30
0.0
 11
103.5931170359843
 21
23.92755258665872
 31
0.0
  0
LINE
  5
184
330
2
100
AcDbEntity
  8
KIJUN
  6
Continuous
100
AcDbLine
 10
100.5931170359843
 20
47.92755258665883
 30
0.0
 11
100.5931170359843
 21
19.92755258665872
 31
0.0
  0
LINE
  5
185
330
2
100
AcDbEntity
  8
KIJUN
  6
Continuous
100
AcDbLine
 10
121.0931170359843
 20
41.42755258665872
 30
0.0
 11
121.0931170359843
 21
26.42755258665872
 31
0.0
  0
LINE
  5
186
330
2
100
AcDbEntity
  8
KIJUN
  6
Continuous
100
AcDbLine
 10
124.5931170359843
 20
43.92755258665872
 30
0.0
 11
124.5931170359843
 21
23.92755258665872
 31
0.0
  0
LINE
  5
187
330
2
100
AcDbEntity
  8
KIJUN
  6
Continuous
100
AcDbLine
 10
127.5931170359843
 20
47.92755258665883
 30
0.0
 11
127.5931170359844
 21
19.92755258665872
 31
0.0
  0
LINE
  5
188
330
2
100
AcDbEntity
  8
KIJUN
  6
Continuous
100
AcDbLine
 10
132.3431170359843
 20
47.92755258665883
 30
0.0
 11
165.8431170359843
 21
47.92755258665883
 31
0.0
  0
LINE
  5
189
330
2
100
AcDbEntity
  8
KIJUN
  6
Continuous
100
AcDbLine
 10
138.5931170359843
 20
43.92755258665872
 30
0.0
 11
159.5931170359843
 21
43.92755258665872
 31
0.0
  0
LINE
  5
18A
330
2
100
AcDbEntity
  8
KIJUN
  6
Continuous
100
AcDbLine
 10
142.0931170359843
 20
41.42755258665872
 30
0.0
 11
156.0931170359843
 21
41.42755258665872
 31
0.0
  0
LINE
  5
18B
330
2
100
AcDbEntity
  8
KIJUN
  6
Continuous
100
AcDbLine
 10
142.0931170359843
 20
26.42755258665872
 30
0.0
 11
156.0931170359843
 21
26.42755258665872
 31
0.0
  0
LINE
  5
18C
330
2
100
AcDbEntity
  8
KIJUN
  6
Continuous
100
AcDbLine
 10
138.5931170359843
 20
23.92755258665872
 30
0.0
 11
159.5931170359843
 21
23.92755258665872
 31
0.0
  0
LINE
  5
18D
330
2
100
AcDbEntity
  8
KIJUN
  6
Continuous
100
AcDbLine
 10
132.3431170359843
 20
19.92755258665872
 30
0.0
 11
165.8431170359843
 21
19.92755258665872
 31
0.0
  0
LINE
  5
18E
330
2
100
AcDbEntity
  8
KIJUN
  6
Continuous
100
AcDbLine
 10
132.3431170359843
 20
47.92755258665883
 30
0.0
 11
132.3431170359843
 21
19.92755258665872
 31
0.0
  0
LINE
  5
18F
330
2
100
AcDbEntity
  8
KIJUN
  6
Continuous
100
AcDbLine
 10
165.8431170359843
 20
47.92755258665883
 30
0.0
 11
165.8431170359843
 21
19.92755258665872
 31
0.0
  0
LINE
  5
190
330
2
100
AcDbEntity
  8
KIJUN
  6
Continuous
100
AcDbLine
 10
142.0931170359843
 20
41.42755258665872
 30
0.0
 11
142.0931170359843
 21
26.42755258665872
 31
0.0
  0
LINE
  5
191
330
2
100
AcDbEntity
  8
KIJUN
  6
Continuous
100
AcDbLine
 10
138.5931170359843
 20
43.92755258665872
 30
0.0
 11
138.5931170359843
 21
23.92755258665872
 31
0.0
  0
LINE
  5
192
330
2
100
AcDbEntity
  8
KIJUN
  6
Continuous
100
AcDbLine
 10
135.5931170359843
 20
47.92755258665883
 30
0.0
 11
135.5931170359843
 21
19.92755258665872
 31
0.0
  0
LINE
  5
193
330
2
100
AcDbEntity
  8
KIJUN
  6
Continuous
100
AcDbLine
 10
156.0931170359843
 20
41.42755258665872
 30
0.0
 11
156.0931170359843
 21
26.42755258665872
 31
0.0
  0
LINE
  5
194
330
2
100
AcDbEntity
  8
KIJUN
  6
Continuous
100
AcDbLine
 10
159.5931170359843
 20
43.92755258665872
 30
0.0
 11
159.5931170359843
 21
23.92755258665872
 31
0.0
  0
LINE
  5
195
330
2
100
AcDbEntity
  8
KIJUN
  6
Continuous
100
AcDbLine
 10
162.5931170359843
 20
47.92755258665883
 30
0.0
 11
162.5931170359844
 21
19.92755258665872
 31
0.0
  0
DIMENSION
  5
207
330
2
100
AcDbEntity
  8
SUNPOU
  6
Continuous
100
AcDbDimension
  2
*D3
 10
130.8431170359843
 20
66.21694886011344
 30
0.0
 11
113.3431170359843
 21
69.46694886011343
 31
0.0
 70
    32
 71
     5
 42
35.0
  3
STANDARD
100
AcDbAlignedDimension
 13
95.84311703598434
 23
47.92755258665883
 33
0.0
 14
130.8431170359843
 24
47.92755258665883
 34
0.0
100
AcDbRotatedDimension
1001
ACAD
1000
DSTYLE
1002
{
1070
   287
1070
     3
1070
    41
1040
3.0
1070
    42
1040
5.0
1070
    43
1040
1.0
1070
    44
1040
0.0
1070
    73
1070
     0
1070
    74
1070
     0
1070
    77
1070
     1
1070
    78
1070
     8
1070
    79
1070
     2
1070
   140
1040
4.5
1070
   141
1040
3.0
1070
   147
1040
1.0
1070
   176
1070
     3
1070
   177
1070
     3
1070
   178
1070
     3
1070
   289
1070
     3
1070
   341
1005
23
1070
     5
1000
DOTSMALL
1070
   371
1070
    -1
1070
   372
1070
    -1
1002
}
  0
ENDSEC
  0
SECTION
  2
OBJECTS
  0
DICTIONARY
  5
7
330
0
100
AcDbDictionary
281
     1
  3
ACAD_COLOR
350
13D
  3
ACAD_GROUP
350
20
  3
ACAD_LAYOUT
350
B
  3
ACAD_MATERIAL
350
13C
  3
ACAD_MLINESTYLE
350
21
  3
ACAD_PLOTSETTINGS
350
22
  3
ACAD_PLOTSTYLENAME
350
A3
  3
ACAD_TABLESTYLE
350
13E
  3
ACDBHEADERROUNDTRIPXREC
350
24B
  3
AcDbVariableDictionary
350
149
1001
ACAD
1000
TREAT_AS_HARD
1070
     0
  0
DICTIONARY
  5
88
330
2
100
AcDbDictionary
280
     1
281
     1
  3
ACAD_LAYOUTSELFREF
360
89
  3
ACAD_SORTENTS
360
154
  0
DICTIONARY
  5
8A
330
C
100
AcDbDictionary
280
     1
281
     1
  3
ACAD_LAYOUTSELFREF
360
8B
  0
DICTIONARY
  5
13D
102
{ACAD_REACTORS
330
7
102
}
330
7
100
AcDbDictionary
281
     1
  0
DICTIONARY
  5
20
102
{ACAD_REACTORS
330
7
102
}
330
7
100
AcDbDictionary
281
     1
1001
ACAD
1000
TREAT_AS_HARD
1070
     0
  0
DICTIONARY
  5
B
102
{ACAD_REACTORS
330
7
102
}
330
7
100
AcDbDictionary
281
     1
  3
Model
350
A5
  3
ﾚｲｱｳﾄ1
350
A6
1001
ACAD
1000
TREAT_AS_HARD
1070
     0
  0
DICTIONARY
  5
13C
102
{ACAD_REACTORS
330
7
102
}
330
7
100
AcDbDictionary
281
     1
  0
DICTIONARY
  5
21
102
{ACAD_REACTORS
330
7
102
}
330
7
100
AcDbDictionary
281
     1
  3
STANDARD
350
27
1001
ACAD
1000
TREAT_AS_HARD
1070
     0
  0
DICTIONARY
  5
22
102
{ACAD_REACTORS
330
7
102
}
330
7
100
AcDbDictionary
281
     1
1001
ACAD
1000
TREAT_AS_HARD
1070
     0
  0
ACDBDICTIONARYWDFLT
  5
A3
102
{ACAD_REACTORS
330
7
102
}
330
7
100
AcDbDictionary
281
     1
  3
Normal
350
A4
100
AcDbDictionaryWithDefault
340
A4
  0
DICTIONARY
  5
13E
102
{ACAD_REACTORS
330
7
102
}
330
7
100
AcDbDictionary
281
     1
  3
Standard
350
13F
  0
DICTIONARY
  5
24B
102
{ACAD_REACTORS
330
7
102
}
330
7
100
AcDbDictionary
281
     1
  0
DICTIONARY
  5
149
102
{ACAD_REACTORS
330
7
102
}
330
7
100
AcDbDictionary
281
     1
  3
CTABLESTYLE
350
14A
  3
DIMASSOC
350
14B
  3
PROJECTNAME
350
14C
  0
XRECORD
  5
89
102
{ACAD_REACTORS
330
88
102
}
330
88
100
AcDbXrecord
280
     1
340
2
  0
SORTENTSTABLE
  5
154
102
{ACAD_REACTORS
330
88
102
}
330
88
100
AcDbSortentsTable
330
2
331
53
  5
61
331
139
  5
151
331
152
  5
153
331
D7
  5
139
331
D5
  5
D7
331
D3
  5
D4
331
61
  5
D3
331
151
  5
152
331
D4
  5
D5
  0
XRECORD
  5
8B
102
{ACAD_REACTORS
330
8A
102
}
330
8A
100
AcDbXrecord
280
     1
340
C
  0
LAYOUT
  5
A5
102
{ACAD_XDICTIONARY
360
24C
102
}
102
{ACAD_REACTORS
330
B
102
}
330
B
100
AcDbPlotSettings
  1

  2
なし
  4

  6

 40
0.0
 41
0.0
 42
0.0
 43
0.0
 44
0.0
 45
0.0
 46
0.0
 47
0.0
 48
0.0
 49
0.0
140
0.0
141
0.0
142
1.0
143
1.0
 70
  1712
 72
     0
 73
     0
 74
     0
  7
monochrome.ctb
 75
     0
147
1.0
148
0.0
149
0.0
100
AcDbLayout
  1
Model
 70
     1
 71
     0
 10
0.0
 20
0.0
 11
12.0
 21
9.0
 12
0.0
 22
0.0
 32
0.0
 14
0.0
 24
0.0
 34
0.0
 15
0.0
 25
0.0
 35
0.0
146
0.0
 13
0.0
 23
0.0
 33
0.0
 16
1.0
 26
0.0
 36
0.0
 17
0.0
 27
1.0
 37
0.0
 76
     0
330
2
  0
LAYOUT
  5
A6
102
{ACAD_XDICTIONARY
360
24E
102
}
102
{ACAD_REACTORS
330
B
102
}
330
B
100
AcDbPlotSettings
  1

  2
なし
  4

  6

 40
0.0
 41
0.0
 42
0.0
 43
0.0
 44
0.0
 45
0.0
 46
0.0
 47
0.0
 48
0.0
 49
0.0
140
0.0
141
0.0
142
1.0
143
1.0
 70
   688
 72
     0
 73
     0
 74
     5
  7
monochrome.ctb
 75
    16
147
1.0
148
0.0
149
0.0
100
AcDbLayout
  1
ﾚｲｱｳﾄ1
 70
     0
 71
     1
 10
0.0
 20
0.0
 11
12.0
 21
9.0
 12
0.0
 22
0.0
 32
0.0
 14
1.000000000000000E+20
 24
1.000000000000000E+20
 34
1.000000000000000E+20
 15
-1.000000000000000E+20
 25
-1.000000000000000E+20
 35
-1.000000000000000E+20
146
0.0
 13
0.0
 23
0.0
 33
0.0
 16
1.0
 26
0.0
 36
0.0
 17
0.0
 27
1.0
 37
0.0
 76
     0
330
C
  0
MLINESTYLE
  5
27
102
{ACAD_REACTORS
330
21
102
}
330
21
100
AcDbMlineStyle
  2
STANDARD
 70
     0
  3

 62
     0
 51
90.0
 52
90.0
 71
     2
 49
0.5
 62
   256
  6
BYLAYER
 49
-0.5
 62
   256
  6
BYLAYER
  0
ACDBPLACEHOLDER
  5
A4
102
{ACAD_REACTORS
330
A3
102
}
330
A3
  0
TABLESTYLE
  5
13F
102
{ACAD_REACTORS
330
13E
102
}
330
13E
100
AcDbTableStyle
  3
Standard
 70
     0
 71
     0
 40
0.06
 41
0.06
280
     0
281
     0
  7
STANDARD
140
0.18
170
     2
 62
     0
 63
     7
283
     0
274
    -2
284
     1
 64
     0
275
    -2
285
     1
 65
     0
276
    -2
286
     1
 66
     0
277
    -2
287
     1
 67
     0
278
    -2
288
     1
 68
     0
279
    -2
289
     1
 69
     0
  7
STANDARD
140
0.25
170
     5
 62
     0
 63
     7
283
     0
274
    -2
284
     1
 64
     0
275
    -2
285
     1
 65
     0
276
    -2
286
     1
 66
     0
277
    -2
287
     1
 67
     0
278
    -2
288
     1
 68
     0
279
    -2
289
     1
 69
     0
  7
STANDARD
140
0.18
170
     5
 62
     0
 63
     7
283
     0
274
    -2
284
     1
 64
     0
275
    -2
285
     1
 65
     0
276
    -2
286
     1
 66
     0
277
    -2
287
     1
 67
     0
278
    -2
288
     1
 68
     0
279
    -2
289
     1
 69
     0
  0
DICTIONARYVAR
  5
14A
102
{ACAD_REACTORS
330
149
102
}
330
149
100
DictionaryVariables
280
     0
  1
STANDARD
  0
DICTIONARYVAR
  5
14B
102
{ACAD_REACTORS
330
149
102
}
330
149
100
DictionaryVariables
280
     0
  1
1
  0
DICTIONARYVAR
  5
14C
102
{ACAD_REACTORS
330
149
102
}
330
149
100
DictionaryVariables
280
     0
  1

  0
DICTIONARY
  5
24C
330
A5
100
AcDbDictionary
280
     1
281
     1
  3
ACAD_XREC_ROUNDTRIP
360
24D
  0
DICTIONARY
  5
24E
330
A6
100
AcDbDictionary
280
     1
281
     1
  3
ACAD_XREC_ROUNDTRIP
360
24F
  0
XRECORD
  5
24D
102
{ACAD_REACTORS
330
24C
102
}
330
24C
100
AcDbXrecord
280
     1
102
SHADEPLOT
 70
     0
102
SHADEPLOTRESLEVEL
 70
     2
102
SHADEPLOTCUSTOMDPI
 70
   300
  0
XRECORD
  5
24F
102
{ACAD_REACTORS
330
24E
102
}
330
24E
100
AcDbXrecord
280
     1
102
SHADEPLOT
 70
     0
102
SHADEPLOTRESLEVEL
 70
     2
102
SHADEPLOTCUSTOMDPI
 70
   300
  0
ENDSEC
  0
EOF
