  0
SECTION
  2
HEADER
  9
$ACADVER
  1
AC1032
  9
$ACADMAINTVER
 90
        4
  9
$DWGCODEPAGE
  3
ANSI_932
  9
$LASTSAVEDBY
  1
wtnbh
  9
$REQUIREDVERSIONS
160
                 0
  9
$INSBASE
 10
0.0
 20
0.0
 30
0.0
  9
$EXTMIN
 10
-5413.132795641723
 20
-1798.404052284193
 30
0.0
  9
$EXTMAX
 10
-4165.931515641724
 20
-938.9659722841923
 30
0.0
  9
$LIMMIN
 10
0.0
 20
0.0
  9
$LIMMAX
 10
420.0
 20
297.0
  9
$ORTHOMODE
 70
     0
  9
$REGENMODE
 70
     1
  9
$FILLMODE
 70
     1
  9
$QTEXTMODE
 70
     0
  9
$MIRRTEXT
 70
     0
  9
$LTSCALE
 40
1.0
  9
$ATTMODE
 70
     1
  9
$TEXTSIZE
 40
2.5
  9
$TRACEWID
 40
1.0
  9
$TEXTSTYLE
  7
ARIAL_TTF
  9
$CLAYER
  8
0
  9
$CELTYPE
  6
ByLayer
  9
$CECOLOR
 62
   256
  9
$CELTSCALE
 40
1.0
  9
$DISPSILH
 70
     0
  9
$DIMSCALE
 40
1.0
  9
$DIMASZ
 40
10.0
  9
$DIMEXO
 40
5.0
  9
$DIMDLI
 40
3.75
  9
$DIMRND
 40
0.0
  9
$DIMDLE
 40
0.0
  9
$DIMEXE
 40
5.0
  9
$DIMTP
 40
0.0
  9
$DIMTM
 40
0.0
  9
$DIMTXT
 40
15.0
  9
$DIMCEN
 40
2.5
  9
$DIMTSZ
 40
0.0
  9
$DIMTOL
 70
     0
  9
$DIMLIM
 70
     0
  9
$DIMTIH
 70
     0
  9
$DIMTOH
 70
     0
  9
$DIMSE1
 70
     0
  9
$DIMSE2
 70
     0
  9
$DIMTAD
 70
     1
  9
$DIMZIN
 70
     8
  9
$DIMBLK
  1

  9
$DIMASO
 70
     1
  9
$DIMSHO
 70
     1
  9
$DIMPOST
  1

  9
$DIMAPOST
  1

  9
$DIMALT
 70
     0
  9
$DIMALTD
 70
     3
  9
$DIMALTF
 40
0.03937007874016
  9
$DIMLFAC
 40
1.0
  9
$DIMTOFL
 70
     1
  9
$DIMTVP
 40
0.0
  9
$DIMTIX
 70
     0
  9
$DIMSOXD
 70
     0
  9
$DIMSAH
 70
     0
  9
$DIMBLK1
  1

  9
$DIMBLK2
  1

  9
$DIMSTYLE
  2
ISO-25
  9
$DIMCLRD
 70
   256
  9
$DIMCLRE
 70
   256
  9
$DIMCLRT
 70
     0
  9
$DIMTFAC
 40
1.0
  9
$DIMGAP
 40
3.0
  9
$DIMJUST
 70
     0
  9
$DIMSD1
 70
     0
  9
$DIMSD2
 70
     0
  9
$DIMTOLJ
 70
     0
  9
$DIMTZIN
 70
     8
  9
$DIMALTZ
 70
     0
  9
$DIMALTTZ
 70
     0
  9
$DIMUPT
 70
     0
  9
$DIMDEC
 70
     2
  9
$DIMTDEC
 70
     2
  9
$DIMALTU
 70
     2
  9
$DIMALTTD
 70
     3
  9
$DIMTXSTY
  7
Standard
  9
$DIMAUNIT
 70
     0
  9
$DIMADEC
 70
     1
  9
$DIMALTRND
 40
0.0
  9
$DIMAZIN
 70
     0
  9
$DIMDSEP
 70
    44
  9
$DIMATFIT
 70
     3
  9
$DIMFRAC
 70
     0
  9
$DIMLDRBLK
  1

  9
$DIMLUNIT
 70
     2
  9
$DIMLWD
 70
    -1
  9
$DIMLWE
 70
    -1
  9
$DIMTMOVE
 70
     0
  9
$DIMFXL
 40
1.0
  9
$DIMFXLON
 70
     0
  9
$DIMJOGANG
 40
0.7853981633974483
  9
$DIMTFILL
 70
     0
  9
$DIMTFILLCLR
 70
     0
  9
$DIMARCSYM
 70
     0
  9
$DIMLTYPE
  6

  9
$DIMLTEX1
  6

  9
$DIMLTEX2
  6

  9
$DIMTXTDIRECTION
 70
     0
  9
$LUNITS
 70
     2
  9
$LUPREC
 70
     4
  9
$SKETCHINC
 40
1.0
  9
$FILLETRAD
 40
3.0
  9
$AUNITS
 70
     0
  9
$AUPREC
 70
     0
  9
$MENU
  1
.
  9
$ELEVATION
 40
0.0
  9
$PELEVATION
 40
0.0
  9
$THICKNESS
 40
0.0
  9
$LIMCHECK
 70
     0
  9
$CHAMFERA
 40
0.0
  9
$CHAMFERB
 40
0.0
  9
$CHAMFERC
 40
20.0
  9
$CHAMFERD
 40
0.0
  9
$SKPOLY
 70
     0
  9
$TDCREATE
 40
2453585.592652732
  9
$TDUCREATE
 40
2453585.217652732
  9
$TDUPDATE
 40
2458953.754996111
  9
$TDUUPDATE
 40
2458953.379996111
  9
$TDINDWG
 40
2.3557694213
  9
$TDUSRTIMER
 40
0.0001362616
  9
$USRTIMER
 70
     1
  9
$ANGBASE
 50
0.0
  9
$ANGDIR
 70
     0
  9
$PDMODE
 70
     0
  9
$PDSIZE
 40
0.0
  9
$PLINEWID
 40
0.0
  9
$SPLFRAME
 70
     0
  9
$SPLINETYPE
 70
     6
  9
$SPLINESEGS
 70
     8
  9
$HANDSEED
  5
DFE6
  9
$SURFTAB1
 70
     6
  9
$SURFTAB2
 70
     6
  9
$SURFTYPE
 70
     6
  9
$SURFU
 70
     6
  9
$SURFV
 70
     6
  9
$UCSBASE
  2

  9
$UCSNAME
  2

  9
$UCSORG
 10
0.0
 20
0.0
 30
0.0
  9
$UCSXDIR
 10
1.0
 20
0.0
 30
0.0
  9
$UCSYDIR
 10
0.0
 20
1.0
 30
0.0
  9
$UCSORTHOREF
  2

  9
$UCSORTHOVIEW
 70
     0
  9
$UCSORGTOP
 10
0.0
 20
0.0
 30
0.0
  9
$UCSORGBOTTOM
 10
0.0
 20
0.0
 30
0.0
  9
$UCSORGLEFT
 10
0.0
 20
0.0
 30
0.0
  9
$UCSORGRIGHT
 10
0.0
 20
0.0
 30
0.0
  9
$UCSORGFRONT
 10
0.0
 20
0.0
 30
0.0
  9
$UCSORGBACK
 10
0.0
 20
0.0
 30
0.0
  9
$PUCSBASE
  2

  9
$PUCSNAME
  2

  9
$PUCSORG
 10
0.0
 20
0.0
 30
0.0
  9
$PUCSXDIR
 10
1.0
 20
0.0
 30
0.0
  9
$PUCSYDIR
 10
0.0
 20
1.0
 30
0.0
  9
$PUCSORTHOREF
  2

  9
$PUCSORTHOVIEW
 70
     0
  9
$PUCSORGTOP
 10
0.0
 20
0.0
 30
0.0
  9
$PUCSORGBOTTOM
 10
0.0
 20
0.0
 30
0.0
  9
$PUCSORGLEFT
 10
0.0
 20
0.0
 30
0.0
  9
$PUCSORGRIGHT
 10
0.0
 20
0.0
 30
0.0
  9
$PUCSORGFRONT
 10
0.0
 20
0.0
 30
0.0
  9
$PUCSORGBACK
 10
0.0
 20
0.0
 30
0.0
  9
$USERI1
 70
     0
  9
$USERI2
 70
     0
  9
$USERI3
 70
     0
  9
$USERI4
 70
     0
  9
$USERI5
 70
     0
  9
$USERR1
 40
0.0
  9
$USERR2
 40
0.0
  9
$USERR3
 40
0.0
  9
$USERR4
 40
0.0
  9
$USERR5
 40
0.0
  9
$WORLDVIEW
 70
     1
  9
$SHADEDGE
 70
     3
  9
$SHADEDIF
 70
    70
  9
$TILEMODE
 70
     1
  9
$MAXACTVP
 70
    64
  9
$PINSBASE
 10
0.0
 20
0.0
 30
0.0
  9
$PLIMCHECK
 70
     0
  9
$PEXTMIN
 10
0.0
 20
0.0
 30
0.0
  9
$PEXTMAX
 10
0.0
 20
0.0
 30
0.0
  9
$PLIMMIN
 10
0.0
 20
0.0
  9
$PLIMMAX
 10
0.0
 20
0.0
  9
$UNITMODE
 70
     0
  9
$VISRETAIN
 70
     1
  9
$PLINEGEN
 70
     0
  9
$PSLTSCALE
 70
     1
  9
$TREEDEPTH
 70
  3020
  9
$CMLSTYLE
  2
Standard
  9
$CMLJUST
 70
     0
  9
$CMLSCALE
 40
20.0
  9
$PROXYGRAPHICS
 70
     1
  9
$MEASUREMENT
 70
     1
  9
$CELWEIGHT
370
    -1
  9
$ENDCAPS
280
     0
  9
$JOINSTYLE
280
     0
  9
$LWDISPLAY
290
     1
  9
$INSUNITS
 70
     4
  9
$HYPERLINKBASE
  1

  9
$STYLESHEET
  1

  9
$XEDIT
290
     1
  9
$CEPSNTYPE
380
     0
  9
$PSTYLEMODE
290
     1
  9
$FINGERPRINTGUID
  2
{FDEAD578-A652-11D2-9A35-0060089B3A3F}
  9
$VERSIONGUID
  2
{1DC4ADB8-561B-8645-A2CB-A142A2B16992}
  9
$EXTNAMES
290
     1
  9
$PSVPSCALE
 40
0.0
  9
$OLESTARTUP
290
     0
  9
$SORTENTS
280
   127
  9
$INDEXCTL
280
     0
  9
$HIDETEXT
280
     1
  9
$XCLIPFRAME
280
     2
  9
$HALOGAP
280
     0
  9
$OBSCOLOR
 70
   257
  9
$OBSLTYPE
280
     0
  9
$INTERSECTIONDISPLAY
280
     0
  9
$INTERSECTIONCOLOR
 70
   257
  9
$DIMASSOC
280
     1
  9
$PROJECTNAME
  1

  9
$CAMERADISPLAY
290
     0
  9
$LENSLENGTH
 40
50.0
  9
$CAMERAHEIGHT
 40
0.0
  9
$STEPSPERSEC
 40
2.0
  9
$STEPSIZE
 40
6.0
  9
$3DDWFPREC
 40
2.0
  9
$PSOLWIDTH
 40
0.25
  9
$PSOLHEIGHT
 40
4.0
  9
$LOFTANG1
 40
1.570796326794897
  9
$LOFTANG2
 40
1.570796326794897
  9
$LOFTMAG1
 40
0.0
  9
$LOFTMAG2
 40
0.0
  9
$LOFTPARAM
 70
     7
  9
$LOFTNORMALS
280
     1
  9
$LATITUDE
 40
37.795
  9
$LONGITUDE
 40
-122.394
  9
$NORTHDIRECTION
 40
0.0
  9
$TIMEZONE
 70
 -8000
  9
$LIGHTGLYPHDISPLAY
280
     1
  9
$TILEMODELIGHTSYNCH
280
     1
  9
$CMATERIAL
347
D3DA
  9
$SOLIDHIST
280
     0
  9
$SHOWHIST
280
     1
  9
$DWFFRAME
280
     2
  9
$DGNFRAME
280
     2
  9
$REALWORLDSCALE
290
     1
  9
$INTERFERECOLOR
 62
   256
  9
$CSHADOW
280
     0
  9
$SHADOWPLANELOCATION
 40
0.0
  0
ENDSEC
  0
SECTION
  2
CLASSES
  0
CLASS
  1
ACDBDICTIONARYWDFLT
  2
AcDbDictionaryWithDefault
  3
ObjectDBX Classes
 90
        0
 91
        3
280
     0
281
     0
  0
CLASS
  1
ACDBPLACEHOLDER
  2
AcDbPlaceHolder
  3
ObjectDBX Classes
 90
        0
 91
        1
280
     0
281
     0
  0
CLASS
  1
LAYOUT
  2
AcDbLayout
  3
ObjectDBX Classes
 90
        0
 91
        1
280
     0
281
     0
  0
CLASS
  1
DICTIONARYVAR
  2
AcDbDictionaryVar
  3
ObjectDBX Classes
 90
        0
 91
        3
280
     0
281
     0
  0
CLASS
  1
SORTENTSTABLE
  2
AcDbSortentsTable
  3
ObjectDBX Classes
 90
        0
 91
        3
280
     0
281
     0
  0
CLASS
  1
VISUALSTYLE
  2
AcDbVisualStyle
  3
ObjectDBX Classes
 90
     4095
 91
        3
280
     0
281
     0
  0
CLASS
  1
SCALE
  2
AcDbScale
  3
ObjectDBX Classes
 90
     1153
 91
        3
280
     0
281
     0
  0
CLASS
  1
MATERIAL
  2
AcDbMaterial
  3
ObjectDBX Classes
 90
     1153
 91
        3
280
     0
281
     0
  0
CLASS
  1
TABLESTYLE
  2
AcDbTableStyle
  3
ObjectDBX Classes
 90
     4095
 91
        3
280
     0
281
     0
  0
CLASS
  1
SUN
  2
AcDbSun
  3
SCENEOE
 90
     1153
 91
        3
280
     0
281
     0
  0
CLASS
  1
RASTERVARIABLES
  2
AcDbRasterVariables
  3
ISM
 90
        0
 91
        3
280
     0
281
     0
  0
CLASS
  1
MLEADERSTYLE
  2
AcDbMLeaderStyle
  3
ACDB_MLEADERSTYLE_CLASS
 90
     4095
 91
        3
280
     0
281
     0
  0
CLASS
  1
ACDBSECTIONVIEWSTYLE
  2
AcDbSectionViewStyle
  3
ObjectDBX Classes
 90
     1025
 91
        3
280
     0
281
     0
  0
CLASS
  1
ACDBDETAILVIEWSTYLE
  2
AcDbDetailViewStyle
  3
ObjectDBX Classes
 90
     1025
 91
        3
280
     0
281
     0
  0
CLASS
  1
CELLSTYLEMAP
  2
AcDbCellStyleMap
  3
ObjectDBX Classes
 90
     1152
 91
        3
280
     0
281
     0
  0
ENDSEC
  0
SECTION
  2
TABLES
  0
TABLE
  2
VPORT
  5
8
330
0
100
AcDbSymbolTable
 70
     1
  0
VPORT
  5
CD81
330
8
100
AcDbSymbolTableRecord
100
AcDbViewportTableRecord
  2
*Active
 70
     0
 10
0.0
 20
0.0
 11
1.0
 21
1.0
 12
-4789.532155641724
 22
-1368.685012284192
 13
0.0
 23
0.0
 14
10.0
 24
10.0
 15
10.0
 25
10.0
 16
0.0
 26
0.0
 36
1.0
 17
0.0
 27
0.0
 37
0.0
 40
876.6268416000006
 41
2.422839506172839
 42
50.0
 43
0.0
 44
0.0
 50
0.0
 51
0.0
 71
    16
 72
   100
 73
     1
 74
     2
 75
     0
 76
     0
 77
     0
 78
     0
281
     0
 65
     1
110
0.0
120
0.0
130
0.0
111
1.0
121
0.0
131
0.0
112
0.0
122
1.0
132
0.0
 79
     0
146
0.0
348
D3C5
 60
     3
 61
     5
292
     1
282
     1
141
0.0
142
0.0
 63
   256
361
D3E1
1001
ACAD_NAV_VCDISPLAY
1070
     3
  0
ENDTAB
  0
TABLE
  2
LTYPE
  5
5
330
0
100
AcDbSymbolTable
 70
     4
  0
LTYPE
  5
14
330
5
100
AcDbSymbolTableRecord
100
AcDbLinetypeTableRecord
  2
ByBlock
 70
     0
  3

 72
    65
 73
     0
 40
0.0
  0
LTYPE
  5
15
330
5
100
AcDbSymbolTableRecord
100
AcDbLinetypeTableRecord
  2
ByLayer
 70
     0
  3

 72
    65
 73
     0
 40
0.0
  0
LTYPE
  5
16
330
5
100
AcDbSymbolTableRecord
100
AcDbLinetypeTableRecord
  2
Continuous
 70
     0
  3
Solid line
 72
    65
 73
     0
 40
0.0
  0
LTYPE
  5
4B2
330
5
100
AcDbSymbolTableRecord
100
AcDbLinetypeTableRecord
  2
CENTER
 70
     0
  3
Center ____ _ ____ _ ____ _ ____ _ ____ _ ____
 72
    65
 73
     4
 40
50.8
 49
31.75
 74
     0
 49
-6.35
 74
     0
 49
6.35
 74
     0
 49
-6.35
 74
     0
  0
LTYPE
  5
4B3
330
5
100
AcDbSymbolTableRecord
100
AcDbLinetypeTableRecord
  2
HIDDEN
 70
     0
  3
Hidden __ __ __ __ __ __ __ __ __ __ __ __ __ _
 72
    65
 73
     2
 40
9.524999999999999
 49
6.35
 74
     0
 49
-3.175
 74
     0
  0
LTYPE
  5
461E
330
5
100
AcDbSymbolTableRecord
100
AcDbLinetypeTableRecord
  2
DASHED2
 70
     0
  3
Dashed (.5x) _ _ _ _ _ _ _ _ _ _ _ _ _ _ _ _ _
 72
    65
 73
     2
 40
9.524999999999999
 49
6.35
 74
     0
 49
-3.175
 74
     0
  0
ENDTAB
  0
TABLE
  2
LAYER
  5
2
102
{ACAD_XDICTIONARY
360
4FB
102
}
330
0
100
AcDbSymbolTable
 70
     7
  0
LAYER
  5
10
330
2
100
AcDbSymbolTableRecord
100
AcDbLayerTableRecord
  2
0
 70
     0
 62
     7
  6
Continuous
370
     9
390
F
347
D3DC
348
0
  0
LAYER
  5
44
330
2
100
AcDbSymbolTableRecord
100
AcDbLayerTableRecord
  2
図面枠
 70
     0
 62
     7
  6
Continuous
370
    18
390
F
347
D3DC
348
0
  0
LAYER
  5
45
330
2
100
AcDbSymbolTableRecord
100
AcDbLayerTableRecord
  2
構成表
 70
     0
 62
     7
  6
Continuous
370
    13
390
F
347
D3DC
348
0
  0
LAYER
  5
30E
330
2
100
AcDbSymbolTableRecord
100
AcDbLayerTableRecord
  2
Defpoints
 70
     0
 62
     7
  6
Continuous
290
     0
370
    -3
390
F
347
D3DC
348
0
  0
LAYER
  5
1AA9
330
2
100
AcDbSymbolTableRecord
100
AcDbLayerTableRecord
  2
object
 70
     0
 62
     7
  6
Continuous
370
     9
390
F
347
D3DC
348
0
  0
LAYER
  5
CDC6
330
2
100
AcDbSymbolTableRecord
100
AcDbLayerTableRecord
  2
9 横幕板
 70
     0
 62
     6
  6
Continuous
370
    -3
390
F
347
D3DC
348
0
  0
LAYER
  5
D666
330
2
100
AcDbSymbolTableRecord
100
AcDbLayerTableRecord
  2
トレース用
 70
     0
 62
     4
  6
Continuous
370
    -3
390
F
347
D3DC
348
0
1001
AcAecLayerStandard
1000

1000

  0
ENDTAB
  0
TABLE
  2
STYLE
  5
3
330
0
100
AcDbSymbolTable
 70
     3
  0
STYLE
  5
11
330
3
100
AcDbSymbolTableRecord
100
AcDbTextStyleTableRecord
  2
Standard
 70
     0
 40
0.0
 41
1.0
 50
0.0
 71
     0
 42
2.5
  3
txt.shx
  4
bigfont.shx
  0
STYLE
  5
47
330
3
100
AcDbSymbolTableRecord
100
AcDbTextStyleTableRecord
  2
ARIAL_TTF
 70
     0
 40
2.5
 41
1.0
 50
0.0
 71
     0
 42
2.5
  3
msgothic.ttc
  4

1001
ACAD
1000
MS PGothic
1071
    32818
  0
STYLE
  5
49
330
3
100
AcDbSymbolTableRecord
100
AcDbTextStyleTableRecord
  2
注記
 70
     0
 40
0.0
 41
1.0
 50
0.0
 71
     0
 42
2.5
  3
txt.shx
  4
bigfont.shx
  0
ENDTAB
  0
TABLE
  2
VIEW
  5
6
330
0
100
AcDbSymbolTable
 70
     0
  0
ENDTAB
  0
TABLE
  2
UCS
  5
7
330
0
100
AcDbSymbolTable
 70
     0
  0
ENDTAB
  0
TABLE
  2
APPID
  5
9
330
0
100
AcDbSymbolTable
 70
     6
  0
APPID
  5
12
330
9
100
AcDbSymbolTableRecord
100
AcDbRegAppTableRecord
  2
ACAD
 70
     0
  0
APPID
  5
D13D
330
9
100
AcDbSymbolTableRecord
100
AcDbRegAppTableRecord
  2
PE_DIMMEASUREMENT
 70
     0
  0
APPID
  5
D661
330
9
100
AcDbSymbolTableRecord
100
AcDbRegAppTableRecord
  2
AcLayerTools
 70
     0
  0
APPID
  5
D667
330
9
100
AcDbSymbolTableRecord
100
AcDbRegAppTableRecord
  2
AcAecLayerStandard
 70
     0
  0
APPID
  5
DE85
330
9
100
AcDbSymbolTableRecord
100
AcDbRegAppTableRecord
  2
ACAD_EXEMPT_FROM_CAD_STANDARDS
 70
     0
  0
APPID
  5
DEF4
330
9
100
AcDbSymbolTableRecord
100
AcDbRegAppTableRecord
  2
ACAD_NAV_VCDISPLAY
 70
     0
  0
ENDTAB
  0
TABLE
  2
DIMSTYLE
  5
A
330
0
100
AcDbSymbolTable
 70
     2
100
AcDbDimStyleTable
  0
DIMSTYLE
105
27
102
{ACAD_REACTORS
330
DD4A
330
DD6C
330
DD6D
330
DD6F
330
DD70
330
DD72
330
DD74
330
DD75
330
DD96
330
DD97
330
DD98
330
DDA5
330
DDA6
330
DE51
330
DE67
102
}
330
A
100
AcDbSymbolTableRecord
100
AcDbDimStyleTableRecord
  2
ISO-25
 70
     0
 41
10.0
 42
5.0
 43
3.75
 44
5.0
 73
     0
 74
     0
 77
     1
 78
     8
140
15.0
141
2.5
143
0.03937007874016
147
3.0
171
     3
172
     1
176
   256
177
   256
178
     0
179
     1
271
     2
272
     2
274
     3
278
    44
283
     0
284
     8
340
11
371
    -1
372
    -1
  0
DIMSTYLE
105
76E6
330
A
100
AcDbSymbolTableRecord
100
AcDbDimStyleTableRecord
  2
STANDARD
 70
     0
178
     0
340
11
  0
ENDTAB
  0
TABLE
  2
BLOCK_RECORD
  5
1
330
0
100
AcDbSymbolTable
 70
    14
  0
BLOCK_RECORD
  5
1F
102
{ACAD_XDICTIONARY
360
DEBC
102
}
330
1
100
AcDbSymbolTableRecord
100
AcDbBlockTableRecord
  2
*Model_Space
340
22
 70
     0
280
     1
281
     0
  0
BLOCK_RECORD
  5
3B5
330
1
100
AcDbSymbolTableRecord
100
AcDbBlockTableRecord
  2
*Paper_Space
340
3B6
 70
     0
280
     1
281
     0
  0
BLOCK_RECORD
  5
F50
330
1
100
AcDbSymbolTableRecord
100
AcDbBlockTableRecord
  2
A$C75CF5BB1
340
0
102
{BLKREFS
331
F6B
102
}
 70
     0
280
     1
281
     0
  0
BLOCK_RECORD
  5
CDF0
330
1
100
AcDbSymbolTableRecord
100
AcDbBlockTableRecord
  2
_None
340
0
 70
     0
280
     1
281
     0
  0
BLOCK_RECORD
  5
DDA7
330
1
100
AcDbSymbolTableRecord
100
AcDbBlockTableRecord
  2
*D2
340
0
 70
     0
280
     1
281
     0
  0
BLOCK_RECORD
  5
DDB3
330
1
100
AcDbSymbolTableRecord
100
AcDbBlockTableRecord
  2
*D3
340
0
 70
     0
280
     1
281
     0
  0
BLOCK_RECORD
  5
DDBF
330
1
100
AcDbSymbolTableRecord
100
AcDbBlockTableRecord
  2
*D4
340
0
 70
     0
280
     1
281
     0
  0
BLOCK_RECORD
  5
DDD7
330
1
100
AcDbSymbolTableRecord
100
AcDbBlockTableRecord
  2
*D6
340
0
 70
     0
280
     1
281
     0
  0
BLOCK_RECORD
  5
DDE6
330
1
100
AcDbSymbolTableRecord
100
AcDbBlockTableRecord
  2
*D7
340
0
 70
     0
280
     1
281
     0
  0
BLOCK_RECORD
  5
DDF2
330
1
100
AcDbSymbolTableRecord
100
AcDbBlockTableRecord
  2
*D8
340
0
 70
     0
280
     1
281
     0
  0
BLOCK_RECORD
  5
DE00
330
1
100
AcDbSymbolTableRecord
100
AcDbBlockTableRecord
  2
*D9
340
0
 70
     0
280
     1
281
     0
  0
BLOCK_RECORD
  5
DE0E
330
1
100
AcDbSymbolTableRecord
100
AcDbBlockTableRecord
  2
*D10
340
0
 70
     0
280
     1
281
     0
  0
BLOCK_RECORD
  5
DE1D
330
1
100
AcDbSymbolTableRecord
100
AcDbBlockTableRecord
  2
*D11
340
0
 70
     0
280
     1
281
     0
  0
BLOCK_RECORD
  5
DE37
330
1
100
AcDbSymbolTableRecord
100
AcDbBlockTableRecord
  2
*D13
340
0
 70
     0
280
     1
281
     0
  0
BLOCK_RECORD
  5
DE52
330
1
100
AcDbSymbolTableRecord
100
AcDbBlockTableRecord
  2
*D14
340
0
 70
     0
280
     1
281
     0
  0
BLOCK_RECORD
  5
DE68
330
1
100
AcDbSymbolTableRecord
100
AcDbBlockTableRecord
  2
*D15
340
0
 70
     0
280
     1
281
     0
  0
ENDTAB
  0
ENDSEC
  0
SECTION
  2
BLOCKS
  0
BLOCK
  5
20
330
1F
100
AcDbEntity
  8
0
100
AcDbBlockBegin
  2
*Model_Space
 70
     0
 10
0.0
 20
0.0
 30
0.0
  3
*Model_Space
  1

  0
ENDBLK
  5
21
330
1F
100
AcDbEntity
  8
0
100
AcDbBlockEnd
  0
BLOCK
  5
3B7
330
3B5
100
AcDbEntity
 67
     1
  8
0
100
AcDbBlockBegin
  2
*Paper_Space
 70
     0
 10
0.0
 20
0.0
 30
0.0
  3
*Paper_Space
  1

  0
ENDBLK
  5
3B8
330
3B5
100
AcDbEntity
 67
     1
  8
0
100
AcDbBlockEnd
  0
BLOCK
  5
F68
330
F50
100
AcDbEntity
  8
0
100
AcDbBlockBegin
  2
A$C75CF5BB1
 70
     0
 10
0.0
 20
0.0
 30
0.0
  3
A$C75CF5BB1
  1

  0
HATCH
  5
F51
330
F50
100
AcDbEntity
  8
0
100
AcDbHatch
 10
0.0
 20
0.0
 30
0.0
210
0.0
220
0.0
230
1.0
  2
SOLID
 70
     1
 71
     1
 91
        1
 92
        1
 93
        4
 72
     1
 10
8.89297259152903
 20
14.23122768541785
 11
7.582201618425927
 21
11.98419173152681
 72
     1
 10
7.582201618425927
 20
11.98419173152681
 11
16.94485142630529
 21
5.992095854484006
 72
     1
 10
16.94485142630529
 20
5.992095854484006
 11
18.06836940325081
 21
8.051878812217439
 72
     1
 10
18.06836940325081
 20
8.051878812217439
 11
8.89297259152903
 21
14.23122768541785
 97
        1
330
F5E
 75
     0
 76
     1
 98
        1
 10
-178.248778902502
 20
-138.7628445698422
  0
HATCH
  5
F52
330
F50
100
AcDbEntity
  8
0
100
AcDbHatch
 10
0.0
 20
0.0
 30
0.0
210
0.0
220
0.0
230
1.0
  2
SOLID
 70
     1
 71
     1
 91
        1
 92
        1
 93
        4
 72
     1
 10
5.89692465300763
 20
13.85672169310268
 11
3.83714169527417
 21
11.98419173152681
 72
     1
 10
3.83714169527417
 20
11.98419173152681
 11
13.01253850699595
 21
-0.0000000225587939
 72
     1
 10
13.01253850699595
 20
-0.0000000225587939
 11
14.88506846857183
 21
2.059782935174638
 72
     1
 10
14.88506846857183
 20
2.059782935174638
 11
5.89692465300763
 21
13.85672169310268
 97
        1
330
F56
 75
     0
 76
     1
 98
        1
 10
-178.248778902502
 20
-138.7628445698422
  0
HATCH
  5
F53
330
F50
100
AcDbEntity
  8
0
100
AcDbHatch
 10
0.0
 20
0.0
 30
0.0
210
0.0
220
0.0
230
1.0
  2
SOLID
 70
     1
 71
     1
 91
        1
 92
        1
 93
        2
 72
     4
 94
        3
 73
     0
 74
     0
 95
       19
 96
       15
 40
0.0
 40
0.0
 40
0.0
 40
0.0
 40
3.333944811883984
 40
6.382202742415473
 40
8.728476059292465
 40
10.8634887042431
 40
12.37317062340675
 40
14.27675648231389
 40
16.03631152080926
 40
18.68446878841982
 40
21.53662145267858
 40
26.41958218440638
 40
31.45108099286649
 40
34.93418806288568
 40
34.93418806288568
 40
34.93418806288568
 40
34.93418806288568
 10
14.69781547241425
 20
11.79693873536922
 10
15.30065711720135
 20
12.73053545835222
 10
16.64821468589781
 20
14.38348692883238
 10
18.73706433652075
 20
16.44866234262639
 10
20.97427308359977
 20
17.63351900805873
 10
22.88783186944573
 20
18.25935612211816
 10
24.82250825305366
 20
18.12408819178185
 10
26.13874928962952
 20
16.77858326759116
 10
26.67610437941633
 20
14.69023887059691
 10
26.20182077457719
 20
12.24638487341139
 10
24.75063238975753
 20
9.106537673646244
 10
22.50829645947604
 20
5.446429292924222
 10
19.268259703604
 20
2.321717343164494
 10
16.99026296791448
 20
0.6199314888543483
 10
16.00858644551735
 20
-0.0000000225587655
 97
        0
 72
     4
 94
        3
 73
     0
 74
     0
 95
       16
 96
       12
 40
0.0
 40
0.0
 40
0.0
 40
0.0
 40
2.729658031901366
 40
6.205206813656936
 40
9.40498741464165
 40
12.98245088308514
 40
14.55191698372
 40
15.95963962091125
 40
17.49417965189398
 40
18.84448021015488
 40
20.83500686318146
 40
20.83500686318146
 40
20.83500686318146
 40
20.83500686318146
 10
16.00858644551735
 20
-0.0000000225587655
 10
16.57129517822329
 20
0.7150184628550846
 10
17.51627146341269
 20
2.574839685837986
 10
19.0292278246489
 20
5.310522326750004
 10
20.28787386842882
 20
8.517181735922378
 10
20.68623722607424
 20
11.27867575637083
 10
20.26253082314813
 20
13.55580492102754
 10
18.78455845189632
 20
14.41550270950412
 10
17.32280315976641
 20
13.94702687127167
 10
16.01672955912511
 20
12.99567280631055
 10
15.16825877856499
 20
12.2648352359962
 10
14.69781547241425
 20
11.79693873536922
 97
        0
 97
        2
330
F55
330
F54
 75
     0
 76
     1
 98
        1
 10
-178.248778902502
 20
-138.7628445698422
  0
SPLINE
  5
F54
102
{ACAD_REACTORS
330
F53
102
}
330
F50
100
AcDbEntity
  8
0
100
AcDbSpline
210
0.0
220
0.0
230
1.0
 70
  1064
 71
     3
 72
    16
 73
    12
 74
    10
 42
0.000000001
 43
0.0000000001
 44
0.0000000001
 12
0.7090233714310423
 22
0.7051849819476861
 32
0.0
 13
-0.6184387122448335
 23
-0.785833035190652
 33
0.0
 40
0.0
 40
0.0
 40
0.0
 40
0.0
 40
1.99052665302658
 40
3.340827211287483
 40
4.875367242270217
 40
6.283089879461464
 40
7.852555980096326
 40
11.43001944853981
 40
14.62980004952453
 40
18.1053488312801
 40
20.83500686318146
 40
20.83500686318146
 40
20.83500686318146
 40
20.83500686318146
 10
14.69781547241425
 20
11.79693873536922
 30
0.0
 10
15.168258778565
 20
12.2648352359962
 30
0.0
 10
16.01672955912515
 20
12.99567280631055
 30
0.0
 10
17.3228031597664
 20
13.94702687127169
 30
0.0
 10
18.78455845189636
 20
14.41550270950413
 30
0.0
 10
20.26253082314814
 20
13.55580492102757
 30
0.0
 10
20.68623722607427
 20
11.27867575637085
 30
0.0
 10
20.28787386842882
 20
8.517181735922351
 30
0.0
 10
19.0292278246489
 20
5.310522326750058
 30
0.0
 10
17.5162714634127
 20
2.574839685837951
 30
0.0
 10
16.5712951782233
 20
0.7150184628550984
 30
0.0
 10
16.00858644551735
 20
-0.0000000225587655
 30
0.0
 11
14.69781547241425
 21
11.79693873536922
 31
0.0
 11
16.19583944167493
 21
13.10770970847233
 31
0.0
 11
17.31935741862046
 21
13.85672169310271
 31
0.0
 11
18.81738138788117
 21
14.18949382866828
 31
0.0
 11
20.03452586290547
 21
13.48221570078752
 31
0.0
 11
20.50265835329944
 21
11.98419173152683
 31
0.0
 11
20.12815236098427
 21
8.42638480453266
 31
0.0
 11
19.00463438403875
 21
5.43033686601126
 31
0.0
 11
17.41298391669926
 21
2.340662429411083
 31
0.0
 11
16.00858644551735
 21
-0.0000000225587655
 31
0.0
  0
SPLINE
  5
F55
102
{ACAD_REACTORS
330
F53
102
}
330
F50
100
AcDbEntity
  8
0
100
AcDbSpline
210
0.0
220
0.0
230
1.0
 70
  1064
 71
     3
 72
    19
 73
    15
 74
    13
 42
0.000000001
 43
0.0000000001
 44
0.0000000001
 12
0.5424579698844385
 22
0.8400829428746032
 32
0.0
 13
-0.8455179550868933
 23
-0.5339469895276856
 33
0.0
 40
0.0
 40
0.0
 40
0.0
 40
0.0
 40
3.333944811883984
 40
6.382202742415473
 40
8.728476059292465
 40
10.8634887042431
 40
12.37317062340675
 40
14.27675648231389
 40
16.03631152080926
 40
18.68446878841982
 40
21.53662145267858
 40
26.41958218440638
 40
31.45108099286649
 40
34.93418806288568
 40
34.93418806288568
 40
34.93418806288568
 40
34.93418806288568
 10
14.69781547241425
 20
11.79693873536922
 30
0.0
 10
15.30065711720136
 20
12.73053545835223
 30
0.0
 10
16.64821468589777
 20
14.38348692883238
 30
0.0
 10
18.7370643365208
 20
16.44866234262639
 30
0.0
 10
20.97427308359966
 20
17.63351900805871
 30
0.0
 10
22.88783186944579
 20
18.25935612211816
 30
0.0
 10
24.82250825305364
 20
18.12408819178186
 30
0.0
 10
26.13874928962948
 20
16.77858326759112
 30
0.0
 10
26.67610437941628
 20
14.69023887059693
 30
0.0
 10
26.20182077457724
 20
12.24638487341138
 30
0.0
 10
24.75063238975755
 20
9.106537673646262
 30
0.0
 10
22.50829645947608
 20
5.446429292924261
 30
0.0
 10
19.26825970360403
 20
2.321717343164515
 30
0.0
 10
16.99026296791446
 20
0.6199314888543493
 30
0.0
 10
16.00858644551735
 20
-0.0000000225587655
 30
0.0
 11
14.69781547241425
 21
11.79693873536922
 31
0.0
 11
16.75759843014771
 21
14.41848068157549
 31
0.0
 11
19.00463438403875
 21
16.47826363930892
 31
0.0
 11
21.06441734177221
 21
17.60178161625444
 31
0.0
 11
23.12420029950567
 21
18.16354060472719
 31
0.0
 11
24.62222426876639
 21
17.97628760856961
 31
0.0
 11
26.00791279123979
 21
16.67110316148302
 31
0.0
 11
26.49475423034224
 21
14.98023967004821
 31
0.0
 11
26.12024823802707
 21
12.358697723842
 31
0.0
 11
24.99673026108155
 21
9.737155777635792
 31
0.0
 11
22.37518831487534
 21
5.617589862168842
 31
0.0
 11
18.81738138788117
 21
2.059782935174667
 31
0.0
 11
16.00858644551735
 21
-0.0000000225587655
 31
0.0
  0
POLYLINE
  5
F56
102
{ACAD_REACTORS
330
F52
102
}
330
F50
100
AcDbEntity
  8
0
370
     0
100
AcDb2dPolyline
 66
     1
 10
0.0
 20
0.0
 30
0.0
  0
VERTEX
  5
F57
330
F56
100
AcDbEntity
  8
0
370
     0
100
AcDbVertex
100
AcDb2dVertex
 10
5.89692465300763
 20
13.85672169310268
 30
0.0
  0
VERTEX
  5
F58
330
F56
100
AcDbEntity
  8
0
370
     0
100
AcDbVertex
100
AcDb2dVertex
 10
3.83714169527417
 20
11.98419173152681
 30
0.0
  0
VERTEX
  5
F59
330
F56
100
AcDbEntity
  8
0
370
     0
100
AcDbVertex
100
AcDb2dVertex
 10
13.01253850699595
 20
-0.0000000225587939
 30
0.0
  0
VERTEX
  5
F5A
330
F56
100
AcDbEntity
  8
0
370
     0
100
AcDbVertex
100
AcDb2dVertex
 10
14.88506846857183
 20
2.059782935174638
 30
0.0
  0
VERTEX
  5
F5B
330
F56
100
AcDbEntity
  8
0
370
     0
100
AcDbVertex
100
AcDb2dVertex
 10
5.89692465300763
 20
13.85672169310268
 30
0.0
  0
VERTEX
  5
F5C
330
F56
100
AcDbEntity
  8
0
370
     0
100
AcDbVertex
100
AcDb2dVertex
 10
5.89692465300763
 20
13.85672169310268
 30
0.0
  0
SEQEND
  5
F5D
330
F56
100
AcDbEntity
  8
0
370
     0
  0
POLYLINE
  5
F5E
102
{ACAD_REACTORS
330
F51
102
}
330
F50
100
AcDbEntity
  8
0
370
     0
100
AcDb2dPolyline
 66
     1
 10
0.0
 20
0.0
 30
0.0
  0
VERTEX
  5
F5F
330
F5E
100
AcDbEntity
  8
0
370
     0
100
AcDbVertex
100
AcDb2dVertex
 10
8.89297259152903
 20
14.23122768541785
 30
0.0
  0
VERTEX
  5
F60
330
F5E
100
AcDbEntity
  8
0
370
     0
100
AcDbVertex
100
AcDb2dVertex
 10
7.582201618425927
 20
11.98419173152681
 30
0.0
  0
VERTEX
  5
F61
330
F5E
100
AcDbEntity
  8
0
370
     0
100
AcDbVertex
100
AcDb2dVertex
 10
16.94485142630529
 20
5.992095854484006
 30
0.0
  0
VERTEX
  5
F62
330
F5E
100
AcDbEntity
  8
0
370
     0
100
AcDbVertex
100
AcDb2dVertex
 10
18.06836940325081
 20
8.051878812217439
 30
0.0
  0
VERTEX
  5
F63
330
F5E
100
AcDbEntity
  8
0
370
     0
100
AcDbVertex
100
AcDb2dVertex
 10
8.89297259152903
 20
14.23122768541785
 30
0.0
  0
VERTEX
  5
F64
330
F5E
100
AcDbEntity
  8
0
370
     0
100
AcDbVertex
100
AcDb2dVertex
 10
8.89297259152903
 20
14.23122768541785
 30
0.0
  0
SEQEND
  5
F65
330
F5E
100
AcDbEntity
  8
0
370
     0
  0
HATCH
  5
F66
330
F50
100
AcDbEntity
  8
0
100
AcDbHatch
 10
0.0
 20
0.0
 30
0.0
210
0.0
220
0.0
230
1.0
  2
SOLID
 70
     1
 71
     1
 91
        1
 92
        1
 93
        1
 72
     2
 10
2.419737941649771
 20
16.12464737753501
 40
2.419738069713412
 50
0.0
 51
360.0
 73
     1
 97
        1
330
F67
 75
     0
 76
     1
 98
        1
 10
-178.248778902502
 20
-138.7628445698422
  0
CIRCLE
  5
F67
102
{ACAD_REACTORS
330
F66
102
}
330
F50
100
AcDbEntity
  8
0
100
AcDbCircle
 10
2.419737941649771
 20
16.12464737753501
 30
0.0
 40
2.419738069713412
  0
ENDBLK
  5
F69
330
F50
100
AcDbEntity
  8
0
100
AcDbBlockEnd
  0
BLOCK
  5
CDF1
330
CDF0
100
AcDbEntity
  8
0
100
AcDbBlockBegin
  2
_None
 70
     0
 10
0.0
 20
0.0
 30
0.0
  3
_None
  1

  0
ENDBLK
  5
CDF2
330
CDF0
100
AcDbEntity
  8
0
100
AcDbBlockEnd
  0
BLOCK
  5
DDA8
330
DDA7
100
AcDbEntity
  8
0
100
AcDbBlockBegin
  2
*D2
 70
     1
 10
0.0
 20
0.0
 30
0.0
  3
*D2
  1

  0
LINE
  5
DF53
330
DDA7
100
AcDbEntity
  8
0
440
 16777216
100
AcDbLine
 10
-4447.648904868778
 20
-1514.22421061364
 30
0.0
 11
-4447.648904868778
 21
-1561.080411218085
 31
0.0
  0
LINE
  5
DF54
330
DDA7
100
AcDbEntity
  8
0
440
 16777216
100
AcDbLine
 10
-4921.648904868778
 20
-1514.22421061364
 30
0.0
 11
-4921.648904868778
 21
-1561.080411218085
 31
0.0
  0
LINE
  5
DF55
330
DDA7
100
AcDbEntity
  8
0
440
 16777216
100
AcDbLine
 10
-4457.648904868778
 20
-1556.080411218085
 30
0.0
 11
-4911.648904868778
 21
-1556.080411218085
 31
0.0
  0
SOLID
  5
DF56
330
DDA7
100
AcDbEntity
  8
0
440
 16777216
100
AcDbTrace
 10
-4457.648904868778
 20
-1554.413744551418
 30
0.0
 11
-4457.648904868778
 21
-1557.747077884752
 31
0.0
 12
-4447.648904868778
 22
-1556.080411218085
 32
0.0
 13
-4447.648904868778
 23
-1556.080411218085
 33
0.0
  0
SOLID
  5
DF57
330
DDA7
100
AcDbEntity
  8
0
440
 16777216
100
AcDbTrace
 10
-4911.648904868778
 20
-1554.413744551418
 30
0.0
 11
-4911.648904868778
 21
-1557.747077884752
 31
0.0
 12
-4921.648904868778
 22
-1556.080411218085
 32
0.0
 13
-4921.648904868778
 23
-1556.080411218085
 33
0.0
  0
MTEXT
  5
DF58
330
DDA7
100
AcDbEntity
  8
0
 62
     0
440
 16777216
100
AcDbMText
 10
-4684.648904868778
 20
-1545.580411218085
 30
0.0
 40
15.0
 41
0.0
 46
0.0
 71
     5
 72
     1
  1
474
 73
     1
 44
1.0
  0
POINT
  5
DF59
330
DDA7
100
AcDbEntity
  8
Defpoints
 62
     0
440
 16777216
100
AcDbPoint
 10
-4447.648904868778
 20
-1509.22421061364
 30
0.0
  0
POINT
  5
DF5A
330
DDA7
100
AcDbEntity
  8
Defpoints
 62
     0
440
 16777216
100
AcDbPoint
 10
-4921.648904868778
 20
-1509.22421061364
 30
0.0
  0
POINT
  5
DF5B
330
DDA7
100
AcDbEntity
  8
Defpoints
 62
     0
440
 16777216
100
AcDbPoint
 10
-4921.648904868778
 20
-1556.080411218085
 30
0.0
  0
ENDBLK
  5
DDA9
330
DDA7
100
AcDbEntity
  8
0
100
AcDbBlockEnd
  0
BLOCK
  5
DDB4
330
DDB3
100
AcDbEntity
  8
0
100
AcDbBlockBegin
  2
*D3
 70
     1
 10
0.0
 20
0.0
 30
0.0
  3
*D3
  1

  0
LINE
  5
DF5C
330
DDB3
100
AcDbEntity
  8
0
440
 16777216
100
AcDbLine
 10
-4447.648904868779
 20
-1208.519228537048
 30
0.0
 11
-4447.648904868779
 21
-1261.950034085536
 31
0.0
  0
LINE
  5
DF5D
330
DDB3
100
AcDbEntity
  8
0
440
 16777216
100
AcDbLine
 10
-4677.648904868779
 20
-1203.319228537047
 30
0.0
 11
-4677.648904868779
 21
-1261.950034085536
 31
0.0
  0
LINE
  5
DF5E
330
DDB3
100
AcDbEntity
  8
0
440
 16777216
100
AcDbLine
 10
-4457.648904868779
 20
-1256.950034085536
 30
0.0
 11
-4667.648904868779
 21
-1256.950034085536
 31
0.0
  0
SOLID
  5
DF5F
330
DDB3
100
AcDbEntity
  8
0
440
 16777216
100
AcDbTrace
 10
-4457.648904868779
 20
-1255.283367418869
 30
0.0
 11
-4457.648904868779
 21
-1258.616700752202
 31
0.0
 12
-4447.648904868779
 22
-1256.950034085536
 32
0.0
 13
-4447.648904868779
 23
-1256.950034085536
 33
0.0
  0
SOLID
  5
DF60
330
DDB3
100
AcDbEntity
  8
0
440
 16777216
100
AcDbTrace
 10
-4667.648904868779
 20
-1255.283367418869
 30
0.0
 11
-4667.648904868779
 21
-1258.616700752202
 31
0.0
 12
-4677.648904868779
 22
-1256.950034085536
 32
0.0
 13
-4677.648904868779
 23
-1256.950034085536
 33
0.0
  0
MTEXT
  5
DF61
330
DDB3
100
AcDbEntity
  8
0
 62
     0
440
 16777216
100
AcDbMText
 10
-4592.648904868778
 20
-1246.450034085536
 30
0.0
 40
15.0
 41
0.0
 46
0.0
 71
     5
 72
     1
  1
230
 73
     1
 44
1.0
  0
POINT
  5
DF62
330
DDB3
100
AcDbEntity
  8
Defpoints
 62
     0
440
 16777216
100
AcDbPoint
 10
-4447.648904868779
 20
-1203.519228537048
 30
0.0
  0
POINT
  5
DF63
330
DDB3
100
AcDbEntity
  8
Defpoints
 62
     0
440
 16777216
100
AcDbPoint
 10
-4677.648904868779
 20
-1198.319228537047
 30
0.0
  0
POINT
  5
DF64
330
DDB3
100
AcDbEntity
  8
Defpoints
 62
     0
440
 16777216
100
AcDbPoint
 10
-4677.648904868779
 20
-1256.950034085536
 30
0.0
  0
ENDBLK
  5
DDB5
330
DDB3
100
AcDbEntity
  8
0
100
AcDbBlockEnd
  0
BLOCK
  5
DDC0
330
DDBF
100
AcDbEntity
  8
0
100
AcDbBlockBegin
  2
*D4
 70
     1
 10
0.0
 20
0.0
 30
0.0
  3
*D4
  1

  0
LINE
  5
DF65
330
DDBF
100
AcDbEntity
  8
0
440
 16777216
100
AcDbLine
 10
-4861.648904868778
 20
-1203.319228537048
 30
0.0
 11
-4861.648904868778
 21
-1261.950034085536
 31
0.0
  0
LINE
  5
DF66
330
DDBF
100
AcDbEntity
  8
0
440
 16777216
100
AcDbLine
 10
-4677.648904868779
 20
-1203.319228537047
 30
0.0
 11
-4677.648904868779
 21
-1261.950034085536
 31
0.0
  0
LINE
  5
DF67
330
DDBF
100
AcDbEntity
  8
0
440
 16777216
100
AcDbLine
 10
-4851.648904868778
 20
-1256.950034085536
 30
0.0
 11
-4687.648904868779
 21
-1256.950034085536
 31
0.0
  0
SOLID
  5
DF68
330
DDBF
100
AcDbEntity
  8
0
440
 16777216
100
AcDbTrace
 10
-4851.648904868778
 20
-1255.283367418869
 30
0.0
 11
-4851.648904868778
 21
-1258.616700752202
 31
0.0
 12
-4861.648904868778
 22
-1256.950034085536
 32
0.0
 13
-4861.648904868778
 23
-1256.950034085536
 33
0.0
  0
SOLID
  5
DF69
330
DDBF
100
AcDbEntity
  8
0
440
 16777216
100
AcDbTrace
 10
-4687.648904868779
 20
-1255.283367418869
 30
0.0
 11
-4687.648904868779
 21
-1258.616700752202
 31
0.0
 12
-4677.648904868779
 22
-1256.950034085536
 32
0.0
 13
-4677.648904868779
 23
-1256.950034085536
 33
0.0
  0
MTEXT
  5
DF6A
330
DDBF
100
AcDbEntity
  8
0
 62
     0
440
 16777216
100
AcDbMText
 10
-4720.148904868779
 20
-1246.450034085536
 30
0.0
 40
15.0
 41
0.0
 46
0.0
 71
     5
 72
     1
  1
184
 73
     1
 44
1.0
  0
POINT
  5
DF6B
330
DDBF
100
AcDbEntity
  8
Defpoints
 62
     0
440
 16777216
100
AcDbPoint
 10
-4861.648904868778
 20
-1198.319228537048
 30
0.0
  0
POINT
  5
DF6C
330
DDBF
100
AcDbEntity
  8
Defpoints
 62
     0
440
 16777216
100
AcDbPoint
 10
-4677.648904868779
 20
-1198.319228537047
 30
0.0
  0
POINT
  5
DF6D
330
DDBF
100
AcDbEntity
  8
Defpoints
 62
     0
440
 16777216
100
AcDbPoint
 10
-4677.648904868779
 20
-1256.950034085536
 30
0.0
  0
ENDBLK
  5
DDC1
330
DDBF
100
AcDbEntity
  8
0
100
AcDbBlockEnd
  0
BLOCK
  5
DDD8
330
DDD7
100
AcDbEntity
  8
0
100
AcDbBlockBegin
  2
*D6
 70
     1
 10
0.0
 20
0.0
 30
0.0
  3
*D6
  1

  0
LINE
  5
DF6E
330
DDD7
100
AcDbEntity
  8
0
440
 16777216
100
AcDbLine
 10
-4447.648904868779
 20
-1178.519228537048
 30
0.0
 11
-4447.648904868779
 21
-1130.913023138867
 31
0.0
  0
LINE
  5
DF6F
330
DDD7
100
AcDbEntity
  8
0
440
 16777216
100
AcDbLine
 10
-4472.648904868779
 20
-1182.519228537047
 30
0.0
 11
-4472.648904868779
 21
-1130.913023138867
 31
0.0
  0
LINE
  5
DF70
330
DDD7
100
AcDbEntity
  8
0
440
 16777216
100
AcDbLine
 10
-4482.648904868779
 20
-1135.913023138867
 30
0.0
 11
-4492.648904868779
 21
-1135.913023138867
 31
0.0
  0
LINE
  5
DF71
330
DDD7
100
AcDbEntity
  8
0
440
 16777216
100
AcDbLine
 10
-4437.648904868779
 20
-1135.913023138867
 30
0.0
 11
-4396.648904868779
 21
-1135.913023138867
 31
0.0
  0
LINE
  5
DF72
330
DDD7
100
AcDbEntity
  8
0
440
 16777216
100
AcDbLine
 10
-4472.648904868779
 20
-1135.913023138867
 30
0.0
 11
-4447.648904868779
 21
-1135.913023138867
 31
0.0
  0
SOLID
  5
DF73
330
DDD7
100
AcDbEntity
  8
0
440
 16777216
100
AcDbTrace
 10
-4482.648904868779
 20
-1134.2463564722
 30
0.0
 11
-4482.648904868779
 21
-1137.579689805534
 31
0.0
 12
-4472.648904868779
 22
-1135.913023138867
 32
0.0
 13
-4472.648904868779
 23
-1135.913023138867
 33
0.0
  0
SOLID
  5
DF74
330
DDD7
100
AcDbEntity
  8
0
440
 16777216
100
AcDbTrace
 10
-4437.648904868779
 20
-1134.2463564722
 30
0.0
 11
-4437.648904868779
 21
-1137.579689805534
 31
0.0
 12
-4447.648904868779
 22
-1135.913023138867
 32
0.0
 13
-4447.648904868779
 23
-1135.913023138867
 33
0.0
  0
MTEXT
  5
DF75
330
DDD7
100
AcDbEntity
  8
0
 62
     0
440
 16777216
100
AcDbMText
 10
-4412.148904868779
 20
-1125.413023138867
 30
0.0
 40
15.0
 41
0.0
 46
0.0
 71
     5
 72
     1
  1
25
 73
     1
 44
1.0
  0
POINT
  5
DF76
330
DDD7
100
AcDbEntity
  8
Defpoints
 62
     0
440
 16777216
100
AcDbPoint
 10
-4447.648904868779
 20
-1183.519228537048
 30
0.0
  0
POINT
  5
DF77
330
DDD7
100
AcDbEntity
  8
Defpoints
 62
     0
440
 16777216
100
AcDbPoint
 10
-4472.648904868779
 20
-1187.519228537047
 30
0.0
  0
POINT
  5
DF78
330
DDD7
100
AcDbEntity
  8
Defpoints
 62
     0
440
 16777216
100
AcDbPoint
 10
-4472.648904868779
 20
-1135.913023138867
 30
0.0
  0
ENDBLK
  5
DDD9
330
DDD7
100
AcDbEntity
  8
0
100
AcDbBlockEnd
  0
BLOCK
  5
DDE7
330
DDE6
100
AcDbEntity
  8
0
100
AcDbBlockBegin
  2
*D7
 70
     1
 10
0.0
 20
0.0
 30
0.0
  3
*D7
  1

  0
LINE
  5
DF79
330
DDE6
100
AcDbEntity
  8
0
440
 16777216
100
AcDbLine
 10
-4896.648904868778
 20
-1182.519228537048
 30
0.0
 11
-4896.648904868778
 21
-1130.913023138867
 31
0.0
  0
LINE
  5
DF7A
330
DDE6
100
AcDbEntity
  8
0
440
 16777216
100
AcDbLine
 10
-4472.648904868779
 20
-1182.519228537047
 30
0.0
 11
-4472.648904868779
 21
-1130.913023138867
 31
0.0
  0
LINE
  5
DF7B
330
DDE6
100
AcDbEntity
  8
0
440
 16777216
100
AcDbLine
 10
-4886.648904868778
 20
-1135.913023138867
 30
0.0
 11
-4482.648904868779
 21
-1135.913023138867
 31
0.0
  0
SOLID
  5
DF7C
330
DDE6
100
AcDbEntity
  8
0
440
 16777216
100
AcDbTrace
 10
-4886.648904868778
 20
-1134.2463564722
 30
0.0
 11
-4886.648904868778
 21
-1137.579689805534
 31
0.0
 12
-4896.648904868778
 22
-1135.913023138867
 32
0.0
 13
-4896.648904868778
 23
-1135.913023138867
 33
0.0
  0
SOLID
  5
DF7D
330
DDE6
100
AcDbEntity
  8
0
440
 16777216
100
AcDbTrace
 10
-4482.648904868779
 20
-1134.2463564722
 30
0.0
 11
-4482.648904868779
 21
-1137.579689805534
 31
0.0
 12
-4472.648904868779
 22
-1135.913023138867
 32
0.0
 13
-4472.648904868779
 23
-1135.913023138867
 33
0.0
  0
MTEXT
  5
DF7E
330
DDE6
100
AcDbEntity
  8
0
 62
     0
440
 16777216
100
AcDbMText
 10
-4634.648904868779
 20
-1125.413023138867
 30
0.0
 40
15.0
 41
0.0
 46
0.0
 71
     5
 72
     1
  1
424
 73
     1
 44
1.0
  0
POINT
  5
DF7F
330
DDE6
100
AcDbEntity
  8
Defpoints
 62
     0
440
 16777216
100
AcDbPoint
 10
-4896.648904868778
 20
-1187.519228537048
 30
0.0
  0
POINT
  5
DF80
330
DDE6
100
AcDbEntity
  8
Defpoints
 62
     0
440
 16777216
100
AcDbPoint
 10
-4472.648904868779
 20
-1187.519228537047
 30
0.0
  0
POINT
  5
DF81
330
DDE6
100
AcDbEntity
  8
Defpoints
 62
     0
440
 16777216
100
AcDbPoint
 10
-4472.648904868779
 20
-1135.913023138867
 30
0.0
  0
ENDBLK
  5
DDE8
330
DDE6
100
AcDbEntity
  8
0
100
AcDbBlockEnd
  0
BLOCK
  5
DDF3
330
DDF2
100
AcDbEntity
  8
0
100
AcDbBlockBegin
  2
*D8
 70
     1
 10
0.0
 20
0.0
 30
0.0
  3
*D8
  1

  0
LINE
  5
DF82
330
DDF2
100
AcDbEntity
  8
0
440
 16777216
100
AcDbLine
 10
-4461.648904868781
 20
-1193.519228537048
 30
0.0
 11
-4397.988027013431
 21
-1193.519228537048
 31
0.0
  0
LINE
  5
DF83
330
DDF2
100
AcDbEntity
  8
0
440
 16777216
100
AcDbLine
 10
-4442.648904868781
 20
-1203.519228537049
 30
0.0
 11
-4397.988027013431
 21
-1203.519228537049
 31
0.0
  0
LINE
  5
DF84
330
DDF2
100
AcDbEntity
  8
0
440
 16777216
100
AcDbLine
 10
-4402.988027013431
 20
-1183.519228537048
 30
0.0
 11
-4402.988027013431
 21
-1173.519228537048
 31
0.0
  0
LINE
  5
DF85
330
DDF2
100
AcDbEntity
  8
0
440
 16777216
100
AcDbLine
 10
-4402.988027013431
 20
-1213.519228537049
 30
0.0
 11
-4402.988027013431
 21
-1247.019228537049
 31
0.0
  0
LINE
  5
DF86
330
DDF2
100
AcDbEntity
  8
0
440
 16777216
100
AcDbLine
 10
-4402.988027013431
 20
-1193.519228537048
 30
0.0
 11
-4402.988027013431
 21
-1203.519228537049
 31
0.0
  0
SOLID
  5
DF87
330
DDF2
100
AcDbEntity
  8
0
440
 16777216
100
AcDbTrace
 10
-4404.654693680098
 20
-1183.519228537048
 30
0.0
 11
-4401.321360346764
 21
-1183.519228537048
 31
0.0
 12
-4402.988027013431
 22
-1193.519228537048
 32
0.0
 13
-4402.988027013431
 23
-1193.519228537048
 33
0.0
  0
SOLID
  5
DF88
330
DDF2
100
AcDbEntity
  8
0
440
 16777216
100
AcDbTrace
 10
-4404.654693680098
 20
-1213.519228537049
 30
0.0
 11
-4401.321360346764
 21
-1213.519228537049
 31
0.0
 12
-4402.988027013431
 22
-1203.519228537049
 32
0.0
 13
-4402.988027013431
 23
-1203.519228537049
 33
0.0
  0
MTEXT
  5
DF89
330
DDF2
100
AcDbEntity
  8
0
 62
     0
440
 16777216
100
AcDbMText
 10
-4413.48802701343
 20
-1235.269228537047
 30
0.0
 40
15.0
 41
0.0
 46
0.0
 71
     5
 72
     1
  1
10
 11
6.123233995736766E-17
 21
1.0
 31
0.0
 73
     1
 44
1.0
  0
POINT
  5
DF8A
330
DDF2
100
AcDbEntity
  8
Defpoints
 62
     0
440
 16777216
100
AcDbPoint
 10
-4466.648904868781
 20
-1193.519228537048
 30
0.0
  0
POINT
  5
DF8B
330
DDF2
100
AcDbEntity
  8
Defpoints
 62
     0
440
 16777216
100
AcDbPoint
 10
-4447.648904868781
 20
-1203.519228537049
 30
0.0
  0
POINT
  5
DF8C
330
DDF2
100
AcDbEntity
  8
Defpoints
 62
     0
440
 16777216
100
AcDbPoint
 10
-4402.988027013431
 20
-1203.519228537049
 30
0.0
  0
ENDBLK
  5
DDF4
330
DDF2
100
AcDbEntity
  8
0
100
AcDbBlockEnd
  0
BLOCK
  5
DE01
330
DE00
100
AcDbEntity
  8
0
100
AcDbBlockBegin
  2
*D9
 70
     1
 10
0.0
 20
0.0
 30
0.0
  3
*D9
  1

  0
LINE
  5
DF8D
330
DE00
100
AcDbEntity
  8
0
440
 16777216
100
AcDbLine
 10
-5063.829253746161
 20
-1344.824210613642
 30
0.0
 11
-5063.829253746161
 21
-1262.005630994688
 31
0.0
  0
LINE
  5
DF8E
330
DE00
100
AcDbEntity
  8
0
440
 16777216
100
AcDbLine
 10
-5052.829253746161
 20
-1304.824210613641
 30
0.0
 11
-5052.829253746161
 21
-1262.005630994688
 31
0.0
  0
LINE
  5
DF8F
330
DE00
100
AcDbEntity
  8
0
440
 16777216
100
AcDbLine
 10
-5073.829253746161
 20
-1267.005630994688
 30
0.0
 11
-5083.829253746161
 21
-1267.005630994688
 31
0.0
  0
LINE
  5
DF90
330
DE00
100
AcDbEntity
  8
0
440
 16777216
100
AcDbLine
 10
-5042.829253746161
 20
-1267.005630994688
 30
0.0
 11
-5011.829253746161
 21
-1267.005630994688
 31
0.0
  0
LINE
  5
DF91
330
DE00
100
AcDbEntity
  8
0
440
 16777216
100
AcDbLine
 10
-5063.829253746161
 20
-1267.005630994688
 30
0.0
 11
-5052.829253746161
 21
-1267.005630994688
 31
0.0
  0
SOLID
  5
DF92
330
DE00
100
AcDbEntity
  8
0
440
 16777216
100
AcDbTrace
 10
-5073.829253746161
 20
-1265.338964328021
 30
0.0
 11
-5073.829253746161
 21
-1268.672297661355
 31
0.0
 12
-5063.829253746161
 22
-1267.005630994688
 32
0.0
 13
-5063.829253746161
 23
-1267.005630994688
 33
0.0
  0
SOLID
  5
DF93
330
DE00
100
AcDbEntity
  8
0
440
 16777216
100
AcDbTrace
 10
-5042.829253746161
 20
-1265.338964328021
 30
0.0
 11
-5042.829253746161
 21
-1268.672297661355
 31
0.0
 12
-5052.829253746161
 22
-1267.005630994688
 32
0.0
 13
-5052.829253746161
 23
-1267.005630994688
 33
0.0
  0
MTEXT
  5
DF94
330
DE00
100
AcDbEntity
  8
0
 62
     0
440
 16777216
100
AcDbMText
 10
-5022.329253746161
 20
-1256.505630994688
 30
0.0
 40
15.0
 41
0.0
 46
0.0
 71
     5
 72
     1
  1
11
 73
     1
 44
1.0
  0
POINT
  5
DF95
330
DE00
100
AcDbEntity
  8
Defpoints
 62
     0
440
 16777216
100
AcDbPoint
 10
-5063.829253746161
 20
-1349.824210613642
 30
0.0
  0
POINT
  5
DF96
330
DE00
100
AcDbEntity
  8
Defpoints
 62
     0
440
 16777216
100
AcDbPoint
 10
-5052.829253746161
 20
-1309.824210613641
 30
0.0
  0
POINT
  5
DF97
330
DE00
100
AcDbEntity
  8
Defpoints
 62
     0
440
 16777216
100
AcDbPoint
 10
-5052.829253746161
 20
-1267.005630994688
 30
0.0
  0
ENDBLK
  5
DE02
330
DE00
100
AcDbEntity
  8
0
100
AcDbBlockEnd
  0
BLOCK
  5
DE0F
330
DE0E
100
AcDbEntity
  8
0
100
AcDbBlockBegin
  2
*D10
 70
     1
 10
0.0
 20
0.0
 30
0.0
  3
*D10
  1

  0
LINE
  5
DF98
330
DE0E
100
AcDbEntity
  8
0
440
 16777216
100
AcDbLine
 10
-4931.048904868781
 20
-1402.324210613643
 30
0.0
 11
-4959.481533878263
 21
-1402.324210613643
 31
0.0
  0
LINE
  5
DF99
330
DE0E
100
AcDbEntity
  8
0
440
 16777216
100
AcDbLine
 10
-4931.048904868781
 20
-1417.324210613642
 30
0.0
 11
-4959.481533878263
 21
-1417.324210613642
 31
0.0
  0
LINE
  5
DF9A
330
DE0E
100
AcDbEntity
  8
0
440
 16777216
100
AcDbLine
 10
-4954.481533878263
 20
-1427.324210613642
 30
0.0
 11
-4954.481533878263
 21
-1437.324210613642
 31
0.0
  0
LINE
  5
DF9B
330
DE0E
100
AcDbEntity
  8
0
440
 16777216
100
AcDbLine
 10
-4954.481533878263
 20
-1392.324210613643
 30
0.0
 11
-4954.481533878263
 21
-1356.324210613643
 31
0.0
  0
LINE
  5
DF9C
330
DE0E
100
AcDbEntity
  8
0
440
 16777216
100
AcDbLine
 10
-4954.481533878263
 20
-1417.324210613642
 30
0.0
 11
-4954.481533878263
 21
-1402.324210613643
 31
0.0
  0
SOLID
  5
DF9D
330
DE0E
100
AcDbEntity
  8
0
440
 16777216
100
AcDbTrace
 10
-4956.14820054493
 20
-1427.324210613642
 30
0.0
 11
-4952.814867211596
 21
-1427.324210613642
 31
0.0
 12
-4954.481533878263
 22
-1417.324210613642
 32
0.0
 13
-4954.481533878263
 23
-1417.324210613642
 33
0.0
  0
SOLID
  5
DF9E
330
DE0E
100
AcDbEntity
  8
0
440
 16777216
100
AcDbTrace
 10
-4956.14820054493
 20
-1392.324210613643
 30
0.0
 11
-4952.814867211596
 21
-1392.324210613643
 31
0.0
 12
-4954.481533878263
 22
-1402.324210613643
 32
0.0
 13
-4954.481533878263
 23
-1402.324210613643
 33
0.0
  0
MTEXT
  5
DF9F
330
DE0E
100
AcDbEntity
  8
0
 62
     0
440
 16777216
100
AcDbMText
 10
-4964.981533878262
 20
-1369.324210613641
 30
0.0
 40
15.0
 41
0.0
 46
0.0
 71
     5
 72
     1
  1
15
 11
6.123233995736766E-17
 21
1.0
 31
0.0
 73
     1
 44
1.0
  0
POINT
  5
DFA0
330
DE0E
100
AcDbEntity
  8
Defpoints
 62
     0
440
 16777216
100
AcDbPoint
 10
-4926.048904868781
 20
-1402.324210613643
 30
0.0
  0
POINT
  5
DFA1
330
DE0E
100
AcDbEntity
  8
Defpoints
 62
     0
440
 16777216
100
AcDbPoint
 10
-4926.048904868781
 20
-1417.324210613642
 30
0.0
  0
POINT
  5
DFA2
330
DE0E
100
AcDbEntity
  8
Defpoints
 62
     0
440
 16777216
100
AcDbPoint
 10
-4954.481533878263
 20
-1417.324210613642
 30
0.0
  0
ENDBLK
  5
DE10
330
DE0E
100
AcDbEntity
  8
0
100
AcDbBlockEnd
  0
BLOCK
  5
DE1E
330
DE1D
100
AcDbEntity
  8
0
100
AcDbBlockBegin
  2
*D11
 70
     1
 10
0.0
 20
0.0
 30
0.0
  3
*D11
  1

  0
LINE
  5
DFA3
330
DE1D
100
AcDbEntity
  8
0
440
 16777216
100
AcDbLine
 10
-4442.648904868781
 20
-1183.519228537049
 30
0.0
 11
-4369.879186331154
 21
-1183.519228537049
 31
0.0
  0
LINE
  5
DFA4
330
DE1D
100
AcDbEntity
  8
0
440
 16777216
100
AcDbLine
 10
-4442.648904868781
 20
-1203.519228537049
 30
0.0
 11
-4369.879186331154
 21
-1203.519228537049
 31
0.0
  0
LINE
  5
DFA5
330
DE1D
100
AcDbEntity
  8
0
440
 16777216
100
AcDbLine
 10
-4374.879186331154
 20
-1173.519228537049
 30
0.0
 11
-4374.879186331154
 21
-1163.519228537049
 31
0.0
  0
LINE
  5
DFA6
330
DE1D
100
AcDbEntity
  8
0
440
 16777216
100
AcDbLine
 10
-4374.879186331154
 20
-1213.519228537049
 30
0.0
 11
-4374.879186331154
 21
-1252.019228537049
 31
0.0
  0
LINE
  5
DFA7
330
DE1D
100
AcDbEntity
  8
0
440
 16777216
100
AcDbLine
 10
-4374.879186331154
 20
-1183.519228537049
 30
0.0
 11
-4374.879186331154
 21
-1203.519228537049
 31
0.0
  0
SOLID
  5
DFA8
330
DE1D
100
AcDbEntity
  8
0
440
 16777216
100
AcDbTrace
 10
-4376.545852997821
 20
-1173.519228537049
 30
0.0
 11
-4373.212519664487
 21
-1173.519228537049
 31
0.0
 12
-4374.879186331154
 22
-1183.519228537049
 32
0.0
 13
-4374.879186331154
 23
-1183.519228537049
 33
0.0
  0
SOLID
  5
DFA9
330
DE1D
100
AcDbEntity
  8
0
440
 16777216
100
AcDbTrace
 10
-4376.545852997821
 20
-1213.519228537049
 30
0.0
 11
-4373.212519664487
 21
-1213.519228537049
 31
0.0
 12
-4374.879186331154
 22
-1203.519228537049
 32
0.0
 13
-4374.879186331154
 23
-1203.519228537049
 33
0.0
  0
MTEXT
  5
DFAA
330
DE1D
100
AcDbEntity
  8
0
 62
     0
440
 16777216
100
AcDbMText
 10
-4385.379186331154
 20
-1237.769228537047
 30
0.0
 40
15.0
 41
0.0
 46
0.0
 71
     5
 72
     1
  1
20
 11
6.123233995736766E-17
 21
1.0
 31
0.0
 73
     1
 44
1.0
  0
POINT
  5
DFAB
330
DE1D
100
AcDbEntity
  8
Defpoints
 62
     0
440
 16777216
100
AcDbPoint
 10
-4447.648904868781
 20
-1183.519228537049
 30
0.0
  0
POINT
  5
DFAC
330
DE1D
100
AcDbEntity
  8
Defpoints
 62
     0
440
 16777216
100
AcDbPoint
 10
-4447.648904868781
 20
-1203.519228537049
 30
0.0
  0
POINT
  5
DFAD
330
DE1D
100
AcDbEntity
  8
Defpoints
 62
     0
440
 16777216
100
AcDbPoint
 10
-4374.879186331154
 20
-1203.519228537049
 30
0.0
  0
ENDBLK
  5
DE1F
330
DE1D
100
AcDbEntity
  8
0
100
AcDbBlockEnd
  0
BLOCK
  5
DE38
330
DE37
100
AcDbEntity
  8
0
100
AcDbBlockBegin
  2
*D13
 70
     1
 10
0.0
 20
0.0
 30
0.0
  3
*D13
  1

  0
LINE
  5
DFAE
330
DE37
100
AcDbEntity
  8
0
440
 16777216
100
AcDbLine
 10
-4443.24890486878
 20
-1309.82421061364
 30
0.0
 11
-4387.079797604563
 21
-1309.82421061364
 31
0.0
  0
LINE
  5
DFAF
330
DE37
100
AcDbEntity
  8
0
440
 16777216
100
AcDbLine
 10
-4443.24890486878
 20
-1509.824210613641
 30
0.0
 11
-4387.079797604563
 21
-1509.824210613641
 31
0.0
  0
LINE
  5
DFB0
330
DE37
100
AcDbEntity
  8
0
440
 16777216
100
AcDbLine
 10
-4392.079797604563
 20
-1319.82421061364
 30
0.0
 11
-4392.079797604563
 21
-1499.824210613641
 31
0.0
  0
SOLID
  5
DFB1
330
DE37
100
AcDbEntity
  8
0
440
 16777216
100
AcDbTrace
 10
-4393.74646427123
 20
-1319.82421061364
 30
0.0
 11
-4390.413130937896
 21
-1319.82421061364
 31
0.0
 12
-4392.079797604563
 22
-1309.82421061364
 32
0.0
 13
-4392.079797604563
 23
-1309.82421061364
 33
0.0
  0
SOLID
  5
DFB2
330
DE37
100
AcDbEntity
  8
0
440
 16777216
100
AcDbTrace
 10
-4393.74646427123
 20
-1499.824210613641
 30
0.0
 11
-4390.413130937896
 21
-1499.824210613641
 31
0.0
 12
-4392.079797604563
 22
-1509.824210613641
 32
0.0
 13
-4392.079797604563
 23
-1509.824210613641
 33
0.0
  0
MTEXT
  5
DFB3
330
DE37
100
AcDbEntity
  8
0
 62
     0
440
 16777216
100
AcDbMText
 10
-4402.579797604562
 20
-1409.824210613639
 30
0.0
 40
15.0
 41
0.0
 46
0.0
 71
     5
 72
     1
  1
200
 11
6.123233995736766E-17
 21
1.0
 31
0.0
 73
     1
 44
1.0
  0
POINT
  5
DFB4
330
DE37
100
AcDbEntity
  8
Defpoints
 62
     0
440
 16777216
100
AcDbPoint
 10
-4448.24890486878
 20
-1309.82421061364
 30
0.0
  0
POINT
  5
DFB5
330
DE37
100
AcDbEntity
  8
Defpoints
 62
     0
440
 16777216
100
AcDbPoint
 10
-4448.24890486878
 20
-1509.824210613641
 30
0.0
  0
POINT
  5
DFB6
330
DE37
100
AcDbEntity
  8
Defpoints
 62
     0
440
 16777216
100
AcDbPoint
 10
-4392.079797604563
 20
-1509.824210613641
 30
0.0
  0
ENDBLK
  5
DE39
330
DE37
100
AcDbEntity
  8
0
100
AcDbBlockEnd
  0
BLOCK
  5
DE53
330
DE52
100
AcDbEntity
  8
0
100
AcDbBlockBegin
  2
*D14
 70
     1
 10
0.0
 20
0.0
 30
0.0
  3
*D14
  1

  0
LINE
  5
DFB7
330
DE52
100
AcDbEntity
  8
0
440
 16777216
100
AcDbLine
 10
-5050.829253746163
 20
-1459.824210613639
 30
0.0
 11
-5006.762091430153
 21
-1459.824210613639
 31
0.0
  0
LINE
  5
DFB8
330
DE52
100
AcDbEntity
  8
0
440
 16777216
100
AcDbLine
 10
-5047.829253746163
 20
-1509.824210613641
 30
0.0
 11
-5006.762091430153
 21
-1509.824210613641
 31
0.0
  0
LINE
  5
DFB9
330
DE52
100
AcDbEntity
  8
0
440
 16777216
100
AcDbLine
 10
-5011.762091430153
 20
-1469.824210613639
 30
0.0
 11
-5011.762091430153
 21
-1499.824210613641
 31
0.0
  0
SOLID
  5
DFBA
330
DE52
100
AcDbEntity
  8
0
440
 16777216
100
AcDbTrace
 10
-5013.42875809682
 20
-1469.824210613639
 30
0.0
 11
-5010.095424763486
 21
-1469.824210613639
 31
0.0
 12
-5011.762091430153
 22
-1459.824210613639
 32
0.0
 13
-5011.762091430153
 23
-1459.824210613639
 33
0.0
  0
SOLID
  5
DFBB
330
DE52
100
AcDbEntity
  8
0
440
 16777216
100
AcDbTrace
 10
-5013.42875809682
 20
-1499.824210613641
 30
0.0
 11
-5010.095424763486
 21
-1499.824210613641
 31
0.0
 12
-5011.762091430153
 22
-1509.824210613641
 32
0.0
 13
-5011.762091430153
 23
-1509.824210613641
 33
0.0
  0
MTEXT
  5
DFBC
330
DE52
100
AcDbEntity
  8
0
 62
     0
440
 16777216
100
AcDbMText
 10
-5022.262091430152
 20
-1484.824210613638
 30
0.0
 40
15.0
 41
0.0
 46
0.0
 71
     5
 72
     1
  1
50
 11
6.123233995736766E-17
 21
1.0
 31
0.0
 73
     1
 44
1.0
  0
POINT
  5
DFBD
330
DE52
100
AcDbEntity
  8
Defpoints
 62
     0
440
 16777216
100
AcDbPoint
 10
-5055.829253746163
 20
-1459.824210613639
 30
0.0
  0
POINT
  5
DFBE
330
DE52
100
AcDbEntity
  8
Defpoints
 62
     0
440
 16777216
100
AcDbPoint
 10
-5052.829253746163
 20
-1509.824210613641
 30
0.0
  0
POINT
  5
DFBF
330
DE52
100
AcDbEntity
  8
Defpoints
 62
     0
440
 16777216
100
AcDbPoint
 10
-5011.762091430153
 20
-1509.824210613641
 30
0.0
  0
ENDBLK
  5
DE54
330
DE52
100
AcDbEntity
  8
0
100
AcDbBlockEnd
  0
BLOCK
  5
DE69
330
DE68
100
AcDbEntity
  8
0
100
AcDbBlockBegin
  2
*D15
 70
     1
 10
0.0
 20
0.0
 30
0.0
  3
*D15
  1

  0
LINE
  5
DFC0
330
DE68
100
AcDbEntity
  8
0
440
 16777216
100
AcDbLine
 10
-5050.829253746163
 20
-1359.824210613641
 30
0.0
 11
-5006.60089750425
 21
-1359.824210613641
 31
0.0
  0
LINE
  5
DFC1
330
DE68
100
AcDbEntity
  8
0
440
 16777216
100
AcDbLine
 10
-5047.829253746163
 20
-1309.824210613641
 30
0.0
 11
-5006.60089750425
 21
-1309.824210613641
 31
0.0
  0
LINE
  5
DFC2
330
DE68
100
AcDbEntity
  8
0
440
 16777216
100
AcDbLine
 10
-5011.60089750425
 20
-1349.824210613641
 30
0.0
 11
-5011.60089750425
 21
-1319.824210613641
 31
0.0
  0
SOLID
  5
DFC3
330
DE68
100
AcDbEntity
  8
0
440
 16777216
100
AcDbTrace
 10
-5013.267564170917
 20
-1349.824210613641
 30
0.0
 11
-5009.934230837584
 21
-1349.824210613641
 31
0.0
 12
-5011.60089750425
 22
-1359.824210613641
 32
0.0
 13
-5011.60089750425
 23
-1359.824210613641
 33
0.0
  0
SOLID
  5
DFC4
330
DE68
100
AcDbEntity
  8
0
440
 16777216
100
AcDbTrace
 10
-5013.267564170917
 20
-1319.824210613641
 30
0.0
 11
-5009.934230837584
 21
-1319.824210613641
 31
0.0
 12
-5011.60089750425
 22
-1309.824210613641
 32
0.0
 13
-5011.60089750425
 23
-1309.824210613641
 33
0.0
  0
MTEXT
  5
DFC5
330
DE68
100
AcDbEntity
  8
0
 62
     0
440
 16777216
100
AcDbMText
 10
-5022.10089750425
 20
-1334.82421061364
 30
0.0
 40
15.0
 41
0.0
 46
0.0
 71
     5
 72
     1
  1
50
 11
6.123233995736766E-17
 21
1.0
 31
0.0
 73
     1
 44
1.0
  0
POINT
  5
DFC6
330
DE68
100
AcDbEntity
  8
Defpoints
 62
     0
440
 16777216
100
AcDbPoint
 10
-5055.829253746163
 20
-1359.824210613641
 30
0.0
  0
POINT
  5
DFC7
330
DE68
100
AcDbEntity
  8
Defpoints
 62
     0
440
 16777216
100
AcDbPoint
 10
-5052.829253746163
 20
-1309.824210613641
 30
0.0
  0
POINT
  5
DFC8
330
DE68
100
AcDbEntity
  8
Defpoints
 62
     0
440
 16777216
100
AcDbPoint
 10
-5011.60089750425
 20
-1309.824210613641
 30
0.0
  0
ENDBLK
  5
DE6A
330
DE68
100
AcDbEntity
  8
0
100
AcDbBlockEnd
  0
ENDSEC
  0
SECTION
  2
ENTITIES
  0
LINE
  5
82E
330
1F
100
AcDbEntity
  8
図面枠
 62
     7
370
    25
100
AcDbLine
 10
-4190.492155641723
 20
-949.3570122841923
 30
0.0
 11
-4190.492155641723
 21
-1788.013012284192
 31
0.0
  0
LINE
  5
853
330
1F
100
AcDbEntity
  8
図面枠
 62
     7
370
    25
100
AcDbLine
 10
-4190.492155641723
 20
-949.3570122841923
 30
0.0
 11
-5388.572155641724
 21
-949.3570122841923
 31
0.0
  0
LINE
  5
854
330
1F
100
AcDbEntity
  8
図面枠
 62
     7
370
    25
100
AcDbLine
 10
-5388.572155641724
 20
-949.3570122841923
 30
0.0
 11
-5388.572155641724
 21
-1788.013012284192
 31
0.0
  0
LINE
  5
855
330
1F
100
AcDbEntity
  8
図面枠
 62
     7
370
    25
100
AcDbLine
 10
-5388.572155641724
 20
-1788.013012284192
 30
0.0
 11
-4190.492155641723
 21
-1788.013012284192
 31
0.0
  0
LINE
  5
856
330
1F
100
AcDbEntity
  8
Defpoints
 62
     7
100
AcDbLine
 10
-5388.572155641724
 20
-1368.685012284192
 30
0.0
 11
-5413.132795641723
 21
-1368.685012284192
 31
0.0
  0
MTEXT
  5
F11
330
1F
100
AcDbEntity
  8
図面枠
 62
     7
100
AcDbMText
 10
-4385.180155641723
 20
-1776.032212284192
 30
0.0
 40
8.985600000000002
 41
179.712
 46
0.0
 71
     5
 72
     5
  1
株式会社　渡辺製作所
  7
ARIAL_TTF
 73
     1
 44
1.0
  0
INSERT
  5
F6B
330
1F
100
AcDbEntity
  8
図面枠
 62
     7
100
AcDbBlockReference
  2
A$C75CF5BB1
 10
-4474.706833417936
 20
-1783.29840702616
 30
0.0
 41
0.7188480000000002
 42
0.7188480000000002
 43
0.7188480000000002
  0
MTEXT
  5
F6F
330
1F
100
AcDbEntity
  8
図面枠
 62
     7
100
AcDbMText
 10
-4527.452155641722
 20
-1710.637012284191
 30
0.0
 40
7.488
 41
44.928
 46
0.0
 71
     5
 72
     5
  1
作成日
  7
ARIAL_TTF
 73
     1
 44
1.0
  0
MTEXT
  5
F70
330
1F
100
AcDbEntity
  8
図面枠
 62
     7
100
AcDbMText
 10
-4527.452155641722
 20
-1730.605012284192
 30
0.0
 40
7.488
 41
44.928
 46
0.0
 71
     5
 72
     5
  1
改訂日
  7
ARIAL_TTF
 73
     1
 44
1.0
  0
MTEXT
  5
F71
330
1F
100
AcDbEntity
  8
図面枠
 62
     7
100
AcDbMText
 10
-4527.452155641722
 20
-1750.573012284191
 30
0.0
 40
7.488
 41
44.928
 46
0.0
 71
     5
 72
     5
  1
改訂No.
  7
ARIAL_TTF
 73
     1
 44
1.0
  0
LINE
  5
F80
330
1F
100
AcDbEntity
  8
図面枠
 62
     7
100
AcDbLine
 10
-4385.180155641724
 20
-1704.147412284192
 30
0.0
 11
-4385.180155641724
 21
-1764.051412284193
 31
0.0
  0
LINE
  5
FC2
330
1F
100
AcDbEntity
  8
図面枠
 62
     7
100
AcDbLine
 10
-4190.492155641723
 20
-1704.147412284192
 30
0.0
 11
-4190.492155641723
 21
-1723.616212284193
 31
0.0
  0
LINE
  5
FC3
330
1F
100
AcDbEntity
  8
図面枠
 62
     7
100
AcDbLine
 10
-4190.492155641723
 20
-1723.616212284193
 30
0.0
 11
-4190.492155641723
 21
-1744.582612284192
 31
0.0
  0
LINE
  5
FC4
330
1F
100
AcDbEntity
  8
図面枠
 62
     7
100
AcDbLine
 10
-4190.492155641723
 20
-1744.582612284192
 30
0.0
 11
-4190.492155641723
 21
-1764.051412284193
 31
0.0
  0
LINE
  5
FC8
330
1F
100
AcDbEntity
  8
図面枠
 62
     7
100
AcDbLine
 10
-4549.916155641722
 20
-1674.195412284192
 30
0.0
 11
-4549.916155641722
 21
-1788.013012284192
 31
0.0
  0
LINE
  5
FC9
330
1F
100
AcDbEntity
  8
図面枠
 62
     7
100
AcDbLine
 10
-4504.988155641722
 20
-1674.195412284193
 30
0.0
 11
-4504.988155641724
 21
-1788.013012284192
 31
0.0
  0
LINE
  5
FCA
330
1F
100
AcDbEntity
  8
図面枠
 62
     7
100
AcDbLine
 10
-4430.108155641722
 20
-1704.147412284191
 30
0.0
 11
-4430.108155641722
 21
-1764.051412284191
 31
0.0
  0
MTEXT
  5
FEF
330
1F
100
AcDbEntity
  8
図面枠
 62
     7
100
AcDbMText
 10
-4310.300155641722
 20
-1782.022612284192
 30
0.0
 40
5.9904
 41
89.856
 46
0.0
 71
     7
 72
     5
  1
WATANABE CO.,LTD.
  7
ARIAL_TTF
 73
     1
 44
1.0
  0
LINE
  5
1046
330
1F
100
AcDbEntity
  8
図面枠
 62
     7
100
AcDbLine
 10
-4430.108155641722
 20
-1724.115412284191
 30
0.0
 11
-4549.916155641722
 21
-1724.115412284191
 31
0.0
  0
LINE
  5
1047
330
1F
100
AcDbEntity
  8
図面枠
 62
     7
100
AcDbLine
 10
-4430.108155641723
 20
-1744.083412284192
 30
0.0
 11
-4549.916155641722
 21
-1744.083412284192
 31
0.0
  0
LINE
  5
10E3
330
1F
100
AcDbEntity
  8
図面枠
 62
     7
100
AcDbLine
 10
-4549.916155641722
 20
-1704.147412284192
 30
0.0
 11
-4190.492155641723
 21
-1704.147412284192
 31
0.0
  0
LINE
  5
10E4
330
1F
100
AcDbEntity
  8
図面枠
 62
     7
100
AcDbLine
 10
-4430.108155641723
 20
-1734.099412284193
 30
0.0
 11
-4190.492155641723
 21
-1734.099412284193
 31
0.0
  0
LINE
  5
10E5
330
1F
100
AcDbEntity
  8
図面枠
 62
     7
100
AcDbLine
 10
-4549.916155641722
 20
-1764.051412284193
 30
0.0
 11
-4190.492155641723
 21
-1764.051412284193
 31
0.0
  0
TEXT
  5
10E6
330
1F
100
AcDbEntity
  8
図面枠
 62
     7
100
AcDbText
 10
-4490.012155641723
 20
-1693.664212284192
 30
0.0
 40
8.985600000000002
  1
横幕板
  7
ARIAL_TTF
 11
-4490.012155641723
 21
-1689.171412284192
 31
0.0
100
AcDbText
 73
     2
  0
TEXT
  5
10E7
330
1F
100
AcDbEntity
  8
図面枠
 62
     7
100
AcDbText
 10
-4540.517218041722
 20
-1690.871188284193
 30
0.0
 40
8.985600000000002
  1
名称
  7
ARIAL_TTF
 72
     4
 11
-4527.452155641722
 21
-1686.176212284193
 31
0.0
100
AcDbText
  0
TEXT
  5
10E8
330
1F
100
AcDbEntity
  8
図面枠
 62
     7
100
AcDbText
 10
-4370.204155641724
 20
-1753.568212284192
 30
0.0
 40
8.985600000000002
  1
20041350
  7
ARIAL_TTF
 11
-4370.204155641724
 21
-1749.075412284192
 31
0.0
100
AcDbText
 73
     2
  0
TEXT
  5
10EA
330
1F
100
AcDbEntity
  8
図面枠
 62
     7
100
AcDbText
 10
-4496.002555641722
 20
-1717.875412284191
 30
0.0
 40
7.488
  1
2020/04/13
  7
ARIAL_TTF
 11
-4496.002555641722
 21
-1714.131412284191
 31
0.0
100
AcDbText
 73
     2
  0
LINE
  5
10EC
330
1F
100
AcDbEntity
  8
図面枠
 62
     7
100
AcDbLine
 10
-4190.492155641723
 20
-1724.115412284192
 30
0.0
 11
-4190.492155641723
 21
-1704.147412284192
 31
0.0
  0
TEXT
  5
10EF
330
1F
100
AcDbEntity
  8
図面枠
 62
     7
100
AcDbText
 10
-4496.002555641722
 20
-1757.811412284191
 30
0.0
 40
7.488
  1
0
  7
ARIAL_TTF
 11
-4496.002555641722
 21
-1754.067412284191
 31
0.0
100
AcDbText
 73
     2
  0
LINE
  5
1154
330
1F
100
AcDbEntity
  8
図面枠
 62
     7
100
AcDbLine
 10
-4549.916155641722
 20
-1674.195412284193
 30
0.0
 11
-4190.492155641723
 21
-1674.195412284193
 31
0.0
  0
TEXT
  5
1183
330
1F
100
AcDbEntity
  8
図面枠
 62
     7
100
AcDbText
 10
-4427.241749241724
 20
-1720.621012284193
 30
0.0
 40
8.985600000000002
  1
機種名
  7
ARIAL_TTF
 72
     4
 11
-4407.644155641724
 21
-1716.128212284193
 31
0.0
100
AcDbText
  0
TEXT
  5
1184
330
1F
100
AcDbEntity
  8
図面枠
 62
     7
100
AcDbText
 10
-4420.709218041724
 20
-1750.649389884192
 30
0.0
 40
8.985600000000002
  1
図番
  7
ARIAL_TTF
 72
     4
 11
-4407.644155641724
 21
-1746.080212284192
 31
0.0
100
AcDbText
  0
TEXT
  5
1186
330
1F
100
AcDbEntity
  8
図面枠
 62
     7
100
AcDbText
 10
-4538.696136441722
 20
-1701.203130684192
 30
0.0
 40
5.990400000000001
  1
NAME
  7
ARIAL_TTF
 72
     4
 11
-4527.452155641722
 21
-1698.157012284192
 31
0.0
100
AcDbText
  0
TEXT
  5
1187
330
1F
100
AcDbEntity
  8
図面枠
 62
     7
100
AcDbText
 10
-4421.595797241722
 20
-1731.137159484192
 30
0.0
 40
5.990400000000001
  1
MODEL
  7
ARIAL_TTF
 72
     4
 11
-4407.644155641722
 21
-1728.109012284192
 31
0.0
100
AcDbText
  0
TEXT
  5
1188
330
1F
100
AcDbEntity
  8
図面枠
 62
     7
100
AcDbText
 10
-4424.752738041722
 20
-1761.056212284192
 30
0.0
 40
5.990400000000001
  1
DWG. No.
  7
ARIAL_TTF
 72
     4
 11
-4407.644155641722
 21
-1758.061012284192
 31
0.0
100
AcDbText
  0
TEXT
  5
1190
330
1F
100
AcDbEntity
  8
図面枠
 62
     7
100
AcDbText
 10
-4540.133083641721
 20
-1761.805012284191
 30
0.0
 40
4.492800000000001
  1
REV. NO.
  7
ARIAL_TTF
 72
     4
 11
-4527.452155641721
 21
-1759.558612284191
 31
0.0
100
AcDbText
  0
TEXT
  5
1191
330
1F
100
AcDbEntity
  8
図面枠
 62
     7
100
AcDbText
 10
-4543.033186041722
 20
-1741.837012284191
 30
0.0
 40
4.492800000000001
  1
REV. DATE
  7
ARIAL_TTF
 72
     4
 11
-4527.452155641722
 21
-1739.590612284191
 31
0.0
100
AcDbText
  0
TEXT
  5
1192
330
1F
100
AcDbEntity
  8
図面枠
 62
     7
100
AcDbText
 10
-4543.835150841722
 20
-1721.869012284191
 30
0.0
 40
4.492800000000001
  1
DWG. DATE
  7
ARIAL_TTF
 72
     4
 11
-4527.452155641722
 21
-1719.622612284191
 31
0.0
100
AcDbText
  0
TEXT
  5
1204
330
1F
100
AcDbEntity
  8
図面枠
 62
     7
100
AcDbText
 10
-4370.204155641724
 20
-1723.616212284192
 30
0.0
 40
8.985600000000002
  1
WMC-47520AK/W/G/S
  7
ARIAL_TTF
 11
-4370.204155641724
 21
-1719.123412284192
 31
0.0
100
AcDbText
 73
     2
  0
MTEXT
  5
1695
330
1F
100
AcDbEntity
  8
0
 62
     7
100
AcDbMText
 10
-4819.484155641721
 20
-1773.037012284192
 30
0.0
 40
7.488
 41
249.5999001600001
 46
0.0
 71
     7
 72
     5
  1
※ 仕様は場合により変更することがあります
 73
     1
 44
1.0
  0
TEXT
  5
1758
330
1F
100
AcDbEntity
  8
構成表
 62
     7
100
AcDbText
 10
-4502.669870841723
 20
-989.9269962841921
 30
0.0
 40
5.990400000000003
  1
部　　品　　名
  7
ARIAL_TTF
 72
     4
 11
-4478.031355641723
 21
-986.7970122841921
 31
0.0
100
AcDbText
  0
LINE
  5
175E
330
1F
100
AcDbEntity
  8
構成表
 62
     7
100
AcDbLine
 10
-4549.916155641722
 20
-994.2850122841921
 30
0.0
 11
-4205.468155641722
 21
-994.2850122841921
 31
0.0
  0
LINE
  5
175F
330
1F
100
AcDbEntity
  8
構成表
 62
     7
100
AcDbLine
 10
-4549.916155641722
 20
-979.3090122841925
 30
0.0
 11
-4205.468155641722
 21
-979.3090122841925
 31
0.0
  0
LINE
  5
1768
330
1F
100
AcDbEntity
  8
構成表
 62
     7
100
AcDbLine
 10
-4549.916155641722
 20
-1009.261012284192
 30
0.0
 11
-4205.468155641722
 21
-1009.261012284192
 31
0.0
  0
LINE
  5
176E
330
1F
100
AcDbEntity
  8
構成表
 62
     7
100
AcDbLine
 10
-4549.916155641722
 20
-979.3090122841925
 30
0.0
 11
-4549.916155641722
 21
-1009.261012284192
 31
0.0
  0
LINE
  5
176F
330
1F
100
AcDbEntity
  8
構成表
 62
     7
100
AcDbLine
 10
-4525.954555641726
 20
-979.3090122841925
 30
0.0
 11
-4525.954555641727
 21
-1009.261012284192
 31
0.0
  0
TEXT
  5
178B
330
1F
100
AcDbEntity
  8
構成表
 62
     7
100
AcDbText
 10
-4536.299976441722
 20
-1004.768212284192
 30
0.0
 40
5.990400000000003
  1
1
  7
ARIAL_TTF
 72
     2
 11
-4531.944955641722
 21
-1001.773012284192
 31
0.0
100
AcDbText
 73
     2
  0
TEXT
  5
178C
330
1F
100
AcDbEntity
  8
構成表
 62
     7
100
AcDbText
 10
-4546.645397241723
 20
-989.843130684192
 30
0.0
 40
5.990400000000003
  1
番号
  7
ARIAL_TTF
 72
     4
 11
-4537.935355641723
 21
-986.7970122841921
 31
0.0
100
AcDbText
  0
TEXT
  5
178F
330
1F
100
AcDbEntity
  8
構成表
 62
     7
100
AcDbText
 10
-4519.964155641723
 20
-1004.768212284192
 30
0.0
 40
5.990400000000001
  1
横幕板
  7
ARIAL_TTF
 11
-4519.964155641723
 21
-1001.773012284192
 31
0.0
100
AcDbText
 73
     2
  0
TEXT
  5
1790
330
1F
100
AcDbEntity
  8
構成表
 62
     7
100
AcDbText
 10
-4549.916155641722
 20
-973.3186122841922
 30
0.0
 40
7.488
  1
□構成表
  7
ARIAL_TTF
 11
-4549.916155641722
 21
-969.5746122841922
 31
0.0
100
AcDbText
 73
     2
  0
LINE
  5
1794
330
1F
100
AcDbEntity
  8
構成表
 62
     7
100
AcDbLine
 10
-4205.468155641722
 20
-979.3090122841925
 30
0.0
 11
-4205.468155641722
 21
-1009.261012284192
 31
0.0
  0
LINE
  5
1795
330
1F
100
AcDbEntity
  8
構成表
 62
     7
100
AcDbLine
 10
-4340.252155641727
 20
-979.3090122841925
 30
0.0
 11
-4340.252155641725
 21
-1009.261012284192
 31
0.0
  0
LINE
  5
1796
330
1F
100
AcDbEntity
  8
構成表
 62
     7
100
AcDbLine
 10
-4316.290555641724
 20
-979.3090122841925
 30
0.0
 11
-4316.290555641724
 21
-1009.261012284192
 31
0.0
  0
LINE
  5
1797
330
1F
100
AcDbEntity
  8
構成表
 62
     7
100
AcDbLine
 10
-4430.108155641726
 20
-979.3090122841925
 30
0.0
 11
-4430.108155641726
 21
-1009.261012284192
 31
0.0
  0
TEXT
  5
17B9
330
1F
100
AcDbEntity
  8
構成表
 62
     7
100
AcDbText
 10
-4310.300155641721
 20
-1004.768212284187
 30
0.0
 40
5.990400000000003
  1
粉体焼付塗装(指定色)/ヘアライン加工
 41
0.7
  7
ARIAL_TTF
 11
-4310.300155641721
 21
-1001.773012284187
 31
0.0
100
AcDbText
 73
     2
  0
TEXT
  5
17BD
330
1F
100
AcDbEntity
  8
構成表
 62
     7
100
AcDbText
 10
-4424.117755641722
 20
-1004.768212284192
 30
0.0
 40
5.990400000000003
  1
亜鉛めっき鋼板/ステンレス鋼板
 41
0.7
  7
ARIAL_TTF
 11
-4424.117755641722
 21
-1001.773012284192
 31
0.0
100
AcDbText
 73
     2
  0
TEXT
  5
17C2
330
1F
100
AcDbEntity
  8
構成表
 62
     7
100
AcDbText
 10
-4402.570286841723
 20
-989.8611018841921
 30
0.0
 40
5.990400000000003
  1
材　　　質
  7
ARIAL_TTF
 72
     4
 11
-4385.180155641723
 21
-986.7970122841921
 31
0.0
100
AcDbText
  0
TEXT
  5
17CD
330
1F
100
AcDbEntity
  8
構成表
 62
     7
100
AcDbText
 10
-4336.981397241722
 20
-989.8940490841879
 30
0.0
 40
5.990400000000003
  1
数量
  7
ARIAL_TTF
 72
     4
 11
-4328.271355641722
 21
-986.797012284188
 31
0.0
100
AcDbText
  0
TEXT
  5
17CE
330
1F
100
AcDbEntity
  8
構成表
 62
     7
100
AcDbText
 10
-4326.63597644172
 20
-1004.768212284188
 30
0.0
 40
5.990400000000003
  1
1
  7
ARIAL_TTF
 72
     2
 11
-4322.280955641721
 21
-1001.773012284188
 31
0.0
100
AcDbText
 73
     2
  0
TEXT
  5
17CF
330
1F
100
AcDbEntity
  8
構成表
 62
     7
100
AcDbText
 10
-4278.26948684172
 20
-989.944967484192
 30
0.0
 40
5.990400000000003
  1
備　　　考
  7
ARIAL_TTF
 72
     4
 11
-4260.87935564172
 21
-986.7970122841921
 31
0.0
100
AcDbText
  0
LINE
  5
882E
330
1F
100
AcDbEntity
  8
Defpoints
 62
     7
100
AcDbLine
 10
-4789.532155641723
 20
-938.9659722841923
 30
0.0
 11
-4789.532155641723
 21
-949.3570122841923
 31
0.0
  0
LINE
  5
882F
330
1F
100
AcDbEntity
  8
Defpoints
 62
     7
100
AcDbLine
 10
-4190.492155641723
 20
-1368.685012284192
 30
0.0
 11
-4165.931515641724
 21
-1368.685012284192
 31
0.0
  0
LINE
  5
8830
330
1F
100
AcDbEntity
  8
Defpoints
 62
     7
100
AcDbLine
 10
-4789.532155641723
 20
-1798.404052284193
 30
0.0
 11
-4789.532155641723
 21
-1788.013012284192
 31
0.0
  0
TEXT
  5
C166
330
1F
100
AcDbEntity
  8
0
 62
     7
100
AcDbText
 10
-4305.2139247764
 20
-1505.183127604402
 30
0.0
 40
12.96
  1
付属品
  7
注記
100
AcDbText
  0
MTEXT
  5
CD7F
330
1F
100
AcDbEntity
  8
図面枠
 62
     7
100
AcDbMText
 10
-4527.452154305803
 20
-1772.194612369841
 30
0.0
 40
7.488000018355566
 41
44.9280001101334
 46
0.0
 71
     5
 72
     5
  1
三角法
  7
ARIAL_TTF
 73
     1
 44
1.0
  0
TEXT
  5
CD80
330
1F
100
AcDbEntity
  8
図面枠
 62
     7
100
AcDbText
 10
-4547.420403954751
 20
-1783.426612397375
 30
0.0
 40
4.492800011013338
  1
THIRD ANGLE
  7
ARIAL_TTF
 72
     4
 11
-4527.452154305803
 21
-1781.180212391868
 31
0.0
100
AcDbText
  0
ELLIPSE
  5
D2AB
102
{ACAD_REACTORS
330
D39C
102
}
330
1F
100
AcDbEntity
  8
0
 62
     7
100
AcDbEllipse
 10
-4247.613924776401
 20
-1587.461532230093
 30
0.0
 11
3.970306896704587
 21
-7.702489446281936E-11
 31
0.0
210
0.0
220
0.0
230
1.0
 40
0.6240187193310223
 41
0.0
 42
6.283185307179586
  0
ELLIPSE
  5
D2AC
102
{ACAD_REACTORS
330
D39C
102
}
330
1F
100
AcDbEntity
  8
0
 62
     7
100
AcDbEllipse
 10
-4247.613924776402
 20
-1597.96235458861
 30
0.0
 11
0.9566282344403574
 21
0.408599499291468
 31
0.0
210
0.0
220
0.0
230
1.0
 40
0.5115856396861805
 41
4.237385507973552
 42
4.878876163974605
  0
ELLIPSE
  5
D2AD
102
{ACAD_REACTORS
330
D39C
102
}
330
1F
100
AcDbEntity
  8
0
 62
     7
100
AcDbEllipse
 10
-4247.613924776402
 20
-1597.38635458861
 30
0.0
 11
0.9566282344403574
 21
0.408599499291468
 31
0.0
210
0.0
220
0.0
230
1.0
 40
0.5115856396861805
 41
3.887937807982728
 42
5.854299727684008
  0
ELLIPSE
  5
D2AE
102
{ACAD_REACTORS
330
D39C
102
}
330
1F
100
AcDbEntity
  8
0
 62
     7
100
AcDbEllipse
 10
-4247.613924776402
 20
-1597.164280986598
 30
0.0
 11
-0.979200000000001
 21
-1.249000902703300E-16
 31
0.0
210
0.0
220
0.0
230
1.0
 40
0.5773502691895597
 41
0.0
 42
3.141592653589793
  0
ELLIPSE
  5
D2AF
102
{ACAD_REACTORS
330
D39C
102
}
330
1F
100
AcDbEntity
  8
0
 62
     7
100
AcDbEllipse
 10
-4247.613924776402
 20
-1591.05035458861
 30
0.0
 11
0.9566282344403574
 21
0.408599499291468
 31
0.0
210
0.0
220
0.0
230
1.0
 40
0.5115856396861805
 41
3.140219339038765
 42
4.497259533361387
  0
ELLIPSE
  5
D2B0
102
{ACAD_REACTORS
330
D39C
102
}
330
1F
100
AcDbEntity
  8
0
 62
     7
100
AcDbEllipse
 10
-4247.613924776402
 20
-1596.81035458861
 30
0.0
 11
0.9566282344403574
 21
0.408599499291468
 31
0.0
210
0.0
220
0.0
230
1.0
 40
0.5115856396861805
 41
3.140219339038765
 42
5.854299727684008
  0
ELLIPSE
  5
D2B1
102
{ACAD_REACTORS
330
D39C
102
}
330
1F
100
AcDbEntity
  8
0
 62
     7
100
AcDbEllipse
 10
-4247.613924776402
 20
-1596.23435458861
 30
0.0
 11
0.9566282344403574
 21
0.408599499291468
 31
0.0
210
0.0
220
0.0
230
1.0
 40
0.5115856396861805
 41
3.140219339038765
 42
5.854299727684008
  0
ELLIPSE
  5
D2B2
102
{ACAD_REACTORS
330
D39C
102
}
330
1F
100
AcDbEntity
  8
0
 62
     7
100
AcDbEllipse
 10
-4247.613924776402
 20
-1595.65835458861
 30
0.0
 11
0.9566282344403574
 21
0.408599499291468
 31
0.0
210
0.0
220
0.0
230
1.0
 40
0.5115856396861805
 41
3.140219339038765
 42
5.854299727684008
  0
ELLIPSE
  5
D2B3
102
{ACAD_REACTORS
330
D39C
102
}
330
1F
100
AcDbEntity
  8
0
 62
     7
100
AcDbEllipse
 10
-4247.613924776402
 20
-1595.08235458861
 30
0.0
 11
0.9566282344403574
 21
0.408599499291468
 31
0.0
210
0.0
220
0.0
230
1.0
 40
0.5115856396861805
 41
3.140219339038765
 42
5.854299727684008
  0
ELLIPSE
  5
D2B4
102
{ACAD_REACTORS
330
D39C
102
}
330
1F
100
AcDbEntity
  8
0
 62
     7
100
AcDbEllipse
 10
-4247.613924776402
 20
-1594.50635458861
 30
0.0
 11
0.9566282344403574
 21
0.408599499291468
 31
0.0
210
0.0
220
0.0
230
1.0
 40
0.5115856396861805
 41
3.140219339038765
 42
5.854299727684008
  0
ELLIPSE
  5
D2B5
102
{ACAD_REACTORS
330
D39C
102
}
330
1F
100
AcDbEntity
  8
0
 62
     7
100
AcDbEllipse
 10
-4247.613924776402
 20
-1593.93035458861
 30
0.0
 11
0.9566282344403574
 21
0.408599499291468
 31
0.0
210
0.0
220
0.0
230
1.0
 40
0.5115856396861805
 41
3.140219339038765
 42
5.854299727684008
  0
ELLIPSE
  5
D2B6
102
{ACAD_REACTORS
330
D39C
102
}
330
1F
100
AcDbEntity
  8
0
 62
     7
100
AcDbEllipse
 10
-4247.613924776402
 20
-1593.35435458861
 30
0.0
 11
0.9566282344403574
 21
0.408599499291468
 31
0.0
210
0.0
220
0.0
230
1.0
 40
0.5115856396861805
 41
3.140219339038765
 42
5.854299727684008
  0
ELLIPSE
  5
D2B7
102
{ACAD_REACTORS
330
D39C
102
}
330
1F
100
AcDbEntity
  8
0
 62
     7
100
AcDbEllipse
 10
-4247.613924776402
 20
-1592.77835458861
 30
0.0
 11
0.9566282344403574
 21
0.408599499291468
 31
0.0
210
0.0
220
0.0
230
1.0
 40
0.5115856396861805
 41
3.140219339038765
 42
5.854299727684008
  0
ELLIPSE
  5
D2B8
102
{ACAD_REACTORS
330
D39C
102
}
330
1F
100
AcDbEntity
  8
0
 62
     7
100
AcDbEllipse
 10
-4247.613924776402
 20
-1592.20235458861
 30
0.0
 11
0.9566282344403574
 21
0.408599499291468
 31
0.0
210
0.0
220
0.0
230
1.0
 40
0.5115856396861805
 41
3.140219339038765
 42
5.854299727684008
  0
ELLIPSE
  5
D2B9
102
{ACAD_REACTORS
330
D39C
102
}
330
1F
100
AcDbEntity
  8
0
 62
     7
100
AcDbEllipse
 10
-4247.613924776402
 20
-1591.62635458861
 30
0.0
 11
0.9566282344403574
 21
0.408599499291468
 31
0.0
210
0.0
220
0.0
230
1.0
 40
0.5115856396861805
 41
3.140219339038765
 42
5.854299727684008
  0
ELLIPSE
  5
D2BA
102
{ACAD_REACTORS
330
D39C
102
}
330
1F
100
AcDbEntity
  8
0
 62
     7
100
AcDbEllipse
 10
-4247.410278023419
 20
-1587.719048538425
 30
0.0
 11
-1.191328670015029
 21
2.06344178497969
 31
0.0
210
0.0
220
0.0
230
1.0
 40
0.577350269189658
 41
5.618956875226104
 42
6.002428779983656
  0
ELLIPSE
  5
D2BB
102
{ACAD_REACTORS
330
D39C
102
}
330
1F
100
AcDbEntity
  8
0
 62
     7
100
AcDbEllipse
 10
-4248.428511788329
 20
-1587.366322015464
 30
0.0
 11
1.052722185574049
 21
1.823368311669427
 31
0.0
210
0.0
220
0.0
230
1.0
 40
0.5773502691896631
 41
0.6481797308532528
 42
0.9226165959414666
  0
ELLIPSE
  5
D2BC
102
{ACAD_REACTORS
330
D39C
102
}
330
1F
100
AcDbEntity
  8
0
 62
     7
100
AcDbEllipse
 10
-4247.817571529383
 20
-1587.954199553732
 30
0.0
 11
-1.191328670015027
 21
2.063441784979679
 31
0.0
210
0.0
220
0.0
230
1.0
 40
0.5773502691896623
 41
5.618956875226101
 42
6.002428779983656
  0
ELLIPSE
  5
D2BD
102
{ACAD_REACTORS
330
D39C
102
}
330
1F
100
AcDbEntity
  8
0
 62
     7
100
AcDbEllipse
 10
-4247.817571529383
 20
-1587.954199553732
 30
0.0
 11
-1.191328670015041
 21
2.06344178497967
 31
0.0
210
0.0
220
0.0
230
1.0
 40
0.5773502691896643
 41
4.993145507580763
 42
5.376617412338324
  0
ELLIPSE
  5
D2BE
102
{ACAD_REACTORS
330
D39C
102
}
330
1F
100
AcDbEntity
  8
0
 62
     7
100
AcDbEllipse
 10
-4246.799337764474
 20
-1588.306926076693
 30
0.0
 11
1.052722185574049
 21
1.823368311669435
 31
0.0
210
0.0
220
0.0
230
1.0
 40
0.5773502691896569
 41
0.6481797308532564
 42
0.9226165959414657
  0
ELLIPSE
  5
D2BF
102
{ACAD_REACTORS
330
D39C
102
}
330
1F
100
AcDbEntity
  8
0
 62
     7
100
AcDbEllipse
 10
-4247.410278023419
 20
-1587.719048538425
 30
0.0
 11
-1.191328670015019
 21
2.063441784979708
 31
0.0
210
0.0
220
0.0
230
1.0
 40
0.5773502691896554
 41
4.993145507580772
 42
5.376617412338332
  0
ELLIPSE
  5
D2C0
102
{ACAD_REACTORS
330
D39C
102
}
330
1F
100
AcDbEntity
  8
0
 62
     7
100
AcDbEllipse
 10
-4247.613924776402
 20
-1587.287938343695
 30
0.0
 11
-2.303999999999999
 21
3.747002708109900E-16
 31
0.0
210
0.0
220
0.0
230
1.0
 40
0.5773502691895595
 41
6.075455058476907
 42
6.283185307179586
  0
ELLIPSE
  5
D2C1
102
{ACAD_REACTORS
330
D39C
102
}
330
1F
100
AcDbEntity
  8
0
 62
     7
100
AcDbEllipse
 10
-4247.613924776402
 20
-1587.287938343695
 30
0.0
 11
-2.303999999999999
 21
3.747002708109900E-16
 31
0.0
210
0.0
220
0.0
230
1.0
 40
0.5773502691895595
 41
0.0000000000000003
 42
3.349322902292473
  0
ELLIPSE
  5
D2C2
102
{ACAD_REACTORS
330
D39C
102
}
330
1F
100
AcDbEntity
  8
0
 62
     7
100
AcDbEllipse
 10
-4247.613924776402
 20
-1590.580052557996
 30
0.0
 11
-1.152000000000002
 21
0.0
 31
0.0
210
0.0
220
0.0
230
1.0
 40
0.5773502691895592
 41
0.0
 42
3.141592653589793
  0
ELLIPSE
  5
D2C3
102
{ACAD_REACTORS
330
D39C
102
}
330
1F
100
AcDbEntity
  8
0
 62
     7
100
AcDbEllipse
 10
-4247.613924776402
 20
-1591.05035458861
 30
0.0
 11
-0.9792000000000018
 21
-8.118505867571453E-16
 31
0.0
210
0.0
220
0.0
230
1.0
 40
0.5773502691895593
 41
0.2137561324724227
 42
2.927836521117368
  0
ELLIPSE
  5
D2C4
102
{ACAD_REACTORS
330
D39C
102
}
330
1F
100
AcDbEntity
  8
0
 62
     7
100
AcDbEllipse
 10
-4247.817571529383
 20
-1587.719048538425
 30
0.0
 11
1.191328670015002
 21
2.063441784979722
 31
0.0
210
0.0
220
0.0
230
1.0
 40
0.5773502691896596
 41
0.9065678948412459
 42
1.290039799598801
  0
ELLIPSE
  5
D2C5
102
{ACAD_REACTORS
330
D39C
102
}
330
1F
100
AcDbEntity
  8
0
 62
     7
100
AcDbEllipse
 10
-4247.410278023419
 20
-1587.954199553732
 30
0.0
 11
1.191328670015025
 21
2.063441784979705
 31
0.0
210
0.0
220
0.0
230
1.0
 40
0.5773502691896572
 41
0.2807565271959263
 42
0.6642284319534784
  0
ELLIPSE
  5
D2C6
102
{ACAD_REACTORS
330
D39C
102
}
330
1F
100
AcDbEntity
  8
0
 62
     7
100
AcDbEllipse
 10
-4247.817571529383
 20
-1587.719048538425
 30
0.0
 11
1.191328670015018
 21
2.063441784979679
 31
0.0
210
0.0
220
0.0
230
1.0
 40
0.577350269189663
 41
0.2807565271959212
 42
0.664228431953485
  0
ELLIPSE
  5
D2C7
102
{ACAD_REACTORS
330
D39C
102
}
330
1F
100
AcDbEntity
  8
0
 62
     7
100
AcDbEllipse
 10
-4247.410278023419
 20
-1587.954199553732
 30
0.0
 11
1.191328670015018
 21
2.063441784979709
 31
0.0
210
0.0
220
0.0
230
1.0
 40
0.5773502691896555
 41
0.9065678948412481
 42
1.290039799598806
  0
ELLIPSE
  5
D2C8
102
{ACAD_REACTORS
330
D39C
102
}
330
1F
100
AcDbEntity
  8
0
 62
     7
100
AcDbEllipse
 10
-4248.428511788329
 20
-1588.306926076693
 30
0.0
 11
-1.05272218557405
 21
1.823368311669444
 31
0.0
210
0.0
220
0.0
230
1.0
 40
0.5773502691896578
 41
5.360568711238118
 42
5.635005576326339
  0
ELLIPSE
  5
D2C9
102
{ACAD_REACTORS
330
D39C
102
}
330
1F
100
AcDbEntity
  8
0
 62
     7
100
AcDbEllipse
 10
-4246.799337764474
 20
-1587.366322015464
 30
0.0
 11
-1.052722185574028
 21
1.823368311669444
 31
0.0
210
0.0
220
0.0
230
1.0
 40
0.5773502691896693
 41
5.360568711238134
 42
5.635005576326347
  0
ELLIPSE
  5
D2CA
102
{ACAD_REACTORS
330
D39C
102
}
330
1F
100
AcDbEntity
  8
0
 62
     7
100
AcDbEllipse
 10
-4258.319337764475
 20
-1587.366322015464
 30
0.0
 11
-1.052722185574028
 21
1.823368311669444
 31
0.0
210
0.0
220
0.0
230
1.0
 40
0.5773502691896693
 41
5.360568711238134
 42
5.635005576326347
  0
ELLIPSE
  5
D2CB
102
{ACAD_REACTORS
330
D39C
102
}
330
1F
100
AcDbEntity
  8
0
 62
     7
100
AcDbEllipse
 10
-4259.94851178833
 20
-1588.306926076693
 30
0.0
 11
-1.05272218557405
 21
1.823368311669444
 31
0.0
210
0.0
220
0.0
230
1.0
 40
0.5773502691896578
 41
5.360568711238118
 42
5.635005576326339
  0
ELLIPSE
  5
D2CC
102
{ACAD_REACTORS
330
D39C
102
}
330
1F
100
AcDbEntity
  8
0
 62
     7
100
AcDbEllipse
 10
-4258.930278023419
 20
-1587.954199553732
 30
0.0
 11
1.191328670015018
 21
2.063441784979709
 31
0.0
210
0.0
220
0.0
230
1.0
 40
0.5773502691896555
 41
0.9065678948412481
 42
1.290039799598806
  0
ELLIPSE
  5
D2CD
102
{ACAD_REACTORS
330
D39C
102
}
330
1F
100
AcDbEntity
  8
0
 62
     7
100
AcDbEllipse
 10
-4259.337571529383
 20
-1587.719048538425
 30
0.0
 11
1.191328670015018
 21
2.063441784979679
 31
0.0
210
0.0
220
0.0
230
1.0
 40
0.577350269189663
 41
0.2807565271959212
 42
0.664228431953485
  0
ELLIPSE
  5
D2CE
102
{ACAD_REACTORS
330
D39C
102
}
330
1F
100
AcDbEntity
  8
0
 62
     7
100
AcDbEllipse
 10
-4258.930278023419
 20
-1587.954199553732
 30
0.0
 11
1.191328670015025
 21
2.063441784979705
 31
0.0
210
0.0
220
0.0
230
1.0
 40
0.5773502691896572
 41
0.2807565271959263
 42
0.6642284319534784
  0
ELLIPSE
  5
D2CF
102
{ACAD_REACTORS
330
D39C
102
}
330
1F
100
AcDbEntity
  8
0
 62
     7
100
AcDbEllipse
 10
-4259.337571529383
 20
-1587.719048538425
 30
0.0
 11
1.191328670015002
 21
2.063441784979722
 31
0.0
210
0.0
220
0.0
230
1.0
 40
0.5773502691896596
 41
0.9065678948412459
 42
1.290039799598801
  0
ELLIPSE
  5
D2D0
102
{ACAD_REACTORS
330
D39C
102
}
330
1F
100
AcDbEntity
  8
0
 62
     7
100
AcDbEllipse
 10
-4259.133924776402
 20
-1591.05035458861
 30
0.0
 11
-0.9792000000000018
 21
-8.118505867571453E-16
 31
0.0
210
0.0
220
0.0
230
1.0
 40
0.5773502691895593
 41
0.2137561324724227
 42
2.927836521117368
  0
ELLIPSE
  5
D2D1
102
{ACAD_REACTORS
330
D39C
102
}
330
1F
100
AcDbEntity
  8
0
 62
     7
100
AcDbEllipse
 10
-4259.133924776402
 20
-1590.580052557996
 30
0.0
 11
-1.152000000000002
 21
0.0
 31
0.0
210
0.0
220
0.0
230
1.0
 40
0.5773502691895592
 41
0.0
 42
3.141592653589793
  0
ELLIPSE
  5
D2D2
102
{ACAD_REACTORS
330
D39C
102
}
330
1F
100
AcDbEntity
  8
0
 62
     7
100
AcDbEllipse
 10
-4259.133924776402
 20
-1587.287938343695
 30
0.0
 11
-2.303999999999999
 21
3.747002708109900E-16
 31
0.0
210
0.0
220
0.0
230
1.0
 40
0.5773502691895595
 41
0.0000000000000003
 42
3.349322902292473
  0
ELLIPSE
  5
D2D3
102
{ACAD_REACTORS
330
D39C
102
}
330
1F
100
AcDbEntity
  8
0
 62
     7
100
AcDbEllipse
 10
-4259.133924776402
 20
-1587.287938343695
 30
0.0
 11
-2.303999999999999
 21
3.747002708109900E-16
 31
0.0
210
0.0
220
0.0
230
1.0
 40
0.5773502691895595
 41
6.075455058476907
 42
6.283185307179586
  0
ELLIPSE
  5
D2D4
102
{ACAD_REACTORS
330
D39C
102
}
330
1F
100
AcDbEntity
  8
0
 62
     7
100
AcDbEllipse
 10
-4258.930278023419
 20
-1587.719048538425
 30
0.0
 11
-1.191328670015019
 21
2.063441784979708
 31
0.0
210
0.0
220
0.0
230
1.0
 40
0.5773502691896554
 41
4.993145507580772
 42
5.376617412338332
  0
ELLIPSE
  5
D2D5
102
{ACAD_REACTORS
330
D39C
102
}
330
1F
100
AcDbEntity
  8
0
 62
     7
100
AcDbEllipse
 10
-4258.319337764475
 20
-1588.306926076693
 30
0.0
 11
1.052722185574049
 21
1.823368311669435
 31
0.0
210
0.0
220
0.0
230
1.0
 40
0.5773502691896569
 41
0.6481797308532564
 42
0.9226165959414657
  0
ELLIPSE
  5
D2D6
102
{ACAD_REACTORS
330
D39C
102
}
330
1F
100
AcDbEntity
  8
0
 62
     7
100
AcDbEllipse
 10
-4259.337571529383
 20
-1587.954199553732
 30
0.0
 11
-1.191328670015041
 21
2.06344178497967
 31
0.0
210
0.0
220
0.0
230
1.0
 40
0.5773502691896643
 41
4.993145507580763
 42
5.376617412338324
  0
ELLIPSE
  5
D2D7
102
{ACAD_REACTORS
330
D39C
102
}
330
1F
100
AcDbEntity
  8
0
 62
     7
100
AcDbEllipse
 10
-4259.337571529383
 20
-1587.954199553732
 30
0.0
 11
-1.191328670015027
 21
2.063441784979679
 31
0.0
210
0.0
220
0.0
230
1.0
 40
0.5773502691896623
 41
5.618956875226101
 42
6.002428779983656
  0
ELLIPSE
  5
D2D8
102
{ACAD_REACTORS
330
D39C
102
}
330
1F
100
AcDbEntity
  8
0
 62
     7
100
AcDbEllipse
 10
-4259.94851178833
 20
-1587.366322015464
 30
0.0
 11
1.052722185574049
 21
1.823368311669427
 31
0.0
210
0.0
220
0.0
230
1.0
 40
0.5773502691896631
 41
0.6481797308532528
 42
0.9226165959414666
  0
ELLIPSE
  5
D2D9
102
{ACAD_REACTORS
330
D39C
102
}
330
1F
100
AcDbEntity
  8
0
 62
     7
100
AcDbEllipse
 10
-4258.930278023419
 20
-1587.719048538425
 30
0.0
 11
-1.191328670015029
 21
2.06344178497969
 31
0.0
210
0.0
220
0.0
230
1.0
 40
0.577350269189658
 41
5.618956875226104
 42
6.002428779983656
  0
ELLIPSE
  5
D2DA
102
{ACAD_REACTORS
330
D39C
102
}
330
1F
100
AcDbEntity
  8
0
 62
     7
100
AcDbEllipse
 10
-4259.133924776402
 20
-1591.62635458861
 30
0.0
 11
0.9566282344403574
 21
0.408599499291468
 31
0.0
210
0.0
220
0.0
230
1.0
 40
0.5115856396861805
 41
3.140219339038765
 42
5.854299727684008
  0
ELLIPSE
  5
D2DB
102
{ACAD_REACTORS
330
D39C
102
}
330
1F
100
AcDbEntity
  8
0
 62
     7
100
AcDbEllipse
 10
-4259.133924776402
 20
-1592.20235458861
 30
0.0
 11
0.9566282344403574
 21
0.408599499291468
 31
0.0
210
0.0
220
0.0
230
1.0
 40
0.5115856396861805
 41
3.140219339038765
 42
5.854299727684008
  0
ELLIPSE
  5
D2DC
102
{ACAD_REACTORS
330
D39C
102
}
330
1F
100
AcDbEntity
  8
0
 62
     7
100
AcDbEllipse
 10
-4259.133924776402
 20
-1592.77835458861
 30
0.0
 11
0.9566282344403574
 21
0.408599499291468
 31
0.0
210
0.0
220
0.0
230
1.0
 40
0.5115856396861805
 41
3.140219339038765
 42
5.854299727684008
  0
ELLIPSE
  5
D2DD
102
{ACAD_REACTORS
330
D39C
102
}
330
1F
100
AcDbEntity
  8
0
 62
     7
100
AcDbEllipse
 10
-4259.133924776402
 20
-1593.35435458861
 30
0.0
 11
0.9566282344403574
 21
0.408599499291468
 31
0.0
210
0.0
220
0.0
230
1.0
 40
0.5115856396861805
 41
3.140219339038765
 42
5.854299727684008
  0
ELLIPSE
  5
D2DE
102
{ACAD_REACTORS
330
D39C
102
}
330
1F
100
AcDbEntity
  8
0
 62
     7
100
AcDbEllipse
 10
-4259.133924776402
 20
-1593.93035458861
 30
0.0
 11
0.9566282344403574
 21
0.408599499291468
 31
0.0
210
0.0
220
0.0
230
1.0
 40
0.5115856396861805
 41
3.140219339038765
 42
5.854299727684008
  0
ELLIPSE
  5
D2DF
102
{ACAD_REACTORS
330
D39C
102
}
330
1F
100
AcDbEntity
  8
0
 62
     7
100
AcDbEllipse
 10
-4259.133924776402
 20
-1594.50635458861
 30
0.0
 11
0.9566282344403574
 21
0.408599499291468
 31
0.0
210
0.0
220
0.0
230
1.0
 40
0.5115856396861805
 41
3.140219339038765
 42
5.854299727684008
  0
ELLIPSE
  5
D2E0
102
{ACAD_REACTORS
330
D39C
102
}
330
1F
100
AcDbEntity
  8
0
 62
     7
100
AcDbEllipse
 10
-4259.133924776402
 20
-1595.08235458861
 30
0.0
 11
0.9566282344403574
 21
0.408599499291468
 31
0.0
210
0.0
220
0.0
230
1.0
 40
0.5115856396861805
 41
3.140219339038765
 42
5.854299727684008
  0
ELLIPSE
  5
D2E1
102
{ACAD_REACTORS
330
D39C
102
}
330
1F
100
AcDbEntity
  8
0
 62
     7
100
AcDbEllipse
 10
-4259.133924776402
 20
-1595.65835458861
 30
0.0
 11
0.9566282344403574
 21
0.408599499291468
 31
0.0
210
0.0
220
0.0
230
1.0
 40
0.5115856396861805
 41
3.140219339038765
 42
5.854299727684008
  0
ELLIPSE
  5
D2E2
102
{ACAD_REACTORS
330
D39C
102
}
330
1F
100
AcDbEntity
  8
0
 62
     7
100
AcDbEllipse
 10
-4259.133924776402
 20
-1596.23435458861
 30
0.0
 11
0.9566282344403574
 21
0.408599499291468
 31
0.0
210
0.0
220
0.0
230
1.0
 40
0.5115856396861805
 41
3.140219339038765
 42
5.854299727684008
  0
ELLIPSE
  5
D2E3
102
{ACAD_REACTORS
330
D39C
102
}
330
1F
100
AcDbEntity
  8
0
 62
     7
100
AcDbEllipse
 10
-4259.133924776402
 20
-1596.81035458861
 30
0.0
 11
0.9566282344403574
 21
0.408599499291468
 31
0.0
210
0.0
220
0.0
230
1.0
 40
0.5115856396861805
 41
3.140219339038765
 42
5.854299727684008
  0
ELLIPSE
  5
D2E4
102
{ACAD_REACTORS
330
D39C
102
}
330
1F
100
AcDbEntity
  8
0
 62
     7
100
AcDbEllipse
 10
-4259.133924776402
 20
-1591.05035458861
 30
0.0
 11
0.9566282344403574
 21
0.408599499291468
 31
0.0
210
0.0
220
0.0
230
1.0
 40
0.5115856396861805
 41
3.140219339038765
 42
4.497259533361387
  0
ELLIPSE
  5
D2E5
102
{ACAD_REACTORS
330
D39C
102
}
330
1F
100
AcDbEntity
  8
0
 62
     7
100
AcDbEllipse
 10
-4259.133924776402
 20
-1597.164280986598
 30
0.0
 11
-0.979200000000001
 21
-1.249000902703300E-16
 31
0.0
210
0.0
220
0.0
230
1.0
 40
0.5773502691895597
 41
0.0
 42
3.141592653589793
  0
ELLIPSE
  5
D2E6
102
{ACAD_REACTORS
330
D39C
102
}
330
1F
100
AcDbEntity
  8
0
 62
     7
100
AcDbEllipse
 10
-4259.133924776402
 20
-1597.38635458861
 30
0.0
 11
0.9566282344403574
 21
0.408599499291468
 31
0.0
210
0.0
220
0.0
230
1.0
 40
0.5115856396861805
 41
3.887937807982728
 42
5.854299727684008
  0
ELLIPSE
  5
D2E7
102
{ACAD_REACTORS
330
D39C
102
}
330
1F
100
AcDbEntity
  8
0
 62
     7
100
AcDbEllipse
 10
-4259.133924776402
 20
-1597.96235458861
 30
0.0
 11
0.9566282344403574
 21
0.408599499291468
 31
0.0
210
0.0
220
0.0
230
1.0
 40
0.5115856396861805
 41
4.237385507973552
 42
4.878876163974605
  0
ELLIPSE
  5
D2E8
102
{ACAD_REACTORS
330
D39C
102
}
330
1F
100
AcDbEntity
  8
0
 62
     7
100
AcDbEllipse
 10
-4259.133924776401
 20
-1587.461532230093
 30
0.0
 11
3.970306896704587
 21
-7.702489446281936E-11
 31
0.0
210
0.0
220
0.0
230
1.0
 40
0.6240187193310223
 41
0.0
 42
6.283185307179586
  0
ELLIPSE
  5
D2E9
102
{ACAD_REACTORS
330
D39C
102
}
330
1F
100
AcDbEntity
  8
0
 62
     7
100
AcDbEllipse
 10
-4253.373924776402
 20
-1573.136177290926
 30
0.0
 11
-2.591999999999998
 21
1.438849039914202E-16
 31
0.0
210
0.0
220
0.0
230
1.0
 40
0.5773502691895597
 41
0.0
 42
3.597166330125952
  0
ELLIPSE
  5
D2EA
102
{ACAD_REACTORS
330
D39C
102
}
330
1F
100
AcDbEntity
  8
0
 62
     7
100
AcDbEllipse
 10
-4253.373924776402
 20
-1577.83919759707
 30
0.0
 11
-1.151999999999999
 21
-3.836930773104539E-16
 31
0.0
210
0.0
220
0.0
230
1.0
 40
0.5773502691895597
 41
0.0
 42
3.141592653589793
  0
ELLIPSE
  5
D2EB
102
{ACAD_REACTORS
330
D39C
102
}
330
1F
100
AcDbEntity
  8
0
 62
     7
100
AcDbEllipse
 10
-4253.373924776402
 20
-1573.136177290926
 30
0.0
 11
-2.591999999999998
 21
1.438849039914202E-16
 31
0.0
210
0.0
220
0.0
230
1.0
 40
0.5773502691895597
 41
5.827611630643426
 42
6.283185307179586
  0
ELLIPSE
  5
D2EC
102
{ACAD_REACTORS
330
D39C
102
}
330
1F
100
AcDbEntity
  8
0
 62
     7
100
AcDbEllipse
 10
-4253.170278023419
 20
-1574.335447468993
 30
0.0
 11
-1.519592366392928
 21
2.632011185386625
 31
0.0
210
0.0
220
0.0
230
1.0
 40
0.5773502691896607
 41
5.109018730037956
 42
5.402882486448734
  0
ELLIPSE
  5
D2ED
102
{ACAD_REACTORS
330
D39C
102
}
330
1F
100
AcDbEntity
  8
0
 62
     7
100
AcDbEllipse
 10
-4252.559337764474
 20
-1574.923325007261
 30
0.0
 11
1.413549065296196
 21
2.448338800084675
 31
0.0
210
0.0
220
0.0
230
1.0
 40
0.5773502691896547
 41
0.6833498936095345
 42
0.8874464331852266
  0
ELLIPSE
  5
D2EE
102
{ACAD_REACTORS
330
D39C
102
}
330
1F
100
AcDbEntity
  8
0
 62
     7
100
AcDbEllipse
 10
-4253.170278023418
 20
-1574.5705984843
 30
0.0
 11
1.519592366392913
 21
2.632011185386621
 31
0.0
210
0.0
220
0.0
230
1.0
 40
0.5773502691896639
 41
0.3966297496531025
 42
0.6904935060638803
  0
ELLIPSE
  5
D2EF
102
{ACAD_REACTORS
330
D39C
102
}
330
1F
100
AcDbEntity
  8
0
 62
     7
100
AcDbEllipse
 10
-4252.559337764475
 20
-1573.982720946033
 30
0.0
 11
-1.413549065296151
 21
2.448338800084706
 31
0.0
210
0.0
220
0.0
230
1.0
 40
0.5773502691896625
 41
5.395738873994371
 42
5.599835413570065
  0
ELLIPSE
  5
D2F0
102
{ACAD_REACTORS
330
D39C
102
}
330
1F
100
AcDbEntity
  8
0
 62
     7
100
AcDbEllipse
 10
-4254.188511788328
 20
-1573.982720946033
 30
0.0
 11
1.413549065296147
 21
2.448338800084719
 31
0.0
210
0.0
220
0.0
230
1.0
 40
0.5773502691896598
 41
0.6833498936095195
 42
0.8874464331852097
  0
ELLIPSE
  5
D2F1
102
{ACAD_REACTORS
330
D39C
102
}
330
1F
100
AcDbEntity
  8
0
 62
     7
100
AcDbEllipse
 10
-4253.577571529383
 20
-1574.5705984843
 30
0.0
 11
-1.51959236639291
 21
2.632011185386631
 31
0.0
210
0.0
220
0.0
230
1.0
 40
0.5773502691896634
 41
5.592691801115707
 42
5.886555557526489
  0
ELLIPSE
  5
D2F2
102
{ACAD_REACTORS
330
D39C
102
}
330
1F
100
AcDbEntity
  8
0
 62
     7
100
AcDbEllipse
 10
-4253.577571529383
 20
-1574.5705984843
 30
0.0
 11
-1.519592366392895
 21
2.63201118538667
 31
0.0
210
0.0
220
0.0
230
1.0
 40
0.5773502691896578
 41
5.109018730037966
 42
5.402882486448743
  0
ELLIPSE
  5
D2F3
102
{ACAD_REACTORS
330
D39C
102
}
330
1F
100
AcDbEntity
  8
0
 62
     7
100
AcDbEllipse
 10
-4253.170278023419
 20
-1574.335447468993
 30
0.0
 11
-1.519592366392921
 21
2.632011185386661
 31
0.0
210
0.0
220
0.0
230
1.0
 40
0.5773502691896538
 41
5.592691801115726
 42
5.886555557526505
  0
ELLIPSE
  5
D2F4
102
{ACAD_REACTORS
330
D39C
102
}
330
1F
100
AcDbEntity
  8
0
 62
     7
100
AcDbEllipse
 10
-4253.170278023418
 20
-1574.5705984843
 30
0.0
 11
1.519592366392917
 21
2.632011185386634
 31
0.0
210
0.0
220
0.0
230
1.0
 40
0.5773502691896647
 41
0.8803028207308582
 42
1.174166577141627
  0
ELLIPSE
  5
D2F5
102
{ACAD_REACTORS
330
D39C
102
}
330
1F
100
AcDbEntity
  8
0
 62
     7
100
AcDbEllipse
 10
-4253.577571529383
 20
-1574.335447468993
 30
0.0
 11
1.519592366392917
 21
2.63201118538664
 31
0.0
210
0.0
220
0.0
230
1.0
 40
0.5773502691896583
 41
0.3966297496530995
 42
0.6904935060638754
  0
ELLIPSE
  5
D2F6
102
{ACAD_REACTORS
330
D39C
102
}
330
1F
100
AcDbEntity
  8
0
 62
     7
100
AcDbEllipse
 10
-4253.577571529383
 20
-1574.335447468993
 30
0.0
 11
1.519592366392911
 21
2.632011185386649
 31
0.0
210
0.0
220
0.0
230
1.0
 40
0.5773502691896595
 41
0.8803028207308514
 42
1.174166577141633
  0
ELLIPSE
  5
D2F7
102
{ACAD_REACTORS
330
D39C
102
}
330
1F
100
AcDbEntity
  8
0
 62
     7
100
AcDbEllipse
 10
-4254.188511788328
 20
-1574.923325007261
 30
0.0
 11
-1.413549065296143
 21
2.448338800084734
 31
0.0
210
0.0
220
0.0
230
1.0
 40
0.5773502691896638
 41
5.395738873994397
 42
5.599835413570085
  0
SPLINE
  5
D2F8
102
{ACAD_REACTORS
330
D39C
102
}
330
1F
100
AcDbEntity
  8
0
 62
     7
100
AcDbSpline
210
0.0
220
0.0
230
1.0
 70
     8
 71
     3
 72
    10
 73
     6
 74
     0
 42
0.000000001
 43
0.0000000001
 40
1.177256957647051
 40
1.177256957647051
 40
1.177256957647051
 40
1.177256957647051
 40
1.527073774270985
 40
1.527073774270985
 40
1.964346574804416
 40
1.964346574804416
 40
1.964346574804416
 40
1.964346574804416
 10
-4253.949924776401
 20
-1579.013633690901
 30
0.0
 10
-4253.784028857077
 20
-1579.053453821753
 30
0.0
 10
-4253.611837826984
 20
-1579.075115545407
 30
0.0
 10
-4253.222550981979
 20
-1579.084948668452
 30
0.0
 10
-4253.005318376328
 20
-1579.063493824528
 30
0.0
 10
-4252.797924776401
 20
-1579.013665615137
 30
0.0
  0
ELLIPSE
  5
D2F9
102
{ACAD_REACTORS
330
D39C
102
}
330
1F
100
AcDbEntity
  8
0
 62
     7
100
AcDbEllipse
 10
-4253.373921817231
 20
-1577.285860585913
 30
0.0
 11
-1.112746551885006
 21
-0.2981595399581042
 31
0.0
210
0.0
220
0.0
230
1.0
 40
0.5773502691895597
 41
0.0
 42
3.141592653589793
  0
ELLIPSE
  5
D2FA
102
{ACAD_REACTORS
330
D39C
102
}
330
1F
100
AcDbEntity
  8
0
 62
     7
100
AcDbEllipse
 10
-4253.373921817231
 20
-1576.709860585913
 30
0.0
 11
-1.112746551885006
 21
-0.2981595399581042
 31
0.0
210
0.0
220
0.0
230
1.0
 40
0.5773502691895597
 41
0.0
 42
3.141592653589793
  0
ELLIPSE
  5
D2FB
102
{ACAD_REACTORS
330
D39C
102
}
330
1F
100
AcDbEntity
  8
0
 62
     7
100
AcDbEllipse
 10
-4253.373921817231
 20
-1575.557860585913
 30
0.0
 11
-1.112746551885006
 21
-0.2981595399581042
 31
0.0
210
0.0
220
0.0
230
1.0
 40
0.5773502691895597
 41
0.0
 42
3.141592653589793
  0
ELLIPSE
  5
D2FC
102
{ACAD_REACTORS
330
D39C
102
}
330
1F
100
AcDbEntity
  8
0
 62
     7
100
AcDbEllipse
 10
-4253.373921817231
 20
-1576.133860585913
 30
0.0
 11
-1.112746551885006
 21
-0.2981595399581042
 31
0.0
210
0.0
220
0.0
230
1.0
 40
0.5773502691895597
 41
0.0
 42
3.141592653589793
  0
ELLIPSE
  5
D2FD
102
{ACAD_REACTORS
330
D39C
102
}
330
1F
100
AcDbEntity
  8
0
 62
     7
100
AcDbEllipse
 10
-4253.373921817231
 20
-1574.981860585913
 30
0.0
 11
-1.112746551885006
 21
-0.2981595399581042
 31
0.0
210
0.0
220
0.0
230
1.0
 40
0.5773502691895597
 41
0.0
 42
3.141592653589793
  0
ELLIPSE
  5
D2FE
102
{ACAD_REACTORS
330
D39C
102
}
330
1F
100
AcDbEntity
  8
0
 62
     7
100
AcDbEllipse
 10
-4253.373921817231
 20
-1574.405860585913
 30
0.0
 11
-1.112746551885006
 21
-0.2981595399581042
 31
0.0
210
0.0
220
0.0
230
1.0
 40
0.5773502691895597
 41
0.0
 42
2.55795858617378
  0
ELLIPSE
  5
D2FF
102
{ACAD_REACTORS
330
D39C
102
}
330
1F
100
AcDbEntity
  8
0
 62
     7
100
AcDbEllipse
 10
-4270.653924776401
 20
-1587.461532230093
 30
0.0
 11
3.970306896704587
 21
-7.702489446281936E-11
 31
0.0
210
0.0
220
0.0
230
1.0
 40
0.6240187193310223
 41
0.0
 42
6.283185307179586
  0
ELLIPSE
  5
D300
102
{ACAD_REACTORS
330
D39C
102
}
330
1F
100
AcDbEntity
  8
0
 62
     7
100
AcDbEllipse
 10
-4269.839337764474
 20
-1587.366322015464
 30
0.0
 11
-1.052722185574028
 21
1.823368311669444
 31
0.0
210
0.0
220
0.0
230
1.0
 40
0.5773502691896693
 41
5.360568711238134
 42
5.635005576326347
  0
ELLIPSE
  5
D301
102
{ACAD_REACTORS
330
D39C
102
}
330
1F
100
AcDbEntity
  8
0
 62
     7
100
AcDbEllipse
 10
-4271.468511788329
 20
-1588.306926076693
 30
0.0
 11
-1.05272218557405
 21
1.823368311669444
 31
0.0
210
0.0
220
0.0
230
1.0
 40
0.5773502691896578
 41
5.360568711238118
 42
5.635005576326339
  0
ELLIPSE
  5
D302
102
{ACAD_REACTORS
330
D39C
102
}
330
1F
100
AcDbEntity
  8
0
 62
     7
100
AcDbEllipse
 10
-4270.45027802342
 20
-1587.954199553732
 30
0.0
 11
1.191328670015018
 21
2.063441784979709
 31
0.0
210
0.0
220
0.0
230
1.0
 40
0.5773502691896555
 41
0.9065678948412481
 42
1.290039799598806
  0
ELLIPSE
  5
D303
102
{ACAD_REACTORS
330
D39C
102
}
330
1F
100
AcDbEntity
  8
0
 62
     7
100
AcDbEllipse
 10
-4270.857571529382
 20
-1587.719048538425
 30
0.0
 11
1.191328670015018
 21
2.063441784979679
 31
0.0
210
0.0
220
0.0
230
1.0
 40
0.577350269189663
 41
0.2807565271959212
 42
0.664228431953485
  0
ELLIPSE
  5
D304
102
{ACAD_REACTORS
330
D39C
102
}
330
1F
100
AcDbEntity
  8
0
 62
     7
100
AcDbEllipse
 10
-4270.45027802342
 20
-1587.954199553732
 30
0.0
 11
1.191328670015025
 21
2.063441784979705
 31
0.0
210
0.0
220
0.0
230
1.0
 40
0.5773502691896572
 41
0.2807565271959263
 42
0.6642284319534784
  0
ELLIPSE
  5
D305
102
{ACAD_REACTORS
330
D39C
102
}
330
1F
100
AcDbEntity
  8
0
 62
     7
100
AcDbEllipse
 10
-4270.857571529382
 20
-1587.719048538425
 30
0.0
 11
1.191328670015002
 21
2.063441784979722
 31
0.0
210
0.0
220
0.0
230
1.0
 40
0.5773502691896596
 41
0.9065678948412459
 42
1.290039799598801
  0
ELLIPSE
  5
D306
102
{ACAD_REACTORS
330
D39C
102
}
330
1F
100
AcDbEntity
  8
0
 62
     7
100
AcDbEllipse
 10
-4270.653924776402
 20
-1591.05035458861
 30
0.0
 11
-0.9792000000000018
 21
-8.118505867571453E-16
 31
0.0
210
0.0
220
0.0
230
1.0
 40
0.5773502691895593
 41
0.2137561324724227
 42
2.927836521117368
  0
ELLIPSE
  5
D307
102
{ACAD_REACTORS
330
D39C
102
}
330
1F
100
AcDbEntity
  8
0
 62
     7
100
AcDbEllipse
 10
-4270.653924776402
 20
-1590.580052557996
 30
0.0
 11
-1.152000000000002
 21
0.0
 31
0.0
210
0.0
220
0.0
230
1.0
 40
0.5773502691895592
 41
0.0
 42
3.141592653589793
  0
ELLIPSE
  5
D308
102
{ACAD_REACTORS
330
D39C
102
}
330
1F
100
AcDbEntity
  8
0
 62
     7
100
AcDbEllipse
 10
-4270.653924776402
 20
-1587.287938343695
 30
0.0
 11
-2.303999999999999
 21
3.747002708109900E-16
 31
0.0
210
0.0
220
0.0
230
1.0
 40
0.5773502691895595
 41
0.0000000000000003
 42
3.349322902292473
  0
ELLIPSE
  5
D309
102
{ACAD_REACTORS
330
D39C
102
}
330
1F
100
AcDbEntity
  8
0
 62
     7
100
AcDbEllipse
 10
-4270.653924776402
 20
-1587.287938343695
 30
0.0
 11
-2.303999999999999
 21
3.747002708109900E-16
 31
0.0
210
0.0
220
0.0
230
1.0
 40
0.5773502691895595
 41
6.075455058476907
 42
6.283185307179586
  0
ELLIPSE
  5
D30A
102
{ACAD_REACTORS
330
D39C
102
}
330
1F
100
AcDbEntity
  8
0
 62
     7
100
AcDbEllipse
 10
-4270.45027802342
 20
-1587.719048538425
 30
0.0
 11
-1.191328670015019
 21
2.063441784979708
 31
0.0
210
0.0
220
0.0
230
1.0
 40
0.5773502691896554
 41
4.993145507580772
 42
5.376617412338332
  0
ELLIPSE
  5
D30B
102
{ACAD_REACTORS
330
D39C
102
}
330
1F
100
AcDbEntity
  8
0
 62
     7
100
AcDbEllipse
 10
-4269.839337764474
 20
-1588.306926076693
 30
0.0
 11
1.052722185574049
 21
1.823368311669435
 31
0.0
210
0.0
220
0.0
230
1.0
 40
0.5773502691896569
 41
0.6481797308532564
 42
0.9226165959414657
  0
ELLIPSE
  5
D30C
102
{ACAD_REACTORS
330
D39C
102
}
330
1F
100
AcDbEntity
  8
0
 62
     7
100
AcDbEllipse
 10
-4270.857571529382
 20
-1587.954199553732
 30
0.0
 11
-1.191328670015041
 21
2.06344178497967
 31
0.0
210
0.0
220
0.0
230
1.0
 40
0.5773502691896643
 41
4.993145507580763
 42
5.376617412338324
  0
ELLIPSE
  5
D30D
102
{ACAD_REACTORS
330
D39C
102
}
330
1F
100
AcDbEntity
  8
0
 62
     7
100
AcDbEllipse
 10
-4270.857571529382
 20
-1587.954199553732
 30
0.0
 11
-1.191328670015027
 21
2.063441784979679
 31
0.0
210
0.0
220
0.0
230
1.0
 40
0.5773502691896623
 41
5.618956875226101
 42
6.002428779983656
  0
ELLIPSE
  5
D30E
102
{ACAD_REACTORS
330
D39C
102
}
330
1F
100
AcDbEntity
  8
0
 62
     7
100
AcDbEllipse
 10
-4271.468511788329
 20
-1587.366322015464
 30
0.0
 11
1.052722185574049
 21
1.823368311669427
 31
0.0
210
0.0
220
0.0
230
1.0
 40
0.5773502691896631
 41
0.6481797308532528
 42
0.9226165959414666
  0
ELLIPSE
  5
D30F
102
{ACAD_REACTORS
330
D39C
102
}
330
1F
100
AcDbEntity
  8
0
 62
     7
100
AcDbEllipse
 10
-4270.45027802342
 20
-1587.719048538425
 30
0.0
 11
-1.191328670015029
 21
2.06344178497969
 31
0.0
210
0.0
220
0.0
230
1.0
 40
0.577350269189658
 41
5.618956875226104
 42
6.002428779983656
  0
ELLIPSE
  5
D310
102
{ACAD_REACTORS
330
D39C
102
}
330
1F
100
AcDbEntity
  8
0
 62
     7
100
AcDbEllipse
 10
-4270.653924776402
 20
-1591.62635458861
 30
0.0
 11
0.9566282344403574
 21
0.408599499291468
 31
0.0
210
0.0
220
0.0
230
1.0
 40
0.5115856396861805
 41
3.140219339038765
 42
5.854299727684008
  0
ELLIPSE
  5
D311
102
{ACAD_REACTORS
330
D39C
102
}
330
1F
100
AcDbEntity
  8
0
 62
     7
100
AcDbEllipse
 10
-4270.653924776402
 20
-1592.20235458861
 30
0.0
 11
0.9566282344403574
 21
0.408599499291468
 31
0.0
210
0.0
220
0.0
230
1.0
 40
0.5115856396861805
 41
3.140219339038765
 42
5.854299727684008
  0
ELLIPSE
  5
D312
102
{ACAD_REACTORS
330
D39C
102
}
330
1F
100
AcDbEntity
  8
0
 62
     7
100
AcDbEllipse
 10
-4270.653924776402
 20
-1592.77835458861
 30
0.0
 11
0.9566282344403574
 21
0.408599499291468
 31
0.0
210
0.0
220
0.0
230
1.0
 40
0.5115856396861805
 41
3.140219339038765
 42
5.854299727684008
  0
ELLIPSE
  5
D313
102
{ACAD_REACTORS
330
D39C
102
}
330
1F
100
AcDbEntity
  8
0
 62
     7
100
AcDbEllipse
 10
-4270.653924776402
 20
-1593.35435458861
 30
0.0
 11
0.9566282344403574
 21
0.408599499291468
 31
0.0
210
0.0
220
0.0
230
1.0
 40
0.5115856396861805
 41
3.140219339038765
 42
5.854299727684008
  0
ELLIPSE
  5
D314
102
{ACAD_REACTORS
330
D39C
102
}
330
1F
100
AcDbEntity
  8
0
 62
     7
100
AcDbEllipse
 10
-4270.653924776402
 20
-1593.93035458861
 30
0.0
 11
0.9566282344403574
 21
0.408599499291468
 31
0.0
210
0.0
220
0.0
230
1.0
 40
0.5115856396861805
 41
3.140219339038765
 42
5.854299727684008
  0
ELLIPSE
  5
D315
102
{ACAD_REACTORS
330
D39C
102
}
330
1F
100
AcDbEntity
  8
0
 62
     7
100
AcDbEllipse
 10
-4270.653924776402
 20
-1594.50635458861
 30
0.0
 11
0.9566282344403574
 21
0.408599499291468
 31
0.0
210
0.0
220
0.0
230
1.0
 40
0.5115856396861805
 41
3.140219339038765
 42
5.854299727684008
  0
ELLIPSE
  5
D316
102
{ACAD_REACTORS
330
D39C
102
}
330
1F
100
AcDbEntity
  8
0
 62
     7
100
AcDbEllipse
 10
-4270.653924776402
 20
-1595.08235458861
 30
0.0
 11
0.9566282344403574
 21
0.408599499291468
 31
0.0
210
0.0
220
0.0
230
1.0
 40
0.5115856396861805
 41
3.140219339038765
 42
5.854299727684008
  0
ELLIPSE
  5
D317
102
{ACAD_REACTORS
330
D39C
102
}
330
1F
100
AcDbEntity
  8
0
 62
     7
100
AcDbEllipse
 10
-4270.653924776402
 20
-1595.65835458861
 30
0.0
 11
0.9566282344403574
 21
0.408599499291468
 31
0.0
210
0.0
220
0.0
230
1.0
 40
0.5115856396861805
 41
3.140219339038765
 42
5.854299727684008
  0
ELLIPSE
  5
D318
102
{ACAD_REACTORS
330
D39C
102
}
330
1F
100
AcDbEntity
  8
0
 62
     7
100
AcDbEllipse
 10
-4270.653924776402
 20
-1596.23435458861
 30
0.0
 11
0.9566282344403574
 21
0.408599499291468
 31
0.0
210
0.0
220
0.0
230
1.0
 40
0.5115856396861805
 41
3.140219339038765
 42
5.854299727684008
  0
ELLIPSE
  5
D319
102
{ACAD_REACTORS
330
D39C
102
}
330
1F
100
AcDbEntity
  8
0
 62
     7
100
AcDbEllipse
 10
-4270.653924776402
 20
-1596.81035458861
 30
0.0
 11
0.9566282344403574
 21
0.408599499291468
 31
0.0
210
0.0
220
0.0
230
1.0
 40
0.5115856396861805
 41
3.140219339038765
 42
5.854299727684008
  0
ELLIPSE
  5
D31A
102
{ACAD_REACTORS
330
D39C
102
}
330
1F
100
AcDbEntity
  8
0
 62
     7
100
AcDbEllipse
 10
-4270.653924776402
 20
-1591.05035458861
 30
0.0
 11
0.9566282344403574
 21
0.408599499291468
 31
0.0
210
0.0
220
0.0
230
1.0
 40
0.5115856396861805
 41
3.140219339038765
 42
4.497259533361387
  0
ELLIPSE
  5
D31B
102
{ACAD_REACTORS
330
D39C
102
}
330
1F
100
AcDbEntity
  8
0
 62
     7
100
AcDbEllipse
 10
-4270.653924776402
 20
-1597.164280986598
 30
0.0
 11
-0.979200000000001
 21
-1.249000902703300E-16
 31
0.0
210
0.0
220
0.0
230
1.0
 40
0.5773502691895597
 41
0.0
 42
3.141592653589793
  0
ELLIPSE
  5
D31C
102
{ACAD_REACTORS
330
D39C
102
}
330
1F
100
AcDbEntity
  8
0
 62
     7
100
AcDbEllipse
 10
-4270.653924776402
 20
-1597.38635458861
 30
0.0
 11
0.9566282344403574
 21
0.408599499291468
 31
0.0
210
0.0
220
0.0
230
1.0
 40
0.5115856396861805
 41
3.887937807982728
 42
5.854299727684008
  0
ELLIPSE
  5
D31D
102
{ACAD_REACTORS
330
D39C
102
}
330
1F
100
AcDbEntity
  8
0
 62
     7
100
AcDbEllipse
 10
-4270.653924776402
 20
-1597.96235458861
 30
0.0
 11
0.9566282344403574
 21
0.408599499291468
 31
0.0
210
0.0
220
0.0
230
1.0
 40
0.5115856396861805
 41
4.237385507973552
 42
4.878876163974605
  0
ELLIPSE
  5
D31E
102
{ACAD_REACTORS
330
D39C
102
}
330
1F
100
AcDbEntity
  8
0
 62
     7
100
AcDbEllipse
 10
-4264.893924776402
 20
-1573.136177290926
 30
0.0
 11
-2.591999999999998
 21
1.438849039914202E-16
 31
0.0
210
0.0
220
0.0
230
1.0
 40
0.5773502691895597
 41
0.0
 42
3.597166330125952
  0
ELLIPSE
  5
D31F
102
{ACAD_REACTORS
330
D39C
102
}
330
1F
100
AcDbEntity
  8
0
 62
     7
100
AcDbEllipse
 10
-4264.893924776402
 20
-1577.83919759707
 30
0.0
 11
-1.151999999999999
 21
-3.836930773104539E-16
 31
0.0
210
0.0
220
0.0
230
1.0
 40
0.5773502691895597
 41
0.0
 42
3.141592653589793
  0
ELLIPSE
  5
D320
102
{ACAD_REACTORS
330
D39C
102
}
330
1F
100
AcDbEntity
  8
0
 62
     7
100
AcDbEllipse
 10
-4264.893924776402
 20
-1573.136177290926
 30
0.0
 11
-2.591999999999998
 21
1.438849039914202E-16
 31
0.0
210
0.0
220
0.0
230
1.0
 40
0.5773502691895597
 41
5.827611630643426
 42
6.283185307179586
  0
ELLIPSE
  5
D321
102
{ACAD_REACTORS
330
D39C
102
}
330
1F
100
AcDbEntity
  8
0
 62
     7
100
AcDbEllipse
 10
-4264.69027802342
 20
-1574.335447468993
 30
0.0
 11
-1.519592366392928
 21
2.632011185386625
 31
0.0
210
0.0
220
0.0
230
1.0
 40
0.5773502691896607
 41
5.109018730037956
 42
5.402882486448734
  0
ELLIPSE
  5
D322
102
{ACAD_REACTORS
330
D39C
102
}
330
1F
100
AcDbEntity
  8
0
 62
     7
100
AcDbEllipse
 10
-4264.079337764475
 20
-1574.923325007261
 30
0.0
 11
1.413549065296196
 21
2.448338800084675
 31
0.0
210
0.0
220
0.0
230
1.0
 40
0.5773502691896547
 41
0.6833498936095345
 42
0.8874464331852266
  0
ELLIPSE
  5
D323
102
{ACAD_REACTORS
330
D39C
102
}
330
1F
100
AcDbEntity
  8
0
 62
     7
100
AcDbEllipse
 10
-4264.69027802342
 20
-1574.5705984843
 30
0.0
 11
1.519592366392913
 21
2.632011185386621
 31
0.0
210
0.0
220
0.0
230
1.0
 40
0.5773502691896639
 41
0.3966297496531025
 42
0.6904935060638803
  0
ELLIPSE
  5
D324
102
{ACAD_REACTORS
330
D39C
102
}
330
1F
100
AcDbEntity
  8
0
 62
     7
100
AcDbEllipse
 10
-4264.079337764475
 20
-1573.982720946033
 30
0.0
 11
-1.413549065296151
 21
2.448338800084706
 31
0.0
210
0.0
220
0.0
230
1.0
 40
0.5773502691896625
 41
5.395738873994371
 42
5.599835413570065
  0
ELLIPSE
  5
D325
102
{ACAD_REACTORS
330
D39C
102
}
330
1F
100
AcDbEntity
  8
0
 62
     7
100
AcDbEllipse
 10
-4265.708511788329
 20
-1573.982720946033
 30
0.0
 11
1.413549065296147
 21
2.448338800084719
 31
0.0
210
0.0
220
0.0
230
1.0
 40
0.5773502691896598
 41
0.6833498936095195
 42
0.8874464331852097
  0
ELLIPSE
  5
D326
102
{ACAD_REACTORS
330
D39C
102
}
330
1F
100
AcDbEntity
  8
0
 62
     7
100
AcDbEllipse
 10
-4265.097571529383
 20
-1574.5705984843
 30
0.0
 11
-1.51959236639291
 21
2.632011185386631
 31
0.0
210
0.0
220
0.0
230
1.0
 40
0.5773502691896634
 41
5.592691801115707
 42
5.886555557526489
  0
ELLIPSE
  5
D327
102
{ACAD_REACTORS
330
D39C
102
}
330
1F
100
AcDbEntity
  8
0
 62
     7
100
AcDbEllipse
 10
-4265.097571529383
 20
-1574.5705984843
 30
0.0
 11
-1.519592366392895
 21
2.63201118538667
 31
0.0
210
0.0
220
0.0
230
1.0
 40
0.5773502691896578
 41
5.109018730037966
 42
5.402882486448743
  0
ELLIPSE
  5
D328
102
{ACAD_REACTORS
330
D39C
102
}
330
1F
100
AcDbEntity
  8
0
 62
     7
100
AcDbEllipse
 10
-4264.69027802342
 20
-1574.335447468993
 30
0.0
 11
-1.519592366392921
 21
2.632011185386661
 31
0.0
210
0.0
220
0.0
230
1.0
 40
0.5773502691896538
 41
5.592691801115726
 42
5.886555557526505
  0
ELLIPSE
  5
D329
102
{ACAD_REACTORS
330
D39C
102
}
330
1F
100
AcDbEntity
  8
0
 62
     7
100
AcDbEllipse
 10
-4264.69027802342
 20
-1574.5705984843
 30
0.0
 11
1.519592366392917
 21
2.632011185386634
 31
0.0
210
0.0
220
0.0
230
1.0
 40
0.5773502691896647
 41
0.8803028207308582
 42
1.174166577141627
  0
ELLIPSE
  5
D32A
102
{ACAD_REACTORS
330
D39C
102
}
330
1F
100
AcDbEntity
  8
0
 62
     7
100
AcDbEllipse
 10
-4265.097571529383
 20
-1574.335447468993
 30
0.0
 11
1.519592366392917
 21
2.63201118538664
 31
0.0
210
0.0
220
0.0
230
1.0
 40
0.5773502691896583
 41
0.3966297496530995
 42
0.6904935060638754
  0
ELLIPSE
  5
D32B
102
{ACAD_REACTORS
330
D39C
102
}
330
1F
100
AcDbEntity
  8
0
 62
     7
100
AcDbEllipse
 10
-4265.097571529383
 20
-1574.335447468993
 30
0.0
 11
1.519592366392911
 21
2.632011185386649
 31
0.0
210
0.0
220
0.0
230
1.0
 40
0.5773502691896595
 41
0.8803028207308514
 42
1.174166577141633
  0
ELLIPSE
  5
D32C
102
{ACAD_REACTORS
330
D39C
102
}
330
1F
100
AcDbEntity
  8
0
 62
     7
100
AcDbEllipse
 10
-4265.708511788329
 20
-1574.923325007261
 30
0.0
 11
-1.413549065296143
 21
2.448338800084734
 31
0.0
210
0.0
220
0.0
230
1.0
 40
0.5773502691896638
 41
5.395738873994397
 42
5.599835413570085
  0
SPLINE
  5
D32D
102
{ACAD_REACTORS
330
D39C
102
}
330
1F
100
AcDbEntity
  8
0
 62
     7
100
AcDbSpline
210
0.0
220
0.0
230
1.0
 70
     8
 71
     3
 72
    10
 73
     6
 74
     0
 42
0.000000001
 43
0.0000000001
 40
1.177256957647051
 40
1.177256957647051
 40
1.177256957647051
 40
1.177256957647051
 40
1.527073774270985
 40
1.527073774270985
 40
1.964346574804416
 40
1.964346574804416
 40
1.964346574804416
 40
1.964346574804416
 10
-4265.469924776404
 20
-1579.013633690901
 30
0.0
 10
-4265.304028857077
 20
-1579.053453821753
 30
0.0
 10
-4265.131837826984
 20
-1579.075115545407
 30
0.0
 10
-4264.742550981981
 20
-1579.084948668452
 30
0.0
 10
-4264.52531837633
 20
-1579.063493824528
 30
0.0
 10
-4264.317924776403
 20
-1579.013665615137
 30
0.0
  0
ELLIPSE
  5
D32E
102
{ACAD_REACTORS
330
D39C
102
}
330
1F
100
AcDbEntity
  8
0
 62
     7
100
AcDbEllipse
 10
-4264.893921817231
 20
-1577.285860585913
 30
0.0
 11
-1.112746551885006
 21
-0.2981595399581042
 31
0.0
210
0.0
220
0.0
230
1.0
 40
0.5773502691895597
 41
0.0
 42
3.141592653589793
  0
ELLIPSE
  5
D32F
102
{ACAD_REACTORS
330
D39C
102
}
330
1F
100
AcDbEntity
  8
0
 62
     7
100
AcDbEllipse
 10
-4264.893921817231
 20
-1576.709860585913
 30
0.0
 11
-1.112746551885006
 21
-0.2981595399581042
 31
0.0
210
0.0
220
0.0
230
1.0
 40
0.5773502691895597
 41
0.0
 42
3.141592653589793
  0
ELLIPSE
  5
D330
102
{ACAD_REACTORS
330
D39C
102
}
330
1F
100
AcDbEntity
  8
0
 62
     7
100
AcDbEllipse
 10
-4264.893921817231
 20
-1575.557860585913
 30
0.0
 11
-1.112746551885006
 21
-0.2981595399581042
 31
0.0
210
0.0
220
0.0
230
1.0
 40
0.5773502691895597
 41
0.0
 42
3.141592653589793
  0
ELLIPSE
  5
D331
102
{ACAD_REACTORS
330
D39C
102
}
330
1F
100
AcDbEntity
  8
0
 62
     7
100
AcDbEllipse
 10
-4264.893921817231
 20
-1576.133860585913
 30
0.0
 11
-1.112746551885006
 21
-0.2981595399581042
 31
0.0
210
0.0
220
0.0
230
1.0
 40
0.5773502691895597
 41
0.0
 42
3.141592653589793
  0
ELLIPSE
  5
D332
102
{ACAD_REACTORS
330
D39C
102
}
330
1F
100
AcDbEntity
  8
0
 62
     7
100
AcDbEllipse
 10
-4264.893921817231
 20
-1574.981860585913
 30
0.0
 11
-1.112746551885006
 21
-0.2981595399581042
 31
0.0
210
0.0
220
0.0
230
1.0
 40
0.5773502691895597
 41
0.0
 42
3.141592653589793
  0
ELLIPSE
  5
D333
102
{ACAD_REACTORS
330
D39C
102
}
330
1F
100
AcDbEntity
  8
0
 62
     7
100
AcDbEllipse
 10
-4264.893921817231
 20
-1574.405860585913
 30
0.0
 11
-1.112746551885006
 21
-0.2981595399581042
 31
0.0
210
0.0
220
0.0
230
1.0
 40
0.5773502691895597
 41
0.0
 42
2.55795858617378
  0
LINE
  5
D334
102
{ACAD_REACTORS
330
D39C
102
}
330
1F
100
AcDbEntity
  8
0
 62
     7
100
AcDbLine
 10
-4269.674724776401
 20
-1597.164280986598
 30
0.0
 11
-4269.674724776401
 21
-1591.111008306058
 31
0.0
  0
LINE
  5
D335
102
{ACAD_REACTORS
330
D39C
102
}
330
1F
100
AcDbEntity
  8
0
 62
     7
100
AcDbLine
 10
-4271.633124776402
 20
-1591.111008306058
 30
0.0
 11
-4271.633124776402
 21
-1597.164280986598
 31
0.0
  0
LINE
  5
D336
102
{ACAD_REACTORS
330
D39C
102
}
330
1F
100
AcDbEntity
  8
0
 62
     7
100
AcDbLine
 10
-4271.587861641076
 20
-1597.334177595157
 30
0.0
 11
-4270.653924776402
 21
-1599.045489109055
 31
0.0
  0
LINE
  5
D337
102
{ACAD_REACTORS
330
D39C
102
}
330
1F
100
AcDbEntity
  8
0
 62
     7
100
AcDbLine
 10
-4270.653924776402
 20
-1599.045489109055
 30
0.0
 11
-4269.719987911725
 21
-1597.334177595157
 31
0.0
  0
LINE
  5
D338
102
{ACAD_REACTORS
330
D39C
102
}
330
1F
100
AcDbEntity
  8
0
 62
     7
100
AcDbLine
 10
-4271.779706424857
 20
-1590.72114316718
 30
0.0
 11
-4271.610839177589
 21
-1591.170281606417
 31
0.0
  0
LINE
  5
D339
102
{ACAD_REACTORS
330
D39C
102
}
330
1F
100
AcDbEntity
  8
0
 62
     7
100
AcDbLine
 10
-4271.805924776402
 20
-1589.83249403157
 30
0.0
 11
-4271.805924776402
 21
-1590.580052557996
 31
0.0
  0
LINE
  5
D33A
102
{ACAD_REACTORS
330
D39C
102
}
330
1F
100
AcDbEntity
  8
0
 62
     7
100
AcDbLine
 10
-4270.653924776402
 20
-1586.112183267159
 30
0.0
 11
-4270.042984517457
 21
-1585.759456744198
 31
0.0
  0
LINE
  5
D33B
102
{ACAD_REACTORS
330
D39C
102
}
330
1F
100
AcDbEntity
  8
0
 62
     7
100
AcDbLine
 10
-4270.653924776402
 20
-1586.112183267159
 30
0.0
 11
-4270.653924776402
 21
-1585.670305508261
 31
0.0
  0
LINE
  5
D33C
102
{ACAD_REACTORS
330
D39C
102
}
330
1F
100
AcDbEntity
  8
0
 62
     7
100
AcDbLine
 10
-4270.042984517457
 20
-1585.759456744198
 30
0.0
 11
-4270.042984517457
 21
-1585.545817266767
 31
0.0
  0
LINE
  5
D33D
102
{ACAD_REACTORS
330
D39C
102
}
330
1F
100
AcDbEntity
  8
0
 62
     7
100
AcDbLine
 10
-4270.042984517457
 20
-1585.759456744198
 30
0.0
 11
-4269.956844575902
 21
-1585.809189662643
 31
0.0
  0
LINE
  5
D33E
102
{ACAD_REACTORS
330
D39C
102
}
330
1F
100
AcDbEntity
  8
0
 62
     7
100
AcDbLine
 10
-4271.47315455724
 20
-1586.585165801655
 30
0.0
 11
-4271.061218282365
 21
-1586.347334282466
 31
0.0
  0
LINE
  5
D33F
102
{ACAD_REACTORS
330
D39C
102
}
330
1F
100
AcDbEntity
  8
0
 62
     7
100
AcDbLine
 10
-4270.246631270437
 20
-1585.905456523568
 30
0.0
 11
-4270.246631270437
 21
-1586.347334282466
 31
0.0
  0
LINE
  5
D340
102
{ACAD_REACTORS
330
D39C
102
}
330
1F
100
AcDbEntity
  8
0
 62
     7
100
AcDbLine
 10
-4271.061218282365
 20
-1585.905456523568
 30
0.0
 11
-4271.061218282365
 21
-1586.347334282466
 31
0.0
  0
LINE
  5
D341
102
{ACAD_REACTORS
330
D39C
102
}
330
1F
100
AcDbEntity
  8
0
 62
     7
100
AcDbLine
 10
-4271.264865035347
 20
-1585.759456744198
 30
0.0
 11
-4270.653924776402
 21
-1586.112183267159
 31
0.0
  0
LINE
  5
D342
102
{ACAD_REACTORS
330
D39C
102
}
330
1F
100
AcDbEntity
  8
0
 62
     7
100
AcDbLine
 10
-4270.246631270437
 20
-1586.347334282466
 30
0.0
 11
-4269.834694995561
 21
-1586.585165801655
 31
0.0
  0
LINE
  5
D343
102
{ACAD_REACTORS
330
D39C
102
}
330
1F
100
AcDbEntity
  8
0
 62
     7
100
AcDbLine
 10
-4271.351004976902
 20
-1585.809189662643
 30
0.0
 11
-4271.264865035347
 21
-1585.759456744198
 31
0.0
  0
LINE
  5
D344
102
{ACAD_REACTORS
330
D39C
102
}
330
1F
100
AcDbEntity
  8
0
 62
     7
100
AcDbLine
 10
-4271.264865035347
 20
-1585.759456744198
 30
0.0
 11
-4271.264865035347
 21
-1585.545817266767
 31
0.0
  0
LINE
  5
D345
102
{ACAD_REACTORS
330
D39C
102
}
330
1F
100
AcDbEntity
  8
0
 62
     7
100
AcDbLine
 10
-4269.697010375214
 20
-1591.170281606417
 30
0.0
 11
-4269.528143127946
 21
-1590.72114316718
 31
0.0
  0
LINE
  5
D346
102
{ACAD_REACTORS
330
D39C
102
}
330
1F
100
AcDbEntity
  8
0
 62
     7
100
AcDbLine
 10
-4269.501924776402
 20
-1590.580052557996
 30
0.0
 11
-4269.501924776402
 21
-1589.832494031597
 31
0.0
  0
ARC
  5
D347
102
{ACAD_REACTORS
330
D39C
102
}
330
1F
100
AcDbEntity
  8
0
 62
     7
100
AcDbCircle
 10
-4270.653924776402
 20
-1587.836624046079
 30
0.0
 40
2.400000000000002
100
AcDbArc
 50
20.05539879437306
 51
159.944601205627
  0
LINE
  5
D348
102
{ACAD_REACTORS
330
D39C
102
}
330
1F
100
AcDbEntity
  8
0
 62
     7
100
AcDbLine
 10
-4258.154724776402
 20
-1597.164280986598
 30
0.0
 11
-4258.154724776402
 21
-1591.111008306058
 31
0.0
  0
LINE
  5
D349
102
{ACAD_REACTORS
330
D39C
102
}
330
1F
100
AcDbEntity
  8
0
 62
     7
100
AcDbLine
 10
-4260.113124776401
 20
-1591.111008306058
 30
0.0
 11
-4260.113124776401
 21
-1597.164280986598
 31
0.0
  0
LINE
  5
D34A
102
{ACAD_REACTORS
330
D39C
102
}
330
1F
100
AcDbEntity
  8
0
 62
     7
100
AcDbLine
 10
-4259.133924776402
 20
-1599.045489109055
 30
0.0
 11
-4258.199987911726
 21
-1597.334177595157
 31
0.0
  0
LINE
  5
D34B
102
{ACAD_REACTORS
330
D39C
102
}
330
1F
100
AcDbEntity
  8
0
 62
     7
100
AcDbLine
 10
-4260.067861641076
 20
-1597.334177595157
 30
0.0
 11
-4259.133924776402
 21
-1599.045489109055
 31
0.0
  0
LINE
  5
D34C
102
{ACAD_REACTORS
330
D39C
102
}
330
1F
100
AcDbEntity
  8
0
 62
     7
100
AcDbLine
 10
-4259.133924776402
 20
-1586.112183267159
 30
0.0
 11
-4258.522984517456
 21
-1585.759456744198
 31
0.0
  0
LINE
  5
D34D
102
{ACAD_REACTORS
330
D39C
102
}
330
1F
100
AcDbEntity
  8
0
 62
     7
100
AcDbLine
 10
-4259.133924776402
 20
-1586.112183267159
 30
0.0
 11
-4259.133924776402
 21
-1585.670305508261
 31
0.0
  0
LINE
  5
D34E
102
{ACAD_REACTORS
330
D39C
102
}
330
1F
100
AcDbEntity
  8
0
 62
     7
100
AcDbLine
 10
-4259.953154557242
 20
-1586.585165801655
 30
0.0
 11
-4259.541218282367
 21
-1586.347334282466
 31
0.0
  0
LINE
  5
D34F
102
{ACAD_REACTORS
330
D39C
102
}
330
1F
100
AcDbEntity
  8
0
 62
     7
100
AcDbLine
 10
-4259.541218282367
 20
-1585.905456523568
 30
0.0
 11
-4259.541218282367
 21
-1586.347334282466
 31
0.0
  0
LINE
  5
D350
102
{ACAD_REACTORS
330
D39C
102
}
330
1F
100
AcDbEntity
  8
0
 62
     7
100
AcDbLine
 10
-4259.744865035346
 20
-1585.759456744198
 30
0.0
 11
-4259.133924776402
 21
-1586.112183267159
 31
0.0
  0
LINE
  5
D351
102
{ACAD_REACTORS
330
D39C
102
}
330
1F
100
AcDbEntity
  8
0
 62
     7
100
AcDbLine
 10
-4259.831004976902
 20
-1585.809189662643
 30
0.0
 11
-4259.744865035346
 21
-1585.759456744198
 31
0.0
  0
LINE
  5
D352
102
{ACAD_REACTORS
330
D39C
102
}
330
1F
100
AcDbEntity
  8
0
 62
     7
100
AcDbLine
 10
-4259.744865035346
 20
-1585.759456744198
 30
0.0
 11
-4259.744865035346
 21
-1585.545817266767
 31
0.0
  0
LINE
  5
D353
102
{ACAD_REACTORS
330
D39C
102
}
330
1F
100
AcDbEntity
  8
0
 62
     7
100
AcDbLine
 10
-4258.522984517456
 20
-1585.759456744198
 30
0.0
 11
-4258.522984517456
 21
-1585.545817266767
 31
0.0
  0
LINE
  5
D354
102
{ACAD_REACTORS
330
D39C
102
}
330
1F
100
AcDbEntity
  8
0
 62
     7
100
AcDbLine
 10
-4258.522984517456
 20
-1585.759456744198
 30
0.0
 11
-4258.436844575902
 21
-1585.809189662643
 31
0.0
  0
LINE
  5
D355
102
{ACAD_REACTORS
330
D39C
102
}
330
1F
100
AcDbEntity
  8
0
 62
     7
100
AcDbLine
 10
-4258.726631270439
 20
-1585.905456523568
 30
0.0
 11
-4258.726631270439
 21
-1586.347334282466
 31
0.0
  0
LINE
  5
D356
102
{ACAD_REACTORS
330
D39C
102
}
330
1F
100
AcDbEntity
  8
0
 62
     7
100
AcDbLine
 10
-4258.726631270439
 20
-1586.347334282466
 30
0.0
 11
-4258.314694995561
 21
-1586.585165801655
 31
0.0
  0
LINE
  5
D357
102
{ACAD_REACTORS
330
D39C
102
}
330
1F
100
AcDbEntity
  8
0
 62
     7
100
AcDbLine
 10
-4260.259706424857
 20
-1590.72114316718
 30
0.0
 11
-4260.090839177589
 21
-1591.170281606417
 31
0.0
  0
LINE
  5
D358
102
{ACAD_REACTORS
330
D39C
102
}
330
1F
100
AcDbEntity
  8
0
 62
     7
100
AcDbLine
 10
-4258.177010375214
 20
-1591.170281606417
 30
0.0
 11
-4258.008143127946
 21
-1590.72114316718
 31
0.0
  0
LINE
  5
D359
102
{ACAD_REACTORS
330
D39C
102
}
330
1F
100
AcDbEntity
  8
0
 62
     7
100
AcDbLine
 10
-4257.981924776402
 20
-1590.580052557996
 30
0.0
 11
-4257.981924776402
 21
-1589.832494031597
 31
0.0
  0
LINE
  5
D35A
102
{ACAD_REACTORS
330
D39C
102
}
330
1F
100
AcDbEntity
  8
0
 62
     7
100
AcDbLine
 10
-4260.285924776402
 20
-1589.83249403157
 30
0.0
 11
-4260.285924776402
 21
-1590.580052557996
 31
0.0
  0
ARC
  5
D35B
102
{ACAD_REACTORS
330
D39C
102
}
330
1F
100
AcDbEntity
  8
0
 62
     7
100
AcDbCircle
 10
-4259.133924776402
 20
-1587.836624046079
 30
0.0
 40
2.400000000000002
100
AcDbArc
 50
20.05539879437306
 51
159.944601205627
  0
LINE
  5
D35C
102
{ACAD_REACTORS
330
D39C
102
}
330
1F
100
AcDbEntity
  8
0
 62
     7
100
AcDbLine
 10
-4263.741924776402
 20
-1577.83919759707
 30
0.0
 11
-4263.741924776402
 21
-1574.476744335128
 31
0.0
  0
LINE
  5
D35D
102
{ACAD_REACTORS
330
D39C
102
}
330
1F
100
AcDbEntity
  8
0
 62
     7
100
AcDbLine
 10
-4266.045924776402
 20
-1574.476744335128
 30
0.0
 11
-4266.045924776402
 21
-1577.839197597071
 31
0.0
  0
LINE
  5
D35E
102
{ACAD_REACTORS
330
D39C
102
}
330
1F
100
AcDbEntity
  8
0
 62
     7
100
AcDbLine
 10
-4264.317924776403
 20
-1579.013665615137
 30
0.0
 11
-4263.741924776402
 21
-1577.83919759707
 31
0.0
  0
LINE
  5
D35F
102
{ACAD_REACTORS
330
D39C
102
}
330
1F
100
AcDbEntity
  8
0
 62
     7
100
AcDbLine
 10
-4266.045924776402
 20
-1577.839197597071
 30
0.0
 11
-4265.469924776403
 21
-1579.013633690901
 31
0.0
  0
LINE
  5
D360
102
{ACAD_REACTORS
330
D39C
102
}
330
1F
100
AcDbEntity
  8
0
 62
     7
100
AcDbLine
 10
-4252.221924776401
 20
-1577.83919759707
 30
0.0
 11
-4252.221924776401
 21
-1574.476744335128
 31
0.0
  0
LINE
  5
D361
102
{ACAD_REACTORS
330
D39C
102
}
330
1F
100
AcDbEntity
  8
0
 62
     7
100
AcDbLine
 10
-4254.525924776401
 20
-1574.476744335128
 30
0.0
 11
-4254.525924776401
 21
-1577.839197597071
 31
0.0
  0
LINE
  5
D362
102
{ACAD_REACTORS
330
D39C
102
}
330
1F
100
AcDbEntity
  8
0
 62
     7
100
AcDbLine
 10
-4252.797924776401
 20
-1579.013665615137
 30
0.0
 11
-4252.221924776401
 21
-1577.83919759707
 31
0.0
  0
LINE
  5
D363
102
{ACAD_REACTORS
330
D39C
102
}
330
1F
100
AcDbEntity
  8
0
 62
     7
100
AcDbLine
 10
-4254.525924776401
 20
-1577.839197597071
 30
0.0
 11
-4253.949924776401
 21
-1579.013633690901
 31
0.0
  0
LINE
  5
D364
102
{ACAD_REACTORS
330
D39C
102
}
330
1F
100
AcDbEntity
  8
0
 62
     7
100
AcDbLine
 10
-4248.593124776401
 20
-1591.111008306058
 30
0.0
 11
-4248.593124776401
 21
-1597.164280986598
 31
0.0
  0
LINE
  5
D365
102
{ACAD_REACTORS
330
D39C
102
}
330
1F
100
AcDbEntity
  8
0
 62
     7
100
AcDbLine
 10
-4246.634724776402
 20
-1597.164280986598
 30
0.0
 11
-4246.634724776402
 21
-1591.111008306058
 31
0.0
  0
LINE
  5
D366
102
{ACAD_REACTORS
330
D39C
102
}
330
1F
100
AcDbEntity
  8
0
 62
     7
100
AcDbLine
 10
-4248.547861641077
 20
-1597.334177595157
 30
0.0
 11
-4247.613924776402
 21
-1599.045489109055
 31
0.0
  0
LINE
  5
D367
102
{ACAD_REACTORS
330
D39C
102
}
330
1F
100
AcDbEntity
  8
0
 62
     7
100
AcDbLine
 10
-4247.613924776402
 20
-1599.045489109055
 30
0.0
 11
-4246.679987911725
 21
-1597.334177595157
 31
0.0
  0
ARC
  5
D368
102
{ACAD_REACTORS
330
D39C
102
}
330
1F
100
AcDbEntity
  8
0
 62
     7
100
AcDbCircle
 10
-4247.613924776402
 20
-1587.836624046079
 30
0.0
 40
2.400000000000002
100
AcDbArc
 50
20.05539879438054
 51
159.944601205627
  0
LINE
  5
D369
102
{ACAD_REACTORS
330
D39C
102
}
330
1F
100
AcDbEntity
  8
0
 62
     7
100
AcDbLine
 10
-4247.206631270438
 20
-1586.347334282466
 30
0.0
 11
-4246.79469499556
 21
-1586.585165801655
 31
0.0
  0
LINE
  5
D36A
102
{ACAD_REACTORS
330
D39C
102
}
330
1F
100
AcDbEntity
  8
0
 62
     7
100
AcDbLine
 10
-4247.206631270438
 20
-1585.905456523568
 30
0.0
 11
-4247.206631270438
 21
-1586.347334282466
 31
0.0
  0
LINE
  5
D36B
102
{ACAD_REACTORS
330
D39C
102
}
330
1F
100
AcDbEntity
  8
0
 62
     7
100
AcDbLine
 10
-4247.002984517457
 20
-1585.759456744198
 30
0.0
 11
-4246.916844575902
 21
-1585.809189662643
 31
0.0
  0
LINE
  5
D36C
102
{ACAD_REACTORS
330
D39C
102
}
330
1F
100
AcDbEntity
  8
0
 62
     7
100
AcDbLine
 10
-4247.002984517457
 20
-1585.759456744198
 30
0.0
 11
-4247.002984517457
 21
-1585.545817266767
 31
0.0
  0
LINE
  5
D36D
102
{ACAD_REACTORS
330
D39C
102
}
330
1F
100
AcDbEntity
  8
0
 62
     7
100
AcDbLine
 10
-4248.224865035347
 20
-1585.759456744198
 30
0.0
 11
-4248.224865035347
 21
-1585.545817266767
 31
0.0
  0
LINE
  5
D36E
102
{ACAD_REACTORS
330
D39C
102
}
330
1F
100
AcDbEntity
  8
0
 62
     7
100
AcDbLine
 10
-4248.311004976901
 20
-1585.809189662643
 30
0.0
 11
-4248.224865035347
 21
-1585.759456744198
 31
0.0
  0
LINE
  5
D36F
102
{ACAD_REACTORS
330
D39C
102
}
330
1F
100
AcDbEntity
  8
0
 62
     7
100
AcDbLine
 10
-4248.224865035347
 20
-1585.759456744198
 30
0.0
 11
-4247.613924776402
 21
-1586.112183267159
 31
0.0
  0
LINE
  5
D370
102
{ACAD_REACTORS
330
D39C
102
}
330
1F
100
AcDbEntity
  8
0
 62
     7
100
AcDbLine
 10
-4248.021218282366
 20
-1585.905456523568
 30
0.0
 11
-4248.021218282366
 21
-1586.347334282466
 31
0.0
  0
LINE
  5
D371
102
{ACAD_REACTORS
330
D39C
102
}
330
1F
100
AcDbEntity
  8
0
 62
     7
100
AcDbLine
 10
-4248.433154557241
 20
-1586.585165801655
 30
0.0
 11
-4248.021218282366
 21
-1586.347334282466
 31
0.0
  0
LINE
  5
D372
102
{ACAD_REACTORS
330
D39C
102
}
330
1F
100
AcDbEntity
  8
0
 62
     7
100
AcDbLine
 10
-4247.613924776402
 20
-1586.112183267159
 30
0.0
 11
-4247.613924776402
 21
-1585.670305508261
 31
0.0
  0
LINE
  5
D373
102
{ACAD_REACTORS
330
D39C
102
}
330
1F
100
AcDbEntity
  8
0
 62
     7
100
AcDbLine
 10
-4247.613924776402
 20
-1586.112183267159
 30
0.0
 11
-4247.002984517457
 21
-1585.759456744198
 31
0.0
  0
LINE
  5
D374
102
{ACAD_REACTORS
330
D39C
102
}
330
1F
100
AcDbEntity
  8
0
 62
     7
100
AcDbLine
 10
-4248.765924776401
 20
-1589.83249403157
 30
0.0
 11
-4248.765924776401
 21
-1590.580052557996
 31
0.0
  0
LINE
  5
D375
102
{ACAD_REACTORS
330
D39C
102
}
330
1F
100
AcDbEntity
  8
0
 62
     7
100
AcDbLine
 10
-4246.461924776402
 20
-1590.580052557996
 30
0.0
 11
-4246.461924776402
 21
-1589.832494031597
 31
0.0
  0
LINE
  5
D376
102
{ACAD_REACTORS
330
D39C
102
}
330
1F
100
AcDbEntity
  8
0
 62
     7
100
AcDbLine
 10
-4246.657010375214
 20
-1591.170281606417
 30
0.0
 11
-4246.488143127946
 21
-1590.72114316718
 31
0.0
  0
LINE
  5
D377
102
{ACAD_REACTORS
330
D39C
102
}
330
1F
100
AcDbEntity
  8
0
 62
     7
100
AcDbLine
 10
-4248.739706424857
 20
-1590.72114316718
 30
0.0
 11
-4248.57083917759
 21
-1591.170281606417
 31
0.0
  0
ARC
  5
D378
102
{ACAD_REACTORS
330
D39C
102
}
330
1F
100
AcDbEntity
  8
0
 62
     7
100
AcDbCircle
 10
-4264.893924776402
 20
-1574.453022976647
 30
0.0
 40
3.052799999999998
100
AcDbArc
 50
40.31842678873872
 51
139.6815732112613
  0
LINE
  5
D379
102
{ACAD_REACTORS
330
D39C
102
}
330
1F
100
AcDbEntity
  8
0
 62
     7
100
AcDbLine
 10
-4265.504865035347
 20
-1571.898937965625
 30
0.0
 11
-4265.504865035347
 21
-1571.568838281224
 31
0.0
  0
LINE
  5
D37A
102
{ACAD_REACTORS
330
D39C
102
}
330
1F
100
AcDbEntity
  8
0
 62
     7
100
AcDbLine
 10
-4265.301218282365
 20
-1572.430724245005
 30
0.0
 11
-4265.224206766668
 21
-1572.475186864323
 31
0.0
  0
LINE
  5
D37B
102
{ACAD_REACTORS
330
D39C
102
}
330
1F
100
AcDbEntity
  8
0
 62
     7
100
AcDbLine
 10
-4265.301218282367
 20
-1571.982705879592
 30
0.0
 11
-4265.301218282367
 21
-1572.544228842748
 31
0.0
  0
LINE
  5
D37C
102
{ACAD_REACTORS
330
D39C
102
}
330
1F
100
AcDbEntity
  8
0
 62
     7
100
AcDbLine
 10
-4264.893924776402
 20
-1572.217856894899
 30
0.0
 11
-4264.893924776402
 21
-1571.747554864285
 31
0.0
  0
LINE
  5
D37D
102
{ACAD_REACTORS
330
D39C
102
}
330
1F
100
AcDbEntity
  8
0
 62
     7
100
AcDbLine
 10
-4264.486631270437
 20
-1571.982705879592
 30
0.0
 11
-4264.486631270437
 21
-1572.544228842748
 31
0.0
  0
LINE
  5
D37E
102
{ACAD_REACTORS
330
D39C
102
}
330
1F
100
AcDbEntity
  8
0
 62
     7
100
AcDbLine
 10
-4264.282984517457
 20
-1571.898937965626
 30
0.0
 11
-4264.282984517457
 21
-1571.568838281224
 31
0.0
  0
LINE
  5
D37F
102
{ACAD_REACTORS
330
D39C
102
}
330
1F
100
AcDbEntity
  8
0
 62
     7
100
AcDbLine
 10
-4264.563642786136
 20
-1572.475186864323
 30
0.0
 11
-4264.486631270437
 21
-1572.430724245005
 31
0.0
  0
LINE
  5
D380
102
{ACAD_REACTORS
330
D39C
102
}
330
1F
100
AcDbEntity
  8
0
 62
     7
100
AcDbLine
 10
-4253.781218282364
 20
-1572.430724245005
 30
0.0
 11
-4253.704206766667
 21
-1572.475186864323
 31
0.0
  0
LINE
  5
D381
102
{ACAD_REACTORS
330
D39C
102
}
330
1F
100
AcDbEntity
  8
0
 62
     7
100
AcDbLine
 10
-4253.781218282364
 20
-1571.982705879592
 30
0.0
 11
-4253.781218282364
 21
-1572.544228842748
 31
0.0
  0
LINE
  5
D382
102
{ACAD_REACTORS
330
D39C
102
}
330
1F
100
AcDbEntity
  8
0
 62
     7
100
AcDbLine
 10
-4252.966631270438
 20
-1571.982705879592
 30
0.0
 11
-4252.966631270438
 21
-1572.544228842748
 31
0.0
  0
LINE
  5
D383
102
{ACAD_REACTORS
330
D39C
102
}
330
1F
100
AcDbEntity
  8
0
 62
     7
100
AcDbLine
 10
-4253.043642786136
 20
-1572.475186864323
 30
0.0
 11
-4252.966631270438
 21
-1572.430724245005
 31
0.0
  0
LINE
  5
D384
102
{ACAD_REACTORS
330
D39C
102
}
330
1F
100
AcDbEntity
  8
0
 62
     7
100
AcDbLine
 10
-4253.984865035346
 20
-1571.898937965625
 30
0.0
 11
-4253.984865035346
 21
-1571.568838281224
 31
0.0
  0
LINE
  5
D385
102
{ACAD_REACTORS
330
D39C
102
}
330
1F
100
AcDbEntity
  8
0
 62
     7
100
AcDbLine
 10
-4253.373924776402
 20
-1572.217856894899
 30
0.0
 11
-4253.373924776402
 21
-1571.747554864285
 31
0.0
  0
LINE
  5
D386
102
{ACAD_REACTORS
330
D39C
102
}
330
1F
100
AcDbEntity
  8
0
 62
     7
100
AcDbLine
 10
-4252.762984517456
 20
-1571.898937965626
 30
0.0
 11
-4252.762984517456
 21
-1571.568838281224
 31
0.0
  0
ARC
  5
D387
102
{ACAD_REACTORS
330
D39C
102
}
330
1F
100
AcDbEntity
  8
0
 62
     7
100
AcDbCircle
 10
-4253.373924776402
 20
-1574.453022976647
 30
0.0
 40
3.052799999999998
100
AcDbArc
 50
40.31842678873872
 51
139.681573211258
  0
TEXT
  5
D388
102
{ACAD_REACTORS
330
D39C
102
}
330
1F
100
AcDbEntity
  8
0
 62
     7
100
AcDbText
 10
-4305.213924776402
 20
-1505.183127604402
 30
0.0
 40
12.95999999999999
  1
付属品
  7
注記
100
AcDbText
  0
LINE
  5
D389
102
{ACAD_REACTORS
330
D39C
102
}
330
1F
100
AcDbEntity
  8
0
 62
     7
100
AcDbLine
 10
-4305.213924776403
 20
-1529.90210528439
 30
0.0
 11
-4213.053924776401
 21
-1529.90210528439
 31
0.0
  0
LINE
  5
D38A
102
{ACAD_REACTORS
330
D39C
102
}
330
1F
100
AcDbEntity
  8
0
 62
     7
100
AcDbLine
 10
-4305.213924776403
 20
-1511.643970921235
 30
0.0
 11
-4213.053924776401
 21
-1511.643970921235
 31
0.0
  0
LINE
  5
D38B
102
{ACAD_REACTORS
330
D39C
102
}
330
1F
100
AcDbEntity
  8
0
 62
     7
100
AcDbLine
 10
-4213.053924776401
 20
-1645.395412284192
 30
0.0
 11
-4305.213924776403
 21
-1645.395412284192
 31
0.0
  0
LINE
  5
D38C
102
{ACAD_REACTORS
330
D39C
102
}
330
1F
100
AcDbEntity
  8
0
 62
     7
100
AcDbLine
 10
-4305.213924776402
 20
-1645.395412284192
 30
0.0
 11
-4305.213924776402
 21
-1511.643970921235
 31
0.0
  0
LINE
  5
D38D
102
{ACAD_REACTORS
330
D39C
102
}
330
1F
100
AcDbEntity
  8
0
 62
     7
100
AcDbLine
 10
-4213.053924776402
 20
-1645.395412284192
 30
0.0
 11
-4213.053924776402
 21
-1511.643970921235
 31
0.0
  0
TEXT
  5
D38E
102
{ACAD_REACTORS
330
D39C
102
}
330
1F
100
AcDbEntity
  8
0
 62
     7
100
AcDbText
 10
-4290.341604776401
 20
-1526.216238102812
 30
0.0
 40
10.88639999999999
  1
付属ネジ組
  7
注記
 72
     1
 11
-4259.133924776402
 21
-1520.773038102812
 31
0.0
100
AcDbText
 73
     2
  0
ARC
  5
D38F
102
{ACAD_REACTORS
330
D39C
102
}
330
1F
100
AcDbEntity
  8
object
 62
     7
100
AcDbCircle
 10
-4279.665831420073
 20
-1602.156084577273
 30
0.0
 40
4.319999999999998
100
AcDbArc
 50
180.0
 51
270.0
  0
LINE
  5
D390
102
{ACAD_REACTORS
330
D39C
102
}
330
1F
100
AcDbEntity
  8
object
 62
     7
100
AcDbLine
 10
-4283.985831420074
 20
-1552.126292431578
 30
0.0
 11
-4234.28201813273
 21
-1552.126292431578
 31
0.0
  0
LINE
  5
D391
102
{ACAD_REACTORS
330
D39C
102
}
330
1F
100
AcDbEntity
  8
object
 62
     7
100
AcDbLine
 10
-4283.985831420074
 20
-1564.864526439248
 30
0.0
 11
-4234.28201813273
 21
-1564.864526439248
 31
0.0
  0
LINE
  5
D392
102
{ACAD_REACTORS
330
D39C
102
}
330
1F
100
AcDbEntity
  8
object
 62
     7
100
AcDbLine
 10
-4283.985831420074
 20
-1602.156084577273
 30
0.0
 11
-4283.985831420074
 21
-1552.126292431578
 31
0.0
  0
LINE
  5
D393
102
{ACAD_REACTORS
330
D39C
102
}
330
1F
100
AcDbEntity
  8
object
 62
     7
100
AcDbLine
 10
-4234.28201813273
 20
-1552.126292431578
 30
0.0
 11
-4234.28201813273
 21
-1602.156084577273
 31
0.0
  0
LINE
  5
D394
102
{ACAD_REACTORS
330
D39C
102
}
330
1F
100
AcDbEntity
  8
object
 62
     7
100
AcDbLine
 10
-4238.60201813273
 20
-1606.476084577273
 30
0.0
 11
-4279.665831420073
 21
-1606.476084577273
 31
0.0
  0
ARC
  5
D395
102
{ACAD_REACTORS
330
D39C
102
}
330
1F
100
AcDbEntity
  8
object
 62
     7
100
AcDbCircle
 10
-4238.60201813273
 20
-1602.156084577273
 30
0.0
 40
4.319999999999998
100
AcDbArc
 50
270.0
 51
0.0
  0
TEXT
  5
D396
102
{ACAD_REACTORS
330
D39C
102
}
330
1F
100
AcDbEntity
  8
0
 62
     7
100
AcDbText
 10
-4281.295524776401
 20
-1622.34310835704
 30
0.0
 40
4.665599999999997
  1
（M4×10-2本）
  7
注記
 72
     1
 11
-4259.133924776401
 21
-1620.01030835704
 31
0.0
100
AcDbText
 73
     2
  0
TEXT
  5
D397
102
{ACAD_REACTORS
330
D39C
102
}
330
1F
100
AcDbEntity
  8
0
 62
     7
100
AcDbText
 10
-4289.926884776401
 20
-1616.295108357039
 30
0.0
 40
4.665599999999997
  1
トラスタップタイトネジ
  7
注記
 72
     1
 11
-4259.133924776401
 21
-1613.96230835704
 31
0.0
100
AcDbText
 73
     2
  0
TEXT
  5
D398
102
{ACAD_REACTORS
330
D39C
102
}
330
1F
100
AcDbEntity
  8
0
 62
     7
100
AcDbText
 10
-4274.996964776401
 20
-1630.69510835704
 30
0.0
 40
4.665599999999997
  1
座付丸木ねじ
  7
注記
 72
     1
 11
-4259.133924776401
 21
-1628.36230835704
 31
0.0
100
AcDbText
 73
     2
  0
TEXT
  5
D399
102
{ACAD_REACTORS
330
D39C
102
}
330
1F
100
AcDbEntity
  8
0
 62
     7
100
AcDbText
 10
-4283.550564776401
 20
-1636.74310835704
 30
0.0
 40
4.665599999999997
  1
（4.1×22-3本）
  7
注記
 72
     1
 11
-4259.133924776401
 21
-1634.41030835704
 31
0.0
100
AcDbText
 73
     2
  0
LINE
  5
D39A
102
{ACAD_REACTORS
330
D39C
102
}
330
1F
100
AcDbEntity
  8
0
 62
     7
100
AcDbLine
 10
-4305.213924776402
 20
-1645.395412284192
 30
0.0
 11
-4305.213924776402
 21
-1511.643970921235
 31
0.0
  0
LINE
  5
DD22
330
1F
100
AcDbEntity
  8
0
  6
CENTER
 62
     7
100
AcDbLine
 10
-5063.829253746161
 20
-1463.50813083054
 30
0.0
 11
-5063.829253746161
 21
-1349.824210613642
 31
0.0
  0
LINE
  5
DD23
330
1F
100
AcDbEntity
  8
9 横幕板
 62
     7
100
AcDbLine
 10
-4921.648904868778
 20
-1203.519228537048
 30
0.0
 11
-4447.648904868779
 21
-1203.519228537048
 31
0.0
  0
LINE
  5
DD24
330
1F
100
AcDbEntity
  8
9 横幕板
 62
     7
100
AcDbLine
 10
-4921.648904868778
 20
-1183.519228537048
 30
0.0
 11
-4447.648904868779
 21
-1183.519228537048
 31
0.0
  0
LINE
  5
DD25
330
1F
100
AcDbEntity
  8
9 横幕板
 62
     7
100
AcDbLine
 10
-4921.648904868778
 20
-1183.519228537048
 30
0.0
 11
-4921.648904868778
 21
-1203.519228537048
 31
0.0
  0
LINE
  5
DD26
330
1F
100
AcDbEntity
  8
9 横幕板
 62
     7
100
AcDbLine
 10
-4447.648904868779
 20
-1183.519228537048
 30
0.0
 11
-4447.648904868779
 21
-1203.519228537048
 31
0.0
  0
LINE
  5
DD27
330
1F
100
AcDbEntity
  8
9 横幕板
 62
     7
100
AcDbLine
 10
-4921.04890486878
 20
-1183.519228537048
 30
0.0
 11
-4921.04890486878
 21
-1203.519228537048
 31
0.0
  0
LINE
  5
DD28
330
1F
100
AcDbEntity
  8
9 横幕板
  6
HIDDEN
 62
     7
100
AcDbLine
 10
-4921.04890486878
 20
-1202.919228537048
 30
0.0
 11
-4448.248904868778
 21
-1202.919228537048
 31
0.0
  0
LINE
  5
DD29
330
1F
100
AcDbEntity
  8
9 横幕板
 62
     7
100
AcDbLine
 10
-4448.248904868778
 20
-1183.519228537048
 30
0.0
 11
-4448.248904868778
 21
-1203.519228537048
 31
0.0
  0
CIRCLE
  5
DD2A
330
1F
100
AcDbEntity
  8
9 横幕板
 62
     7
100
AcDbCircle
 10
-4861.648904868778
 20
-1193.519228537048
 30
0.0
 40
1.8
  0
CIRCLE
  5
DD2B
330
1F
100
AcDbEntity
  8
9 横幕板
  6
HIDDEN
 62
     7
100
AcDbCircle
 10
-4861.648904868778
 20
-1193.519228537048
 30
0.0
 40
2.4
  0
CIRCLE
  5
DD30
330
1F
100
AcDbEntity
  8
9 横幕板
 62
     7
100
AcDbCircle
 10
-4677.648904868779
 20
-1193.519228537047
 30
0.0
 40
1.8
  0
CIRCLE
  5
DD31
330
1F
100
AcDbEntity
  8
9 横幕板
  6
HIDDEN
 62
     7
100
AcDbCircle
 10
-4677.648904868779
 20
-1193.519228537047
 30
0.0
 40
2.4
  0
LINE
  5
DD32
330
1F
100
AcDbEntity
  8
9 横幕板
 62
     7
100
AcDbLine
 10
-4921.04890486878
 20
-1509.82421061364
 30
0.0
 11
-4448.248904868778
 21
-1509.82421061364
 31
0.0
  0
LINE
  5
DD33
330
1F
100
AcDbEntity
  8
9 横幕板
 62
     7
100
AcDbLine
 10
-4447.648904868778
 20
-1509.22421061364
 30
0.0
 11
-4447.648904868778
 21
-1310.424210613639
 31
0.0
  0
LINE
  5
DD34
330
1F
100
AcDbEntity
  8
9 横幕板
 62
     7
100
AcDbLine
 10
-4921.04890486878
 20
-1309.824210613639
 30
0.0
 11
-4448.248904868778
 21
-1309.824210613639
 31
0.0
  0
LINE
  5
DD35
330
1F
100
AcDbEntity
  8
9 横幕板
 62
     7
100
AcDbLine
 10
-4921.648904868778
 20
-1509.22421061364
 30
0.0
 11
-4921.648904868778
 21
-1310.424210613639
 31
0.0
  0
LINE
  5
DD36
330
1F
100
AcDbEntity
  8
9 横幕板
  6
HIDDEN
 62
     7
100
AcDbLine
 10
-4921.04890486878
 20
-1509.82421061364
 30
0.0
 11
-4921.04890486878
 21
-1309.824210613639
 31
0.0
  0
LINE
  5
DD37
330
1F
100
AcDbEntity
  8
9 横幕板
  6
HIDDEN
 62
     7
100
AcDbLine
 10
-4921.648904868778
 20
-1310.424210613639
 30
0.0
 11
-4447.648904868778
 21
-1310.424210613639
 31
0.0
  0
LINE
  5
DD38
330
1F
100
AcDbEntity
  8
9 横幕板
  6
HIDDEN
 62
     7
100
AcDbLine
 10
-4448.248904868778
 20
-1509.82421061364
 30
0.0
 11
-4448.248904868778
 21
-1309.824210613639
 31
0.0
  0
LINE
  5
DD39
330
1F
100
AcDbEntity
  8
9 横幕板
  6
HIDDEN
 62
     7
100
AcDbLine
 10
-4921.648904868778
 20
-1509.22421061364
 30
0.0
 11
-4447.648904868778
 21
-1509.22421061364
 31
0.0
  0
LINE
  5
DD3A
330
1F
100
AcDbEntity
  8
9 横幕板
  6
HIDDEN
 62
     7
 48
3.0
100
AcDbLine
 10
-5065.329253746161
 20
-1400.324210613642
 30
0.0
 11
-5065.329253746161
 21
-1419.324210613642
 31
0.0
  0
LINE
  5
DD3B
330
1F
100
AcDbEntity
  8
9 横幕板
  6
HIDDEN
 62
     7
 48
3.0
100
AcDbLine
 10
-5065.92925374616
 20
-1402.324210613642
 30
0.0
 11
-5065.92925374616
 21
-1417.324210613642
 31
0.0
  0
LINE
  5
DD3C
330
1F
100
AcDbEntity
  8
9 横幕板
  6
HIDDEN
 62
     7
 48
3.0
100
AcDbLine
 10
-5065.329253746161
 20
-1400.324210613642
 30
0.0
 11
-5072.829253746161
 21
-1400.324210613642
 31
0.0
  0
LINE
  5
DD3D
330
1F
100
AcDbEntity
  8
9 横幕板
  6
HIDDEN
 62
     7
 48
3.0
100
AcDbLine
 10
-5065.329253746161
 20
-1402.324210613642
 30
0.0
 11
-5065.92925374616
 21
-1402.324210613642
 31
0.0
  0
LINE
  5
DD3E
330
1F
100
AcDbEntity
  8
9 横幕板
  6
HIDDEN
 62
     7
 48
3.0
100
AcDbLine
 10
-5065.329253746161
 20
-1419.324210613642
 30
0.0
 11
-5072.829253746161
 21
-1419.324210613641
 31
0.0
  0
LINE
  5
DD3F
330
1F
100
AcDbEntity
  8
9 横幕板
  6
HIDDEN
 62
     7
 48
3.0
100
AcDbLine
 10
-5065.329253746161
 20
-1417.324210613642
 30
0.0
 11
-5065.92925374616
 21
-1417.324210613642
 31
0.0
  0
LINE
  5
DD40
330
1F
100
AcDbEntity
  8
9 横幕板
 62
     7
100
AcDbLine
 10
-5072.829253746161
 20
-1309.824210613641
 30
0.0
 11
-5052.829253746161
 21
-1309.824210613641
 31
0.0
  0
LINE
  5
DD41
330
1F
100
AcDbEntity
  8
9 横幕板
 62
     7
100
AcDbLine
 10
-5072.829253746161
 20
-1310.424210613641
 30
0.0
 11
-5052.829253746161
 21
-1310.424210613641
 31
0.0
  0
LINE
  5
DD42
330
1F
100
AcDbEntity
  8
9 横幕板
 62
     7
100
AcDbLine
 10
-5052.829253746161
 20
-1309.824210613641
 30
0.0
 11
-5052.829253746161
 21
-1509.82421061364
 31
0.0
  0
LINE
  5
DD43
330
1F
100
AcDbEntity
  8
9 横幕板
  6
HIDDEN
 62
     7
100
AcDbLine
 10
-5053.429253746162
 20
-1310.424210613641
 30
0.0
 11
-5053.429253746162
 21
-1509.22421061364
 31
0.0
  0
LINE
  5
DD44
330
1F
100
AcDbEntity
  8
9 横幕板
 62
     7
100
AcDbLine
 10
-5072.829253746161
 20
-1309.824210613641
 30
0.0
 11
-5072.829253746161
 21
-1509.82421061364
 31
0.0
  0
LINE
  5
DD45
330
1F
100
AcDbEntity
  8
9 横幕板
 62
     7
100
AcDbLine
 10
-5072.829253746161
 20
-1509.22421061364
 30
0.0
 11
-5052.829253746161
 21
-1509.22421061364
 31
0.0
  0
LINE
  5
DD46
330
1F
100
AcDbEntity
  8
9 横幕板
 62
     7
100
AcDbLine
 10
-5072.829253746161
 20
-1509.82421061364
 30
0.0
 11
-5052.829253746161
 21
-1509.82421061364
 31
0.0
  0
LINE
  5
DD47
330
1F
100
AcDbEntity
  8
9 横幕板
 62
     7
100
AcDbLine
 10
-4926.04890486878
 20
-1402.324210613642
 30
0.0
 11
-4921.04890486878
 21
-1402.324210613642
 31
0.0
  0
LINE
  5
DD48
330
1F
100
AcDbEntity
  8
9 横幕板
 62
     7
100
AcDbLine
 10
-4926.04890486878
 20
-1417.324210613642
 30
0.0
 11
-4921.04890486878
 21
-1417.324210613642
 31
0.0
  0
LINE
  5
DD49
330
1F
100
AcDbEntity
  8
9 横幕板
 62
     7
100
AcDbLine
 10
-4926.04890486878
 20
-1417.324210613642
 30
0.0
 11
-4926.04890486878
 21
-1402.324210613642
 31
0.0
  0
DIMENSION
  5
DD4A
330
1F
100
AcDbEntity
  8
0
 62
     7
100
AcDbDimension
280
     0
  2
*D2
 10
-4921.648904868778
 20
-1556.080411218085
 30
0.0
 11
-4684.648904868778
 21
-1545.580411218085
 31
0.0
 70
    32
 71
     5
 42
474.0
 73
     0
 74
     0
 75
     0
  3
ISO-25
100
AcDbAlignedDimension
 13
-4447.648904868778
 23
-1509.22421061364
 33
0.0
 14
-4921.648904868778
 24
-1509.22421061364
 34
0.0
100
AcDbRotatedDimension
  0
LINE
  5
DD4B
330
1F
100
AcDbEntity
  8
0
  6
CENTER
 62
     7
100
AcDbLine
 10
-4902.648904868778
 20
-1193.519228537048
 30
0.0
 11
-4890.648904868778
 21
-1193.519228537048
 31
0.0
  0
LINE
  5
DD4C
330
1F
100
AcDbEntity
  8
0
  6
CENTER
 62
     7
100
AcDbLine
 10
-4896.648904868778
 20
-1187.519228537048
 30
0.0
 11
-4896.648904868778
 21
-1199.519228537048
 31
0.0
  0
LINE
  5
DD4D
330
1F
100
AcDbEntity
  8
0
  6
CENTER
 62
     7
100
AcDbLine
 10
-4478.648904868779
 20
-1193.519228537047
 30
0.0
 11
-4466.648904868779
 21
-1193.519228537047
 31
0.0
  0
LINE
  5
DD4E
330
1F
100
AcDbEntity
  8
0
  6
CENTER
 62
     7
100
AcDbLine
 10
-4472.648904868779
 20
-1187.519228537047
 30
0.0
 11
-4472.648904868779
 21
-1199.519228537047
 31
0.0
  0
LINE
  5
DD4F
330
1F
100
AcDbEntity
  8
0
  6
CENTER
 62
     7
100
AcDbLine
 10
-4866.448904868779
 20
-1193.519228537048
 30
0.0
 11
-4856.848904868779
 21
-1193.519228537048
 31
0.0
  0
LINE
  5
DD50
330
1F
100
AcDbEntity
  8
0
  6
CENTER
 62
     7
100
AcDbLine
 10
-4861.648904868778
 20
-1188.719228537047
 30
0.0
 11
-4861.648904868778
 21
-1198.319228537048
 31
0.0
  0
LINE
  5
DD51
330
1F
100
AcDbEntity
  8
0
  6
CENTER
 62
     7
100
AcDbLine
 10
-4682.448904868779
 20
-1193.519228537047
 30
0.0
 11
-4672.848904868779
 21
-1193.519228537047
 31
0.0
  0
LINE
  5
DD52
330
1F
100
AcDbEntity
  8
0
  6
CENTER
 62
     7
100
AcDbLine
 10
-4677.648904868779
 20
-1188.719228537047
 30
0.0
 11
-4677.648904868779
 21
-1198.319228537047
 31
0.0
  0
LINE
  5
DD55
330
1F
100
AcDbEntity
  8
9 横幕板
  6
CENTER
 62
     7
100
AcDbLine
 10
-4861.648904868778
 20
-1305.624210613639
 30
0.0
 11
-4861.648904868778
 21
-1315.224210613639
 31
0.0
  0
LINE
  5
DD56
330
1F
100
AcDbEntity
  8
9 横幕板
  6
HIDDEN
 62
     7
100
AcDbLine
 10
-4859.248904868778
 20
-1311.024210613639
 30
0.0
 11
-4864.048904868778
 21
-1311.024210613639
 31
0.0
  0
LINE
  5
DD57
330
1F
100
AcDbEntity
  8
9 横幕板
  6
HIDDEN
 62
     7
100
AcDbLine
 10
-4859.248904868778
 20
-1310.424210613638
 30
0.0
 11
-4859.248904868778
 21
-1311.024210613639
 31
0.0
  0
LINE
  5
DD58
330
1F
100
AcDbEntity
  8
9 横幕板
  6
HIDDEN
 62
     7
100
AcDbLine
 10
-4864.048904868778
 20
-1310.424210613638
 30
0.0
 11
-4864.048904868778
 21
-1311.024210613639
 31
0.0
  0
LINE
  5
DD59
330
1F
100
AcDbEntity
  8
9 横幕板
  6
HIDDEN
 62
     7
100
AcDbLine
 10
-4859.848904868779
 20
-1309.824210613639
 30
0.0
 11
-4859.848904868779
 21
-1311.024210613639
 31
0.0
  0
LINE
  5
DD5A
330
1F
100
AcDbEntity
  8
9 横幕板
  6
HIDDEN
 62
     7
100
AcDbLine
 10
-4863.448904868779
 20
-1309.824210613639
 30
0.0
 11
-4863.448904868779
 21
-1311.024210613639
 31
0.0
  0
LINE
  5
DD5B
330
1F
100
AcDbEntity
  8
9 横幕板
  6
CENTER
 62
     7
100
AcDbLine
 10
-4677.648904868779
 20
-1305.624210613639
 30
0.0
 11
-4677.648904868779
 21
-1315.224210613638
 31
0.0
  0
LINE
  5
DD5C
330
1F
100
AcDbEntity
  8
9 横幕板
  6
HIDDEN
 62
     7
100
AcDbLine
 10
-4675.248904868778
 20
-1311.024210613638
 30
0.0
 11
-4680.048904868779
 21
-1311.024210613638
 31
0.0
  0
LINE
  5
DD5D
330
1F
100
AcDbEntity
  8
9 横幕板
  6
HIDDEN
 62
     7
100
AcDbLine
 10
-4675.248904868778
 20
-1310.424210613638
 30
0.0
 11
-4675.248904868778
 21
-1311.024210613638
 31
0.0
  0
LINE
  5
DD5E
330
1F
100
AcDbEntity
  8
9 横幕板
  6
HIDDEN
 62
     7
100
AcDbLine
 10
-4680.048904868779
 20
-1310.424210613638
 30
0.0
 11
-4680.048904868779
 21
-1311.024210613638
 31
0.0
  0
LINE
  5
DD5F
330
1F
100
AcDbEntity
  8
9 横幕板
  6
HIDDEN
 62
     7
100
AcDbLine
 10
-4675.848904868779
 20
-1309.824210613639
 30
0.0
 11
-4675.848904868779
 21
-1311.024210613638
 31
0.0
  0
LINE
  5
DD60
330
1F
100
AcDbEntity
  8
9 横幕板
  6
HIDDEN
 62
     7
100
AcDbLine
 10
-4679.448904868779
 20
-1309.824210613639
 30
0.0
 11
-4679.448904868779
 21
-1311.024210613638
 31
0.0
  0
LINE
  5
DD67
330
1F
100
AcDbEntity
  8
0
  6
CENTER
 62
     7
100
AcDbLine
 10
-4472.648904868779
 20
-1303.824210613639
 30
0.0
 11
-4472.648904868779
 21
-1315.824210613639
 31
0.0
  0
LINE
  5
DD68
330
1F
100
AcDbEntity
  8
0
  6
CENTER
 62
     7
100
AcDbLine
 10
-4896.648904868778
 20
-1303.824210613639
 30
0.0
 11
-4896.648904868778
 21
-1315.824210613639
 31
0.0
  0
LINE
  5
DD69
330
1F
100
AcDbEntity
  8
9 横幕板
 62
     7
100
AcDbLine
 10
-4926.04890486878
 20
-1190.419228537049
 30
0.0
 11
-4921.04890486878
 21
-1190.419228537049
 31
0.0
  0
LINE
  5
DD6A
330
1F
100
AcDbEntity
  8
9 横幕板
 62
     7
100
AcDbLine
 10
-4926.04890486878
 20
-1191.019228537049
 30
0.0
 11
-4921.648904868778
 21
-1191.019228537049
 31
0.0
  0
LINE
  5
DD6B
330
1F
100
AcDbEntity
  8
9 横幕板
 62
     7
100
AcDbLine
 10
-4926.04890486878
 20
-1191.019228537049
 30
0.0
 11
-4926.04890486878
 21
-1190.419228537049
 31
0.0
  0
DIMENSION
  5
DD6C
330
1F
100
AcDbEntity
  8
0
 62
     7
100
AcDbDimension
280
     0
  2
*D3
 10
-4677.648904868779
 20
-1256.950034085536
 30
0.0
 11
-4592.648904868778
 21
-1256.950034085536
 31
0.0
 70
   160
 71
     5
 42
230.0
 73
     0
 74
     0
 75
     0
  3
ISO-25
100
AcDbAlignedDimension
 13
-4447.648904868779
 23
-1203.519228537048
 33
0.0
 14
-4677.648904868779
 24
-1198.319228537047
 34
0.0
100
AcDbRotatedDimension
  0
DIMENSION
  5
DD6D
330
1F
100
AcDbEntity
  8
0
 62
     7
100
AcDbDimension
280
     0
  2
*D4
 10
-4677.648904868779
 20
-1256.950034085536
 30
0.0
 11
-4720.148904868779
 21
-1256.950034085536
 31
0.0
 70
   160
 71
     5
 42
183.9999999999991
 73
     0
 74
     0
 75
     0
 52
-89.99999999999999
  3
ISO-25
100
AcDbAlignedDimension
 13
-4861.648904868778
 23
-1198.319228537048
 33
0.0
 14
-4677.648904868779
 24
-1198.319228537047
 34
0.0
 50
180.0
100
AcDbRotatedDimension
  0
DIMENSION
  5
DD6F
330
1F
100
AcDbEntity
  8
0
 62
     7
100
AcDbDimension
280
     0
  2
*D6
 10
-4472.648904868779
 20
-1135.913023138867
 30
0.0
 11
-4412.148904868779
 21
-1135.913023138867
 31
0.0
 70
   160
 71
     5
 42
25.0
 73
     0
 74
     0
 75
     0
  3
ISO-25
100
AcDbAlignedDimension
 13
-4447.648904868779
 23
-1183.519228537048
 33
0.0
 14
-4472.648904868779
 24
-1187.519228537047
 34
0.0
100
AcDbRotatedDimension
  0
DIMENSION
  5
DD70
330
1F
100
AcDbEntity
  8
0
 62
     7
100
AcDbDimension
280
     0
  2
*D7
 10
-4472.648904868779
 20
-1135.913023138867
 30
0.0
 11
-4634.648904868779
 21
-1135.913023138867
 31
0.0
 70
   160
 71
     5
 42
423.9999999999991
 73
     0
 74
     0
 75
     0
 52
-89.99999999999999
  3
ISO-25
100
AcDbAlignedDimension
 13
-4896.648904868778
 23
-1187.519228537048
 33
0.0
 14
-4472.648904868779
 24
-1187.519228537047
 34
0.0
 50
180.0
100
AcDbRotatedDimension
  0
MTEXT
  5
DD71
102
{ACAD_REACTORS
330
DD72
102
}
330
1F
100
AcDbEntity
  8
0
 62
     7
100
AcDbMText
 10
-4932.444905404342
 20
-1115.534315025259
 30
0.0
 40
15.0
 41
0.0
 46
10.0
 71
     9
 72
     1
  1
2-2-%%C3.6BU（両面内向き）
 73
     1
 44
1.0
1001
ACAD
1000
ACAD_MTEXT_DEFINED_HEIGHT_BEGIN
1070
    46
1040
10.0
1000
ACAD_MTEXT_DEFINED_HEIGHT_END
  0
LEADER
  5
DD72
330
1F
100
AcDbEntity
  8
0
 62
     7
100
AcDbLeader
  3
ISO-25
 73
     0
 75
     1
 40
15.21666666666667
 41
253.25
 76
     3
 10
-4861.648904868778
 20
-1193.519228537048
 30
0.0
 10
-4917.444905404342
 20
-1120.534315025259
 30
0.0
 10
-4927.444905404342
 20
-1120.534315025259
 30
0.0
340
DD71
1001
ACAD
1000
DSTYLE
1002
{
1070
   147
1040
5.0
1070
    77
1070
     1
1002
}
  0
MTEXT
  5
DD73
102
{ACAD_REACTORS
330
DD74
102
}
330
1F
100
AcDbEntity
  8
0
 62
     7
100
AcDbMText
 10
-4557.487742666654
 20
-1091.688854241429
 30
0.0
 40
15.0
 41
0.0
 46
10.0
 71
     9
 72
     1
  1
2-2-%%C6×10長穴（両面）
 73
     1
 44
1.0
1001
ACAD
1000
ACAD_MTEXT_DEFINED_HEIGHT_BEGIN
1070
    46
1040
10.0
1000
ACAD_MTEXT_DEFINED_HEIGHT_END
  0
LEADER
  5
DD74
330
1F
100
AcDbEntity
  8
0
 62
     7
100
AcDbLeader
  3
ISO-25
 73
     0
 75
     1
 40
15.0
 41
225.75
 76
     3
 10
-4472.648904868779
 20
-1193.519228537047
 30
0.0
 10
-4542.487742666654
 20
-1096.688854241429
 30
0.0
 10
-4552.487742666654
 20
-1096.688854241429
 30
0.0
340
DD73
1001
ACAD
1000
DSTYLE
1002
{
1070
   147
1040
5.0
1070
    77
1070
     1
1002
}
  0
DIMENSION
  5
DD75
330
1F
100
AcDbEntity
  8
0
 62
     7
100
AcDbDimension
280
     0
  2
*D8
 10
-4402.988027013431
 20
-1203.519228537049
 30
0.0
 11
-4413.48802701343
 21
-1235.269228537047
 31
0.0
 70
    32
 71
     5
 42
10.00000000000091
 73
     0
 74
     0
 75
     0
  3
ISO-25
100
AcDbAlignedDimension
 13
-4466.648904868779
 23
-1193.519228537047
 33
0.0
 14
-4447.648904868779
 24
-1203.519228537048
 34
0.0
 50
90.0
100
AcDbRotatedDimension
  0
LINE
  5
DD76
330
1F
100
AcDbEntity
  8
9 横幕板
  6
CENTER
 62
     7
100
AcDbLine
 10
-4861.648904868778
 20
-1514.024210613641
 30
0.0
 11
-4861.648904868778
 21
-1504.424210613641
 31
0.0
  0
LINE
  5
DD77
330
1F
100
AcDbEntity
  8
9 横幕板
  6
HIDDEN
 62
     7
100
AcDbLine
 10
-4859.248904868778
 20
-1508.624210613641
 30
0.0
 11
-4864.048904868778
 21
-1508.624210613641
 31
0.0
  0
LINE
  5
DD78
330
1F
100
AcDbEntity
  8
9 横幕板
  6
HIDDEN
 62
     7
100
AcDbLine
 10
-4859.248904868778
 20
-1509.224210613641
 30
0.0
 11
-4859.248904868778
 21
-1508.624210613641
 31
0.0
  0
LINE
  5
DD79
330
1F
100
AcDbEntity
  8
9 横幕板
  6
HIDDEN
 62
     7
100
AcDbLine
 10
-4864.048904868778
 20
-1509.224210613641
 30
0.0
 11
-4864.048904868778
 21
-1508.624210613641
 31
0.0
  0
LINE
  5
DD7A
330
1F
100
AcDbEntity
  8
9 横幕板
  6
HIDDEN
 62
     7
100
AcDbLine
 10
-4859.848904868779
 20
-1509.824210613641
 30
0.0
 11
-4859.848904868779
 21
-1508.624210613641
 31
0.0
  0
LINE
  5
DD7B
330
1F
100
AcDbEntity
  8
9 横幕板
  6
HIDDEN
 62
     7
100
AcDbLine
 10
-4863.448904868779
 20
-1509.824210613641
 30
0.0
 11
-4863.448904868779
 21
-1508.624210613641
 31
0.0
  0
LINE
  5
DD7C
330
1F
100
AcDbEntity
  8
9 横幕板
  6
CENTER
 62
     7
100
AcDbLine
 10
-4677.648904868779
 20
-1514.024210613641
 30
0.0
 11
-4677.648904868779
 21
-1504.424210613642
 31
0.0
  0
LINE
  5
DD7D
330
1F
100
AcDbEntity
  8
9 横幕板
  6
HIDDEN
 62
     7
100
AcDbLine
 10
-4675.248904868778
 20
-1508.624210613641
 30
0.0
 11
-4680.048904868779
 21
-1508.624210613641
 31
0.0
  0
LINE
  5
DD7E
330
1F
100
AcDbEntity
  8
9 横幕板
  6
HIDDEN
 62
     7
100
AcDbLine
 10
-4675.248904868778
 20
-1509.224210613642
 30
0.0
 11
-4675.248904868778
 21
-1508.624210613641
 31
0.0
  0
LINE
  5
DD7F
330
1F
100
AcDbEntity
  8
9 横幕板
  6
HIDDEN
 62
     7
100
AcDbLine
 10
-4680.048904868779
 20
-1509.224210613642
 30
0.0
 11
-4680.048904868779
 21
-1508.624210613641
 31
0.0
  0
LINE
  5
DD80
330
1F
100
AcDbEntity
  8
9 横幕板
  6
HIDDEN
 62
     7
100
AcDbLine
 10
-4675.848904868779
 20
-1509.824210613641
 30
0.0
 11
-4675.848904868779
 21
-1508.624210613641
 31
0.0
  0
LINE
  5
DD81
330
1F
100
AcDbEntity
  8
9 横幕板
  6
HIDDEN
 62
     7
100
AcDbLine
 10
-4679.448904868779
 20
-1509.824210613641
 30
0.0
 11
-4679.448904868779
 21
-1508.624210613641
 31
0.0
  0
LINE
  5
DD88
330
1F
100
AcDbEntity
  8
0
  6
CENTER
 62
     7
100
AcDbLine
 10
-4472.648904868779
 20
-1515.824210613641
 30
0.0
 11
-4472.648904868779
 21
-1503.824210613641
 31
0.0
  0
LINE
  5
DD89
330
1F
100
AcDbEntity
  8
0
  6
CENTER
 62
     7
100
AcDbLine
 10
-4896.648904868778
 20
-1515.82421061364
 30
0.0
 11
-4896.648904868778
 21
-1503.82421061364
 31
0.0
  0
LINE
  5
DD8A
330
1F
100
AcDbEntity
  8
9 横幕板
  6
CENTER
 62
     7
100
AcDbLine
 10
-5062.829253746161
 20
-1305.624210613641
 30
0.0
 11
-5062.829253746161
 21
-1315.22421061364
 31
0.0
  0
LINE
  5
DD8B
330
1F
100
AcDbEntity
  8
9 横幕板
  6
HIDDEN
 62
     7
100
AcDbLine
 10
-5060.42925374616
 20
-1311.02421061364
 30
0.0
 11
-5065.229253746161
 21
-1311.02421061364
 31
0.0
  0
LINE
  5
DD8C
330
1F
100
AcDbEntity
  8
9 横幕板
  6
HIDDEN
 62
     7
100
AcDbLine
 10
-5060.42925374616
 20
-1310.42421061364
 30
0.0
 11
-5060.42925374616
 21
-1311.02421061364
 31
0.0
  0
LINE
  5
DD8D
330
1F
100
AcDbEntity
  8
9 横幕板
  6
HIDDEN
 62
     7
100
AcDbLine
 10
-5065.229253746161
 20
-1310.42421061364
 30
0.0
 11
-5065.229253746161
 21
-1311.02421061364
 31
0.0
  0
LINE
  5
DD8E
330
1F
100
AcDbEntity
  8
9 横幕板
  6
HIDDEN
 62
     7
100
AcDbLine
 10
-5061.02925374616
 20
-1309.82421061364
 30
0.0
 11
-5061.02925374616
 21
-1311.02421061364
 31
0.0
  0
LINE
  5
DD8F
330
1F
100
AcDbEntity
  8
9 横幕板
  6
HIDDEN
 62
     7
100
AcDbLine
 10
-5064.62925374616
 20
-1309.82421061364
 30
0.0
 11
-5064.62925374616
 21
-1311.02421061364
 31
0.0
  0
LINE
  5
DD90
330
1F
100
AcDbEntity
  8
9 横幕板
  6
CENTER
 62
     7
100
AcDbLine
 10
-5062.829253746161
 20
-1514.02421061364
 30
0.0
 11
-5062.829253746161
 21
-1504.42421061364
 31
0.0
  0
LINE
  5
DD91
330
1F
100
AcDbEntity
  8
9 横幕板
  6
HIDDEN
 62
     7
100
AcDbLine
 10
-5060.42925374616
 20
-1508.62421061364
 30
0.0
 11
-5065.229253746161
 21
-1508.62421061364
 31
0.0
  0
LINE
  5
DD92
330
1F
100
AcDbEntity
  8
9 横幕板
  6
HIDDEN
 62
     7
100
AcDbLine
 10
-5060.42925374616
 20
-1509.22421061364
 30
0.0
 11
-5060.42925374616
 21
-1508.62421061364
 31
0.0
  0
LINE
  5
DD93
330
1F
100
AcDbEntity
  8
9 横幕板
  6
HIDDEN
 62
     7
100
AcDbLine
 10
-5065.229253746161
 20
-1509.22421061364
 30
0.0
 11
-5065.229253746161
 21
-1508.62421061364
 31
0.0
  0
LINE
  5
DD94
330
1F
100
AcDbEntity
  8
9 横幕板
  6
HIDDEN
 62
     7
100
AcDbLine
 10
-5061.02925374616
 20
-1509.82421061364
 30
0.0
 11
-5061.02925374616
 21
-1508.62421061364
 31
0.0
  0
LINE
  5
DD95
330
1F
100
AcDbEntity
  8
9 横幕板
  6
HIDDEN
 62
     7
100
AcDbLine
 10
-5064.62925374616
 20
-1509.82421061364
 30
0.0
 11
-5064.62925374616
 21
-1508.62421061364
 31
0.0
  0
DIMENSION
  5
DD96
330
1F
100
AcDbEntity
  8
0
 62
     7
100
AcDbDimension
280
     0
  2
*D9
 10
-5052.829253746161
 20
-1267.005630994688
 30
0.0
 11
-5022.329253746161
 21
-1256.505630994688
 31
0.0
 70
    32
 71
     5
 42
11.0
 73
     0
 74
     0
 75
     0
  3
ISO-25
100
AcDbAlignedDimension
 13
-5063.829253746161
 23
-1349.824210613642
 33
0.0
 14
-5052.829253746161
 24
-1309.824210613641
 34
0.0
100
AcDbRotatedDimension
  0
DIMENSION
  5
DD97
330
1F
100
AcDbEntity
  8
0
 62
     7
100
AcDbDimension
280
     0
  2
*D10
 10
-4954.481533878263
 20
-1417.324210613642
 30
0.0
 11
-4954.481533878262
 21
-1369.324210613641
 31
0.0
 70
   160
 71
     5
 42
14.99999999999955
 73
     0
 74
     0
 75
     0
  3
ISO-25
100
AcDbAlignedDimension
 13
-4926.04890486878
 23
-1402.324210613642
 33
0.0
 14
-4926.04890486878
 24
-1417.324210613642
 34
0.0
 50
90.0
100
AcDbRotatedDimension
  0
DIMENSION
  5
DD98
330
1F
100
AcDbEntity
  8
0
 62
     7
100
AcDbDimension
280
     0
  2
*D11
 10
-4374.879186331154
 20
-1203.519228537049
 30
0.0
 11
-4385.379186331154
 21
-1237.769228537047
 31
0.0
 70
    32
 71
     5
 42
20.0
 73
     0
 74
     0
 75
     0
  3
ISO-25
100
AcDbAlignedDimension
 13
-4447.648904868779
 23
-1183.519228537048
 33
0.0
 14
-4447.648904868779
 24
-1203.519228537048
 34
0.0
 50
90.0
100
AcDbRotatedDimension
  0
ARC
  5
DD99
330
1F
100
AcDbEntity
  8
9 横幕板
  6
HIDDEN
 62
     7
100
AcDbCircle
 10
-5065.829253746161
 20
-1359.824210613642
 30
0.0
 40
3.0
100
AcDbArc
 50
90.0
 51
270.0
  0
ARC
  5
DD9A
330
1F
100
AcDbEntity
  8
9 横幕板
  6
HIDDEN
 62
     7
100
AcDbCircle
 10
-5061.829253746161
 20
-1359.824210613642
 30
0.0
 40
3.0
100
AcDbArc
 50
270.0
 51
90.0
  0
LINE
  5
DD9B
330
1F
100
AcDbEntity
  8
9 横幕板
  6
HIDDEN
 62
     7
100
AcDbLine
 10
-5061.829253746161
 20
-1356.824210613642
 30
0.0
 11
-5065.829253746161
 21
-1356.824210613642
 31
0.0
  0
LINE
  5
DD9C
330
1F
100
AcDbEntity
  8
9 横幕板
  6
HIDDEN
 62
     7
100
AcDbLine
 10
-5061.829253746161
 20
-1362.824210613642
 30
0.0
 11
-5065.829253746161
 21
-1362.824210613642
 31
0.0
  0
ARC
  5
DD9D
330
1F
100
AcDbEntity
  8
9 横幕板
  6
HIDDEN
 62
     7
100
AcDbCircle
 10
-5061.829253746161
 20
-1459.824210613639
 30
0.0
 40
3.0
100
AcDbArc
 50
270.0
 51
90.0
  0
ARC
  5
DD9E
330
1F
100
AcDbEntity
  8
9 横幕板
  6
HIDDEN
 62
     7
100
AcDbCircle
 10
-5065.829253746161
 20
-1459.824210613639
 30
0.0
 40
3.0
100
AcDbArc
 50
90.0
 51
270.0
  0
LINE
  5
DD9F
330
1F
100
AcDbEntity
  8
9 横幕板
  6
HIDDEN
 62
     7
100
AcDbLine
 10
-5061.829253746161
 20
-1456.824210613639
 30
0.0
 11
-5065.829253746161
 21
-1456.824210613639
 31
0.0
  0
LINE
  5
DDA0
330
1F
100
AcDbEntity
  8
9 横幕板
  6
HIDDEN
 62
     7
100
AcDbLine
 10
-5061.829253746161
 20
-1462.824210613639
 30
0.0
 11
-5065.829253746161
 21
-1462.824210613639
 31
0.0
  0
LINE
  5
DDA1
330
1F
100
AcDbEntity
  8
0
  6
CENTER
 62
     7
100
AcDbLine
 10
-5055.829253746161
 20
-1359.824210613641
 30
0.0
 11
-5071.829253746161
 21
-1359.824210613643
 31
0.0
  0
LINE
  5
DDA3
330
1F
100
AcDbEntity
  8
0
  6
CENTER
 62
     7
100
AcDbLine
 10
-5055.829253746161
 20
-1459.824210613639
 30
0.0
 11
-5071.829253746161
 21
-1459.82421061364
 31
0.0
  0
MTEXT
  5
DDA4
102
{ACAD_REACTORS
330
DDA5
102
}
330
1F
100
AcDbEntity
  8
0
 62
     7
100
AcDbMText
 10
-5125.427366083461
 20
-1529.62853937718
 30
0.0
 40
15.0
 41
0.0
 46
10.0
 71
     9
 72
     1
  1
{2-%%C6×10長穴（奥面）}
 73
     1
 44
1.0
1001
ACAD
1000
ACAD_MTEXT_DEFINED_HEIGHT_BEGIN
1070
    46
1040
10.0
1000
ACAD_MTEXT_DEFINED_HEIGHT_END
  0
LEADER
  5
DDA5
330
1F
100
AcDbEntity
  8
0
 62
     7
100
AcDbLeader
  3
ISO-25
 73
     0
 75
     1
 40
15.0
 41
195.75
 76
     3
 10
-5063.829253746161
 20
-1459.824210613639
 30
0.0
 10
-5112.427366083461
 20
-1532.62853937718
 30
0.0
 10
-5122.427366083461
 20
-1532.62853937718
 30
0.0
340
DDA4
1001
ACAD
1000
DSTYLE
1002
{
1070
    77
1070
     1
1002
}
  0
DIMENSION
  5
DDA6
330
1F
100
AcDbEntity
  8
0
 62
     7
100
AcDbDimension
280
     0
  2
*D13
 10
-4392.079797604563
 20
-1509.824210613641
 30
0.0
 11
-4402.579797604562
 21
-1409.824210613639
 31
0.0
 70
    32
 71
     5
 42
200.0000000000009
 73
     0
 74
     0
 75
     0
  3
ISO-25
100
AcDbAlignedDimension
 13
-4448.248904868778
 23
-1309.824210613639
 33
0.0
 14
-4448.248904868778
 24
-1509.82421061364
 34
0.0
 50
90.0
100
AcDbRotatedDimension
  0
DIMENSION
  5
DE51
330
1F
100
AcDbEntity
  8
0
100
AcDbDimension
280
     0
  2
*D14
 10
-5011.762091430153
 20
-1509.824210613641
 30
0.0
 11
-5022.262091430152
 21
-1484.824210613638
 31
0.0
 70
    32
 71
     5
 42
50.00000000000182
 73
     0
 74
     0
 75
     0
  3
ISO-25
100
AcDbAlignedDimension
 13
-5055.829253746161
 23
-1459.824210613639
 33
0.0
 14
-5052.829253746161
 24
-1509.82421061364
 34
0.0
 50
90.0
100
AcDbRotatedDimension
  0
DIMENSION
  5
DE67
330
1F
100
AcDbEntity
  8
0
100
AcDbDimension
280
     0
  2
*D15
 10
-5011.60089750425
 20
-1309.824210613641
 30
0.0
 11
-5022.10089750425
 21
-1334.82421061364
 31
0.0
 70
    32
 71
     5
 42
50.0
 73
     0
 74
     0
 75
     0
  3
ISO-25
100
AcDbAlignedDimension
 13
-5055.829253746161
 23
-1359.824210613641
 33
0.0
 14
-5052.829253746161
 24
-1309.824210613641
 34
0.0
 50
90.0
100
AcDbRotatedDimension
  0
ARC
  5
DE7D
330
1F
100
AcDbEntity
  8
9 横幕板
  6
HIDDEN
 62
     7
100
AcDbCircle
 10
-4896.648904868778
 20
-1191.519228537048
 30
0.0
 40
3.0
100
AcDbArc
 50
0.0
 51
180.0
  0
ARC
  5
DE7E
330
1F
100
AcDbEntity
  8
9 横幕板
  6
HIDDEN
 62
     7
100
AcDbCircle
 10
-4896.648904868778
 20
-1195.519228537048
 30
0.0
 40
3.0
100
AcDbArc
 50
180.0
 51
0.0
  0
LINE
  5
DE7F
330
1F
100
AcDbEntity
  8
9 横幕板
  6
HIDDEN
 62
     7
100
AcDbLine
 10
-4893.648904868778
 20
-1195.519228537048
 30
0.0
 11
-4893.648904868778
 21
-1191.519228537048
 31
0.0
  0
LINE
  5
DE80
330
1F
100
AcDbEntity
  8
9 横幕板
  6
HIDDEN
 62
     7
100
AcDbLine
 10
-4899.648904868778
 20
-1195.519228537048
 30
0.0
 11
-4899.648904868778
 21
-1191.519228537048
 31
0.0
  0
ARC
  5
DE81
330
1F
100
AcDbEntity
  8
9 横幕板
  6
HIDDEN
 62
     7
100
AcDbCircle
 10
-4472.648904868779
 20
-1191.519228537047
 30
0.0
 40
3.0
100
AcDbArc
 50
0.0
 51
180.0
  0
ARC
  5
DE82
330
1F
100
AcDbEntity
  8
9 横幕板
  6
HIDDEN
 62
     7
100
AcDbCircle
 10
-4472.648904868779
 20
-1195.519228537047
 30
0.0
 40
3.0
100
AcDbArc
 50
180.0
 51
0.0
  0
LINE
  5
DE83
330
1F
100
AcDbEntity
  8
9 横幕板
  6
HIDDEN
 62
     7
100
AcDbLine
 10
-4469.648904868779
 20
-1195.519228537047
 30
0.0
 11
-4469.648904868779
 21
-1191.519228537047
 31
0.0
  0
LINE
  5
DE84
330
1F
100
AcDbEntity
  8
9 横幕板
  6
HIDDEN
 62
     7
100
AcDbLine
 10
-4475.648904868779
 20
-1195.519228537047
 30
0.0
 11
-4475.648904868779
 21
-1191.519228537047
 31
0.0
  0
LINE
  5
DEBA
330
1F
100
AcDbEntity
  8
0
  6
CENTER
100
AcDbLine
 10
-5092.829253746161
 20
-1409.824210613642
 30
0.0
 11
-5032.829253746161
 21
-1409.824210613642
 31
0.0
  0
LINE
  5
DEBB
330
1F
100
AcDbEntity
  8
0
  6
CENTER
100
AcDbLine
 10
-4946.04890486878
 20
-1409.824210613642
 30
0.0
 11
-4427.648904868778
 21
-1409.824210613642
 31
0.0
  0
VIEWPORT
  5
834
330
3B5
100
AcDbEntity
 67
     1
  8
0
100
AcDbViewport
 10
0.0
 20
0.0
 30
0.0
 40
0.0
 41
0.0
 68
     1
 69
     1
 12
0.0
 22
0.0
 13
0.0
 23
0.0
 14
10.0
 24
10.0
 15
10.0
 25
10.0
 16
0.0
 26
0.0
 36
1.0
 17
0.0
 27
0.0
 37
0.0
 42
50.0
 43
0.0
 44
0.0
 45
0.0
 50
0.0
 51
0.0
 72
   100
 90
    32800
  1

281
     0
 71
     1
 74
     0
110
0.0
120
0.0
130
0.0
111
1.0
121
0.0
131
0.0
112
0.0
122
1.0
132
0.0
 79
     0
146
0.0
170
     0
 61
     5
348
D3C5
292
     1
282
     1
141
0.0
142
0.0
 63
   256
  0
VIEWPORT
  5
836
330
3B5
100
AcDbEntity
 67
     1
  8
0
100
AcDbViewport
 10
0.0
 20
0.0
 30
0.0
 40
0.0
 41
0.0
 68
     2
 69
     2
 12
574.3084900932647
 22
139.7819539138712
 13
0.0
 23
0.0
 14
10.0
 24
10.0
 15
10.0
 25
10.0
 16
0.0
 26
0.0
 36
1.0
 17
0.0
 27
0.0
 37
0.0
 42
50.0
 43
0.0
 44
0.0
 45
369.6066557606862
 50
0.0
 51
0.0
 72
   100
 90
    32832
  1

281
     0
 71
     1
 74
     0
110
0.0
120
0.0
130
0.0
111
1.0
121
0.0
131
0.0
112
0.0
122
1.0
132
0.0
 79
     0
146
0.0
170
     0
 61
     5
348
D3C5
292
     1
282
     1
141
0.0
142
0.0
 63
   256
  0
ENDSEC
  0
SECTION
  2
OBJECTS
  0
DICTIONARY
  5
C
330
0
100
AcDbDictionary
281
     1
  3
ACAD_CIP_PREVIOUS_PRODUCT_INFO
350
DE50
  3
ACAD_COLOR
350
DE44
  3
ACAD_DETAILVIEWSTYLE
350
D686
  3
ACAD_GROUP
350
D
  3
ACAD_IMAGE_VARS
350
CDC4
  3
ACAD_LAYOUT
350
1A
  3
ACAD_MATERIAL
350
D3D9
  3
ACAD_MLEADERSTYLE
350
D3DF
  3
ACAD_MLINESTYLE
350
17
  3
ACAD_PLOTSETTINGS
350
19
  3
ACAD_PLOTSTYLENAME
350
E
  3
ACAD_SCALELIST
350
CD9B
  3
ACAD_SECTIONVIEWSTYLE
350
D687
  3
ACAD_TABLESTYLE
350
D3DD
  3
ACAD_VISUALSTYLE
350
D3C0
  3
AcadDim
350
1431
  3
ACDB_RECOMPOSE_DATA
350
DFE5
  3
AcDbVariableDictionary
350
3A8
  3
APPDATA
350
CDC2
  0
SUN
  5
D3E1
330
CD81
100
AcDbSun
 90
        1
290
     0
 63
     7
421
 16777215
 40
1.0
291
     1
 91
  2455826
 92
 54000000
292
     0
 70
     2
 71
   256
280
     1
  0
DICTIONARY
  5
4FB
330
2
100
AcDbDictionary
280
     1
281
     1
  3
ACAD_LAYERSTATES
360
D533
  3
ACLYDICTIONARY
360
D668
  0
DICTIONARY
  5
DEBC
330
1F
100
AcDbDictionary
280
     1
281
     1
  3
ACAD_SORTENTS
360
DEBD
  0
XRECORD
  5
DE50
102
{ACAD_REACTORS
330
C
102
}
330
C
100
AcDbXrecord
280
     1
300
ACDLT
300
2019
300

  0
DICTIONARY
  5
DE44
102
{ACAD_REACTORS
330
C
102
}
330
C
100
AcDbDictionary
281
     1
  0
DICTIONARY
  5
D686
102
{ACAD_REACTORS
330
C
102
}
330
C
100
AcDbDictionary
281
     1
  3
Metric50
350
DE46
  0
DICTIONARY
  5
D
102
{ACAD_REACTORS
330
C
102
}
330
C
100
AcDbDictionary
281
     1
  3
*A1
350
D39C
  0
RASTERVARIABLES
  5
CDC4
102
{ACAD_REACTORS
330
C
102
}
330
C
100
AcDbRasterVariables
 90
        0
 70
     1
 71
     1
 72
     1
  0
DICTIONARY
  5
1A
102
{ACAD_REACTORS
330
C
102
}
330
C
100
AcDbDictionary
281
     1
  3
Model
350
22
  3
ﾚｲｱｳﾄ1
350
3B6
  0
DICTIONARY
  5
D3D9
102
{ACAD_REACTORS
330
C
102
}
330
C
100
AcDbDictionary
281
     1
  3
ByBlock
350
D3DB
  3
ByLayer
350
D3DA
  3
Global
350
D3DC
  0
DICTIONARY
  5
D3DF
102
{ACAD_REACTORS
330
C
102
}
330
C
100
AcDbDictionary
281
     1
  3
Standard
350
D3E0
  0
DICTIONARY
  5
17
102
{ACAD_REACTORS
330
C
102
}
330
C
100
AcDbDictionary
281
     1
  3
Standard
350
18
  0
DICTIONARY
  5
19
102
{ACAD_REACTORS
330
C
102
}
330
C
100
AcDbDictionary
281
     1
  0
ACDBDICTIONARYWDFLT
  5
E
102
{ACAD_REACTORS
330
C
102
}
330
C
100
AcDbDictionary
281
     1
  3
Normal
350
F
100
AcDbDictionaryWithDefault
340
F
  0
DICTIONARY
  5
CD9B
102
{ACAD_REACTORS
330
C
102
}
330
C
100
AcDbDictionary
281
     1
  3
A0
350
CD9C
  3
A1
350
CD9D
  3
A2
350
CD9E
  3
A3
350
CD9F
  3
A4
350
CDA0
  3
A5
350
CDA1
  3
A6
350
CDA2
  3
A7
350
CDA3
  3
A8
350
CDA4
  3
A9
350
CDA5
  3
B0
350
CDA6
  3
B1
350
CDA7
  3
B2
350
CDA8
  3
B3
350
CDA9
  3
B4
350
CDAA
  3
B5
350
CDAB
  3
B6
350
CDAC
  3
B7
350
CDAD
  3
B8
350
CDAE
  3
B9
350
CDAF
  3
C0
350
CDB0
  3
C1
350
CDB1
  3
C2
350
CDB2
  3
C3
350
CDB3
  3
C4
350
CDB4
  3
C5
350
CDB5
  3
C6
350
CDB6
  3
C7
350
CDB7
  3
C8
350
CDB8
  3
C9
350
CDB9
  3
D0
350
CDBA
  3
D1
350
CDBB
  3
D2
350
CDBC
  0
DICTIONARY
  5
D687
102
{ACAD_REACTORS
330
C
102
}
330
C
100
AcDbDictionary
281
     1
  3
Metric50
350
DE45
  0
DICTIONARY
  5
D3DD
102
{ACAD_REACTORS
330
C
102
}
330
C
100
AcDbDictionary
281
     1
  3
Standard
350
D3DE
  0
DICTIONARY
  5
D3C0
102
{ACAD_REACTORS
330
C
102
}
330
C
100
AcDbDictionary
281
     1
  3
2dWireframe
350
D3C5
  3
Basic
350
D3C8
  3
Brighten
350
D3CC
  3
ColorChange
350
D3D0
  3
Conceptual
350
D3CA
  3
Dim
350
D3CB
  3
EdgeColorOff
350
D3D3
  3
Facepattern
350
D3CF
  3
Flat
350
D3C1
  3
FlatWithEdges
350
D3C2
  3
Gouraud
350
D3C3
  3
GouraudWithEdges
350
D3C4
  3
Hidden
350
D3C7
  3
JitterOff
350
D3D1
  3
Linepattern
350
D3CE
  3
OverhangOff
350
D3D2
  3
Realistic
350
D3C9
  3
Shaded
350
D3D8
  3
Shaded with edges
350
D3D7
  3
Shades of Gray
350
D3D4
  3
Sketchy
350
D3D5
  3
Thicken
350
D3CD
  3
Wireframe
350
D3C6
  3
X-Ray
350
D3D6
  0
XRECORD
  5
1431
102
{ACAD_REACTORS
330
C
102
}
330
C
100
AcDbXrecord
280
     1
 90
   990106
  3

 60
     0
 61
     0
 62
     4
 63
     4
 64
     1
 65
     0
 66
     0
 67
     2
 68
     1
 69
     0
 70
     0
 71
     1
 72
     0
 40
0.0
170
     2
340
0
  0
XRECORD
  5
DFE5
102
{ACAD_REACTORS
330
C
102
}
330
C
100
AcDbXrecord
280
     1
 90
        1
330
D3DE
  0
DICTIONARY
  5
3A8
102
{ACAD_REACTORS
330
C
102
}
330
C
100
AcDbDictionary
281
     1
  3
CANNOSCALE
350
D682
  3
CMLEADERSTYLE
350
D684
  3
CTABLESTYLE
350
D683
  3
CVIEWDETAILSTYLE
350
DFE1
  3
CVIEWSECTIONSTYLE
350
DFE2
  3
DIMASSOC
350
3A9
  3
MSLTSCALE
350
D685
  3
PROJECTNAME
350
4FB5
  0
DICTIONARY
  5
CDC2
102
{ACAD_REACTORS
330
C
102
}
330
C
100
AcDbDictionary
281
     1
  0
DICTIONARY
  5
D533
102
{ACAD_REACTORS
330
4FB
102
}
330
4FB
100
AcDbDictionary
281
     1
1001
AcLayerTools
1000
22
1000
CD81
  0
DICTIONARY
  5
D668
102
{ACAD_REACTORS
330
4FB
102
}
330
4FB
100
AcDbDictionary
281
     1
  3
*A1
350
D669
1001
ACAD
1000
<All
  0
SORTENTSTABLE
  5
DEBD
102
{ACAD_REACTORS
330
DEBC
102
}
330
DEBC
100
AcDbSortentsTable
330
1F
  0
ACDBDETAILVIEWSTYLE
  5
DE46
102
{ACAD_REACTORS
330
D686
102
}
330
D686
100
AcDbModelDocViewStyle
 70
     0
  3
Metric50
290
     1
300
Metric50
 90
        0
100
AcDbDetailViewStyle
 70
     0
 71
     0
 90
        3
 71
     1
340
11
 62
   256
 40
5.0
340
0
 62
   256
 40
5.0
300

 40
0.0
280
     1
 71
     2
340
16
 90
       25
 62
   256
 71
     3
340
11
 62
   256
 40
5.0
 90
        0
 40
15.0
 90
        1
300
%<\AcVar ViewDetailId>% (%<\AcVar ViewScale \f "%sn">%)
 71
     4
340
16
 90
       25
 62
   256
340
16
 90
       25
 62
   256
280
     0
  0
GROUP
  5
D39C
102
{ACAD_REACTORS
330
D
102
}
330
D
100
AcDbGroup
300

 70
     1
 71
     1
340
D2AB
340
D2AC
340
D2AD
340
D2AE
340
D2AF
340
D2B0
340
D2B1
340
D2B2
340
D2B3
340
D2B4
340
D2B5
340
D2B6
340
D2B7
340
D2B8
340
D2B9
340
D2BA
340
D2BB
340
D2BC
340
D2BD
340
D2BE
340
D2BF
340
D2C0
340
D2C1
340
D2C2
340
D2C3
340
D2C4
340
D2C5
340
D2C6
340
D2C7
340
D2C8
340
D2C9
340
D2CA
340
D2CB
340
D2CC
340
D2CD
340
D2CE
340
D2CF
340
D2D0
340
D2D1
340
D2D2
340
D2D3
340
D2D4
340
D2D5
340
D2D6
340
D2D7
340
D2D8
340
D2D9
340
D2DA
340
D2DB
340
D2DC
340
D2DD
340
D2DE
340
D2DF
340
D2E0
340
D2E1
340
D2E2
340
D2E3
340
D2E4
340
D2E5
340
D2E6
340
D2E7
340
D2E8
340
D2E9
340
D2EA
340
D2EB
340
D2EC
340
D2ED
340
D2EE
340
D2EF
340
D2F0
340
D2F1
340
D2F2
340
D2F3
340
D2F4
340
D2F5
340
D2F6
340
D2F7
340
D2F8
340
D2F9
340
D2FA
340
D2FB
340
D2FC
340
D2FD
340
D2FE
340
D2FF
340
D300
340
D301
340
D302
340
D303
340
D304
340
D305
340
D306
340
D307
340
D308
340
D309
340
D30A
340
D30B
340
D30C
340
D30D
340
D30E
340
D30F
340
D310
340
D311
340
D312
340
D313
340
D314
340
D315
340
D316
340
D317
340
D318
340
D319
340
D31A
340
D31B
340
D31C
340
D31D
340
D31E
340
D31F
340
D320
340
D321
340
D322
340
D323
340
D324
340
D325
340
D326
340
D327
340
D328
340
D329
340
D32A
340
D32B
340
D32C
340
D32D
340
D32E
340
D32F
340
D330
340
D331
340
D332
340
D333
340
D334
340
D335
340
D336
340
D337
340
D338
340
D339
340
D33A
340
D33B
340
D33C
340
D33D
340
D33E
340
D33F
340
D340
340
D341
340
D342
340
D343
340
D344
340
D345
340
D346
340
D347
340
D348
340
D349
340
D34A
340
D34B
340
D34C
340
D34D
340
D34E
340
D34F
340
D350
340
D351
340
D352
340
D353
340
D354
340
D355
340
D356
340
D357
340
D358
340
D359
340
D35A
340
D35B
340
D35C
340
D35D
340
D35E
340
D35F
340
D360
340
D361
340
D362
340
D363
340
D364
340
D365
340
D366
340
D367
340
D368
340
D369
340
D36A
340
D36B
340
D36C
340
D36D
340
D36E
340
D36F
340
D370
340
D371
340
D372
340
D373
340
D374
340
D375
340
D376
340
D377
340
D378
340
D379
340
D37A
340
D37B
340
D37C
340
D37D
340
D37E
340
D37F
340
D380
340
D381
340
D382
340
D383
340
D384
340
D385
340
D386
340
D387
340
D388
340
D389
340
D38A
340
D38B
340
D38C
340
D38D
340
D38E
340
D38F
340
D390
340
D391
340
D392
340
D393
340
D394
340
D395
340
D396
340
D397
340
D398
340
D399
340
D39A
  0
LAYOUT
  5
22
102
{ACAD_REACTORS
330
1A
102
}
330
1A
100
AcDbPlotSettings
  1

  2
DocuCentre-IV C2270
  4
A4
  6

 40
4.900083
 41
4.900057
 42
4.900085
 43
4.900085
 44
210.015671
 45
297.010651
 46
0.0
 47
0.0
 48
-13.143981
 49
-6.580488
140
196.856019
141
290.419512
142
1.0
143
7.541561048709529
 70
 11952
 72
     1
 73
     1
 74
     1
  7

 75
     0
 76
     0
 77
     2
 78
   300
147
0.132598542071222
148
5984.526486057026
149
2211.486186476896
100
AcDbLayout
  1
Model
 70
     1
 71
     0
 10
0.0
 20
0.0
 11
12.0
 21
9.0
 12
0.0
 22
0.0
 32
0.0
 14
-5413.132795641723
 24
-1798.404052284193
 34
0.0
 15
-4165.931515641724
 25
-938.9659722841923
 35
0.0
146
0.0
 13
0.0
 23
0.0
 33
0.0
 16
1.0
 26
0.0
 36
0.0
 17
0.0
 27
1.0
 37
0.0
 76
     0
330
1F
331
CD81
  0
LAYOUT
  5
3B6
102
{ACAD_REACTORS
330
1A
102
}
330
1A
100
AcDbPlotSettings
  1

  2
\\Ns-server\EPSON LP-8600FX
  4

  6

 40
0.0
 41
0.0
 42
0.0
 43
0.0
 44
0.0
 45
0.0
 46
0.0
 47
0.0
 48
0.0
 49
0.0
140
0.0
141
0.0
142
1.0
143
1.0
 70
   688
 72
     0
 73
     1
 74
     1
  7

 75
     0
 76
     0
 77
     2
 78
   300
147
1.0
148
0.0
149
0.0
100
AcDbLayout
  1
ﾚｲｱｳﾄ1
 70
     1
 71
     1
 10
0.0
 20
0.0
 11
0.0
 21
0.0
 12
0.0
 22
0.0
 32
0.0
 14
0.0
 24
0.0
 34
0.0
 15
0.0
 25
0.0
 35
0.0
146
0.0
 13
0.0
 23
0.0
 33
0.0
 16
1.0
 26
0.0
 36
0.0
 17
0.0
 27
1.0
 37
0.0
 76
     0
330
3B5
331
834
  0
MATERIAL
  5
D3DB
102
{ACAD_REACTORS
330
D3D9
102
}
330
D3D9
100
AcDbMaterial
  1
ByBlock
 72
     1
 94
      127
  0
MATERIAL
  5
D3DA
102
{ACAD_REACTORS
330
D3D9
102
}
330
D3D9
100
AcDbMaterial
  1
ByLayer
 72
     1
 94
      127
  0
MATERIAL
  5
D3DC
102
{ACAD_REACTORS
330
D3D9
102
}
102
{ACAD_XDICTIONARY
360
DEFF
102
}
330
D3D9
100
AcDbMaterial
  1
Global
 72
     1
 94
      127
  0
MLEADERSTYLE
  5
D3E0
102
{ACAD_REACTORS
330
D3DF
102
}
330
D3DF
100
AcDbMLeaderStyle
179
     2
170
     2
171
     1
172
     0
 90
        2
 40
0.0
 41
0.0
173
     1
 91
-1056964608
340
14
 92
       -2
290
     1
 42
2.0
291
     1
 43
8.0
  3
Standard
341
0
 44
4.0
300

342
11
174
     1
178
     6
175
     1
176
     0
 93
-1056964608
 45
4.0
292
     0
297
     0
 46
4.0
343
0
 94
-1056964608
 47
1.0
 49
1.0
140
1.0
293
     1
141
0.0
294
     1
177
     0
142
1.0
295
     0
296
     0
143
3.75
271
     0
272
     9
273
     9
298
     0
  0
MLINESTYLE
  5
18
102
{ACAD_REACTORS
330
17
102
}
330
17
100
AcDbMlineStyle
  2
STANDARD
 70
     0
  3

 62
   256
 51
90.0
 52
90.0
 71
     2
 49
0.5
 62
   256
  6
BYLAYER
 49
-0.5
 62
   256
  6
BYLAYER
  0
ACDBPLACEHOLDER
  5
F
102
{ACAD_REACTORS
330
E
102
}
330
E
  0
SCALE
  5
CD9C
102
{ACAD_REACTORS
330
CD9B
102
}
330
CD9B
100
AcDbScale
 70
     0
300
1:1
140
1.0
141
1.0
290
     1
  0
SCALE
  5
CD9D
102
{ACAD_REACTORS
330
CD9B
102
}
330
CD9B
100
AcDbScale
 70
     0
300
1:2
140
1.0
141
2.0
290
     0
  0
SCALE
  5
CD9E
102
{ACAD_REACTORS
330
CD9B
102
}
330
CD9B
100
AcDbScale
 70
     0
300
1:4
140
1.0
141
4.0
290
     0
  0
SCALE
  5
CD9F
102
{ACAD_REACTORS
330
CD9B
102
}
330
CD9B
100
AcDbScale
 70
     0
300
1:5
140
1.0
141
5.0
290
     0
  0
SCALE
  5
CDA0
102
{ACAD_REACTORS
330
CD9B
102
}
330
CD9B
100
AcDbScale
 70
     0
300
1:8
140
1.0
141
8.0
290
     0
  0
SCALE
  5
CDA1
102
{ACAD_REACTORS
330
CD9B
102
}
330
CD9B
100
AcDbScale
 70
     0
300
1:10
140
1.0
141
10.0
290
     0
  0
SCALE
  5
CDA2
102
{ACAD_REACTORS
330
CD9B
102
}
330
CD9B
100
AcDbScale
 70
     0
300
1:16
140
1.0
141
16.0
290
     0
  0
SCALE
  5
CDA3
102
{ACAD_REACTORS
330
CD9B
102
}
330
CD9B
100
AcDbScale
 70
     0
300
1:20
140
1.0
141
20.0
290
     0
  0
SCALE
  5
CDA4
102
{ACAD_REACTORS
330
CD9B
102
}
330
CD9B
100
AcDbScale
 70
     0
300
1:30
140
1.0
141
30.0
290
     0
  0
SCALE
  5
CDA5
102
{ACAD_REACTORS
330
CD9B
102
}
330
CD9B
100
AcDbScale
 70
     0
300
1:40
140
1.0
141
40.0
290
     0
  0
SCALE
  5
CDA6
102
{ACAD_REACTORS
330
CD9B
102
}
330
CD9B
100
AcDbScale
 70
     0
300
1:50
140
1.0
141
50.0
290
     0
  0
SCALE
  5
CDA7
102
{ACAD_REACTORS
330
CD9B
102
}
330
CD9B
100
AcDbScale
 70
     0
300
1:100
140
1.0
141
100.0
290
     0
  0
SCALE
  5
CDA8
102
{ACAD_REACTORS
330
CD9B
102
}
330
CD9B
100
AcDbScale
 70
     0
300
2:1
140
2.0
141
1.0
290
     0
  0
SCALE
  5
CDA9
102
{ACAD_REACTORS
330
CD9B
102
}
330
CD9B
100
AcDbScale
 70
     0
300
4:1
140
4.0
141
1.0
290
     0
  0
SCALE
  5
CDAA
102
{ACAD_REACTORS
330
CD9B
102
}
330
CD9B
100
AcDbScale
 70
     0
300
8:1
140
8.0
141
1.0
290
     0
  0
SCALE
  5
CDAB
102
{ACAD_REACTORS
330
CD9B
102
}
330
CD9B
100
AcDbScale
 70
     0
300
10:1
140
10.0
141
1.0
290
     0
  0
SCALE
  5
CDAC
102
{ACAD_REACTORS
330
CD9B
102
}
330
CD9B
100
AcDbScale
 70
     0
300
100:1
140
100.0
141
1.0
290
     0
  0
SCALE
  5
CDAD
102
{ACAD_REACTORS
330
CD9B
102
}
330
CD9B
100
AcDbScale
 70
     0
300
1/128" = 1'-0"
140
0.0078125
141
12.0
290
     0
  0
SCALE
  5
CDAE
102
{ACAD_REACTORS
330
CD9B
102
}
330
CD9B
100
AcDbScale
 70
     0
300
1/64" = 1'-0"
140
0.015625
141
12.0
290
     0
  0
SCALE
  5
CDAF
102
{ACAD_REACTORS
330
CD9B
102
}
330
CD9B
100
AcDbScale
 70
     0
300
1/32" = 1'-0"
140
0.03125
141
12.0
290
     0
  0
SCALE
  5
CDB0
102
{ACAD_REACTORS
330
CD9B
102
}
330
CD9B
100
AcDbScale
 70
     0
300
1/16" = 1'-0"
140
0.0625
141
12.0
290
     0
  0
SCALE
  5
CDB1
102
{ACAD_REACTORS
330
CD9B
102
}
330
CD9B
100
AcDbScale
 70
     0
300
3/32" = 1'-0"
140
0.09375
141
12.0
290
     0
  0
SCALE
  5
CDB2
102
{ACAD_REACTORS
330
CD9B
102
}
330
CD9B
100
AcDbScale
 70
     0
300
1/8" = 1'-0"
140
0.125
141
12.0
290
     0
  0
SCALE
  5
CDB3
102
{ACAD_REACTORS
330
CD9B
102
}
330
CD9B
100
AcDbScale
 70
     0
300
3/16" = 1'-0"
140
0.1875
141
12.0
290
     0
  0
SCALE
  5
CDB4
102
{ACAD_REACTORS
330
CD9B
102
}
330
CD9B
100
AcDbScale
 70
     0
300
1/4" = 1'-0"
140
0.25
141
12.0
290
     0
  0
SCALE
  5
CDB5
102
{ACAD_REACTORS
330
CD9B
102
}
330
CD9B
100
AcDbScale
 70
     0
300
3/8" = 1'-0"
140
0.375
141
12.0
290
     0
  0
SCALE
  5
CDB6
102
{ACAD_REACTORS
330
CD9B
102
}
330
CD9B
100
AcDbScale
 70
     0
300
1/2" = 1'-0"
140
0.5
141
12.0
290
     0
  0
SCALE
  5
CDB7
102
{ACAD_REACTORS
330
CD9B
102
}
330
CD9B
100
AcDbScale
 70
     0
300
3/4" = 1'-0"
140
0.75
141
12.0
290
     0
  0
SCALE
  5
CDB8
102
{ACAD_REACTORS
330
CD9B
102
}
330
CD9B
100
AcDbScale
 70
     0
300
1" = 1'-0"
140
1.0
141
12.0
290
     0
  0
SCALE
  5
CDB9
102
{ACAD_REACTORS
330
CD9B
102
}
330
CD9B
100
AcDbScale
 70
     0
300
1-1/2" = 1'-0"
140
1.5
141
12.0
290
     0
  0
SCALE
  5
CDBA
102
{ACAD_REACTORS
330
CD9B
102
}
330
CD9B
100
AcDbScale
 70
     0
300
3" = 1'-0"
140
3.0
141
12.0
290
     0
  0
SCALE
  5
CDBB
102
{ACAD_REACTORS
330
CD9B
102
}
330
CD9B
100
AcDbScale
 70
     0
300
6" = 1'-0"
140
6.0
141
12.0
290
     0
  0
SCALE
  5
CDBC
102
{ACAD_REACTORS
330
CD9B
102
}
330
CD9B
100
AcDbScale
 70
     0
300
1'-0" = 1'-0"
140
12.0
141
12.0
290
     0
  0
ACDBSECTIONVIEWSTYLE
  5
DE45
102
{ACAD_REACTORS
330
D687
102
}
330
D687
100
AcDbModelDocViewStyle
 70
     0
  3
Metric50
290
     1
300
Metric50
 90
        0
100
AcDbSectionViewStyle
 70
     0
 71
     0
 90
      102
 71
     1
340
11
 62
   256
 40
5.0
340
0
340
0
 62
   256
 40
5.0
300
I, O, Q, S, X, Z
 40
10.0
 90
        0
 40
2.5
 90
        0
 71
     2
340
16
 90
       25
 62
   256
340
16
 90
       50
 62
   256
 40
5.0
 40
2.5
 40
5.0
 71
     3
340
11
 62
   256
 40
5.0
 90
        0
 40
15.0
 90
        1
300
%<\AcVar ViewSectionStartId>%-%<\AcVar ViewSectionEndId>% (%<\AcVar ViewScale \f "%sn">%)
 71
     4
 62
   256
 62
   257
300
ANSI31
 40
1.0
 90
        0
290
     0
290
     0
 90
        6
 40
0.0
 40
1.570796326794897
 40
0.2617993877991494
 40
1.308996938995747
 40
-0.2617993877991494
 40
1.832595714594046
  0
TABLESTYLE
  5
D3DE
102
{ACAD_REACTORS
330
D3DD
102
}
102
{ACAD_XDICTIONARY
360
DFE3
102
}
330
D3DD
100
AcDbTableStyle
  3
Standard
 70
     0
 71
     0
 40
1.5
 41
1.5
280
     0
281
     0
  7
Standard
140
4.5
170
     2
 62
     0
 63
   257
283
     0
 90
        4
 91
        0
  1

274
    -2
284
     1
 64
     0
275
    -2
285
     1
 65
     0
276
    -2
286
     1
 66
     0
277
    -2
287
     1
 67
     0
278
    -2
288
     1
 68
     0
279
    -2
289
     1
 69
     0
  7
Standard
140
6.0
170
     5
 62
     0
 63
   257
283
     0
 90
        4
 91
        0
  1

274
    -2
284
     1
 64
     0
275
    -2
285
     1
 65
     0
276
    -2
286
     1
 66
     0
277
    -2
287
     1
 67
     0
278
    -2
288
     1
 68
     0
279
    -2
289
     1
 69
     0
  7
Standard
140
4.5
170
     5
 62
     0
 63
   257
283
     0
 90
        4
 91
        0
  1

274
    -2
284
     1
 64
     0
275
    -2
285
     1
 65
     0
276
    -2
286
     1
 66
     0
277
    -2
287
     1
 67
     0
278
    -2
288
     1
 68
     0
279
    -2
289
     1
 69
     0
  0
VISUALSTYLE
  5
D3C5
102
{ACAD_REACTORS
330
D3C0
102
}
330
D3C0
100
AcDbVisualStyle
  2
2dWireframe
 70
     4
177
     3
291
     0
 70
    58
 90
        0
176
     1
 90
        2
176
     1
 90
        0
176
     1
 90
        0
176
     1
 40
0.6
176
     1
 40
30.0
176
     1
 62
     7
420
 16777215
176
     1
 90
        1
176
     1
 90
        4
176
     1
 62
     7
176
     1
 62
   257
176
     1
 90
        1
176
     1
 90
        1
176
     1
 40
1.0
176
     1
 90
        0
176
     1
 62
   257
176
     1
 40
1.0
176
     1
 90
        1
176
     1
 90
        6
176
     1
 90
        2
176
     1
 62
     7
176
     1
 90
        5
176
     1
 90
        0
176
     1
 90
        0
176
     1
290
     0
176
     1
 90
        1
176
     1
 40
0.0
176
     1
 90
        0
176
     1
290
     1
176
     1
290
     1
176
     1
290
     0
176
     1
290
     0
176
     1
290
     0
176
     1
290
     0
176
     1
290
     0
176
     1
290
     0
176
     1
290
     0
176
     1
 90
       50
176
     1
 40
0.0
176
     1
 40
1.0
176
     1
 90
        0
176
     1
 62
    18
420
        0
176
     1
 90
       50
176
     1
 90
        3
176
     1
 62
     5
420
      255
176
     1
290
     0
176
     1
 90
       50
176
     1
 90
       50
176
     1
 90
       50
176
     1
290
     0
176
     1
 90
       50
176
     1
 62
   256
176
     0
 40
1.0
176
     0
 90
        2
176
     1
  1
strokes_ogs.tif
176
     1
290
     0
176
     1
 40
1.0
176
     1
 40
1.0
176
     1
  0
VISUALSTYLE
  5
D3C8
102
{ACAD_REACTORS
330
D3C0
102
}
330
D3C0
100
AcDbVisualStyle
  2
Basic
 70
     7
177
     3
291
     1
 70
    58
 90
        1
176
     1
 90
        0
176
     1
 90
        1
176
     1
 90
        0
176
     1
 40
0.6
176
     1
 40
30.0
176
     1
 62
     7
420
 16777215
176
     1
 90
        0
176
     1
 90
        4
176
     1
 62
     7
176
     1
 62
   257
176
     1
 90
        1
176
     1
 90
        1
176
     1
 40
1.0
176
     1
 90
        8
176
     1
 62
     7
176
     1
 40
1.0
176
     1
 90
        1
176
     1
 90
        6
176
     1
 90
        2
176
     1
 62
     7
176
     1
 90
        5
176
     1
 90
        0
176
     1
 90
        0
176
     1
290
     0
176
     1
 90
        1
176
     1
 40
0.0
176
     1
 90
        0
176
     1
290
     0
176
     1
290
     1
176
     1
290
     1
176
     1
290
     0
176
     1
290
     0
176
     1
290
     0
176
     1
290
     0
176
     1
290
     0
176
     1
290
     0
176
     1
 90
       50
176
     1
 40
0.0
176
     1
 40
1.0
176
     1
 90
        0
176
     1
 62
    18
420
        0
176
     1
 90
       50
176
     1
 90
        3
176
     1
 62
     5
420
      255
176
     1
290
     0
176
     1
 90
       50
176
     1
 90
       50
176
     1
 90
       50
176
     1
290
     0
176
     1
 90
       50
176
     1
 62
   256
176
     0
 40
1.0
176
     0
 90
        2
176
     1
  1
strokes_ogs.tif
176
     1
290
     0
176
     1
 40
1.0
176
     1
 40
1.0
176
     1
  0
VISUALSTYLE
  5
D3CC
102
{ACAD_REACTORS
330
D3C0
102
}
330
D3C0
100
AcDbVisualStyle
  2
Brighten
 70
    12
177
     3
291
     1
 70
    58
 90
        2
176
     1
 90
        2
176
     1
 90
        0
176
     1
 90
        0
176
     1
 40
0.6
176
     1
 40
30.0
176
     1
 62
     7
420
 16777215
176
     1
 90
        1
176
     1
 90
        4
176
     1
 62
     7
176
     1
 62
   257
176
     1
 90
        1
176
     1
 90
        1
176
     1
 40
1.0
176
     1
 90
        8
176
     1
 62
     7
176
     1
 40
1.0
176
     1
 90
        1
176
     1
 90
        6
176
     1
 90
        2
176
     1
 62
     7
176
     1
 90
        5
176
     1
 90
        0
176
     1
 90
        0
176
     1
290
     0
176
     1
 90
        1
176
     1
 40
50.0
176
     1
 90
        0
176
     1
290
     0
176
     1
290
     1
176
     1
290
     1
176
     1
290
     0
176
     1
290
     0
176
     1
290
     0
176
     1
290
     0
176
     1
290
     0
176
     1
290
     0
176
     1
 90
       50
176
     1
 40
0.0
176
     1
 40
1.0
176
     1
 90
        0
176
     1
 62
    18
420
        0
176
     1
 90
       50
176
     1
 90
        3
176
     1
 62
     5
420
      255
176
     1
290
     0
176
     1
 90
       50
176
     1
 90
       50
176
     1
 90
       50
176
     1
290
     0
176
     1
 90
       50
176
     1
 62
   256
176
     0
 40
1.0
176
     0
 90
        2
176
     1
  1
strokes_ogs.tif
176
     1
290
     0
176
     1
 40
1.0
176
     1
 40
1.0
176
     1
  0
VISUALSTYLE
  5
D3D0
102
{ACAD_REACTORS
330
D3C0
102
}
330
D3C0
100
AcDbVisualStyle
  2
ColorChange
 70
    16
177
     3
291
     1
 70
    58
 90
        2
176
     1
 90
        2
176
     1
 90
        3
176
     1
 90
        0
176
     1
 40
0.6
176
     1
 40
30.0
176
     1
 62
     8
420
  8421504
176
     1
 90
        1
176
     1
 90
        4
176
     1
 62
     7
176
     1
 62
   257
176
     1
 90
        1
176
     1
 90
        1
176
     1
 40
1.0
176
     1
 90
        8
176
     1
 62
     8
420
  8421504
176
     1
 40
1.0
176
     1
 90
        1
176
     1
 90
        6
176
     1
 90
        2
176
     1
 62
     7
176
     1
 90
        5
176
     1
 90
        0
176
     1
 90
        0
176
     1
290
     0
176
     1
 90
        1
176
     1
 40
0.0
176
     1
 90
        0
176
     1
290
     0
176
     1
290
     1
176
     1
290
     1
176
     1
290
     0
176
     1
290
     0
176
     1
290
     0
176
     1
290
     0
176
     1
290
     0
176
     1
290
     0
176
     1
 90
       50
176
     1
 40
0.0
176
     1
 40
1.0
176
     1
 90
        0
176
     1
 62
    18
420
        0
176
     1
 90
       50
176
     1
 90
        3
176
     1
 62
     5
420
      255
176
     1
290
     0
176
     1
 90
       50
176
     1
 90
       50
176
     1
 90
       50
176
     1
290
     0
176
     1
 90
       50
176
     1
 62
   256
176
     0
 40
1.0
176
     0
 90
        2
176
     1
  1
strokes_ogs.tif
176
     1
290
     0
176
     1
 40
1.0
176
     1
 40
1.0
176
     1
  0
VISUALSTYLE
  5
D3CA
102
{ACAD_REACTORS
330
D3C0
102
}
330
D3C0
100
AcDbVisualStyle
  2
Conceptual
 70
     9
177
     3
291
     0
 70
    58
 90
        3
176
     1
 90
        2
176
     1
 90
        0
176
     1
 90
        0
176
     1
 40
0.6
176
     1
 40
30.0
176
     1
 62
     7
420
 16777215
176
     1
 90
        2
176
     1
 90
        2
176
     1
 62
     7
176
     1
 62
   257
176
     1
 90
        1
176
     1
 90
        1
176
     1
 40
179.0
176
     1
 90
        8
176
     1
 62
     7
176
     1
 40
1.0
176
     1
 90
        1
176
     1
 90
        6
176
     1
 90
        2
176
     1
 62
     7
176
     1
 90
        3
176
     1
 90
        0
176
     1
 90
        0
176
     1
290
     0
176
     1
 90
        1
176
     1
 40
0.0
176
     1
 90
        0
176
     1
290
     0
176
     1
290
     1
176
     1
290
     1
176
     1
290
     0
176
     1
290
     0
176
     1
290
     0
176
     1
290
     0
176
     1
290
     0
176
     1
290
     0
176
     1
 90
       50
176
     1
 40
0.0
176
     1
 40
1.0
176
     1
 90
        0
176
     1
 62
    18
420
        0
176
     1
 90
       50
176
     1
 90
        3
176
     1
 62
     5
420
      255
176
     1
290
     0
176
     1
 90
       50
176
     1
 90
       50
176
     1
 90
       50
176
     1
290
     0
176
     1
 90
       50
176
     1
 62
   256
176
     0
 40
1.0
176
     0
 90
        2
176
     1
  1
strokes_ogs.tif
176
     1
290
     0
176
     1
 40
1.0
176
     1
 40
1.0
176
     1
  0
VISUALSTYLE
  5
D3CB
102
{ACAD_REACTORS
330
D3C0
102
}
330
D3C0
100
AcDbVisualStyle
  2
Dim
 70
    11
177
     3
291
     1
 70
    58
 90
        2
176
     1
 90
        2
176
     1
 90
        0
176
     1
 90
        0
176
     1
 40
0.6
176
     1
 40
30.0
176
     1
 62
     7
420
 16777215
176
     1
 90
        1
176
     1
 90
        4
176
     1
 62
     7
176
     1
 62
   257
176
     1
 90
        1
176
     1
 90
        1
176
     1
 40
1.0
176
     1
 90
        8
176
     1
 62
     7
176
     1
 40
1.0
176
     1
 90
        1
176
     1
 90
        6
176
     1
 90
        2
176
     1
 62
     7
176
     1
 90
        5
176
     1
 90
        0
176
     1
 90
        0
176
     1
290
     0
176
     1
 90
        1
176
     1
 40
-50.0
176
     1
 90
        0
176
     1
290
     0
176
     1
290
     1
176
     1
290
     1
176
     1
290
     0
176
     1
290
     0
176
     1
290
     0
176
     1
290
     0
176
     1
290
     0
176
     1
290
     0
176
     1
 90
       50
176
     1
 40
0.0
176
     1
 40
1.0
176
     1
 90
        0
176
     1
 62
    18
420
        0
176
     1
 90
       50
176
     1
 90
        3
176
     1
 62
     5
420
      255
176
     1
290
     0
176
     1
 90
       50
176
     1
 90
       50
176
     1
 90
       50
176
     1
290
     0
176
     1
 90
       50
176
     1
 62
   256
176
     0
 40
1.0
176
     0
 90
        2
176
     1
  1
strokes_ogs.tif
176
     1
290
     0
176
     1
 40
1.0
176
     1
 40
1.0
176
     1
  0
VISUALSTYLE
  5
D3D3
102
{ACAD_REACTORS
330
D3C0
102
}
330
D3C0
100
AcDbVisualStyle
  2
EdgeColorOff
 70
    22
177
     3
291
     1
 70
    58
 90
        2
176
     0
 90
        2
176
     0
 90
        0
176
     0
 90
        0
176
     0
 40
0.6
176
     0
 40
30.0
176
     0
 62
     7
420
 16777215
176
     0
 90
        1
176
     0
 90
        4
176
     0
 62
     7
176
     0
 62
   257
176
     0
 90
        1
176
     0
 90
        1
176
     0
 40
1.0
176
     0
 90
        8
176
     2
 62
     7
176
     0
 40
1.0
176
     0
 90
        1
176
     0
 90
        6
176
     0
 90
        2
176
     0
 62
     7
176
     0
 90
        5
176
     0
 90
        0
176
     0
 90
        0
176
     0
290
     0
176
     0
 90
        1
176
     0
 40
0.0
176
     0
 90
        0
176
     0
290
     0
176
     0
290
     1
176
     0
290
     1
176
     0
290
     0
176
     0
290
     0
176
     0
290
     0
176
     0
290
     0
176
     0
290
     0
176
     0
290
     0
176
     0
 90
       50
176
     0
 40
0.0
176
     0
 40
1.0
176
     0
 90
        0
176
     0
 62
    18
420
        0
176
     0
 90
       50
176
     0
 90
        3
176
     0
 62
     5
420
      255
176
     0
290
     0
176
     0
 90
       50
176
     0
 90
       50
176
     0
 90
       50
176
     0
290
     0
176
     0
 90
       50
176
     0
 62
   256
176
     0
 40
1.0
176
     0
 90
        2
176
     0
  1
strokes_ogs.tif
176
     0
290
     0
176
     0
 40
1.0
176
     0
 40
1.0
176
     0
  0
VISUALSTYLE
  5
D3CF
102
{ACAD_REACTORS
330
D3C0
102
}
330
D3C0
100
AcDbVisualStyle
  2
Facepattern
 70
    15
177
     3
291
     1
 70
    58
 90
        2
176
     1
 90
        2
176
     1
 90
        0
176
     1
 90
        0
176
     1
 40
0.6
176
     1
 40
30.0
176
     1
 62
     7
420
 16777215
176
     1
 90
        1
176
     1
 90
        4
176
     1
 62
     7
176
     1
 62
   257
176
     1
 90
        1
176
     1
 90
        1
176
     1
 40
1.0
176
     1
 90
        8
176
     1
 62
     7
176
     1
 40
1.0
176
     1
 90
        1
176
     1
 90
        6
176
     1
 90
        2
176
     1
 62
     7
176
     1
 90
        5
176
     1
 90
        0
176
     1
 90
        0
176
     1
290
     0
176
     1
 90
        1
176
     1
 40
0.0
176
     1
 90
        0
176
     1
290
     0
176
     1
290
     1
176
     1
290
     1
176
     1
290
     0
176
     1
290
     0
176
     1
290
     0
176
     1
290
     0
176
     1
290
     0
176
     1
290
     0
176
     1
 90
       50
176
     1
 40
0.0
176
     1
 40
1.0
176
     1
 90
        0
176
     1
 62
    18
420
        0
176
     1
 90
       50
176
     1
 90
        3
176
     1
 62
     5
420
      255
176
     1
290
     0
176
     1
 90
       50
176
     1
 90
       50
176
     1
 90
       50
176
     1
290
     0
176
     1
 90
       50
176
     1
 62
   256
176
     0
 40
1.0
176
     0
 90
        2
176
     1
  1
strokes_ogs.tif
176
     1
290
     0
176
     1
 40
1.0
176
     1
 40
1.0
176
     1
  0
VISUALSTYLE
  5
D3C1
102
{ACAD_REACTORS
330
D3C0
102
}
330
D3C0
100
AcDbVisualStyle
  2
Flat
 70
     0
177
     3
291
     1
 70
    58
 90
        2
176
     1
 90
        1
176
     1
 90
        1
176
     1
 90
        2
176
     1
 40
0.6
176
     1
 40
30.0
176
     1
 62
     7
420
 16777215
176
     1
 90
        0
176
     1
 90
        0
176
     1
 62
     7
176
     1
 62
   257
176
     1
 90
        1
176
     1
 90
        1
176
     1
 40
1.0
176
     1
 90
        8
176
     1
 62
     7
176
     1
 40
1.0
176
     1
 90
        1
176
     1
 90
        6
176
     1
 90
        2
176
     1
 62
     7
176
     1
 90
        5
176
     1
 90
        0
176
     1
 90
        0
176
     1
290
     0
176
     1
 90
       13
176
     1
 40
0.0
176
     1
 90
        0
176
     1
290
     0
176
     1
290
     1
176
     1
290
     1
176
     1
290
     0
176
     1
290
     0
176
     1
290
     0
176
     1
290
     0
176
     1
290
     0
176
     1
290
     0
176
     1
 90
       50
176
     1
 40
0.0
176
     1
 40
1.0
176
     1
 90
        0
176
     1
 62
    18
420
        0
176
     1
 90
       50
176
     1
 90
        3
176
     1
 62
     5
420
      255
176
     1
290
     0
176
     1
 90
       50
176
     1
 90
       50
176
     1
 90
       50
176
     1
290
     0
176
     1
 90
       50
176
     1
 62
   256
176
     0
 40
1.0
176
     0
 90
        2
176
     1
  1
strokes_ogs.tif
176
     1
290
     0
176
     1
 40
1.0
176
     1
 40
1.0
176
     1
  0
VISUALSTYLE
  5
D3C2
102
{ACAD_REACTORS
330
D3C0
102
}
330
D3C0
100
AcDbVisualStyle
  2
FlatWithEdges
 70
     1
177
     3
291
     1
 70
    58
 90
        2
176
     1
 90
        1
176
     1
 90
        1
176
     1
 90
        2
176
     1
 40
0.6
176
     1
 40
30.0
176
     1
 62
     7
420
 16777215
176
     1
 90
        1
176
     1
 90
        0
176
     1
 62
     7
176
     1
 62
   257
176
     1
 90
        1
176
     1
 90
        1
176
     1
 40
1.0
176
     1
 90
        0
176
     1
 62
   257
176
     1
 40
1.0
176
     1
 90
        1
176
     1
 90
        6
176
     1
 90
        2
176
     1
 62
     7
176
     1
 90
        5
176
     1
 90
        0
176
     1
 90
        0
176
     1
290
     0
176
     1
 90
       13
176
     1
 40
0.0
176
     1
 90
        0
176
     1
290
     0
176
     1
290
     1
176
     1
290
     1
176
     1
290
     0
176
     1
290
     0
176
     1
290
     0
176
     1
290
     0
176
     1
290
     0
176
     1
290
     0
176
     1
 90
       50
176
     1
 40
0.0
176
     1
 40
1.0
176
     1
 90
        0
176
     1
 62
    18
420
        0
176
     1
 90
       50
176
     1
 90
        3
176
     1
 62
     5
420
      255
176
     1
290
     0
176
     1
 90
       50
176
     1
 90
       50
176
     1
 90
       50
176
     1
290
     0
176
     1
 90
       50
176
     1
 62
   256
176
     0
 40
1.0
176
     0
 90
        2
176
     1
  1
strokes_ogs.tif
176
     1
290
     0
176
     1
 40
1.0
176
     1
 40
1.0
176
     1
  0
VISUALSTYLE
  5
D3C3
102
{ACAD_REACTORS
330
D3C0
102
}
330
D3C0
100
AcDbVisualStyle
  2
Gouraud
 70
     2
177
     3
291
     1
 70
    58
 90
        2
176
     1
 90
        2
176
     1
 90
        1
176
     1
 90
        2
176
     1
 40
0.6
176
     1
 40
30.0
176
     1
 62
     7
420
 16777215
176
     1
 90
        0
176
     1
 90
        0
176
     1
 62
     7
176
     1
 62
   257
176
     1
 90
        1
176
     1
 90
        1
176
     1
 40
1.0
176
     1
 90
        0
176
     1
 62
     7
176
     1
 40
1.0
176
     1
 90
        1
176
     1
 90
        6
176
     1
 90
        2
176
     1
 62
     7
176
     1
 90
        5
176
     1
 90
        0
176
     1
 90
        0
176
     1
290
     0
176
     1
 90
       13
176
     1
 40
0.0
176
     1
 90
        0
176
     1
290
     0
176
     1
290
     1
176
     1
290
     1
176
     1
290
     0
176
     1
290
     0
176
     1
290
     0
176
     1
290
     0
176
     1
290
     0
176
     1
290
     0
176
     1
 90
       50
176
     1
 40
0.0
176
     1
 40
1.0
176
     1
 90
        0
176
     1
 62
    18
420
        0
176
     1
 90
       50
176
     1
 90
        3
176
     1
 62
     5
420
      255
176
     1
290
     0
176
     1
 90
       50
176
     1
 90
       50
176
     1
 90
       50
176
     1
290
     0
176
     1
 90
       50
176
     1
 62
   256
176
     0
 40
1.0
176
     0
 90
        2
176
     1
  1
strokes_ogs.tif
176
     1
290
     0
176
     1
 40
1.0
176
     1
 40
1.0
176
     1
  0
VISUALSTYLE
  5
D3C4
102
{ACAD_REACTORS
330
D3C0
102
}
330
D3C0
100
AcDbVisualStyle
  2
GouraudWithEdges
 70
     3
177
     3
291
     1
 70
    58
 90
        2
176
     1
 90
        2
176
     1
 90
        1
176
     1
 90
        2
176
     1
 40
0.6
176
     1
 40
30.0
176
     1
 62
     7
420
 16777215
176
     1
 90
        1
176
     1
 90
        0
176
     1
 62
     7
176
     1
 62
   257
176
     1
 90
        1
176
     1
 90
        1
176
     1
 40
1.0
176
     1
 90
        0
176
     1
 62
   257
176
     1
 40
1.0
176
     1
 90
        1
176
     1
 90
        6
176
     1
 90
        2
176
     1
 62
     7
176
     1
 90
        5
176
     1
 90
        0
176
     1
 90
        0
176
     1
290
     0
176
     1
 90
       13
176
     1
 40
0.0
176
     1
 90
        0
176
     1
290
     0
176
     1
290
     1
176
     1
290
     1
176
     1
290
     0
176
     1
290
     0
176
     1
290
     0
176
     1
290
     0
176
     1
290
     0
176
     1
290
     0
176
     1
 90
       50
176
     1
 40
0.0
176
     1
 40
1.0
176
     1
 90
        0
176
     1
 62
    18
420
        0
176
     1
 90
       50
176
     1
 90
        3
176
     1
 62
     5
420
      255
176
     1
290
     0
176
     1
 90
       50
176
     1
 90
       50
176
     1
 90
       50
176
     1
290
     0
176
     1
 90
       50
176
     1
 62
   256
176
     0
 40
1.0
176
     0
 90
        2
176
     1
  1
strokes_ogs.tif
176
     1
290
     0
176
     1
 40
1.0
176
     1
 40
1.0
176
     1
  0
VISUALSTYLE
  5
D3C7
102
{ACAD_REACTORS
330
D3C0
102
}
330
D3C0
100
AcDbVisualStyle
  2
Hidden
 70
     6
177
     3
291
     0
 70
    58
 90
        1
176
     1
 90
        2
176
     1
 90
        2
176
     1
 90
        0
176
     1
 40
0.6
176
     1
 40
30.0
176
     1
 62
     7
420
 16777215
176
     1
 90
        2
176
     1
 90
        2
176
     1
 62
     7
176
     1
 62
   257
176
     1
 90
        2
176
     1
 90
        1
176
     1
 40
40.0
176
     1
 90
        0
176
     1
 62
   257
176
     1
 40
1.0
176
     1
 90
        1
176
     1
 90
        6
176
     1
 90
        2
176
     1
 62
     7
176
     1
 90
        3
176
     1
 90
        0
176
     1
 90
        0
176
     1
290
     0
176
     1
 90
        1
176
     1
 40
0.0
176
     1
 90
        0
176
     1
290
     0
176
     1
290
     1
176
     1
290
     1
176
     1
290
     0
176
     1
290
     0
176
     1
290
     0
176
     1
290
     0
176
     1
290
     0
176
     1
290
     0
176
     1
 90
       50
176
     1
 40
0.0
176
     1
 40
1.0
176
     1
 90
        0
176
     1
 62
    18
420
        0
176
     1
 90
       50
176
     1
 90
        3
176
     1
 62
     5
420
      255
176
     1
290
     0
176
     1
 90
       50
176
     1
 90
       50
176
     1
 90
       50
176
     1
290
     0
176
     1
 90
       50
176
     1
 62
   256
176
     0
 40
1.0
176
     0
 90
        2
176
     1
  1
strokes_ogs.tif
176
     1
290
     0
176
     1
 40
1.0
176
     1
 40
1.0
176
     1
  0
VISUALSTYLE
  5
D3D1
102
{ACAD_REACTORS
330
D3C0
102
}
330
D3C0
100
AcDbVisualStyle
  2
JitterOff
 70
    20
177
     3
291
     1
 70
    58
 90
        2
176
     0
 90
        2
176
     0
 90
        0
176
     0
 90
        0
176
     0
 40
0.6
176
     0
 40
30.0
176
     0
 62
     7
420
 16777215
176
     0
 90
        1
176
     0
 90
        4
176
     0
 62
     7
176
     0
 62
   257
176
     0
 90
        1
176
     0
 90
        1
176
     0
 40
1.0
176
     0
 90
       10
176
     2
 62
     7
176
     0
 40
1.0
176
     0
 90
        1
176
     0
 90
        6
176
     0
 90
        2
176
     0
 62
     7
176
     0
 90
        5
176
     0
 90
        0
176
     0
 90
        0
176
     0
290
     0
176
     0
 90
        1
176
     0
 40
0.0
176
     0
 90
        0
176
     0
290
     0
176
     0
290
     1
176
     0
290
     1
176
     0
290
     0
176
     0
290
     0
176
     0
290
     0
176
     0
290
     0
176
     0
290
     0
176
     0
290
     0
176
     0
 90
       50
176
     0
 40
0.0
176
     0
 40
1.0
176
     0
 90
        0
176
     0
 62
    18
420
        0
176
     0
 90
       50
176
     0
 90
        3
176
     0
 62
     5
420
      255
176
     0
290
     0
176
     0
 90
       50
176
     0
 90
       50
176
     0
 90
       50
176
     0
290
     0
176
     0
 90
       50
176
     0
 62
   256
176
     0
 40
1.0
176
     0
 90
        2
176
     0
  1
strokes_ogs.tif
176
     0
290
     0
176
     0
 40
1.0
176
     0
 40
1.0
176
     0
  0
VISUALSTYLE
  5
D3CE
102
{ACAD_REACTORS
330
D3C0
102
}
330
D3C0
100
AcDbVisualStyle
  2
Linepattern
 70
    14
177
     3
291
     1
 70
    58
 90
        2
176
     1
 90
        2
176
     1
 90
        0
176
     1
 90
        0
176
     1
 40
0.6
176
     1
 40
30.0
176
     1
 62
     7
420
 16777215
176
     1
 90
        1
176
     1
 90
        4
176
     1
 62
     7
176
     1
 62
   257
176
     1
 90
        7
176
     1
 90
        7
176
     1
 40
1.0
176
     1
 90
        8
176
     1
 62
     7
176
     1
 40
1.0
176
     1
 90
        1
176
     1
 90
        6
176
     1
 90
        2
176
     1
 62
     7
176
     1
 90
        5
176
     1
 90
        0
176
     1
 90
        0
176
     1
290
     0
176
     1
 90
        1
176
     1
 40
0.0
176
     1
 90
        0
176
     1
290
     0
176
     1
290
     1
176
     1
290
     1
176
     1
290
     0
176
     1
290
     0
176
     1
290
     0
176
     1
290
     0
176
     1
290
     0
176
     1
290
     0
176
     1
 90
       50
176
     1
 40
0.0
176
     1
 40
1.0
176
     1
 90
        0
176
     1
 62
    18
420
        0
176
     1
 90
       50
176
     1
 90
        3
176
     1
 62
     5
420
      255
176
     1
290
     0
176
     1
 90
       50
176
     1
 90
       50
176
     1
 90
       50
176
     1
290
     0
176
     1
 90
       50
176
     1
 62
   256
176
     0
 40
1.0
176
     0
 90
        2
176
     1
  1
strokes_ogs.tif
176
     1
290
     0
176
     1
 40
1.0
176
     1
 40
1.0
176
     1
  0
VISUALSTYLE
  5
D3D2
102
{ACAD_REACTORS
330
D3C0
102
}
330
D3C0
100
AcDbVisualStyle
  2
OverhangOff
 70
    21
177
     3
291
     1
 70
    58
 90
        2
176
     0
 90
        2
176
     0
 90
        0
176
     0
 90
        0
176
     0
 40
0.6
176
     0
 40
30.0
176
     0
 62
     7
420
 16777215
176
     0
 90
        1
176
     0
 90
        4
176
     0
 62
     7
176
     0
 62
   257
176
     0
 90
        1
176
     0
 90
        1
176
     0
 40
1.0
176
     0
 90
        9
176
     2
 62
     7
176
     0
 40
1.0
176
     0
 90
        1
176
     0
 90
        6
176
     0
 90
        2
176
     0
 62
     7
176
     0
 90
        5
176
     0
 90
        0
176
     0
 90
        0
176
     0
290
     0
176
     0
 90
        1
176
     0
 40
0.0
176
     0
 90
        0
176
     0
290
     0
176
     0
290
     1
176
     0
290
     1
176
     0
290
     0
176
     0
290
     0
176
     0
290
     0
176
     0
290
     0
176
     0
290
     0
176
     0
290
     0
176
     0
 90
       50
176
     0
 40
0.0
176
     0
 40
1.0
176
     0
 90
        0
176
     0
 62
    18
420
        0
176
     0
 90
       50
176
     0
 90
        3
176
     0
 62
     5
420
      255
176
     0
290
     0
176
     0
 90
       50
176
     0
 90
       50
176
     0
 90
       50
176
     0
290
     0
176
     0
 90
       50
176
     0
 62
   256
176
     0
 40
1.0
176
     0
 90
        2
176
     0
  1
strokes_ogs.tif
176
     0
290
     0
176
     0
 40
1.0
176
     0
 40
1.0
176
     0
  0
VISUALSTYLE
  5
D3C9
102
{ACAD_REACTORS
330
D3C0
102
}
330
D3C0
100
AcDbVisualStyle
  2
Realistic
 70
     8
177
     3
291
     0
 70
    58
 90
        2
176
     1
 90
        3
176
     1
 90
        0
176
     1
 90
        2
176
     1
 40
0.6
176
     1
 40
30.0
176
     1
 62
     7
420
 16777215
176
     1
 90
        0
176
     1
 90
        0
176
     1
 62
     7
176
     1
 62
   257
176
     1
 90
        1
176
     1
 90
        1
176
     1
 40
1.0
176
     1
 90
        8
176
     1
 62
   257
176
     1
 40
1.0
176
     1
 90
        1
176
     1
 90
        6
176
     1
 90
        2
176
     1
 62
     7
176
     1
 90
        3
176
     1
 90
        0
176
     1
 90
        0
176
     1
290
     0
176
     1
 90
       13
176
     1
 40
0.0
176
     1
 90
        0
176
     1
290
     0
176
     1
290
     1
176
     1
290
     1
176
     1
290
     0
176
     1
290
     0
176
     1
290
     0
176
     1
290
     0
176
     1
290
     0
176
     1
290
     0
176
     1
 90
       50
176
     1
 40
0.0
176
     1
 40
1.0
176
     1
 90
        0
176
     1
 62
    18
420
        0
176
     1
 90
       50
176
     1
 90
        3
176
     1
 62
     5
420
      255
176
     1
290
     0
176
     1
 90
       50
176
     1
 90
       50
176
     1
 90
       50
176
     1
290
     0
176
     1
 90
       50
176
     1
 62
   256
176
     0
 40
1.0
176
     0
 90
        2
176
     1
  1
strokes_ogs.tif
176
     1
290
     0
176
     1
 40
1.0
176
     1
 40
1.0
176
     1
  0
VISUALSTYLE
  5
D3D8
102
{ACAD_REACTORS
330
D3C0
102
}
330
D3C0
100
AcDbVisualStyle
  2
Shaded
 70
    27
177
     3
291
     0
 70
    58
 90
        2
176
     1
 90
        2
176
     1
 90
        1
176
     1
 90
        2
176
     1
 40
0.6
176
     1
 40
30.0
176
     1
 62
     7
420
 16777215
176
     1
 90
        0
176
     1
 90
        4
176
     1
 62
     7
176
     1
 62
   257
176
     1
 90
        1
176
     1
 90
        1
176
     1
 40
1.0
176
     1
 90
        8
176
     1
 62
   257
176
     1
 40
1.0
176
     1
 90
        1
176
     1
 90
        6
176
     1
 90
        2
176
     1
 62
     8
420
  7895160
176
     1
 90
        3
176
     1
 90
        0
176
     1
 90
        0
176
     1
290
     0
176
     1
 90
        5
176
     1
 40
0.0
176
     1
 90
        0
176
     1
290
     0
176
     1
290
     1
176
     1
290
     1
176
     1
290
     0
176
     1
290
     0
176
     1
290
     0
176
     1
290
     0
176
     1
290
     0
176
     1
290
     0
176
     1
 90
       50
176
     1
 40
0.0
176
     1
 40
1.0
176
     1
 90
        0
176
     1
 62
    18
420
        0
176
     1
 90
       50
176
     1
 90
        3
176
     1
 62
     5
420
      255
176
     1
290
     0
176
     1
 90
       50
176
     1
 90
       50
176
     1
 90
       50
176
     1
290
     0
176
     1
 90
       50
176
     1
 62
   256
176
     0
 40
1.0
176
     0
 90
        2
176
     1
  1
strokes_ogs.tif
176
     1
290
     0
176
     1
 40
1.0
176
     1
 40
1.0
176
     1
  0
VISUALSTYLE
  5
D3D7
102
{ACAD_REACTORS
330
D3C0
102
}
330
D3C0
100
AcDbVisualStyle
  2
Shaded with edges
 70
    26
177
     3
291
     0
 70
    58
 90
        2
176
     1
 90
        2
176
     1
 90
        1
176
     1
 90
        2
176
     1
 40
0.6
176
     1
 40
30.0
176
     1
 62
     7
420
 16777215
176
     1
 90
        1
176
     1
 90
        2
176
     1
 62
     7
176
     1
 62
   257
176
     1
 90
        2
176
     1
 90
        1
176
     1
 40
1.0
176
     1
 90
        8
176
     1
 62
   257
176
     1
 40
1.0
176
     1
 90
        1
176
     1
 90
        6
176
     1
 90
        2
176
     1
 62
     7
176
     1
 90
        3
176
     1
 90
        0
176
     1
 90
        0
176
     1
290
     0
176
     1
 90
        5
176
     1
 40
0.0
176
     1
 90
        0
176
     1
290
     0
176
     1
290
     1
176
     1
290
     1
176
     1
290
     0
176
     1
290
     0
176
     1
290
     0
176
     1
290
     0
176
     1
290
     0
176
     1
290
     0
176
     1
 90
       50
176
     1
 40
0.0
176
     1
 40
1.0
176
     1
 90
        0
176
     1
 62
    18
420
        0
176
     1
 90
       50
176
     1
 90
        3
176
     1
 62
     5
420
      255
176
     1
290
     0
176
     1
 90
       50
176
     1
 90
       50
176
     1
 90
       50
176
     1
290
     0
176
     1
 90
       50
176
     1
 62
   256
176
     0
 40
1.0
176
     0
 90
        2
176
     1
  1
strokes_ogs.tif
176
     1
290
     0
176
     1
 40
1.0
176
     1
 40
1.0
176
     1
  0
VISUALSTYLE
  5
D3D4
102
{ACAD_REACTORS
330
D3C0
102
}
330
D3C0
100
AcDbVisualStyle
  2
Shades of Gray
 70
    23
177
     3
291
     0
 70
    58
 90
        2
176
     1
 90
        2
176
     1
 90
        3
176
     1
 90
        0
176
     1
 40
0.6
176
     1
 40
30.0
176
     1
 62
     7
420
 16777215
176
     1
 90
        2
176
     1
 90
        2
176
     1
 62
     7
176
     1
 62
     7
176
     1
 90
        1
176
     1
 90
        1
176
     1
 40
40.0
176
     1
 90
        8
176
     1
 62
     7
176
     1
 40
1.0
176
     1
 90
        1
176
     1
 90
        6
176
     1
 90
        2
176
     1
 62
     7
176
     1
 90
        3
176
     1
 90
        0
176
     1
 90
        0
176
     1
290
     0
176
     1
 90
        1
176
     1
 40
0.0
176
     1
 90
        0
176
     1
290
     0
176
     1
290
     1
176
     1
290
     1
176
     1
290
     0
176
     1
290
     0
176
     1
290
     0
176
     1
290
     0
176
     1
290
     0
176
     1
290
     0
176
     1
 90
       50
176
     1
 40
0.0
176
     1
 40
1.0
176
     1
 90
        0
176
     1
 62
    18
420
        0
176
     1
 90
       50
176
     1
 90
        3
176
     1
 62
     5
420
      255
176
     1
290
     0
176
     1
 90
       50
176
     1
 90
       50
176
     1
 90
       50
176
     1
290
     0
176
     1
 90
       50
176
     1
 62
   256
176
     0
 40
1.0
176
     0
 90
        2
176
     1
  1
strokes_ogs.tif
176
     1
290
     0
176
     1
 40
1.0
176
     1
 40
1.0
176
     1
  0
VISUALSTYLE
  5
D3D5
102
{ACAD_REACTORS
330
D3C0
102
}
330
D3C0
100
AcDbVisualStyle
  2
Sketchy
 70
    24
177
     3
291
     0
 70
    58
 90
        1
176
     1
 90
        2
176
     1
 90
        2
176
     1
 90
        0
176
     1
 40
0.6
176
     1
 40
30.0
176
     1
 62
     7
420
 16777215
176
     1
 90
        2
176
     1
 90
        2
176
     1
 62
     7
176
     1
 62
     7
176
     1
 90
        1
176
     1
 90
        1
176
     1
 40
40.0
176
     1
 90
       11
176
     1
 62
     7
176
     1
 40
1.0
176
     1
 90
        1
176
     1
 90
        6
176
     1
 90
        2
176
     1
 62
     7
176
     1
 90
        6
176
     1
 90
        0
176
     1
 90
        0
176
     1
290
     0
176
     1
 90
        1
176
     1
 40
0.0
176
     1
 90
        0
176
     1
290
     0
176
     1
290
     1
176
     1
290
     1
176
     1
290
     0
176
     1
290
     0
176
     1
290
     0
176
     1
290
     0
176
     1
290
     0
176
     1
290
     0
176
     1
 90
       50
176
     1
 40
0.0
176
     1
 40
1.0
176
     1
 90
        0
176
     1
 62
    18
420
        0
176
     1
 90
       50
176
     1
 90
        3
176
     1
 62
     5
420
      255
176
     1
290
     0
176
     1
 90
       50
176
     1
 90
       50
176
     1
 90
       50
176
     1
290
     0
176
     1
 90
       50
176
     1
 62
   256
176
     0
 40
1.0
176
     0
 90
        2
176
     1
  1
strokes_ogs.tif
176
     1
290
     0
176
     1
 40
1.0
176
     1
 40
1.0
176
     1
  0
VISUALSTYLE
  5
D3CD
102
{ACAD_REACTORS
330
D3C0
102
}
330
D3C0
100
AcDbVisualStyle
  2
Thicken
 70
    13
177
     3
291
     1
 70
    58
 90
        2
176
     1
 90
        2
176
     1
 90
        0
176
     1
 90
        0
176
     1
 40
0.6
176
     1
 40
30.0
176
     1
 62
     7
420
 16777215
176
     1
 90
        1
176
     1
 90
        4
176
     1
 62
     7
176
     1
 62
   257
176
     1
 90
        1
176
     1
 90
        1
176
     1
 40
1.0
176
     1
 90
       12
176
     1
 62
     7
176
     1
 40
1.0
176
     1
 90
        1
176
     1
 90
        6
176
     1
 90
        2
176
     1
 62
     7
176
     1
 90
        5
176
     1
 90
        0
176
     1
 90
        0
176
     1
290
     0
176
     1
 90
        1
176
     1
 40
0.0
176
     1
 90
        0
176
     1
290
     0
176
     1
290
     1
176
     1
290
     1
176
     1
290
     0
176
     1
290
     0
176
     1
290
     0
176
     1
290
     0
176
     1
290
     0
176
     1
290
     0
176
     1
 90
       50
176
     1
 40
0.0
176
     1
 40
1.0
176
     1
 90
        0
176
     1
 62
    18
420
        0
176
     1
 90
       50
176
     1
 90
        3
176
     1
 62
     5
420
      255
176
     1
290
     0
176
     1
 90
       50
176
     1
 90
       50
176
     1
 90
       50
176
     1
290
     0
176
     1
 90
       50
176
     1
 62
   256
176
     0
 40
1.0
176
     0
 90
        2
176
     1
  1
strokes_ogs.tif
176
     1
290
     0
176
     1
 40
1.0
176
     1
 40
1.0
176
     1
  0
VISUALSTYLE
  5
D3C6
102
{ACAD_REACTORS
330
D3C0
102
}
330
D3C0
100
AcDbVisualStyle
  2
Wireframe
 70
     5
177
     3
291
     0
 70
    58
 90
        0
176
     1
 90
        2
176
     1
 90
        0
176
     1
 90
        0
176
     1
 40
0.6
176
     1
 40
30.0
176
     1
 62
     7
420
 16777215
176
     1
 90
        1
176
     1
 90
        4
176
     1
 62
     7
176
     1
 62
   257
176
     1
 90
        1
176
     1
 90
        1
176
     1
 40
1.0
176
     1
 90
        0
176
     1
 62
   257
176
     1
 40
1.0
176
     1
 90
        1
176
     1
 90
        6
176
     1
 90
        2
176
     1
 62
     7
176
     1
 90
        3
176
     1
 90
        0
176
     1
 90
        0
176
     1
290
     0
176
     1
 90
        1
176
     1
 40
0.0
176
     1
 90
        0
176
     1
290
     0
176
     1
290
     1
176
     1
290
     1
176
     1
290
     0
176
     1
290
     0
176
     1
290
     0
176
     1
290
     0
176
     1
290
     0
176
     1
290
     0
176
     1
 90
       50
176
     1
 40
0.0
176
     1
 40
1.0
176
     1
 90
        0
176
     1
 62
    18
420
        0
176
     1
 90
       50
176
     1
 90
        3
176
     1
 62
     5
420
      255
176
     1
290
     0
176
     1
 90
       50
176
     1
 90
       50
176
     1
 90
       50
176
     1
290
     0
176
     1
 90
       50
176
     1
 62
   256
176
     0
 40
1.0
176
     0
 90
        2
176
     1
  1
strokes_ogs.tif
176
     1
290
     0
176
     1
 40
1.0
176
     1
 40
1.0
176
     1
  0
VISUALSTYLE
  5
D3D6
102
{ACAD_REACTORS
330
D3C0
102
}
330
D3C0
100
AcDbVisualStyle
  2
X-Ray
 70
    25
177
     3
291
     0
 70
    58
 90
        2
176
     1
 90
        2
176
     1
 90
        1
176
     1
 90
        1
176
     1
 40
0.5
176
     1
 40
30.0
176
     1
 62
     7
420
 16777215
176
     1
 90
        1
176
     1
 90
        0
176
     1
 62
     7
176
     1
 62
   257
176
     1
 90
        1
176
     1
 90
        1
176
     1
 40
1.0
176
     1
 90
        8
176
     1
 62
     7
176
     1
 40
1.0
176
     1
 90
        1
176
     1
 90
        6
176
     1
 90
        2
176
     1
 62
     7
176
     1
 90
        3
176
     1
 90
        0
176
     1
 90
        0
176
     1
290
     0
176
     1
 90
       13
176
     1
 40
0.0
176
     1
 90
        0
176
     1
290
     0
176
     1
290
     1
176
     1
290
     1
176
     1
290
     0
176
     1
290
     0
176
     1
290
     0
176
     1
290
     0
176
     1
290
     0
176
     1
290
     0
176
     1
 90
       50
176
     1
 40
0.0
176
     1
 40
1.0
176
     1
 90
        0
176
     1
 62
    18
420
        0
176
     1
 90
       50
176
     1
 90
        3
176
     1
 62
     5
420
      255
176
     1
290
     0
176
     1
 90
       50
176
     1
 90
       50
176
     1
 90
       50
176
     1
290
     0
176
     1
 90
       50
176
     1
 62
   256
176
     0
 40
1.0
176
     0
 90
        2
176
     1
  1
strokes_ogs.tif
176
     1
290
     0
176
     1
 40
1.0
176
     1
 40
1.0
176
     1
  0
DICTIONARYVAR
  5
D682
102
{ACAD_REACTORS
330
3A8
102
}
330
3A8
100
DictionaryVariables
280
     0
  1
1:1
  0
DICTIONARYVAR
  5
D684
102
{ACAD_REACTORS
330
3A8
102
}
330
3A8
100
DictionaryVariables
280
     0
  1
Standard
  0
DICTIONARYVAR
  5
D683
102
{ACAD_REACTORS
330
3A8
102
}
330
3A8
100
DictionaryVariables
280
     0
  1
Standard
  0
DICTIONARYVAR
  5
DFE1
102
{ACAD_REACTORS
330
3A8
102
}
330
3A8
100
DictionaryVariables
280
     0
  1
Metric50
  0
DICTIONARYVAR
  5
DFE2
102
{ACAD_REACTORS
330
3A8
102
}
330
3A8
100
DictionaryVariables
280
     0
  1
Metric50
  0
DICTIONARYVAR
  5
3A9
102
{ACAD_REACTORS
330
3A8
102
}
330
3A8
100
DictionaryVariables
280
     0
  1
1
  0
DICTIONARYVAR
  5
D685
102
{ACAD_REACTORS
330
3A8
102
}
330
3A8
100
DictionaryVariables
280
     0
  1
0
  0
DICTIONARYVAR
  5
4FB5
102
{ACAD_REACTORS
330
3A8
102
}
330
3A8
100
DictionaryVariables
280
     0
  1

  0
XRECORD
  5
D669
102
{ACAD_REACTORS
330
D668
102
}
330
D668
100
AcDbXrecord
280
     1
  1
AcLyLayerFilter
 90
        1
300
天板
301

  0
DICTIONARY
  5
DEFF
330
D3DC
100
AcDbDictionary
280
     1
281
     1
  3
FBXASSET
360
DF00
  0
DICTIONARY
  5
DFE3
330
D3DE
100
AcDbDictionary
280
     1
281
     1
  3
ACAD_ROUNDTRIP_2008_TABLESTYLE_CELLSTYLEMAP
360
DFE4
  0
XRECORD
  5
DF00
102
{ACAD_REACTORS
330
DEFF
102
}
330
DEFF
100
AcDbXrecord
280
     1
 70
     1
 90
-1625056298
 71
     1
  1
ED0A65CC-C9BE-4ADB-A64E-00650354EEC5
311
504B0304140006080800DC8C8D50D8C3D583F6000000A80100004F00000031324530363432412D393546432D344442422D413531352D4441383138303136324646462F4173736574446174612F446566696E6974696F6E4974657261746F7250726F706572746965732E62696EBD90CF4AC43010C6A307C58307C107F0E075
311
4CD24D422B88A4F9E3C98B3E80646BDC2D64DB65D3E2758FBEB54EB0BE82035F66F83299F9912F42C8F712589213D411CF4BCC4F718887BE7BEDB67117C85971D2B80EE9162BC38D708A376079EB41E84A40E3BC809AF315AB1DD3ADB7A7D8778EB2F123CC692A239FFBDCC594C210C7395FA1B1ECB8D98509778574571E5D
311
1052D21145FE2E7299B4F9252A909FA8F0BEBF7F0C39C7E981F2CA31252A0D8DF406846D5BD0924BB0BAE635E3AAF2DED39798C7F9D0C54C9D655A4963C034AD437E8BED4A38604C49B692C23923E9B49DCBD75C178CF510FA44195D10DEF6C306ED7F8B1F504B0304140006080800DC8C8D5087546C91EC00000030020000
311
4500000031324530363432412D393546432D344442422D413531352D4441383138303136324646462F4173736574446174612F496E7374616E636550726F706572746965732E62696EEB606060F80F0540260323103700495E20ED9E9A975A94991C9C9C919A9BA802147075317034337576D675B67472D535717471D27534
311
3371D5353030333530363571757536654768046931363471713532B5D435353131D635313332D475727372D13534373670367376B67474B5042A03DBCBA019D37FE8ABC6157B20CD04146B0062181F4C03F940F0C11EA29A8141C08141002C0426541C106CAC2CA046088033B02A030AC2157C6006F21A8018AAF50194E601
311
0A610250382264E08660284CD9E98021862280A91564B406929A0FF62C401E28B6F88038B83CB1243943D7A928312F25350524432B0000504B0304140006080800DC8C8D5088E57597CD3F0000904100006B00000031324530363432412D393546432D344442422D413531352D4441383138303136324646462F5265736F75
311
726365732F45443041363543432D433942452D344144422D413634452D3030363530333534454543352F7468756D626E61696C2F302F67656E657269635F706E67355B773CD4FF1FBF73E71C0E67EF7576C9DEF3EC995D46C6A1EC5046649CBDF79E192942562825CE965D8A868C2842C8DE9FDFD1F7E7F138F7078FCF6B3F
311
5FCFD7EBFDFEC41B196891913091804020321D6D7513FC77D8C5070EC3FFEE51B21F068154CC75D455CC028A3EA68992803810109FDDE5D5CEC5521B28A1B422BF80741695D5B529DA1C2D058AD2388BDA9F476F7C2CADC939304173DBF48A452BF8A700C0C70C3D121C1AA15A5270C22E2B9E28763651F7DA0D12CE11077B
311
2ECD0D560B5E3DE2368B1E65C5E1C87384A4CC5F2D9FB8BE39E9B77C753783A37998F5CEF1B4FEE553463245C9712270880DF339E0B882A6BA713D865F6F384C842D440934EF264F4A304F8DE4EEFA1E2BF5E2D91F5ADD9613D6E31DDB33ED31DB1D7916CAF091286EA3D31B9CFECB78BB0060245B943C4C040119FF780A74
311
DD308BA9D028678674EB5504ECF284EE814DAED07440BAF649BE4B55DA2890F4D73E2D489A59EE54FDB0A85B59F2F52C4858A02705C4815A792B0C4A996A2023ECB195073E115E3E3647F64243A8338F2000BCB58DA5692C7E7C3D413F963FEDF3CF00FBB0F831A9D51360FECA43819F527B89FA260EB63C5DA676830AA362
311
6A3693B23F1A17A0DFFCE3EE164E31B5365EDF0C89EF64D8E38AB0BA9A1117D7C3A0EC44F44F4023095E80BA610DE336D0F99593A88BFC5306E72DF98F7FD132ED95878DF2964EA7E43071359FD83B2BDF9C6B5BDF768F0F3C0FC351199526F53D9460A34511F75D1B63E488178569472C91A94497807A3FD4A390C6558F26
311
D416365C3656DE6E769DA9D8FC73774E1709812842DD8EF96AED1960F79D21B395CDDFE6F92CB4EB962A4668C76990E2EF29798C8941D67DA50F4A5F947872460F1F6FDB794E8A29FD7AC0C0D6E0714339CE258FB17AE8535221E3464A10F29A0BE5EEECEFC5675926A89F49EB14E5711894F6586DB5754EB4D5DA9C6437EB
311
A57DB97A24F8B8A8DB295FFD73266CF57E82694DF5166DDF93573AFE9C9C5EB05F8FEF8E89E0A8917B0B3724DB7BEBB53252581EFC3E38166BA131A3A5B42FE2AD00A769BBFA4458D2DE7822F8C4F63D0B8E21B285AE13325F3410A435C648C9D91FDEB109E73CEDA7BC796961AF79175E1A3CE4C5E8B0D009B0C9E29EFD98
311
BC8E97554E3D8D838424E270F7685226E5AC268E021EDE3522D583E8F20C0BDE2959EF5BBFEEDAB32FE9A3ED0E39F211A86AA9DEBFC68182EDED132AB8BB794442D2D7EA9F4D8BFF52BC4D55BB165124EE90A42D101E67BBBB292FFB4F66DE5BF2300E44546757DA7CEF8932BFC9F92A0707953491A55C5A5ACEDABD9FA1AE
311
A01BAC3DC5A24E22E7C47213493996EFBC369D086ED9397C9BA6C7F9855C7BD5E15BFC8C53DB3D2A4C5901A57ACD2FBDF4D1676E95338B2C2BCE65FDA4C64F5FEFDC7D9CA5AA1FCF11E193F2FDABF0F4916BF13FB916A224380E6462A9815F2300DC49CC4DF8D055CEF76462F4B7A7ACA7365C2707891370BC1D0AA6203C44
311
CCAB47084FEC057F27FFCD57F89B8B9852459798A675C66BD7CE572CAF71FF7E6D7ECF7BF62CAB7B3F1107DCD04DC55A3F9961700286141C94A4F771FEB2BCDA2DDEE0CB0BAE402FF1DB0100F8E475DFFFC074DDB4498AB7D186A7654DDB1CB680D703D47CEB4E72F8CB13D86A4AA68116E26387B93FD6738779B34FEDB8E5
311
17EDF2BAF28D9BE93A1D3A164320E07D42E514725C29515FF361754213EDE06B079A2E99EB1CA82A02019EADEEB87B9AF005BD04BBCECB14AACD6B24EFBE482194A97DD32400685FF1FEF1544D1B14EFB1E7F08E6D2CD2AF52DE757F35F5E62332EE88EA26417AD5C3E0E319D68F25414E6D672BD4522B278C57D18F011392
311
1C71D96527E091F00CEB15AE23D24667369BD3CEFA10C7549D930890BA4366F4EBC55F01F746109F98ABCDD5A3EE06619C6AD78AB33E48E4C9BD21BF7478B385EC05C4F8987E2C1BFA0A60EBEDAA0AE0B015C2720ECE180FB6F2DEFBEB822D96338C9B63822183BBF52FB664A7AE57003AABCE512BF77E7E31BDA2E739AC4C
311
131657DDFE5225E900FB56CC01CDE808FA4A9C9DA16AC679656BB64796283D89812B8F91136AE18EE5EBBAF47A73BE3C153EB5D4CD491B4BFB4FE690A4CF9ABA08C0D8AA64220C438C96EA6CA80B58FE5761E697B3A292EB9FBDA502FA863E49FE694ADDFFF9D62C520BDD1A22014147A0903A05B9B729F54272EF83931FEE
311
C057BFF8C8055C279EAC5C0011804828734024F6CFA319C9CC6867C727184465CD9BB7ED386AFFD96B294A85E3802FAE47244602D8273615952B98C4F23F7EAE4463D9D638EEE374A20959E0FE519C4CFB0FBFE5DD80C2AA3F9DB961D1BDE57E67C9BB47B77FDD74EE3094F5DBBE3EBC1FBDB7393F5116263009E2EFE1AF9A
311
221B2AE234C902BF70E9F280ED23E73908361565964333A3F01D0B006AF32FB21AA1316744B489D5A198E85299241735BE559675130955C902A8ED761FC0DBE337A9F91919AF5CE32AF902ADF9AB2615E00E8A94586BA1A90839B61832FF1BFB76D2EFADE6DB1BA04CCAD3DA649E7E2A0219F592E22F2AD54847EEA8E42271
311
011E9074F8F3DD9FBA6CDF88FFC9FC7E811AD1CA8F4557CE4AFC7BBEDCF0114A48689F20A584520C74DA8127124B767E2FB91A6B186246727BE63C9445BAE02088D58B8EFDC0F1072407CD9B89A13F6303B4A928F593AD489B58E6869325790ADC406036C591729FE14021F94B7796BB11848D463536A092A26F077F94639F
311
7CEEE2A724C66EC885F4A24F8B8A0AC321F8FD149BA529460FAA34E4663C02D41FDF80BCA222D42F0ABFF8490F4FA74C673807C2051D8E467B47B616072860069A9A303ABA9B319D58404461401B0A0F9BE5E1E151C14BC33B32ABE03DDE91708DFAEB15E7C0D593C86BB7D7EC17BE56E57975F077BFD5525F3A1A361D584A
311
75E08CF29FC7B44B2B3085014F3A5A14517377C3F6B8F37E59514C3B12F8AACDEDDA4DFC49BE5710101534CD6FB6DE15B50F11A09472AABA727F0C49D9CB906B158030065F48EB3625E010CEC1D511D0053474B11E6A4F01C0D6EF1BED3A944FDEC70E0DDCDC756C86545910E0DAE3BE3AA9A404574C2995CD5CAF9549226B
311
C94B4F4F0F5F9086F418F6B32346464610D8BC7391D3C3A3CCF04CFC1FB2A3A3170E369511868F14EEA4E5E438CC73DB1F3248AA94B6B2FF33B222FF3D1E7BF146CAD229770158063BCE4F5391964DF62F7E52A7BE0EEA829C9E13C4C147D6F93FE59E111DAB5E4594D6F3CD1AD375EE039930EFE5AF2BB2D41C83C7DABD8C
311
659BAFBE8FAB392CA634F3D15C1D945DB4588D2B0824A4EC928AAC565557CA2F0DAA588CA5BE30B3A8004F7BF005E96CBF891D7F18112A3619FDF530DC8AA64954258E1811789B5189B49B4EB53F5F89F7D37523894F3EB57B373763C91E502F52CC99EB7BDDF933FC324C4FFC2561DFFA7339FAFDD0A4BFBE6D3A8FF9ED1F
311
C49898139864602458968913181918F719CCF5A68B2EE9C1FF050E34E63107003B8120FA982C21B30A874E4F5E4B38D5A8290C4B8D9BE48A0BE31EA995BDC37AC6DE90BA17D259DEF53605D55922FEB1855D915B659FBEB350EE0DFB2F9F766E1C84CC8964B75D08667445EAB966015F63A18A9E0A325C1B3DC628C0D3CB60
311
F767FA93CC65F25458BD23C3B312716E5F40E5858AC06EBA9AB14F95DB99147B832069201541D09A0D856E12C629CF32683760EE855537D1901988D5EBC156676C7DD51D7207CF3267AF1D76C2AD867315E44618015313A98B19941C696FED3461CAA9B5415F918556D7802EDACEFD6B2E45853A9735DFC9DBF7E440F9319F
311
8B6805A973BCCDC76C069A9144E51F187EDCC12FC31B5DEAAF0A76137199B106EC84ADA6B6EE697D4E6A96E007417F4E880E8B1E89B4BCE9D81EF611E2ED8F0C1A6C25F620FAFAAB656A7C42D464880E8AFAB0E0FC8EA38CA9A8AEEAEE3E4648BA4680270A89743CDD3E6C6CBF34B7B640EFA285ABC7EA0A1E28F3CC963D11
311
4A80123EE66D0AF7D5380EB41909B605AB4765B709B808590458157E69BA1378FEC4B48CAF6A730E3BE3C5EF2DD1A5EAF94B1DDE50CEB55DDFD7EE9A16747FA4B223359FB1FCC69E1194892BABB93A1D5C4E807AC0EA2E30180811E77A2291F6E7F7FAA5E0F60215BC6024E48DE436C511F0628B8CA189982D4D83CCA17D30
311
5A7E923C37941CFDFDCD93ACAF735EF5F0E61BBD3E6C41A59B242790D3A3BAC7064DCD89AA2E37214EC839820949D5CAA31E240D2948E48F690298974A96BA9A8432BC90F5071D6537C9666EA4564796B7AFFFA548077BEEA75F63083435074BA182F3699557397F71548383FDA8CA34D99B981E72835ECDA5DDDC15131517
311
3D05A21F651AAF8524E88209E2E7A737ED1045800CE3390050BCFB8BE588DF111617874C62575039CA588EEFDEFEFE319B739DE2EDC147092A262611E159650E787917885EF08F1F51B8F2D8A71D60B58B190FEF9541A1BE94BC19FEA50784DA1419FE4B0FB51B8D36B5FF8E1286FD8AF42B91E59A5F1CC4D60174E764045F
311
D8C57B18209B217F89A62252BD20BE0E63E12B8E8F029FE19E0E8D0870F58721A557082250D5424F7909369376E41666C0EE77CD87CB283F661D5FB6D0DA023CB67320A20DC7BE661E9E1BFE5463085C557DA1FF9BE835733766C3D139F2CF9E2208873AD0EB4814DE9E6BF2CAF81614D4D43906ED1C05A3265CABBFE19277
311
0FC2F64F940CB6B17B5F166F133C9AEEAD2641807C3E69515171DD74C4A85311513D6EC9530B3B601B6BA3EBFF3B5C3D2F7D69765141E345F75433953D013ADDF8F6AA7DC3F4A7563FE5C7D367937E2900D7EAD0F9FC9A4A1A9B5BDF1FEF08532660C01C5D6DE22199AA774383E306DAB87E301ABB7D213887F9869D4942D0
311
D71E94B27EDF216A318BD488D45DF84529EF575AF3C3938C0AAA0215B01994153E2054A0B894DA5C784980633AAD48576957CF4AEAEAFADC7C587368551C73DBE1E57C58AC713303A8BFC258BD04B51724459FF9E24C03A81E0E0679CEB9B348C0DC998FEB9C6D6EFA77D247CC8F92D3848599ED89A23218D0636465AD1CEE
311
B7DC140D7426F83491C4E8E8281C2FB35240918FFECE880CA2A42D70E8B20B34DF5221C7DB0CF90ECCB9C745B37A47E9B716FF7A97B7A252C1F3814DC7B1E1A7F72B8751D524EF7CAE45B0C73B3BE7D08ED39781B380DDFC9AA4A4749C9493DB5BAD07A6EA6C092FBD0E85DB004DF06B8C9D3089C5320187E4CE1846158C7E
311
A7DDAE8AD9AFFF21AA3A1026BB06A259845E8232DEE62811A4DA9CEAB3A4887320B76E2AE5615EAB7BDF738CBDD01F1E64064BC13D9EC53576751CA8CACD58B3CEB0E6CA585BD089B2A59B9FC101403387AADBDBE70586B93D64BF3AD4453EF9C3B6A93817E8346991798601344F79A83C51F3D50F7BF2683A3605F51A7244
311
9489E0EE6169C749C60B1035651103AEE24D24E51A759C840DD3FC6504DA6FE107510E447B43461C79D22970B75DE5E1BD3007D1AFC619A4A4A69B5626AF5E9B8374E20677F77E2F8E73DF868E8BEC7EBA7B6A75EEF7205E1AB9486CB642741D6E03FF13FCCEDB1C4AC129886268B01CDF4B124AF797CF784F3C6DEC97A17D
311
4B558070A0F1C04DA4FF9BDBF34159AEFE958479824B3F58EBD1E19088A2AFDE501B6F2052368A3FD0E650A179EFAB1561E1D27527077136E652676C3670F42DCB3352F48F6BC86D2C3B0051727E41A0A4DC6CE2BE9D47F5CAA2935A3C0539AF080665997194ABECD723B08129CC5B6B21D2E7D54CD4D12610E7E9FB830677
311
1A89576C7A982002775ED44F3F744CF21EEBB27A631671D921938AAEE3EB0D19CD1E083727F607823E817BF599DCED5394E37EEBC2E88782E638920CA641EF74D4CDFCDEF06F4278ECB18E31E7E9876F2D783C8BF429C75395F57E98C2B495A3DA077EB3AC3C158608B6B57FE3EA48484D9A480096FCEE0DE880950E7E5A57
311
14131C5C41AAA29FD19AE81AC145FA1B9E85C7169A5AB837B213493DF7E9AA4B5FBF9CDEB36EBD21EF1181B7CF7366AB2A951D01E37AF4EB835D1BE8C117CFBE7625D2EBCDB0B20C5A4B45CED0BCDE3EE8DA9DA78C2E21DEAAFFD1197E463C33CC6A80FB785669B856EFF7A8CCCA2841B5A5369173320B1170C368B2748D81
311
062EA0296E5E2D95D7667A4A46D98A6FF475C76AAB0A8C8D45E226FAFC9FE0133EA9F60111F99CA81ACE03A1D14C89E8B0D69079C91464FA1D99E651D0EAF606F345C42A8A1AA9BA391031582B96D5B4176A77AADB01F12FD298A75DEEBB2C82F0B8650E880722F8DDD90C56A7A058E5FDEF1AC93545BA27367C76F5D8F969
311
0CB6F8DAE141EDD7971F0FB548A2AE435F224D6E5954CA155512F7332029D5A1230854B79F258EC5FFDB09F5F6343A8EB193229B7F7E79B3E48F8E183860B38C8269D1B53738FF1E0BACF6AADA6D4869E9DE708E79B5DADCC09B1BC76F649731CFAF59A83FD8BAE4C749D66FA87A3810D4D62FFE826FA400C0F325D2BC0F3C
311
A35F5847B82A2ACC7961745C823E4D863D54460AF792CE6F79B5C7A33B25C3AEA6CDE15A919B6367D781E9D44F61BF828672594A3E1D9EDD6DF179A81F27EAC05B936575D73E05C209DDD2115CFB705DF9BBF3C911589B3640735E9E618FC9C36A7326C82B2205E244C55D56FDB9D5DC93CE958D4BF8174D2B3DA54CB3C09F
311
2C2A6DFF73D23B2197355761AD421EC581284A7EF8DE2CE3497C0C804D49B41DFD6A7360844E5BEFFB495CFCDB97A4595911CDBA623274CE852B5E278AF0BEB1770E9D37CD977B2766A7DED0E94B840E1E95E8C77DE5CB6354AF7871427C28ADBEEF7BA0A28E19DE9ACD75F379FE373EAE6DDDAE3834692F9C2B03B4FCA8FC
311
A9ABE8EEEBEBB725B88A7C90941E850682CA04061A7DF0CE82ED49BFAFFD42C309818FAE14755CAAE78B0F73243ECCCAD7DF58FCB9CDFAE7A4D3E6671A613639130D056C8383C8F4FCF4808C331E544DD26E4755D09EA05253B3049A1E32587CC25D72E073E2CD96D04A71BBCB0038FEC3F53D254199C3CDC67CD666402694
311
31860225392B2CB3ECD0B4498AAE78BA1994246AE1EE78F2EDFB79F6C6CB6B5E279C4D373FBC21CB2698C9ACBBEB6A4BB6B39E16AB0E421CCBFC7654D81ED86022F9BB522146F9F4772E2D0E4FA70120C95A85A417BF5078B232F4754363EB1750B2AC2148EB46B1EA72AD9B4D23ADCBC589D70106C3EC2ABEEED84DFE28E7
311
18C6C83502C28E9FDD3B09DA0A6F6F7B72B706A31C9E2A331EE70DA56A083D2177BFD63C55B11D8D949FAFCF90B23A1E24B9B5018B9A17E99F2890EC302F330FE7936E2C23F0D237EC8916F5166AB84B62A21BB0B950146962D754F92CC2C8877BED8FC7B7B25726DD19545392570B3A2C66B58F027BEF412E552D12A588C4
311
A3CC5C3193FCB3485EFFF700D0B9EEC077754A33DC1FB9E25AF814628F91DDFECB667D3F7690803F38D13F8AE39353523BB08FC6760144AFA2CE28236F65EDBB3D5F59A57D612B99E3D7E5F8A851666BF9B5A6658EFC96EEB37A378ABB0EB3FDDF1303AF32C41BD1C8560745D7BD81066B0D6313359CF488563D3BA3F8E218
311
5D1FAA3EBA1397C9D0E3DD232180A4DCADB6AF25DB3AC3CC26589C8239E66E81547BC7E2F328F9884764CA37EB5DBE390DFC03A5246B456A7C3684C4377D0EEF9A350680FA9A077E8B2957B489E09AB1AD41316944C2254B5984830F691C93CAA767EECF976FA5647538830B5E63236A6F0365C1E0F3E327F24FE35EDDBD73
311
60B0F7374837409F7A6311BECC12B7026D4FA1AE204FA3F5FE904B1F420C7A9044AE58E403E7C4848E7DA25DC9EDAC79DD756FAA26B9EA83ACE8A214A2612A22AFA19DAE7DBAC5F8CDE1292A485F98DAC731A29FE01A3966E96BCB9FB5A4C8830E1B9AF0C54B87FBE221A097036E5D28D1F869F810C06A9BB0AC0612F69AEB
311
AF893C6E7AD59460208BAB3A6B09CA4F6BDDAB8CF0D1F84B72487498395A70DCD754796E271099A567A55CF242BBED64696378BB6CF25EF0FCDB589F3A82F1116D010A9AB9FA4358809EE0C973A2B4229BAA876A70B03AB49CBA7FBE71DB1832FFD32F9BF2C8E98075CACAFB36921235D0F552B6A67E94E094097A5D7DF681
311
B40623DA535ADA7A9AD8E9A62407D7C9A5AE51D62A17A83A23728DE86BB56115804D3F2675F2C6B87541A0FC497BF0CA86420F558C9859EBE9FAD62747E323E3AADC03FDCDDFE7407B09DA90B44E3185723C5381EAEF589765E2F7A099BA46695BAD60CEF3491B8A171F5F56444F7CE9455312C3498C74173AEA0214EC0298
311
33B34B650CBB5A5508D5091665309642791708ECF27CF11DB3D797D6CFE474453BD4BFADB768094B2147814D81C7CBAF8228DCAF5564B5891F5EF6A860EB2E323CB82AB868D8EA048880D63B0DE5341F1B3D53297B928A11E15F25E5148990F710747C3509ED14909C552EBE3973246FCE55D00564D8310BC3EBC5085D08D8
311
06799B77D6C57FDF5E55837F9E934F09C03C729271B64F12D0A9F9E938107CAF7BF1EC8CF1BB9B42363D33070F4CACB425E605DDB0A34A12BB936DE286B9887A4E2E558F0886498BFF49C311D96C277CF6A9FC0D75AD0ECC5226D7E0E3572012E56D7FDE4410CEC7A6D0F997F225A2055B8B92E3956E875AE4993CB3D4C906
311
3AF98FD45E1BAB165640A43439A2C9181A7C355B297C0A0CCFFAE19B6FA3C2BA238A885FBC98B8F6DAF4B94B97304878DF4D8BFF6A4AEDF79E90ED4E68F00CD7299F4E0D83E35601AF0CBEF18C1E870E74758FA91F5131075004DB3CFCF09AE1DABC11957FD9808C92E8A678CE9DBE40DDA0E0D1D505AAFBCBA208232BFB6F
311
B3704E8985E61ADE53DE74152F5C7DE74B1DEDCD37DC3E8FB30D7EBA8B9EFFC3606BF90B8D438279CB7709FC7C00D327F41817EEA71CD9E49FE9C8C9A81C70915D9F0F15958EC5AA4C3BBFAF46986B90F188BDB24B89DE3C6F29EC3E6F66D84856EE96A35E657CA41B41EFD8DBFA16AD6E91439EA92B40B21C053249F51AE5
311
0EB0B24C770FFAF40DF12C8436366819C48E36547D4E7B72FE2BBF10828583057814A668BDF183F6B2E58DFB151103E56303E63D00F39C27C4661605DB644D19175D02E3F0241E8FC3458D17AAAADB117CE9EEA690D0DB01E634878C04C2C9310B69FCAB831151E3AD293BEF6E46B0ABCECB50F5939B39C613D41E81FAE8D3
311
4CAE3C4566B761D37185FE864AC32FCB71AEF39DAA5BAB88609BB980CD2F07A8F941653B529567726E2B2A58D079DD57E1E5E31426CF184A04D7B03B985F276D47406AF276FE32E3328BA866EB1FD39BEF57863A317634AA5FE467409B3873F5069EF0D71AF00AD189D17BA1974ECDB2D623E9E14086386A6AAB5807825C37
311
B015BFE892AFD154920EC437EB945D958E18622E1E0FE2FA06557CE4BB9BBD05A2D40E774DA2B65473791E314B7D6C886820B2FCFE4AA272B3B8B15E7344A145E8AF919B5454D89D36D413E87211186BF6F645E5EC94DCCE8E1C799022E4EC9BC86D7A0F2AFB1FC4B2CE48F84B3F49ECE65BAD24CADCC07EFF39AB06BE9E6B
311
27A059938EA7208838455383DDBCFCD967DDE4650EF92A14FF933C975DB20BD7FEEBC4487576485963D757D16340D9599FEB362F775F38CA4185A86F74B629C81B133644A3B18FD056E997E0734F9BE26D11C0AAFC669E2AC9FC41D281F8B2E1C35AE27BCE05F3DA295488096688719D974DF1B5D182DB7792288697F8763C
311
FB43562C1CDEE11C4AABD5C22B6E33F6F389CFC3477C5919DC0D533F8A7A1846B7ADB60ABDC26C43D0CFC8910B7C15EE22675BD02702ED39DB77A87A192CA7A543E6205B979B9F5A6B512A3CA799E198B2D5797C0AF8D1D872CA455D4D431A7879D4DD76110B5FF7F4176B54477A9EB5E4A5D11214FDA585F0382751D8E258
311
2BA5D2075053298FEB8F1537304E32CB22C2E2B693DC0A760B1DFCA751BDC445AFDCBB12820ED85F6D5298933C7EF1211E9E057684056CDA3FEF3BB6052355E162DF27C59E965A8DDB7F9437EB72CDDA3A090DE65A5B2F50326247B7EC67B73ACC7047FC9B353D6EE990F772207C6EC52B39DC2F3C0754821DAB559F7C1809
311
C7D0DD5B0499D0442E0A6E391B3D5DB46D11E731E6794EC77523FBDAA242ED67F9FA1FB684255671F63C9BCFE6E7E896D51001A6113EF2298BA494E0B0980D1FA5B9D60796554C02256B1E0345FB7C6186B6A19D2DCA270416262845FA4F42DB5D9B0A0B6F07FCA2E56C242522E001E0CEB734AF310FC8BFB57E38E03AACE9
311
3B3326A2197891E68452B26A6307FDABFEE0223D3C03C3C73D2D5BC054C8311F12004CAE488E5C29287F8156A2CAA4AD0D7BE6B97264E4139F437CE73ADF52E5134C52B819777C18B323A5924E4F67AFD13B1CDC3A61793A79FAF5C0CEB718E441071E797C6DCCB9EFCF7E4A1E9F3DF3C2F9C9E8294E9586868788C972857F
311
B0556D7A26941A7EEB9B580AD78EC40B85DC906B4120A563CA3B87797ED612D3B035962BB75F6515A393F4CB057F564CDF54F2E5A024514E6A1F901DB80C7E70B1FC05E356A7E72FABF4775B3E3FB8F70A2A8E7B6A94542BB304157978CCC999E707A29CC795E67A59CC546A5D47B368954CA7B6E75EC9E1F6FC73CE3B4F71
311
F8CB1A6B15923D61EAAEB14626AAA9D04A26EB9C66CD1BE86CA31A5D8703DE04CD1EBCE4F5CCB62F93909AD11E55799A781A956ED27D3E738F4538CB04ADABC7DAEF20BC35BA6A90BCC1DC61BA05F20D8832FFB9BC9B15E2DB838A0AFBB7E0C82A562127E0446894F427794C3037186F622BF24DE1B00AA10A23BFA47B2A18
311
0D6DA5AD6F7326FEB8C100C2D7142EB2A0B2A9D1008A09BA343D70E054AB69E2A7EDB783CBD92537FAF4A44D1296AC2792729104B3276C276C951D0CF3CF3F1E6B017720A7B8505A5FF9589365979678C36F1BAF759EAF57C60F1FF5FE9DCF5F8E764FF25A2D06CF25117A8FED51884C13B2B750DB0E4F5E3D64124FCF11F0
311
AD8F1CC3B3DA4B38ED22BF1CB2585EE6BFEBBA63FBFD44F9537B9B37BDD6B358720F98A8125AED4349CCFEB0E135F19E208A04CA7E2B10711185D72E381F448036EF57C9F874E54A971CA37A639E986AC0226DC5AA00D5B14FEA9192234B3DE617814FC221C92F33F1D392F297731B567FD98FD91D989379AF567A65B8ADF1
311
77591DB90FBEA99BF4ED11B16E50A0AB1DBF1156D034BBE04D69D08F939D8E92BF525A1DDAFF80ECBC95D8F45D3FDD289FD23F7D8B452F8EBB34EC082DEEE68E18EDDF072060FAD2AB1504DD4879BF67099FC58F6E9DEFBF645D16334A3E9A127C6F1AF6132CF287E433B43A0EE93812B4AA0B194E03EE3FF91EF9C6ED0074
311
A2F6EB18A96A7C9890B1FCDA1F2095E944DB911ED54C60DF16FB74C8CE9BDC7C54C4F14078CF73C2FFF1F1BBCCD7CF64F71407EA1683DBC410D226627F66E509060D5C0AFD611DE681D509DB8DD12FB1265B03C6F5C55FF4C30BD94187FF692B4F152982502F193098A789526A038AB529A52BC0DC4FB6285CBAC10A8B8DB7
311
5DCD9BDABBB221E27D1F8DA9F5EE5926A1C8AA9BA9BC09239C6A7F12914EA3B59EFF7AAEC3FFCCE56F1C5C2980AD072793527565E774F4631DB178CEEC691B1F367BEA0CF2907E1D6B854D527065979DDEF002D8B2ACEA7CE21AE297737EDE1D45B31233B73FEA35BCFDD0B09721FDBAF6432681F2FD10C3E9EFB246FD6E85
311
4B344ACC9D8A0EEF876A7314B49B6A499FC650B099D650DBFEC7638ADFD245E2B7839DA5AC5F7D5623FC0ECEEC8653FC9B2BDD1AD4D00A566FBA7186DD3C9CD26512551637498CADB950FEC71ADB9A5524285DE328B8EC7EC75D2345AEC6A27C42AF6D9B92155315C80DBFCABBB7DA0FAE425C4FB896B15C9BFAC4FE67DF5A
311
23D30C93DA4D8F36FB15D100050DA6062E22AEC5F4DAC4F6FEEF97AE05DE63C6D38F9E068A20BC5E3B6BCD75320C5090924E7F93640A7735B1A43451C2D91EE62C6238B797349E59890AF3A520DF4A87095F3ABEC2E61F0593416CE46CDCBE0E00E2523FCCD04408588B5B6C9DB6459C786CE378770B54F51DA3A5E1DF2A33
311
49BEAAC234A6CF8993B598B3B25B4B113E353A4D750FA7534749430F3EBF2512E7EA3FD43C6AB9A1F765A58463B306721A15D224FAFE8C6F5E3432D57EE697DA0DD5A9D4866A8BCCAAA9DFF1F06047851408FEC060471D0E3EB86BFAF46E4B5E60311DC3E3CEA147C75CF971BE74689507154FF2D2E92F15CDB2B9182B1145
311
9FD8ACAC5A85F174BC94A7F4EE4C4F5CAFA7C02E37BF0BC77B7DCD0C047BC316F562A01A441AFA7931CC84A28CB9F4AA367EB515778F29BFE61195FA671F4352E5E46E3A64773F1F76EE5EB36D7BCE9BCEAD837A4D77F8DB8C92AEEF6711920D7C7D0F76B0FD0EB7AB83724CD35BCA7D36DDDF5FBB7FF6F04A91F3E2BB3B8F
311
1A43CD659639507FF6331C5F697BCC782AE57D757A27D97F1AB9E0AEDB43F92F1B2AACDF5FEC8ADBAF9F814E2027003BA2F9E144B1938A7A04050AE5D953B82C45619165C813A10E76DD6906B3C16438064D14CDA713AEC420034613E1AC7241904A49FBF87409AFB1FCB9B72FE7933A87D8FBEDACECE4EDCF6A4FE9FB94D5
311
DEB74FAB7CFEAE17EE965DF980DCCA2D04134994F9A2E94D2265DA4FE6AA7B7AC15FACAC2B5ABBCD7DFF542C5314FDAB2E1B9D8B65220B8E2B638BE008E8DCA22678C820C5053664D15E89F2D735B51A84955E81A443545E9FF787BE0FA700A76D136C27DA179A7C6E8939E01BE756E19CB292798063D8B97F44E8A27BCF3A
311
614FEB8BE974A718E86F7EC99B53CA35FA24F61F2B07266684623A3D4CF073E511F3A10A8FDAFAF0078C577F4DF9D339FE7862E5FA47CF4344209E5BF76D783B1B48E152AD281B15FCB934DCDA49CEC5706B1EE8B460F435324A5CAD154725E21AB8044B75A557A79F6C807B9340AA3D92503E866F4274412926C8C504E4D5
311
EF8C0E68DD0B028781A6B4054F11CF18941F101C57CCC796773ABC8DED9CD91FE5788806C05E548895354AEAC96546D55B0E94A59F148D061F42AA398D822CDECA4CDE79E13469BDCC44FDC990F366BA5978C15F97ED80CBFD73B0CD9B8B83A4F6845BDFBFAF034019473FB9A63BD55D3A4A7284757071574029A4D016DCCB
311
E95DD679EF3C4880BF169422F8C89B68A988D2B13793CAED4F74DE7486C72DC94DF46B8E93D8E02EFCB1FF9B3BA10C8AE7F653DF94F4AF466CDDCEF5776687F7C4C14B63E4EED1719DC2EC482D7DBCC7AE518CDE3D5FF86D39000EC3673C0044E1D308BF05F74D1B5F033A7D1BE7F74BC55BBE3E4A20F920946CA0271EB17B
311
D2B80E5660ACB8A29A79F5E4BBA49D4D945B6EEF4A7EFEAA65E5555BBB57A7E15D2F83C69F30BBB978D2B39F1F26FC097424D39BB33CA3D87ABF64E307938B685BAD44F71556A30B7E712CA4FE600613C3E554B69ADE949A7CFE214DF1FFF05CB82151EC6FC31950239F94CF7AD39DC473F6EA356E5EC2C4EFA04383CEFE98
311
5A127484366FBEE3C0EC4FEA363E4F6632AE781392FD45D67B63FB8DF70E82734F431FD3443172A0E30A83D60982D55FA6A2CF86DBA8382502ACC6CDEF3B907982EED1160E14863FA242F9757347E1544275CCDCF71ECD5F8621CBEA326B8BA884AD7F825781923E66971F04010D574C541D8427A438A37EEF8AF88240EED7
311
362C953F5A81DE2D56109CDE2524EA0F5D2F87308C0C47BD97AD605878AB8589E17CA83930CB5E0DCCD75853D68B1AB136594926DE426C367428E9334AFAFF90ECE221BB5DC9E5BB53D2CDEF954EAA9CD814F0E5725F1965DD458E5F8487683AD86B9D0076BE3EE91EB1CECC5331A67A3F79D8B27587C12EC2A6A70474749F
311
27B4C0BBAFB94B34189E88DC18964BE4121B9137FD516C7755356E50D6714E31ACD222621EBBCD1CFF81D87479056A9DA0E0B8EA19D24CF937DA89F78E8650CCBDC110AAB6C4E46DCBFD0446BA9E2060E81F314AC2031E88135E5476AC0160EF5C0DD2EEF1B8B5CB2D198BE9A554A9093B5F7D7E4B5407DDFCA1D9C152FD97
311
F55BFFFDFE802954DFEC8995B983E28AC92F1971E28F531DC407A1280EB125F64A72E617EFB27DFBCEDCDA2D6F2BDADA36873EE46B9BE1782998C63DA7182BC383FB6FD15DA472B175D7E8B4FC88F38D6E07FEAA3FA3CBB8F6B449ECF14D2175E5C5CCA3A42ABF24CA6C9395AF74535F4DDB38CB84F56614B0FD32D7E19CA5
311
CF988DB4449C40E23DF2B16772594554579094450F56F253CD25EA7F77366FB1CFE79696C428BB64D5A41E986189427E5E4D7E2DAE3D5BB4972B3DC44EAABDDDD63A2264ECFA5C786EB0EE1FDC5BE34FA0F08376869FD1E61EA06CAE15191135445EE8F0394161C3266A596AA035572BB0C8876180D8B9C77D307DF9DCDF73
311
65ABDA6F3A2366436457A4DFC1F259666569A9E4A79C817BDD5610E5200FCE894A358EC72858D50EF67545DA81C6FACE3D457BAF70367E1E6BDD9A952FB4F56247F58F523B97E640246051A72F79BE42FFA0B3187F63097F91C48B868586F714B0EBD5A00A8412C1236E1298F60C72BE6C96B82B404CADAA304AE9F303176B
311
14BA53FBC2D5E86377E35542019E24D97B96A49B2C0E5006E7795954DEAF5DA58958839043C6C70BD3B1B33B6DC5C31316D8A6923F142E26F6711A2258AF977DDF1F970ECC4F1F2B434B96D81BEB6E89BF3BBB3C7C8CC80505070723D6D7D7D3C8CA27CA164A26024FED94B12A86031867241DA53D929636DA600F050BC40C
311
E48B8BA03D69224720DEE2ED2127390BDF5E6EA64527BBD4C4C63FA76BB801FEEC0E61218EC98A8A86CD8313781617877E66692839B9468CF4DB8E50A73986E558E309C0D6F676F921BE02F1185454DC75B111572FF9D27D85EA14C05AD7271225B391C4275659CA4A43759D0BA44639BE4C30A84DB7F67A41399FB95CBF92
311
3B1B1672ABC807C1590557FB18D811983FA97F5E609516D62281D38B1281F68FC75528C35E4CD7DF0F7DBB5E5DD69C414EBEA2F4A5B241B996BA77AE6C772E367408C633EA3E438B68563EA8BE7667F3A4C4FDEEA52ABD78A2820F443B7914A15F180018D231E64519C56A12F6CA7C8DAE18F06F6B769DBF92329EF6A5D18F
311
BCE600F36BD8E8198DE5CDAA96181F3A756EBA5501CEE58F497EA4F418A2B82565B9BCC611713C0B708CCA1F398B78C5F7D03B3437CC18F13061F55C7BEDADD5ACB1DB0E36D3CE47FF6EA1A563A57E9649EA5D14D1A50EAA457463381C073777EF1600607BAF6428A7DDC079D47A204EF1E1F1F0589FB054D45E02CE623B38
311
23C317C601E589E22B1E88B448524B86A82828E32345EC18AE17214B42F8C41C6D428016D9BA31DDCB47572561E5A402E5BA4FCE55F78AF7268524AA04130F3A20BA5D1E9F9948EA48FC8F5314FDB35E21898198060034ACE5E3E2BBCA34092518F275190AF65F45867FF0900AA4B81F25427414C372BF51DC29AA855C5428
311
EE1EEDD6B849AD60F6E73475C2D2523F8A2772C840A478DED18A8C5C91B085F255DC4F54EA7AA8947354FD17ECF8FB3B4A0DE7B483CAF3A1165EE05BBA413E5C1FEF3DE1D6B8F2F3F3251C17D9FCAB48A9AAF63AC773A0E413BBC46A9ADF84A566FC920E4D8C52C9769EE3301CADEEEDD92B312E02E2A7E35B7F1E7D203FE5
311
A7D75578B06E99D0E46FFADB8FDA17ED8880390DA29094202D6F645F76F6F96409CDA05495A96E84B04A00D1A6C6C81D7F3DE9376E828CCF144EE50E364ACCE7237EA0BFB5607ED1AC3CFE73794E5B61739D14DF1743441B1AC98F00ECEDE9E7301FA29755FBEFA68C91EF2B314CF510537EF1ABFC9A762496280B546F5EDA
311
AF8A5B387D469FC9A878A92828C88608453ACEC6094DCA54111E7AD5B2663DFE2DD151B7F123B9F4FEF8EE36AB125FD7AD52A59B1B765B3E3F73E3F73DEA93875004D2AFFE3CDE9493B87A9904DD052028949041A91DC0E1BA47BA714343FD5B25E0A6A09503AFC17C790058A836A324FE31D7893512E28230332F153181C1
311
E018E1124EBE1BA262AA428A518237D1EA7275E48C5C561BD19ED6912EDD8367DA0F31E40EEAE9683DA9257525AEA7B632B97119E17145A90231768A4F3B9120FF32E8319B015E3CBE26F1A754177D8185345817C096B0CE443A955D13AC15E1FB5DEEA0239EC32A3C92241A237B0B02FFCB4F93CF2B02570C8D192E2F2A68
311
CEEB42F12E6F8CEEFF46C251E22B4341C56FB08CCE550E7A9D6F4D6564B9EA52A83D5BF2C6E03FA19D2775E15A8A7ACF30A13C259EE7F5EF2AC3BA354F1500E1A07FC63FB4686E2F12EC69719F9ECF5FE3F35598DF2CE944008CE78F0911BA5BE5D0A34E0098FF038669C26030BA9B300303039852A8F6F496341737CA7E0D
311
2E3AAA36DE0A70AA7D9CA0D54D9AD84B18A44C9E625475E1C97B93BEBB38DCE7D227E67A2D00F531436136355F243D1FC0D712C5765754FA22FCFFAE97919161F46D6E61ACB37D83777B385889770B50765B127768443A5C4D3A4E35A3151111F146B7CA116F918A049F1C272F2CD7976C69A0068773451659A97E0F4A08FE
311
604C3FF6CE7385DB19F4D3ABC8A0D80DA8A42096AC377DB49382B36E270B6FA7570188B4B7D1DDDDA82ACA487CCA5D38BD3BD039ADBAFA4ACFF27809239B722081E2EB9F145320553D183F28471C388BC8814E5045676767AB58A8E72D1CED2CA731379515D2E533E4CF0B39DFC625F97AC4836831A4DE330E87A8126FA17E
311
BE583D614E71E22A8DBF2825599743E0640037303E8E1B1E8EA4E1ABFA4F62907B5E4E0E5DCFDAB417C36C6848A2B8D15F1E505434C0707E16B1CFC2A1C36A42BBF55734F8F4301DDC2A5110CEE8C0747F69519265012A2174BF4E955ECD4FDE095A3ABC70536B7AD0B9D7892F81287D667C108703C9B66A221E9A0929D030
311
008F77FF6F5D2108EF5706FC87A3069B976F7C9FC3239D13D283CDEA83597461079FEEE049B0F392889898B7D87D31F8D60ED7B56B91823A8E4EDDB36C6172ECEE42BD42B12CD67994FA0F0DFAE9389356F4CD4425A4B8AA55CBF7ECD585C6A2C2316791E43D5C06841ADBB226A87FD61515FFBB0167B74E56BD7F3E90A57A
311
97FEDCBDF483A0D6699A8C0849CAEB4947FAA90D8E332D9DEBD9F4738C37DA0CAF9CF3DAA68BCB67C420459C7A64498D6E848E5CADE92BB6901F607AA331104A67F7CD650EE169B1DAE94D2C31C2F993632259B6957E246EFE4C5481107B07118607700040E5812A2A2A38DA0076875258C753F60E0F2662C748EDD5F3F368
311
6B8FC3BD6FE631ECCAA1E8B1C1E565AD117E54893E79F4672E32F9E46B2A183DFDCF3EECB4D4D077DBEA0DA254D256045109670050129E9B9B1A9E4A11344D61497A992778095151510C4BB7EF2009B63AA4360635312E4CF668B7E0D3D85A8688E2BD83B569439892ADB63461930D428E0DE42E4AC57CE48DA5CC1449530D
311
8BD3D6A0F08DF20C8E8F570F2CFFFCEA286E30969B4654D498A58D9DA782E19FE3F002181838925592C4A1EF0B332D88B61A92C644547BED490D3A42CFFAB70E36D961F694F6307F72FF15A1C79D5B1B5CEFD353D9E2B52566DEC8F8F09CB3E8359C0F68EBBB7898243E34E12A015B2685AB303C04D3A9E00671FF3DFF0A18
311
4E4A2ABEB2B666AF5B3A209C73D8EF29DCDB069C9F391EEE9DD0F74C7BCDE16F8F02E3B8816122BBEB50665775B600549D8BB33A54A6BF940C028118BC6878C79958D6784F9DEAA6E26748386FFAF8D0D0101E2847B6563F5D8DC1D78F787BE00E2C941AE12148D4A81599FE8F68D4DA5CDED75530ADE138240300EE13B0FC
311
13A1687FED6774662C05A2B7DFB186732F0D7A93545D8B0A6390AE5054D9CB582DA846D7A061B3358B45E2B52DDE63E114397EDB7E09233A579155D795BE76102CF277F4DF8B188C4F2879BEAE3C08347124BF9ED23B128259FE107D31E34A652F090B30B39E0D9AF917B76A2806135621A8A60681F16AF216514BBD027115
311
85B5B1AE823F4B2D0369EA5B6BCB863072727FFC871CA6C9AB79A814D989057E9470A3D238BC87CBB4A0EA49AFE2B86F22E499793CAA9047080450166BDC357524561E258C77CB697F1ABB32562CF87C3B7AA12F911EF19FB3E5C02222E887D08202A60A17151F5E053A86B437771088B4FEE14D652C43E8D939995D34545E
311
12E2FF93D4E366EAD25F10CB7DED141563C3D0C447AF06078A91135FD4B9611583CB4BF3BD167F2399CEAB0E0100F8FFC305F00F1711717173138B4B48C83022295DE657EFEDD97F238ECA80F528AFB4F8D67AD4E2594B9A3AA86D7487EFC313BA95745C186F0CDD84CC12DC9CB0424B42203D351FD9C0A3AF10CC7F388E03
311
29279087386421F194F4A29464C1DEF7EF8BE515E4A199DCD5B909342598D8FE6A231F71336248D5CEC5454455C7BE383B3BC7B260FED27F703FDC39A170F3827239102F59D4DEE7FEF82EAA1A5E4BA94DCC4CC44E7E2EDE20F24244E4454369D2E87C3F823F193FD4FD27E1C23984B01898D15ABC20711A8A558054951A6A
311
E280096BA36CBA439603B7B0B4C45F248C14B2383B4B5CD8ECECE4FF859AD4A6CA2326D020EF090F4041D28DB66E5256B56232CC52829DE8060BAE6BBF37D4B7469B822454FE93210A3E8D15E69FFCF01123222611C51C4FD0A041A0CFA2471CF6BE38D2B20FA4C3525B5B8B586759475CF80ADFE67A284AC24651E52B8E68
311
3D24C2622642F27E7C3C22783BCF63648BC398BD6CD0D9C97E7E7E3EACB6126DB7A6C1FD9F1031302EE67ED96F22B77C7CA0239BB324207559B105E4693EB26EC46182A92C9C0DBD24F29B31C5C5AC1F84300E0E17CEEAC15F5736FA4A98971E2F1423BFCD68D4BBD5F86E74B40A369F39507C88FCDB35D2DD8DEBEA4AF999
311
E23CF2816D204200DF6E611781B9884C1AC8888B4DE397320472959434323A5A36B22A8E1F721A270DF3BD65E4A31C11FF048AFB0D8B7B6881423793963A23CFCE935FC189ED36FAE35C46DA3574C979E4394BE52084F3081837BE033396D2EBD80F1F691B273F660D2B32FA27A33B1DE4ADA5F0FA4651511102DFA410DDA8
311
6E065272CA314D5249DF91B06BB92807B28EFD54F08F7B525252782CD276DD02E6B0319B13DF87B1F6361AD6B28FC0D711CF445429B9E5A433CD493051C49A9E03DDB1B147D880253514A5DED88009018620EE229101C041950E2D8AA8E1F5F5438E0C0C0C60EEDEE9E3E0C051948C69F84BB7B2A48A1F3C8EB9E6864687F4
311
F4F6F6E2FA87608ADAF9C5E117B7C1A737E710769DA1D15ECE6A84502AA855398712D5FB51BE92E4EF824969CE18278798AC303C2C7980DD2500ADF8FB1E6D6C2FAAFF9987178923334A244758BAA01A9A1B70FA5097D01E1CC2A58DAD0EC94CE6430AA9B0C10D75E3C6BAC670EFBADEE1607739CE0FC18A2587E3EC305856
311
2014C64219C69BC269082D5C2F4A659278D585755912176D78A1B641719C2A394CED495A1AC5D583FD2F5EDD93308EA7EAE8A6DD396598BDBD3D4CFED62D18A5BDFDE0DD5C80D1A89BA62697B131AE7CE9A6594138582F1B37D68F1749AC7CB67A70695D48A4A056AC1FBD4E82358CEAE38F54B95A9016F9000F9879C0D9D1
311
31768635CA798895F27D6F1614F11F2838A83611AA51C9A3DDB539D42979C29F10465655C17BEC3E2760B80DCBF609198C7B171A531905F3EC218D696025975E986C6B4C666666787271F202805577DD5A3EF0CAFAF91B62DC4B2DB4217A7606282F31D8DDBC290593BAA93EA6353AFA9939B877978481E15CFC9F2755CDC0
311
0C538F63A4BA3E80AE009B73CA0185687D339A507D165B74290D6EE46D5C58148F020C3668ABE9EF2F7549170DC80DB41FFC1D678FF19AEB10C7133832B104B80F691B3138F97A92D26E551F1F110400D45AC71A9B9AC41A1A1B1DAEED0B0810638EFFB511D46B121C6FEA0F38CD00E03CFFEB9713FE1F9C263E4DDEC160D0
311
497FA9A132BA608584057FB15380825DE6C7FC3C667EE947D488A09898D8E939C4953BF4EC9836344D2CC6B2971B2A21A572B06096F4982D2CC7232D46E8EA69DC83722E267754D777F97F96D5DA74E1E75178084D0E70F12AD33E5F71EF2AFA599B2BEBF60A5BE475F444F240CBFE8143C334E7ED9150FEEFEF7EB020C4DB
311
ED388DD1D6A167A76F3CBF119B578AE8CFA7736ACAFA4440A1C47185638A0D2F3EB5BDDEFDA958FB13CE4AA4923D5BF840392D45544329525749734866684BF7F8D9D54D892E19BCA9F829A0F8BFCBEEA6CFDFC61D74EA1A645ED7A1FF241739F15694BD835B66FEC5677E40FE69BD3F91AE402F036537218A401CB0828604
311
AD189E575015C6F3F6BBC8AC79CF6C70653847254B31551EFCBEB5978B9DB85D58D0FA41A9DFE9C624834AA04949D24B5AE6D299E072D152D12097920F14AA92C31C3B97E28B6C2E6E9C23D63043ECBBC0A60FDF5BD0C33C127EA8A3308B8B6AFFEB28B4455BF6E7AF4FC6222728357EB8E46E85053E6A8843AB23295BF838
311
ABDA94658FEF3F832F147046B4ACD6F7D48E8FCC9618582961C898D1C7A253C91BFECBDA6BA18A1FCF70755DCCEE2222F41B76D23CA98D0CB3D95F0CF66D57FFF65E2A90F5DF40FC3187621E981BD0BC1D992787212688976B94A8F0C6EF646624B570B78E068826F87CE27041A95C9A4871FF65CC17FCB1639629AD6A9517
311
000D63AC231F3D741CB8430777E7ECF80CE7A3F73C0F162F7E56AA71F4DA80A33CD6ACEE78E2C11FAC03DAFCE929B106F8F6B3ED2DC71FF994BD9CEF4E9A94896EF1B6E2B7B4978168BCF0847A3D2A4F1B0500B926E634B174548E9FBAD27153FB5FC36799B1E6C7C38A94E1F9E996796D7B485E635D5287A2AE76FBD11A34
311
1DB3F8F810385BB7296391973DC6C37C452A9305AEBBE0CDB6C566DB59FE60C8E94B1FD090354BF51439FFD1B48D725228FFA88C84F686F547107A7A235665A4593B7C34D748C1AC8D56DD5DA861EEFBADDECBBD65117E65851F90351AEB65F0EFCFF4BCFEF24CB7A5879699FAC437A7AF9099186CF006BB923A59E37D7A36
311
A29FD8D2CBB914A5E9D0A8FD212FBF796AE9A67958FF1D5D8B85F78F96219D4714EB919929241B6C018AAE0C02069F8D919961EC5DDFBFB7573E3AC8E08BFB7C8534BE6DE045B3CD63DBD71F7638BA2309CAE398EA3A7D8F98BBBC7AEB367EFA5CFA27A9F8F2F52FE878058E6209C026453F8E7E8A237DFC389E9590F6059B
311
397CFD65183BBF936E86896612A5B5FEE49DAC8455D026218AFEBEC12B3523A45B57B82C9C97E02ACFA1184DB18E48CF615DBF39C3CC6F0B4AE6BBEEA2E39D944E290302FA3DE33FA7E40296E2EF7BF1CD855BBECFAD0FD622BEE9746FC4FDFDE545AE6E3BC234CADF83A0FB76DFB145BF3828AE3436368AC24989454F8FF7
311
0A177672C711CAA1A76107218CF948CA01F873520E7A2B118EBB161ABAD432932029628B6761590C98AB590C8C8C79798CE9F715BA696E839E9131A4BB68BE923F1747FBFF165331FFDD4D05997ACD168F12CA75348DAC04C7F509FE83898A8B421181AF492861CE81E4A2DD0A30850CFA95E05F097FF70F9E777310D584A7
311
5BA7018922E271DAB1D785671157685B7D383D3E074DDB4F1E44EF04B07BAAC75A062077C54B9752C738C9D804D402E02851F3F89605AF189738C18C021D2139EAF72513824E10DDD3047BACC8521ED7E98B257D1166903B1B08FA6F918FD7E162913FEC7D0EF4787E29C35FBA8C6E2C9C20E9AB30AE42CA2A01A090E7D010
311
C1B5BF9CEE2A304BF3A987FB40D836979B79E18D70F257DA61E808472DD85B82761825779D6B90CAEB0F23360C6F80A7D7D77545E95B3DFF0CF96A827F9B5BCECD2C9698718417EF80FEEDEE938AFF55859D0D540B7FE09435583A6F04874A0C7E8CF234DF4879722000167F5872CEC6BF3EF7E5A8CC8121E6A359227C8A29
311
C95212F9F735BC72A887D56B8F309FC525BFB4FD767AAEC4AEFF249CFBBD2DE1AB9969A6155C7D8DABC307E47324C1F916C7BCFF40ABA5644E9FFB9238D19ADADA49D9610F01ABBA57E4DFCBDCCBB2B93C8953206C91DE01B0E2651A6D6C31721915B31F7B7CBCE55466F6D70402788FA91D73BE4ADCBA99A35F17D6B83383
311
704917D6833F0FA3CD45C926ADB8BC17999A4A0AFBCE2541F7B8CF4C2F5FBA611B3E626D64407CB32C122DFF4EF8674D6EDBB86C8F7C6A16D50FA685E2CCA34F8F7D1D8265BB0042E9D7F1F666F7BE5FAA5184DF58E12122A42EF02F461B3F369AC746F96528AD208512AB56844CF75B97F352DF7995024FB02855385854F3
311
798670D01CAC771AC3E1889EC25F61A20C1F8CAB46898817F9C47E2CDA1F286BF2F358298709FE567C91133E2638C8B53975E753EA8BFD3578B5F7186B7BF084EBA3F77BAC3132A5779902EC22AF2D2E79F42D324E083386DAEE9810D1B44A5DAA54513C7A71E52A4AB9257D975B621308FE4D2141CC3DCFE946C154A3C1DF
311
CCA7629EC69ACFA831634ADDA93C0388D2A9A2DDAFCF957C6995BCE7FBB6DC4EBAE79E63EB08E9A25F52F67076F7093CA545CA3053B5BF576DEAD4E0017143C5F759F32B2D6F145B52B67B48909B7C7FCA6586EE385A2189C16932CB6DDFD9152AE317C430492A578ED27B72D85D40C7C93C097939E1B50F4D67F05334FE9D
311
C362C30B7FF561B95259138ECFD9274C8D695C31B14D4EAA9F3D7FA8DDF652F8C5DEFA23284C799B7D94416DEE81E05A866302DC70192A5368EA65E1CED8BF107A1E2D3119A71E85DC1A7B0C1E93274CE04DD0F2ABC8AC7C987FDB002B6F81757B43502EF7A0D92E416494FAEEA4C9C090CD9557AA4D532F4996A272B94355
311
C5A0E4974EEA9627476F30809B94D8D8D860062E02204643BEC7D0438AF800FC7E2B26955D595421E83C69E1A07E0E3122285835F014AD538188CF9737CE76D464A353FA55A001AB2526B84E985083693BC76FE211CA1D000679C889E3C009832C87E1AC2EDD05C302557422DF0800E316FCAC86978A371F025A6C7DAA9F33
311
3E7BD160403A1A06EA75AA9888FF01504B0304140006080800DC8C8D5028BB58AF800100009E0500003D00000031324530363432412D393546432D344442422D413531352D4441383138303136324646462F536368656D61732F436F6D6D6F6E536368656D612E786D6CBD544D4FC23018BEFB2B96DE15493C78601010A34B
311
880709DEDFB52FD0D8B54BD70DF6EFED3AC0B12E6442E2716BFB3CEFF3D18E26FB440405EA8C2B1992E1C323095052C5B8DC842437EBFB673219DF8DA659866649B798C078B48AE6410122242F2A4994AC7F93815DF85C049C8564CA0A901499DD886B2EB9B1E02448F358701A9235880C49A0119892A20C89D1B9FD768815
311
CAD268CB5E0355B40B1E47F3E37A2020464BED06AA57CE8FCC20C3C3446D46761A2632A8C1283D07031EFF2AE7CCB1BFEEE916E406DFAC8E36FFD99A9D60A6944090EEDC3B670C7DC13DE86B6B2C5C240D6E503BB85ACD579D513F1B9F9A69DC9CC22AFA80C426D40AF0B21EA168559156B6276F0F726A6BFF04DCD513A87A
311
62CAD41FB24FCB2858B3952E3D852084DA25B9303C15687973CC8E8AAE11DF2836C38C6A9E765E8C1BA1BFB1DC29CDFE518C8B5A7655A4ED7E77291ABEB80DBD82EC866ADE1B8D05AF9E35CF09D7A061F38A986D9EC412B8F0F65E5D81534D9B231D1E5A8FE577A241F3A5FD01504B0304140006080800DC8C8D50670136AD
311
A9040000B41400003E00000031324530363432412D393546432D344442422D413531352D4441383138303136324646462F536368656D61732F47656E65726963536368656D612E786D6CDD586D6FE3360CFEBE5F21F87BD3245B0E2D90F4905CD12E1F8A0CCDF5BE0A8AAC24DAE417C872DAECD78FD48BE3D44EE3B5C3E16E
311
010EE75A34C5877C48911A7F7E4914D9095DC82C9D44835E3F2222E5592CD3CD242ACDFAE22AFA7CF3CB785A14C22CF95624EC66FC34BF253BA626D1BD488596DCBD8F2E6FC6335608B7F428D258E807664080A98384D9E75E22F16B2CCF05D32CE502359492C878124DE31DBE89612BB196A934605E44F272A5249F446BA6
311
0A11112D589CA56A3F898C2EE16F6B136C595C7AC3C2FF076D3D808BDBC824572211A961A8D96E393F7AF5806BEA91EDDFB1ABFB769EB08DE8BCDFE27EF98E9DE0ABCE3BFCA1C54E8AE777ECE2BFFC92A94C87EDE6A9111BA1ADE75C74BF391275D33FAAC5FABF89F1D33C9836CB3225980B2A479BE96A4FB3D59F821BCF11
311
CF1FC55602586C7191D99E2C9C0CF2B8A662E3484E59466361985485D7E248E7953C01F19DA23B9D256461B6E09C40FF02D1DEA98C19EBAFBA4659184B7D47DEDF22E2F53DB017721B164F5B845961697F0C699AAC2410982C385725A6361A500F59CD848221F103A8C1A7CA84A55F407794695C905C688E69B111550ACA94
311
6B9B4785FC1BDE0E229240B62665328986D5B32C400CEDD88188F35AC25EBCD40836F47F35E5C0EA4B6F767B50568CFFB5665C505E2AD5EA8A9997205F50A2350EAB32C9294B0024108429953DF32C4D812E226658F78A490408362A94987E6F787DFCBBBABAAEDC36758ADEE9B58B41BF0F35D87BB1E991E02BF0B513748E
311
6C0AA2EB2CE56EC68E97585643D82DE284E51DE03E4E22B00738761F1E66E1616A03EE093B0327B6BB9797262B0DCD72C6A5817ADAC1C3C0A3909CF6639B404D18B15CAF4B3C09CEAA4414BD5F0723F059ED37048E7A64271711EDC9C5230F58FBDA5DE00DA512CF04BA6671A0D201A83D2EC81D2EB552C7E5CD1BF9D69135
311
67B2CD53A659AC362A2B200B440195E2ACBBD167A32A86F7874F7F00686DB55D163481DADE5E417E979BAD827FC6B2B0AD8A6AB1567038E466EB4B10C4C2F3F71196A09260938125FDAB8662456EAD68AB2F7C1DFF709C874887B76A4355564F017256531BF73D7D754A40E23401DA38EFC907CF8D8E3C1E5E7505D8E432C6
311
0BE1EDA01E5166683F169B6EAC6EC046153F66C2BE0679FD3F407982ABFA28F92E0E457501938D96B12090869079360D3F947CA8BBC3D9FCE1ECF3C676C9BE80EB67CABE004FC290F8E26BE6A0371AD6CE66781C408A1FAA8CFFA63DD93A94CD5E1F3BA6A3DFB05B34E1247BB3949E3C332105035203136EA14AE89FF99E3E
311
0B3C4EFE65C581A3A3D2D0EE84EFDB22B49DA31A07059E69B81628A8ED1228B63E42C3D840C3C01F460D1F331FE199821B03F22CCDB6DBF074B49566B12C3B3626074EA1B130B4596BDBFBB642A835954A9509E5769234228129889952870EEE13F494954AD7A27EAD09411BDEEC5B6B6AD752C11509F826EF4007E86281B1
311
AE63750FD09DBA87A34EF4CE2A75F3E85960004EA6B519F4806609E8C91CD18380BD81691D9F2CB5730631E6DDBAFBC30E96D3E1D3D67EE8FB72BAD92AD4C1FD3CEDFBD2681858ED6583CA3853294B80AF67AECFAC6418D08164D5FD1E52E8B546BCC77B87C6E9D1655FFD384FB26A28AADD82E04B9C64EBF78FFF00504B03
311
04140006080800DC8C8D508DFFFC99640100009B0300004500000031324530363432412D393546432D344442422D413531352D4441383138303136324646462F536368656D61732F52656E6465724D6174657269616C536368656D612E786D6CA5535D6BC230147DDFAF08799F5FDB600FADA20EA430D968A7AF12D36B1B48
311
1349529DFF7EF9A85A718860DFDA73EFB987734EA3D16FC5D10E946652C4B8DFE9610482CA9C8922C6B5D93CBFE3D1F0291A6B0D26A3255464182D920FB4233CC629881CD49C18508CF000E3EE309A100D61622AAB4A8A33B2483F11CB639C545B0E1508438C3D3C0361192846DB7ACD198DF186700D182920B914FC1063A3
311
6AFBEE8FBA03FFD3CC1D1F4FC9E151A2AF59F628C5B7821D83FDFD3489305080F2EE04BF962195FB285E9D2DD352320A9E827AE357594914E42B1F5FE35F83688F60C4C91A6C946ED0668E8F244BC2EB0BA6E3BCCFC0B6A4B507F9F9F8D51EB315D9BA9E08D308E89F96931666E577837E2B4172199C68C4FE306156D47DF5
311
1C698C7B9D97FE5BEFE2190C3C38BB054E6E8163FB039CB4B993C80BF18D969203116D6BBD26238B821F9BB909AD6D9C71B85BCD8C33D66FEA3D31B4BC0AD45BEA46BBEDDFEC0F504B0304140006080800DC8C8D50E165CDC251000000570000004700000031324530363432412D393546432D344442422D413531352D4441
311
383138303136324646462F4173736574446174612F41737365745461626C654F66436F6E74656E74732E62696E536160607075317034337576D675B67472D535717471D275343371D53530303335303635717575361502AACB4D2C492DCA4CCC492C28484D2C4ACC4B4E050A82012F90744FCD03CA26072767A4E626020050
311
4B0304140006080800DC8C8D50C55C663656000000680000004500000031324530363432412D393546432D344442422D413531352D4441383138303136324646462F4173736574446174612F53747265616D56657273696F6E5461626C652E696E665D8CBD0A80300C06F73E4B29FE6CDD8A2E82A083B8B7F209014925C9FB
311
A3AEAEC7DD2555D896CB85E51C2A1BD834F6A1F56EC4494C4695278364ABB24ABD2146F88CCEBB89D5321FF8F3F43D672A3B44DF3CB6A1710F504B0304140006080800DC8C8D504F8A9ADF38010000A20400003600000031324530363432412D393546432D344442422D413531352D4441383138303136324646462F417373
311
6574446174612F636E782E786D6CCD94314FC3301085FF4A64893176D2825A558E2B044B2790A818D8AECEA55875ECC8BE20F8F7D86D0650115387AEA7EFEE9E9FFC4EAE3F7B5B7C6088C6BB86D5BC62053AED5BE3F60D1BA92B97AC582B19BCA71F182B1CF4D8B05C664AEE831F87A9D46207A3CD556BDC612ADEC788B485
311
9DC5A7EEC13B42479115DA428C0D8BFA1D7BE030926F311E780B04BCE601A31F83C634894C8FD3241D10085BA666D5AC2AABDBB29E6FEBC56ABE5CDD2DDEA4C8A4923BEFEDC49BB42CF8E16656E9D35EA62A2932A0E418CC44E5D730F5974ABE334E8A442A19292457A60EFA1A52070C83351A289927BC26A4324108BD1427
311
5849915DF8E5C52376C699DCB249D2807C784E023190C12BF4E43FB597F766E32281D378CD8E9C6BBCBC0F2FC75FF47A8AE53137D79796738DDCB8EE025911C77392A293AF8BFA06504B0304140006080800DC8C8D505D89378BE8000000600100006700000031324530363432412D393546432D344442422D413531352D44
311
41383138303136324646462F5265736F75726365732F45443041363543432D433942452D344144422D413634452D3030363530333534454543352F7468756D626E61696C2F302F636E782E786D6C4D90C16E03210C447F6585D4E32E6CD22A51E4253FD1532F15659D2D0A8B1198AAFDFB42CB21A7B1C64F9667E0FABDFBE1
311
0B53761416314F4A0C182CAD2E6C8B287C1BCF62B86A4844FC808921981D17D16CA1614B5462B756BC99E29BEB5DB87773C380C9D9F7183631586F725E44B69FB89BC914A615F37D5A0D9B699E12662AC9623DC06EC77EC026348CABD0077550A37A1EE7E3EB7CBA1CCF9797D31BC8466AF820F29D778131517C3A284B750C
311
F51F05B2011A4A729D6A21847E780E645D6AC89C6AFE0EF14FAC9089D13B6BB8D624C932F25821343BC87F58836C79ABFC9551B575A37F01504B0304140006080800DC8C8D50A233C2345D000000800000006500000031324530363432412D393546432D344442422D413531352D4441383138303136324646462F5265736F
311
75726365732F45443041363543432D433942452D344144422D413634452D3030363530333534454543352F7468756D626E61696C2F636E782E786D6C4D8B490E80201004BF42E6EE76F3C0F216234B883063108CCF170C074F95AE5473F5C4C06E932E4F28601967600677D21E9D8092EDB002539227A2FCCB80E1168D80A6
311
417297A89C5D6963B7129A0D1E8F2EE73AA7B62BBEB8B27DE50B504B0304140006080800DC8C8D50BE89762363000000880000005B00000031324530363432412D393546432D344442422D413531352D4441383138303136324646462F5265736F75726365732F45443041363543432D433942452D344144422D413634452D
311
3030363530333534454543352F636E782E786D6C4DCC3B0E80201004D0AB90EDFD75167CCE820A4A845D83603CBE602CAC26799919AEEEE0D965E2E908050C6D0FCCE04C8BC355404EB6198129C92351FAD580A10E464065907C8D948F8F166375F655BDC3FDC3B4E530A176BE7057BDC43B2A593FE403504B030414000608
311
0800DC8C8D50474FC6D57D000000A30000003600000031324530363432412D393546432D344442422D413531352D4441383138303136324646462F5265736F75726365732F636E782E786D6C4D8CD10AC22018465F45FE7BCB48A5401DCEF920A3B921391D36A3C74F63175D7D70F8CE11DD670DE8EDF2CBA728E17222805C
311
7CA4C9C74542D9677C03D4299153DAFF6E80E2B83A090D83124B4E653BD0E4E6B18446838FCF03DA8168CE8CC1E6DE5B4CF5D063CDA9C5847046AE8C5A6B5835CE4DA9F3EBD56D79F505504B0304140006080800DC8C8D50877420030B010000550300003400000031324530363432412D393546432D344442422D41353135
311
2D4441383138303136324646462F536368656D61732F636E782E786D6CCD93414F03211085FFCA86C4E302BBD5B469587AF0E0C98B7AF28630ADA4C06C8035FAEF85CAA14DBCE9A13778F93279EFC188DDA777DD07C464314C64A09C7410341A1B0E1359F2BEDF906E274544CC6718E982F230912A13290E1197B94906F66A
311
715575361C9B788FDE6378D6EFE015E9B453294D249DAE542D190DA423352A2B3AD0080997A8A14CC8D6439BA023A80C86C8918FBCE7B7FDB07A19D6DBD5667BB77E15AC9252BC21BAC6DB9021E27C33728DE5188A212E5805A458A26D544D41E4B93B5AFA10AC1052A41C4B0B8DCC5F7321D53C3BAB552E65B113F8C348C1
311
6AD88BC80F10205A7DAD992FECFD5BE8270806E26379A96895BBD6ECBFB9FC5B05ECB401E51BD48590DF504B0304140006080800DC8C8D50E3603EBE7A000000C20000002C00000031324530363432412D393546432D344442422D413531352D4441383138303136324646462F636E782E786D6C6DCD410EC2201085E1AB90
311
D9DBEACE05D09878023D01A1D34A8419C380F1F82DA68B9AB8FDFEC93C3D7C52546FCC12980C9CBA232824CF63A0D9402DD3E10C6AB03A3397DD192872090D3406ABE7CCF5B5D18893ABB1690CF4DCF02282E5EA8A5BB96FFE536F285CB347F95BEFFE81C9ED5AFF9D5B1FB575BB00504B0304140006080800DC8C8D5043C4
311
40F07E000000A300000007000000636E782E786D6C4D8CD10AC22018465F45FE7B4B650E0375B896EF319A1BD2A661337AFC3476D1D50787EF1CD97DB615BD5D7AF91814D01301E4C23D4E3E2C0AF23E6301A8D332C5B8FFDD008571730A2A062D9714F3F340939BC7BC56BAFAF038206537D236CCE00BB757DC0C7D8F0DA7
311
1C0F46504168CBACB5C53857A5CCAF57B6E6F517504B0304140006080800DC8C8D50CA1DF9C9A900000073010000130000005B436F6E74656E745F54797065735D2E786D6CA590410EC2300C04BF12E5DEBA70400835E500FC800F84E0B411AD13252E2ABF27A55740421CEDDDD9B55CEFA7A117778CC97952725556522019
311
7F75D42A39B22DB652EC9BFAFC089844F65252B2630E3B80643A1C742A7D40CA8AF571D09CC7D842D0E6A65B8475556DC07862242E78CE904D7D44ABC79EC569CAEBA537E3521C16DF5CA5A40EA17746733E0B6615DE7217475F386F18B9481C510F1F021CD9FF027EA0E1F5C4E609504B0304140006080800DC8C8D503DEE
311
336E64000000790000001B0000006175746F6465736B2D64657369676E2D7061636B6167652E786D6C35CBC10E83200C00D05F21DCA56CA76D41FC96062B120735B69A7DBE268BB7777961F8D5AF396893C2ADB70FE7ADA196782C2DF776D7A97B5933C430F15651E5469C55D70F80A4992A3ADC954792C525AE70A1E4D6AD
311
9816CC044FEFDF01FE3FDE907802504B0304140006080800DC8C8D501228B4FEFA000000960100003700000031324530363432412D393546432D344442422D413531352D4441383138303136324646462F4173736574446174612F636F72652E786D6C8550CB6E833010FC15B47703E61148641C9142BEA0A7DE2CDB215682
311
8DB05DF5F36B072AB5A79E76353B33BB3BE4FC353F934FB95A65740738CD21919A1BA1F4D4817737D44272A66435C6FDA241A2D92C3B88305032ADC62F3BC48D765247541B217790592B1D24FC199A0E2CBFCB99A5CCBBC0B08F7461FCC12699E274E351E2BD12BB5489E0A66E4AAE40C7433F56477C40C7FA8251555E1BD4
311
17ED05E1B7BAB80E7D3F0E4549B228A6C4A9F9673B5F257352002DF22247798570F98E9B53D99EEAE68364914989756BF8795F1ABF03DAC7AB07E618C9B6E91F57BF88FF5DBDD2AE2C76D74D6181E270E46B404916530AE51561A83151FA0D504B0304140006080800DC8C8D50B26B5F4FF50000008E010000680000003132
311
4530363432412D393546432D344442422D413531352D4441383138303136324646462F5265736F75726365732F45443041363543432D433942452D344144422D413634452D3030363530333534454543352F7468756D626E61696C2F302F636F72652E786D6C8550CB6E833010FC15B47703361092C838220DF9829E7AB38C
311
43AC041BF951F5F36B072AB5A79E76353B33BB3BF4F4353FB34F699D32BA039C9790492DCCA8F4D441F037B487ECC4A835C6FFA241A6F92C3B4830303A5913960D12467BA913AACD2837903B273D64E2199B0E9CB8CB99E73CF8C8708F7CE1E2C12799E37CE5311A821A37A91AA39BBA2969810DBB7EA80F78870ECD19A3BA
311
BAB6A827FB33C26F0DB95EFA7EB8908A1649CCA857F3CF766125F77204464A52A2B246B87AC7EDB1DA1F9BF6831689C9A8F336FEBC2D4DDF012B69B1A27FDCC232FEEF1694F615D9DC56850386E371AF01A3454A27965774B1A624D937504B0304140006080800DC8C8D5072E685FCFB000000960100006600000031324530
311
363432412D393546432D344442422D413531352D4441383138303136324646462F5265736F75726365732F45443041363543432D433942452D344144422D413634452D3030363530333534454543352F7468756D626E61696C2F636F72652E786D6C8550416E833010FC0ADABB011B0849641C9184BCA0A7DE5CE3102B6023
311
6C577D7EED40A5F6D4D3AE66676677879EBEA631F9948B55463780D31C12A985E9951E1AF0EE8EF6909C185D8C71BF6890683EC906220C8C0E8BF1F30609A39DD411D5A6971BC8AD950E123186A6012B1E72E229F72E30EC339DB978F241A6385D798C7AAFFA4DAAFAE0A6EE4A2EC0BA5DDB9507BC4387EA8C5159DC6AD492
311
FD19E14B456ED7B6EDAEA4A0591433EAD4F4B35D2C923BD9032339C9515E225CBCE1FA58EC8F55FD4EB3C864D4BA25FCBC2D8DDF01730F3F7D68AE469AADD33FAE7EEEFF77F54ABB826CAEABC202C3E1C8D780D12CA614CA2BC25063A2EC1B504B0304140006080800DC8C8D503C09EC7B0E010000B10100005C0000003132
311
4530363432412D393546432D344442422D413531352D4441383138303136324646462F5265736F75726365732F45443041363543432D433942452D344144422D413634452D3030363530333534454543352F636F72652E786D6C8590D16E832018855FC5708F828AB60DD2A0D227D8D5EE88D28EB44223B0ECF107D525DBD5
311
AE7E7238878FFFD0F3D7F2C83ED5EAB4351DC039029932939DB5B97520F82B3C80ECCCE86AADFF650399918BEA409201A3B7D586E72E4DD67865926AECAC76513AA73CC8A6473C74C04D1F6A91B90C3E3ADC3D7FCAE92E6F2AC7F9E66334043DEF513DC7D7F455AB1530D170511F71038FA4C7B0AE2E2DE4E5A1877820E565
311
E45C8C65458B1466D4EBE5873EAD4A7A350356A2124154435CBDE1F6541D4EA47DA7457232EAFC1A77DEA169BB881B116FC830C0E1D80B58F3B187BCA90544A821A822B51003A1C516FC030CCFF97F60D0C657E50EDC120E301CFFFFBA60B44805C6F16A37CE5436FB06504B0304140006080800DC8C8D508674D3A3FB0000
311
00960100003700000031324530363432412D393546432D344442422D413531352D4441383138303136324646462F5265736F75726365732F636F72652E786D6C8550496EC3300CFC8AC1BB6CCB8EB34156E034C9038A9E7A1324C615124B8196A2CFAF14BB407BEA89C47066480E3B7C4DF7E2139DD7D6F440CB1A0A34D22A
311
6DC61E62B8922D1407CE9CB5E1170D0A2326EC21C3C0D9E86C7C2C90B426A0C9A8B10A1750788F010A794F4D0F5E7EE0244A114362F85BF910F226462C6939F3388B51AB45AA5572D3578D0EF8793D9C573BBA26BBEE48C9AABD6CC8D06C8F84BE74CDE5340CE753D3B22A8B390B7AFAD92E1D8A800A78533735A95784B66F
311
74B36FB7FB6EF3CEAACCE4CC07977E5E96E6EF80BFA2B7D149F4AC9AA77F5CE343FDEF1AB5096DB3B8CE0A0F9CA6239F03CEAA9C522ACF0853CD89F26F504B0304140006080800DC8C8D50A71C1F1CF9000000940100003500000031324530363432412D393546432D344442422D413531352D444138313830313632464646
311
2F536368656D61732F636F72652E786D6C8550CB6E833010FC15B47703E61148641C9186FC407BEACD320EB5126CE447D5CFAF0D546A4F3DED6A76667677C8F96B7E269FC258A9550738CD21118AEB51AAA903EFEEA885E44C89D1DAFDA241A2D82C3A8830503219ED971DE25A39A122AAF4287690592B1C24FC199A0E2CFF
311
10334B997781611FE9C2F8834D22C5E9C6A3C47B39EE523906377997C2001D0EFD501DF1011DEB0B4655796B505FB417845FEAE276EDFBE15A94248B624A9C9C7FB67323981323D0222F72945708976FB83995EDA96EDE491699945867C2CFFBD2F81DD0D7F54E4BB26DF6C7D32FE3FF9E5E2A5716BBE7A6B0407138711D50
311
92C58C4259030C35E649BF01504B0304140006080800DC8C8D507E9EE85C03010000D80100002D00000031324530363432412D393546432D344442422D413531352D4441383138303136324646462F636F72652E786D6C9591DD72832010855FC5E11E05D4C466908C69EA13F4AA775436864904879F4E1FBF58EDB4BD6BAF
311
600EDFD9E5ECF2E3FB74CFDEC0796D4D8B684E500666B04A9BB145315C7083B2A3E0CEDAF00343999113B4689191E0A3B371DEA4C19A0066518D55B089D27B08281BEEE9D2223F5C6192B98C2111FE96CF72B8C911729AAF9CE0414F5FD6C1810CA0906084114C2A4CCB67BA3F94CDA1DEBFF06221058FDA84926DCD607A05
311
95D939A44848D4252FD6E78445AD3648ABF4497DD1E090A0EC89EC2AD6E187BA7FC4D5F974C25D4D6B7CEE1ADA10BA637DDFA722C92CB80F2E8D662BB20CE1AFF6D5F82B5A9CD53FA3AD0E9F7A7E872A96390B5E7C2E219DCB4EC407504B0304140006080800DC8C8D509CCB551A09010000B201000008000000636F72652E
311
786D6C8D50C172832014FC15E6DD51418D4906C998C67C414FBD5121968982239869FFBE10ED4C7BEBE931BBFBDE2ECB4E9FE3801E6A76DA9A1A48920152A6B3529BBE86C5DFF01ED089B3D95AFF4B06C88851D51061E0AC9FED326D50678D5726A2C64AB581C239E501754378D4E0BA0F358A442C3E28DC3D99447717BD4A
311
48B2EA38F37AFC59ED6625BC92C06946339C1598E4AFA43AE6FB6359BDB1342A395B162D372B2D83BBBE6935036F774D5B1CC80E1FCA33C1457EAD7043F7674C5E4A7ABD344D7BA1394BE33267CECFE1CFDB9190D323271ED197A52BC5D9BBB5C32608A124B266F8029EB134127F422F93FC47686D7C4EB783EB86034E42A0
311
27118C6383613CEB0D33B6CDBF01504B01021400140006080800DC8C8D50D8C3D583F6000000A80100004F000000000000000000000000000000000031324530363432412D393546432D344442422D413531352D4441383138303136324646462F4173736574446174612F446566696E6974696F6E4974657261746F725072
311
6F706572746965732E62696E504B01021400140006080800DC8C8D5087546C91EC0000003002000045000000000000000000000000006301000031324530363432412D393546432D344442422D413531352D4441383138303136324646462F4173736574446174612F496E7374616E636550726F706572746965732E62696E
311
504B01021400140006080800DC8C8D5088E57597CD3F0000904100006B00000000000000000000000000B202000031324530363432412D393546432D344442422D413531352D4441383138303136324646462F5265736F75726365732F45443041363543432D433942452D344144422D413634452D30303635303335344545
311
43352F7468756D626E61696C2F302F67656E657269635F706E67504B01021400140006080800DC8C8D5028BB58AF800100009E0500003D000000000000000000000000000843000031324530363432412D393546432D344442422D413531352D4441383138303136324646462F536368656D61732F436F6D6D6F6E53636865
311
6D612E786D6C504B01021400140006080800DC8C8D50670136ADA9040000B41400003E00000000000000000000000000E344000031324530363432412D393546432D344442422D413531352D4441383138303136324646462F536368656D61732F47656E65726963536368656D612E786D6C504B01021400140006080800DC
311
8C8D508DFFFC99640100009B0300004500000000000000000000000000E849000031324530363432412D393546432D344442422D413531352D4441383138303136324646462F536368656D61732F52656E6465724D6174657269616C536368656D612E786D6C504B01021400140006080800DC8C8D50E165CDC25100000057
311
0000004700000000000000000000000000AF4B000031324530363432412D393546432D344442422D413531352D4441383138303136324646462F4173736574446174612F41737365745461626C654F66436F6E74656E74732E62696E504B01021400140006080800DC8C8D50C55C6636560000006800000045000000000000
311
00000000000000654C000031324530363432412D393546432D344442422D413531352D4441383138303136324646462F4173736574446174612F53747265616D56657273696F6E5461626C652E696E66504B01021400140006080800DC8C8D504F8A9ADF38010000A204000036000000000000000000000000001E4D000031
311
324530363432412D393546432D344442422D413531352D4441383138303136324646462F4173736574446174612F636E782E786D6C504B01021400140006080800DC8C8D505D89378BE8000000600100006700000000000000000000000000AA4E000031324530363432412D393546432D344442422D413531352D44413831
311
38303136324646462F5265736F75726365732F45443041363543432D433942452D344144422D413634452D3030363530333534454543352F7468756D626E61696C2F302F636E782E786D6C504B01021400140006080800DC8C8D50A233C2345D00000080000000650000000000000000000000000017500000313245303634
311
32412D393546432D344442422D413531352D4441383138303136324646462F5265736F75726365732F45443041363543432D433942452D344144422D413634452D3030363530333534454543352F7468756D626E61696C2F636E782E786D6C504B01021400140006080800DC8C8D50BE89762363000000880000005B000000
311
00000000000000000000F750000031324530363432412D393546432D344442422D413531352D4441383138303136324646462F5265736F75726365732F45443041363543432D433942452D344144422D413634452D3030363530333534454543352F636E782E786D6C504B01021400140006080800DC8C8D50474FC6D57D00
311
0000A30000003600000000000000000000000000D351000031324530363432412D393546432D344442422D413531352D4441383138303136324646462F5265736F75726365732F636E782E786D6C504B01021400140006080800DC8C8D50877420030B010000550300003400000000000000000000000000A4520000313245
311
30363432412D393546432D344442422D413531352D4441383138303136324646462F536368656D61732F636E782E786D6C504B01021400140006080800DC8C8D50E3603EBE7A000000C20000002C000000000000000000000000000154000031324530363432412D393546432D344442422D413531352D4441383138303136
311
324646462F636E782E786D6C504B01021400140006080800DC8C8D5043C440F07E000000A30000000700000000000000000000000000C5540000636E782E786D6C504B01021400140006080800DC8C8D50CA1DF9C9A9000000730100001300000000000000000000000000685500005B436F6E74656E745F54797065735D2E
311
786D6C504B01021400140006080800DC8C8D503DEE336E64000000790000001B00000000000000000000000000425600006175746F6465736B2D64657369676E2D7061636B6167652E786D6C504B01021400140006080800DC8C8D501228B4FEFA000000960100003700000000000000000000000000DF5600003132453036
311
3432412D393546432D344442422D413531352D4441383138303136324646462F4173736574446174612F636F72652E786D6C504B01021400140006080800DC8C8D50B26B5F4FF50000008E01000068000000000000000000000000002E58000031324530363432412D393546432D344442422D413531352D44413831383031
311
36324646462F5265736F75726365732F45443041363543432D433942452D344144422D413634452D3030363530333534454543352F7468756D626E61696C2F302F636F72652E786D6C504B01021400140006080800DC8C8D5072E685FCFB000000960100006600000000000000000000000000A95900003132453036343241
311
2D393546432D344442422D413531352D4441383138303136324646462F5265736F75726365732F45443041363543432D433942452D344144422D413634452D3030363530333534454543352F7468756D626E61696C2F636F72652E786D6C504B01021400140006080800DC8C8D503C09EC7B0E010000B10100005C00000000
311
000000000000000000285B000031324530363432412D393546432D344442422D413531352D4441383138303136324646462F5265736F75726365732F45443041363543432D433942452D344144422D413634452D3030363530333534454543352F636F72652E786D6C504B01021400140006080800DC8C8D508674D3A3FB00
311
0000960100003700000000000000000000000000B05C000031324530363432412D393546432D344442422D413531352D4441383138303136324646462F5265736F75726365732F636F72652E786D6C504B01021400140006080800DC8C8D50A71C1F1CF9000000940100003500000000000000000000000000005E00003132
311
4530363432412D393546432D344442422D413531352D4441383138303136324646462F536368656D61732F636F72652E786D6C504B01021400140006080800DC8C8D507E9EE85C03010000D80100002D000000000000000000000000004C5F000031324530363432412D393546432D344442422D413531352D444138313830
311
3136324646462F636F72652E786D6C504B01021400140006080800DC8C8D509CCB551A09010000B201000008000000000000000000000000009A600000636F72652E786D6C504B0506000000001A001A00210B0000C96100000000
310
504B0304140006080800DC8C8D50000000000000000000000000370000006662782F38314541394537432D383538362D343742342D414143322D4142343341353944363838432F617474726962757465732E62696E504B0304140006080800DC8C8D50000000000000000000000000350000006662782F3831454139453743
310
2D383538362D343742342D414143322D4142343341353944363838432F76657274696365732E62696E504B0304140006080800DC8C8D50F270F1330600000004000000360000006662782F38314541394537432D383538362D343742342D414143322D4142343341353944363838432F747269616E676C65732E62696E6366
310
60600000504B0304140006080800DC8C8D5088E57597CD3F000090410000420000006662782F38314541394537432D383538362D343742342D414143322D4142343341353944363838432F7265736F75726365732F322F305F67656E657269632E706E67355B773CD4FF1FBF73E71C0E67EF7576C9DEF3EC995D46C6A1EC50
310
46649CBDF79E192942562825CE965D8A868C2842C8DE9FDFD1F7E7F138F7078FCF6B3F5FCFD7EBFDFEC41B196891913091804020321D6D7513FC77D8C5070EC3FFEE51B21F068154CC75D455CC028A3EA68992803810109FDDE5D5CEC5521B28A1B422BF80741695D5B529DA1C2D058AD2388BDA9F476F7C2CADC939304173
310
DBF48A452BF8A700C0C70C3D121C1AA15A5270C22E2B9E28763651F7DA0D12CE11077B2ECD0D560B5E3DE2368B1E65C5E1C87384A4CC5F2D9FB8BE39E9B77C753783A37998F5CEF1B4FEE553463245C9712270880DF339E0B882A6BA713D865F6F384C842D440934EF264F4A304F8DE4EEFA1E2BF5E2D91F5ADD9613D6E31D
310
DB33ED31DB1D7916CAF091286EA3D31B9CFECB78BB0060245B943C4C040119FF780A74DD308BA9D028678674EB5504ECF284EE814DAED07440BAF649BE4B55DA2890F4D73E2D489A59EE54FDB0A85B59F2F52C4858A02705C4815A792B0C4A996A2023ECB195073E115E3E3647F64243A8338F2000BCB58DA5692C7E7C3D41
310
3F963FEDF3CF00FBB0F831A9D51360FECA43819F527B89FA260EB63C5DA676830AA3626A3693B23F1A17A0DFFCE3EE164E31B5365EDF0C89EF64D8E38AB0BA9A1117D7C3A0EC44F44F4023095E80BA610DE336D0F99593A88BFC5306E72DF98F7FD132ED95878DF2964EA7E43071359FD83B2BDF9C6B5BDF768F0F3C0FC351
310
199526F53D9460A34511F75D1B63E488178569472C91A94497807A3FD4A390C6558F26D416365C3656DE6E769DA9D8FC73774E1709812842DD8EF96AED1960F79D21B395CDDFE6F92CB4EB962A4668C76990E2EF29798C8941D67DA50F4A5F947872460F1F6FDB794E8A29FD7AC0C0D6E0714339CE258FB17AE8535221E346
310
4A10F29A0BE5EEECEFC5675926A89F49EB14E5711894F6586DB5754EB4D5DA9C6437EBA57DB97A24F8B8A8DB295FFD73266CF57E82694DF5166DDF93573AFE9C9C5EB05F8FEF8E89E0A8917B0B3724DB7BEBB53252581EFC3E38166BA131A3A5B42FE2AD00A769BBFA4458D2DE7822F8C4F63D0B8E21B285AE13325F3410A4
310
35C648C9D91FDEB109E73CEDA7BC796961AF79175E1A3CE4C5E8B0D009B0C9E29EFD98BC8E97554E3D8D838424E270F7685226E5AC268E021EDE3522D583E8F20C0BDE2959EF5BBFEEDAB32FE9A3ED0E39F211A86AA9DEBFC68182EDED132AB8BB794442D2D7EA9F4D8BFF52BC4D55BB165124EE90A42D101E67BBBB292FFB
310
4F66DE5BF2300E44546757DA7CEF8932BFC9F92A0707953491A55C5A5ACEDABD9FA1AEA01BAC3DC5A24E22E7C47213493996EFBC369D086ED9397C9BA6C7F9855C7BD5E15BFC8C53DB3D2A4C5901A57ACD2FBDF4D1676E95338B2C2BCE65FDA4C64F5FEFDC7D9CA5AA1FCF11E193F2FDABF0F4916BF13FB916A224380E6462
310
A9815F2300DC49CC4DF8D055CEF76462F4B7A7ACA7365C2707891370BC1D0AA6203C44CCAB47084FEC057F27FFCD57F89B8B9852459798A675C66BD7CE572CAF71FF7E6D7ECF7BF62CAB7B3F1107DCD04DC55A3F9961700286141C94A4F771FEB2BCDA2DDEE0CB0BAE402FF1DB0100F8E475DFFFC074DDB4498AB7D186A765
310
4DDB1CB680D703D47CEB4E72F8CB13D86A4AA68116E26387B93FD6738779B34FEDB8E517EDF2BAF28D9BE93A1D3A164320E07D42E514725C29515FF361754213EDE06B079A2E99EB1CA82A02019EADEEB87B9AF005BD04BBCECB14AACD6B24EFBE482194A97DD32400685FF1FEF1544D1B14EFB1E7F08E6D2CD2AF52DE757F
310
35F5E62332EE88EA26417AD5C3E0E319D68F25414E6D672BD4522B278C57D18F0113921C71D96527E091F00CEB15AE23D24667369BD3CEFA10C7549D930890BA4366F4EBC55F01F746109F98ABCDD5A3EE06619C6AD78AB33E48E4C9BD21BF7478B385EC05C4F8987E2C1BFA0A60EBEDAA0AE0B015C2720ECE180FB6F2DEFB
310
EB822D96338C9B63822183BBF52FB664A7AE57003AABCE512BF77E7E31BDA2E739AC4C131657DDFE5225E900FB56CC01CDE808FA4A9C9DA16AC679656BB64796283D89812B8F91136AE18EE5EBBAF47A73BE3C153EB5D4CD491B4BFB4FE690A4CF9ABA08C0D8AA64220C438C96EA6CA80B58FE5761E697B3A292EB9FBDA502
310
FA863E49FE694ADDFFF9D62C520BDD1A22014147A0903A05B9B729F54272EF83931FEEC057BFF8C8055C279EAC5C0011804828734024F6CFA319C9CC6867C727184465CD9BB7ED386AFFD96B294A85E3802FAE47244602D8273615952B98C4F23F7EAE4463D9D638EEE374A20959E0FE519C4CFB0FBFE5DD80C2AA3F9DB961
310
D1BDE57E67C9BB47B77FDD74EE3094F5DBBE3EBC1FBDB7393F5116263009E2EFE1AF9A221B2AE234C902BF70E9F280ED23E73908361565964333A3F01D0B006AF32FB21AA1316744B489D5A198E85299241735BE559675130955C902A8ED761FC0DBE337A9F91919AF5CE32AF902ADF9AB2615E00E8A94586BA1A90839B618
310
32FF1BFB76D2EFADE6DB1BA04CCAD3DA649E7E2A0219F592E22F2AD54847EEA8E42271011E9074F8F3DD9FBA6CDF88FFC9FC7E811AD1CA8F4557CE4AFC7BBEDCF0114A48689F20A584520C74DA8127124B767E2FB91A6B186246727BE63C9445BAE02088D58B8EFDC0F1072407CD9B89A13F6303B4A928F593AD489B58E686
310
9325790ADC406036C591729FE14021F94B7796BB11848D463536A092A26F077F94639F7CEEE2A724C66EC885F4A24F8B8A0AC321F8FD149BA529460FAA34E4663C02D41FDF80BCA222D42F0ABFF8490F4FA74C673807C2051D8E467B47B616072860069A9A303ABA9B319D58404461401B0A0F9BE5E1E151C14BC33B32ABE0
310
3DDE91708DFAEB15E7C0D593C86BB7D7EC17BE56E57975F077BFD5525F3A1A361D584A75E08CF29FC7B44B2B3085014F3A5A14517377C3F6B8F37E59514C3B12F8AACDEDDA4DFC49BE5710101534CD6FB6DE15B50F11A09472AABA727F0C49D9CB906B158030065F48EB3625E010CEC1D511D0053474B11E6A4F01C0D6EF1B
310
ED3A944FDEC70E0DDCDC756C86545910E0DAE3BE3AA9A404574C2995CD5CAF9549226BC94B4F4F0F5F9086F418F6B32346464610D8BC7391D3C3A3CCF04CFC1FB2A3A3170E369511868F14EEA4E5E438CC73DB1F3248AA94B6B2FF33B222FF3D1E7BF146CAD229770158063BCE4F5391964DF62F7E52A7BE0EEA829C9E13C4
310
C147D6F93FE59E111DAB5E4594D6F3CD1AD375EE039930EFE5AF2BB2D41C83C7DABD8C659BAFBE8FAB392CA634F3D15C1D945DB4588D2B0824A4EC928AAC565557CA2F0DAA588CA5BE30B3A8004F7BF005E96CBF891D7F18112A3619FDF530DC8AA64954258E1811789B5189B49B4EB53F5F89F7D37523894F3EB57B373763
310
C91E502F52CC99EB7BDDF933FC324C4FFC2561DFFA7339FAFDD0A4BFBE6D3A8FF9ED1FC49898139864602458968913181918F719CCF5A68B2EE9C1FF050E34E63107003B8120FA982C21B30A874E4F5E4B38D5A8290C4B8D9BE48A0BE31EA995BDC37AC6DE90BA17D259DEF53605D55922FEB1855D915B659FBEB350EE0DFB
310
2F9F766E1C84CC8964B75D08667445EAB966015F63A18A9E0A325C1B3DC628C0D3CB60F767FA93CC65F25458BD23C3B312716E5F40E5858AC06EBA9AB14F95DB99147B832069201541D09A0D856E12C629CF32683760EE855537D1901988D5EBC156676C7DD51D7207CF3267AF1D76C2AD867315E44618015313A98B19941C
310
696FED3461CAA9B5415F918556D7802EDACEFD6B2E45853A9735DFC9DBF7E440F9319F8B6805A973BCCDC76C069A9144E51F187EDCC12FC31B5DEAAF0A76137199B106EC84ADA6B6EE697D4E6A96E007417F4E880E8B1E89B4BCE9D81EF611E2ED8F0C1A6C25F620FAFAAB656A7C42D464880E8AFAB0E0FC8EA38CA9A8AEEA
310
EE3E4648BA4680270A89743CDD3E6C6CBF34B7B640EFA285ABC7EA0A1E28F3CC963D114A80123EE66D0AF7D5380EB41909B605AB4765B709B808590458157E69BA1378FEC4B48CAF6A730E3BE3C5EF2DD1A5EAF94B1DDE50CEB55DDFD7EE9A16747FA4B223359FB1FCC69E1194892BABB93A1D5C4E807AC0EA2E30180811E7
310
7A2291F6E7F7FAA5E0F60215BC6024E48DE436C511F0628B8CA189982D4D83CCA17D305A7E923C37941CFDFDCD93ACAF735EF5F0E61BBD3E6C41A59B242790D3A3BAC7064DCD89AA2E37214EC839820949D5CAA31E240D2948E48F690298974A96BA9A8432BC90F5071D6537C9666EA4564796B7AFFFA548077BEEA75F6308
310
3435074BA182F3699557397F71548383FDA8CA34D99B981E72835ECDA5DDDC151315173D05A21F651AAF8524E88209E2E7A737ED1045800CE3390050BCFB8BE588DF111617874C62575039CA588EEFDEFEFE319B739DE2EDC147092A262611E159650E787917885EF08F1F51B8F2D8A71D60B58B190FEF9541A1BE94BC19FE
310
A50784DA1419FE4B0FB51B8D36B5FF8E1286FD8AF42B91E59A5F1CC4D60174E764045FD8C57B18209B217F89A62252BD20BE0E63E12B8E8F029FE19E0E8D0870F58721A557082250D5424F7909369376E41666C0EE77CD87CB283F661D5FB6D0DA023CB67320A20DC7BE661E9E1BFE5463085C557DA1FF9BE835733766C3D1
310
39F2CF9E2208873AD0EB4814DE9E6BF2CAF81614D4D43906ED1C05A3265CABBFE192770FC2F64F940CB6B17B5F166F133C9AEEAD2641807C3E69515171DD74C4A85311513D6EC9530B3B601B6BA3EBFF3B5C3D2F7D69765141E345F75433953D013ADDF8F6AA7DC3F4A7563FE5C7D367937E2900D7EAD0F9FC9A4A1A9B5BDF
310
1FEF08532660C01C5D6DE22199AA774383E306DAB87E301ABB7D213887F9869D4942D0D71E94B27EDF216A318BD488D45DF84529EF575AF3C3938C0AAA0215B01994153E2054A0B894DA5C784980633AAD48576957CF4AEAEAFADC7C587368551C73DBE1E57C58AC713303A8BFC258BD04B51724459FF9E24C03A81E0E0679
310
CEB9B348C0DC998FEB9C6D6EFA77D247CC8F92D3848599ED89A23218D0636465AD1CEEB7DC140D7426F83491C4E8E8281C2FB35240918FFECE880CA2A42D70E8B20B34DF5221C7DB0CF90ECCB9C745B37A47E9B716FF7A97B7A252C1F3814DC7B1E1A7F72B8751D524EF7CAE45B0C73B3BE7D08ED39781B380DDFC9AA4A474
310
9C9493DB5BAD07A6EA6C092FBD0E85DB004DF06B8C9D3089C5320187E4CE1846158C7EA7DDAE8AD9AFFF21AA3A1026BB06A259845E8232DEE62811A4DA9CEAB3A4887320B76E2AE5615EAB7BDF738CBDD01F1E64064BC13D9EC53576751CA8CACD58B3CEB0E6CA585BD089B2A59B9FC101403387AADBDBE70586B93D64BF3A
310
D4453EF9C3B6A93817E8346991798601344F79A83C51F3D50F7BF2683A3605F51A72449489E0EE6169C749C60B1035651103AEE24D24E51A759C840DD3FC6504DA6FE107510E447B43461C79D22970B75DE5E1BD3007D1AFC619A4A4A69B5626AF5E9B8374E20677F77E2F8E73DF868E8BEC7EBA7B6A75EEF7205E1AB9486C
310
B642741D6E03FF13FCCEDB1C4AC129886268B01CDF4B124AF797CF784F3C6DEC97A17D4B558070A0F1C04DA4FF9BDBF34159AEFE958479824B3F58EBD1E19088A2AFDE501B6F2052368A3FD0E650A179EFAB1561E1D27527077136E652676C3670F42DCB3352F48F6BC86D2C3B0051727E41A0A4DC6CE2BE9D47F5CAA2935A
310
3C0539AF080665997194ABECD723B08129CC5B6B21D2E7D54CD4D12610E7E9FB8306771A89576C7A982002775ED44F3F744CF21EEBB27A631671D921938AAEE3EB0D19CD1E083727F607823E817BF599DCED5394E37EEBC2E88782E638920CA641EF74D4CDFCDEF06F4278ECB18E31E7E9876F2D783C8BF429C75395F57E98
310
C2B495A3DA077EB3AC3C158608B6B57FE3EA48484D9A480096FCEE0DE880950E7E5A5714131C5C41AAA29FD19AE81AC145FA1B9E85C7169A5AB837B213493DF7E9AA4B5FBF9CDEB36EBD21EF1181B7CF7366AB2A951D01E37AF4EB835D1BE8C117CFBE7625D2EBCDB0B20C5A4B45CED0BCDE3EE8DA9DA78C2E21DEAAFFD119
310
7E463C33CC6A80FB785669B856EFF7A8CCCA2841B5A5369173320B1170C368B2748D81062EA0296E5E2D95D7667A4A46D98A6FF475C76AAB0A8C8D45E226FAFC9FE0133EA9F60111F99CA81ACE03A1D14C89E8B0D69079C91464FA1D99E651D0EAF606F345C42A8A1AA9BA391031582B96D5B4176A77AADB01F12FD298A75D
310
EEBB2C82F0B8650E880722F8DDD90C56A7A058E5FDEF1AC93545BA27367C76F5D8F9690CB6F8DAE141EDD7971F0FB548A2AE435F224D6E5954CA155512F7332029D5A1230854B79F258EC5FFDB09F5F6343A8EB193229B7F7E79B3E48F8E183860B38C8269D1B53738FF1E0BACF6AADA6D4869E9DE708E79B5DADCC09B1BC7
310
6F649731CFAF59A83FD8BAE4C749D66FA87A3810D4D62FFE826FA400C0F325D2BC0F3CA35F5847B82A2ACC7961745C823E4D863D54460AF792CE6F79B5C7A33B25C3AEA6CDE15A919B6367D781E9D44F61BF828672594A3E1D9EDD6DF179A81F27EAC05B936575D73E05C209DDD2115CFB705DF9BBF3C911589B3640735E9E
310
618FC9C36A7326C82B2205E244C55D56FDB9D5DC93CE958D4BF8174D2B3DA54CB3C09F2C2A6DFF73D23B2197355761AD421EC581284A7EF8DE2CE3497C0C804D49B41DFD6A7360844E5BEFFB495CFCDB97A4595911CDBA623274CE852B5E278AF0BEB1770E9D37CD977B2766A7DED0E94B840E1E95E8C77DE5CB6354AF7871
310
427C28ADBEEF7BA0A28E19DE9ACD75F379FE373EAE6DDDAE3834692F9C2B03B4FCA8FCA9ABE8EEEBEBB725B88A7C90941E850682CA04061A7DF0CE82ED49BFAFFD42C309818FAE14755CAAE78B0F73243ECCCAD7DF58FCB9CDFAE7A4D3E6671A613639130D056C8383C8F4FCF4808C331E544DD26E4755D09EA05253B3049A
310
1E32587CC25D72E073E2CD96D04A71BBCB0038FEC3F53D254199C3CDC67CD66640269431860225392B2CB3ECD0B4498AAE78BA1994246AE1EE78F2EDFB79F6C6CB6B5E279C4D373FBC21CB2698C9ACBBEB6A4BB6B39E16AB0E421CCBFC7654D81ED86022F9BB522146F9F4772E2D0E4FA70120C95A85A417BF5078B232F475
310
4363EB1750B2AC2148EB46B1EA72AD9B4D23ADCBC589D70106C3EC2ABEEED84DFE28E718C6C83502C28E9FDD3B09DA0A6F6F7B72B706A31C9E2A331EE70DA56A083D2177BFD63C55B11D8D949FAFCF90B23A1E24B9B5018B9A17E99F2890EC302F330FE7936E2C23F0D237EC8916F5166AB84B62A21BB0B950146962D754F9
310
2CC2C8877BED8FC7B7B25726DD19545392570B3A2C66B58F027BEF412E552D12A588C4A3CC5C3193FCB3485EFFF700D0B9EEC077754A33DC1FB9E25AF814628F91DDFECB667D3F7690803F38D13F8AE39353523BB08FC6760144AFA2CE28236F65EDBB3D5F59A57D612B99E3D7E5F8A851666BF9B5A6658EFC96EEB37A378A
310
BB0EB3FDDF1303AF32C41BD1C8560745D7BD81066B0D6313359CF488563D3BA3F8E2185D1FAA3EBA1397C9D0E3DD232180A4DCADB6AF25DB3AC3CC26589C8239E66E81547BC7E2F328F9884764CA37EB5DBE390DFC03A5246B456A7C3684C4377D0EEF9A350680FA9A077E8B2957B489E09AB1AD41316944C2254B5984830F
310
691C93CAA767EECF976FA5647538830B5E63236A6F0365C1E0F3E327F24FE35EDDBD7360B0F7374837409F7A6311BECC12B7026D4FA1AE204FA3F5FE904B1F420C7A9044AE58E403E7C4848E7DA25DC9EDAC79DD756FAA26B9EA83ACE8A214A2612A22AFA19DAE7DBAC5F8CDE1292A485F98DAC731A29FE01A3966E96BCB9F
310
B5A4C8830E1B9AF0C54B87FBE221A097036E5D28D1F869F810C06A9BB0AC0612F69AEBAF893C6E7AD59460208BAB3A6B09CA4F6BDDAB8CF0D1F84B72487498395A70DCD754796E271099A567A55CF242BBED64696378BB6CF25EF0FCDB589F3A82F1116D010A9AB9FA4358809EE0C973A2B4229BAA876A70B03AB49CBA7FBE
310
71DB1832FFD32F9BF2C8E98075CACAFB36921235D0F552B6A67E94E094097A5D7DF681B40623DA535ADA7A9AD8E9A62407D7C9A5AE51D62A17A83A23728DE86BB56115804D3F2675F2C6B87541A0FC497BF0CA86420F558C9859EBE9FAD62747E323E3AADC03FDCDDFE7407B09DA90B44E3185723C5381EAEF589765E2F7A0
310
99BA46695BAD60CEF3491B8A171F5F56444F7CE9455312C3498C74173AEA0214EC029833B34B650CBB5A5508D5091665309642791708ECF27CF11DB3D797D6CFE474453BD4BFADB768094B2147814D81C7CBAF8228DCAF5564B5891F5EF6A860EB2E323CB82AB868D8EA048880D63B0DE5341F1B3D53297B928A11E15F25E5
310
148990F710747C3509ED14909C552EBE3973246FCE55D00564D8310BC3EBC5085D08D806799B77D6C57FDF5E55837F9E934F09C03C729271B64F12D0A9F9E938107CAF7BF1EC8CF1BB9B42363D33070F4CACB425E605DDB0A34A12BB936DE286B9887A4E2E558F0886498BFF49C311D96C277CF6A9FC0D75AD0ECC5226D7E0
310
E3572012E56D7FDE4410CEC7A6D0F997F225A2055B8B92E3956E875AE4993CB3D4C9063AF98FD45E1BAB165640A43439A2C9181A7C355B297C0A0CCFFAE19B6FA3C2BA238A885FBC98B8F6DAF4B94B97304878DF4D8BFF6A4AEDF79E90ED4E68F00CD7299F4E0D83E35601AF0CBEF18C1E870E74758FA91F5131075004DB3C
310
FCF09AE1DABC11957FD9808C92E8A678CE9DBE40DDA0E0D1D505AAFBCBA208232BFB6FB3704E8985E61ADE53DE74152F5C7DE74B1DEDCD37DC3E8FB30D7EBA8B9EFFC3606BF90B8D438279CB7709FC7C00D327F41817EEA71CD9E49FE9C8C9A81C70915D9F0F15958EC5AA4C3BBFAF46986B90F188BDB24B89DE3C6F29EC3E
310
6F66D84856EE96A35E657CA41B41EFD8DBFA16AD6E91439EA92B40B21C053249F51AE50EB0B24C770FFAF40DF12C8436366819C48E36547D4E7B72FE2BBF10828583057814A668BDF183F6B2E58DFB151103E56303E63D00F39C27C4661605DB644D19175D02E3F0241E8FC3458D17AAAADB117CE9EEA690D0DB01E634878C
310
04C2C9310B69FCAB831151E3AD293BEF6E46B0ABCECB50F5939B39C613D41E81FAE8D34CAE3C4566B761D37185FE864AC32FCB71AEF39DAA5BAB88609BB980CD2F07A8F941653B529567726E2B2A58D079DD57E1E5E31426CF184A04D7B03B985F276D47406AF276FE32E3328BA866EB1FD39BEF57863A317634AA5FE46740
310
9B3873F5069EF0D71AF00AD189D17BA1974ECDB2D623E9E14086386A6AAB5807825C37B015BFE892AFD154920EC437EB945D958E18622E1E0FE2FA06557CE4BB9BBD05A2D40E774DA2B65473791E314B7D6C886820B2FCFE4AA272B3B8B15E7344A145E8AF919B5454D89D36D413E87211186BF6F645E5EC94DCCE8E1C7990
310
22E4EC9BC86D7A0F2AFB1FC4B2CE48F84B3F49ECE65BAD24CADCC07EFF39AB06BE9E6B27A059938EA7208838455383DDBCFCD967DDE4650EF92A14FF933C975DB20BD7FEEBC4487576485963D757D16340D9599FEB362F775F38CA4185A86F74B629C81B133644A3B18FD056E997E0734F9BE26D11C0AAFC669E2AC9FC41D2
310
81F8B2E1C35AE27BCE05F3DA295488096688719D974DF1B5D182DB7792288697F8763CFB43562C1CDEE11C4AABD5C22B6E33F6F389CFC3477C5919DC0D533F8A7A1846B7ADB60ABDC26C43D0CFC8910B7C15EE22675BD02702ED39DB77A87A192CA7A543E6205B979B9F5A6B512A3CA799E198B2D5797C0AF8D1D872CA455D
310
4D431A7879D4DD76110B5FF7F4176B54477A9EB5E4A5D11214FDA585F0382751D8E2582BA5D2075053298FEB8F1537304E32CB22C2E2B693DC0A760B1DFCA751BDC445AFDCBB12820ED85F6D5298933C7EF1211E9E057684056CDA3FEF3BB6052355E162DF27C59E965A8DDB7F9437EB72CDDA3A090DE65A5B2F50326247B7
310
EC67B73ACC7047FC9B353D6EE990F772207C6EC52B39DC2F3C0754821DAB559F7C1809C7D0DD5B0499D0442E0A6E391B3D5DB46D11E731E6794EC77523FBDAA242ED67F9FA1FB684255671F63C9BCFE6E7E896D51001A6113EF2298BA494E0B0980D1FA5B9D60796554C02256B1E0345FB7C6186B6A19D2DCA270416262845
310
FA4F42DB5D9B0A0B6F07FCA2E56C242522E001E0CEB734AF310FC8BFB57E38E03AACE93B3326A2197891E68452B26A6307FDABFEE0223D3C03C3C73D2D5BC054C8311F12004CAE488E5C29287F8156A2CAA4AD0D7BE6B97264E4139F437CE73ADF52E5134C52B819777C18B323A5924E4F67AFD13B1CDC3A61793A79FAF5C0
310
CEB718E441071E797C6DCCB9EFCF7E4A1E9F3DF3C2F9C9E8294E9586868788C972857FB0556D7A26941A7EEB9B580AD78EC40B85DC906B4120A563CA3B87797ED612D3B035962BB75F6515A393F4CB057F564CDF54F2E5A024514E6A1F901DB80C7E70B1FC05E356A7E72FABF4775B3E3FB8F70A2A8E7B6A94542BB3041579
310
78CCC999E707A29CC795E67A59CC546A5D47B368954CA7B6E75EC9E1F6FC73CE3B4F71F8CB1A6B15923D61EAAEB14626AAA9D04A26EB9C66CD1BE86CA31A5D8703DE04CD1EBCE4F5CCB62F93909AD11E55799A781A956ED27D3E738F4538CB04ADABC7DAEF20BC35BA6A90BCC1DC61BA05F20D8832FFB9BC9B15E2DB838A0A
310
FBB7E0C82A562127E0446894F427794C3037186F622BF24DE1B00AA10A23BFA47B2A180D6DA5AD6F7326FEB8C100C2D7142EB2A0B2A9D1008A09BA343D70E054AB69E2A7EDB783CBD92537FAF4A44D1296AC2792729104B3276C276C951D0CF3CF3F1E6B017720A7B8505A5FF9589365979678C36F1BAF759EAF57C60F1FF5
310
FE9DCF5F8E764FF25A2D06CF25117A8FED51884C13B2B750DB0E4F5E3D64124FCF11F0AD8F1CC3B3DA4B38ED22BF1CB2585EE6BFEBBA63FBFD44F9537B9B37BDD6B358720F98A8125AED4349CCFEB0E135F19E208A04CA7E2B10711185D72E381F448036EF57C9F874E54A971CA37A639E986AC0226DC5AA00D5B14FEA9192
310
234B3DE617814FC221C92F33F1D392F297731B567FD98FD91D989379AF567A65B8ADF177591DB90FBEA99BF4ED11B16E50A0AB1DBF1156D034BBE04D69D08F939D8E92BF525A1DDAFF80ECBC95D8F45D3FDD289FD23F7D8B452F8EBB34EC082DEEE68E18EDDF072060FAD2AB1504DD4879BF67099FC58F6E9DEFBF645D1633
310
4A3E9A127C6F1AF6132CF287E433B43A0EE93812B4AA0B194E03EE3FF91EF9C6ED0074A2F6EB18A96A7C9890B1FCDA1F2095E944DB911ED54C60DF16FB74C8CE9BDC7C54C4F14078CF73C2FFF1F1BBCCD7CF64F71407EA1683DBC410D226627F66E509060D5C0AFD611DE681D509DB8DD12FB1265B03C6F5C55FF4C30BD941
310
87FF692B4F152982502F193098A789526A038AB529A52BC0DC4FB6285CBAC10A8B8DB75DCD9BDABBB221E27D1F8DA9F5EE5926A1C8AA9BA9BC09239C6A7F12914EA3B59EFF7AAEC3FFCCE56F1C5C2980AD072793527565E774F4631DB178CEEC691B1F367BEA0CF2907E1D6B854D527065979DDEF002D8B2ACEA7CE21AE297
310
737EDE1D45B31233B73FEA35BCFDD0B09721FDBAF6432681F2FD10C3E9EFB246FD6E854B344ACC9D8A0EEF876A7314B49B6A499FC650B099D650DBFEC7638ADFD245E2B7839DA5AC5F7D5623FC0ECEEC8653FC9B2BDD1AD4D00A566FBA7186DD3C9CD26512551637498CADB950FEC71ADB9A5524285DE328B8EC7EC75D2345
310
AEC6A27C42AF6D9B92155315C80DBFCABBB7DA0FAE425C4FB896B15C9BFAC4FE67DF5A23D30C93DA4D8F36FB15D100050DA6062E22AEC5F4DAC4F6FEEF97AE05DE63C6D38F9E068A20BC5E3B6BCD75320C5090924E7F93640A7735B1A43451C2D91EE62C6238B797349E59890AF3A520DF4A87095F3ABEC2E61F0593416CE4
310
6CDCBE0E00E2523FCCD04408588B5B6C9DB6459C786CE378770B54F51DA3A5E1DF2A3349BEAAC234A6CF8993B598B3B25B4B113E353A4D750FA7534749430F3EBF2512E7EA3FD43C6AB9A1F765A58463B306721A15D224FAFE8C6F5E3432D57EE697DA0DD5A9D4866A8BCCAAA9DFF1F06047851408FEC060471D0E3EB86BFA
310
F46E4B5E60311DC3E3CEA147C75CF971BE74689507154FF2D2E92F15CDB2B9182B11459FD8ACAC5A85F174BC94A7F4EE4C4F5CAFA7C02E37BF0BC77B7DCD0C047BC316F562A01A441AFA7931CC84A28CB9F4AA367EB515778F29BFE61195FA671F4352E5E46E3A64773F1F76EE5EB36D7BCE9BCEAD837A4D77F8DB8C92AEEF
310
6711920D7C7D0F76B0FD0EB7AB83724CD35BCA7D36DDDF5FBB7FF6F04A91F3E2BB3B8F1A43CD659639507FF6331C5F697BCC782AE57D757A27D97F1AB9E0AEDB43F92F1B2AACDF5FEC8ADBAF9F814E2027003BA2F9E144B1938A7A04050AE5D953B82C45619165C813A10E76DD6906B3C16438064D14CDA713AEC420034613
310
E1AC7241904A49FBF87409AFB1FCB9B72FE7933A87D8FBEDACECE4EDCF6A4FE9FB94D5DEB74FAB7CFEAE17EE965DF980DCCA2D04134994F9A2E94D2265DA4FE6AA7B7AC15FACAC2B5ABBCD7DFF542C5314FDAB2E1B9D8B65220B8E2B638BE008E8DCA22678C820C5053664D15E89F2D735B51A84955E81A443545E9FF787BE
310
0FA700A76D136C27DA179A7C6E8939E01BE756E19CB292798063D8B97F44E8A27BCF3A614FEB8BE974A718E86F7EC99B53CA35FA24F61F2B07266684623A3D4CF073E511F3A10A8FDAFAF0078C577F4DF9D339FE7862E5FA47CF4344209E5BF76D783B1B48E152AD281B15FCB934DCDA49CEC5706B1EE8B460F435324A5CAD
310
154725E21AB8044B75A557A79F6C807B9340AA3D92503E866F4274412926C8C504E4D5EF8C0E68DD0B028781A6B4054F11CF18941F101C57CCC796773ABC8DED9CD91FE5788806C05E548895354AEAC96546D55B0E94A59F148D061F42AA398D822CDECA4CDE79E13469BDCC44FDC990F366BA5978C15F97ED80CBFD73B0CD
310
9B8B83A4F6845BDFBFAF034019473FB9A63BD55D3A4A7284757071574029A4D016DCCBE95DD679EF3C4880BF169422F8C89B68A988D2B13793CAED4F74DE7486C72DC94DF46B8E93D8E02EFCB1FF9B3BA10C8AE7F653DF94F4AF466CDDCEF5776687F7C4C14B63E4EED1719DC2EC482D7DBCC7AE518CDE3D5FF86D39000EC3
310
673C0044E1D308BF05F74D1B5F033A7D1BE7F74BC55BBE3E4A20F920946CA0271EB17BD2B80E5660ACB8A29A79F5E4BBA49D4D945B6EEF4A7EFEAA65E5555BBB57A7E15D2F83C69F30BBB978D2B39F1F26FC097424D39BB33CA3D87ABF64E307938B685BAD44F71556A30B7E712CA4FE600613C3E554B69ADE949A7CFE214D
310
F1FFF05CB82151EC6FC31950239F94CF7AD39DC473F6EA356E5EC2C4EFA04383CEFE985A127484366FBEE3C0EC4FEA363E4F6632AE781392FD45D67B63FB8DF70E82734F431FD3443172A0E30A83D60982D55FA6A2CF86DBA8382502ACC6CDEF3B907982EED1160E14863FA242F9757347E1544275CCDCF71ECD5F8621CBEA
310
326B8BA884AD7F825781923E66971F04010D574C541D8427A438A37EEF8AF88240EED7362C953F5A81DE2D56109CDE2524EA0F5D2F87308C0C47BD97AD605878AB8589E17CA83930CB5E0DCCD75853D68B1AB136594926DE426C367428E9334AFAFF90ECE221BB5DC9E5BB53D2CDEF954EAA9CD814F0E5725F1965DD458E5F
310
8487683AD86B9D0076BE3EE91EB1CECC5331A67A3F79D8B27587C12EC2A6A70474749F27B4C0BBAFB94B34189E88DC18964BE4121B9137FD516C7755356E50D6714E31ACD222621EBBCD1CFF81D87479056A9DA0E0B8EA19D24CF937DA89F78E8650CCBDC110AAB6C4E46DCBFD0446BA9E2060E81F314AC2031E88135E5476
310
AC0160EF5C0DD2EEF1B8B5CB2D198BE9A554A9093B5F7D7E4B5407DDFCA1D9C152FD97F55BFFFDFE802954DFEC8995B983E28AC92F1971E28F531DC407A1280EB125F64A72E617EFB27DFBCEDCDA2D6F2BDADA36873EE46B9BE1782998C63DA7182BC383FB6FD15DA472B175D7E8B4FC88F38D6E07FEAA3FA3CBB8F6B449EC
310
F14D2175E5C5CCA3A42ABF24CA6C9395AF74535F4DDB38CB84F56614B0FD32D7E19CA5CF988DB4449C40E23DF2B16772594554579094450F56F253CD25EA7F77366FB1CFE79696C428BB64D5A41E986189427E5E4D7E2DAE3D5BB4972B3DC44EAABDDDD63A2264ECFA5C786EB0EE1FDC5BE34FA0F08376869FD1E61EA06CAE
310
15191135445EE8F0394161C3266A596AA035572BB0C8876180D8B9C77D307DF9DCDF7365ABDA6F3A2366436457A4DFC1F259666569A9E4A79C817BDD5610E5200FCE894A358EC72858D50EF67545DA81C6FACE3D457BAF70367E1E6BDD9A952FB4F56247F58F523B97E640246051A72F79BE42FFA0B3187F63097F91C48B86
310
8586F714B0EBD5A00A8412C1236E1298F60C72BE6C96B82B404CADAA304AE9F303176B14BA53FBC2D5E86377E35542019E24D97B96A49B2C0E5006E7795954DEAF5DA58958839043C6C70BD3B1B33B6DC5C31316D8A6923F142E26F6711A2258AF977DDF1F970ECC4F1F2B434B96D81BEB6E89BF3BBB3C7C8CC80505070723
310
D6D7D7D3C8CA27CA164A26024FED94B12A86031867241DA53D929636DA600F050BC40CE48B8BA03D69224720DEE2ED2127390BDF5E6EA64527BBD4C4C63FA76BB801FEEC0E61218EC98A8A86CD8313781617877E66692839B9468CF4DB8E50A73986E558E309C0D6F676F921BE02F1185454DC75B111572FF9D27D85EA14C0
310
5AD7271225B391C4275659CA4A43759D0BA44639BE4C30A84DB7F67A41399FB95CBF923B1B1672ABC807C1590557FB18D811983FA97F5E609516D62281D38B1281F68FC75528C35E4CD7DF0F7DBB5E5DD69C414EBEA2F4A5B241B996BA77AE6C772E367408C633EA3E438B68563EA8BE7667F3A4C4FDEEA52ABD78A2820F44
310
3B7914A15F180018D231E64519C56A12F6CA7C8DAE18F06F6B769DBF92329EF6A5D18FBCE600F36BD8E8198DE5CDAA96181F3A756EBA5501CEE58F497EA4F418A2B82565B9BCC611713C0B708CCA1F398B78C5F7D03B3437CC18F13061F55C7BEDADD5ACB1DB0E36D3CE47FF6EA1A563A57E9649EA5D14D1A50EAA45746338
310
1C073777EF1600607BAF6428A7DDC079D47A204EF1E1F1F0589FB054D45E02CE623B3823C317C601E589E22B1E88B448524B86A82828E32345EC18AE17214B42F8C41C6D428016D9BA31DDCB47572561E5A402E5BA4FCE55F78AF7268524AA04130F3A20BA5D1E9F9948EA48FC8F5314FDB35E21898198060034ACE5E3E2BB
310
CA34092518F275190AF65F45867FF0900AA4B81F25427414C372BF51DC29AA855C5428EE1EEDD6B849AD60F6E73475C2D2523F8A2772C840A478DED18A8C5C91B085F255DC4F54EA7AA8947354FD17ECF8FB3B4A0DE7B483CAF3A1165EE05BBA413E5C1FEF3DE1D6B8F2F3F3251C17D9FCAB48A9AAF63AC773A0E413BBC46A
310
9ADF84A566FC920E4D8C52C9769EE3301CADEEEDD92B312E02E2A7E35B7F1E7D203FE5A7D75578B06E99D0E46FFADB8FDA17ED8880390DA29094202D6F645F76F6F96409CDA05495A96E84B04A00D1A6C6C81D7F3DE9376E828CCF144EE50E364ACCE7237EA0BFB5607ED1AC3CFE73794E5B61739D14DF1743441B1AC98F00
310
ECEDE9E7301FA29755FBEFA68C91EF2B314CF510537EF1ABFC9A762496280B546F5EDAAF8A5B387D469FC9A878A92828C88608453ACEC6094DCA54111E7AD5B2663DFE2DD151B7F123B9F4FEF8EE36AB125FD7AD52A59B1B765B3E3F73E3F73DEA93875004D2AFFE3CDE9493B87A9904DD052028949041A91DC0E1BA47BA71
310
4343FD5B25E0A6A09503AFC17C790058A836A324FE31D7893512E28230332F153181C1E018E1124EBE1BA262AA428A518237D1EA7275E48C5C561BD19ED6912EDD8367DA0F31E40EEAE9683DA9257525AEA7B632B97119E17145A90231768A4F3B9120FF32E8319B015E3CBE26F1A754177D8185345817C096B0CE443A955D
310
13AC15E1FB5DEEA0239EC32A3C92241A237B0B02FFCB4F93CF2B02570C8D192E2F2A68CEEB42F12E6F8CEEFF46C251E22B4341C56FB08CCE550E7A9D6F4D6564B9EA52A83D5BF2C6E03FA19D2775E15A8A7ACF30A13C259EE7F5EF2AC3BA354F1500E1A07FC63FB4686E2F12EC69719F9ECF5FE3F35598DF2CE944008CE78F
310
0911BA5BE5D0A34E0098FF038669C26030BA9B300303039852A8F6F496341737CA7E0D2E3AAA36DE0A70AA7D9CA0D54D9AD84B18A44C9E625475E1C97B93BEBB38DCE7D227E67A2D00F531436136355F243D1FC0D712C5765754FA22FCFFAE97919161F46D6E61ACB37D83777B385889770B50765B127768443A5C4D3A4E35
310
A3151111F146B7CA116F918A049F1C272F2CD7976C69A0068773451659A97E0F4A08FE604C3FF6CE7385DB19F4D3ABC8A0D80DA8A42096AC377DB49382B36E270B6FA7570188B4B7D1DDDDA82ACA487CCA5D38BD3BD039ADBAFA4ACFF27809239B722081E2EB9F145320553D183F28471C388BC8814E5045676767AB58A8E7
310
2D1CED2CA731379515D2E533E4CF0B39DFC625F97AC4836831A4DE330E87A8126FA17EBE583D614E71E22A8DBF2825599743E0640037303E8E1B1E8EA4E1ABFA4F62907B5E4E0E5DCFDAB417C36C6848A2B8D15F1E505434C0707E16B1CFC2A1C36A42BBF55734F8F4301DDC2A5110CEE8C0747F69519265012A2174BF4E95
310
5ECD4FDE095A3ABC70536B7AD0B9D7892F81287D667C108703C9B66A221E9A0929D030008F77FF6F5D2108EF5706FC87A3069B976F7C9FC3239D13D283CDEA83597461079FEEE049B0F392889898B7D87D31F8D60ED7B56B91823A8E4EDDB36C6172ECEE42BD42B12CD67994FA0F0DFAE9389356F4CD4425A4B8AA55CBF7EC
310
D585C6A2C2316791E43D5C06841ADBB226A87FD61515FFBB0167B74E56BD7F3E90A57A97FEDCBDF483A0D6699A8C0849CAEB4947FAA90D8E332D9DEBD9F4738C37DA0CAF9CF3DAA68BCB67C420459C7A64498D6E848E5CADE92BB6901F607AA331104A67F7CD650EE169B1DAE94D2C31C2F993632259B6957E246EFE4C5481
310
107B07118607700040E5812A2A2A38DA0076875258C753F60E0F2662C748EDD5F3F3686B8FC3BD6FE631ECCAA1E8B1C1E565AD117E54893E79F4672E32F9E46B2A183DFDCF3EECB4D4D077DBEA0DA254D256045109670050129E9B9B1A9E4A11344D61497A992778095151510C4BB7EF2009B63AA4360635312E4CF668B7E0
310
D3D85A8688E2BD83B569439892ADB63461930D428E0DE42E4AC57CE48DA5CC1449530D8BD3D6A0F08DF20C8E8F570F2CFFFCEA286E30969B4654D498A58D9DA782E19FE3F002181838925592C4A1EF0B332D88B61A92C644547BED490D3A42CFFAB70E36D961F694F6307F72FF15A1C79D5B1B5CEFD353D9E2B52566DEC8F8
310
F09CB3E8359C0F68EBBB7898243E34E12A015B2685AB303C04D3A9E00671FF3DFF0A184E4A2ABEB2B666AF5B3A209C73D8EF29DCDB069C9F391EEE9DD0F74C7BCDE16F8F02E3B8816122BBEB50665775B600549D8BB33A54A6BF940C028118BC6878C79958D6784F9DEAA6E26748386FFAF8D0D0101E2847B6563F5D8DC1D7
310
8F787BE00E2C941AE12148D4A81599FE8F68D4DA5CDED75530ADE138240300EE13B0FC13A1687FED6774662C05A2B7DFB186732F0D7A93545D8B0A6390AE5054D9CB582DA846D7A061B3358B45E2B52DDE63E114397EDB7E09233A579155D795BE76102CF277F4DF8B188C4F2879BEAE3C08347124BF9ED23B128259FE107D
310
31E34A652F090B30B39E0D9AF917B76A2806135621A8A60681F16AF216514BBD02711585B5B1AE823F4B2D0369EA5B6BCB863072727FFC871CA6C9AB79A814D989057E9470A3D238BC87CBB4A0EA49AFE2B86F22E499793CAA9047080450166BDC357524561E258C77CB697F1ABB32562CF87C3B7AA12F911EF19FB3E5C022
310
22E887D08202A60A17151F5E053A86B437771088B4FEE14D652C43E8D939995D34545E12E2FF93D4E366EAD25F10CB7DED141563C3D0C447AF06078A91135FD4B9611583CB4BF3BD167F2399CEAB0E0100F8FFC305F00F1711717173138B4B48C83022295DE657EFEDD97F238ECA80F528AFB4F8D67AD4E2594B9A3AA86D74
310
87EFC313BA95745C186F0CDD84CC12DC9CB0424B42203D351FD9C0A3AF10CC7F388E0329279087386421F194F4A29464C1DEF7EF8BE515E4A199DCD5B909342598D8FE6A231F71336248D5CEC5454455C7BE383B3BC7B260FED27F703FDC39A170F3827239102F59D4DEE7FEF82EAA1A5E4BA94DCC4CC44E7E2EDE20F24244
310
E4454369D2E87C3F823F193FD4FD27E1C23984B01898D15ABC20711A8A558054951A6AE280096BA36CBA439603B7B0B4C45F248C14B2383B4B5CD8ECECE4FF859AD4A6CA2326D020EF090F4041D28DB66E5256B56232CC52829DE8060BAE6BBF37D4B7469B822454FE93210A3E8D15E69FFCF01123222611C51C4FD0A041A0
310
CFA2471CF6BE38D2B20FA4C3525B5B8B586759475CF80ADFE67A284AC24651E52B8E683D24C2622642F27E7C3C22783BCF63648BC398BD6CD0D9C97E7E7E3EACB6126DB7A6C1FD9F1031302EE67ED96F22B77C7CA0239BB324207559B105E4693EB26EC46182A92C9C0DBD24F29B31C5C5AC1F84300E0E17CEEAC15F5736FA
310
4A98971E2F1423BFCD68D4BBD5F86E74B40A369F39507C88FCDB35D2DD8DEBEA4AF999E23CF2816D204200DF6E611781B9884C1AC8888B4DE397320472959434323A5A36B22A8E1F721A270DF3BD65E4A31C11FF048AFB0D8B7B6881423793963A23CFCE935FC189ED36FAE35C46DA3574C979E4394BE52084F3081837BE03
310
3396D2EBD80F1F691B273F660D2B32FA27A33B1DE4ADA5F0FA4651511102DFA410DDA86E065272CA314D5249DF91B06BB92807B28EFD54F08F7B525252782CD276DD02E6B0319B13DF87B1F6361AD6B28FC0D711CF445429B9E5A433CD493051C49A9E03DDB1B147D880253514A5DED88009018620EE229101C041950E2D8A
310
A8E1F5F5438E0C0C0C60EEDEE9E3E0C051948C69F84BB7B2A48A1F3C8EB9E6864687F4F4F6F6E2FA87608ADAF9C5E117B7C1A737E710769DA1D15ECE6A84502AA855398712D5FB51BE92E4EF824969CE18278798AC303C2C7980DD2500ADF8FB1E6D6C2FAAFF9987178923334A244758BAA01A9A1B70FA5097D01E1CC2A58D
310
AD0EC94CE6430AA9B0C10D75E3C6BAC670EFBADEE1607739CE0FC18A2587E3EC3058562014C64219C69BC269082D5C2F4A659278D585755912176D78A1B641719C2A394CED495A1AC5D583FD2F5EDD93308EA7EAE8A6DD396598BDBD3D4CFED62D18A5BDFDE0DD5C80D1A89BA62697B131AE7CE9A6594138582F1B37D68F17
310
49AC7CB67A70695D48A4A056AC1FBD4E82358CEAE38F54B95A9016F9000F9879C0D9D131768635CA798895F27D6F1614F11F2838A83611AA51C9A3DDB539D42979C29F10465655C17BEC3E2760B80DCBF609198C7B171A531905F3EC218D696025975E986C6B4C666666787271F202805577DD5A3EF0CAFAF91B62DC4B2DB4
310
217A7606282F31D8DDBC290593BAA93EA6353AFA9939B877978481E15CFC9F2755CDC00C538F63A4BA3E80AE009B73CA0185687D339A507D165B74290D6EE46D5C58148F020C3668ABE9EF2F7549170DC80DB41FFC1D678FF19AEB10C7133832B104B80F691B3138F97A92D26E551F1F110400D45AC71A9B9AC41A1A1B1DAE
310
ED0B0810638EFFB511D46B121C6FEA0F38CD00E03CFFEB9713FE1F9C263E4DDEC160D0497FA9A132BA608584057FB15380825DE6C7FC3C667EE947D488A09898D8E939C4953BF4EC9836344D2CC6B2971B2A21A572B06096F4982D2CC7232D46E8EA69DC83722E267754D777F97F96D5DA74E1E75178084D0E70F12AD33E5F
310
71EF2AFA599B2BEBF60A5BE475F444F240CBFE8143C334E7ED9150FEEFEF7EB020C4DBED388DD1D6A167A76F3CBF119B578AE8CFA7736ACAFA4440A1C47185638A0D2F3EB5BDDEFDA958FB13CE4AA4923D5BF840392D45544329525749734866684BF7F8D9D54D892E19BCA9F829A0F8BFCBEEA6CFDFC61D74EA1A645ED7A1
310
FF241739F15694BD835B66FEC5677E40FE69BD3F91AE402F036537218A401CB0828604AD189E575015C6F3F6BBC8AC79CF6C70653847254B31551EFCBEB5978B9DB85D58D0FA41A9DFE9C624834AA04949D24B5AE6D299E072D152D12097920F14AA92C31C3B97E28B6C2E6E9C23D63043ECBBC0A60FDF5BD0C33C127EA8A3
310
308B8B6AFFEB28B4455BF6E7AF4FC6222728357EB8E46E85053E6A8843AB23295BF838ABDA94658FEF3F832F147046B4ACD6F7D48E8FCC9618582961C898D1C7A253C91BFECBDA6BA18A1FCF70755DCCEE2222F41B76D23CA98D0CB3D95F0CF66D57FFF65E2A90F5DF40FC3187621E981BD0BC1D992787212688976B94A8F0
310
C6EF646624B570B78E068826F87CE27041A95C9A4871FF65CC17FCB1639629AD6A9517000D63AC231F3D741CB8430777E7ECF80CE7A3F73C0F162F7E56AA71F4DA80A33CD6ACEE78E2C11FAC03DAFCE929B106F8F6B3ED2DC71FF994BD9CEF4E9A94896EF1B6E2B7B4978168BCF0847A3D2A4F1B0500B926E634B174548E9F
310
BAD27153FB5FC36799B1E6C7C38A94E1F9E996796D7B485E635D5287A2AE76FBD11A341DB3F8F810385BB7296391973DC6C37C452A9305AEBBE0CDB6C566DB59FE60C8E94B1FD090354BF51439FFD1B48D725228FFA88C84F686F547107A7A235665A4593B7C34D748C1AC8D56DD5DA861EEFBADDECBBD65117E65851F9035
310
1AEB65F0EFCFF4BCFEF24CB7A5879699FAC437A7AF9099186CF006BB923A59E37D7A36A29FD8D2CBB914A5E9D0A8FD212FBF796AE9A67958FF1D5D8B85F78F96219D4714EB919929241B6C018AAE0C02069F8D919961EC5DDFBFB7573E3AC8E08BFB7C8534BE6DE045B3CD63DBD71F7638BA2309CAE398EA3A7D8F98BBBC7A
310
EB367EFA5CFA27A9F8F2F52FE878058E6209C026453F8E7E8A237DFC389E9590F6059B397CFD65183BBF936E86896612A5B5FEE49DAC8455D026218AFEBEC12B3523A45B57B82C9C97E02ACFA1184DB18E48CF615DBF39C3CC6F0B4AE6BBEEA2E39D944E290302FA3DE33FA7E40296E2EF7BF1CD855BBECFAD0FD622BEE974
310
6FC4FDFDE545AE6E3BC234CADF83A0FB76DFB145BF3828AE3436368AC24989454F8FF70A177672C711CAA1A76107218CF948CA01F873520E7A2B118EBB161ABAD432932029628B6761590C98AB590C8C8C79798CE9F715BA696E839E9131A4BB68BE923F1747FBFF165331FFDD4D05997ACD168F12CA75348DAC04C7F509FE
310
83898A8B421181AF492861CE81E4A2DD0A30850CFA95E05F097FF70F9E777310D584A75BA7018922E271DAB1D785671157685B7D383D3E074DDB4F1E44EF04B07BAAC75A062077C54B9752C738C9D804D402E02851F3F89605AF189738C18C021D2139EAF72513824E10DDD3047BACC8521ED7E98B257D1166903B1B08FA6F
310
918FD7E162913FEC7D0EF4787E29C35FBA8C6E2C9C20E9AB30AE42CA2A01A090E7D010C1B5BF9CEE2A304BF3A987FB40D836979B79E18D70F257DA61E808472DD85B82761825779D6B90CAEB0F23360C6F80A7D7D77545E95B3DFF0CF96A827F9B5BCECD2C9698718417EF80FEEDEE938AFF55859D0D540B7FE09435583A6F
310
04874A0C7E8CF234DF4879722000167F5872CEC6BF3EF7E5A8CC8121E6A359227C8A29C95212F9F735BC72A887D56B8F309FC525BFB4FD767AAEC4AEFF249CFBBD2DE1AB9969A6155C7D8DABC307E47324C1F916C7BCFF40ABA5644E9FFB9238D19ADADA49D9610F01ABBA57E4DFCBDCCBB2B93C8953206C91DE01B0E2651A
310
6D6C31721915B31F7B7CBCE55466F6D70402788FA91D73BE4ADCBA99A35F17D6B83383704917D6833F0FA3CD45C926ADB8BC17999A4A0AFBCE2541F7B8CF4C2F5FBA611B3E626D64407CB32C122DFF4EF8674D6EDBB86C8F7C6A16D50FA685E2CCA34F8F7D1D8265BB0042E9D7F1F666F7BE5FAA5184DF58E12122A42EF02F
310
461B3F369AC746F96528AD208512AB56844CF75B97F352DF7995024FB02855385854F3798670D01CAC771AC3E1889EC25F61A20C1F8CAB46898817F9C47E2CDA1F286BF2F358298709FE567C91133E2638C8B53975E753EA8BFD3578B5F7186B7BF084EBA3F77BAC3132A5779902EC22AF2D2E79F42D324E083386DAEE9810
310
D1B44A5DAA54513C7A71E52A4AB9257D975B621308FE4D2141CC3DCFE946C154A3C1DFCCA7629EC69ACFA831634ADDA93C0388D2A9A2DDAFCF957C6995BCE7FBB6DC4EBAE79E63EB08E9A25F52F67076F7093CA545CA3053B5BF576DEAD4E0017143C5F759F32B2D6F145B52B67B48909B7C7FCA6586EE385A2189C16932CB
310
6DDFD9152AE317C430492A578ED27B72D85D40C7C93C097939E1B50F4D67F05334FE9DC362C30B7FF561B95259138ECFD9274C8D695C31B14D4EAA9F3D7FA8DDF652F8C5DEFA23284C799B7D94416DEE81E05A866302DC70192A5368EA65E1CED8BF107A1E2D3119A71E85DC1A7B0C1E93274CE04DD0F2ABC8AC7C987FDB00
310
2B6F81757B43502EF7A0D92E416494FAEEA4C9C090CD9557AA4D532F4996A272B94355C5A0E4974EEA9627476F30809B94D8D8D860062E02204643BEC7D0438AF800FC7E2B26955D595421E83C69E1A07E0E3122285835F014AD538188CF9737CE76D464A353FA55A001AB2526B84E985083693BC76FE211CA1D000679C889
310
E3C009832C87E1AC2EDD05C302557422DF0800E316FCAC86978A371F025A6C7DAA9F333E7BD160403A1A06EA75AA9888FF01504B0304140006080800DC8C8D5051464CB48900000043010000360000006662782F38314541394537432D383538362D343742342D414143322D4142343341353944363838432F646972656374
310
6F72792E786D6C9D8F310EC2300C45AF127987122606C71DD918B841D4B851A43646695A717C52A85029031293A5A76FBF6FACEF7DA7264E43906840EF0FA03836E242F406C6DCEE4EA06AC22492573150D1F66C60C640E8938CB705396EEDD86DE9B5042FE27813D640EA63BB001C722AF6E55CB61E4863F58284D5D3F53D
310
D715CE1C3985E63FD7F1B7EBDD617E9F1E504B0304140006080800DC8C8D5062BD2E8149070000541C0000340000006662782F38314541394537432D383538362D343742342D414143322D4142343341353944363838432F6F626A656374732E786D6CDD59596FDB3810FE2B84F665F74196E42B76E1B8F095C228D21635BA
310
D837819669871BEA002525CEFEFA1D52A42C2AB2ADF40016EB00B64251C3996FEED1E4FD3164E889F094C6D1ADE5755C0B91288877343ADC5A79B6B747167A3F45131EC759659F85221C925B4B2C5BD3C981C779A29676648F73565FBD9BFF85D28044C44201C3697A6BA5C103097107E759BC23E963678733DC39EC8F1DAF
310
536C34C91E384E1E6A47259893280356613D022A8A03CFFC174472A613476C30B6F5DA6DEB5ED8E648C14D46699466380A5E71553BAE7B86ABDA713DAFBF5C7507637BD0EFF7ECFEB0EBD9F3BBF9D2F66E7AEE62B8588C67ABB185A6936D1CB35201098976A0C5176BEA4D1C71A7145FA1D0C47710471109149A4D1B7644D1
310
A524AD636200EB49D12A0A2964AD2CF45A0A7F665B2B500C960CB4B570FAB76ABDF1F66F00216D63A53C25C2CAD38C83AE15F6853FB813A75835F4425314E28C708A196274CB310705C1D642410619E12D82141298492D6A7A555EC1B0AFFB521397FB9C31E1BFD6547A9A0FFE48B2547246FF21FCC47DF534E009A4CD6994
310
8D94B0D94B0224C613472E16F77A5D75B30012ED193E80B580986253AF5BC36B2162C17A694D3FDE6D8F1B111F9A0F4F789C109E09CB93CEACFC4E6BB0625A607C2D40297035757742E52B40FF09902F794113D01CA7C7FEB1AF65E7384AF7310F413BC845B60B5F2E1297AFAE264EF9F0142123569EC314DCF627616A8861
310
9C5D81743A7902A38F794F09B70930039BBEA791F0733014C462588278BFDF1EADE91A82292CC2539881F4F03771C425829F820EC49B9A869AC26F0B456987A9FBD949571FC066380D4A5519329EC377F053F09D2D371F3739DFE380DC2BC75E923D8D6806C9B499210374C3E5BFAD3F498FFCC0E22D66A7A78D4D011C7388
310
45DC6850CB46A90549BD0027220D179A912BF714BC9D311C91384FD57A539C0A6216737FFBE2172EDC78D69FDA068AC3940134C63248EE01A789C0C49A2A6D9581B05311142C0C7365818742ABFE360F131F87711E8950FBDA14EB7C409C1196085425356DD8DA6B35D91DDDEFF314825723C98501A4F2674DB8B0F03EC4B1
310
267E39D9730C49348E7C0A39189CA5F104E38012BCCB3CA784ED7DCA581EFA7BCA208FF8214ECED06F294135733D9297E798EF1A099A96A57D52DB90005C01AB41D2D9AA88F94AA79C3C515166CA7CA6B381B143D5A1D6B47F265D884CD100A8364669E6ABA53B1B0E160B7B319EAFECFE6C39B767C3FECA76DDE1C0ED0DFA
310
ABD502DC5F598944E014ADAAF90E5429CA1CC3FFB2873CDC469832B82128E05DF2EEBDCC9EB70E844667E4AD66E3D5CDC21E0D4643BB7F33EFDBB3D9A26BCFE6FDDE6C305E0E47A385C3491AE73C20A9D3755C5F9B64121DCE7155C65291B5407EF856904259733DD9697DD585F91FC7D07A4E3094F85F0DA265EC6A2808DB
310
0651F1683D84E2E051A4283F80AAAFD17D6A41B4CE47539C7B635C763B3D577E3C6FDC75C7DDD178306819F6E4493F1CE99A6408A0F3CC333F4E7040B3E6945A43A625CB6FCA2E9D9E3728B0D1DFDD2E02BC5AAF964C5DCE4C8A299F86F840FC3D167D454328BD267163D63BB0384D694452D917BEAA176B34DDCE29FEAA2C
310
DD60B634F54392E1EFB158D968D4BC00A239F3A183CDC40CE16A1D51BA80EA59CE5114FD32A47A29FF8B9FE23061456F7C0D03AFAB83BDEE8A9A2C54302D8E7802FBF471E6BB3B22471DD7A897ECEB8AA2516B75EAE3EF267F061E5D09FD4278F411ED8BADCEC01B8BCF08C2D070E0F58637A52AAEA1A50FCB44EFC772E856
310
8317FF99D0C343ABE2B49D562A655E5188672484D61767396FE5B150E4BC3A4845869A4B544E7A6341297B3EDDF58121CBA6EF5C495C39066A571AC16CAC9520AFA4683462A90B390714E3AE3778F6456557A9FE70C4FCE55576D5FD42280EDBE00015765102ABF863D4E18D95BA5143A5CF380B20946EE4AF3D078FD891DD
310
A99933C83595F5BAA6BD5671AF45480D61CA8B45A4BD1717EC2B065543C79D3A1F8A42CF29D6D722B57560A07DE2C360DAA4F5F9C3A64605565A3FFD4560449E6B14D4EA4274D017487D5B9FE604350A4AA26FEB0B8FFF27BA10ADC04A370213E434661406F964870E2486FC0DA38A161D0A0F492AF3F2A9B3D16F115A3CFD
310
54CC6133BC65BA2F0A1E300CB399EADFF20006A990336F2DB58E7E83D1A9985ECA8156E7115A3715C32C94737A6B81C566143AB4CE16466072E028A9D7469CE0D8383A888C5F3C55FE7F7AEC55C756EE69838B92CC7026288513F96E01EABEE2C674F2FDA26B7610CEE0729B67A530A78593340A04FD12A1100E26858F0ADE
310
23941497E5F23A728FD1C4B69AE65FB48382AA9D617E9023F98A4DCE965F1C314D5F7F4609CB0F429D973A6683922D3A75961793AB0918861233C1A28A5CBC73BEF0185E4B85E88E8211A0DF8FA3E11FCE220EC3382A969C997AB985360FF0AA6AE7E83121B4FEAE3776E4E440BD0AF0B738251DBC4B1F610154CBA998A716
310
101B065046D38A01688D085DC063C6FEF512A9EAA83255A9865D018F7C0F80C091C4FB1FE136D50D95A125F80270256F9E2EF4C2C4E130389FFE0B504B0304140006080800DC8C8D5006B439CCE2000000550100003C0000006662782F38314541394537432D383538362D343742342D414143322D41423433413539443638
310
38432F7265736F75726365732F322F636E782E786D6C4D90DD6A032110855F65117AB9EA6E5A12826B5EA257BD09562756A2CEE24F69DFBE9A5AE8D50CE77C0C678EB87C053F7D42CA0EE34616CAC90451A371D16EA496DB7C22D3458A8458FE61648A2AC046BA4CA4B009EB3E240337557D57BD8BF721F2AB8508C9E9EB1E
310
2D99B457396F24EB0F088AAA5AD040BE53A38AA20B4D90B1260DED447101C6099D40153044AE7CE5337F9E97C3EB723C1F4EE797E39B609D94E21DD10FDEC50209F7A7956B6C6B6C89B8601D90A22637A8FE4633FEE2D1164FB0664B914B6A1D0CAC7CEF0D734159600FE4D79582F527DB7834D0662F44FE00504B03041400
310
06080800DC8C8D50FF15A4A45D000000800000003A0000006662782F38314541394537432D383538362D343742342D414143322D4142343341353944363838432F7265736F75726365732F636E782E786D6C4D8B3B0E80201005AF42B6F75B59F0390B113044D83508C6E30BC6C26AF226F3B8BA6360974DA7271430F52330
310
8B2B198F9B80925DB700539227A2FCCB80A18E5640D320F996A81C9F32D6E9129A0D1EF74FCE750E6D57BC7165FBCA07504B0304140006080800DC8C8D50E6695A764301000056050000300000006662782F38314541394537432D383538362D343742342D414143322D4142343341353944363838432F636E782E786D6CCD
310
94C14E032110865F6543E271D9DD56D3C6B034F1E0137830DE5876BA6259D8C060ECDB0B95B61AD3E8A1497B23C347F2FF333FC3561FA32EDEC179654D4B1A5A93028CB4BD32434B02AECB2529569C396BF11B460A234668492A13CE0667C3944B3DAC45D0A9AA95D9E4A24074AA0B089E14520BEF5BE2E52B8C828A80B607
310
BFA1BD40411BEAC0DBE024C4F7A846C8EFA50381D0133EAB677559DF96CDFCA959DCCF97F7778B17562592B3CE5A9D7965109C9D6E66B5B4F168A29C9A5509E02C3895A9E481F0A336DA29C3AA78CF998F7ACD9039DC4E899B26ADA4C0D8A8CA4A042C23046264D517CC59951CFFF0FDF8F07CD4104FBD7220D1BAEDC5DAD0
310
9C6AC3411A8D89F85F1776E05FE66DF7162D5F6EEE270D676167B3BB4FAE8FD1FD9D84982761067D8D1FE020EDFCF98F8B0595BC46D37B6567F25CED56601C7CDA88FC13504B0304140006080800DC8C8D50F1FE72E57E000000A30000000B0000006662782F636E782E786D6C4D8CD10E822018465F85FDF75416EAEF0638
310
241FC4253A264233693D7ED0BCE8EADBCEBE7378FB591D799BED658317509C2E408C7F84D1FA5940DC278A405AC9B710F6BF1B103FAC4640C620F9BC85F83CD068A621BA4C9DF5CB01B1E855D3D79A6289156575C7A852FA4A55C76EAA6CEE15A24EC6392B697EBDB4392FBF504B0304140006080800DC8C8D50A6D797065F
310
0000008200000007000000636E782E786D6C4DCB3B0E80201045D1AD90E9FD7516806B51190811670C8A61F982B1B0BAC9C97B72CA7B1037C6D3332918DA1E04D2CAC69353902EDB8C20262D23F3F59B81A079470595414B17391D1F19B4730A5583A7ED43BBE4025D9592775E5ADFFA01504B0304140006080800DC8C8D50
310
ECFD112DA800000026010000130000005B436F6E74656E745F54797065735D2E786D6C7D4F4B0EC22010BD0A61DF525D18634ABB506FE00510A79458060253536F2FD89D5197F3FED3F68B9BD80362B21E25DFD40D6780DADF2C1AC9671AAA3D677DD75E9E0112CB5A4C928F44E12044D22338956A1F003333F8E814E5331A
310
1194BE2B0362DB343BA13D122055543278D79E6050F344ECBC6478EDCD76CE8EABAE5449AE4298AC56946789C28AAFBEABC53F3EAF09A84A1441B91F0101CD4780756578C173A578FFDDBD00504B0304140006080800DC8C8D503DEE336E64000000790000001B0000006175746F6465736B2D64657369676E2D7061636B61
310
67652E786D6C35CBC10E83200C00D05F21DCA56CA76D41FC96062B120735B69A7DBE268BB7777961F8D5AF396893C2ADB70FE7ADA196782C2DF776D7A97B5933C430F15651E5469C55D70F80A4992A3ADC954792C525AE70A1E4D6AD9816CC044FEFDF01FE3FDE907802504B0304140006080800DC8C8D507661276AF40000
310
008E0100003D0000006662782F38314541394537432D383538362D343742342D414143322D4142343341353944363838432F7265736F75726365732F322F636F72652E786D6C8550CB6E833010FC15B477830D38A0C838A2B4FD829E7AB38C43AD041BF951F5F36B072AB5A79E76353B33BB3BECF2B5DE8B4FE5BCB6660052
310
6228949176D6661920862BEAA1B870E6AC0DBF685018B1AA01320C9C2DCEC6ED80A43541998C1A3BAB0314DEAB0085BCA766002F3FD42A4A114362F85BB90979138B2A49B9F3388B51CF8754CFC94D5FB572C0C7E9F934BD4C14D17EAA518B5F291A29794298F45D33B6DD89362DABB298B3A0D79FEDD22911D40CBCC63546
310
B845A47923DDB9E9CFB47B67556672E6834B3F1F4BF37789CEAA1DFDE316B7F97FB7A84D68EAC36D5778E0241DF7187056E574527944976A4E927F03504B0304140006080800DC8C8D501C4FC43CF9000000960100003B0000006662782F38314541394537432D383538362D343742342D414143322D414234334135394436
310
3838432F7265736F75726365732F636F72652E786D6C8550CB6E84300CFC15E47B80F058D02A644569FB053DF516052F8D7649501E553FBFC942A5F6D493ADF1CCD81E76F95AEFD9275AA78C1E80E62564A8A599955E0608FE4A7AC82E9C5963FC2F1A645AAC38408281B3C59AB01D9034DAA34EA836331EA0700E3D64F21E
310
9B019CFCC055E422F8C870B77C13F22616CC69BEF3380B41CD8754CDD14D5D155AE0E3F47C9A5EA696B4FD5491A67C6DC9D8D22752D2BEABC7A63BB575C38A24E6CCABF567BBB4283CCEC0ABB22A49D9105ABFD1EE5CF7E7B67B67456272E6BC8D3F1F4BD377C02D3A13AC44C78A7DFAC7356CF3FFAE41695F5787EBAE70C0
310
693CF231E0AC4829C5F28830D69428FF06504B0304140006080800DC8C8D50E4A06E83F3000000B1010000310000006662782F38314541394537432D383538362D343742342D414143322D4142343341353944363838432F636F72652E786D6C8D50CB6EC32010FC156BEFD8C68F984498C871F3073DF58630715162B07854
310
FDFC42EC4AED2DA745B333CCECD0F3F7F2C8BEA475CAE81E705E4226B53093D2730FC1DF1081ECCCA835C6FFA141A6F9227B4830303A5B13D61D12467BA913AACD2477903B273D64E2111F3D38F129179EF3E023C3DDF3958B3B9F658EF38DC7A857CBAF5458C9BD9C80556555A2B241B87EC7DDA926A7B6FBA04562321A82
310
9A762B3545777553D20223F83A1CAFDD88484B0EA8E92E0D1A86B142C3A5A987F6F8762064A4451233EABC8D37EF9FA4EB5E956FC27F99C33ABD9059695F57BBE1A670C070CCF35C305AA402E378B61B672A9BFD00504B0304140006080800DC8C8D50A26EDAC953010000DD0200000C0000006662782F636F72652E786D6C
310
8D52DB6E842014FC15C33BDE5DCD06D96C6DFB057DEA1B8B68C92A1804B39F5FF012EB43B78D099239E7CC9C99802E8FBEF326A6462E4509223F041E1354D65CB42530BA8105F02E182929F58F36E009D2B312381860D42A698615A25268261C2A64CD56908C23D3C0A39DBD9460A45FAC273E31DA768C777F20F44E5AE647
310
FED2879131BC5E47796DD978C39902F85ABD9EAAB72A835951C5300DDF3378CDA2171846459E5CD3FC9425290ADC30469AF79B3A558C6856031C877108C31446C947949F93E29CE59F28709D188D5A59CFABA8730770737BA060C10F7C66A8FFE6335CE8245EF9968911E0C8AE3717300A5C3EF6378777CCD00ADBFC34B975
310
9B85BB852646B554A9ADD4D2ECA589748659EAD09B3F142C55CB3C13FCC6133FE179CE618322A2B5AB116DAF37A39DFA71A7812938E98727A4EA49B72FB7ACB89FBBD0C1D2364E6527D57FA637AB5B98817B98F81B504B0304140006080800DC8C8D50D4F45E7208010000B201000008000000636F72652E786D6C8D50CB6E
310
C32010FC15B4776CF023B6224CE4BAED17F4D41B35C441B1C13210B57F5F485CA9BDF5B4686676671876FA5C6674539BD3D6744033024899D14A6DA60E823FE316D089B3CD5AFF4B06C88845759060E06CDA6C587768B4C62B935063A5DA41E19CF280C6393E3A70E3452D2213C14785BB66AB18AF625219CD1E3ACEBC5E7E
310
56C74D09AF24F0821404930AD3F28D36C7B23DD6CD3BCB9392B310B4DCADB48CEEFAACD506BC1F9E0FC3CB50E3BA1D0A5C91D71AF7357DC284B64DD957CDA12E2B96A765CE9CDFE29FF72331A7474EDC922FCB1F14671FD6CEBB208692C89AF90B38617922FE840EABFC47686D7C59EC071F1B0E388D81EE44344E0DC671AF
310
37CED436FF06504B01021400140006080800DC8C8D500000000000000000000000003700000000000000000000000000000000006662782F38314541394537432D383538362D343742342D414143322D4142343341353944363838432F617474726962757465732E62696E504B01021400140006080800DC8C8D5000000000
310
00000000000000003500000000000000000000000000550000006662782F38314541394537432D383538362D343742342D414143322D4142343341353944363838432F76657274696365732E62696E504B01021400140006080800DC8C8D50F270F13306000000040000003600000000000000000000000000A80000006662
310
782F38314541394537432D383538362D343742342D414143322D4142343341353944363838432F747269616E676C65732E62696E504B01021400140006080800DC8C8D5088E57597CD3F0000904100004200000000000000000000000000020100006662782F38314541394537432D383538362D343742342D414143322D41
310
42343341353944363838432F7265736F75726365732F322F305F67656E657269632E706E67504B01021400140006080800DC8C8D5051464CB4890000004301000036000000000000000000000000002F4100006662782F38314541394537432D383538362D343742342D414143322D4142343341353944363838432F646972
310
6563746F72792E786D6C504B01021400140006080800DC8C8D5062BD2E8149070000541C000034000000000000000000000000000C4200006662782F38314541394537432D383538362D343742342D414143322D4142343341353944363838432F6F626A656374732E786D6C504B01021400140006080800DC8C8D5006B439
310
CCE2000000550100003C00000000000000000000000000A74900006662782F38314541394537432D383538362D343742342D414143322D4142343341353944363838432F7265736F75726365732F322F636E782E786D6C504B01021400140006080800DC8C8D50FF15A4A45D000000800000003A0000000000000000000000
310
0000E34A00006662782F38314541394537432D383538362D343742342D414143322D4142343341353944363838432F7265736F75726365732F636E782E786D6C504B01021400140006080800DC8C8D50E6695A7643010000560500003000000000000000000000000000984B00006662782F38314541394537432D38353836
310
2D343742342D414143322D4142343341353944363838432F636E782E786D6C504B01021400140006080800DC8C8D50F1FE72E57E000000A30000000B00000000000000000000000000294D00006662782F636E782E786D6C504B01021400140006080800DC8C8D50A6D797065F000000820000000700000000000000000000
310
000000D04D0000636E782E786D6C504B01021400140006080800DC8C8D50ECFD112DA8000000260100001300000000000000000000000000544E00005B436F6E74656E745F54797065735D2E786D6C504B01021400140006080800DC8C8D503DEE336E64000000790000001B000000000000000000000000002D4F00006175
310
746F6465736B2D64657369676E2D7061636B6167652E786D6C504B01021400140006080800DC8C8D507661276AF40000008E0100003D00000000000000000000000000CA4F00006662782F38314541394537432D383538362D343742342D414143322D4142343341353944363838432F7265736F75726365732F322F636F72
310
652E786D6C504B01021400140006080800DC8C8D501C4FC43CF9000000960100003B00000000000000000000000000195100006662782F38314541394537432D383538362D343742342D414143322D4142343341353944363838432F7265736F75726365732F636F72652E786D6C504B01021400140006080800DC8C8D50E4
310
A06E83F3000000B101000031000000000000000000000000006B5200006662782F38314541394537432D383538362D343742342D414143322D4142343341353944363838432F636F72652E786D6C504B01021400140006080800DC8C8D50A26EDAC953010000DD0200000C00000000000000000000000000AD530000666278
310
2F636F72652E786D6C504B01021400140006080800DC8C8D50D4F45E7208010000B201000008000000000000000000000000002A550000636F72652E786D6C504B050600000000120012002D060000585600000000
  0
CELLSTYLEMAP
  5
DFE4
102
{ACAD_REACTORS
330
DFE3
102
}
330
DFE3
100
AcDbCellStyleMap
 90
        3
300
CELLSTYLE
  1
TABLEFORMAT_BEGIN
 90
        5
170
     1
 91
        0
 92
    32768
 62
   257
 93
        1
300
CONTENTFORMAT
  1
CONTENTFORMAT_BEGIN
 90
        0
 91
        0
 92
        4
 93
        0
300

 40
0.0
140
1.0
 94
        5
 62
     0
340
11
144
6.0
309
CONTENTFORMAT_END
171
     1
301
MARGIN
  1
CELLMARGIN_BEGIN
 40
1.5
 40
1.5
 40
1.5
 40
1.5
 40
1.5
 40
1.5
309
CELLMARGIN_END
 94
        6
 95
        1
302
GRIDFORMAT
  1
GRIDFORMAT_BEGIN
 90
        0
 91
        1
 62
     0
 92
       -2
340
14
 93
        0
 40
0.045
309
GRIDFORMAT_END
 95
        2
302
GRIDFORMAT
  1
GRIDFORMAT_BEGIN
 90
        0
 91
        1
 62
     0
 92
       -2
340
14
 93
        0
 40
0.045
309
GRIDFORMAT_END
 95
        4
302
GRIDFORMAT
  1
GRIDFORMAT_BEGIN
 90
        0
 91
        1
 62
     0
 92
       -2
340
14
 93
        0
 40
0.045
309
GRIDFORMAT_END
 95
        8
302
GRIDFORMAT
  1
GRIDFORMAT_BEGIN
 90
        0
 91
        1
 62
     0
 92
       -2
340
14
 93
        0
 40
0.045
309
GRIDFORMAT_END
 95
       16
302
GRIDFORMAT
  1
GRIDFORMAT_BEGIN
 90
        0
 91
        1
 62
     0
 92
       -2
340
14
 93
        0
 40
0.045
309
GRIDFORMAT_END
 95
       32
302
GRIDFORMAT
  1
GRIDFORMAT_BEGIN
 90
        0
 91
        1
 62
     0
 92
       -2
340
14
 93
        0
 40
0.045
309
GRIDFORMAT_END
309
TABLEFORMAT_END
  1
CELLSTYLE_BEGIN
 90
        1
 91
        1
300
_TITLE
309
CELLSTYLE_END
300
CELLSTYLE
  1
TABLEFORMAT_BEGIN
 90
        5
170
     1
 91
        0
 92
        0
 62
   257
 93
        1
300
CONTENTFORMAT
  1
CONTENTFORMAT_BEGIN
 90
        0
 91
        0
 92
        4
 93
        0
300

 40
0.0
140
1.0
 94
        5
 62
     0
340
11
144
4.5
309
CONTENTFORMAT_END
171
     1
301
MARGIN
  1
CELLMARGIN_BEGIN
 40
1.5
 40
1.5
 40
1.5
 40
1.5
 40
1.5
 40
1.5
309
CELLMARGIN_END
 94
        6
 95
        1
302
GRIDFORMAT
  1
GRIDFORMAT_BEGIN
 90
        0
 91
        1
 62
     0
 92
       -2
340
14
 93
        0
 40
0.045
309
GRIDFORMAT_END
 95
        2
302
GRIDFORMAT
  1
GRIDFORMAT_BEGIN
 90
        0
 91
        1
 62
     0
 92
       -2
340
14
 93
        0
 40
0.045
309
GRIDFORMAT_END
 95
        4
302
GRIDFORMAT
  1
GRIDFORMAT_BEGIN
 90
        0
 91
        1
 62
     0
 92
       -2
340
14
 93
        0
 40
0.045
309
GRIDFORMAT_END
 95
        8
302
GRIDFORMAT
  1
GRIDFORMAT_BEGIN
 90
        0
 91
        1
 62
     0
 92
       -2
340
14
 93
        0
 40
0.045
309
GRIDFORMAT_END
 95
       16
302
GRIDFORMAT
  1
GRIDFORMAT_BEGIN
 90
        0
 91
        1
 62
     0
 92
       -2
340
14
 93
        0
 40
0.045
309
GRIDFORMAT_END
 95
       32
302
GRIDFORMAT
  1
GRIDFORMAT_BEGIN
 90
        0
 91
        1
 62
     0
 92
       -2
340
14
 93
        0
 40
0.045
309
GRIDFORMAT_END
309
TABLEFORMAT_END
  1
CELLSTYLE_BEGIN
 90
        2
 91
        1
300
_HEADER
309
CELLSTYLE_END
300
CELLSTYLE
  1
TABLEFORMAT_BEGIN
 90
        5
170
     1
 91
        0
 92
        0
 62
   257
 93
        1
300
CONTENTFORMAT
  1
CONTENTFORMAT_BEGIN
 90
        0
 91
        0
 92
        4
 93
        0
300

 40
0.0
140
1.0
 94
        2
 62
     0
340
11
144
4.5
309
CONTENTFORMAT_END
171
     1
301
MARGIN
  1
CELLMARGIN_BEGIN
 40
1.5
 40
1.5
 40
1.5
 40
1.5
 40
1.5
 40
1.5
309
CELLMARGIN_END
 94
        6
 95
        1
302
GRIDFORMAT
  1
GRIDFORMAT_BEGIN
 90
        0
 91
        1
 62
     0
 92
       -2
340
14
 93
        0
 40
0.045
309
GRIDFORMAT_END
 95
        2
302
GRIDFORMAT
  1
GRIDFORMAT_BEGIN
 90
        0
 91
        1
 62
     0
 92
       -2
340
14
 93
        0
 40
0.045
309
GRIDFORMAT_END
 95
        4
302
GRIDFORMAT
  1
GRIDFORMAT_BEGIN
 90
        0
 91
        1
 62
     0
 92
       -2
340
14
 93
        0
 40
0.045
309
GRIDFORMAT_END
 95
        8
302
GRIDFORMAT
  1
GRIDFORMAT_BEGIN
 90
        0
 91
        1
 62
     0
 92
       -2
340
14
 93
        0
 40
0.045
309
GRIDFORMAT_END
 95
       16
302
GRIDFORMAT
  1
GRIDFORMAT_BEGIN
 90
        0
 91
        1
 62
     0
 92
       -2
340
14
 93
        0
 40
0.045
309
GRIDFORMAT_END
 95
       32
302
GRIDFORMAT
  1
GRIDFORMAT_BEGIN
 90
        0
 91
        1
 62
     0
 92
       -2
340
14
 93
        0
 40
0.045
309
GRIDFORMAT_END
309
TABLEFORMAT_END
  1
CELLSTYLE_BEGIN
 90
        3
 91
        2
300
_DATA
309
CELLSTYLE_END
  0
ENDSEC
  0
SECTION
  2
ACDSDATA
 70
     2
 71
     2
  0
ACDSSCHEMA
 90
        0
  1
AcDb_Thumbnail_Schema
  2
AcDbDs::ID
280
    10
 91
        8
  2
Thumbnail_Data
280
    15
 91
        0
101
ACDSRECORD
 95
        0
 90
        2
  2
AcDbDs::TreatedAsObjectData
280
     1
291
     1
101
ACDSRECORD
 95
        0
 90
        3
  2
AcDbDs::Legacy
280
     1
291
     1
101
ACDSRECORD
  1
AcDbDs::ID
 90
        4
  2
AcDs:Indexable
280
     1
291
     1
101
ACDSRECORD
  1
AcDbDs::ID
 90
        5
  2
AcDbDs::HandleAttribute
280
     7
282
     1
  0
ACDSSCHEMA
 90
        1
  1
AcDb3DSolid_ASM_Data
  2
AcDbDs::ID
280
    10
 91
        8
  2
ASM_Data
280
    15
 91
        0
101
ACDSRECORD
 95
        1
 90
        2
  2
AcDbDs::TreatedAsObjectData
280
     1
291
     1
101
ACDSRECORD
 95
        1
 90
        3
  2
AcDbDs::Legacy
280
     1
291
     1
101
ACDSRECORD
  1
AcDbDs::ID
 90
        4
  2
AcDs:Indexable
280
     1
291
     1
101
ACDSRECORD
  1
AcDbDs::ID
 90
        5
  2
AcDbDs::HandleAttribute
280
     7
282
     1
  0
ACDSSCHEMA
 90
        2
  1
AcDbDs::TreatedAsObjectDataSchema
  2
AcDbDs::TreatedAsObjectData
280
     1
 91
        0
  0
ACDSSCHEMA
 90
        3
  1
AcDbDs::LegacySchema
  2
AcDbDs::Legacy
280
     1
 91
        0
  0
ACDSSCHEMA
 90
        4
  1
AcDbDs::IndexedPropertySchema
  2
AcDs:Indexable
280
     1
 91
        0
  0
ACDSSCHEMA
 90
        5
  1
AcDbDs::HandleAttributeSchema
  2
AcDbDs::HandleAttribute
280
     7
 91
        1
284
     1
  0
ACDSRECORD
 90
        0
  2
AcDbDs::ID
280
    10
320
22
  2
Thumbnail_Data
280
    15
 94
     1566
310
89504E470D0A1A0A0000000D49484452000001000000007E0803000000FCF33F5100000300504C5445212830FFFFFF2128300000000000000000000000000000000000000000000000000000330000660000990000CC0000FF0033000033330033660033990033CC0033FF0066000066330066660066990066CC0066FF0099
310
000099330099660099990099CC0099FF00CC0000CC3300CC6600CC9900CCCC00CCFF00FF0000FF3300FF6600FF9900FFCC00FFFF3300003300333300663300993300CC3300FF3333003333333333663333993333CC3333FF3366003366333366663366993366CC3366FF3399003399333399663399993399CC3399FF33CC00
310
33CC3333CC6633CC9933CCCC33CCFF33FF0033FF3333FF6633FF9933FFCC33FFFF6600006600336600666600996600CC6600FF6633006633336633666633996633CC6633FF6666006666336666666666996666CC6666FF6699006699336699666699996699CC6699FF66CC0066CC3366CC6666CC9966CCCC66CCFF66FF0066
310
FF3366FF6666FF9966FFCC66FFFF9900009900339900669900999900CC9900FF9933009933339933669933999933CC9933FF9966009966339966669966999966CC9966FF9999009999339999669999999999CC9999FF99CC0099CC3399CC6699CC9999CCCC99CCFF99FF0099FF3399FF6699FF9999FFCC99FFFFCC0000CC00
310
33CC0066CC0099CC00CCCC00FFCC3300CC3333CC3366CC3399CC33CCCC33FFCC6600CC6633CC6666CC6699CC66CCCC66FFCC9900CC9933CC9966CC9999CC99CCCC99FFCCCC00CCCC33CCCC66CCCC99CCCCCCCCCCFFCCFF00CCFF33CCFF66CCFF99CCFFCCCCFFFFFF0000FF0033FF0066FF0099FF00CCFF00FFFF3300FF3333
310
FF3366FF3399FF33CCFF33FFFF6600FF6633FF6666FF6699FF66CCFF66FFFF9900FF9933FF9966FF9999FF99CCFF99FFFFCC00FFCC33FFCC66FFCC99FFCCCCFFCCFFFFFF00FFFF33FFFF66FFFF99FFFFCCFFFFFF0000000D0D0D1A1A1A2828283535354343435050505D5D5D6B6B6B787878868686939393A1A1A1AEAEAEBB
310
BBBBC9C9C9D6D6D6E4E4E4F1F1F1FFFFFF0000000000000000000000000000000000000000000000000000000000002E4550F1000002D64944415478DAED9DD972C3200C45F5FFFF7BDF3B6DE3C46689B159ACE5F2D04ED2498D0F572009118B3CDC20C19B190030D6A24B95001C01B8A5698700AECD00AE00645747F202F9
310
47A8002AC01380741A4C47BB30FE3401FA0104400004400004400004A01FC09FA78BB7FFFAF2613E0E2E9C03C8BC5A493D5CEF003E2AF8BFE77000E624385703F8ED245E3FB6B1934CDC0BE1AF07905BB140464568B0A580CC88AF2A0069960305DE4A1530C49A73BD403B804B63DB382F962E8FF78A611480ACDAFC520CA0
310
EBFA68ED885E3F005D1FF400A08B800B05F4103802406400B00BA0878071000BEB409402F8F8CB5F1835270F0C2A60BBC1BB3DDFB9C834018B263064FDB2BE0A10C00800E7F110015803F09B323ACABA768FA600D4BA5806806600621EC098A54F3500E08B5F571D3B9C86CB30110ECFACDA160B00BA121F04400004E01900
310
BAD62F5801505E06161E0B7A1CC0A6806C87AF5B0168B23125009261C2C88EE8DE1A230002880E00B549301080DD62B5FD0AA880F74BDB002EC7B5495CFF0080E191B835005A3CC1D610C03F008C05A0BD482A2F731B961F3300A09CC01D1B07DA5380D004E2980027412E83951D1E02081B0C850F87991009380748E89418
310
0840F6078117008034178F2C0080252650D874D3120DAEDF1A530500B27E7334FBC34C00C901D1E498ECB773FFFD3DABD5C8EFD30D321F40F974ECF909614C9322441E017071D77E2280952630F17FB4644D70FAA65D00C0DD53C15600B49481DEAA14C5BE805A358049A541C8CE97AB0430AF1951C05C0042002F27802610
310
168044370159E30A2B0520C14D6061344805A806204205840460231FB0581204400004E00240F8072D416E7C21A74B0097BE94D21B00890C20FC1C906DB9E1BC471E011C2AA581D21EED67E04398402C00071388E607A41D083907141F26551F6D9F93E0E19D4000A40800F64DE05601942747A8B1FBFB6477F3CD7A5D066B
310
F36146034BF51AE2C1CB765237C6DAD3007E00C15B4BD7CE9E5AFE0000000049454E44AE426082426082
  0
ENDSEC
  0
EOF
