  0
SECTION
  2
HEADER
  9
$ACADVER
  1
AC1032
  9
$ACADMAINTVER
 90
        4
  9
$DWGCODEPAGE
  3
ANSI_932
  9
$LASTSAVEDBY
  1
wtnbh
  9
$REQUIREDVERSIONS
160
                 0
  9
$INSBASE
 10
0.0
 20
0.0
 30
0.0
  9
$EXTMIN
 10
-5350.913882832027
 20
-693.6811689244603
 30
0.0
  9
$EXTMAX
 10
-4268.273882832027
 20
52.35883107553991
 30
0.0
  9
$LIMMIN
 10
0.0
 20
0.0
  9
$LIMMAX
 10
420.0
 20
297.0
  9
$ORTHOMODE
 70
     0
  9
$REGENMODE
 70
     1
  9
$FILLMODE
 70
     1
  9
$QTEXTMODE
 70
     0
  9
$MIRRTEXT
 70
     1
  9
$LTSCALE
 40
1.0
  9
$ATTMODE
 70
     1
  9
$TEXTSIZE
 40
2.5
  9
$TRACEWID
 40
1.0
  9
$TEXTSTYLE
  7
ARIAL_TTF
  9
$CLAYER
  8
0
  9
$CELTYPE
  6
ByLayer
  9
$CECOLOR
 62
   256
  9
$CELTSCALE
 40
1.0
  9
$DISPSILH
 70
     0
  9
$DIMSCALE
 40
1.0
  9
$DIMASZ
 40
5.0
  9
$DIMEXO
 40
0.5
  9
$DIMDLI
 40
3.75
  9
$DIMRND
 40
0.0
  9
$DIMDLE
 40
0.0
  9
$DIMEXE
 40
1.25
  9
$DIMTP
 40
0.0
  9
$DIMTM
 40
0.0
  9
$DIMTXT
 40
8.0
  9
$DIMCEN
 40
2.5
  9
$DIMTSZ
 40
0.0
  9
$DIMTOL
 70
     0
  9
$DIMLIM
 70
     0
  9
$DIMTIH
 70
     0
  9
$DIMTOH
 70
     0
  9
$DIMSE1
 70
     0
  9
$DIMSE2
 70
     0
  9
$DIMTAD
 70
     1
  9
$DIMZIN
 70
     8
  9
$DIMBLK
  1

  9
$DIMASO
 70
     1
  9
$DIMSHO
 70
     1
  9
$DIMPOST
  1

  9
$DIMAPOST
  1

  9
$DIMALT
 70
     0
  9
$DIMALTD
 70
     3
  9
$DIMALTF
 40
0.03937007874016
  9
$DIMLFAC
 40
1.0
  9
$DIMTOFL
 70
     1
  9
$DIMTVP
 40
0.0
  9
$DIMTIX
 70
     0
  9
$DIMSOXD
 70
     0
  9
$DIMSAH
 70
     0
  9
$DIMBLK1
  1

  9
$DIMBLK2
  1

  9
$DIMSTYLE
  2
ISO-25
  9
$DIMCLRD
 70
     0
  9
$DIMCLRE
 70
     0
  9
$DIMCLRT
 70
     0
  9
$DIMTFAC
 40
1.0
  9
$DIMGAP
 40
3.0
  9
$DIMJUST
 70
     0
  9
$DIMSD1
 70
     0
  9
$DIMSD2
 70
     0
  9
$DIMTOLJ
 70
     0
  9
$DIMTZIN
 70
     8
  9
$DIMALTZ
 70
     0
  9
$DIMALTTZ
 70
     0
  9
$DIMUPT
 70
     0
  9
$DIMDEC
 70
     2
  9
$DIMTDEC
 70
     2
  9
$DIMALTU
 70
     2
  9
$DIMALTTD
 70
     3
  9
$DIMTXSTY
  7
Standard
  9
$DIMAUNIT
 70
     0
  9
$DIMADEC
 70
     1
  9
$DIMALTRND
 40
0.0
  9
$DIMAZIN
 70
     0
  9
$DIMDSEP
 70
    44
  9
$DIMATFIT
 70
     3
  9
$DIMFRAC
 70
     0
  9
$DIMLDRBLK
  1

  9
$DIMLUNIT
 70
     2
  9
$DIMLWD
 70
    -1
  9
$DIMLWE
 70
    -1
  9
$DIMTMOVE
 70
     0
  9
$DIMFXL
 40
1.0
  9
$DIMFXLON
 70
     0
  9
$DIMJOGANG
 40
0.7853981633974483
  9
$DIMTFILL
 70
     0
  9
$DIMTFILLCLR
 70
     0
  9
$DIMARCSYM
 70
     0
  9
$DIMLTYPE
  6

  9
$DIMLTEX1
  6

  9
$DIMLTEX2
  6

  9
$DIMTXTDIRECTION
 70
     0
  9
$LUNITS
 70
     2
  9
$LUPREC
 70
     4
  9
$SKETCHINC
 40
1.0
  9
$FILLETRAD
 40
10.0
  9
$AUNITS
 70
     0
  9
$AUPREC
 70
     0
  9
$MENU
  1
.
  9
$ELEVATION
 40
0.0
  9
$PELEVATION
 40
0.0
  9
$THICKNESS
 40
0.0
  9
$LIMCHECK
 70
     0
  9
$CHAMFERA
 40
0.0
  9
$CHAMFERB
 40
0.0
  9
$CHAMFERC
 40
20.0
  9
$CHAMFERD
 40
0.0
  9
$SKPOLY
 70
     0
  9
$TDCREATE
 40
2453585.592652732
  9
$TDUCREATE
 40
2453585.217652732
  9
$TDUPDATE
 40
2458981.711241621
  9
$TDUUPDATE
 40
2458981.336241621
  9
$TDINDWG
 40
1.9899451852
  9
$TDUSRTIMER
 40
0.0002306597
  9
$USRTIMER
 70
     1
  9
$ANGBASE
 50
0.0
  9
$ANGDIR
 70
     0
  9
$PDMODE
 70
     0
  9
$PDSIZE
 40
0.0
  9
$PLINEWID
 40
0.0
  9
$SPLFRAME
 70
     0
  9
$SPLINETYPE
 70
     6
  9
$SPLINESEGS
 70
     8
  9
$HANDSEED
  5
9B70
  9
$SURFTAB1
 70
     6
  9
$SURFTAB2
 70
     6
  9
$SURFTYPE
 70
     6
  9
$SURFU
 70
     6
  9
$SURFV
 70
     6
  9
$UCSBASE
  2

  9
$UCSNAME
  2

  9
$UCSORG
 10
0.0
 20
0.0
 30
0.0
  9
$UCSXDIR
 10
1.0
 20
0.0
 30
0.0
  9
$UCSYDIR
 10
0.0
 20
1.0
 30
0.0
  9
$UCSORTHOREF
  2

  9
$UCSORTHOVIEW
 70
     0
  9
$UCSORGTOP
 10
0.0
 20
0.0
 30
0.0
  9
$UCSORGBOTTOM
 10
0.0
 20
0.0
 30
0.0
  9
$UCSORGLEFT
 10
0.0
 20
0.0
 30
0.0
  9
$UCSORGRIGHT
 10
0.0
 20
0.0
 30
0.0
  9
$UCSORGFRONT
 10
0.0
 20
0.0
 30
0.0
  9
$UCSORGBACK
 10
0.0
 20
0.0
 30
0.0
  9
$PUCSBASE
  2

  9
$PUCSNAME
  2

  9
$PUCSORG
 10
0.0
 20
0.0
 30
0.0
  9
$PUCSXDIR
 10
1.0
 20
0.0
 30
0.0
  9
$PUCSYDIR
 10
0.0
 20
1.0
 30
0.0
  9
$PUCSORTHOREF
  2

  9
$PUCSORTHOVIEW
 70
     0
  9
$PUCSORGTOP
 10
0.0
 20
0.0
 30
0.0
  9
$PUCSORGBOTTOM
 10
0.0
 20
0.0
 30
0.0
  9
$PUCSORGLEFT
 10
0.0
 20
0.0
 30
0.0
  9
$PUCSORGRIGHT
 10
0.0
 20
0.0
 30
0.0
  9
$PUCSORGFRONT
 10
0.0
 20
0.0
 30
0.0
  9
$PUCSORGBACK
 10
0.0
 20
0.0
 30
0.0
  9
$USERI1
 70
     0
  9
$USERI2
 70
     0
  9
$USERI3
 70
     0
  9
$USERI4
 70
     0
  9
$USERI5
 70
     0
  9
$USERR1
 40
0.0
  9
$USERR2
 40
0.0
  9
$USERR3
 40
0.0
  9
$USERR4
 40
0.0
  9
$USERR5
 40
0.0
  9
$WORLDVIEW
 70
     1
  9
$SHADEDGE
 70
     3
  9
$SHADEDIF
 70
    70
  9
$TILEMODE
 70
     1
  9
$MAXACTVP
 70
    64
  9
$PINSBASE
 10
0.0
 20
0.0
 30
0.0
  9
$PLIMCHECK
 70
     0
  9
$PEXTMIN
 10
0.0
 20
0.0
 30
0.0
  9
$PEXTMAX
 10
0.0
 20
0.0
 30
0.0
  9
$PLIMMIN
 10
0.0
 20
0.0
  9
$PLIMMAX
 10
0.0
 20
0.0
  9
$UNITMODE
 70
     0
  9
$VISRETAIN
 70
     1
  9
$PLINEGEN
 70
     0
  9
$PSLTSCALE
 70
     1
  9
$TREEDEPTH
 70
  3020
  9
$CMLSTYLE
  2
Standard
  9
$CMLJUST
 70
     0
  9
$CMLSCALE
 40
20.0
  9
$PROXYGRAPHICS
 70
     1
  9
$MEASUREMENT
 70
     1
  9
$CELWEIGHT
370
    -1
  9
$ENDCAPS
280
     0
  9
$JOINSTYLE
280
     0
  9
$LWDISPLAY
290
     1
  9
$INSUNITS
 70
     4
  9
$HYPERLINKBASE
  1

  9
$STYLESHEET
  1

  9
$XEDIT
290
     1
  9
$CEPSNTYPE
380
     0
  9
$PSTYLEMODE
290
     1
  9
$FINGERPRINTGUID
  2
{FDEAD578-A652-11D2-9A35-0060089B3A3F}
  9
$VERSIONGUID
  2
{84638951-688E-4166-B606-B31FFF31C5F5}
  9
$EXTNAMES
290
     1
  9
$PSVPSCALE
 40
0.0
  9
$OLESTARTUP
290
     0
  9
$SORTENTS
280
   127
  9
$INDEXCTL
280
     0
  9
$HIDETEXT
280
     1
  9
$XCLIPFRAME
280
     2
  9
$HALOGAP
280
     0
  9
$OBSCOLOR
 70
   257
  9
$OBSLTYPE
280
     0
  9
$INTERSECTIONDISPLAY
280
     0
  9
$INTERSECTIONCOLOR
 70
   257
  9
$DIMASSOC
280
     1
  9
$PROJECTNAME
  1

  9
$CAMERADISPLAY
290
     0
  9
$LENSLENGTH
 40
50.0
  9
$CAMERAHEIGHT
 40
0.0
  9
$STEPSPERSEC
 40
2.0
  9
$STEPSIZE
 40
6.0
  9
$3DDWFPREC
 40
2.0
  9
$PSOLWIDTH
 40
0.25
  9
$PSOLHEIGHT
 40
4.0
  9
$LOFTANG1
 40
1.570796326794897
  9
$LOFTANG2
 40
1.570796326794897
  9
$LOFTMAG1
 40
0.0
  9
$LOFTMAG2
 40
0.0
  9
$LOFTPARAM
 70
     7
  9
$LOFTNORMALS
280
     1
  9
$LATITUDE
 40
37.795
  9
$LONGITUDE
 40
-122.394
  9
$NORTHDIRECTION
 40
0.0
  9
$TIMEZONE
 70
 -8000
  9
$LIGHTGLYPHDISPLAY
280
     1
  9
$TILEMODELIGHTSYNCH
280
     1
  9
$SOLIDHIST
280
     0
  9
$SHOWHIST
280
     1
  9
$DWFFRAME
280
     2
  9
$DGNFRAME
280
     2
  9
$REALWORLDSCALE
290
     1
  9
$INTERFERECOLOR
 62
   256
  9
$CSHADOW
280
     0
  9
$SHADOWPLANELOCATION
 40
0.0
  0
ENDSEC
  0
SECTION
  2
CLASSES
  0
CLASS
  1
ACDBDICTIONARYWDFLT
  2
AcDbDictionaryWithDefault
  3
ObjectDBX Classes
 90
        0
 91
        3
280
     0
281
     0
  0
CLASS
  1
ACDBPLACEHOLDER
  2
AcDbPlaceHolder
  3
ObjectDBX Classes
 90
        0
 91
        1
280
     0
281
     0
  0
CLASS
  1
LAYOUT
  2
AcDbLayout
  3
ObjectDBX Classes
 90
        0
 91
        1
280
     0
281
     0
  0
CLASS
  1
DICTIONARYVAR
  2
AcDbDictionaryVar
  3
ObjectDBX Classes
 90
        0
 91
        3
280
     0
281
     0
  0
CLASS
  1
SORTENTSTABLE
  2
AcDbSortentsTable
  3
ObjectDBX Classes
 90
        0
 91
        3
280
     0
281
     0
  0
CLASS
  1
VISUALSTYLE
  2
AcDbVisualStyle
  3
ObjectDBX Classes
 90
     4095
 91
        3
280
     0
281
     0
  0
CLASS
  1
SCALE
  2
AcDbScale
  3
ObjectDBX Classes
 90
     1153
 91
        3
280
     0
281
     0
  0
CLASS
  1
MATERIAL
  2
AcDbMaterial
  3
ObjectDBX Classes
 90
     1153
 91
        3
280
     0
281
     0
  0
CLASS
  1
TABLESTYLE
  2
AcDbTableStyle
  3
ObjectDBX Classes
 90
     4095
 91
        3
280
     0
281
     0
  0
CLASS
  1
MLEADERSTYLE
  2
AcDbMLeaderStyle
  3
ACDB_MLEADERSTYLE_CLASS
 90
     4095
 91
        3
280
     0
281
     0
  0
CLASS
  1
CELLSTYLEMAP
  2
AcDbCellStyleMap
  3
ObjectDBX Classes
 90
     1152
 91
        3
280
     0
281
     0
  0
ENDSEC
  0
SECTION
  2
TABLES
  0
TABLE
  2
VPORT
  5
8
330
0
100
AcDbSymbolTable
 70
     1
  0
VPORT
  5
9B23
330
8
100
AcDbSymbolTableRecord
100
AcDbViewportTableRecord
  2
*Active
 70
     0
 10
0.0
 20
0.0
 11
1.0
 21
1.0
 12
-4809.593882832027
 22
-320.6611689244602
 13
0.0
 23
0.0
 14
10.0
 24
10.0
 15
10.0
 25
10.0
 16
0.0
 26
0.0
 36
1.0
 17
0.0
 27
0.0
 37
0.0
 40
760.9608000000002
 41
2.962962962962963
 42
50.0
 43
0.0
 44
0.0
 50
0.0
 51
0.0
 71
    16
 72
   100
 73
     1
 74
     2
 75
     0
 76
     0
 77
     0
 78
     0
281
     0
 65
     1
110
0.0
120
0.0
130
0.0
111
1.0
121
0.0
131
0.0
112
0.0
122
1.0
132
0.0
 79
     0
146
0.0
348
9B29
 60
     3
 61
     5
292
     1
282
     1
141
0.0
142
0.0
 63
   256
  0
ENDTAB
  0
TABLE
  2
LTYPE
  5
5
330
0
100
AcDbSymbolTable
 70
     7
  0
LTYPE
  5
14
330
5
100
AcDbSymbolTableRecord
100
AcDbLinetypeTableRecord
  2
ByBlock
 70
     0
  3

 72
    65
 73
     0
 40
0.0
  0
LTYPE
  5
15
330
5
100
AcDbSymbolTableRecord
100
AcDbLinetypeTableRecord
  2
ByLayer
 70
     0
  3

 72
    65
 73
     0
 40
0.0
  0
LTYPE
  5
16
330
5
100
AcDbSymbolTableRecord
100
AcDbLinetypeTableRecord
  2
Continuous
 70
     0
  3
Solid line
 72
    65
 73
     0
 40
0.0
  0
LTYPE
  5
4B2
330
5
100
AcDbSymbolTableRecord
100
AcDbLinetypeTableRecord
  2
CENTER
 70
     0
  3
Center ____ _ ____ _ ____ _ ____ _ ____ _ ____
 72
    65
 73
     4
 40
50.8
 49
31.75
 74
     0
 49
-6.35
 74
     0
 49
6.35
 74
     0
 49
-6.35
 74
     0
  0
LTYPE
  5
4B3
330
5
100
AcDbSymbolTableRecord
100
AcDbLinetypeTableRecord
  2
HIDDEN
 70
     0
  3
Hidden __ __ __ __ __ __ __ __ __ __ __ __ __ _
 72
    65
 73
     2
 40
9.524999999999999
 49
6.35
 74
     0
 49
-3.175
 74
     0
  0
LTYPE
  5
4B4
330
5
100
AcDbSymbolTableRecord
100
AcDbLinetypeTableRecord
  2
PHANTOM
 70
     0
  3
Phantom ______  __  __  ______  __  __  ______
 72
    65
 73
     6
 40
63.5
 49
31.75
 74
     0
 49
-6.35
 74
     0
 49
6.35
 74
     0
 49
-6.35
 74
     0
 49
6.35
 74
     0
 49
-6.35
 74
     0
  0
LTYPE
  5
461E
330
5
100
AcDbSymbolTableRecord
100
AcDbLinetypeTableRecord
  2
DASHED2
 70
     0
  3
Dashed (.5x) _ _ _ _ _ _ _ _ _ _ _ _ _ _ _ _ _
 72
    65
 73
     2
 40
9.524999999999999
 49
6.35
 74
     0
 49
-3.175
 74
     0
  0
LTYPE
  5
48C7
330
5
100
AcDbSymbolTableRecord
100
AcDbLinetypeTableRecord
  2
DASHED
 70
     0
  3
__ __ __ __ __ __ __ __ __ __ __ __ __ __ __
 72
    65
 73
     2
 40
0.75
 49
0.5
 74
     0
 49
-0.25
 74
     0
  0
LTYPE
  5
8A2C
330
5
100
AcDbSymbolTableRecord
100
AcDbLinetypeTableRecord
  2
CENTERX2
 70
     0
  3
Center (2x) ________  __  ________  __  _____
 72
    65
 73
     4
 40
101.6
 49
63.5
 74
     0
 49
-12.7
 74
     0
 49
12.7
 74
     0
 49
-12.7
 74
     0
  0
ENDTAB
  0
TABLE
  2
LAYER
  5
2
102
{ACAD_XDICTIONARY
360
4FB
102
}
330
0
100
AcDbSymbolTable
 70
    14
  0
LAYER
  5
10
330
2
100
AcDbSymbolTableRecord
100
AcDbLayerTableRecord
  2
0
 70
     0
 62
     7
  6
Continuous
370
     9
390
F
347
9B61
348
0
  0
LAYER
  5
44
330
2
100
AcDbSymbolTableRecord
100
AcDbLayerTableRecord
  2
図面枠
 70
     0
 62
     7
  6
Continuous
370
    18
390
F
347
9B61
348
0
  0
LAYER
  5
45
330
2
100
AcDbSymbolTableRecord
100
AcDbLayerTableRecord
  2
構成表
 70
     0
 62
     7
  6
Continuous
370
    13
390
F
347
9B61
348
0
  0
LAYER
  5
46
330
2
100
AcDbSymbolTableRecord
100
AcDbLayerTableRecord
  2
公差表
 70
     0
 62
     7
  6
Continuous
370
    -3
390
F
347
9B61
348
0
  0
LAYER
  5
30E
330
2
100
AcDbSymbolTableRecord
100
AcDbLayerTableRecord
  2
Defpoints
 70
     0
 62
     7
  6
Continuous
290
     0
370
    -3
390
F
347
9B61
348
0
  0
LAYER
  5
3D9
330
2
100
AcDbSymbolTableRecord
100
AcDbLayerTableRecord
  2
隠線
 70
     0
 62
     7
  6
HIDDEN
370
     9
390
F
347
9B61
348
0
  0
LAYER
  5
4FE
330
2
100
AcDbSymbolTableRecord
100
AcDbLayerTableRecord
  2
寸法
 70
     0
 62
     7
  6
Continuous
370
     9
390
F
347
9B61
348
0
  0
LAYER
  5
1AA9
330
2
100
AcDbSymbolTableRecord
100
AcDbLayerTableRecord
  2
object
 70
     0
 62
     7
  6
Continuous
370
     9
390
F
347
9B61
348
0
  0
LAYER
  5
1AAA
330
2
100
AcDbSymbolTableRecord
100
AcDbLayerTableRecord
  2
0隠線
 70
     0
 62
     3
  6
HIDDEN
370
     9
390
F
347
9B61
348
0
  0
LAYER
  5
461F
330
2
100
AcDbSymbolTableRecord
100
AcDbLayerTableRecord
  2
配線図
 70
     0
 62
     7
  6
Continuous
370
     9
390
F
347
9B61
348
0
  0
LAYER
  5
4620
330
2
100
AcDbSymbolTableRecord
100
AcDbLayerTableRecord
  2
文字
 70
     0
 62
     7
  6
Continuous
370
     9
390
F
347
9B61
348
0
  0
LAYER
  5
76E1
330
2
100
AcDbSymbolTableRecord
100
AcDbLayerTableRecord
  2
ランプ取付板
 70
     0
 62
   142
  6
Continuous
370
    -3
390
F
347
9B61
348
0
  0
LAYER
  5
76E2
330
2
100
AcDbSymbolTableRecord
100
AcDbLayerTableRecord
  2
ランプ
 70
     4
 62
   144
  6
Continuous
370
    -3
390
F
347
9B61
348
0
  0
LAYER
  5
955B
330
2
100
AcDbSymbolTableRecord
100
AcDbLayerTableRecord
  2
エルボPL150
 70
     0
 62
    13
  6
Continuous
370
    -3
390
F
347
9B61
348
0
  0
ENDTAB
  0
TABLE
  2
STYLE
  5
3
330
0
100
AcDbSymbolTable
 70
     4
  0
STYLE
  5
11
330
3
100
AcDbSymbolTableRecord
100
AcDbTextStyleTableRecord
  2
Standard
 70
     0
 40
0.0
 41
1.0
 50
0.0
 71
     0
 42
2.5
  3
txt.shx
  4
bigfont.shx
  0
STYLE
  5
47
330
3
100
AcDbSymbolTableRecord
100
AcDbTextStyleTableRecord
  2
ARIAL_TTF
 70
     0
 40
2.5
 41
1.0
 50
0.0
 71
     0
 42
2.5
  3
MS PGothic.ttf
  4

1001
ACAD
1000
MS PGothic
1071
    32818
  0
STYLE
  5
49
330
3
100
AcDbSymbolTableRecord
100
AcDbTextStyleTableRecord
  2
注記
 70
     0
 40
0.0
 41
1.0
 50
0.0
 71
     0
 42
2.5
  3
txt.shx
  4
bigfont.shx
  0
STYLE
  5
4B1
330
3
100
AcDbSymbolTableRecord
100
AcDbTextStyleTableRecord
  2

 70
     1
 40
0.0
 41
1.0
 50
0.0
 71
     0
 42
2.5
  3
ltypeshp.shx
  4

  0
ENDTAB
  0
TABLE
  2
VIEW
  5
6
330
0
100
AcDbSymbolTable
 70
     0
  0
ENDTAB
  0
TABLE
  2
UCS
  5
7
330
0
100
AcDbSymbolTable
 70
     0
  0
ENDTAB
  0
TABLE
  2
APPID
  5
9
330
0
100
AcDbSymbolTable
 70
     1
  0
APPID
  5
12
330
9
100
AcDbSymbolTableRecord
100
AcDbRegAppTableRecord
  2
ACAD
 70
     0
  0
ENDTAB
  0
TABLE
  2
DIMSTYLE
  5
A
330
0
100
AcDbSymbolTable
 70
     2
100
AcDbDimStyleTable
  0
DIMSTYLE
105
27
102
{ACAD_REACTORS
330
829A
330
99CC
330
99DA
330
99E8
330
9A23
330
9A39
330
9A54
330
9A61
330
9A70
330
9A7D
102
}
330
A
100
AcDbSymbolTableRecord
100
AcDbDimStyleTableRecord
  2
ISO-25
 70
     0
 41
5.0
 42
0.5
 43
3.75
 44
1.25
 73
     0
 74
     0
 77
     1
 78
     8
140
8.0
141
2.5
143
0.03937007874016
147
3.0
171
     3
172
     1
178
     0
179
     1
271
     2
272
     2
274
     3
278
    44
283
     0
284
     8
340
11
371
    -1
372
    -1
  0
DIMSTYLE
105
76E6
330
A
100
AcDbSymbolTableRecord
100
AcDbDimStyleTableRecord
  2
STANDARD
 70
     0
178
     0
340
11
  0
ENDTAB
  0
TABLE
  2
BLOCK_RECORD
  5
1
330
0
100
AcDbSymbolTable
 70
    24
  0
BLOCK_RECORD
  5
1F
330
1
100
AcDbSymbolTableRecord
100
AcDbBlockTableRecord
  2
*Model_Space
340
22
 70
     0
280
     1
281
     0
  0
BLOCK_RECORD
  5
3B5
330
1
100
AcDbSymbolTableRecord
100
AcDbBlockTableRecord
  2
*Paper_Space
340
3B6
 70
     0
280
     1
281
     0
  0
BLOCK_RECORD
  5
3D3
330
1
100
AcDbSymbolTableRecord
100
AcDbBlockTableRecord
  2
_Open
340
0
 70
     0
280
     1
281
     0
  0
BLOCK_RECORD
  5
3DA
330
1
100
AcDbSymbolTableRecord
100
AcDbBlockTableRecord
  2
A$C48316158
340
0
 70
     0
280
     1
281
     0
  0
BLOCK_RECORD
  5
439
330
1
100
AcDbSymbolTableRecord
100
AcDbBlockTableRecord
  2
_Closed
340
0
 70
     0
280
     1
281
     0
  0
BLOCK_RECORD
  5
872
330
1
100
AcDbSymbolTableRecord
100
AcDbBlockTableRecord
  2
A$C28772D66
340
0
 70
     0
280
     1
281
     0
  0
BLOCK_RECORD
  5
F4A
330
1
100
AcDbSymbolTableRecord
100
AcDbBlockTableRecord
  2
_Open30
340
0
 70
     0
280
     1
281
     0
  0
BLOCK_RECORD
  5
F50
330
1
100
AcDbSymbolTableRecord
100
AcDbBlockTableRecord
  2
A$C75CF5BB1
340
0
102
{BLKREFS
331
F6B
102
}
 70
     0
280
     1
281
     0
  0
BLOCK_RECORD
  5
144F
330
1
100
AcDbSymbolTableRecord
100
AcDbBlockTableRecord
  2
_Dot
340
0
 70
     0
280
     1
281
     0
  0
BLOCK_RECORD
  5
1454
330
1
100
AcDbSymbolTableRecord
100
AcDbBlockTableRecord
  2
_DotBlank
340
0
 70
     0
280
     1
281
     0
  0
BLOCK_RECORD
  5
16A7
330
1
100
AcDbSymbolTableRecord
100
AcDbBlockTableRecord
  2
A$C1DB105E5
340
0
 70
     0
280
     1
281
     0
  0
BLOCK_RECORD
  5
17E7
330
1
100
AcDbSymbolTableRecord
100
AcDbBlockTableRecord
  2
_None
340
0
 70
     0
280
     1
281
     0
  0
BLOCK_RECORD
  5
4621
330
1
100
AcDbSymbolTableRecord
100
AcDbBlockTableRecord
  2
A$C571814F1
340
0
 70
     0
280
     1
281
     0
  0
BLOCK_RECORD
  5
76B1
330
1
100
AcDbSymbolTableRecord
100
AcDbBlockTableRecord
  2
A$C670F36C2
340
0
310
2800000020000000200000000100040000000000000200000000000000000000000000000000000000000000000080000080000000808000800000008000800080800000C0C0C000808080000000FF0000FF000000FFFF00FF000000FF00FF00FFFF0000FFFFFF00FFFFFFFFFFFFFFFFFFFFFFFFFFFFFFFFFFFFFFFFFFFFFF
310
FFFFFFFFFFFFFFFFFFFFFFFFFFFFFFFFFFFFFFFFFFFFFFFFFFFFFFFFFFFFFFFFFFFFFFFFFFFFFFFFFFFFFFFFFFFFFFFFFFFFFFFFFFFFFFFFFFFFFFFFFFFFFFFFFFFFFFFFFFFFFFFFFFFFFFFFFFFFFFFFFFFFFFFFFFFFFFFFFFFFFFFFFFFFFFFFFFFFFFFFFFFFFFFFFFFFFFFFFFFFFFFFFFFFFFFFFFFFFFFFFFFFFFFFFFFFFF
310
FFFFFFFFFFFF666FFFFF666666FFFFFFFFFFFFF66666FFF6FFFF6FF66F6FFFFFFFFF666FFFFFFFFF6FFF6FF66F666FFFFF66FFFFFFFFFFFFF6FF6FF66F6FF666F6FFFFFFFFFFFFFFFF6F6FF66F6FFF6FFFFFFFFFFFFFFFFFFF6F6FF66F6FFF6FFFFFFFFFFFFFFFFFFF6F6FF66F6FFF6FFFFFFFFFFFFFFFFFFF6F6FF66F6FFF
310
6FFFFFFFFFFFFFFFFFFF6F6FF66F6FFF6FFFFFFFFFFFFFFFFFFF6F6FF66F6FFF6FFFFFFFFFFFFFFFFFFF6F6FF66F666666666FFFFFFFFFFFFFF6FF6FF66F6FFFFFFFF66FFFFFFFFFFF6FFF6FF666FFFFFFFFFFFF66FFFFFFF6FFFF666666FFFFFFFFFFFFFF6666666FFFFFFFFFFFFFFFFFFFFFFFFFFFFFFFFFFFFFFFFFFFFF
310
FFFFFFFFFFFFFFFFFFFFFFFFFFFFFFFFFFFFFFFFFFFFFFFFFFFFFFFFFFFFFFFFFFFFFFFFFFFFFFFFFFFFFFFFFFFFFFFFFFFFFFFFFFFFFFFFFFFFFFFFFFFFFFFFFFFFFFFFFFFFFFFFFFFFFFFFFFFFFFFFFFFFFFFFFFFFFFFFFFFFFFFFFFFFFFFFFFFFFFFFFFFFFFFFFFFFFFFF
 70
     0
280
     1
281
     0
  0
BLOCK_RECORD
  5
7B6D
330
1
100
AcDbSymbolTableRecord
100
AcDbBlockTableRecord
  2
M4-1-t
340
0
310
2800000020000000200000000100080000000000000400000000000000000000000000000000000000000000000080000080000000808000800000008000800080800000C0C0C000C0DCC000F0CAA600FFFFFF000000FF0000FFFF0000FF0000FFFF0000FF000000FF00FF000000000080808000C0C0C0000000FF007F7FFF
310
000000A5005252A50000007F003F3F7F0000004C0026264C000000260013132600003FFF007F9FFF000029A5005267A500001F7F003F4F7F0000134C00262F4C000009260013172600007FFF007FBFFF000052A500527CA500003F7F003F5F7F0000264C0026394C0000132600131C260000BFFF007FDFFF00007CA5005291
310
A500005F7F003F6F7F0000394C0026424C00001C26001321260000FFFF007FFFFF0000A5A50052A5A500007F7F003F7F7F00004C4C00264C4C00002626001326260000FFBF007FFFDF0000A57C0052A59100007F5F003F7F6F00004C3900264C420000261C001326210000FF7F007FFFBF0000A5520052A57C00007F3F003F
310
7F5F00004C2600264C39000026130013261C0000FF3F007FFF9F0000A5290052A56700007F1F003F7F4F00004C1300264C2F00002609001326170000FF00007FFF7F0000A5000052A55200007F00003F7F3F00004C0000264C260000260000132613003FFF00009FFF7F0029A5000067A552001F7F00004F7F3F00134C0000
310
2F4C260009260000172613007FFF0000BFFF7F0052A500007CA552003F7F00005F7F3F00264C0000394C2600132600001C261300BFFF0000DFFF7F007CA5000091A552005F7F00006F7F3F00394C0000424C26001C26000021261300FFFF0000FFFF7F00A5A50000A5A552007F7F00007F7F3F004C4C00004C4C2600262600
310
0026261300FFBF0000FFDF7F00A57C0000A59152007F5F00007F6F3F004C3900004C422600261C000026211300FF7F0000FFBF7F00A5520000A57C52007F3F00007F5F3F004C2600004C39260026130000261C1300FF3F0000FF9F7F00A5290000A56752007F1F00007F4F3F004C1300004C2F26002609000026171300FF00
310
0000FF7F7F00A5000000A55252007F0000007F3F3F004C0000004C2626002600000026131300FF003F00FF7F9F00A5002900A55267007F001F007F3F4F004C0013004C262F002600090026131700FF007F00FF7FBF00A5005200A5527C007F003F007F3F5F004C0026004C2639002600130026131C00FF00BF00FF7FDF00A5
310
007C00A55291007F005F007F3F6F004C0039004C26420026001C0026132100FF00FF00FF7FFF00A500A500A552A5007F007F007F3F7F004C004C004C264C002600260026132600BF00FF00DF7FFF007C00A5009152A5005F007F006F3F7F0039004C0042264C001C002600211326007F00FF00BF7FFF005200A5007C52A500
310
3F007F005F3F7F00F0FBFF00A4A0A000808080000000FF0000FF000000FFFF00FF000000FF00FF00FFFF0000FFFFFF00E1E1E1E1E1E1E1E1E1E1E1E1E1E1E1E1E1E1E1E1E1E1E1E1E1E1E1E1E1E1E1E1E1E1E1E1E1E1E1E1E1E1E1E1E1E1E1E1E1E1E1E1E1E1E1E1E1E1E1E1E1E1E1E1E1E1E1E1E1E1E1E1E1E1E1E1E1E1E1
310
E10AE1E1E1E1E1E1E1E1E1E1E1E1E1E1E1E1E1E1E1E1E1E1E1E1E1E1E1E1E1E1E10AE1E1E1E1E1E1E1E1E1E1E1E1E1E1E1E1E1E1E1E1E1E1E1E1E1E1E1E1E1E10A0A0AE1E1E1E1E1E1E1E1E1E1E1E1E1E1E1E1E1E1E1E1E1E1E1E1E1E10A0A0AE10AE10A0AE1E1E1E1E1E1E1E1E1E1E1E1E1E1E1E1E1E1E1E1E10A0A0AE1E1
310
E1E10AE1E1E10A0A0AE1E1E1E1E1E1E1E1E1E1E1E1E1E1E1E10A0AE1E1E1E1E1E1E10AE1E1E1E1E1E10A0AE1E1E1E1E1E1E1E1E1E1E1E1E1E10AE1E1E1E1E1E1E1E10AE1E1E1E1E1E1E10AE1E1E1E1E1E1E1E1E1E1E1E1E10AE1E1E1E1E1E1E1E1E10AE1E1E1E1E1E1E1E10AE1E1E1E1E1E1E1E1E1E1E1E10AE1E1E1E1E1E1
310
E1E1E10AE1E1E1E1E1E1E1E10AE1E1E1E1E1E1E1E1E1E1E1E10AE1E1E1E1E1E1E1E10A0AE1E1E1E1E1E1E1E10AE1E1E1E1E1E1E1E1E1E1E10AE1E1E1E1E1E1E1E10AE10A0AE1E1E1E1E1E1E1E10AE1E1E1E1E1E1E1E1E1E10AE1E1E1E1E1E1E10AE1E10AE10AE1E1E1E1E1E1E10AE1E1E1E1E1E1E1E1E1E10AE1E1E1E1E1E1
310
0AE1E1E10AE1E10AE1E1E1E1E1E10AE1E1E1E1E1E1E1E1E10AE1E1E1E1E1E10AE1E1E1E10AE1E1E10AE1E1E1E1E1E10AE1E1E1E1E10A0A0A0A0A0A0A0A0A0A0A0A0A0A0A0A0A0A0A0A0A0A0A0A0A0A0A0A0A0AE1E1E1E1E10AE1E1E1E1E1E1E10AE1E1E10AE1E10AE1E1E1E1E1E1E10AE1E1E1E1E1E1E1E1E10AE1E1E1E1E1
310
E1E10AE1E10AE10AE1E1E1E1E1E1E10AE1E1E1E1E1E1E1E1E1E10AE1E1E1E1E1E1E1E10AE10A0AE1E1E1E1E1E1E1E10AE1E1E1E1E1E1E1E1E1E1E10AE1E1E1E1E1E1E1E10A0AE1E1E1E1E1E1E1E1E10AE1E1E1E1E1E1E1E1E1E1E10AE1E1E1E1E1E1E1E1E10AE1E1E1E1E1E1E1E10AE1E1E1E1E1E1E1E1E1E1E1E10AE1E1E1
310
E1E1E1E1E1E10AE1E1E1E1E1E1E1E10AE1E1E1E1E1E1E1E1E1E1E1E1E10AE1E1E1E1E1E1E1E10AE1E1E1E1E1E1E10AE1E1E1E1E1E1E1E1E1E1E1E1E1E10A0AE1E1E1E1E1E1E10AE1E1E1E1E1E10A0AE1E1E1E1E1E1E1E1E1E1E1E1E1E1E1E10A0A0AE1E1E1E10AE1E1E1E10A0AE1E1E1E1E1E1E1E1E1E1E1E1E1E1E1E1E1E1
310
E1E1E10A0A0AE10AE10A0A0AE1E1E1E1E1E1E1E1E1E1E1E1E1E1E1E1E1E1E1E1E1E1E1E1E1E10A0A0AE1E1E1E1E1E1E1E1E1E1E1E1E1E1E1E1E1E1E1E1E1E1E1E1E1E1E1E1E1E10AE1E1E1E1E1E1E1E1E1E1E1E1E1E1E1E1E1E1E1E1E1E1E1E1E1E1E1E1E1E1E10AE1E1E1E1E1E1E1E1E1E1E1E1E1E1E1E1E1E1E1E1E1E1E1
310
E1E1E1E1E1E1E1E1E1E1E1E1E1E1E1E1E1E1E1E1E1E1E1E1E1E1E1E1E1E1E1E1E1E1E1E1E1E1E1E1E1E1E1E1E1E1E1E1E1E1E1E1E1E1E1E1
 70
     4
280
     1
281
     0
1001
ACAD
1000
DesignCenter Data
1002
{
1070
     1
1070
     4
1002
}
  0
BLOCK_RECORD
  5
8299
330
1
100
AcDbSymbolTableRecord
100
AcDbBlockTableRecord
  2
A$C39504806
340
0
 70
     0
280
     1
281
     0
  0
BLOCK_RECORD
  5
996E
330
1
100
AcDbSymbolTableRecord
100
AcDbBlockTableRecord
  2
A$C446D47E5
340
0
 70
     0
280
     1
281
     0
  0
BLOCK_RECORD
  5
99CD
330
1
100
AcDbSymbolTableRecord
100
AcDbBlockTableRecord
  2
*D77
340
0
 70
     0
280
     1
281
     0
  0
BLOCK_RECORD
  5
99DB
330
1
100
AcDbSymbolTableRecord
100
AcDbBlockTableRecord
  2
*D78
340
0
 70
     0
280
     1
281
     0
  0
BLOCK_RECORD
  5
99E9
330
1
100
AcDbSymbolTableRecord
100
AcDbBlockTableRecord
  2
*D79
340
0
 70
     0
280
     1
281
     0
  0
BLOCK_RECORD
  5
9A24
330
1
100
AcDbSymbolTableRecord
100
AcDbBlockTableRecord
  2
*D80
340
0
 70
     0
280
     1
281
     0
  0
BLOCK_RECORD
  5
9A3A
330
1
100
AcDbSymbolTableRecord
100
AcDbBlockTableRecord
  2
*D81
340
0
 70
     0
280
     1
281
     0
  0
BLOCK_RECORD
  5
9A55
330
1
100
AcDbSymbolTableRecord
100
AcDbBlockTableRecord
  2
*D82
340
0
 70
     0
280
     1
281
     0
  0
BLOCK_RECORD
  5
9A62
330
1
100
AcDbSymbolTableRecord
100
AcDbBlockTableRecord
  2
*D83
340
0
 70
     0
280
     1
281
     0
  0
BLOCK_RECORD
  5
9A71
330
1
100
AcDbSymbolTableRecord
100
AcDbBlockTableRecord
  2
*D84
340
0
 70
     0
280
     1
281
     0
  0
BLOCK_RECORD
  5
9A7E
330
1
100
AcDbSymbolTableRecord
100
AcDbBlockTableRecord
  2
*D85
340
0
 70
     0
280
     1
281
     0
  0
ENDTAB
  0
ENDSEC
  0
SECTION
  2
BLOCKS
  0
BLOCK
  5
20
330
1F
100
AcDbEntity
  8
0
100
AcDbBlockBegin
  2
*Model_Space
 70
     0
 10
0.0
 20
0.0
 30
0.0
  3
*Model_Space
  1

  0
ENDBLK
  5
21
330
1F
100
AcDbEntity
  8
0
100
AcDbBlockEnd
  0
BLOCK
  5
3B7
330
3B5
100
AcDbEntity
 67
     1
  8
0
100
AcDbBlockBegin
  2
*Paper_Space
 70
     0
 10
0.0
 20
0.0
 30
0.0
  3
*Paper_Space
  1

  0
ENDBLK
  5
3B8
330
3B5
100
AcDbEntity
 67
     1
  8
0
100
AcDbBlockEnd
  0
BLOCK
  5
3D7
330
3D3
100
AcDbEntity
  8
0
100
AcDbBlockBegin
  2
_Open
 70
     0
 10
0.0
 20
0.0
 30
0.0
  3
_Open
  1

  0
LINE
  5
3D4
330
3D3
100
AcDbEntity
  8
0
  6
ByBlock
 62
     0
370
    -2
100
AcDbLine
 10
-1.0
 20
0.1666666666666667
 30
0.0
 11
0.0
 21
0.0
 31
0.0
  0
LINE
  5
3D5
330
3D3
100
AcDbEntity
  8
0
  6
ByBlock
 62
     0
370
    -2
100
AcDbLine
 10
-1.0
 20
-0.1666666666666667
 30
0.0
 11
0.0
 21
0.0
 31
0.0
  0
LINE
  5
3D6
330
3D3
100
AcDbEntity
  8
0
  6
ByBlock
 62
     0
370
    -2
100
AcDbLine
 10
0.0
 20
0.0
 30
0.0
 11
-1.0
 21
0.0
 31
0.0
  0
ENDBLK
  5
3D8
330
3D3
100
AcDbEntity
  8
0
100
AcDbBlockEnd
  0
BLOCK
  5
3DF
330
3DA
100
AcDbEntity
  8
0
100
AcDbBlockBegin
  2
A$C48316158
 70
     0
 10
0.0
 20
0.0
 30
0.0
  3
A$C48316158
  1

  0
CIRCLE
  5
3DB
330
3DA
100
AcDbEntity
  8
図面枠
 62
   251
370
     9
100
AcDbCircle
 10
3.999999762389109
 20
3.999999738138484
 30
0.0
 40
4.0
  0
MTEXT
  5
3DC
330
3DA
100
AcDbEntity
  8
図面枠
 62
   251
100
AcDbMText
 10
1.322611770274591
 20
6.538130310762575
 30
0.0
 40
4.0
 41
5.8034228570731
 46
0.0
 71
     1
 72
     5
  1
{\fＭＳ Ｐ明朝|b0|i0|c128|p18;原}
 73
     1
 44
1.0
  0
CIRCLE
  5
3DD
330
3DA
100
AcDbEntity
  8
図面枠
 62
   251
370
     9
100
AcDbCircle
 10
31.49516461868245
 20
4.051807454840457
 30
0.0
 40
4.0
  0
MTEXT
  5
3DE
330
3DA
100
AcDbEntity
  8
図面枠
 62
   251
100
AcDbMText
 10
28.69133545246308
 20
5.399007612771008
 30
0.0
 40
2.0
 41
5.8062
 46
0.0
 71
     1
 72
     5
  1
{\fＭＳ Ｐ明朝|b0|i0|c128|p18;栗原}
 73
     1
 44
1.0
  0
ENDBLK
  5
3E0
330
3DA
100
AcDbEntity
  8
0
100
AcDbBlockEnd
  0
BLOCK
  5
43E
330
439
100
AcDbEntity
  8
0
100
AcDbBlockBegin
  2
_Closed
 70
     0
 10
0.0
 20
0.0
 30
0.0
  3
_Closed
  1

  0
LINE
  5
43A
330
439
100
AcDbEntity
  8
0
  6
ByBlock
 62
     0
370
    -2
100
AcDbLine
 10
-1.0
 20
0.1666666666666667
 30
0.0
 11
0.0
 21
0.0
 31
0.0
  0
LINE
  5
43B
330
439
100
AcDbEntity
  8
0
  6
ByBlock
 62
     0
370
    -2
100
AcDbLine
 10
0.0
 20
0.0
 30
0.0
 11
-1.0
 21
-0.1666666666666667
 31
0.0
  0
LINE
  5
43C
330
439
100
AcDbEntity
  8
0
  6
ByBlock
 62
     0
370
    -2
100
AcDbLine
 10
-1.0
 20
0.1666666666666667
 30
0.0
 11
-1.0
 21
-0.1666666666666667
 31
0.0
  0
LINE
  5
43D
330
439
100
AcDbEntity
  8
0
  6
ByBlock
 62
     0
370
    -2
100
AcDbLine
 10
0.0
 20
0.0
 30
0.0
 11
-1.0
 21
0.0
 31
0.0
  0
ENDBLK
  5
43F
330
439
100
AcDbEntity
  8
0
100
AcDbBlockEnd
  0
BLOCK
  5
9D1
330
872
100
AcDbEntity
  8
0
100
AcDbBlockBegin
  2
A$C28772D66
 70
     0
 10
0.0
 20
0.0
 30
0.0
  3
A$C28772D66
  1

  0
TEXT
  5
873
330
872
100
AcDbEntity
  8
0
 62
     7
100
AcDbText
 10
198.9872452615714
 20
24.03637794533178
 30
0.0
 40
1.5
  1
********
  7
注記
100
AcDbText
  0
TEXT
  5
874
330
872
100
AcDbEntity
  8
図面枠
  6
Continuous
370
    18
100
AcDbText
 10
204.3551726229015
 20
5.82457921102918
 30
0.0
 40
1.383671729544341
  1
三角法
  7
ARIAL_TTF
 11
204.3551726229015
 21
7.208250940573521
 31
0.0
100
AcDbText
 73
     3
  0
LINE
  5
875
330
872
100
AcDbEntity
  8
図面枠
  6
Continuous
 62
     7
370
    25
100
AcDbLine
 10
17.02068974592601
 20
3.82896192048868
 30
0.0
 11
281.5643681064179
 21
3.82896192048868
 31
0.0
  0
LINE
  5
876
330
872
100
AcDbEntity
  8
図面枠
  6
Continuous
 62
     7
370
    25
100
AcDbLine
 10
281.5643681064179
 20
194.1629850525827
 30
0.0
 11
17.02068974592601
 21
194.1629850525827
 31
0.0
  0
LINE
  5
877
330
872
100
AcDbEntity
  8
図面枠
370
    25
100
AcDbLine
 10
184.707347038314
 20
27.90485001456022
 30
0.0
 11
281.5643681064179
 21
27.90485001456022
 31
0.0
  0
LINE
  5
878
330
872
100
AcDbEntity
  8
構成表
  6
Continuous
 62
     7
370
    25
100
AcDbLine
 10
184.707347038314
 20
52.81094114635839
 30
0.0
 11
281.5643681064179
 21
52.81094114635839
 31
0.0
  0
LINE
  5
879
330
872
100
AcDbEntity
  8
構成表
  6
Continuous
 62
     7
370
    18
100
AcDbLine
 10
184.707347038314
 20
48.65992595772538
 30
0.0
 11
281.5643681064179
 21
48.65992595772538
 31
0.0
  0
LINE
  5
87A
330
872
100
AcDbEntity
  8
構成表
  6
Continuous
 62
     7
370
    18
100
AcDbLine
 10
184.707347038314
 20
44.50891076909235
 30
0.0
 11
281.5643681064179
 21
44.50891076909235
 31
0.0
  0
LINE
  5
87B
330
872
100
AcDbEntity
  8
構成表
  6
Continuous
 62
     7
370
    18
100
AcDbLine
 10
184.707347038314
 20
40.35789558045933
 30
0.0
 11
281.5643681064179
 21
40.35789558045933
 31
0.0
  0
LINE
  5
87C
330
872
100
AcDbEntity
  8
構成表
  6
Continuous
 62
     7
370
    18
100
AcDbLine
 10
184.707347038314
 20
36.20688039182627
 30
0.0
 11
281.5643681064179
 21
36.2068803918263
 31
0.0
  0
LINE
  5
87D
330
872
100
AcDbEntity
  8
構成表
  6
Continuous
 62
     7
370
    18
100
AcDbLine
 10
184.707347038314
 20
32.05586520319324
 30
0.0
 11
281.5643681064179
 21
32.05586520319329
 31
0.0
  0
LINE
  5
87E
330
872
100
AcDbEntity
  8
図面枠
  6
Continuous
 62
     7
370
    18
100
AcDbLine
 10
184.707347038314
 20
16.8354761782055
 30
0.0
 11
281.5643681064178
 21
16.83547617820552
 31
0.0
  0
LINE
  5
87F
330
872
100
AcDbEntity
  8
図面枠
  6
Continuous
 62
     7
370
    18
100
AcDbLine
 10
184.707347038314
 20
22.37016309638287
 30
0.0
 11
281.5643681064179
 21
22.37016309638287
 31
0.0
  0
LINE
  5
880
330
872
100
AcDbEntity
  8
図面枠
  6
Continuous
 62
     7
370
    18
100
AcDbLine
 10
184.707347038314
 20
9.363648838666009
 30
0.0
 11
281.5643681064179
 21
9.363648838666037
 31
0.0
  0
TEXT
  5
881
330
872
100
AcDbEntity
  8
図面枠
  6
Continuous
370
    18
100
AcDbText
 10
205.3857322480617
 20
17.55196450529193
 30
0.0
 40
1.3
  1
CHECKED
 41
0.65
  7
ARIAL_TTF
 72
     1
 11
208.0575646344253
 21
18.20196450529193
 31
0.0
100
AcDbText
 73
     2
  0
MTEXT
  5
882
330
872
100
AcDbEntity
  8
図面枠
100
AcDbMText
 10
208.0564288943493
 20
13.09956250843575
 30
0.0
 40
2.0
 41
8.151651959539453
 46
0.0
 71
     5
 72
     5
  1
{\fＭＳ Ｐ明朝|b0|i0|c128|p18;栗原}
 73
     1
 44
1.0
  0
TEXT
  5
883
330
872
100
AcDbEntity
  8
図面枠
  6
Continuous
370
    18
100
AcDbText
 10
203.8120523219941
 20
0.8688523329126705
 30
0.0
 40
1.374252874599957
  1
WATANABE CO.,LTD.
  7
ARIAL_TTF
 11
203.8120523219941
 21
2.243105207512627
 31
0.0
100
AcDbText
 73
     3
  0
LINE
  5
884
330
872
100
AcDbEntity
  8
寸法
  6
Continuous
 62
     7
370
    18
100
AcDbLine
 10
198.5440643337574
 20
181.6863923493227
 30
0.0
 11
281.5643681064179
 21
181.6863923493227
 31
0.0
  0
LINE
  5
885
330
872
100
AcDbEntity
  8
寸法
  6
Continuous
 62
     7
370
    18
100
AcDbLine
 10
198.5440643337574
 20
189.9884227265887
 30
0.0
 11
281.5643681064179
 21
189.9884227265887
 31
0.0
  0
LINE
  5
886
330
872
100
AcDbEntity
  8
寸法
  6
Continuous
 62
     7
370
    18
100
AcDbLine
 10
198.5440643337574
 20
185.8374075379557
 30
0.0
 11
281.5643681064179
 21
185.8374075379557
 31
0.0
  0
TEXT
  5
887
330
872
100
AcDbEntity
  8
寸法
  6
Continuous
 62
     7
370
    18
100
AcDbText
 10
207.9649225908145
 20
190.3990062709075
 30
0.0
 40
1.2
  1
   DATE
  7
ARIAL_TTF
 11
207.9649225908145
 21
191.5990062709075
 31
0.0
100
AcDbText
 73
     3
  0
TEXT
  5
888
330
872
100
AcDbEntity
  8
寸法
  6
Continuous
 62
     7
370
    18
100
AcDbText
 10
207.9649225908145
 20
192.2214031829903
 30
0.0
 40
1.2
  1
年　月　日
  7
ARIAL_TTF
 11
207.9649225908145
 21
193.4214031829903
 31
0.0
100
AcDbText
 73
     3
  0
LINE
  5
889
330
872
100
AcDbEntity
  8
図面枠
  6
Continuous
 62
     7
370
    25
100
AcDbLine
 10
17.02068974592601
 20
194.1629850525827
 30
0.0
 11
17.02068974592601
 21
3.82896192048868
 31
0.0
  0
TEXT
  5
88A
330
872
100
AcDbEntity
  8
図面枠
  6
Continuous
 62
     7
370
    18
100
AcDbText
 10
33.3961292234892
 20
1.276936809500502
 30
0.0
 40
1.374252874599957
  1
1
  7
ARIAL_TTF
 11
33.3961292234892
 21
2.651189684100459
 31
0.0
100
AcDbText
 73
     3
  0
LINE
  5
88B
330
872
100
AcDbEntity
  8
図面枠
  6
Continuous
 62
     7
370
    18
100
AcDbLine
 10
51.37704493547403
 20
2.956064598470562
 30
0.0
 11
51.37704493547403
 21
3.82896192048868
 31
0.0
  0
TEXT
  5
88C
330
872
100
AcDbEntity
  8
図面枠
  6
Continuous
 62
     7
370
    18
100
AcDbText
 10
68.924072529125
 20
1.382466492396947
 30
0.0
 40
1.374252874599957
  1
2
  7
ARIAL_TTF
 11
68.924072529125
 21
2.756719366996904
 31
0.0
100
AcDbText
 73
     3
  0
TEXT
  5
88D
330
872
100
AcDbEntity
  8
図面枠
  6
Continuous
 62
     7
370
    18
100
AcDbText
 10
14.21354341781011
 20
11.72156049884015
 30
0.0
 40
1.374252874599957
  1
F
  7
ARIAL_TTF
 11
14.21354341781011
 21
13.09581337344011
 31
0.0
100
AcDbText
 73
     3
  0
LINE
  5
88E
330
872
100
AcDbEntity
  8
図面枠
  6
Continuous
 62
     7
370
    18
100
AcDbLine
 10
17.02068974592601
 20
22.38137572758809
 30
0.0
 11
13.58505755942616
 21
22.38137572758809
 31
0.0
  0
TEXT
  5
88F
330
872
100
AcDbEntity
  8
図面枠
  6
Continuous
 62
     7
370
    18
100
AcDbText
 10
14.12474081450802
 20
40.09026390026997
 30
0.0
 40
1.374252874599957
  1
E
  7
ARIAL_TTF
 11
14.12474081450802
 21
41.46451677486992
 31
0.0
100
AcDbText
 73
     3
  0
LINE
  5
890
330
872
100
AcDbEntity
  8
0
 62
     7
100
AcDbLine
 10
9.987733042210671
 20
98.9959734865357
 30
0.0
 11
0.0000002929177185
 21
98.9959734865357
 31
0.0
  0
LINE
  5
891
330
872
100
AcDbEntity
  8
図面枠
  6
Continuous
 62
     7
370
    18
100
AcDbLine
 10
17.02068974592601
 20
56.73769759258697
 30
0.0
 11
13.58505755942616
 21
56.73769759258697
 31
0.0
  0
TEXT
  5
892
330
872
100
AcDbEntity
  8
図面枠
  6
Continuous
 62
     7
370
    18
100
AcDbText
 10
14.08118292476482
 20
72.34846700974259
 30
0.0
 40
1.374252874599957
  1
D
  7
ARIAL_TTF
 11
14.08118292476482
 21
73.72271988434255
 31
0.0
100
AcDbText
 73
     3
  0
LINE
  5
893
330
872
100
AcDbEntity
  8
図面枠
  6
Continuous
 62
     7
370
    18
100
AcDbLine
 10
17.02068974592601
 20
91.09401945758593
 30
0.0
 11
13.58505755942616
 21
91.09401945758593
 31
0.0
  0
TEXT
  5
894
330
872
100
AcDbEntity
  8
図面枠
  6
Continuous
 62
     7
370
    18
100
AcDbText
 10
13.797323582486
 20
108.0079862471039
 30
0.0
 40
1.374252874599957
  1
C
  7
ARIAL_TTF
 11
13.797323582486
 21
109.3822391217038
 31
0.0
100
AcDbText
 73
     3
  0
LINE
  5
895
330
872
100
AcDbEntity
  8
図面枠
  6
Continuous
 62
     7
370
    18
100
AcDbLine
 10
17.02068974592601
 20
125.4503413225849
 30
0.0
 11
13.58505755942616
 21
125.4503413225849
 31
0.0
  0
TEXT
  5
896
330
872
100
AcDbEntity
  8
図面枠
  6
Continuous
 62
     7
370
    18
100
AcDbText
 10
13.90492560074239
 20
142.877855532307
 30
0.0
 40
1.374252874599957
  1
B
  7
ARIAL_TTF
 11
13.90492560074239
 21
144.2521084069069
 31
0.0
100
AcDbText
 73
     3
  0
LINE
  5
897
330
872
100
AcDbEntity
  8
公差表
  6
Continuous
 62
     7
370
    25
100
AcDbLine
 10
108.6738619240273
 20
22.37016309638287
 30
0.0
 11
184.707347038314
 21
22.37016309638287
 31
0.0
  0
LINE
  5
898
330
872
100
AcDbEntity
  8
公差表
  6
Continuous
 62
     7
370
    18
100
AcDbLine
 10
108.6738619240274
 20
16.83547617820547
 30
0.0
 11
177.2355196987746
 21
16.83547617820547
 31
0.0
  0
LINE
  5
899
330
872
100
AcDbEntity
  8
公差表
  6
Continuous
 62
     7
370
    18
100
AcDbLine
 10
108.6738619240274
 20
13.58384761377631
 30
0.0
 11
177.2355196987746
 21
13.58384761377631
 31
0.0
  0
LINE
  5
89A
330
872
100
AcDbEntity
  8
公差表
  6
Continuous
 62
     7
370
    18
100
AcDbLine
 10
108.6738619240274
 20
7.080590484917863
 30
0.0
 11
177.2355196987746
 21
7.080590484917863
 31
0.0
  0
LINE
  5
89B
330
872
100
AcDbEntity
  8
公差表
  6
Continuous
 62
     7
370
    18
100
AcDbLine
 10
108.6738619240274
 20
10.33221904934706
 30
0.0
 11
177.2355196987746
 21
10.33221904934706
 31
0.0
  0
TEXT
  5
89C
330
872
100
AcDbEntity
  8
公差表
  6
Continuous
 62
     7
370
    18
100
AcDbText
 10
142.650107492954
 20
14.55096390847372
 30
0.0
 40
1.383671729544341
  1
0.15
  7
ARIAL_TTF
 11
142.650107492954
 21
15.93463563801807
 31
0.0
100
AcDbText
 73
     3
  0
TEXT
  5
89D
330
872
100
AcDbEntity
  8
公差表
  6
Continuous
 62
     7
370
    18
100
AcDbText
 10
142.650107492954
 20
7.99951424308721
 30
0.0
 40
1.383671729544341
  1
0.8
  7
ARIAL_TTF
 11
142.650107492954
 21
9.383185972631551
 31
0.0
100
AcDbText
 73
     3
  0
TEXT
  5
89E
330
872
100
AcDbEntity
  8
公差表
  6
Continuous
 62
     7
370
    18
100
AcDbText
 10
142.650107492954
 20
4.666102252143167
 30
0.0
 40
1.383671729544341
  1
1.5
  7
ARIAL_TTF
 11
142.650107492954
 21
6.049773981687508
 31
0.0
100
AcDbText
 73
     3
  0
TEXT
  5
89F
330
872
100
AcDbEntity
  8
公差表
  6
Continuous
 62
     7
370
    18
100
AcDbText
 10
142.650107492954
 20
11.22095945907123
 30
0.0
 40
1.383671729544341
  1
0.3
  7
ARIAL_TTF
 11
142.650107492954
 21
12.60463118861557
 31
0.0
100
AcDbText
 73
     3
  0
TEXT
  5
8A0
330
872
100
AcDbEntity
  8
公差表
  6
Continuous
 62
     7
370
    18
100
AcDbText
 10
140.8372518458074
 20
19.48138086241409
 30
0.0
 40
1.037753797158256
  1
30をこえ
  7
ARIAL_TTF
 11
140.8372518458074
 21
20.51913465957234
 31
0.0
100
AcDbText
 73
     3
  0
TEXT
  5
8A1
330
872
100
AcDbEntity
  8
公差表
  6
Continuous
 62
     7
370
    18
100
AcDbText
 10
140.8372518458074
 20
17.96271676901181
 30
0.0
 40
1.037753797158256
  1
120以下
  7
ARIAL_TTF
 11
140.8372518458074
 21
19.00047056617007
 31
0.0
100
AcDbText
 73
     3
  0
LINE
  5
8A2
330
872
100
AcDbEntity
  8
公差表
  6
Continuous
 62
     7
370
    25
100
AcDbLine
 10
108.6738619240274
 20
3.82896192048868
 30
0.0
 11
108.6738619240274
 21
22.37016309638287
 31
0.0
  0
LINE
  5
8A3
330
872
100
AcDbEntity
  8
公差表
  6
Continuous
 62
     7
370
    18
100
AcDbLine
 10
132.4045556615379
 20
3.82896192048868
 30
0.0
 11
132.4045556615379
 21
22.37016309638287
 31
0.0
  0
LINE
  5
8A4
330
872
100
AcDbEntity
  8
公差表
  6
Continuous
 62
     7
370
    18
100
AcDbLine
 10
124.9327283219985
 20
3.82896192048868
 30
0.0
 11
124.9327283219985
 21
22.37016309638287
 31
0.0
  0
LINE
  5
8A5
330
872
100
AcDbEntity
  8
公差表
  6
Continuous
 62
     7
370
    18
100
AcDbLine
 10
117.460900982459
 20
3.82896192048868
 30
0.0
 11
117.460900982459
 21
22.37016309638287
 31
0.0
  0
TEXT
  5
8A6
330
872
100
AcDbEntity
  8
公差表
  6
Continuous
 62
     7
370
    18
100
AcDbText
 10
120.2346254743356
 20
7.923887883185207
 30
0.0
 40
1.383671729544341
  1
0.2
  7
ARIAL_TTF
 11
120.2346254743356
 21
9.307559612729548
 31
0.0
100
AcDbText
 73
     3
  0
TEXT
  5
8A7
330
872
100
AcDbEntity
  8
公差表
  6
Continuous
 62
     7
370
    18
100
AcDbText
 10
110.3797495805045
 20
8.034567024411777
 30
0.0
 40
1.383671729544341
  1
粗　級
  7
ARIAL_TTF
 11
110.3797495805045
 21
9.418238753956118
 31
0.0
100
AcDbText
 73
     3
  0
TEXT
  5
8A8
330
872
100
AcDbEntity
  8
公差表
  6
Continuous
 62
     7
370
    18
100
AcDbText
 10
127.706452813875
 20
7.955361619434447
 30
0.0
 40
1.383671729544341
  1
0.3
  7
ARIAL_TTF
 11
127.706452813875
 21
9.339033348978788
 31
0.0
100
AcDbText
 73
     3
  0
LINE
  5
8A9
330
872
100
AcDbEntity
  8
公差表
  6
Continuous
 62
     7
370
    18
100
AcDbLine
 10
139.8763830010774
 20
3.82896192048868
 30
0.0
 11
139.8763830010774
 21
22.37016309638287
 31
0.0
  0
TEXT
  5
8AA
330
872
100
AcDbEntity
  8
公差表
  6
Continuous
 62
     7
370
    18
100
AcDbText
 10
135.1782801534144
 20
7.934757678694032
 30
0.0
 40
1.383671729544341
  1
0.5
  7
ARIAL_TTF
 11
135.1782801534144
 21
9.318429408238373
 31
0.0
100
AcDbText
 73
     3
  0
TEXT
  5
8AB
330
872
100
AcDbEntity
  8
公差表
  6
Continuous
 62
     7
370
    18
100
AcDbText
 10
110.3797495805045
 20
4.869515859753298
 30
0.0
 40
1.383671729544341
  1
極粗級
  7
ARIAL_TTF
 11
110.3797495805045
 21
6.253187589297639
 31
0.0
100
AcDbText
 73
     3
  0
LINE
  5
8AC
330
872
100
AcDbEntity
  8
図面枠
  6
Continuous
 62
     7
370
    18
100
AcDbLine
 10
85.73336680047294
 20
3.245546091770393
 30
0.0
 11
85.73336680047294
 21
3.82896192048868
 31
0.0
  0
TEXT
  5
8AD
330
872
100
AcDbEntity
  8
図面枠
  6
Continuous
 62
     7
370
    18
100
AcDbText
 10
102.2798667955186
 20
1.241347335838672
 30
0.0
 40
1.374252874599957
  1
3
  7
ARIAL_TTF
 11
102.2798667955186
 21
2.615600210438629
 31
0.0
100
AcDbText
 73
     3
  0
TEXT
  5
8AE
330
872
100
AcDbEntity
  8
公差表
  6
Continuous
 62
     7
370
    18
100
AcDbText
 10
127.706452813875
 20
4.59107879160384
 30
0.0
 40
1.383671729544341
  1
0.5
  7
ARIAL_TTF
 11
127.706452813875
 21
5.974750521148181
 31
0.0
100
AcDbText
 73
     3
  0
LINE
  5
8AF
330
872
100
AcDbEntity
  8
公差表
  6
Continuous
 62
     7
370
    18
100
AcDbLine
 10
120.0896886654719
 20
3.245546091770393
 30
0.0
 11
120.0896886654719
 21
3.828961920488737
 31
0.0
  0
LINE
  5
8B0
330
872
100
AcDbEntity
  8
図面枠
  6
Continuous
 62
     7
370
    18
100
AcDbLine
 10
120.0896886654719
 20
3.245546091770393
 30
0.0
 11
120.0896886654719
 21
3.82896192048868
 31
0.0
  0
LINE
  5
8B1
330
872
100
AcDbEntity
  8
公差表
100
AcDbLine
 10
120.2346254743356
 20
5.31862644823677
 30
0.0
 11
123.2427986501309
 21
5.31862644823677
 31
0.0
  0
TEXT
  5
8B2
330
872
100
AcDbEntity
  8
公差表
  6
Continuous
 62
     7
370
    18
100
AcDbText
 10
135.1782801534144
 20
4.825996163195645
 30
0.0
 40
1.383671729544341
  1
1
  7
ARIAL_TTF
 11
135.1782801534144
 21
6.209667892739986
 31
0.0
100
AcDbText
 73
     3
  0
TEXT
  5
8B3
330
872
100
AcDbEntity
  8
図面枠
  6
Continuous
 62
     7
370
    18
100
AcDbText
 10
138.4693307072629
 20
1.259826210635542
 30
0.0
 40
1.374252874599957
  1
4
  7
ARIAL_TTF
 11
138.4693307072629
 21
2.634079085235498
 31
0.0
100
AcDbText
 73
     3
  0
LINE
  5
8B4
330
872
100
AcDbEntity
  8
公差表
100
AcDbLine
 10
117.460900982459
 20
16.83547617820547
 30
0.0
 11
108.6738619240273
 21
22.37016309638287
 31
0.0
  0
TEXT
  5
8B5
330
872
100
AcDbEntity
  8
公差表
  6
Continuous
 62
     7
370
    18
100
AcDbText
 10
110.3797495805045
 20
14.48024016043713
 30
0.0
 40
1.383671729544341
  1
精　級
  7
ARIAL_TTF
 11
110.3797495805045
 21
15.86391188998147
 31
0.0
100
AcDbText
 73
     3
  0
TEXT
  5
8B6
330
872
100
AcDbEntity
  8
公差表
  6
Continuous
 62
     7
370
    18
100
AcDbText
 10
110.3797495805045
 20
11.12048183870148
 30
0.0
 40
1.383671729544341
  1
中　級
  7
ARIAL_TTF
 11
110.3797495805045
 21
12.50415356824583
 31
0.0
100
AcDbText
 73
     3
  0
LINE
  5
8B7
330
872
100
AcDbEntity
  8
公差表
100
AcDbLine
 10
111.3072255804689
 20
13.15386252123558
 30
0.0
 11
114.7177171928183
 21
13.15425769062405
 31
0.0
  0
LINE
  5
8B8
330
872
100
AcDbEntity
  8
公差表
100
AcDbLine
 10
111.3385260374966
 20
10.47445948537155
 30
0.0
 11
114.7178722180005
 21
10.47445891215089
 31
0.0
  0
ARC
  5
8B9
330
872
100
AcDbEntity
  8
公差表
100
AcDbCircle
 10
111.3397654388788
 20
11.81435830588467
 30
0.0
 40
1.339899393733809
100
AcDbArc
 50
88.62169559069392
 51
277.388451992848
  0
LINE
  5
8BA
330
872
100
AcDbEntity
  8
公差表
  6
Continuous
 62
     7
370
    18
100
AcDbLine
 10
111.0006191947899
 20
18.00039439532836
 30
0.0
 11
111.8803230594506
 21
18.00039439532836
 31
0.0
  0
LINE
  5
8BB
330
872
100
AcDbEntity
  8
公差表
  6
Continuous
 62
     7
370
    18
100
AcDbLine
 10
111.0006191947899
 20
18.63817969720735
 30
0.0
 11
111.8803230594506
 21
18.63817969720735
 31
0.0
  0
TEXT
  5
8BC
330
872
100
AcDbEntity
  8
公差表
  6
Continuous
 62
     7
370
    18
100
AcDbText
 10
110.0384096787253
 20
17.7075140229231
 30
0.0
 40
1.245304556589907
  1
(   )
  7
ARIAL_TTF
 11
110.0384096787253
 21
18.95281857951301
 31
0.0
100
AcDbText
 73
     3
  0
LINE
  5
8BD
330
872
100
AcDbEntity
  8
公差表
  6
Continuous
 62
     7
370
    18
100
AcDbLine
 10
111.4184785305037
 20
19.03404643630468
 30
0.0
 11
111.4184785305037
 21
18.19832776487698
 31
0.0
  0
TEXT
  5
8BE
330
872
100
AcDbEntity
  8
公差表
  6
Continuous
 62
     7
370
    18
100
AcDbText
 10
127.706452813875
 20
14.52169152123385
 30
0.0
 40
1.383671729544341
  1
0.05
  7
ARIAL_TTF
 11
127.706452813875
 21
15.90536325077819
 31
0.0
100
AcDbText
 73
     3
  0
TEXT
  5
8BF
330
872
100
AcDbEntity
  8
公差表
  6
Continuous
 62
     7
370
    18
100
AcDbText
 10
127.706452813875
 20
11.23122596141038
 30
0.0
 40
1.383671729544341
  1
0.1
  7
ARIAL_TTF
 11
127.706452813875
 21
12.61489769095472
 31
0.0
100
AcDbText
 73
     3
  0
TEXT
  5
8C0
330
872
100
AcDbEntity
  8
公差表
  6
Continuous
 62
     7
370
    18
100
AcDbText
 10
125.822393008497
 20
17.93121618402207
 30
0.0
 40
1.037753797158256
  1
6以下
  7
ARIAL_TTF
 11
125.822393008497
 21
18.96896998118032
 31
0.0
100
AcDbText
 73
     3
  0
TEXT
  5
8C1
330
872
100
AcDbEntity
  8
公差表
  6
Continuous
 62
     7
370
    18
100
AcDbText
 10
125.822393008497
 20
19.4498802774244
 30
0.0
 40
1.037753797158256
  1
3をこえ
  7
ARIAL_TTF
 11
125.822393008497
 21
20.48763407458266
 31
0.0
100
AcDbText
 73
     3
  0
TEXT
  5
8C2
330
872
100
AcDbEntity
  8
公差表
  6
Continuous
 62
     7
370
    18
100
AcDbText
 10
118.5600381410619
 20
17.92533607482396
 30
0.0
 40
1.037753797158256
  1
3以下
  7
ARIAL_TTF
 11
118.5600381410619
 21
18.96308987198222
 31
0.0
100
AcDbText
 73
     3
  0
TEXT
  5
8C3
330
872
100
AcDbEntity
  8
公差表
  6
Continuous
 62
     7
370
    18
100
AcDbText
 10
118.5600381410619
 20
19.4440001682263
 30
0.0
 40
1.037753797158256
  1
0.5以上
  7
ARIAL_TTF
 11
118.5600381410619
 21
20.48175396538456
 31
0.0
100
AcDbText
 73
     3
  0
ARC
  5
8C4
330
872
100
AcDbEntity
  8
公差表
100
AcDbCircle
 10
114.7178724452806
 20
11.81435830588467
 30
0.0
 40
1.339899393733809
100
AcDbArc
 50
262.611548007152
 51
90.00663879013041
  0
TEXT
  5
8C5
330
872
100
AcDbEntity
  8
公差表
  6
Continuous
 62
     7
370
    18
100
AcDbText
 10
120.2346254743356
 20
14.45874404873547
 30
0.0
 40
1.383671729544341
  1
0.05
  7
ARIAL_TTF
 11
120.2346254743356
 21
15.84241577827981
 31
0.0
100
AcDbText
 73
     3
  0
TEXT
  5
8C6
330
872
100
AcDbEntity
  8
公差表
  6
Continuous
 62
     7
370
    18
100
AcDbText
 10
120.2346254743356
 20
11.23609303402625
 30
0.0
 40
1.383671729544341
  1
0.1
  7
ARIAL_TTF
 11
120.2346254743356
 21
12.61976476357059
 31
0.0
100
AcDbText
 73
     3
  0
TEXT
  5
8C7
330
872
100
AcDbEntity
  8
公差表
  6
Continuous
 62
     7
370
    18
100
AcDbText
 10
133.2334306370836
 20
17.96439680021127
 30
0.0
 40
1.037753797158256
  1
30以下
  7
ARIAL_TTF
 11
133.2334306370836
 21
19.00215059736952
 31
0.0
100
AcDbText
 73
     3
  0
TEXT
  5
8C8
330
872
100
AcDbEntity
  8
公差表
  6
Continuous
 62
     7
370
    18
100
AcDbText
 10
135.1782801534144
 20
14.46847819396715
 30
0.0
 40
1.383671729544341
  1
0.1
  7
ARIAL_TTF
 11
135.1782801534144
 21
15.85214992351149
 31
0.0
100
AcDbText
 73
     3
  0
TEXT
  5
8C9
330
872
100
AcDbEntity
  8
公差表
  6
Continuous
 62
     7
370
    18
100
AcDbText
 10
135.1782801534144
 20
11.35111818351415
 30
0.0
 40
1.383671729544341
  1
0.2
  7
ARIAL_TTF
 11
135.1782801534144
 21
12.73478991305849
 31
0.0
100
AcDbText
 73
     3
  0
TEXT
  5
8CA
330
872
100
AcDbEntity
  8
公差表
  6
Continuous
 62
     7
370
    18
100
AcDbText
 10
133.2334306370836
 20
19.48306089361357
 30
0.0
 40
1.037753797158256
  1
6をこえ
  7
ARIAL_TTF
 11
133.2334306370836
 21
20.52081469077183
 31
0.0
100
AcDbText
 73
     3
  0
LINE
  5
8CB
330
872
100
AcDbEntity
  8
公差表
  6
Continuous
 62
     7
370
    18
100
AcDbLine
 10
147.3482103406167
 20
3.82896192048868
 30
0.0
 11
147.3482103406167
 21
22.37016309638287
 31
0.0
  0
LINE
  5
8CC
330
872
100
AcDbEntity
  8
公差表
  6
Continuous
 62
     7
370
    18
100
AcDbLine
 10
154.8200376801562
 20
3.82896192048868
 30
0.0
 11
154.8200376801562
 21
22.37016309638287
 31
0.0
  0
TEXT
  5
8CD
330
872
100
AcDbEntity
  8
公差表
  6
Continuous
 62
     7
370
    18
100
AcDbText
 10
157.5937621720328
 20
7.874545487540109
 30
0.0
 40
1.383671729544341
  1
2
  7
ARIAL_TTF
 11
157.5937621720328
 21
9.25821721708445
 31
0.0
100
AcDbText
 73
     3
  0
TEXT
  5
8CE
330
872
100
AcDbEntity
  8
公差表
  6
Continuous
 62
     7
370
    18
100
AcDbText
 10
150.1219348324933
 20
7.959372454145486
 30
0.0
 40
1.383671729544341
  1
1.2
  7
ARIAL_TTF
 11
150.1219348324933
 21
9.343044183689827
 31
0.0
100
AcDbText
 73
     3
  0
LINE
  5
8CF
330
872
100
AcDbEntity
  8
公差表
  6
Continuous
370
    18
100
AcDbLine
 10
169.7636923592351
 20
3.82896192048868
 30
0.0
 11
169.7636923592351
 21
22.37016309638287
 31
0.0
  0
LINE
  5
8D0
330
872
100
AcDbEntity
  8
公差表
  6
Continuous
370
    18
100
AcDbLine
 10
177.2355196987746
 20
3.82896192048868
 30
0.0
 11
177.2355196987746
 21
22.37016309638287
 31
0.0
  0
LINE
  5
8D1
330
872
100
AcDbEntity
  8
公差表
  6
Continuous
370
    18
100
AcDbLine
 10
177.2355196987746
 20
3.82896192048868
 30
0.0
 11
177.2355196987746
 21
22.37016309638287
 31
0.0
  0
LINE
  5
8D2
330
872
100
AcDbEntity
  8
公差表
  6
Continuous
 62
     7
370
    18
100
AcDbLine
 10
162.2918650196956
 20
3.82896192048868
 30
0.0
 11
162.2918650196956
 21
22.37016309638287
 31
0.0
  0
TEXT
  5
8D3
330
872
100
AcDbEntity
  8
公差表
  6
Continuous
370
    18
100
AcDbText
 10
165.0655895115723
 20
7.729001883422262
 30
0.0
 40
1.383671729544341
  1
3
  7
ARIAL_TTF
 11
165.0655895115723
 21
9.112673612966603
 31
0.0
100
AcDbText
 73
     3
  0
TEXT
  5
8D4
330
872
100
AcDbEntity
  8
公差表
  6
Continuous
370
    18
100
AcDbText
 10
172.5374168511117
 20
7.92803871499145
 30
0.0
 40
1.383671729544341
  1
4
  7
ARIAL_TTF
 11
172.5374168511117
 21
9.311710444535791
 31
0.0
100
AcDbText
 73
     3
  0
LINE
  5
8D5
330
872
100
AcDbEntity
  8
公差表
100
AcDbLine
 10
184.707347038314
 20
23.33873330706388
 30
0.0
 11
184.707347038314
 21
3.82896192048868
 31
0.0
  0
LINE
  5
8D6
330
872
100
AcDbEntity
  8
図面枠
  6
Continuous
370
    25
100
AcDbLine
 10
184.707347038314
 20
3.82896192048868
 30
0.0
 11
184.7073470383139
 21
27.90485001456022
 31
0.0
  0
LINE
  5
8D7
330
872
100
AcDbEntity
  8
図面枠
  6
Continuous
370
    18
100
AcDbLine
 10
203.3869153871626
 20
10.74732056821034
 30
0.0
 11
203.3869153871626
 21
3.828961920488652
 31
0.0
  0
LINE
  5
8D8
330
872
100
AcDbEntity
  8
図面枠
  6
Continuous
370
    25
100
AcDbLine
 10
176.7780465149322
 20
2.883493177672548
 30
0.0
 11
177.2353181155035
 21
2.883493177672548
 31
0.0
  0
LINE
  5
8D9
330
872
100
AcDbEntity
  8
図面枠
370
    25
100
AcDbLine
 10
177.2522719138331
 20
2.751978241339742
 30
0.0
 11
176.9062516031295
 21
2.856943908261826
 31
0.0
  0
LINE
  5
8DA
330
872
100
AcDbEntity
  8
図面枠
370
    25
100
AcDbLine
 10
177.4623556739029
 20
2.486477543130178
 30
0.0
 11
177.1101568529623
 21
2.856943908261826
 31
0.0
  0
LINE
  5
8DB
330
872
100
AcDbEntity
  8
図面枠
  6
Continuous
370
    25
100
AcDbLine
 10
176.1204700889026
 20
0.4298488710375352
 30
0.0
 11
177.3324847769178
 21
1.641863559052737
 31
0.0
  0
LINE
  5
8DC
330
872
100
AcDbEntity
  8
図面枠
  6
Continuous
370
    25
100
AcDbLine
 10
177.2353181155035
 20
1.434393035016797
 30
0.0
 11
176.9068554165015
 21
1.080168555700936
 31
0.0
  0
LINE
  5
8DD
330
872
100
AcDbEntity
  8
図面枠
370
    25
100
AcDbLine
 10
177.1101568529623
 20
2.856943908261826
 30
0.0
 11
177.2090197988775
 21
1.572659550801632
 31
0.0
  0
TEXT
  5
8DE
330
872
100
AcDbEntity
  8
公差表
  6
Continuous
 62
     7
370
    18
100
AcDbText
 10
150.1219348324933
 20
4.773525638381193
 30
0.0
 40
1.383671729544341
  1
2.5
  7
ARIAL_TTF
 11
150.1219348324933
 21
6.157197367925534
 31
0.0
100
AcDbText
 73
     3
  0
LINE
  5
8DF
330
872
100
AcDbEntity
  8
公差表
  6
Continuous
 62
     7
370
    18
100
AcDbLine
 10
154.4460105304709
 20
3.245546091770393
 30
0.0
 11
154.4460105304709
 21
3.828961920488737
 31
0.0
  0
LINE
  5
8E0
330
872
100
AcDbEntity
  8
図面枠
  6
Continuous
 62
     7
370
    18
100
AcDbLine
 10
154.4460105304709
 20
3.245546091770393
 30
0.0
 11
154.4460105304709
 21
3.82896192048868
 31
0.0
  0
TEXT
  5
8E1
330
872
100
AcDbEntity
  8
公差表
  6
Continuous
 62
     7
370
    18
100
AcDbText
 10
157.5937621720328
 20
4.809151617789928
 30
0.0
 40
1.383671729544341
  1
4
  7
ARIAL_TTF
 11
157.5937621720328
 21
6.192823347334269
 31
0.0
100
AcDbText
 73
     3
  0
TEXT
  5
8E2
330
872
100
AcDbEntity
  8
公差表
  6
Continuous
370
    18
100
AcDbText
 10
165.0655895115723
 20
4.701679111123502
 30
0.0
 40
1.383671729544341
  1
6
  7
ARIAL_TTF
 11
165.0655895115723
 21
6.085350840667843
 31
0.0
100
AcDbText
 73
     3
  0
TEXT
  5
8E3
330
872
100
AcDbEntity
  8
図面枠
  6
Continuous
370
    18
100
AcDbText
 10
171.0894691760245
 20
1.368082939166289
 30
0.0
 40
1.374252874599957
  1
5
  7
ARIAL_TTF
 11
171.0894691760245
 21
2.742335813766246
 31
0.0
100
AcDbText
 73
     3
  0
LINE
  5
8E4
330
872
100
AcDbEntity
  8
図面枠
370
    25
100
AcDbLine
 10
177.0360096435258
 20
2.863118510255731
 30
0.0
 11
176.5664106504283
 21
2.702582965573242
 31
0.0
  0
LINE
  5
8E5
330
872
100
AcDbEntity
  8
図面枠
  6
Continuous
370
    25
100
AcDbLine
 10
174.1245831426024
 20
3.057385194791237
 30
0.0
 11
173.9120484550129
 21
3.057385194791237
 31
0.0
  0
LINE
  5
8E6
330
872
100
AcDbEntity
  8
図面枠
  6
Continuous
370
    25
100
AcDbLine
 10
176.159763787399
 20
2.53313296540378
 30
0.0
 11
176.4431433708516
 21
2.76756516626007
 31
0.0
  0
LINE
  5
8E7
330
872
100
AcDbEntity
  8
図面枠
370
    25
100
AcDbLine
 10
176.5664106504283
 20
2.702582965573242
 30
0.0
 11
176.8568201301719
 21
2.609965989244074
 31
0.0
  0
LINE
  5
8E8
330
872
100
AcDbEntity
  8
図面枠
370
    25
100
AcDbLine
 10
176.6652735963436
 20
2.603791900645163
 30
0.0
 11
176.5416949139495
 21
2.77050153392662
 31
0.0
  0
LINE
  5
8E9
330
872
100
AcDbEntity
  8
図面枠
  6
Continuous
370
    25
100
AcDbLine
 10
174.3822009457412
 20
2.56147092374907
 30
0.0
 11
174.3822009457412
 21
2.76756516626007
 31
0.0
  0
LINE
  5
8EA
330
872
100
AcDbEntity
  8
図面枠
370
    25
100
AcDbLine
 10
174.3296373468604
 20
2.758152843333775
 30
0.0
 11
174.2493107794218
 21
2.838420615674991
 31
0.0
  0
LINE
  5
8EB
330
872
100
AcDbEntity
  8
図面枠
  6
Continuous
370
    25
100
AcDbLine
 10
174.3822009457412
 20
2.76756516626007
 30
0.0
 11
174.1245831426024
 21
3.057385194791237
 31
0.0
  0
LINE
  5
8EC
330
872
100
AcDbEntity
  8
図面枠
  6
Continuous
370
    25
100
AcDbLine
 10
176.4431433708516
 20
2.76756516626007
 30
0.0
 11
176.7780465149321
 21
2.883493177672548
 31
0.0
  0
LINE
  5
8ED
330
872
100
AcDbEntity
  8
図面枠
  6
Continuous
370
    25
100
AcDbLine
 10
173.6029070912464
 20
2.76756516626007
 30
0.0
 11
173.6029070912464
 21
2.53313296540378
 31
0.0
  0
LINE
  5
8EE
330
872
100
AcDbEntity
  8
図面枠
  6
Continuous
370
    25
100
AcDbLine
 10
173.9120484550129
 20
3.057385194791237
 30
0.0
 11
173.6029070912464
 21
2.76756516626007
 31
0.0
  0
LINE
  5
8EF
330
872
100
AcDbEntity
  8
図面枠
370
    25
100
AcDbLine
 10
176.8568201301719
 20
2.461779648549424
 30
0.0
 11
177.0174724172842
 21
1.375077420945431
 31
0.0
  0
LINE
  5
8F0
330
872
100
AcDbEntity
  8
図面枠
370
    25
100
AcDbLine
 10
177.0174724172842
 20
1.375077420945431
 30
0.0
 11
176.8135680152165
 21
2.060440786843174
 31
0.0
  0
LINE
  5
8F1
330
872
100
AcDbEntity
  8
図面枠
  6
Continuous
370
    25
100
AcDbLine
 10
175.6482776996647
 20
0.3613296901612273
 30
0.0
 11
174.0612787847738
 21
2.108362109074818
 31
0.0
  0
LINE
  5
8F2
330
872
100
AcDbEntity
  8
図面枠
  6
Continuous
370
    25
100
AcDbLine
 10
175.9016640810339
 20
0.6680605728712692
 30
0.0
 11
175.6482776996647
 21
0.3613296901612273
 31
0.0
  0
LINE
  5
8F3
330
872
100
AcDbEntity
  8
図面枠
  6
Continuous
370
    25
100
AcDbLine
 10
173.9120484550129
 20
2.265210450139378
 30
0.0
 11
174.0730595819747
 21
2.265210450139378
 31
0.0
  0
LINE
  5
8F4
330
872
100
AcDbEntity
  8
図面枠
  6
Continuous
370
    25
100
AcDbLine
 10
176.2950131340468
 20
2.329614900924113
 30
0.0
 11
176.174902886529
 21
2.343175735321338
 31
0.0
  0
LINE
  5
8F5
330
872
100
AcDbEntity
  8
図面枠
  6
Continuous
370
    25
100
AcDbLine
 10
176.1146806718496
 20
0.4876476084816801
 30
0.0
 11
176.2950131340468
 21
0.8225507525621651
 31
0.0
  0
LINE
  5
8F6
330
872
100
AcDbEntity
  8
図面枠
  6
Continuous
370
    25
100
AcDbLine
 10
176.4946669314795
 20
0.6937418509927653
 30
0.0
 11
176.1784558067951
 21
0.3972939216012037
 31
0.0
  0
LINE
  5
8F7
330
872
100
AcDbEntity
  8
図面枠
  6
Continuous
370
    25
100
AcDbLine
 10
176.174902886529
 20
2.343175735321338
 30
0.0
 11
176.0889188915359
 21
2.213686889511692
 31
0.0
  0
LINE
  5
8F8
330
872
100
AcDbEntity
  8
図面枠
  6
Continuous
370
    25
100
AcDbLine
 10
176.1146806718496
 20
0.3972939216012037
 30
0.0
 11
176.1146806718496
 21
0.4876476084816801
 31
0.0
  0
LINE
  5
8F9
330
872
100
AcDbEntity
  8
図面枠
  6
Continuous
370
    25
100
AcDbLine
 10
176.1784558067951
 20
0.3972939216012037
 30
0.0
 11
176.1146806718496
 21
0.3972939216012037
 31
0.0
  0
LINE
  5
8FA
330
872
100
AcDbEntity
  8
図面枠
  6
Continuous
370
    25
100
AcDbLine
 10
176.694320728912
 20
2.284531785374838
 30
0.0
 11
176.2950131340468
 21
2.329614900924113
 31
0.0
  0
LINE
  5
8FB
330
872
100
AcDbEntity
  8
図面枠
  6
Continuous
370
    25
100
AcDbLine
 10
176.7522847346182
 20
2.052675762549939
 30
0.0
 11
176.6943207289121
 21
2.284531785374838
 31
0.0
  0
LINE
  5
8FC
330
872
100
AcDbEntity
  8
図面枠
  6
Continuous
370
    25
100
AcDbLine
 10
176.6668622810284
 20
1.63775849786785
 30
0.0
 11
176.7522847346182
 21
2.052675762549939
 31
0.0
  0
LINE
  5
8FD
330
872
100
AcDbEntity
  8
図面枠
  6
Continuous
370
    25
100
AcDbLine
 10
176.4624647060871
 20
1.189656122034961
 30
0.0
 11
176.6668622810283
 21
1.63775849786785
 31
0.0
  0
LINE
  5
8FE
330
872
100
AcDbEntity
  8
図面枠
  6
Continuous
370
    25
100
AcDbLine
 10
176.2950131340468
 20
0.8225507525621651
 30
0.0
 11
176.4624647060871
 21
1.189656122034961
 31
0.0
  0
LINE
  5
8FF
330
872
100
AcDbEntity
  8
図面枠
  6
Continuous
370
    25
100
AcDbLine
 10
176.9068554165015
 20
1.080168555700936
 30
0.0
 11
176.4946669314794
 21
0.6937418509927653
 31
0.0
  0
LINE
  5
900
330
872
100
AcDbEntity
  8
図面枠
370
    25
100
AcDbLine
 10
176.8135680152165
 20
2.060440786843174
 30
0.0
 11
176.9062516031295
 21
1.300984250598034
 31
0.0
  0
LINE
  5
901
330
872
100
AcDbEntity
  8
図面枠
370
    25
100
AcDbLine
 10
176.9062516031295
 20
1.300984250598034
 30
0.0
 11
176.73942080578
 21
1.850509452998992
 31
0.0
  0
LINE
  5
902
330
872
100
AcDbEntity
  8
図面枠
370
    25
100
AcDbLine
 10
176.73942080578
 20
1.850509452998992
 30
0.0
 11
176.8197465254537
 21
1.134274103921612
 31
0.0
  0
LINE
  5
903
330
872
100
AcDbEntity
  8
図面枠
370
    25
100
AcDbLine
 10
176.8197465254537
 20
1.134274103921612
 30
0.0
 11
176.6652735963436
 21
1.529438363633957
 31
0.0
  0
LINE
  5
904
330
872
100
AcDbEntity
  8
図面枠
370
    25
100
AcDbLine
 10
176.6652735963436
 20
1.529438363633957
 30
0.0
 11
176.6652735963436
 21
1.023133835005595
 31
0.0
  0
LINE
  5
905
330
872
100
AcDbEntity
  8
図面枠
370
    25
100
AcDbLine
 10
176.6652735963436
 20
1.023133835005595
 30
0.0
 11
176.5540527821889
 21
1.300984250598034
 31
0.0
  0
LINE
  5
906
330
872
100
AcDbEntity
  8
図面枠
370
    25
100
AcDbLine
 10
176.5540527821889
 20
1.300984250598034
 30
0.0
 11
176.5540527821889
 21
0.8872961849038887
 31
0.0
  0
LINE
  5
907
330
872
100
AcDbEntity
  8
図面枠
370
    25
100
AcDbLine
 10
176.5540527821889
 20
0.8872961849038887
 30
0.0
 11
176.4304740997948
 21
1.078704226161094
 31
0.0
  0
LINE
  5
908
330
872
100
AcDbEntity
  8
図面枠
370
    25
100
AcDbLine
 10
176.4304740997948
 20
1.078704226161094
 30
0.0
 11
176.4304740997948
 21
0.8193776165504829
 31
0.0
  0
LINE
  5
909
330
872
100
AcDbEntity
  8
図面枠
370
    25
100
AcDbLine
 10
176.4304740997948
 20
0.8193776165504829
 30
0.0
 11
176.3686847585977
 21
0.8625982903230778
 31
0.0
  0
LINE
  5
90A
330
872
100
AcDbEntity
  8
図面枠
370
    25
100
AcDbLine
 10
176.3686847585977
 20
0.8625982903230778
 30
0.0
 11
176.3686847585977
 21
0.7452839328081211
 31
0.0
  0
LINE
  5
90B
330
872
100
AcDbEntity
  8
図面枠
370
    25
100
AcDbLine
 10
176.3686847585977
 20
0.7452839328081211
 30
0.0
 11
176.2945375491613
 21
0.7452839328081211
 31
0.0
  0
LINE
  5
90C
330
872
100
AcDbEntity
  8
図面枠
370
    25
100
AcDbLine
 10
176.2945375491613
 20
0.7452839328081211
 30
0.0
 11
176.2760011706846
 21
0.6650161604669336
 31
0.0
  0
LINE
  5
90D
330
872
100
AcDbEntity
  8
図面枠
370
    25
100
AcDbLine
 10
176.584947028905
 20
2.40620977078899
 30
0.0
 11
176.6220206336232
 21
2.319767396453756
 31
0.0
  0
LINE
  5
90E
330
872
100
AcDbEntity
  8
図面枠
370
    25
100
AcDbLine
 10
176.6220206336232
 20
2.319767396453756
 30
0.0
 11
176.52933704571
 21
2.325941998447689
 31
0.0
  0
LINE
  5
90F
330
872
100
AcDbEntity
  8
図面枠
  6
Continuous
370
    25
100
AcDbLine
 10
174.7472239184279
 20
2.108362109074818
 30
0.0
 11
175.0168092538281
 21
2.371485081397651
 31
0.0
  0
LINE
  5
910
330
872
100
AcDbEntity
  8
図面枠
  6
Continuous
370
    25
100
AcDbLine
 10
175.7475753023768
 20
2.097758878099256
 30
0.0
 11
175.7376218872556
 21
2.052675762549939
 31
0.0
  0
LINE
  5
911
330
872
100
AcDbEntity
  8
図面枠
  6
Continuous
370
    25
100
AcDbLine
 10
175.9343482096525
 20
2.142841993648517
 30
0.0
 11
175.7376218872556
 21
2.052675762549939
 31
0.0
  0
LINE
  5
912
330
872
100
AcDbEntity
  8
図面枠
  6
Continuous
370
    25
100
AcDbLine
 10
174.501370920836
 20
2.415092991784846
 30
0.0
 11
175.9016640810339
 21
0.6680605728712266
 31
0.0
  0
LINE
  5
913
330
872
100
AcDbEntity
  8
図面枠
  6
Continuous
370
    25
100
AcDbLine
 10
174.0612787847738
 20
2.108362109074818
 30
0.0
 11
174.501370920836
 21
2.415092991784846
 31
0.0
  0
LINE
  5
914
330
872
100
AcDbEntity
  8
図面枠
370
    25
100
AcDbLine
 10
174.1751635699853
 20
2.171580542364111
 30
0.0
 11
175.6642862689515
 21
0.4550853400178028
 31
0.0
  0
LINE
  5
915
330
872
100
AcDbEntity
  8
図面枠
370
    25
100
AcDbLine
 10
175.6642862689515
 20
0.4550853400178028
 30
0.0
 11
174.3172794786209
 21
2.270371607292162
 31
0.0
  0
LINE
  5
916
330
872
100
AcDbEntity
  8
図面枠
370
    25
100
AcDbLine
 10
174.3172794786209
 20
2.270371607292162
 30
0.0
 11
175.7755070831062
 21
0.5909229901195374
 31
0.0
  0
LINE
  5
917
330
872
100
AcDbEntity
  8
図面枠
370
    25
100
AcDbLine
 10
175.7755070831062
 20
0.5909229901195374
 30
0.0
 11
174.4161424245362
 21
2.325941998447689
 31
0.0
  0
LINE
  5
918
330
872
100
AcDbEntity
  8
図面枠
370
    25
100
AcDbLine
 10
174.9413514008286
 20
2.270371607292162
 30
0.0
 11
175.9979487114155
 21
1.455345193286647
 31
0.0
  0
LINE
  5
919
330
872
100
AcDbEntity
  8
図面枠
370
    25
100
AcDbLine
 10
175.9979487114155
 20
1.455345193286647
 30
0.0
 11
174.8486678129154
 21
2.153057249777262
 31
0.0
  0
LINE
  5
91A
330
872
100
AcDbEntity
  8
図面枠
370
    25
100
AcDbLine
 10
174.8486678129154
 20
2.153057249777262
 30
0.0
 11
175.9052651235025
 21
1.375077420945431
 31
0.0
  0
LINE
  5
91B
330
872
100
AcDbEntity
  8
図面枠
370
    25
100
AcDbLine
 10
176.010306579655
 20
2.301244103866878
 30
0.0
 11
176.0041280694176
 21
2.202453038938799
 31
0.0
  0
LINE
  5
91C
330
872
100
AcDbEntity
  8
図面枠
370
    25
100
AcDbLine
 10
176.0041280694176
 20
2.202453038938799
 30
0.0
 11
175.9361593702185
 21
2.202453038938799
 31
0.0
  0
LINE
  5
91D
330
872
100
AcDbEntity
  8
図面枠
370
    25
100
AcDbLine
 10
175.3641173202381
 20
1.22110819866262
 30
0.0
 11
175.8421973529095
 21
0.6445342658507656
 31
0.0
  0
LINE
  5
91E
330
872
100
AcDbEntity
  8
図面枠
  6
Continuous
370
    25
100
AcDbLine
 10
176.0953593366143
 20
1.524559266115403
 30
0.0
 11
175.9016640810339
 21
1.268186212956095
 31
0.0
  0
LINE
  5
91F
330
872
100
AcDbEntity
  8
図面枠
  6
Continuous
370
    25
100
AcDbLine
 10
175.0168092538281
 20
2.371485081397651
 30
0.0
 11
176.0953593366143
 21
1.524559266115403
 31
0.0
  0
LINE
  5
920
330
872
100
AcDbEntity
  8
図面枠
  6
Continuous
370
    25
100
AcDbLine
 10
176.0889188915359
 20
2.213686889511692
 30
0.0
 11
175.9343482096525
 21
2.142841993648489
 31
0.0
  0
LINE
  5
921
330
872
100
AcDbEntity
  8
図面枠
370
    25
100
AcDbLine
 10
176.0968116573309
 20
2.301244103866878
 30
0.0
 11
176.010306579655
 21
2.301244103866878
 31
0.0
  0
LINE
  5
922
330
872
100
AcDbEntity
  8
図面枠
370
    25
100
AcDbLine
 10
176.9062516031295
 20
2.856943908261826
 30
0.0
 11
177.134872589441
 21
1.461519795280665
 31
0.0
  0
LINE
  5
923
330
872
100
AcDbEntity
  8
図面枠
370
    25
100
AcDbLine
 10
173.9094698267205
 20
2.974258265776697
 30
0.0
 11
173.9589012996781
 21
2.2827208112801
 31
0.0
  0
LINE
  5
924
330
872
100
AcDbEntity
  8
図面枠
370
    25
100
AcDbLine
 10
176.8568201301719
 20
2.609965989244074
 30
0.0
 11
176.8568201301719
 21
2.461779648549424
 31
0.0
  0
LINE
  5
925
330
872
100
AcDbEntity
  8
図面枠
370
    25
100
AcDbLine
 10
176.7579571842568
 20
2.616140591238008
 30
0.0
 11
176.8073886572143
 21
2.072789477436018
 31
0.0
  0
LINE
  5
926
330
872
100
AcDbEntity
  8
図面枠
370
    25
100
AcDbLine
 10
176.8073886572143
 20
2.072789477436018
 30
0.0
 11
176.6652735963436
 21
2.603791900645163
 31
0.0
  0
LINE
  5
927
330
872
100
AcDbEntity
  8
図面枠
370
    25
100
AcDbLine
 10
176.5416949139495
 20
2.77050153392662
 30
0.0
 11
176.584947028905
 21
2.40620977078899
 31
0.0
  0
LINE
  5
928
330
872
100
AcDbEntity
  8
図面枠
370
    25
100
AcDbLine
 10
176.52933704571
 20
2.325941998447689
 30
0.0
 11
176.4490113260364
 21
2.708757054172182
 31
0.0
  0
LINE
  5
929
330
872
100
AcDbEntity
  8
図面枠
370
    25
100
AcDbLine
 10
176.4490113260364
 20
2.708757054172182
 30
0.0
 11
176.3995798530788
 21
2.313592794459751
 31
0.0
  0
LINE
  5
92A
330
872
100
AcDbEntity
  8
図面枠
370
    25
100
AcDbLine
 10
176.3995798530788
 20
2.313592794459751
 30
0.0
 11
176.3439690221189
 21
2.616140591238008
 31
0.0
  0
LINE
  5
92B
330
872
100
AcDbEntity
  8
図面枠
370
    25
100
AcDbLine
 10
176.3439690221189
 20
2.616140591238008
 30
0.0
 11
176.2512854342059
 21
2.356813981627411
 31
0.0
  0
LINE
  5
92C
330
872
100
AcDbEntity
  8
図面枠
370
    25
100
AcDbLine
 10
176.2512854342059
 20
2.356813981627411
 30
0.0
 11
176.1771382247694
 21
2.523524128303833
 31
0.0
  0
LINE
  5
92D
330
872
100
AcDbEntity
  8
図面枠
370
    25
100
AcDbLine
 10
176.1771382247694
 20
2.523524128303833
 30
0.0
 11
176.0968116573309
 21
2.301244103866878
 31
0.0
  0
LINE
  5
92E
330
872
100
AcDbEntity
  8
図面枠
  6
Continuous
370
    25
100
AcDbLine
 10
174.0730595819747
 20
2.265210450139378
 30
0.0
 11
174.3822009457412
 21
2.561470923749042
 31
0.0
  0
LINE
  5
92F
330
872
100
AcDbEntity
  8
図面枠
370
    25
100
AcDbLine
 10
174.2307744009451
 20
2.4494304445615
 30
0.0
 11
174.3296373468604
 21
2.758152843333775
 31
0.0
  0
LINE
  5
930
330
872
100
AcDbEntity
  8
図面枠
  6
Continuous
370
    25
100
AcDbLine
 10
175.7475753023768
 20
2.097758878099256
 30
0.0
 11
176.159763787399
 21
2.533132965403809
 31
0.0
  0
LINE
  5
931
330
872
100
AcDbEntity
  8
図面枠
370
    25
100
AcDbLine
 10
173.9589012996781
 20
2.2827208112801
 30
0.0
 11
173.9959749043963
 21
3.029828143537216
 31
0.0
  0
LINE
  5
932
330
872
100
AcDbEntity
  8
図面枠
370
    25
100
AcDbLine
 10
173.9959749043963
 20
3.029828143537216
 30
0.0
 11
174.0948378503117
 21
2.307418192465818
 31
0.0
  0
LINE
  5
933
330
872
100
AcDbEntity
  8
図面枠
370
    25
100
AcDbLine
 10
174.0948378503117
 20
2.307418192465818
 30
0.0
 11
174.1442693232693
 21
2.992781558363561
 31
0.0
  0
LINE
  5
934
330
872
100
AcDbEntity
  8
図面枠
370
    25
100
AcDbLine
 10
174.1442693232693
 20
2.992781558363561
 30
0.0
 11
174.2307744009451
 21
2.4494304445615
 31
0.0
  0
LINE
  5
935
330
872
100
AcDbEntity
  8
図面枠
370
    25
100
AcDbLine
 10
177.134872589441
 20
1.461519795280665
 30
0.0
 11
177.0360096435258
 21
2.863118510255731
 31
0.0
  0
LINE
  5
936
330
872
100
AcDbEntity
  8
図面枠
370
    25
100
AcDbLine
 10
173.7179232928921
 20
2.844595217668953
 30
0.0
 11
173.7797117863242
 21
2.400035168795
 31
0.0
  0
LINE
  5
937
330
872
100
AcDbEntity
  8
図面枠
  6
Continuous
370
    25
100
AcDbLine
 10
173.6029070912464
 20
2.53313296540378
 30
0.0
 11
173.9120484550129
 21
2.265210450139378
 31
0.0
  0
LINE
  5
938
330
872
100
AcDbEntity
  8
図面枠
370
    25
100
AcDbLine
 10
173.7797117863242
 20
2.400035168795
 30
0.0
 11
173.9094698267205
 21
2.974258265776697
 31
0.0
  0
TEXT
  5
939
330
872
100
AcDbEntity
  8
公差表
  6
Continuous
370
    18
100
AcDbText
 10
172.5374168511117
 20
4.660072249862784
 30
0.0
 40
1.383671729544341
  1
8
  7
ARIAL_TTF
 11
172.5374168511117
 21
6.043743979407125
 31
0.0
100
AcDbText
 73
     3
  0
TEXT
  5
93A
330
872
100
AcDbEntity
  8
図面枠
  6
Continuous
370
    18
100
AcDbText
 10
178.5966512146127
 20
0.6670033861426294
 30
0.0
 40
1.717816093249946
  1
株式会社　渡辺製作所
  7
ARIAL_TTF
 11
178.5966512146127
 21
2.384819479392576
 31
0.0
100
AcDbText
 73
     3
  0
LINE
  5
93B
330
872
100
AcDbEntity
  8
図面枠
370
    25
100
AcDbLine
 10
177.3573142177503
 20
2.696408363579309
 30
0.0
 11
177.4623556739029
 21
2.486477543130178
 31
0.0
  0
LINE
  5
93C
330
872
100
AcDbEntity
  8
図面枠
  6
Continuous
370
    25
100
AcDbLine
 10
177.2353181155035
 20
2.883493177672548
 30
0.0
 11
177.4736145834069
 21
2.650349065831961
 31
0.0
  0
LINE
  5
93D
330
872
100
AcDbEntity
  8
図面枠
  6
Continuous
370
    25
100
AcDbLine
 10
177.5251381440346
 20
1.898105080666653
 30
0.0
 11
177.2353181155035
 21
1.434393035016797
 31
0.0
  0
LINE
  5
93E
330
872
100
AcDbEntity
  8
図面枠
  6
Continuous
370
    25
100
AcDbLine
 10
177.5831021497408
 20
2.361817126316495
 30
0.0
 11
177.5251381440346
 21
1.898105080666653
 31
0.0
  0
LINE
  5
93F
330
872
100
AcDbEntity
  8
図面枠
370
    25
100
AcDbLine
 10
177.4314614271868
 20
1.838160762406147
 30
0.0
 11
177.2893455185513
 21
1.671450615729682
 31
0.0
  0
LINE
  5
940
330
872
100
AcDbEntity
  8
図面枠
  6
Continuous
370
    25
100
AcDbLine
 10
177.4736145834069
 20
2.650349065831961
 30
0.0
 11
177.5831021497408
 21
2.361817126316495
 31
0.0
  0
LINE
  5
941
330
872
100
AcDbEntity
  8
図面枠
370
    25
100
AcDbLine
 10
177.468535031905
 20
2.542047420890697
 30
0.0
 11
177.4314614271868
 21
1.838160762406147
 31
0.0
  0
LINE
  5
942
330
872
100
AcDbEntity
  8
図面枠
370
    25
100
AcDbLine
 10
177.2893455185513
 20
1.671450615729682
 30
0.0
 11
177.3573142177503
 21
2.696408363579309
 31
0.0
  0
LINE
  5
943
330
872
100
AcDbEntity
  8
図面枠
370
    25
100
AcDbLine
 10
177.2090197988775
 20
1.572659550801632
 30
0.0
 11
177.2522719138331
 21
2.751978241339742
 31
0.0
  0
LINE
  5
944
330
872
100
AcDbEntity
  8
図面枠
  6
Continuous
370
    18
100
AcDbLine
 10
188.8023323954697
 20
3.245546091770393
 30
0.0
 11
188.8023323954697
 21
3.82896192048868
 31
0.0
  0
TEXT
  5
945
330
872
100
AcDbEntity
  8
図面枠
  6
Continuous
370
    18
100
AcDbText
 10
185.5638503357389
 20
4.998424933520786
 30
0.0
 40
1.383671729544341
  1
SCALE
  7
ARIAL_TTF
 11
185.5638503357389
 21
6.382096663065127
 31
0.0
100
AcDbText
 73
     3
  0
TEXT
  5
946
330
872
100
AcDbEntity
  8
図面枠
  6
Continuous
370
    18
100
AcDbText
 10
186.2152991376879
 20
7.224823951427402
 30
0.0
 40
1.383671729544341
  1
尺度    
  7
ARIAL_TTF
 11
186.2152991376879
 21
8.608495680971743
 31
0.0
100
AcDbText
 73
     3
  0
TEXT
  5
947
330
872
100
AcDbEntity
  8
0
 62
     7
100
AcDbText
 10
196.0652890770264
 20
5.386565011112509
 30
0.0
 40
2.0
  1
:
  7
注記
 11
196.0652890770264
 21
7.386565011112509
 31
0.0
100
AcDbText
 73
     3
  0
TEXT
  5
948
330
872
100
AcDbEntity
  8
公差表
  6
Continuous
370
    18
100
AcDbText
 10
170.3817433001072
 20
19.56287165886588
 30
0.0
 40
1.037753797158256
  1
2000をこえ
  7
ARIAL_TTF
 11
170.3817433001072
 21
20.60062545602413
 31
0.0
100
AcDbText
 73
     3
  0
TEXT
  5
949
330
872
100
AcDbEntity
  8
公差表
  6
Continuous
 62
     7
370
    18
100
AcDbText
 10
155.4780190078476
 20
19.70439206184202
 30
0.0
 40
1.037753797158256
  1
400をこえ
  7
ARIAL_TTF
 11
155.4780190078476
 21
20.74214585900027
 31
0.0
100
AcDbText
 73
     3
  0
TEXT
  5
94A
330
872
100
AcDbEntity
  8
公差表
  6
Continuous
 62
     7
370
    18
100
AcDbText
 10
155.4149003474696
 20
17.83882417204147
 30
0.0
 40
1.037753797158256
  1
1000以下
  7
ARIAL_TTF
 11
155.4149003474696
 21
18.87657796919973
 31
0.0
100
AcDbText
 73
     3
  0
TEXT
  5
94B
330
872
100
AcDbEntity
  8
公差表
  6
Continuous
 62
     7
370
    18
100
AcDbText
 10
148.2194253653184
 20
17.83882417204147
 30
0.0
 40
1.037753797158256
  1
400以下
  7
ARIAL_TTF
 11
148.2194253653184
 21
18.87657796919973
 31
0.0
100
AcDbText
 73
     3
  0
TEXT
  5
94C
330
872
100
AcDbEntity
  8
公差表
  6
Continuous
 62
     7
370
    18
100
AcDbText
 10
147.9442038272931
 20
19.4620605036205
 30
0.0
 40
1.037753797158256
  1
120をこえ
  7
ARIAL_TTF
 11
147.9442038272931
 21
20.49981430077875
 31
0.0
100
AcDbText
 73
     3
  0
TEXT
  5
94D
330
872
100
AcDbEntity
  8
公差表
  6
Continuous
 62
     7
370
    18
100
AcDbText
 10
150.1219348324933
 20
14.48595400553839
 30
0.0
 40
1.383671729544341
  1
0.2
  7
ARIAL_TTF
 11
150.1219348324933
 21
15.86962573508274
 31
0.0
100
AcDbText
 73
     3
  0
TEXT
  5
94E
330
872
100
AcDbEntity
  8
公差表
  6
Continuous
 62
     7
370
    18
100
AcDbText
 10
150.1219348324933
 20
11.19381965071657
 30
0.0
 40
1.383671729544341
  1
0.5
  7
ARIAL_TTF
 11
150.1219348324933
 21
12.57749138026091
 31
0.0
100
AcDbText
 73
     3
  0
TEXT
  5
94F
330
872
100
AcDbEntity
  8
公差表
  6
Continuous
 62
     7
370
    18
100
AcDbText
 10
157.5937621720328
 20
14.40680627483549
 30
0.0
 40
1.383671729544341
  1
0.3
  7
ARIAL_TTF
 11
157.5937621720328
 21
15.79047800437984
 31
0.0
100
AcDbText
 73
     3
  0
TEXT
  5
950
330
872
100
AcDbEntity
  8
公差表
  6
Continuous
 62
     7
370
    18
100
AcDbText
 10
157.5937621720328
 20
11.15594955613583
 30
0.0
 40
1.383671729544341
  1
0.8
  7
ARIAL_TTF
 11
157.5937621720328
 21
12.53962128568017
 31
0.0
100
AcDbText
 73
     3
  0
TEXT
  5
951
330
872
100
AcDbEntity
  8
公差表
  6
Continuous
 62
     7
370
    18
100
AcDbText
 10
162.5228828288761
 20
19.55966190485127
 30
0.0
 40
1.037753797158256
  1
1000をこえ
  7
ARIAL_TTF
 11
162.5228828288761
 21
20.59741570200953
 31
0.0
100
AcDbText
 73
     3
  0
TEXT
  5
952
330
872
100
AcDbEntity
  8
公差表
  6
Continuous
370
    18
100
AcDbText
 10
165.0655895115723
 20
14.34633269750419
 30
0.0
 40
1.383671729544341
  1
0.5
  7
ARIAL_TTF
 11
165.0655895115723
 21
15.73000442704853
 31
0.0
100
AcDbText
 73
     3
  0
TEXT
  5
953
330
872
100
AcDbEntity
  8
公差表
  6
Continuous
370
    18
100
AcDbText
 10
165.0655895115723
 20
11.31603800654397
 30
0.0
 40
1.383671729544341
  1
1.2
  7
ARIAL_TTF
 11
165.0655895115723
 21
12.69970973608831
 31
0.0
100
AcDbText
 73
     3
  0
TEXT
  5
954
330
872
100
AcDbEntity
  8
公差表
  6
Continuous
 62
     7
370
    18
100
AcDbText
 10
162.7997306487176
 20
17.77570865215909
 30
0.0
 40
1.037753797158256
  1
2000以下
  7
ARIAL_TTF
 11
162.7997306487176
 21
18.81346244931734
 31
0.0
100
AcDbText
 73
     3
  0
TEXT
  5
955
330
872
100
AcDbEntity
  8
公差表
  6
Continuous
370
    18
100
AcDbText
 10
172.5374168511117
 20
11.19006134279718
 30
0.0
 40
1.383671729544341
  1
2
  7
ARIAL_TTF
 11
172.5374168511117
 21
12.57373307234153
 31
0.0
100
AcDbText
 73
     3
  0
TEXT
  5
956
330
872
100
AcDbEntity
  8
公差表
  6
Continuous
370
    18
100
AcDbText
 10
170.3817433001072
 20
18.04420756546356
 30
0.0
 40
1.037753797158256
  1
4000以下
  7
ARIAL_TTF
 11
170.3817433001072
 21
19.08196136262181
 31
0.0
100
AcDbText
 73
     3
  0
LINE
  5
957
330
872
100
AcDbEntity
  8
構成表
  6
Continuous
 62
     7
370
    18
100
AcDbLine
 10
206.8460947110235
 20
27.90485001456025
 30
0.0
 11
206.8460947110235
 21
52.81094114635839
 31
0.0
  0
LINE
  5
958
330
872
100
AcDbEntity
  8
構成表
  6
Continuous
 62
     7
370
    25
100
AcDbLine
 10
184.707347038314
 20
52.81094114635839
 30
0.0
 11
184.707347038314
 21
27.90485001456022
 31
0.0
  0
LINE
  5
959
330
872
100
AcDbEntity
  8
構成表
  6
Continuous
 62
     7
370
    18
100
AcDbLine
 10
190.2420339564914
 20
27.90485001456025
 30
0.0
 11
190.2420339564914
 21
52.81094114635839
 31
0.0
  0
TEXT
  5
95A
330
872
100
AcDbEntity
  8
図面枠
  6
Continuous
370
    18
100
AcDbText
 10
185.5979327039789
 20
25.58559357492094
 30
0.0
 40
1.383671729544341
  1
材　質             
  7
ARIAL_TTF
 11
185.5979327039789
 21
26.96926530446528
 31
0.0
100
AcDbText
 73
     3
  0
TEXT
  5
95B
330
872
100
AcDbEntity
  8
図面枠
  6
Continuous
370
    18
100
AcDbText
 10
185.785453049869
 20
23.5607081170512
 30
0.0
 40
1.383671729544341
  1
MATERIAL 
  7
ARIAL_TTF
 11
185.785453049869
 21
24.94437984659554
 31
0.0
100
AcDbText
 73
     3
  0
TEXT
  5
95C
330
872
100
AcDbEntity
  8
図面枠
  6
Continuous
370
    18
100
AcDbText
 10
187.486330034617
 20
19.91745648704464
 30
0.0
 40
1.3
  1
製図
  7
ARIAL_TTF
 72
     1
 11
189.3772391255261
 21
20.56745648704464
 31
0.0
100
AcDbText
 73
     2
  0
LINE
  5
95D
330
872
100
AcDbEntity
  8
0
100
AcDbLine
 10
184.7073470383139
 20
16.8354761782055
 30
0.0
 11
184.707347038314
 21
9.363648838666009
 31
0.0
  0
TEXT
  5
95E
330
872
100
AcDbEntity
  8
公差表
  6
Continuous
370
    18
100
AcDbText
 10
180.0092441906511
 20
10.28737294432898
 30
0.0
 40
1.383671729544341
  1
±1
  7
ARIAL_TTF
 11
180.0092441906511
 21
11.67104467387333
 31
0.0
100
AcDbText
 73
     3
  0
TEXT
  5
95F
330
872
100
AcDbEntity
  8
公差表
  6
Continuous
370
    18
100
AcDbText
 10
177.8098241425918
 20
18.45000967665823
 30
0.0
 40
1.037753797158256
  1
角度（度）
  7
ARIAL_TTF
 11
177.8098241425918
 21
19.48776347381649
 31
0.0
100
AcDbText
 73
     3
  0
LINE
  5
960
330
872
100
AcDbEntity
  8
公差表
  6
Continuous
370
    18
100
AcDbLine
 10
177.2355196987746
 20
16.8354761782055
 30
0.0
 11
184.707347038314
 21
16.8354761782055
 31
0.0
  0
MTEXT
  5
961
330
872
100
AcDbEntity
  8
図面枠
100
AcDbMText
 10
189.3430304592748
 20
13.09956250843575
 30
0.0
 40
2.0
 41
8.059905147935622
 46
0.0
 71
     5
 72
     5
  1
{\fＭＳ Ｐ明朝|b0|i0|c128|p18;原}
 73
     1
 44
1.0
  0
TEXT
  5
962
330
872
100
AcDbEntity
  8
図面枠
  6
Continuous
370
    18
100
AcDbText
 10
186.7870260573443
 20
17.55196450529193
 30
0.0
 40
1.3
  1
DRAWING
 41
0.65
  7
ARIAL_TTF
 72
     1
 11
189.3772391255261
 21
18.20196450529193
 31
0.0
100
AcDbText
 73
     2
  0
TEXT
  5
963
330
872
100
AcDbEntity
  8
構成表
  6
Continuous
 62
     7
100
AcDbText
 10
186.216227668646
 20
28.95434547720843
 30
0.0
 40
1.5
  1
No.
  7
ARIAL_TTF
 11
186.216227668646
 21
30.45434547720843
 31
0.0
100
AcDbText
 73
     3
  0
TEXT
  5
964
330
872
100
AcDbEntity
  8
図面枠
  6
Continuous
370
    18
100
AcDbText
 10
206.1666555435162
 20
19.91745648704464
 30
0.0
 40
1.3
  1
確認
  7
ARIAL_TTF
 72
     1
 11
208.0575646344253
 21
20.56745648704464
 31
0.0
100
AcDbText
 73
     2
  0
LINE
  5
965
330
872
100
AcDbEntity
  8
図面枠
  6
Continuous
370
    18
100
AcDbLine
 10
203.3869153871626
 20
9.363648838666009
 30
0.0
 11
203.3869153871626
 21
22.37016309638287
 31
0.0
  0
TEXT
  5
966
330
872
100
AcDbEntity
  8
図面枠
  6
Continuous
370
    18
100
AcDbText
 10
196.8261142090414
 20
19.91745648704464
 30
0.0
 40
1.3
  1
設計
  7
ARIAL_TTF
 72
     1
 11
198.7170232999505
 21
20.56745648704464
 31
0.0
100
AcDbText
 73
     2
  0
LINE
  5
967
330
872
100
AcDbEntity
  8
図面枠
  6
Continuous
370
    18
100
AcDbLine
 10
194.0471312127383
 20
9.363648838666009
 30
0.0
 11
194.0471312127382
 21
22.37016309638287
 31
0.0
  0
MTEXT
  5
968
330
872
100
AcDbEntity
  8
図面枠
100
AcDbMText
 10
198.6828146336991
 20
13.09956250843575
 30
0.0
 40
2.0
 41
8.059905147935622
 46
0.0
 71
     5
 72
     5
  1
{\fＭＳ Ｐ明朝|b0|i0|c128|p18;原}
 73
     1
 44
1.0
  0
TEXT
  5
969
330
872
100
AcDbEntity
  8
図面枠
  6
Continuous
370
    18
100
AcDbText
 10
195.8915545499505
 20
17.55196450529193
 30
0.0
 40
1.3
  1
DESIGNED
 41
0.65
  7
ARIAL_TTF
 72
     1
 11
198.7170232999505
 21
18.20196450529193
 31
0.0
100
AcDbText
 73
     2
  0
TEXT
  5
96A
330
872
100
AcDbEntity
  8
構成表
  6
Continuous
 62
     7
100
AcDbText
 10
194.7533143384841
 20
29.17384382263687
 30
0.0
 40
1.5
  1
図　　　番
  7
ARIAL_TTF
 11
194.7533143384841
 21
30.67384382263687
 31
0.0
100
AcDbText
 73
     3
  0
TEXT
  5
96B
330
872
100
AcDbEntity
  8
構成表
100
AcDbText
 10
187.1325027404718
 20
33.18964356561826
 30
0.0
 40
1.5
  1
1
  7
ARIAL_TTF
 72
     2
 11
188.2234118313809
 21
32.88282538380008
 31
0.0
100
AcDbText
 73
     1
  0
MTEXT
  5
96C
330
872
100
AcDbEntity
  8
構成表
100
AcDbMText
 10
193.6789472714163
 20
34.50033718609551
 30
0.0
 40
1.5
 41
13.16714743960713
 46
0.0
 71
     1
 72
     5
  1
*
  7
注記
 73
     1
 44
1.0
  0
LINE
  5
96D
330
872
100
AcDbEntity
  8
図面枠
  6
Continuous
 62
     7
370
    18
100
AcDbLine
 10
51.37701161092497
 20
194.1629850525827
 30
0.0
 11
51.37701161092497
 21
197.5986172390826
 31
0.0
  0
LINE
  5
96E
330
872
100
AcDbEntity
  8
図面枠
  6
Continuous
 62
     7
370
    18
100
AcDbLine
 10
17.02068974592601
 20
159.8066631875838
 30
0.0
 11
13.58505755942613
 21
159.8066631875838
 31
0.0
  0
TEXT
  5
96F
330
872
100
AcDbEntity
  8
図面枠
  6
Continuous
 62
     7
370
    18
100
AcDbText
 10
13.84466715201592
 20
177.9373233844377
 30
0.0
 40
1.374252874599957
  1
A
  7
ARIAL_TTF
 11
13.84466715201592
 21
179.3115762590377
 31
0.0
100
AcDbText
 73
     3
  0
TEXT
  5
970
330
872
100
AcDbEntity
  8
図面枠
  6
Continuous
 62
     7
370
    18
100
AcDbText
 10
32.62485420642635
 20
195.7783639273588
 30
0.0
 40
1.374252874599957
  1
1
  7
ARIAL_TTF
 11
32.62485420642635
 21
197.1526168019587
 31
0.0
100
AcDbText
 73
     3
  0
TEXT
  5
971
330
872
100
AcDbEntity
  8
図面枠
  6
Continuous
 62
     7
370
    18
100
AcDbText
 10
68.15279751206221
 20
195.8838936102552
 30
0.0
 40
1.374252874599957
  1
2
  7
ARIAL_TTF
 11
68.15279751206221
 21
197.2581464848552
 31
0.0
100
AcDbText
 73
     3
  0
LINE
  5
972
330
872
100
AcDbEntity
  8
図面枠
  6
Continuous
 62
     7
370
    18
100
AcDbLine
 10
120.0896553409228
 20
194.1629850525827
 30
0.0
 11
120.0896553409228
 21
197.5986172390826
 31
0.0
  0
LINE
  5
973
330
872
100
AcDbEntity
  8
図面枠
  6
Continuous
 62
     7
370
    18
100
AcDbLine
 10
85.73333347592387
 20
194.1629850525827
 30
0.0
 11
85.73333347592387
 21
197.5986172390826
 31
0.0
  0
TEXT
  5
974
330
872
100
AcDbEntity
  8
図面枠
  6
Continuous
 62
     7
370
    18
100
AcDbText
 10
101.5085917784558
 20
195.7427744536969
 30
0.0
 40
1.374252874599957
  1
3
  7
ARIAL_TTF
 11
101.5085917784558
 21
197.1170273282968
 31
0.0
100
AcDbText
 73
     3
  0
TEXT
  5
975
330
872
100
AcDbEntity
  8
図面枠
  6
Continuous
 62
     7
370
    18
100
AcDbText
 10
137.6980556902002
 20
195.7612533284938
 30
0.0
 40
1.374252874599957
  1
4
  7
ARIAL_TTF
 11
137.6980556902002
 21
197.1355062030937
 31
0.0
100
AcDbText
 73
     3
  0
LINE
  5
976
330
872
100
AcDbEntity
  8
図面枠
  6
Continuous
 62
     7
370
    18
100
AcDbLine
 10
188.8022990709206
 20
194.1629850525827
 30
0.0
 11
188.8022990709206
 21
197.5986172390826
 31
0.0
  0
LINE
  5
977
330
872
100
AcDbEntity
  8
図面枠
  6
Continuous
 62
     7
370
    18
100
AcDbLine
 10
154.4459772059217
 20
194.1629850525827
 30
0.0
 11
154.4459772059217
 21
197.5986172390826
 31
0.0
  0
LINE
  5
978
330
872
100
AcDbEntity
  8
寸法
  6
Continuous
 62
     7
370
    18
100
AcDbLine
 10
199.4735680619383
 20
182.3613913521295
 30
0.0
 11
201.249817829646
 21
185.4379461967317
 31
0.0
  0
MTEXT
  5
979
330
872
100
AcDbEntity
  8
寸法
100
AcDbMText
 10
200.8050969712407
 20
184.137016523895
 30
0.0
 40
1.383671729544341
 41
1.419377972780679
 46
0.0
 71
     1
 72
     5
  1
2
  7
注記
 73
     1
 44
1.0
  0
LINE
  5
97A
330
872
100
AcDbEntity
  8
寸法
  6
Continuous
 62
     7
370
    18
100
AcDbLine
 10
203.0260675973537
 20
182.3613913521295
 30
0.0
 11
201.249817829646
 21
185.4379461967317
 31
0.0
  0
LINE
  5
97B
330
872
100
AcDbEntity
  8
寸法
  6
Continuous
 62
     7
370
    18
100
AcDbLine
 10
204.0787512519348
 20
194.1394379152217
 30
0.0
 11
204.0787512519348
 21
181.6863923493227
 31
0.0
  0
LINE
  5
97C
330
872
100
AcDbEntity
  8
寸法
  6
Continuous
 62
     7
370
    18
100
AcDbLine
 10
198.5440643337574
 20
194.1394379152217
 30
0.0
 11
198.5440643337574
 21
181.6863923493227
 31
0.0
  0
LINE
  5
97D
330
872
100
AcDbEntity
  8
寸法
  6
Continuous
 62
     7
370
    18
100
AcDbLine
 10
199.4735680619383
 20
182.3613913521295
 30
0.0
 11
203.0260675973537
 21
182.3613913521295
 31
0.0
  0
TEXT
  5
97E
330
872
100
AcDbEntity
  8
寸法
  6
Continuous
 62
     7
370
    18
100
AcDbText
 10
199.6405886216457
 20
190.7993974263288
 30
0.0
 40
2.0
  1
No.
  7
ARIAL_TTF
 11
199.6405886216457
 21
192.7993974263288
 31
0.0
100
AcDbText
 73
     3
  0
LINE
  5
97F
330
872
100
AcDbEntity
  8
寸法
  6
Continuous
 62
     7
370
    18
100
AcDbLine
 10
203.0260675973537
 20
186.4454344032501
 30
0.0
 11
201.249817829646
 21
189.5219892478524
 31
0.0
  0
LINE
  5
980
330
872
100
AcDbEntity
  8
寸法
  6
Continuous
 62
     7
370
    18
100
AcDbLine
 10
199.4735680619383
 20
186.4454344032501
 30
0.0
 11
203.0260675973538
 21
186.4454344032501
 31
0.0
  0
LINE
  5
981
330
872
100
AcDbEntity
  8
寸法
  6
Continuous
 62
     7
370
    18
100
AcDbLine
 10
199.4735680619383
 20
186.4454344032501
 30
0.0
 11
201.249817829646
 21
189.5219892478524
 31
0.0
  0
MTEXT
  5
982
330
872
100
AcDbEntity
  8
寸法
100
AcDbMText
 10
201.0224404957353
 20
188.2325347847517
 30
0.0
 40
1.383671729544341
 41
1.195398941450274
 46
0.0
 71
     1
 72
     5
  1
1
  7
注記
 73
     1
 44
1.0
  0
MTEXT
  5
983
330
872
100
AcDbEntity
  8
寸法
100
AcDbMText
 10
206.0226956376218
 20
188.2325347847517
 30
0.0
 40
1.5
 41
12.200958
 46
0.0
 71
     1
 72
     5
  1
*
  7
注記
 73
     1
 44
1.0
  0
TEXT
  5
984
330
872
100
AcDbEntity
  8
図面枠
  6
Continuous
 62
     7
370
    18
100
AcDbText
 10
170.3181941589617
 20
195.8695100570245
 30
0.0
 40
1.374252874599957
  1
5
  7
ARIAL_TTF
 11
170.3181941589617
 21
197.2437629316245
 31
0.0
100
AcDbText
 73
     3
  0
TEXT
  5
985
330
872
100
AcDbEntity
  8
図面枠
  6
Continuous
 62
     7
370
    18
100
AcDbText
 10
204.3843140387038
 20
195.6050917795936
 30
0.0
 40
1.374252874599957
  1
6
  7
ARIAL_TTF
 11
204.3843140387038
 21
196.9793446541935
 31
0.0
100
AcDbText
 73
     3
  0
LINE
  5
986
330
872
100
AcDbEntity
  8
図面枠
  6
Continuous
 62
     7
370
    25
100
AcDbLine
 10
281.5643681064179
 20
3.82896192048868
 30
0.0
 11
281.5643681064179
 21
194.1629850525827
 31
0.0
  0
TEXT
  5
987
330
872
100
AcDbEntity
  8
構成表
  6
Continuous
 62
     7
100
AcDbText
 10
270.0548471870054
 20
29.22772292364134
 30
0.0
 40
1.5
  1
備    考
  7
ARIAL_TTF
 11
270.0548471870054
 21
30.72772292364134
 31
0.0
100
AcDbText
 73
     3
  0
LINE
  5
988
330
872
100
AcDbEntity
  8
図面枠
  6
Continuous
370
    18
100
AcDbLine
 10
222.0672408960619
 20
3.99047281552059
 30
0.0
 11
222.0672408960619
 21
27.90485001456025
 31
0.0
  0
TEXT
  5
989
330
872
100
AcDbEntity
  8
0
 62
     7
100
AcDbText
 10
236.017528410511
 20
5.495340274907633
 30
0.0
 40
2.5
  1
*******
  7
注記
100
AcDbText
  0
TEXT
  5
98A
330
872
100
AcDbEntity
  8
図面枠
  6
Continuous
370
    18
100
AcDbText
 10
223.2298821202741
 20
4.641550942747136
 30
0.0
 40
1.383671729544341
  1
DWG. No.
  7
ARIAL_TTF
 11
223.2298821202741
 21
6.025222672291477
 31
0.0
100
AcDbText
 73
     3
  0
TEXT
  5
98B
330
872
100
AcDbEntity
  8
図面枠
  6
Continuous
370
    18
100
AcDbText
 10
223.2298821202741
 20
6.666436400616893
 30
0.0
 40
1.383671729544341
  1
図面番号    
  7
ARIAL_TTF
 11
223.2298821202741
 21
8.050108130161234
 31
0.0
100
AcDbText
 73
     3
  0
LINE
  5
98C
330
872
100
AcDbEntity
  8
図面枠
  6
Continuous
370
    18
100
AcDbLine
 10
215.5433928140005
 20
6.505489363334988
 30
0.0
 11
221.2148092669379
 21
6.505489363334988
 31
0.0
  0
LINE
  5
98D
330
872
100
AcDbEntity
  8
図面枠
  6
Continuous
370
    18
100
AcDbLine
 10
215.9746275927222
 20
5.530736142822818
 30
0.0
 11
220.8559392414406
 21
4.720374166380168
 31
0.0
  0
LINE
  5
98E
330
872
100
AcDbEntity
  8
図面枠
  6
Continuous
370
    18
100
AcDbLine
 10
220.8559392414406
 20
8.290604560289836
 30
0.0
 11
215.9746275927222
 21
7.480242583847186
 31
0.0
  0
LINE
  5
98F
330
872
100
AcDbEntity
  8
図面枠
  6
Continuous
370
    18
100
AcDbLine
 10
211.0032443608717
 20
6.505489363334988
 30
0.0
 11
215.2457584867054
 21
6.505489363334988
 31
0.0
  0
CIRCLE
  5
990
330
872
100
AcDbEntity
  8
図面枠
  6
Continuous
370
    18
100
AcDbCircle
 10
213.101275253837
 20
6.505489363334988
 30
0.0
 40
1.785115196954818
  0
CIRCLE
  5
991
330
872
100
AcDbEntity
  8
図面枠
  6
Continuous
370
    18
100
AcDbCircle
 10
213.101275253837
 20
6.505489363334988
 30
0.0
 40
0.9747532205121824
  0
LINE
  5
992
330
872
100
AcDbEntity
  8
図面枠
  6
Continuous
370
    18
100
AcDbLine
 10
213.0803085683112
 20
8.633666342279994
 30
0.0
 11
213.0803085683112
 21
4.361690312794636
 31
0.0
  0
LINE
  5
993
330
872
100
AcDbEntity
  8
図面枠
  6
Continuous
370
    18
100
AcDbLine
 10
215.9746275927222
 20
7.480242583847186
 30
0.0
 11
215.9746275927222
 21
5.530736142822818
 31
0.0
  0
LINE
  5
994
330
872
100
AcDbEntity
  8
図面枠
  6
Continuous
370
    18
100
AcDbLine
 10
223.1586542604687
 20
3.259589615882078
 30
0.0
 11
223.1586542604687
 21
3.82896192048868
 31
0.0
  0
LINE
  5
995
330
872
100
AcDbEntity
  8
図面枠
  6
Continuous
370
    18
100
AcDbLine
 10
220.8559392414406
 20
4.720374166380168
 30
0.0
 11
220.8559392414406
 21
8.290604560289836
 31
0.0
  0
TEXT
  5
996
330
872
100
AcDbEntity
  8
図面枠
  6
Continuous
 62
     7
370
    18
100
AcDbText
 10
240.5284020974189
 20
1.225561832832998
 30
0.0
 40
1.374252874599957
  1
7
  7
ARIAL_TTF
 11
240.5284020974189
 21
2.599814707432955
 31
0.0
100
AcDbText
 73
     3
  0
TEXT
  5
997
330
872
100
AcDbEntity
  8
図面枠
  6
Continuous
 62
     7
370
    18
100
AcDbText
 10
248.0225547864936
 20
1.132293362915238
 30
0.0
 40
1.374252874599957
  1
原図　JIS A4 210X297
  7
ARIAL_TTF
 11
248.0225547864936
 21
2.506546237515195
 31
0.0
100
AcDbText
 73
     3
  0
LINE
  5
998
330
872
100
AcDbEntity
  8
図面枠
  6
Continuous
 62
     7
370
    18
100
AcDbLine
 10
257.5149761254676
 20
3.084351372223054
 30
0.0
 11
257.5149761254676
 21
3.82896192048868
 31
0.0
  0
TEXT
  5
999
330
872
100
AcDbEntity
  8
図面枠
  6
Continuous
 62
     7
370
    18
100
AcDbText
 10
270.6216637078685
 20
1.394282685379882
 30
0.0
 40
1.374252874599957
  1
8
  7
ARIAL_TTF
 11
270.6216637078685
 21
2.768535559979838
 31
0.0
100
AcDbText
 73
     3
  0
TEXT
  5
99A
330
872
100
AcDbEntity
  8
0
 62
     7
100
AcDbText
 10
235.5710277009161
 20
11.39781018286513
 30
0.0
 40
3.0
  1
********
  7
注記
100
AcDbText
  0
TEXT
  5
99B
330
872
100
AcDbEntity
  8
0
 62
     7
100
AcDbText
 10
235.5133169140296
 20
18.21472200307225
 30
0.0
 40
2.5
  1
********
  7
注記
100
AcDbText
  0
LINE
  5
99C
330
872
100
AcDbEntity
  8
構成表
  6
Continuous
 62
     7
370
    18
100
AcDbLine
 10
237.9787086257711
 20
27.90485001456025
 30
0.0
 11
237.9787086257711
 21
52.81094114635839
 31
0.0
  0
TEXT
  5
99D
330
872
100
AcDbEntity
  8
構成表
  6
Continuous
 62
     7
100
AcDbText
 10
216.769403325472
 20
29.09860424341524
 30
0.0
 40
1.5
  1
名　　　　称
  7
ARIAL_TTF
 11
216.769403325472
 21
30.59860424341524
 31
0.0
100
AcDbText
 73
     3
  0
TEXT
  5
99E
330
872
100
AcDbEntity
  8
図面枠
  6
Continuous
370
    18
100
AcDbText
 10
223.836569548401
 20
25.56872934741836
 30
0.0
 40
1.383671729544341
  1
仕　上           
  7
ARIAL_TTF
 11
223.836569548401
 21
26.9524010769627
 31
0.0
100
AcDbText
 73
     3
  0
TEXT
  5
99F
330
872
100
AcDbEntity
  8
図面枠
  6
Continuous
370
    18
100
AcDbText
 10
223.201289729656
 20
12.9141038314091
 30
0.0
 40
1.383671729544341
  1
名 称  
  7
ARIAL_TTF
 11
223.201289729656
 21
14.29777556095344
 31
0.0
100
AcDbText
 73
     3
  0
TEXT
  5
9A0
330
872
100
AcDbEntity
  8
図面枠
  6
Continuous
370
    18
100
AcDbText
 10
223.201289729656
 20
10.88921837353934
 30
0.0
 40
1.383671729544341
  1
NAME
  7
ARIAL_TTF
 11
223.201289729656
 21
12.27289010308368
 31
0.0
100
AcDbText
 73
     3
  0
TEXT
  5
9A1
330
872
100
AcDbEntity
  8
図面枠
  6
Continuous
370
    18
100
AcDbText
 10
223.7274361230822
 20
17.89019161440373
 30
0.0
 40
1.383671729544341
  1
MODEL
  7
ARIAL_TTF
 11
223.7274361230822
 21
19.27386334394807
 31
0.0
100
AcDbText
 73
     3
  0
TEXT
  5
9A2
330
872
100
AcDbEntity
  8
図面枠
  6
Continuous
370
    18
100
AcDbText
 10
223.2796514467784
 20
20.17236871561365
 30
0.0
 40
1.383671729544341
  1
機種名
  7
ARIAL_TTF
 11
223.2796514467784
 21
21.55604044515799
 31
0.0
100
AcDbText
 73
     3
  0
TEXT
  5
9A3
330
872
100
AcDbEntity
  8
図面枠
  6
Continuous
370
    18
100
AcDbText
 10
223.5693971615988
 20
23.5438438895486
 30
0.0
 40
1.383671729544341
  1
FINISH
  7
ARIAL_TTF
 11
223.5693971615988
 21
24.92751561909294
 31
0.0
100
AcDbText
 73
     3
  0
LINE
  5
9A4
330
872
100
AcDbEntity
  8
図面枠
  6
Continuous
370
    18
100
AcDbLine
 10
212.7266995615869
 20
9.363648838666009
 30
0.0
 11
212.7266995615868
 21
22.37016309638287
 31
0.0
  0
TEXT
  5
9A5
330
872
100
AcDbEntity
  8
図面枠
  6
Continuous
370
    18
100
AcDbText
 10
215.5064397179407
 20
19.91745648704464
 30
0.0
 40
1.3
  1
承認
  7
ARIAL_TTF
 72
     1
 11
217.3973488088498
 21
20.56745648704464
 31
0.0
100
AcDbText
 73
     2
  0
MTEXT
  5
9A6
330
872
100
AcDbEntity
  8
図面枠
100
AcDbMText
 10
217.3969702288244
 20
13.09956250843575
 30
0.0
 40
2.0
 41
8.536615348550033
 46
0.0
 71
     5
 72
     5
  1
{\fＭＳ Ｐ明朝|b0|i0|c128|p18;羽賀}
 73
     1
 44
1.0
  0
TEXT
  5
9A7
330
872
100
AcDbEntity
  8
図面枠
  6
Continuous
370
    18
100
AcDbText
 10
214.1085703997589
 20
17.55196450529193
 30
0.0
 40
1.3
  1
APPROVED 
 41
0.65
  7
ARIAL_TTF
 72
     1
 11
217.3973488088498
 21
18.20196450529193
 31
0.0
100
AcDbText
 73
     2
  0
MTEXT
  5
9A8
330
872
100
AcDbEntity
  8
構成表
100
AcDbMText
 10
210.2830080259484
 20
34.50033718609551
 30
0.0
 40
1.5
 41
13.16714743960716
 46
0.0
 71
     1
 72
     5
  1
*
  7
注記
 73
     1
 44
1.0
  0
MTEXT
  5
9A9
330
872
100
AcDbEntity
  8
構成表
100
AcDbMText
 10
241.415621940696
 20
34.50033718609551
 30
0.0
 40
1.5
 41
13.16714743960716
 46
0.0
 71
     1
 72
     5
  1
*
  7
注記
 73
     1
 44
1.0
  0
LINE
  5
9AA
330
872
100
AcDbEntity
  8
構成表
  6
Continuous
 62
     7
370
    18
100
AcDbLine
 10
264.614798470782
 20
27.90485001456022
 30
0.0
 11
264.614798470782
 21
52.81094114635839
 31
0.0
  0
LINE
  5
9AB
330
872
100
AcDbEntity
  8
構成表
  6
Continuous
 62
     7
370
    18
100
AcDbLine
 10
258.7337845689362
 20
27.90485001456025
 30
0.0
 11
258.7337845689362
 21
52.81094114635839
 31
0.0
  0
TEXT
  5
9AC
330
872
100
AcDbEntity
  8
0
 62
     7
100
AcDbText
 10
257.5499578969975
 20
24.07804380255706
 30
0.0
 40
1.5
  1
****/**/**
  7
注記
100
AcDbText
  0
TEXT
  5
9AD
330
872
100
AcDbEntity
  8
構成表
  6
Continuous
 62
     7
100
AcDbText
 10
245.5574405480678
 20
29.25059566193576
 30
0.0
 40
1.5
  1
材　　質
  7
ARIAL_TTF
 11
245.5574405480678
 21
30.75059566193576
 31
0.0
100
AcDbText
 73
     3
  0
TEXT
  5
9AE
330
872
100
AcDbEntity
  8
図面枠
  6
Continuous
 62
     7
370
    18
100
AcDbText
 10
245.8252284127386
 20
23.68221473534025
 30
0.0
 40
1.245304556589907
  1
  　ＤＡＴＥ
  7
ARIAL_TTF
 11
245.8252284127386
 21
24.92751929193015
 31
0.0
100
AcDbText
 73
     3
  0
TEXT
  5
9AF
330
872
100
AcDbEntity
  8
図面枠
  6
Continuous
 62
     7
370
    18
100
AcDbText
 10
246.7983418741666
 20
25.60184918560345
 30
0.0
 40
1.245304556589907
  1
製図年月日
  7
ARIAL_TTF
 11
246.7983418741666
 21
26.84715374219336
 31
0.0
100
AcDbText
 73
     3
  0
LINE
  5
9B0
330
872
100
AcDbEntity
  8
図面枠
  6
Continuous
 62
     7
370
    18
100
AcDbLine
 10
246.242770571827
 20
27.90485001456022
 30
0.0
 11
246.242770571827
 21
22.3701630963829
 31
0.0
  0
TEXT
  5
9B1
330
872
100
AcDbEntity
  8
構成表
  6
Continuous
 62
     7
100
AcDbText
 10
259.6475300431179
 20
29.1382214394938
 30
0.0
 40
1.5
  1
数量
  7
ARIAL_TTF
 11
259.6475300431179
 21
30.6382214394938
 31
0.0
100
AcDbText
 73
     3
  0
MTEXT
  5
9B2
330
872
100
AcDbEntity
  8
構成表
100
AcDbMText
 10
260.3286298426455
 20
34.50033718609551
 30
0.0
 40
1.5
 41
4.286168628136579
 46
0.0
 71
     1
 72
     5
  1
*
  7
注記
 73
     1
 44
1.0
  0
MTEXT
  5
9B3
330
872
100
AcDbEntity
  8
構成表
100
AcDbMText
 10
266.2096437444914
 20
34.50033718609551
 30
0.0
 40
1.5
 41
15.35472436192657
 46
0.0
 71
     1
 72
     5
  1
*
  7
注記
 73
     1
 44
1.0
  0
LINE
  5
9B4
330
872
100
AcDbEntity
  8
図面枠
  6
Continuous
 62
     7
370
    18
100
AcDbLine
 10
275.6998118530581
 20
3.82896192048868
 30
0.0
 11
275.6998118530579
 21
27.90485001456022
 31
0.0
  0
MTEXT
  5
9B5
330
872
100
AcDbEntity
  8
0
 62
     7
100
AcDbMText
 10
277.8130517857985
 20
7.329615993570496
 30
0.0
 40
2.0
 41
1.839176462910338
 46
0.0
 71
     1
 72
     5
  1
*
 73
     1
 44
1.0
  0
TEXT
  5
9B6
330
872
100
AcDbEntity
  8
図面枠
  6
Continuous
 62
     7
370
    18
100
AcDbText
 10
277.628560190685
 20
11.17697580542353
 30
0.0
 40
1.245304556589907
  1
RE
  7
ARIAL_TTF
 11
277.628560190685
 21
12.42228036201344
 31
0.0
100
AcDbText
 73
     3
  0
TEXT
  5
9B7
330
872
100
AcDbEntity
  8
0
  6
Continuous
 62
     7
100
AcDbText
 10
276.6540938607632
 20
13.33777877650318
 30
0.0
 40
1.383671729544341
  1
改訂
  7
ARIAL_TTF
 11
276.6540938607632
 21
14.72145050604752
 31
0.0
100
AcDbText
 73
     3
  0
MTEXT
  5
9B8
330
872
100
AcDbEntity
  8
0
 62
     7
100
AcDbMText
 10
277.8130517857983
 20
20.33613025128735
 30
0.0
 40
2.0
 41
1.839176462910338
 46
0.0
 71
     1
 72
     5
  1
*
 73
     1
 44
1.0
  0
LINE
  5
9B9
330
872
100
AcDbEntity
  8
図面枠
  6
Continuous
 62
     7
370
    18
100
AcDbLine
 10
285.0000002929177
 20
22.38137572758809
 30
0.0
 11
281.5643681064179
 21
22.38137572758809
 31
0.0
  0
TEXT
  5
9BA
330
872
100
AcDbEntity
  8
0
  6
Continuous
 62
     7
100
AcDbText
 10
276.6013057742497
 20
25.33369694027257
 30
0.0
 40
1.383671729544341
  1
数量
  7
ARIAL_TTF
 11
276.6013057742497
 21
26.71736866981691
 31
0.0
100
AcDbText
 73
     3
  0
TEXT
  5
9BB
330
872
100
AcDbEntity
  8
図面枠
  6
Continuous
 62
     7
370
    18
100
AcDbText
 10
276.8962899730557
 20
23.21061448829762
 30
0.0
 40
1.245304556589907
  1
QNT
  7
ARIAL_TTF
 11
276.8962899730557
 21
24.45591904488752
 31
0.0
100
AcDbText
 73
     3
  0
TEXT
  5
9BC
330
872
100
AcDbEntity
  8
図面枠
  6
Continuous
 62
     7
370
    18
100
AcDbText
 10
283.0746099754745
 20
40.86982873841768
 30
0.0
 40
1.374252874599957
  1
E
  7
ARIAL_TTF
 11
283.0746099754745
 21
42.24408161301763
 31
0.0
100
AcDbText
 73
     3
  0
LINE
  5
9BD
330
872
100
AcDbEntity
  8
図面枠
  6
Continuous
 62
     7
370
    18
100
AcDbLine
 10
281.5643681064179
 20
56.73769759258703
 30
0.0
 11
285.0000002929177
 21
56.73769759258703
 31
0.0
  0
TEXT
  5
9BE
330
872
100
AcDbEntity
  8
図面枠
  6
Continuous
 62
     7
370
    18
100
AcDbText
 10
283.0310520857311
 20
73.12803184789033
 30
0.0
 40
1.374252874599957
  1
D
  7
ARIAL_TTF
 11
283.0310520857311
 21
74.50228472249029
 31
0.0
100
AcDbText
 73
     3
  0
LINE
  5
9BF
330
872
100
AcDbEntity
  8
図面枠
  6
Continuous
 62
     7
370
    18
100
AcDbLine
 10
285.0000002929177
 20
91.09401945758593
 30
0.0
 11
281.5643681064179
 21
91.09401945758593
 31
0.0
  0
TEXT
  5
9C0
330
872
100
AcDbEntity
  8
図面枠
  6
Continuous
 62
     7
370
    18
100
AcDbText
 10
282.7471927434523
 20
108.7875510852516
 30
0.0
 40
1.374252874599957
  1
C
  7
ARIAL_TTF
 11
282.7471927434523
 21
110.1618039598516
 31
0.0
100
AcDbText
 73
     3
  0
LINE
  5
9C1
330
872
100
AcDbEntity
  8
図面枠
  6
Continuous
 62
     7
370
    18
100
AcDbLine
 10
285.0000002929177
 20
125.4503413225849
 30
0.0
 11
281.5643681064179
 21
125.4503413225849
 31
0.0
  0
TEXT
  5
9C2
330
872
100
AcDbEntity
  8
図面枠
  6
Continuous
 62
     7
370
    18
100
AcDbText
 10
282.8547947617086
 20
143.6574203704546
 30
0.0
 40
1.374252874599957
  1
B
  7
ARIAL_TTF
 11
282.8547947617086
 21
145.0316732450545
 31
0.0
100
AcDbText
 73
     3
  0
TEXT
  5
9C3
330
872
100
AcDbEntity
  8
寸法
  6
Continuous
 62
     7
370
    18
100
AcDbText
 10
275.5597560475185
 20
192.4192831425212
 30
0.0
 40
1.245304556589907
  1
担当
  7
ARIAL_TTF
 11
275.5597560475185
 21
193.6645876991111
 31
0.0
100
AcDbText
 73
     3
  0
TEXT
  5
9C4
330
872
100
AcDbEntity
  8
寸法
  6
Continuous
 62
     7
370
    18
100
AcDbText
 10
275.2678344740225
 20
190.5968862304384
 30
0.0
 40
1.245304556589907
  1
SIGN.
  7
ARIAL_TTF
 11
275.2678344740225
 21
191.8421907870283
 31
0.0
100
AcDbText
 73
     3
  0
LINE
  5
9C5
330
872
100
AcDbEntity
  8
図面枠
  6
Continuous
 62
     7
370
    18
100
AcDbLine
 10
257.5149428009184
 20
194.1629850525827
 30
0.0
 11
257.5149428009184
 21
197.5986172390826
 31
0.0
  0
LINE
  5
9C6
330
872
100
AcDbEntity
  8
図面枠
  6
Continuous
 62
     7
370
    18
100
AcDbLine
 10
257.5149428009184
 20
194.1629850525827
 30
0.0
 11
257.5149428009184
 21
197.5986172390826
 31
0.0
  0
LINE
  5
9C7
330
872
100
AcDbEntity
  8
図面枠
  6
Continuous
 62
     7
370
    18
100
AcDbLine
 10
223.1586209359195
 20
194.1629850525827
 30
0.0
 11
223.1586209359195
 21
197.5986172390826
 31
0.0
  0
TEXT
  5
9C8
330
872
100
AcDbEntity
  8
寸法
  6
Continuous
 62
     7
370
    18
100
AcDbText
 10
235.6699503242647
 20
191.352302228958
 30
0.0
 40
1.5
  1
訂   正　内　容    REVISION
  7
ARIAL_TTF
 11
235.6699503242647
 21
192.852302228958
 31
0.0
100
AcDbText
 73
     3
  0
LINE
  5
9C9
330
872
100
AcDbEntity
  8
寸法
  6
Continuous
 62
     7
370
    18
100
AcDbLine
 10
219.9909761416947
 20
194.1394379152217
 30
0.0
 11
219.9909761416947
 21
181.6863923493227
 31
0.0
  0
MTEXT
  5
9CA
330
872
100
AcDbEntity
  8
寸法
100
AcDbMText
 10
221.9349205273818
 20
188.2325347847517
 30
0.0
 40
1.5
 41
50.368725
 46
0.0
 71
     1
 72
     5
  1
*
  7
注記
 73
     1
 44
1.0
  0
LINE
  5
9CB
330
872
100
AcDbEntity
  8
寸法
  6
Continuous
 62
     7
370
    18
100
AcDbLine
 10
273.2623377291519
 20
194.1394379152217
 30
0.0
 11
273.2623377291519
 21
181.6863923493227
 31
0.0
  0
TEXT
  5
9CC
330
872
100
AcDbEntity
  8
図面枠
  6
Continuous
 62
     7
370
    18
100
AcDbText
 10
239.7571270803562
 20
195.7269889506912
 30
0.0
 40
1.374252874599957
  1
7
  7
ARIAL_TTF
 11
239.7571270803562
 21
197.1012418252912
 31
0.0
100
AcDbText
 73
     3
  0
TEXT
  5
9CD
330
872
100
AcDbEntity
  8
図面枠
  6
Continuous
 62
     7
370
    18
100
AcDbText
 10
269.8503886908056
 20
195.8957098032381
 30
0.0
 40
1.374252874599957
  1
8
  7
ARIAL_TTF
 11
269.8503886908056
 21
197.2699626778381
 31
0.0
100
AcDbText
 73
     3
  0
LINE
  5
9CE
330
872
100
AcDbEntity
  8
図面枠
  6
Continuous
 62
     7
370
    18
100
AcDbLine
 10
285.0000002929177
 20
159.8066631875838
 30
0.0
 11
281.5643681064179
 21
159.8066631875838
 31
0.0
  0
TEXT
  5
9CF
330
872
100
AcDbEntity
  8
図面枠
  6
Continuous
 62
     7
370
    18
100
AcDbText
 10
282.7945363129823
 20
178.7168882225855
 30
0.0
 40
1.374252874599957
  1
A
  7
ARIAL_TTF
 11
282.7945363129823
 21
180.0911410971854
 31
0.0
100
AcDbText
 73
     3
  0
MTEXT
  5
9D0
330
872
100
AcDbEntity
  8
寸法
100
AcDbMText
 10
276.4103276813947
 20
188.2325347847517
 30
0.0
 40
1.5
 41
4.836249000000001
 46
0.0
 71
     1
 72
     5
  1
*
  7
注記
 73
     1
 44
1.0
  0
ENDBLK
  5
9D2
330
872
100
AcDbEntity
  8
0
100
AcDbBlockEnd
  0
BLOCK
  5
F4E
330
F4A
100
AcDbEntity
  8
0
100
AcDbBlockBegin
  2
_Open30
 70
     0
 10
0.0
 20
0.0
 30
0.0
  3
_Open30
  1

  0
LINE
  5
F4B
330
F4A
100
AcDbEntity
  8
隠線
 62
     0
370
    -2
100
AcDbLine
 10
-1.0
 20
0.26794919
 30
0.0
 11
0.0
 21
0.0
 31
0.0
  0
LINE
  5
F4C
330
F4A
100
AcDbEntity
  8
隠線
 62
     0
370
    -2
100
AcDbLine
 10
0.0
 20
0.0
 30
0.0
 11
-1.0
 21
-0.26794919
 31
0.0
  0
LINE
  5
F4D
330
F4A
100
AcDbEntity
  8
隠線
 62
     0
370
    -2
100
AcDbLine
 10
0.0
 20
0.0
 30
0.0
 11
-1.0
 21
0.0
 31
0.0
  0
ENDBLK
  5
F4F
330
F4A
100
AcDbEntity
  8
0
100
AcDbBlockEnd
  0
BLOCK
  5
F68
330
F50
100
AcDbEntity
  8
0
100
AcDbBlockBegin
  2
A$C75CF5BB1
 70
     0
 10
0.0
 20
0.0
 30
0.0
  3
A$C75CF5BB1
  1

  0
HATCH
  5
F51
330
F50
100
AcDbEntity
  8
0
100
AcDbHatch
 10
0.0
 20
0.0
 30
0.0
210
0.0
220
0.0
230
1.0
  2
SOLID
 70
     1
 71
     1
 91
        1
 92
        1
 93
        4
 72
     1
 10
8.89297259152903
 20
14.23122768541785
 11
7.582201618425927
 21
11.98419173152681
 72
     1
 10
7.582201618425927
 20
11.98419173152681
 11
16.94485142630529
 21
5.992095854484006
 72
     1
 10
16.94485142630529
 20
5.992095854484006
 11
18.06836940325081
 21
8.051878812217439
 72
     1
 10
18.06836940325081
 20
8.051878812217439
 11
8.89297259152903
 21
14.23122768541785
 97
        1
330
F5E
 75
     0
 76
     1
 98
        1
 10
-178.248778902502
 20
-138.7628445698422
  0
HATCH
  5
F52
330
F50
100
AcDbEntity
  8
0
100
AcDbHatch
 10
0.0
 20
0.0
 30
0.0
210
0.0
220
0.0
230
1.0
  2
SOLID
 70
     1
 71
     1
 91
        1
 92
        1
 93
        4
 72
     1
 10
5.89692465300763
 20
13.85672169310268
 11
3.83714169527417
 21
11.98419173152681
 72
     1
 10
3.83714169527417
 20
11.98419173152681
 11
13.01253850699595
 21
-0.0000000225587939
 72
     1
 10
13.01253850699595
 20
-0.0000000225587939
 11
14.88506846857183
 21
2.059782935174638
 72
     1
 10
14.88506846857183
 20
2.059782935174638
 11
5.89692465300763
 21
13.85672169310268
 97
        1
330
F56
 75
     0
 76
     1
 98
        1
 10
-178.248778902502
 20
-138.7628445698422
  0
HATCH
  5
F53
330
F50
100
AcDbEntity
  8
0
100
AcDbHatch
 10
0.0
 20
0.0
 30
0.0
210
0.0
220
0.0
230
1.0
  2
SOLID
 70
     1
 71
     1
 91
        1
 92
        1
 93
        2
 72
     4
 94
        3
 73
     0
 74
     0
 95
       19
 96
       15
 40
0.0
 40
0.0
 40
0.0
 40
0.0
 40
3.333944811883984
 40
6.382202742415473
 40
8.728476059292465
 40
10.8634887042431
 40
12.37317062340675
 40
14.27675648231389
 40
16.03631152080926
 40
18.68446878841982
 40
21.53662145267858
 40
26.41958218440638
 40
31.45108099286649
 40
34.93418806288568
 40
34.93418806288568
 40
34.93418806288568
 40
34.93418806288568
 10
14.69781547241425
 20
11.79693873536922
 10
15.30065711720135
 20
12.73053545835222
 10
16.64821468589781
 20
14.38348692883238
 10
18.73706433652075
 20
16.44866234262639
 10
20.97427308359977
 20
17.63351900805873
 10
22.88783186944573
 20
18.25935612211816
 10
24.82250825305366
 20
18.12408819178185
 10
26.13874928962952
 20
16.77858326759116
 10
26.67610437941633
 20
14.69023887059691
 10
26.20182077457719
 20
12.24638487341139
 10
24.75063238975753
 20
9.106537673646244
 10
22.50829645947604
 20
5.446429292924222
 10
19.268259703604
 20
2.321717343164494
 10
16.99026296791448
 20
0.6199314888543483
 10
16.00858644551735
 20
-0.0000000225587655
 97
        0
 72
     4
 94
        3
 73
     0
 74
     0
 95
       16
 96
       12
 40
0.0
 40
0.0
 40
0.0
 40
0.0
 40
2.729658031901366
 40
6.205206813656936
 40
9.40498741464165
 40
12.98245088308514
 40
14.55191698372
 40
15.95963962091125
 40
17.49417965189398
 40
18.84448021015488
 40
20.83500686318146
 40
20.83500686318146
 40
20.83500686318146
 40
20.83500686318146
 10
16.00858644551735
 20
-0.0000000225587655
 10
16.57129517822329
 20
0.7150184628550846
 10
17.51627146341269
 20
2.574839685837986
 10
19.0292278246489
 20
5.310522326750004
 10
20.28787386842882
 20
8.517181735922378
 10
20.68623722607424
 20
11.27867575637083
 10
20.26253082314813
 20
13.55580492102754
 10
18.78455845189632
 20
14.41550270950412
 10
17.32280315976641
 20
13.94702687127167
 10
16.01672955912511
 20
12.99567280631055
 10
15.16825877856499
 20
12.2648352359962
 10
14.69781547241425
 20
11.79693873536922
 97
        0
 97
        2
330
F55
330
F54
 75
     0
 76
     1
 98
        1
 10
-178.248778902502
 20
-138.7628445698422
  0
SPLINE
  5
F54
102
{ACAD_REACTORS
330
F53
102
}
330
F50
100
AcDbEntity
  8
0
100
AcDbSpline
210
0.0
220
0.0
230
1.0
 70
  1064
 71
     3
 72
    16
 73
    12
 74
    10
 42
0.000000001
 43
0.0000000001
 44
0.0000000001
 12
0.7090233714310423
 22
0.7051849819476861
 32
0.0
 13
-0.6184387122448335
 23
-0.785833035190652
 33
0.0
 40
0.0
 40
0.0
 40
0.0
 40
0.0
 40
1.99052665302658
 40
3.340827211287483
 40
4.875367242270217
 40
6.283089879461464
 40
7.852555980096326
 40
11.43001944853981
 40
14.62980004952453
 40
18.1053488312801
 40
20.83500686318146
 40
20.83500686318146
 40
20.83500686318146
 40
20.83500686318146
 10
14.69781547241425
 20
11.79693873536922
 30
0.0
 10
15.168258778565
 20
12.2648352359962
 30
0.0
 10
16.01672955912515
 20
12.99567280631055
 30
0.0
 10
17.3228031597664
 20
13.94702687127169
 30
0.0
 10
18.78455845189636
 20
14.41550270950413
 30
0.0
 10
20.26253082314814
 20
13.55580492102757
 30
0.0
 10
20.68623722607427
 20
11.27867575637085
 30
0.0
 10
20.28787386842882
 20
8.517181735922351
 30
0.0
 10
19.0292278246489
 20
5.310522326750058
 30
0.0
 10
17.5162714634127
 20
2.574839685837951
 30
0.0
 10
16.5712951782233
 20
0.7150184628550984
 30
0.0
 10
16.00858644551735
 20
-0.0000000225587655
 30
0.0
 11
14.69781547241425
 21
11.79693873536922
 31
0.0
 11
16.19583944167493
 21
13.10770970847233
 31
0.0
 11
17.31935741862046
 21
13.85672169310271
 31
0.0
 11
18.81738138788117
 21
14.18949382866828
 31
0.0
 11
20.03452586290547
 21
13.48221570078752
 31
0.0
 11
20.50265835329944
 21
11.98419173152683
 31
0.0
 11
20.12815236098427
 21
8.42638480453266
 31
0.0
 11
19.00463438403875
 21
5.43033686601126
 31
0.0
 11
17.41298391669926
 21
2.340662429411083
 31
0.0
 11
16.00858644551735
 21
-0.0000000225587655
 31
0.0
  0
SPLINE
  5
F55
102
{ACAD_REACTORS
330
F53
102
}
330
F50
100
AcDbEntity
  8
0
100
AcDbSpline
210
0.0
220
0.0
230
1.0
 70
  1064
 71
     3
 72
    19
 73
    15
 74
    13
 42
0.000000001
 43
0.0000000001
 44
0.0000000001
 12
0.5424579698844385
 22
0.8400829428746032
 32
0.0
 13
-0.8455179550868933
 23
-0.5339469895276856
 33
0.0
 40
0.0
 40
0.0
 40
0.0
 40
0.0
 40
3.333944811883984
 40
6.382202742415473
 40
8.728476059292465
 40
10.8634887042431
 40
12.37317062340675
 40
14.27675648231389
 40
16.03631152080926
 40
18.68446878841982
 40
21.53662145267858
 40
26.41958218440638
 40
31.45108099286649
 40
34.93418806288568
 40
34.93418806288568
 40
34.93418806288568
 40
34.93418806288568
 10
14.69781547241425
 20
11.79693873536922
 30
0.0
 10
15.30065711720136
 20
12.73053545835223
 30
0.0
 10
16.64821468589777
 20
14.38348692883238
 30
0.0
 10
18.7370643365208
 20
16.44866234262639
 30
0.0
 10
20.97427308359966
 20
17.63351900805871
 30
0.0
 10
22.88783186944579
 20
18.25935612211816
 30
0.0
 10
24.82250825305364
 20
18.12408819178186
 30
0.0
 10
26.13874928962948
 20
16.77858326759112
 30
0.0
 10
26.67610437941628
 20
14.69023887059693
 30
0.0
 10
26.20182077457724
 20
12.24638487341138
 30
0.0
 10
24.75063238975755
 20
9.106537673646262
 30
0.0
 10
22.50829645947608
 20
5.446429292924261
 30
0.0
 10
19.26825970360403
 20
2.321717343164515
 30
0.0
 10
16.99026296791446
 20
0.6199314888543493
 30
0.0
 10
16.00858644551735
 20
-0.0000000225587655
 30
0.0
 11
14.69781547241425
 21
11.79693873536922
 31
0.0
 11
16.75759843014771
 21
14.41848068157549
 31
0.0
 11
19.00463438403875
 21
16.47826363930892
 31
0.0
 11
21.06441734177221
 21
17.60178161625444
 31
0.0
 11
23.12420029950567
 21
18.16354060472719
 31
0.0
 11
24.62222426876639
 21
17.97628760856961
 31
0.0
 11
26.00791279123979
 21
16.67110316148302
 31
0.0
 11
26.49475423034224
 21
14.98023967004821
 31
0.0
 11
26.12024823802707
 21
12.358697723842
 31
0.0
 11
24.99673026108155
 21
9.737155777635792
 31
0.0
 11
22.37518831487534
 21
5.617589862168842
 31
0.0
 11
18.81738138788117
 21
2.059782935174667
 31
0.0
 11
16.00858644551735
 21
-0.0000000225587655
 31
0.0
  0
POLYLINE
  5
F56
102
{ACAD_REACTORS
330
F52
102
}
330
F50
100
AcDbEntity
  8
0
370
     0
100
AcDb2dPolyline
 66
     1
 10
0.0
 20
0.0
 30
0.0
  0
VERTEX
  5
F57
330
F56
100
AcDbEntity
  8
0
370
     0
100
AcDbVertex
100
AcDb2dVertex
 10
5.89692465300763
 20
13.85672169310268
 30
0.0
  0
VERTEX
  5
F58
330
F56
100
AcDbEntity
  8
0
370
     0
100
AcDbVertex
100
AcDb2dVertex
 10
3.83714169527417
 20
11.98419173152681
 30
0.0
  0
VERTEX
  5
F59
330
F56
100
AcDbEntity
  8
0
370
     0
100
AcDbVertex
100
AcDb2dVertex
 10
13.01253850699595
 20
-0.0000000225587939
 30
0.0
  0
VERTEX
  5
F5A
330
F56
100
AcDbEntity
  8
0
370
     0
100
AcDbVertex
100
AcDb2dVertex
 10
14.88506846857183
 20
2.059782935174638
 30
0.0
  0
VERTEX
  5
F5B
330
F56
100
AcDbEntity
  8
0
370
     0
100
AcDbVertex
100
AcDb2dVertex
 10
5.89692465300763
 20
13.85672169310268
 30
0.0
  0
VERTEX
  5
F5C
330
F56
100
AcDbEntity
  8
0
370
     0
100
AcDbVertex
100
AcDb2dVertex
 10
5.89692465300763
 20
13.85672169310268
 30
0.0
  0
SEQEND
  5
F5D
330
F56
100
AcDbEntity
  8
0
370
     0
  0
POLYLINE
  5
F5E
102
{ACAD_REACTORS
330
F51
102
}
330
F50
100
AcDbEntity
  8
0
370
     0
100
AcDb2dPolyline
 66
     1
 10
0.0
 20
0.0
 30
0.0
  0
VERTEX
  5
F5F
330
F5E
100
AcDbEntity
  8
0
370
     0
100
AcDbVertex
100
AcDb2dVertex
 10
8.89297259152903
 20
14.23122768541785
 30
0.0
  0
VERTEX
  5
F60
330
F5E
100
AcDbEntity
  8
0
370
     0
100
AcDbVertex
100
AcDb2dVertex
 10
7.582201618425927
 20
11.98419173152681
 30
0.0
  0
VERTEX
  5
F61
330
F5E
100
AcDbEntity
  8
0
370
     0
100
AcDbVertex
100
AcDb2dVertex
 10
16.94485142630529
 20
5.992095854484006
 30
0.0
  0
VERTEX
  5
F62
330
F5E
100
AcDbEntity
  8
0
370
     0
100
AcDbVertex
100
AcDb2dVertex
 10
18.06836940325081
 20
8.051878812217439
 30
0.0
  0
VERTEX
  5
F63
330
F5E
100
AcDbEntity
  8
0
370
     0
100
AcDbVertex
100
AcDb2dVertex
 10
8.89297259152903
 20
14.23122768541785
 30
0.0
  0
VERTEX
  5
F64
330
F5E
100
AcDbEntity
  8
0
370
     0
100
AcDbVertex
100
AcDb2dVertex
 10
8.89297259152903
 20
14.23122768541785
 30
0.0
  0
SEQEND
  5
F65
330
F5E
100
AcDbEntity
  8
0
370
     0
  0
HATCH
  5
F66
330
F50
100
AcDbEntity
  8
0
100
AcDbHatch
 10
0.0
 20
0.0
 30
0.0
210
0.0
220
0.0
230
1.0
  2
SOLID
 70
     1
 71
     1
 91
        1
 92
        1
 93
        1
 72
     2
 10
2.419737941649771
 20
16.12464737753501
 40
2.419738069713412
 50
0.0
 51
360.0
 73
     1
 97
        1
330
F67
 75
     0
 76
     1
 98
        1
 10
-178.248778902502
 20
-138.7628445698422
  0
CIRCLE
  5
F67
102
{ACAD_REACTORS
330
F66
102
}
330
F50
100
AcDbEntity
  8
0
100
AcDbCircle
 10
2.419737941649771
 20
16.12464737753501
 30
0.0
 40
2.419738069713412
  0
ENDBLK
  5
F69
330
F50
100
AcDbEntity
  8
0
100
AcDbBlockEnd
  0
BLOCK
  5
1452
330
144F
100
AcDbEntity
  8
0
100
AcDbBlockBegin
  2
_Dot
 70
     0
 10
0.0
 20
0.0
 30
0.0
  3
_Dot
  1

  0
LWPOLYLINE
  5
1450
330
144F
100
AcDbEntity
  8
0
  6
ByBlock
 62
     0
100
AcDbPolyline
 90
        2
 70
     1
 43
0.5
 10
-0.25
 20
0.0
 42
1.0
 10
0.25
 20
0.0
 42
1.0
  0
LINE
  5
1451
330
144F
100
AcDbEntity
  8
0
  6
ByBlock
 62
     0
370
    -2
100
AcDbLine
 10
-0.5
 20
0.0
 30
0.0
 11
-1.0
 21
0.0
 31
0.0
  0
ENDBLK
  5
1453
330
144F
100
AcDbEntity
  8
0
100
AcDbBlockEnd
  0
BLOCK
  5
1457
330
1454
100
AcDbEntity
  8
0
100
AcDbBlockBegin
  2
_DotBlank
 70
     0
 10
0.0
 20
0.0
 30
0.0
  3
_DotBlank
  1

  0
CIRCLE
  5
1455
330
1454
100
AcDbEntity
  8
0
  6
ByBlock
 62
     0
370
    -2
100
AcDbCircle
 10
0.0
 20
0.0
 30
0.0
 40
0.5
  0
LINE
  5
1456
330
1454
100
AcDbEntity
  8
0
  6
ByBlock
 62
     0
370
    -2
100
AcDbLine
 10
-0.5
 20
0.0
 30
0.0
 11
-1.0
 21
0.0
 31
0.0
  0
ENDBLK
  5
1458
330
1454
100
AcDbEntity
  8
0
100
AcDbBlockEnd
  0
BLOCK
  5
16B2
330
16A7
100
AcDbEntity
  8
0
100
AcDbBlockBegin
  2
A$C1DB105E5
 70
     0
 10
0.0
 20
0.0
 30
0.0
  3
A$C1DB105E5
  1

  0
LINE
  5
16A8
330
16A7
100
AcDbEntity
  8
図面枠
 62
     7
100
AcDbLine
 10
-540.0000000000009
 20
-120.0000000000005
 30
0.0
 11
0.0
 21
-120.0
 31
0.0
  0
LINE
  5
16A9
330
16A7
100
AcDbEntity
  8
図面枠
 62
     7
100
AcDbLine
 10
-539.9999999999991
 20
-420.0000000000005
 30
0.0
 11
0.0000000000027285
 21
-420.0000000000005
 31
0.0
  0
LINE
  5
16AA
330
16A7
100
AcDbEntity
  8
図面枠
 62
     7
100
AcDbLine
 10
-540.0000000000018
 20
-120.0000000000005
 30
0.0
 11
-539.9999999999973
 21
-420.0000000000005
 31
0.0
  0
TEXT
  5
16AB
330
16A7
100
AcDbEntity
  8
図面枠
 62
     7
100
AcDbText
 10
-515.9999999999873
 20
-282.0000000000018
 30
0.0
 40
24.0
  1
・ 取付ビスセット（1セット）
  7
ARIAL_TTF
 11
-515.9999999999873
 21
-270.0000000000018
 31
0.0
100
AcDbText
 73
     2
  0
TEXT
  5
16AC
330
16A7
100
AcDbEntity
  8
図面枠
 62
     7
100
AcDbText
 10
-515.9999999999873
 20
-342.0000000000018
 30
0.0
 40
24.0
  1
・ 排気アダプター（1セット）
  7
ARIAL_TTF
 11
-515.9999999999873
 21
-330.0000000000018
 31
0.0
100
AcDbText
 73
     2
  0
TEXT
  5
16AD
330
16A7
100
AcDbEntity
  8
図面枠
 62
     7
100
AcDbText
 10
-515.9999999999891
 20
-402.0000000000018
 30
0.0
 40
24.0
  1
・ 壁取付金具（1セット）
  7
ARIAL_TTF
 11
-515.9999999999891
 21
-390.0000000000018
 31
0.0
100
AcDbText
 73
     2
  0
TEXT
  5
16AE
330
16A7
100
AcDbEntity
  8
図面枠
 62
     7
100
AcDbText
 10
-515.9999999999891
 20
-222.0000000000018
 30
0.0
 40
24.0
  1
・ 施工説明書（1枚）
  7
ARIAL_TTF
 11
-515.9999999999891
 21
-210.0000000000018
 31
0.0
100
AcDbText
 73
     2
  0
TEXT
  5
16AF
330
16A7
100
AcDbEntity
  8
図面枠
 62
     7
100
AcDbText
 10
-515.9999999999891
 20
-162.0000000000018
 30
0.0
 40
24.0
  1
・ 取扱説明書（1枚）
  7
ARIAL_TTF
 11
-515.9999999999891
 21
-150.0000000000018
 31
0.0
100
AcDbText
 73
     2
  0
TEXT
  5
16B0
330
16A7
100
AcDbEntity
  8
図面枠
 62
     7
100
AcDbText
 10
-540.0000000000009
 20
-96.0
 30
0.0
 40
30.0
  1
□付属品
  7
ARIAL_TTF
 11
-540.0000000000009
 21
-81.0
 31
0.0
100
AcDbText
 73
     2
  0
LINE
  5
16B1
330
16A7
100
AcDbEntity
  8
図面枠
 62
     7
100
AcDbLine
 10
0.0
 20
-120.0
 30
0.0
 11
0.0000000000027285
 21
-420.0000000000005
 31
0.0
  0
ENDBLK
  5
16B3
330
16A7
100
AcDbEntity
  8
0
100
AcDbBlockEnd
  0
BLOCK
  5
17E8
330
17E7
100
AcDbEntity
  8
0
 62
     7
100
AcDbBlockBegin
  2
_None
 70
     0
 10
0.0
 20
0.0
 30
0.0
  3
_None
  1

  0
ENDBLK
  5
17E9
330
17E7
100
AcDbEntity
  8
0
 62
     7
100
AcDbBlockEnd
  0
BLOCK
  5
4773
330
4621
100
AcDbEntity
  8
0
100
AcDbBlockBegin
  2
A$C571814F1
 70
     0
 10
0.0
 20
0.0
 30
0.0
  3
A$C571814F1
  1

  0
LINE
  5
4622
330
4621
100
AcDbEntity
  8
0
100
AcDbLine
 10
1002.286429978591
 20
20.0000100382349
 30
0.0
 11
585.62112155453
 21
20.0000100382349
 31
0.0
  0
LINE
  5
4623
330
4621
100
AcDbEntity
  8
配線図
 62
     0
100
AcDbLine
 10
585.5863363465833
 20
697.8572484494252
 30
0.0
 11
1002.286429978591
 21
697.8572484494343
 31
0.0
  0
LINE
  5
4624
330
4621
100
AcDbEntity
  8
配線図
 62
     0
100
AcDbLine
 10
585.3463089463949
 20
616.7143774094275
 30
0.0
 11
900.2864056585895
 21
616.7143774094293
 31
0.0
  0
LINE
  5
4625
330
4621
100
AcDbEntity
  8
配線図
 62
     0
100
AcDbLine
 10
584.5503654053973
 20
576.1429418894313
 30
0.0
 11
859.7149701385788
 21
576.1429418894313
 31
0.0
  0
LINE
  5
4626
330
4621
100
AcDbEntity
  8
配線図
 62
     0
100
AcDbLine
 10
585.5863363465833
 20
332.7143287694325
 30
0.0
 11
961.7149944585908
 21
332.7143287694325
 31
0.0
  0
LINE
  5
4627
330
4621
100
AcDbEntity
  8
配線図
 62
     0
100
AcDbLine
 10
585.3463089463949
 20
657.2858129294254
 30
0.0
 11
1097.629303450583
 21
657.2858129294254
 31
0.0
  0
LINE
  5
4628
330
4621
100
AcDbEntity
  8
配線図
 62
     0
100
AcDbLine
 10
585.5863363465833
 20
464.5714942094282
 30
0.0
 11
1155.443599066588
 21
464.5714942094282
 31
0.0
  0
TEXT
  5
4629
330
4621
100
AcDbEntity
  8
文字
 62
     0
100
AcDbText
 10
608.5912880617325
 20
579.2075830651274
 30
0.0
 40
20.28571776
  1
白(共通)
  7
注記
100
AcDbText
  0
TEXT
  5
462A
330
4621
100
AcDbEntity
  8
文字
 62
     0
100
AcDbText
 10
588.3544389152921
 20
578.9747080272709
 30
0.0
 40
15.21428832
  1
5
  7
注記
100
AcDbText
  0
LINE
  5
462B
330
4621
100
AcDbEntity
  8
配線図
 62
     0
100
AcDbLine
 10
579.500621018582
 20
610.6286620814335
 30
0.0
 11
579.500621018582
 21
582.2286572174362
 31
0.0
  0
TEXT
  5
462C
330
4621
100
AcDbEntity
  8
文字
 62
     0
100
AcDbText
 10
528.1955743506551
 20
579.2075830651274
 30
0.0
 40
20.28571776
  1
白
  7
注記
100
AcDbText
  0
LINE
  5
462D
330
4621
100
AcDbEntity
  8
配線図
 62
     0
100
AcDbLine
 10
604.8577682185824
 20
515.285788609428
 30
0.0
 11
604.8577682185824
 21
758.7144017294377
 31
0.0
  0
LINE
  5
462E
330
4621
100
AcDbEntity
  8
配線図
 62
     0
100
AcDbLine
 10
554.1434738185853
 20
758.7144017294377
 30
0.0
 11
554.1434738185853
 21
515.285788609428
 31
0.0
  0
CIRCLE
  5
462F
330
4621
100
AcDbEntity
  8
配線図
 62
     0
100
AcDbCircle
 10
226.3577256585922
 20
637.0000951694328
 30
0.0
 40
50.7142944
  0
LINE
  5
4630
330
4621
100
AcDbEntity
  8
配線図
 62
     0
100
AcDbLine
 10
307.5005966985882
 20
576.1429418894304
 30
0.0
 11
262.9360807306548
 21
601.872277179823
 31
0.0
  0
LINE
  5
4631
330
4621
100
AcDbEntity
  8
配線図
 62
     0
100
AcDbLine
 10
779.4017287963579
 20
100.0000100382422
 30
0.0
 11
779.4017287963579
 21
322.5714698894299
 31
0.0
  0
LINE
  5
4632
330
4621
100
AcDbEntity
  8
配線図
 62
     0
100
AcDbLine
 10
339.6698965428077
 20
282.0000343694319
 30
0.0
 11
339.6698965428222
 21
226.3582264190773
 31
0.0
  0
LINE
  5
4633
330
4621
100
AcDbEntity
  8
配線図
 62
     0
100
AcDbLine
 10
207.3925667436961
 20
273.9178187667203
 30
0.0
 11
221.7940418257203
 21
266.7936228566732
 31
0.0
  0
LINE
  5
4634
330
4621
100
AcDbEntity
  8
配線図
 62
     0
100
AcDbLine
 10
272.4382173695558
 20
273.4796130742816
 30
0.0
 11
266.9291503447312
 21
263.3796568621219
 31
0.0
  0
LINE
  5
4635
330
4621
100
AcDbEntity
  8
配線図
 62
     0
100
AcDbLine
 10
314.4566652324611
 20
292.1428932494346
 30
0.0
 11
314.4566652324611
 21
266.9296619390752
 31
0.0
  0
ARC
  5
4636
330
4621
100
AcDbEntity
  8
配線図
 62
     0
100
AcDbCircle
 10
193.9005859096687
 20
246.6439441790826
 30
0.0
 40
30.42856851460668
100
AcDbArc
 50
63.67908098197812
 51
296.3209190180219
  0
LINE
  5
4637
330
4621
100
AcDbEntity
  8
配線図
 62
     0
100
AcDbLine
 10
289.2434339221109
 20
274.536798650799
 30
0.0
 11
289.2434339221109
 21
218.7510897073535
 31
0.0
  0
LINE
  5
4638
330
4621
100
AcDbEntity
  8
配線図
 62
     0
100
AcDbLine
 10
273.0148640476509
 20
219.1471970008388
 30
0.0
 11
273.0148640476509
 21
274.1406913573246
 31
0.0
  0
LINE
  5
4639
330
4621
100
AcDbEntity
  8
配線図
 62
     0
100
AcDbLine
 10
279.1005777505779
 20
218.7510897073535
 30
0.0
 11
279.1005777505779
 21
274.536798650799
 31
0.0
  0
TEXT
  5
463A
330
4621
100
AcDbEntity
  8
配線図
100
AcDbText
 10
218.5061845952223
 20
25.75492568552363
 30
0.0
 40
30.18538966713464
  1
M
  7
注記
100
AcDbText
  0
CIRCLE
  5
463B
330
4621
100
AcDbEntity
  8
配線図
100
AcDbCircle
 10
228.6173886319157
 20
40.00001003828038
 30
0.0
 40
37.5
  0
TEXT
  5
463C
330
4621
100
AcDbEntity
  8
配線図
100
AcDbText
 10
218.5061845952223
 20
135.7549256854854
 30
0.0
 40
30.18538966713464
  1
M
  7
注記
100
AcDbText
  0
CIRCLE
  5
463D
330
4621
100
AcDbEntity
  8
配線図
100
AcDbCircle
 10
228.6173886319157
 20
150.0000100382431
 30
0.0
 40
37.5
  0
ARC
  5
463E
330
4621
100
AcDbEntity
  8
配線図
 62
     0
100
AcDbCircle
 10
244.2806765490932
 20
312.2500805027448
 30
0.0
 40
50.71428085767781
100
AcDbArc
 50
243.6790809819781
 51
267.6140559697001
  0
ARC
  5
463F
330
4621
100
AcDbEntity
  8
配線図
 62
     0
100
AcDbCircle
 10
244.2806765490932
 20
181.0378078554186
 30
0.0
 40
50.71428085767781
100
AcDbArc
 50
92.38594403029987
 51
116.3209190180219
  0
TEXT
  5
4640
330
4621
100
AcDbEntity
  8
文字
100
AcDbText
 10
4.087043663901568
 20
26.89620947589538
 30
0.0
 40
20.412
  1
電動シャッター
  7
注記
100
AcDbText
  0
TEXT
  5
4641
330
4621
100
AcDbEntity
  8
文字
100
AcDbText
 10
4.087043663901568
 20
136.8962094758581
 30
0.0
 40
20.412
  1
電動シャッター
  7
注記
100
AcDbText
  0
LINE
  5
4642
330
4621
100
AcDbEntity
  8
配線図
 62
     0
100
AcDbLine
 10
207.3925667436961
 20
219.370069591444
 30
0.0
 11
221.7940418257203
 21
226.4942655014902
 31
0.0
  0
LINE
  5
4643
330
4621
100
AcDbEntity
  8
0
100
AcDbLine
 10
779.4017287963579
 20
100.0000100382422
 30
0.0
 11
585.8577682465839
 21
100.0000100382422
 31
0.0
  0
LINE
  5
4644
330
4621
100
AcDbEntity
  8
配線図
100
AcDbLine
 10
359.8577682465839
 20
54.00001003828493
 30
0.0
 11
359.8577682465839
 21
26.0000100382822
 31
0.0
  0
TEXT
  5
4645
330
4621
100
AcDbEntity
  8
文字
100
AcDbText
 10
369.8609442377528
 20
22.79189166784636
 30
0.0
 40
15.0
  1
2
  7
注記
100
AcDbText
  0
CIRCLE
  5
4646
330
4621
100
AcDbEntity
  8
配線図
100
AcDbCircle
 10
359.8577682465839
 20
20.00001003828129
 30
0.0
 40
6.0
  0
LINE
  5
4647
330
4621
100
AcDbEntity
  8
配線図
100
AcDbLine
 10
384.8577682465839
 20
80.00001003828402
 30
0.0
 11
334.8577682465839
 21
80.00001003828402
 31
0.0
  0
LINE
  5
4648
330
4621
100
AcDbEntity
  8
配線図
100
AcDbLine
 10
359.8577682465839
 20
80.00001003828402
 30
0.0
 11
359.8577682465839
 21
66.00001003827947
 31
0.0
  0
CIRCLE
  5
4649
330
4621
100
AcDbEntity
  8
配線図
100
AcDbCircle
 10
359.8577682465839
 20
60.00001003827947
 30
0.0
 40
6.0
  0
TEXT
  5
464A
330
4621
100
AcDbEntity
  8
文字
100
AcDbText
 10
372.3120876538378
 20
62.79189166784454
 30
0.0
 40
15.0
  1
1
  7
注記
100
AcDbText
  0
LINE
  5
464B
330
4621
100
AcDbEntity
  8
配線図
100
AcDbLine
 10
334.8577682465839
 20
0.0000100382821984
 30
0.0
 11
384.8577682465839
 21
0.0000100382821984
 31
0.0
  0
LINE
  5
464C
330
4621
100
AcDbEntity
  8
配線図
100
AcDbLine
 10
334.8577682465839
 20
80.00001003828402
 30
0.0
 11
334.8577682465839
 21
0.0000100382821984
 31
0.0
  0
LINE
  5
464D
330
4621
100
AcDbEntity
  8
配線図
100
AcDbLine
 10
384.8577682465839
 20
0.0000100382821984
 30
0.0
 11
384.8577682465839
 21
80.00001003828402
 31
0.0
  0
LINE
  5
464E
330
4621
100
AcDbEntity
  8
配線図
100
AcDbLine
 10
359.8577682465839
 20
14.00001003828129
 30
0.0
 11
359.8577682465839
 21
0.0000100382821984
 31
0.0
  0
LINE
  5
464F
330
4621
100
AcDbEntity
  8
配線図
100
AcDbLine
 10
334.8577682465839
 20
60.00001003827947
 30
0.0
 11
353.8577682465839
 21
60.00001003827947
 31
0.0
  0
LINE
  5
4650
330
4621
100
AcDbEntity
  8
配線図
100
AcDbLine
 10
334.8577682465839
 20
20.00001003828038
 30
0.0
 11
353.8577682465839
 21
20.00001003828129
 31
0.0
  0
LINE
  5
4651
330
4621
100
AcDbEntity
  8
配線図
100
AcDbLine
 10
260.3388324830412
 20
20.0000100382822
 30
0.0
 11
334.8577682465839
 21
20.00001003828038
 31
0.0
  0
LINE
  5
4652
330
4621
100
AcDbEntity
  8
配線図
100
AcDbLine
 10
260.3388324830412
 20
60.00001003827765
 30
0.0
 11
334.8577682465839
 21
60.00001003827947
 31
0.0
  0
LINE
  5
4653
330
4621
100
AcDbEntity
  8
配線図
100
AcDbLine
 10
334.8577682465839
 20
110.0000100382395
 30
0.0
 11
384.8577682465839
 21
110.0000100382395
 31
0.0
  0
LINE
  5
4654
330
4621
100
AcDbEntity
  8
配線図
100
AcDbLine
 10
359.8577682465839
 20
124.0000100382385
 30
0.0
 11
359.8577682465839
 21
110.0000100382395
 31
0.0
  0
CIRCLE
  5
4655
330
4621
100
AcDbEntity
  8
配線図
100
AcDbCircle
 10
359.8577682465839
 20
130.0000100382385
 30
0.0
 40
6.0
  0
LINE
  5
4656
330
4621
100
AcDbEntity
  8
配線図
100
AcDbLine
 10
334.8577682465875
 20
130.0000100382385
 30
0.0
 11
353.8577682465839
 21
130.0000100382385
 31
0.0
  0
LINE
  5
4657
330
4621
100
AcDbEntity
  8
配線図
100
AcDbLine
 10
260.3388324830375
 20
130.0000100382385
 30
0.0
 11
334.8577682465839
 21
130.0000100382385
 31
0.0
  0
LINE
  5
4658
330
4621
100
AcDbEntity
  8
配線図
100
AcDbLine
 10
384.8577682465839
 20
190.0000100382404
 30
0.0
 11
334.8577682465839
 21
190.0000100382404
 31
0.0
  0
LINE
  5
4659
330
4621
100
AcDbEntity
  8
配線図
100
AcDbLine
 10
359.8577682465839
 20
190.0000100382404
 30
0.0
 11
359.8577682465839
 21
176.0000100382422
 31
0.0
  0
CIRCLE
  5
465A
330
4621
100
AcDbEntity
  8
配線図
100
AcDbCircle
 10
359.8577682465839
 20
170.0000100382358
 30
0.0
 40
6.0
  0
TEXT
  5
465B
330
4621
100
AcDbEntity
  8
文字
100
AcDbText
 10
372.3120876538378
 20
172.7918916678072
 30
0.0
 40
15.0
  1
1
  7
注記
100
AcDbText
  0
LINE
  5
465C
330
4621
100
AcDbEntity
  8
配線図
100
AcDbLine
 10
359.8577682465839
 20
164.0000100382413
 30
0.0
 11
359.8577682465839
 21
136.0000100382385
 31
0.0
  0
LINE
  5
465D
330
4621
100
AcDbEntity
  8
配線図
100
AcDbLine
 10
334.8577682465839
 20
190.0000100382404
 30
0.0
 11
334.8577682465839
 21
110.0000100382395
 31
0.0
  0
TEXT
  5
465E
330
4621
100
AcDbEntity
  8
文字
100
AcDbText
 10
369.8609442377528
 20
132.7918916678036
 30
0.0
 40
15.0
  1
2
  7
注記
100
AcDbText
  0
LINE
  5
465F
330
4621
100
AcDbEntity
  8
配線図
100
AcDbLine
 10
384.8577682465839
 20
110.0000100382395
 30
0.0
 11
384.8577682465839
 21
190.0000100382404
 31
0.0
  0
LINE
  5
4660
330
4621
100
AcDbEntity
  8
配線図
100
AcDbLine
 10
334.8577682465875
 20
170.0000100382358
 30
0.0
 11
353.8577682465839
 21
170.0000100382358
 31
0.0
  0
LINE
  5
4661
330
4621
100
AcDbEntity
  8
配線図
100
AcDbLine
 10
260.3388324830448
 20
170.000010038234
 30
0.0
 11
334.8577682465839
 21
170.0000100382358
 31
0.0
  0
TEXT
  5
4662
330
4621
100
AcDbEntity
  8
文字
100
AcDbText
 10
388.5387026727767
 20
173.0214867362311
 30
0.0
 40
20.0
  1
茶(連動)
  7
注記
100
AcDbText
  0
LINE
  5
4663
330
4621
100
AcDbEntity
  8
配線図
100
AcDbLine
 10
365.8577682465875
 20
130.0000100382385
 30
0.0
 11
503.8577682465875
 21
130.0000100382385
 31
0.0
  0
TEXT
  5
4664
330
4621
100
AcDbEntity
  8
文字
100
AcDbText
 10
388.5387026727767
 20
133.0214867362338
 30
0.0
 40
20.0
  1
赤(連動)
  7
注記
100
AcDbText
  0
LINE
  5
4665
330
4621
100
AcDbEntity
  8
配線図
100
AcDbLine
 10
365.8577682465875
 20
170.0000100382358
 30
0.0
 11
533.8577682465911
 21
170.0000100382358
 31
0.0
  0
TEXT
  5
4666
330
4621
100
AcDbEntity
  8
文字
100
AcDbText
 10
388.5387026727767
 20
63.02148673627471
 30
0.0
 40
20.0
  1
茶(連動)
  7
注記
100
AcDbText
  0
TEXT
  5
4667
330
4621
100
AcDbEntity
  8
文字
100
AcDbText
 10
388.5387026727767
 20
23.02148673627653
 30
0.0
 40
20.0
  1
赤(連動)
  7
注記
100
AcDbText
  0
HATCH
  5
4668
330
4621
100
AcDbEntity
  8
0
100
AcDbHatch
 10
0.0
 20
0.0
 30
0.0
210
0.0
220
0.0
230
1.0
  2
SOLID
 70
     1
 71
     0
 91
        1
 92
        1
 93
        1
 72
     2
 10
503.8577682465875
 20
20.0000100382349
 40
4.0
 50
0.0
 51
360.0
 73
     1
 97
        0
 75
     0
 76
     1
 98
        1
 10
-1494.675354477816
 20
3964.675132624014
  0
LINE
  5
4669
330
4621
100
AcDbEntity
  8
配線図
100
AcDbLine
 10
366.1104498703389
 20
20.00001003823036
 30
0.0
 11
573.8577682465839
 21
20.0000100382349
 31
0.0
  0
LINE
  5
466A
330
4621
100
AcDbEntity
  8
配線図
100
AcDbLine
 10
503.8577682465875
 20
20.00001003823581
 30
0.0
 11
503.8577682465875
 21
50.0000100382822
 31
0.0
  0
LINE
  5
466B
330
4621
100
AcDbEntity
  8
配線図
100
AcDbLine
 10
365.8577682465839
 20
60.00001003827947
 30
0.0
 11
533.8577682465911
 21
60.00001003828493
 31
0.0
  0
ARC
  5
466C
330
4621
100
AcDbEntity
  8
配線図
100
AcDbCircle
 10
503.8577682465875
 20
60.00001003828493
 30
0.0
 40
10.0
100
AcDbArc
 50
270.0
 51
90.0
  0
LINE
  5
466D
330
4621
100
AcDbEntity
  8
配線図
100
AcDbLine
 10
533.8577682465911
 20
60.00001003828493
 30
0.0
 11
533.8577682465911
 21
170.0000100382358
 31
0.0
  0
HATCH
  5
466E
330
4621
100
AcDbEntity
  8
0
100
AcDbHatch
 10
0.0
 20
0.0
 30
0.0
210
0.0
220
0.0
230
1.0
  2
SOLID
 70
     1
 71
     0
 91
        1
 92
        1
 93
        1
 72
     2
 10
533.8577682465875
 20
100.0000100382431
 40
4.0
 50
0.0
 51
360.0
 73
     1
 97
        0
 75
     0
 76
     1
 98
        1
 10
-1464.675354477815
 20
4044.675132624022
  0
LINE
  5
466F
330
4621
100
AcDbEntity
  8
配線図
100
AcDbLine
 10
573.8577682465839
 20
100.000010038244
 30
0.0
 11
533.8577682465911
 21
100.000010038244
 31
0.0
  0
CIRCLE
  5
4670
330
4621
100
AcDbEntity
  8
配線図
100
AcDbCircle
 10
579.8577682465839
 20
100.0000100382422
 30
0.0
 40
6.0
  0
LINE
  5
4671
330
4621
100
AcDbEntity
  8
配線図
100
AcDbLine
 10
579.8577682465839
 20
14.00001003824036
 30
0.0
 11
579.8577682465839
 21
0.0000100382421806
 31
0.0
  0
LINE
  5
4672
330
4621
100
AcDbEntity
  8
配線図
100
AcDbLine
 10
554.8577682465839
 20
0.0000100382421806
 30
0.0
 11
604.8577682465839
 21
0.0000100382421806
 31
0.0
  0
CIRCLE
  5
4673
330
4621
100
AcDbEntity
  8
配線図
100
AcDbCircle
 10
579.8577682465839
 20
20.0000100382349
 30
0.0
 40
6.0
  0
TEXT
  5
4674
330
4621
100
AcDbEntity
  8
文字
100
AcDbText
 10
589.3716159219439
 20
22.79189166780634
 30
0.0
 40
15.0
  1
3
  7
注記
100
AcDbText
  0
TEXT
  5
4675
330
4621
100
AcDbEntity
  8
文字
100
AcDbText
 10
608.5387026727767
 20
23.02148673623014
 30
0.0
 40
20.0
  1
赤
  7
注記
100
AcDbText
  0
CIRCLE
  5
4676
330
4621
100
AcDbEntity
  8
配線図
100
AcDbCircle
 10
579.8577682465839
 20
60.00001003823854
 30
0.0
 40
6.0
  0
LINE
  5
4677
330
4621
100
AcDbEntity
  8
配線図
100
AcDbLine
 10
579.8577682465839
 20
54.00001003823854
 30
0.0
 11
579.8577682465839
 21
26.00001003824127
 31
0.0
  0
TEXT
  5
4678
330
4621
100
AcDbEntity
  8
文字
100
AcDbText
 10
589.8609442377492
 20
62.79189166780361
 30
0.0
 40
15.0
  1
2
  7
注記
100
AcDbText
  0
LINE
  5
4679
330
4621
100
AcDbEntity
  8
配線図
100
AcDbLine
 10
579.8577682465839
 20
94.00001003823581
 30
0.0
 11
579.8577682465839
 21
66.00001003823854
 31
0.0
  0
LINE
  5
467A
330
4621
100
AcDbEntity
  8
配線図
100
AcDbLine
 10
554.8577682465839
 20
120.0000100382349
 30
0.0
 11
604.8577682465839
 21
120.0000100382349
 31
0.0
  0
LINE
  5
467B
330
4621
100
AcDbEntity
  8
配線図
100
AcDbLine
 10
554.8577682465839
 20
120.0000100382349
 30
0.0
 11
554.8577682465839
 21
0.0000100382421806
 31
0.0
  0
LINE
  5
467C
330
4621
100
AcDbEntity
  8
配線図
100
AcDbLine
 10
604.8577682465839
 20
0.0000100382421806
 30
0.0
 11
604.8577682465839
 21
120.0000100382349
 31
0.0
  0
TEXT
  5
467D
330
4621
100
AcDbEntity
  8
文字
100
AcDbText
 10
608.5387026727767
 20
103.0214867362374
 30
0.0
 40
20.0
  1
茶
  7
注記
100
AcDbText
  0
TEXT
  5
467E
330
4621
100
AcDbEntity
  8
文字
100
AcDbText
 10
592.3120876538342
 20
102.7918916678018
 30
0.0
 40
15.0
  1
1
  7
注記
100
AcDbText
  0
LINE
  5
467F
330
4621
100
AcDbEntity
  8
配線図
100
AcDbLine
 10
503.8577682465875
 20
70.00001003828129
 30
0.0
 11
503.8577682465875
 21
130.0000100382385
 31
0.0
  0
LINE
  5
4680
330
4621
100
AcDbEntity
  8
配線図
 62
     0
100
AcDbLine
 10
266.9291503447312
 20
263.3796568621219
 30
0.0
 11
252.7291517045851
 21
263.3796568621219
 31
0.0
  0
ARC
  5
4681
330
4621
100
AcDbEntity
  8
配線図
 62
     0
100
AcDbCircle
 10
247.0752725741477
 20
257.3146916549122
 30
0.0
 40
4.057142468614224
100
AcDbArc
 50
75.96375653214935
 51
87.61405596970013
  0
ARC
  5
4682
330
4621
100
AcDbEntity
  8
配線図
 62
     0
100
AcDbCircle
 10
252.7291517045851
 20
262.365371244965
 30
0.0
 40
1.014285617153556
100
AcDbArc
 50
90.0
 51
180.0
  0
LINE
  5
4683
330
4621
100
AcDbEntity
  8
配線図
 62
     0
100
AcDbLine
 10
251.71486608743
 20
260.3368000106511
 30
0.0
 11
248.0592741586261
 21
261.2506979928494
 31
0.0
  0
LINE
  5
4684
330
4621
100
AcDbEntity
  8
配線図
 62
     0
100
AcDbLine
 10
247.2441736250839
 20
261.368316877546
 30
0.0
 11
242.1694134123172
 21
261.5797652197434
 31
0.0
  0
LINE
  5
4685
330
4621
100
AcDbEntity
  8
配線図
 62
     0
100
AcDbLine
 10
290.2577195392587
 20
248.6725154133837
 30
0.0
 11
290.2577195392587
 21
244.6153729447797
 31
0.0
  0
LINE
  5
4686
330
4621
100
AcDbEntity
  8
配線図
 62
     0
100
AcDbLine
 10
290.2577195392587
 20
244.6153729447797
 30
0.0
 11
289.2434339221109
 21
243.6010873276227
 31
0.0
  0
LINE
  5
4687
330
4621
100
AcDbEntity
  8
配線図
 62
     0
100
AcDbLine
 10
289.2434339221109
 20
249.6868010305407
 30
0.0
 11
290.2577195392587
 21
248.6725154133837
 31
0.0
  0
LINE
  5
4688
330
4621
100
AcDbEntity
  8
配線図
 62
     0
100
AcDbLine
 10
289.2434339221109
 20
266.9296619390752
 30
0.0
 11
314.4566652324611
 21
266.9296619390752
 31
0.0
  0
LINE
  5
4689
330
4621
100
AcDbEntity
  8
配線図
 62
     0
100
AcDbLine
 10
266.9291503447312
 20
229.9082314960433
 30
0.0
 11
252.7291517045851
 21
229.9082314960433
 31
0.0
  0
ARC
  5
468A
330
4621
100
AcDbEntity
  8
配線図
 62
     0
100
AcDbCircle
 10
247.0752725741477
 20
235.9731967032531
 30
0.0
 40
4.057142468614224
100
AcDbArc
 50
272.3859440302999
 51
284.0362434678507
  0
LINE
  5
468B
330
4621
100
AcDbEntity
  8
配線図
 62
     0
100
AcDbLine
 10
251.71486608743
 20
232.9510883475004
 30
0.0
 11
248.0592741586261
 21
232.037190365304
 31
0.0
  0
ARC
  5
468C
330
4621
100
AcDbEntity
  8
配線図
 62
     0
100
AcDbCircle
 10
252.7291517045851
 20
230.9225171131993
 30
0.0
 40
1.014285617153556
100
AcDbArc
 50
180.0
 51
270.0
  0
LINE
  5
468D
330
4621
100
AcDbEntity
  8
配線図
 62
     0
100
AcDbLine
 10
247.2441736250839
 20
231.9195714806165
 30
0.0
 11
242.1694134123172
 21
231.7081231384209
 31
0.0
  0
ARC
  5
468E
330
4621
100
AcDbEntity
  8
配線図
 62
     0
100
AcDbCircle
 10
274.2190910754907
 20
220.7796609416673
 30
0.0
 40
2.028571234307112
100
AcDbArc
 50
208.61045966604
 51
270.0
  0
LINE
  5
468F
330
4621
100
AcDbEntity
  8
配線図
 62
     0
100
AcDbLine
 10
272.4382173695558
 20
219.8082752838827
 30
0.0
 11
266.9291503447312
 21
229.9082314960433
 31
0.0
  0
LINE
  5
4690
330
4621
100
AcDbEntity
  8
配線図
 62
     0
100
AcDbLine
 10
289.2434339221109
 20
218.7510897073535
 30
0.0
 11
274.2190910754907
 21
218.7510897073535
 31
0.0
  0
LINE
  5
4691
330
4621
100
AcDbEntity
  8
配線図
 62
     0
100
AcDbLine
 10
251.71486608743
 20
230.9225171131993
 30
0.0
 11
251.71486608743
 21
262.365371244965
 31
0.0
  0
LINE
  5
4692
330
4621
100
AcDbEntity
  8
配線図
 62
     0
100
AcDbLine
 10
266.9291503447312
 20
229.9082314960433
 30
0.0
 11
266.9291503447312
 21
263.3796568621219
 31
0.0
  0
LINE
  5
4693
330
4621
100
AcDbEntity
  8
配線図
 62
     0
100
AcDbLine
 10
264.9005791104209
 20
229.9082314960433
 30
0.0
 11
264.9005791104209
 21
263.3796568621219
 31
0.0
  0
LINE
  5
4694
330
4621
100
AcDbEntity
  8
配線図
 62
     0
100
AcDbLine
 10
289.2434339221109
 20
226.3582264190773
 30
0.0
 11
339.6698965428222
 21
226.3582264190773
 31
0.0
  0
LINE
  5
4695
330
4621
100
AcDbEntity
  8
配線図
 62
     0
100
AcDbLine
 10
218.7505814985852
 20
479.785782529425
 30
0.0
 11
233.9648698185847
 21
479.785782529425
 31
0.0
  0
ARC
  5
4696
330
4621
100
AcDbEntity
  8
配線図
 62
     0
100
AcDbCircle
 10
244.2806765491041
 20
378.0347473331021
 30
0.0
 40
50.71428085767781
100
AcDbArc
 50
243.6790809820947
 51
267.614055969596
  0
ARC
  5
4697
330
4621
100
AcDbEntity
  8
配線図
 62
     0
100
AcDbCircle
 10
244.2806765491041
 20
246.822474685765
 30
0.0
 40
50.71428085767781
100
AcDbArc
 50
92.385944030404
 51
116.3209190179053
  0
LINE
  5
4698
330
4621
100
AcDbEntity
  8
配線図
 62
     0
100
AcDbLine
 10
218.7505814985852
 20
408.7857703694326
 30
0.0
 11
233.9648698185847
 21
408.7857703694326
 31
0.0
  0
ARC
  5
4699
330
4621
100
AcDbEntity
  8
配線図
 62
     0
100
AcDbCircle
 10
193.9005859096687
 20
312.4286110094272
 30
0.0
 40
30.42856851460668
100
AcDbArc
 50
63.67908098209465
 51
296.3209190179053
  0
LINE
  5
469A
330
4621
100
AcDbEntity
  8
配線図
 62
     0
100
AcDbLine
 10
178.1791459785891
 20
420.1964866094277
 30
0.0
 11
218.7505814985852
 21
420.1964866094277
 31
0.0
  0
LINE
  5
469B
330
4621
100
AcDbEntity
  8
配線図
 62
     0
100
AcDbLine
 10
218.7505814985852
 20
417.6607718894302
 30
0.0
 11
178.1791459785891
 21
417.6607718894302
 31
0.0
  0
LINE
  5
469C
330
4621
100
AcDbEntity
  8
配線図
 62
     0
100
AcDbLine
 10
178.1791459785891
 20
417.6607718894302
 30
0.0
 11
178.1791459785891
 21
420.1964866094277
 31
0.0
  0
LINE
  5
469D
330
4621
100
AcDbEntity
  8
配線図
 62
     0
100
AcDbLine
 10
207.3925667436961
 20
285.1547364217895
 30
0.0
 11
221.7940418257203
 21
292.2789323318366
 31
0.0
  0
LINE
  5
469E
330
4621
100
AcDbEntity
  8
配線図
 62
     0
100
AcDbLine
 10
207.3925667436961
 20
339.7024855970776
 30
0.0
 11
221.7940418257203
 21
332.5782896870314
 31
0.0
  0
LINE
  5
469F
330
4621
100
AcDbEntity
  8
配線図
 62
     0
100
AcDbLine
 10
218.7505814985852
 20
470.9107810094274
 30
0.0
 11
178.1791459785891
 21
470.9107810094274
 31
0.0
  0
LINE
  5
46A0
330
4621
100
AcDbEntity
  8
配線図
 62
     0
100
AcDbLine
 10
178.1791459785891
 20
468.3750662894299
 30
0.0
 11
218.7505814985852
 21
468.3750662894299
 31
0.0
  0
LINE
  5
46A1
330
4621
100
AcDbEntity
  8
配線図
 62
     0
100
AcDbLine
 10
178.1791459785891
 20
470.9107810094274
 30
0.0
 11
178.1791459785891
 21
468.3750662894299
 31
0.0
  0
TEXT
  5
46A2
330
4621
100
AcDbEntity
  8
文字
 62
     0
100
AcDbText
 10
24.15359105088282
 20
430.9947764598419
 30
0.0
 40
20.703603545856
  1
AC100V
  7
注記
100
AcDbText
  0
TEXT
  5
46A3
330
4621
100
AcDbEntity
  8
文字
 62
     0
100
AcDbText
 10
4.682143812176946
 20
299.1376110198344
 30
0.0
 40
20.703603545856
  1
照明(**W)
  7
注記
100
AcDbText
  0
LINE
  5
46A4
330
4621
100
AcDbEntity
  8
配線図
 62
     0
100
AcDbLine
 10
218.7505814985852
 20
408.7857703694326
 30
0.0
 11
218.7505814985852
 21
479.785782529425
 31
0.0
  0
HATCH
  5
46A5
330
4621
100
AcDbEntity
  8
0
100
AcDbHatch
 10
0.0
 20
0.0
 30
0.0
210
0.0
220
0.0
230
1.0
  2
SOLID
 70
     1
 71
     0
 91
        1
 92
        1
 93
        1
 72
     2
 10
779.4017287963579
 20
576.1429418894313
 40
4.0
 50
0.0
 51
360.0
 73
     1
 97
        0
 75
     0
 76
     1
 98
        1
 10
-1369.131393928045
 20
4405.818064475213
  0
CIRCLE
  5
46A6
330
4621
100
AcDbEntity
  8
配線図
 62
     0
100
AcDbCircle
 10
579.500621018582
 20
576.1429418894304
 30
0.0
 40
6.085715328000001
  0
TEXT
  5
46A7
330
4621
100
AcDbEntity
  8
文字
 62
     0
100
AcDbText
 10
588.3544389152921
 20
538.4032725072611
 30
0.0
 40
15.21428832
  1
6
  7
注記
100
AcDbText
  0
LINE
  5
46A8
330
4621
100
AcDbEntity
  8
配線図
 62
     0
100
AcDbLine
 10
579.500621018582
 20
570.0572265614364
 30
0.0
 11
579.500621018582
 21
541.6572216974273
 31
0.0
  0
CIRCLE
  5
46A9
330
4621
100
AcDbEntity
  8
配線図
 62
     0
100
AcDbCircle
 10
579.500621018582
 20
535.5715063694324
 30
0.0
 40
6.085715328000001
  0
LINE
  5
46AA
330
4621
100
AcDbEntity
  8
配線図
 62
     0
100
AcDbLine
 10
579.500621018582
 20
529.4857910414376
 30
0.0
 11
579.500621018582
 21
515.285788609428
 31
0.0
  0
LINE
  5
46AB
330
4621
100
AcDbEntity
  8
配線図
 62
     0
100
AcDbLine
 10
554.1434738185853
 20
515.285788609428
 30
0.0
 11
604.8577682185824
 21
515.285788609428
 31
0.0
  0
LINE
  5
46AC
330
4621
100
AcDbEntity
  8
配線図
 62
     0
100
AcDbLine
 10
604.8577682185824
 20
484.8572119694327
 30
0.0
 11
554.1434738185853
 21
484.8572119694327
 31
0.0
  0
LINE
  5
46AD
330
4621
100
AcDbEntity
  8
配線図
 62
     0
100
AcDbLine
 10
307.5005966985882
 20
576.1429418894304
 30
0.0
 11
573.4149056905844
 21
576.1429418894295
 31
0.0
  0
ARC
  5
46AE
330
4621
100
AcDbEntity
  8
配線図
 62
     0
100
AcDbCircle
 10
779.4017287963579
 20
464.5714942094282
 30
0.0
 40
10.14285888
100
AcDbArc
 50
270.0
 51
90.0
  0
LINE
  5
46AF
330
4621
100
AcDbEntity
  8
配線図
 62
     0
100
AcDbLine
 10
779.4017287963579
 20
342.8571876494343
 30
0.0
 11
779.4017287963579
 21
454.4286353294265
 31
0.0
  0
HATCH
  5
46B0
330
4621
100
AcDbEntity
  8
0
100
AcDbHatch
 10
0.0
 20
0.0
 30
0.0
210
0.0
220
0.0
230
1.0
  2
SOLID
 70
     1
 71
     0
 91
        1
 92
        1
 93
        1
 72
     2
 10
779.4017287963579
 20
424.0000586894312
 40
4.0
 50
0.0
 51
360.0
 73
     1
 97
        0
 75
     0
 76
     1
 98
        1
 10
-1369.131393928045
 20
4253.675181275214
  0
ARC
  5
46B1
330
4621
100
AcDbEntity
  8
配線図
 62
     0
100
AcDbCircle
 10
779.4017287963579
 20
332.7143287694325
 30
0.0
 40
10.14285888
100
AcDbArc
 50
270.0
 51
90.0
  0
HATCH
  5
46B2
330
4621
100
AcDbEntity
  8
0
100
AcDbHatch
 10
0.0
 20
0.0
 30
0.0
210
0.0
220
0.0
230
1.0
  2
SOLID
 70
     1
 71
     0
 91
        1
 92
        1
 93
        1
 72
     2
 10
779.4017287963579
 20
292.1428932494273
 40
4.0
 50
0.0
 51
360.0
 73
     1
 97
        0
 75
     0
 76
     1
 98
        1
 10
-1369.131393928045
 20
4121.818015835209
  0
LINE
  5
46B3
330
4621
100
AcDbEntity
  8
配線図
 62
     0
100
AcDbLine
 10
579.500621018582
 20
458.4857788814334
 30
0.0
 11
579.500621018582
 21
430.0857740174361
 31
0.0
  0
CIRCLE
  5
46B4
330
4621
100
AcDbEntity
  8
配線図
 62
     0
100
AcDbCircle
 10
579.500621018582
 20
464.5714942094282
 30
0.0
 40
6.085715328000001
  0
TEXT
  5
46B5
330
4621
100
AcDbEntity
  8
文字
 62
     0
100
AcDbText
 10
589.6467012616049
 20
426.831824827259
 30
0.0
 40
15.21428832
  1
2
  7
注記
100
AcDbText
  0
CIRCLE
  5
46B6
330
4621
100
AcDbEntity
  8
配線図
 62
     0
100
AcDbCircle
 10
579.500621018582
 20
424.0000586894312
 30
0.0
 40
6.085715328000001
  0
LINE
  5
46B7
330
4621
100
AcDbEntity
  8
配線図
 62
     0
100
AcDbLine
 10
579.500621018582
 20
417.9143433614354
 30
0.0
 11
579.500621018582
 21
403.7143409294258
 31
0.0
  0
LINE
  5
46B8
330
4621
100
AcDbEntity
  8
配線図
 62
     0
100
AcDbLine
 10
554.1434738185853
 20
403.7143409294258
 30
0.0
 11
604.8577682185824
 21
403.7143409294258
 31
0.0
  0
TEXT
  5
46B9
330
4621
100
AcDbEntity
  8
文字
 62
     0
100
AcDbText
 10
608.5912880617325
 20
335.7789699451305
 30
0.0
 40
20.28571776
  1
緑(照明)
  7
注記
100
AcDbText
  0
LINE
  5
46BA
330
4621
100
AcDbEntity
  8
配線図
 62
     0
100
AcDbLine
 10
604.8577682185824
 20
271.8571754894301
 30
0.0
 11
604.8577682185824
 21
353.0000465294252
 31
0.0
  0
TEXT
  5
46BB
330
4621
100
AcDbEntity
  8
文字
 62
     0
100
AcDbText
 10
592.1328614380072
 20
335.5460949072612
 30
0.0
 40
15.21428832
  1
1
  7
注記
100
AcDbText
  0
LINE
  5
46BC
330
4621
100
AcDbEntity
  8
配線図
 62
     0
100
AcDbLine
 10
579.500621018582
 20
353.0000465294252
 30
0.0
 11
579.500621018582
 21
338.8000440974265
 31
0.0
  0
LINE
  5
46BD
330
4621
100
AcDbEntity
  8
配線図
 62
     0
100
AcDbLine
 10
554.1434738185853
 20
353.0000465294252
 30
0.0
 11
554.1434738185853
 21
271.8571754894301
 31
0.0
  0
LINE
  5
46BE
330
4621
100
AcDbEntity
  8
配線図
 62
     0
100
AcDbLine
 10
604.8577682185824
 20
353.0000465294252
 30
0.0
 11
554.1434738185853
 21
353.0000465294252
 31
0.0
  0
TEXT
  5
46BF
330
4621
100
AcDbEntity
  8
文字
 62
     0
100
AcDbText
 10
608.5912880617325
 20
295.2075344251325
 30
0.0
 40
20.28571776
  1
灰(照明)
  7
注記
100
AcDbText
  0
TEXT
  5
46C0
330
4621
100
AcDbEntity
  8
文字
 62
     0
100
AcDbText
 10
589.6467012616049
 20
294.9746593872633
 30
0.0
 40
15.21428832
  1
2
  7
注記
100
AcDbText
  0
LINE
  5
46C1
330
4621
100
AcDbEntity
  8
配線図
 62
     0
100
AcDbLine
 10
579.500621018582
 20
326.6286134414268
 30
0.0
 11
579.500621018582
 21
298.2286085774294
 31
0.0
  0
CIRCLE
  5
46C2
330
4621
100
AcDbEntity
  8
配線図
 62
     0
100
AcDbCircle
 10
579.500621018582
 20
332.7143287694325
 30
0.0
 40
6.085715328000001
  0
CIRCLE
  5
46C3
330
4621
100
AcDbEntity
  8
配線図
 62
     0
100
AcDbCircle
 10
579.500621018582
 20
292.1428932494346
 30
0.0
 40
6.085715328000001
  0
LINE
  5
46C4
330
4621
100
AcDbEntity
  8
配線図
 62
     0
100
AcDbLine
 10
554.1434738185853
 20
271.8571754894301
 30
0.0
 11
604.8577682185824
 21
271.8571754894301
 31
0.0
  0
LINE
  5
46C5
330
4621
100
AcDbEntity
  8
配線図
 62
     0
100
AcDbLine
 10
579.500621018582
 20
286.0571779214288
 30
0.0
 11
579.500621018582
 21
271.8571754894301
 31
0.0
  0
LINE
  5
46C6
330
4621
100
AcDbEntity
  8
配線図
 62
     0
100
AcDbLine
 10
339.6698965428077
 20
332.7143287694325
 30
0.0
 11
339.6698965428077
 21
302.2857521294263
 31
0.0
  0
ARC
  5
46C7
330
4621
100
AcDbEntity
  8
配線図
 62
     0
100
AcDbCircle
 10
339.6698965428077
 20
292.1428932494346
 30
0.0
 40
10.14285888
100
AcDbArc
 50
270.0
 51
90.0
  0
HATCH
  5
46C8
330
4621
100
AcDbEntity
  8
0
100
AcDbHatch
 10
0.0
 20
0.0
 30
0.0
210
0.0
220
0.0
230
1.0
  2
SOLID
 70
     1
 71
     0
 91
        1
 92
        1
 93
        1
 72
     2
 10
339.6698965428077
 20
332.7143287694344
 40
4.0
 50
0.0
 51
360.0
 73
     1
 97
        0
 75
     0
 76
     1
 98
        1
 10
-1808.863226181596
 20
4162.389451355215
  0
TEXT
  5
46C9
330
4621
100
AcDbEntity
  8
文字
 62
     0
100
AcDbText
 10
608.5912880617325
 20
427.0646998651282
 30
0.0
 40
20.28571776
  1
ﾀﾞｲﾀﾞｲ(電源)
  7
注記
100
AcDbText
  0
LINE
  5
46CA
330
4621
100
AcDbEntity
  8
配線図
 62
     0
100
AcDbLine
 10
585.5863363465833
 20
424.0000586894312
 30
0.0
 11
779.4017287963579
 21
424.0000586894312
 31
0.0
  0
LINE
  5
46CB
330
4621
100
AcDbEntity
  8
配線図
 62
     0
100
AcDbLine
 10
585.5863363465833
 20
292.1428932494164
 30
0.0
 11
779.4017287963579
 21
292.1428932494273
 31
0.0
  0
LINE
  5
46CC
330
4621
100
AcDbEntity
  8
配線図
 62
     0
100
AcDbLine
 10
266.9291503447312
 20
329.1643236924674
 30
0.0
 11
252.7291517045851
 21
329.1643236924674
 31
0.0
  0
LINE
  5
46CD
330
4621
100
AcDbEntity
  8
配線図
 62
     0
100
AcDbLine
 10
266.9291503447312
 20
295.6928983263997
 30
0.0
 11
252.7291517045851
 21
295.6928983263997
 31
0.0
  0
ARC
  5
46CE
330
4621
100
AcDbEntity
  8
配線図
 62
     0
100
AcDbCircle
 10
247.0752725741477
 20
323.0993584852567
 30
0.0
 40
4.057142468614224
100
AcDbArc
 50
75.9637565320356
 51
87.61405596959601
  0
LINE
  5
46CF
330
4621
100
AcDbEntity
  8
配線図
 62
     0
100
AcDbLine
 10
251.71486608743
 20
326.1214668410084
 30
0.0
 11
248.0592741586261
 21
327.0353648232067
 31
0.0
  0
ARC
  5
46D0
330
4621
100
AcDbEntity
  8
配線図
 62
     0
100
AcDbCircle
 10
252.7291517045851
 20
328.1500380753114
 30
0.0
 40
1.014285617153556
100
AcDbArc
 50
90.0
 51
180.0
  0
ARC
  5
46D1
330
4621
100
AcDbEntity
  8
配線図
 62
     0
100
AcDbCircle
 10
252.7291517045851
 20
296.7071839435557
 30
0.0
 40
1.014285617153556
100
AcDbArc
 50
180.0
 51
270.0
  0
ARC
  5
46D2
330
4621
100
AcDbEntity
  8
配線図
 62
     0
100
AcDbCircle
 10
247.0752725741477
 20
301.7578635336104
 30
0.0
 40
4.057142468614224
100
AcDbArc
 50
272.385944030404
 51
284.0362434679644
  0
LINE
  5
46D3
330
4621
100
AcDbEntity
  8
配線図
 62
     0
100
AcDbLine
 10
251.71486608743
 20
296.7071839435557
 30
0.0
 11
251.71486608743
 21
328.1500380753114
 31
0.0
  0
LINE
  5
46D4
330
4621
100
AcDbEntity
  8
配線図
 62
     0
100
AcDbLine
 10
251.71486608743
 20
298.7357551778587
 30
0.0
 11
248.0592741586261
 21
297.8218571956613
 31
0.0
  0
LINE
  5
46D5
330
4621
100
AcDbEntity
  8
配線図
 62
     0
100
AcDbLine
 10
247.2441736250839
 20
327.1529837078924
 30
0.0
 11
242.1694134123027
 21
327.3644320501007
 31
0.0
  0
LINE
  5
46D6
330
4621
100
AcDbEntity
  8
配線図
 62
     0
100
AcDbLine
 10
247.2441736250839
 20
297.7042383109638
 30
0.0
 11
242.1694134123027
 21
297.4927899687664
 31
0.0
  0
LINE
  5
46D7
330
4621
100
AcDbEntity
  8
配線図
 62
     0
100
AcDbLine
 10
290.2577195392587
 20
310.4000397751261
 30
0.0
 11
289.2434339221109
 21
309.3857541579691
 31
0.0
  0
LINE
  5
46D8
330
4621
100
AcDbEntity
  8
配線図
 62
     0
100
AcDbLine
 10
290.2577195392587
 20
314.457182243741
 30
0.0
 11
290.2577195392587
 21
310.4000397751261
 31
0.0
  0
LINE
  5
46D9
330
4621
100
AcDbEntity
  8
配線図
 62
     0
100
AcDbLine
 10
289.2434339221109
 20
315.471467860898
 30
0.0
 11
290.2577195392587
 21
314.457182243741
 31
0.0
  0
LINE
  5
46DA
330
4621
100
AcDbEntity
  8
配線図
 62
     0
100
AcDbLine
 10
289.2434339221109
 20
340.3214654811563
 30
0.0
 11
289.2434339221109
 21
284.5357565377108
 31
0.0
  0
ARC
  5
46DB
330
4621
100
AcDbEntity
  8
配線図
 62
     0
100
AcDbCircle
 10
274.2190910754907
 20
272.5082274164979
 30
0.0
 40
2.028571234307112
100
AcDbArc
 50
90.0
 51
151.3895403339599
  0
LINE
  5
46DC
330
4621
100
AcDbEntity
  8
配線図
 62
     0
100
AcDbLine
 10
272.4382173695558
 20
339.2642799046389
 30
0.0
 11
266.9291503447312
 21
329.1643236924674
 31
0.0
  0
ARC
  5
46DD
330
4621
100
AcDbEntity
  8
配線図
 62
     0
100
AcDbCircle
 10
274.2190910754907
 20
338.2928942468425
 30
0.0
 40
2.028571234307112
100
AcDbArc
 50
90.0
 51
151.3895403340057
  0
ARC
  5
46DE
330
4621
100
AcDbEntity
  8
配線図
 62
     0
100
AcDbCircle
 10
274.2190910754907
 20
286.5643277720119
 30
0.0
 40
2.028571234307112
100
AcDbArc
 50
208.6104596659943
 51
270.0
  0
LINE
  5
46DF
330
4621
100
AcDbEntity
  8
配線図
 62
     0
100
AcDbLine
 10
272.4382173695558
 20
285.5929421142282
 30
0.0
 11
266.9291503447312
 21
295.6928983263997
 31
0.0
  0
LINE
  5
46E0
330
4621
100
AcDbEntity
  8
配線図
 62
     0
100
AcDbLine
 10
264.9005791104209
 20
295.6928983263997
 30
0.0
 11
264.9005791104209
 21
329.1643236924674
 31
0.0
  0
LINE
  5
46E1
330
4621
100
AcDbEntity
  8
配線図
 62
     0
100
AcDbLine
 10
266.9291503447312
 20
295.6928983263997
 30
0.0
 11
266.9291503447312
 21
329.1643236924674
 31
0.0
  0
LINE
  5
46E2
330
4621
100
AcDbEntity
  8
配線図
 62
     0
100
AcDbLine
 10
279.100577750567
 20
284.5357565377108
 30
0.0
 11
279.100577750567
 21
340.3214654811563
 31
0.0
  0
LINE
  5
46E3
330
4621
100
AcDbEntity
  8
配線図
 62
     0
100
AcDbLine
 10
273.0148640476509
 20
284.9318638311961
 30
0.0
 11
273.0148640476509
 21
339.925358187671
 31
0.0
  0
LINE
  5
46E4
330
4621
100
AcDbEntity
  8
配線図
 62
     0
100
AcDbLine
 10
289.2434339221109
 20
274.536798650799
 30
0.0
 11
274.2190910754907
 21
274.536798650799
 31
0.0
  0
LINE
  5
46E5
330
4621
100
AcDbEntity
  8
配線図
 62
     0
100
AcDbLine
 10
289.2434339221109
 20
340.3214654811563
 30
0.0
 11
274.2190910754907
 21
340.3214654811563
 31
0.0
  0
LINE
  5
46E6
330
4621
100
AcDbEntity
  8
配線図
 62
     0
100
AcDbLine
 10
289.2434339221109
 20
284.5357565377108
 30
0.0
 11
274.2190910754907
 21
284.5357565377108
 31
0.0
  0
HATCH
  5
46E7
330
4621
100
AcDbEntity
  8
0
100
AcDbHatch
 10
0.0
 20
0.0
 30
0.0
210
0.0
220
0.0
230
1.0
  2
SOLID
 70
     1
 71
     0
 91
        1
 92
        1
 93
        1
 72
     2
 10
314.4566652324611
 20
292.1428932494364
 40
4.0
 50
0.0
 51
360.0
 73
     1
 97
        0
 75
     0
 76
     1
 98
        1
 10
-1834.076457491942
 20
4121.818015835217
  0
LINE
  5
46E8
330
4621
100
AcDbEntity
  8
配線図
 62
     0
100
AcDbLine
 10
573.4149056905844
 20
464.5714942094282
 30
0.0
 11
263.0980139441672
 21
464.5714942094282
 31
0.0
  0
LINE
  5
46E9
330
4621
100
AcDbEntity
  8
配線図
 62
     0
100
AcDbLine
 10
573.4149056905844
 20
424.0000586894312
 30
0.0
 11
263.0980139441672
 21
424.0000586894312
 31
0.0
  0
LINE
  5
46EA
330
4621
100
AcDbEntity
  8
配線図
 62
     0
100
AcDbLine
 10
289.2434339221109
 20
332.7143287694325
 30
0.0
 11
573.4149056905844
 21
332.7143287694325
 31
0.0
  0
LINE
  5
46EB
330
4621
100
AcDbEntity
  8
配線図
 62
     0
100
AcDbLine
 10
289.2434339221109
 20
292.1428932494346
 30
0.0
 11
573.4149056905844
 21
292.1428932494346
 31
0.0
  0
ARC
  5
46EC
330
4621
100
AcDbEntity
  8
配線図
 62
     0
100
AcDbCircle
 10
233.9648698185847
 20
444.2857764494347
 30
0.0
 40
35.50000608000001
100
AcDbArc
 50
270.0
 51
90.0
  0
LINE
  5
46ED
330
4621
100
AcDbEntity
  8
配線図
 62
     0
100
AcDbLine
 10
779.4017287963579
 20
474.71435308943
 30
0.0
 11
779.4017287963579
 21
576.1429418894304
 31
0.0
  0
TEXT
  5
46EE
330
4621
100
AcDbEntity
  8
文字
 62
     0
100
AcDbText
 10
608.5912880617325
 20
467.6361353851262
 30
0.0
 40
20.28571776
  1
ﾀﾞｲﾀﾞｲ(電源)
  7
注記
100
AcDbText
  0
TEXT
  5
46EF
330
4621
100
AcDbEntity
  8
文字
 62
     0
100
AcDbText
 10
592.1328614380072
 20
467.4032603472679
 30
0.0
 40
15.21428832
  1
1
  7
注記
100
AcDbText
  0
LINE
  5
46F0
330
4621
100
AcDbEntity
  8
配線図
 62
     0
100
AcDbLine
 10
579.500621018582
 20
484.8572119694327
 30
0.0
 11
579.500621018582
 21
470.657209537434
 31
0.0
  0
LINE
  5
46F1
330
4621
100
AcDbEntity
  8
配線図
 62
     0
100
AcDbLine
 10
604.8577682185824
 20
403.7143409294258
 30
0.0
 11
604.8577682185824
 21
484.8572119694327
 31
0.0
  0
LINE
  5
46F2
330
4621
100
AcDbEntity
  8
配線図
 62
     0
100
AcDbLine
 10
554.1434738185853
 20
484.8572119694327
 30
0.0
 11
554.1434738185853
 21
403.7143409294258
 31
0.0
  0
TEXT
  5
46F3
330
4621
100
AcDbEntity
  8
配線図
 62
     0
100
AcDbText
 10
212.6835235717735
 20
617.7353111262719
 30
0.0
 40
40.82215301754091
  1
M
  7
注記
100
AcDbText
  0
TEXT
  5
46F4
330
4621
100
AcDbEntity
  8
文字
 62
     0
100
AcDbText
 10
-1.38023467023595
 20
623.7090951798391
 30
0.0
 40
20.703603545856
  1
ファンモーター
  7
注記
100
AcDbText
  0
TEXT
  5
46F5
330
4621
100
AcDbEntity
  8
文字
 62
     0
100
AcDbText
 10
592.1328614380072
 20
739.3130257173525
 30
0.0
 40
15.21428832
  1
1
  7
注記
100
AcDbText
  0
LINE
  5
46F6
330
4621
100
AcDbEntity
  8
配線図
 62
     0
100
AcDbLine
 10
579.500621018582
 20
758.7144017294377
 30
0.0
 11
579.500621018582
 21
744.5143992974263
 31
0.0
  0
LINE
  5
46F7
330
4621
100
AcDbEntity
  8
配線図
 62
     0
100
AcDbLine
 10
604.8577682185824
 20
758.7144017294377
 30
0.0
 11
554.1434738185853
 21
758.7144017294377
 31
0.0
  0
CIRCLE
  5
46F8
330
4621
100
AcDbEntity
  8
配線図
 62
     0
100
AcDbCircle
 10
579.500621018582
 20
738.4286839694323
 30
0.0
 40
6.085715328000001
  0
TEXT
  5
46F9
330
4621
100
AcDbEntity
  8
文字
 62
     0
100
AcDbText
 10
528.1955743506551
 20
742.1386734912667
 30
0.0
 40
20.28571776
  1
黄
  7
注記
100
AcDbText
  0
CIRCLE
  5
46FA
330
4621
100
AcDbEntity
  8
配線図
 62
     0
100
AcDbCircle
 10
579.500621018582
 20
697.8572484494343
 30
0.0
 40
6.085715328000001
  0
TEXT
  5
46FB
330
4621
100
AcDbEntity
  8
文字
 62
     0
100
AcDbText
 10
608.5912880617325
 20
660.3504541051225
 30
0.0
 40
20.28571776
  1
黒(強)
  7
注記
100
AcDbText
  0
TEXT
  5
46FC
330
4621
100
AcDbEntity
  8
文字
 62
     0
100
AcDbText
 10
589.150382456286
 20
660.4699872591227
 30
0.0
 40
15.21428832
  1
3
  7
注記
100
AcDbText
  0
LINE
  5
46FD
330
4621
100
AcDbEntity
  8
配線図
 62
     0
100
AcDbLine
 10
579.500621018582
 20
691.7715331214295
 30
0.0
 11
579.500621018582
 21
663.3715282574321
 31
0.0
  0
CIRCLE
  5
46FE
330
4621
100
AcDbEntity
  8
配線図
 62
     0
100
AcDbCircle
 10
579.500621018582
 20
657.2858129294373
 30
0.0
 40
6.085715328000001
  0
TEXT
  5
46FF
330
4621
100
AcDbEntity
  8
文字
 62
     0
100
AcDbText
 10
589.150382456286
 20
619.546143547268
 30
0.0
 40
15.21428832
  1
4
  7
注記
100
AcDbText
  0
CIRCLE
  5
4700
330
4621
100
AcDbEntity
  8
配線図
 62
     0
100
AcDbCircle
 10
579.500621018582
 20
616.7143774094284
 30
0.0
 40
6.085715328000001
  0
LINE
  5
4701
330
4621
100
AcDbEntity
  8
配線図
 62
     0
100
AcDbLine
 10
579.500621018582
 20
651.2000976014315
 30
0.0
 11
579.500621018582
 21
622.8000927374342
 31
0.0
  0
TEXT
  5
4702
330
4621
100
AcDbEntity
  8
文字
 62
     0
100
AcDbText
 10
528.1955743506551
 20
660.5746733595834
 30
0.0
 40
20.28571776
  1
黒
  7
注記
100
AcDbText
  0
TEXT
  5
4703
330
4621
100
AcDbEntity
  8
文字
 62
     0
100
AcDbText
 10
528.1955743506551
 20
619.7790185851263
 30
0.0
 40
20.28571776
  1
赤
  7
注記
100
AcDbText
  0
TEXT
  5
4704
330
4621
100
AcDbEntity
  8
文字
 62
     0
100
AcDbText
 10
589.6467012616158
 20
700.689014587264
 30
0.0
 40
15.21428832
  1
2
  7
注記
100
AcDbText
  0
LINE
  5
4705
330
4621
100
AcDbEntity
  8
配線図
 62
     0
100
AcDbLine
 10
579.500621018582
 20
732.3429686414383
 30
0.0
 11
579.500621018582
 21
703.9429637774292
 31
0.0
  0
TEXT
  5
4706
330
4621
100
AcDbEntity
  8
文字
 62
     0
100
AcDbText
 10
608.5912880617325
 20
700.9218896251323
 30
0.0
 40
20.28571776
  1
青(弱)
  7
注記
100
AcDbText
  0
TEXT
  5
4707
330
4621
100
AcDbEntity
  8
文字
 62
     0
100
AcDbText
 10
528.1955743506551
 20
700.9218896251323
 30
0.0
 40
20.28571776
  1
青
  7
注記
100
AcDbText
  0
TEXT
  5
4708
330
4621
100
AcDbEntity
  8
文字
 62
     0
100
AcDbText
 10
608.5912880617325
 20
619.7790185851263
 30
0.0
 40
20.28571776
  1
赤(ｺﾝﾃﾞﾝｻｰ)
  7
注記
100
AcDbText
  0
LINE
  5
4709
330
4621
100
AcDbEntity
  8
配線図
 62
     0
100
AcDbLine
 10
307.5005966985882
 20
697.8572484494343
 30
0.0
 11
262.9360807306548
 21
672.1279131590418
 31
0.0
  0
LINE
  5
470A
330
4621
100
AcDbEntity
  8
配線図
 62
     0
100
AcDbLine
 10
307.5005966985882
 20
738.4286839694323
 30
0.0
 11
250.6109747268056
 21
681.5390619976506
 31
0.0
  0
LINE
  5
470B
330
4621
100
AcDbEntity
  8
配線図
 62
     0
100
AcDbLine
 10
307.5005966985882
 20
738.4286839694323
 30
0.0
 11
573.4149056905844
 21
738.4286839694323
 31
0.0
  0
LINE
  5
470C
330
4621
100
AcDbEntity
  8
配線図
 62
     0
100
AcDbLine
 10
573.4149056905844
 20
697.8572484494343
 30
0.0
 11
307.5005966985882
 21
697.8572484494343
 31
0.0
  0
LINE
  5
470D
330
4621
100
AcDbEntity
  8
配線図
 62
     0
100
AcDbLine
 10
272.8381442394457
 20
657.2858129294373
 30
0.0
 11
573.4149056905844
 21
657.2858129294364
 31
0.0
  0
LINE
  5
470E
330
4621
100
AcDbEntity
  8
配線図
 62
     0
100
AcDbLine
 10
272.8381442394457
 20
616.7143774094284
 30
0.0
 11
573.4149056905844
 21
616.7143774094293
 31
0.0
  0
LINE
  5
470F
330
4621
100
AcDbEntity
  8
配線図
 62
     0
100
AcDbLine
 10
1073.286442138582
 20
621.7858068494352
 30
0.0
 11
1073.286442138582
 21
586.2858007694331
 31
0.0
  0
LINE
  5
4710
330
4621
100
AcDbEntity
  8
配線図
 62
     0
100
AcDbLine
 10
1128.873211344337
 20
579.1857995534274
 30
0.0
 11
1107.791675047345
 21
591.357230209429
 31
0.0
  0
LINE
  5
4711
330
4621
100
AcDbEntity
  8
配線図
 62
     0
100
AcDbLine
 10
1170.657887386587
 20
439.2143470094279
 30
0.0
 11
1170.657887386587
 21
775.1270900512682
 31
0.0
  0
LINE
  5
4712
330
4621
100
AcDbEntity
  8
配線図
 62
     0
100
AcDbLine
 10
1155.443599066588
 20
738.4286839694323
 30
0.0
 11
1155.443599066588
 21
464.5714942094282
 31
0.0
  0
LINE
  5
4713
330
4621
100
AcDbEntity
  8
配線図
 62
     0
100
AcDbLine
 10
1002.286429978591
 20
647.1429540494346
 30
0.0
 11
1002.286429978591
 21
576.1429418894304
 31
0.0
  0
LINE
  5
4714
330
4621
100
AcDbEntity
  8
配線図
 62
     0
100
AcDbLine
 10
900.2864056585895
 20
559.0159426837481
 30
0.0
 11
900.2864056585895
 21
616.7143774094284
 31
0.0
  0
LINE
  5
4715
330
4621
100
AcDbEntity
  8
配線図
 62
     0
100
AcDbLine
 10
1048.943580826592
 20
439.2143470094279
 30
0.0
 11
1048.943580826592
 21
775.1270900512682
 31
0.0
  0
LINE
  5
4716
330
4621
100
AcDbEntity
  8
配線図
 62
     0
100
AcDbLine
 10
961.7149944585908
 20
647.1429540494346
 30
0.0
 11
961.7149944585908
 21
474.71435308943
 31
0.0
  0
LINE
  5
4717
330
4621
100
AcDbEntity
  8
配線図
 62
     0
100
AcDbLine
 10
1002.286429978591
 20
454.4286353294265
 30
0.0
 11
1002.286429978591
 21
20.0000100382349
 31
0.0
  0
TEXT
  5
4718
330
4621
100
AcDbEntity
  8
文字
 62
     0
100
AcDbText
 10
1250.560758994347
 20
547.057668679352
 30
0.0
 40
30.42857664000001
  1
弱
  7
注記
100
AcDbText
  0
LINE
  5
4719
330
4621
100
AcDbEntity
  8
配線図
 62
     0
100
AcDbLine
 10
1180.800746266585
 20
489.9286414094277
 30
0.0
 11
1170.657887386587
 21
489.9286414094277
 31
0.0
  0
LINE
  5
471A
330
4621
100
AcDbEntity
  8
配線図
 62
     0
100
AcDbLine
 10
1180.800746266585
 20
571.0715124494345
 30
0.0
 11
1170.657887386587
 21
571.0715124494345
 31
0.0
  0
LINE
  5
471B
330
4621
100
AcDbEntity
  8
配線図
 62
     0
100
AcDbLine
 10
1180.800746266585
 20
550.7857946894301
 30
0.0
 11
1170.657887386587
 21
550.7857946894301
 31
0.0
  0
LINE
  5
471C
330
4621
100
AcDbEntity
  8
配線図
 62
     0
100
AcDbLine
 10
1128.873211344337
 20
543.6857934734362
 30
0.0
 11
1107.791675047345
 21
555.857224129426
 31
0.0
  0
LINE
  5
471D
330
4621
100
AcDbEntity
  8
配線図
 62
     0
100
AcDbLine
 10
1073.286442138582
 20
566.0000830094277
 30
0.0
 11
1073.286442138582
 21
540.6429358094283
 31
0.0
  0
ARC
  5
471E
330
4621
100
AcDbEntity
  8
配線図
 62
     0
100
AcDbCircle
 10
1073.286442138582
 20
576.1429418894304
 30
0.0
 40
10.14285888
100
AcDbArc
 50
270.0
 51
90.0
  0
CIRCLE
  5
471F
330
4621
100
AcDbEntity
  8
配線図
 62
     0
100
AcDbCircle
 10
1103.715018778588
 20
576.1429418894304
 30
0.0
 40
6.085715328000001
  0
CIRCLE
  5
4720
330
4621
100
AcDbEntity
  8
配線図
 62
     0
100
AcDbCircle
 10
1103.715018778588
 20
540.6429358094283
 30
0.0
 40
6.085715328000001
  0
CIRCLE
  5
4721
330
4621
100
AcDbEntity
  8
配線図
 62
     0
100
AcDbCircle
 10
1134.143595418584
 20
495.0000708494345
 30
0.0
 40
6.085715328000001
  0
LINE
  5
4722
330
4621
100
AcDbEntity
  8
配線図
 62
     0
100
AcDbLine
 10
1140.229310746592
 20
495.0000708494345
 30
0.0
 11
1155.443599066588
 21
495.0000708494345
 31
0.0
  0
CIRCLE
  5
4723
330
4621
100
AcDbEntity
  8
配線図
 62
     0
100
AcDbCircle
 10
1134.143595418584
 20
576.1429418894304
 30
0.0
 40
6.085715328000001
  0
CIRCLE
  5
4724
330
4621
100
AcDbEntity
  8
配線図
 62
     0
100
AcDbCircle
 10
1134.143595418584
 20
540.6429358094283
 30
0.0
 40
6.085715328000001
  0
LINE
  5
4725
330
4621
100
AcDbEntity
  8
配線図
  6
DASHED2
 62
     0
100
AcDbLine
 10
1134.143595418584
 20
546.7286511374332
 30
0.0
 11
1134.143595418584
 21
570.0572265614364
 31
0.0
  0
LINE
  5
4726
330
4621
100
AcDbEntity
  8
配線図
 62
     0
100
AcDbLine
 10
1140.229310746592
 20
576.1429418894304
 30
0.0
 11
1155.443599066588
 21
576.1429418894304
 31
0.0
  0
LINE
  5
4727
330
4621
100
AcDbEntity
  8
配線図
 62
     0
100
AcDbLine
 10
1140.229310746592
 20
540.6429358094283
 30
0.0
 11
1155.443599066588
 21
540.6429358094283
 31
0.0
  0
ARC
  5
4728
330
4621
100
AcDbEntity
  8
配線図
 62
     0
100
AcDbCircle
 10
1223.268204362226
 20
495.0000708494345
 30
0.0
 40
5.071429440000001
100
AcDbArc
 50
23.57817847817285
 51
90.0
  0
ARC
  5
4729
330
4621
100
AcDbEntity
  8
配線図
 62
     0
100
AcDbCircle
 10
1188.407890426592
 20
560.9286535694318
 30
0.0
 40
43.1071502399998
100
AcDbArc
 50
336.4218215218272
 51
23.57817847817285
  0
ARC
  5
472A
330
4621
100
AcDbEntity
  8
配線図
 62
     0
100
AcDbCircle
 10
1223.268204362226
 20
545.7143652494351
 30
0.0
 40
5.071429440000001
100
AcDbArc
 50
270.0
 51
336.4218215218272
  0
ARC
  5
472B
330
4621
100
AcDbEntity
  8
配線図
 62
     0
100
AcDbCircle
 10
1223.268204362226
 20
576.1429418894304
 30
0.0
 40
5.071429440000001
100
AcDbArc
 50
23.57817847817285
 51
90.0
  0
LINE
  5
472C
330
4621
100
AcDbEntity
  8
配線図
 62
     0
100
AcDbLine
 10
1180.800746266585
 20
540.6429358094283
 30
0.0
 11
1180.800746266585
 21
581.2143713294254
 31
0.0
  0
LINE
  5
472D
330
4621
100
AcDbEntity
  8
配線図
 62
     0
100
AcDbLine
 10
1180.800746266585
 20
540.6429358094283
 30
0.0
 11
1223.268204362226
 21
540.6429358094283
 31
0.0
  0
LINE
  5
472E
330
4621
100
AcDbEntity
  8
配線図
 62
     0
100
AcDbLine
 10
1180.800746266585
 20
581.2143713294254
 30
0.0
 11
1223.268204362226
 21
581.2143713294254
 31
0.0
  0
LINE
  5
472F
330
4621
100
AcDbEntity
  8
配線図
 62
     0
100
AcDbLine
 10
1180.800746266585
 20
500.0715002894303
 30
0.0
 11
1223.268204362226
 21
500.0715002894303
 31
0.0
  0
HATCH
  5
4730
330
4621
100
AcDbEntity
  8
0
100
AcDbHatch
 10
0.0
 20
0.0
 30
0.0
210
0.0
220
0.0
230
1.0
  2
SOLID
 70
     1
 71
     0
 91
        1
 92
        1
 93
        1
 72
     2
 10
1073.286442138582
 20
540.6429358094283
 40
4.0
 50
0.0
 51
360.0
 73
     1
 97
        0
 75
     0
 76
     1
 98
        1
 10
-1075.24668058582
 20
4370.318058395211
  0
LINE
  5
4731
330
4621
100
AcDbEntity
  8
配線図
 62
     0
100
AcDbLine
 10
1180.800746266585
 20
469.642923649435
 30
0.0
 11
1170.657887386587
 21
469.642923649435
 31
0.0
  0
ARC
  5
4732
330
4621
100
AcDbEntity
  8
配線図
 62
     0
100
AcDbCircle
 10
1223.268204362226
 20
464.5714942094282
 30
0.0
 40
5.071429440000001
100
AcDbArc
 50
270.0
 51
336.4218215218272
  0
LINE
  5
4733
330
4621
100
AcDbEntity
  8
配線図
 62
     0
100
AcDbLine
 10
1180.800746266585
 20
459.5000647694333
 30
0.0
 11
1223.268204362226
 21
459.5000647694333
 31
0.0
  0
ARC
  5
4734
330
4621
100
AcDbEntity
  8
配線図
 62
     0
100
AcDbCircle
 10
1188.407890426592
 20
479.785782529425
 30
0.0
 40
43.1071502399998
100
AcDbArc
 50
336.4218215218272
 51
23.57817847817285
  0
LINE
  5
4735
330
4621
100
AcDbEntity
  8
配線図
 62
     0
100
AcDbLine
 10
1180.800746266585
 20
459.5000647694333
 30
0.0
 11
1180.800746266585
 21
500.0715002894303
 31
0.0
  0
TEXT
  5
4736
330
4621
100
AcDbEntity
  8
文字
 62
     0
100
AcDbText
 10
1250.560758994347
 20
465.9147976393451
 30
0.0
 40
30.42857664000001
  1
切
  7
注記
100
AcDbText
  0
LINE
  5
4737
330
4621
100
AcDbEntity
  8
配線図
 62
     0
100
AcDbLine
 10
920.5721234185839
 20
498.1587894037566
 30
0.0
 11
920.5721234185839
 21
553.9445132437522
 31
0.0
  0
LINE
  5
4738
330
4621
100
AcDbEntity
  8
配線図
 62
     0
100
AcDbLine
 10
864.7863995785883
 20
559.0159426837481
 30
0.0
 11
864.7863995785883
 21
553.9445132437522
 31
0.0
  0
LINE
  5
4739
330
4621
100
AcDbEntity
  8
配線図
 62
     0
100
AcDbLine
 10
839.429252378588
 20
553.9445132437522
 30
0.0
 11
839.429252378588
 21
498.1587894037566
 31
0.0
  0
LINE
  5
473A
330
4621
100
AcDbEntity
  8
配線図
 62
     0
100
AcDbLine
 10
854.6435406985875
 20
559.0159426837481
 30
0.0
 11
854.6435406985875
 21
553.9445132437522
 31
0.0
  0
LINE
  5
473B
330
4621
100
AcDbEntity
  8
配線図
 62
     0
100
AcDbLine
 10
859.7149701385824
 20
559.0159426837481
 30
0.0
 11
859.7149701385824
 21
576.1429418894304
 31
0.0
  0
LINE
  5
473C
330
4621
100
AcDbEntity
  8
配線図
 62
     0
100
AcDbLine
 10
854.6435406985875
 20
559.0159426837481
 30
0.0
 11
864.7863995785883
 21
559.0159426837481
 31
0.0
  0
LINE
  5
473D
330
4621
100
AcDbEntity
  8
配線図
 62
     0
100
AcDbLine
 10
895.2149762185873
 20
559.0159426837481
 30
0.0
 11
905.3578350985881
 21
559.0159426837481
 31
0.0
  0
LINE
  5
473E
330
4621
100
AcDbEntity
  8
配線図
 62
     0
100
AcDbLine
 10
895.2149762185873
 20
559.0159426837481
 30
0.0
 11
895.2149762185873
 21
553.9445132437522
 31
0.0
  0
LINE
  5
473F
330
4621
100
AcDbEntity
  8
配線図
 62
     0
100
AcDbLine
 10
905.3578350985881
 20
559.0159426837481
 30
0.0
 11
905.3578350985881
 21
553.9445132437522
 31
0.0
  0
TEXT
  5
4740
330
4621
100
AcDbEntity
  8
文字
100
AcDbText
 10
853.5120653399426
 20
502.043108449916
 30
0.0
 40
19.9999999888
  1
8μF
  7
注記
100
AcDbText
  0
TEXT
  5
4741
330
4621
100
AcDbEntity
  8
文字
 62
     0
100
AcDbText
 10
842.1566251437835
 20
527.7257895678995
 30
0.0
 40
20.28571776
  1
ｺﾝﾃﾞﾝｻｰ
  7
注記
100
AcDbText
  0
LINE
  5
4742
330
4621
100
AcDbEntity
  8
配線図
 62
     0
100
AcDbLine
 10
920.5721234185839
 20
553.9445132437522
 30
0.0
 11
839.429252378588
 21
553.9445132437522
 31
0.0
  0
LINE
  5
4743
330
4621
100
AcDbEntity
  8
配線図
 62
     0
100
AcDbLine
 10
839.429252378588
 20
498.1587894037566
 30
0.0
 11
920.5721234185839
 21
498.1587894037566
 31
0.0
  0
LINE
  5
4744
330
4621
100
AcDbEntity
  8
配線図
 62
     0
100
AcDbLine
 10
961.7149944585908
 20
454.4286353294265
 30
0.0
 11
961.7149944585908
 21
332.7143287694325
 31
0.0
  0
ARC
  5
4745
330
4621
100
AcDbEntity
  8
配線図
 62
     0
100
AcDbCircle
 10
961.7149944585908
 20
464.5714942094282
 30
0.0
 40
10.14285888
100
AcDbArc
 50
270.0
 51
90.0
  0
ARC
  5
4746
330
4621
100
AcDbEntity
  8
配線図
 62
     0
100
AcDbCircle
 10
1002.286429978591
 20
464.5714942094282
 30
0.0
 40
10.14285888
100
AcDbArc
 50
270.0
 51
90.0
  0
LINE
  5
4747
330
4621
100
AcDbEntity
  8
配線図
 62
     0
100
AcDbLine
 10
1002.286429978591
 20
540.6429358094283
 30
0.0
 11
1002.286429978591
 21
474.71435308943
 31
0.0
  0
LINE
  5
4748
330
4621
100
AcDbEntity
  8
配線図
 62
     0
100
AcDbLine
 10
1002.286429978591
 20
576.1429418894304
 30
0.0
 11
1097.629303450583
 21
576.1429418894304
 31
0.0
  0
LINE
  5
4749
330
4621
100
AcDbEntity
  8
配線図
 62
     0
100
AcDbLine
 10
1002.286429978591
 20
540.6429358094283
 30
0.0
 11
1097.629303450583
 21
540.6429358094283
 31
0.0
  0
LINE
  5
474A
330
4621
100
AcDbEntity
  8
配線図
 62
     0
100
AcDbLine
 10
1048.943580826592
 20
439.2143470094279
 30
0.0
 11
1170.657887386587
 21
439.2143470094279
 31
0.0
  0
LINE
  5
474B
330
4621
100
AcDbEntity
  8
配線図
 62
     0
100
AcDbLine
 10
1180.800746266585
 20
733.3572545294255
 30
0.0
 11
1170.657887386587
 21
733.3572545294255
 31
0.0
  0
LINE
  5
474C
330
4621
100
AcDbEntity
  8
配線図
 62
     0
100
AcDbLine
 10
1128.873211344337
 20
741.4715416334302
 30
0.0
 11
1107.791675047345
 21
753.64297228943
 31
0.0
  0
CIRCLE
  5
474D
330
4621
100
AcDbEntity
  8
配線図
 62
     0
100
AcDbCircle
 10
1103.715018778588
 20
738.4286839694323
 30
0.0
 40
6.085715328000001
  0
CIRCLE
  5
474E
330
4621
100
AcDbEntity
  8
配線図
 62
     0
100
AcDbCircle
 10
1134.143595418584
 20
738.4286839694323
 30
0.0
 40
6.085715328000001
  0
LINE
  5
474F
330
4621
100
AcDbEntity
  8
配線図
 62
     0
100
AcDbLine
 10
1140.229310746592
 20
738.4286839694323
 30
0.0
 11
1155.443599066588
 21
738.4286839694323
 31
0.0
  0
ARC
  5
4750
330
4621
100
AcDbEntity
  8
配線図
 62
     0
100
AcDbCircle
 10
1223.268204362226
 20
738.4286839694323
 30
0.0
 40
5.071429440000001
100
AcDbArc
 50
23.57817847817285
 51
90.0
  0
LINE
  5
4751
330
4621
100
AcDbEntity
  8
配線図
 62
     0
100
AcDbLine
 10
1180.800746266585
 20
743.5001134094291
 30
0.0
 11
1223.268204362226
 21
743.5001134094291
 31
0.0
  0
TEXT
  5
4752
330
4621
100
AcDbEntity
  8
文字
 62
     0
100
AcDbText
 10
1250.560758994347
 20
628.200539719347
 30
0.0
 40
30.42857664000001
  1
強
  7
注記
100
AcDbText
  0
LINE
  5
4753
330
4621
100
AcDbEntity
  8
配線図
 62
     0
100
AcDbLine
 10
1180.800746266585
 20
713.0715367694329
 30
0.0
 11
1170.657887386587
 21
713.0715367694329
 31
0.0
  0
LINE
  5
4754
330
4621
100
AcDbEntity
  8
配線図
 62
     0
100
AcDbLine
 10
1180.800746266585
 20
652.2143834894305
 30
0.0
 11
1170.657887386587
 21
652.2143834894305
 31
0.0
  0
LINE
  5
4755
330
4621
100
AcDbEntity
  8
配線図
 62
     0
100
AcDbLine
 10
1180.800746266585
 20
631.9286657294251
 30
0.0
 11
1170.657887386587
 21
631.9286657294251
 31
0.0
  0
CIRCLE
  5
4756
330
4621
100
AcDbEntity
  8
配線図
 62
     0
100
AcDbCircle
 10
1134.143595418584
 20
621.7858068494352
 30
0.0
 40
6.085715328000001
  0
CIRCLE
  5
4757
330
4621
100
AcDbEntity
  8
配線図
 62
     0
100
AcDbCircle
 10
1103.715018778588
 20
621.7858068494352
 30
0.0
 40
6.085715328000001
  0
LINE
  5
4758
330
4621
100
AcDbEntity
  8
配線図
 62
     0
100
AcDbLine
 10
1128.873211344337
 20
660.3286705934352
 30
0.0
 11
1107.791675047345
 21
672.5001012494349
 31
0.0
  0
LINE
  5
4759
330
4621
100
AcDbEntity
  8
配線図
 62
     0
100
AcDbLine
 10
1128.873211344337
 20
624.8286645134322
 30
0.0
 11
1107.791675047345
 21
637.0000951694328
 31
0.0
  0
LINE
  5
475A
330
4621
100
AcDbEntity
  8
配線図
 62
     0
100
AcDbLine
 10
1073.286442138582
 20
621.7858068494352
 30
0.0
 11
1097.629303450583
 21
621.7858068494352
 31
0.0
  0
CIRCLE
  5
475B
330
4621
100
AcDbEntity
  8
配線図
 62
     0
100
AcDbCircle
 10
1103.715018778588
 20
657.2858129294254
 30
0.0
 40
6.085715328000001
  0
CIRCLE
  5
475C
330
4621
100
AcDbEntity
  8
配線図
 62
     0
100
AcDbCircle
 10
1134.143595418584
 20
657.2858129294254
 30
0.0
 40
6.085715328000001
  0
LINE
  5
475D
330
4621
100
AcDbEntity
  8
配線図
  6
DASHED2
 62
     0
100
AcDbLine
 10
1134.143595418584
 20
627.8715221774291
 30
0.0
 11
1134.143595418584
 21
651.2000976014315
 31
0.0
  0
LINE
  5
475E
330
4621
100
AcDbEntity
  8
配線図
 62
     0
100
AcDbLine
 10
1140.229310746592
 20
657.2858129294254
 30
0.0
 11
1155.443599066588
 21
657.2858129294254
 31
0.0
  0
LINE
  5
475F
330
4621
100
AcDbEntity
  8
配線図
 62
     0
100
AcDbLine
 10
1140.229310746592
 20
621.7858068494352
 30
0.0
 11
1155.443599066588
 21
621.7858068494352
 31
0.0
  0
ARC
  5
4760
330
4621
100
AcDbEntity
  8
配線図
 62
     0
100
AcDbCircle
 10
1223.268204362226
 20
708.0001073294261
 30
0.0
 40
5.071429440000001
100
AcDbArc
 50
270.0
 51
336.4218215218272
  0
ARC
  5
4761
330
4621
100
AcDbEntity
  8
配線図
 62
     0
100
AcDbCircle
 10
1223.268204362226
 20
657.2858129294254
 30
0.0
 40
5.071429440000001
100
AcDbArc
 50
23.57817847817285
 51
90.0
  0
ARC
  5
4762
330
4621
100
AcDbEntity
  8
配線図
 62
     0
100
AcDbCircle
 10
1223.268204362226
 20
626.8572362894301
 30
0.0
 40
5.071429440000001
100
AcDbArc
 50
270.0
 51
336.4218215218272
  0
ARC
  5
4763
330
4621
100
AcDbEntity
  8
配線図
 62
     0
100
AcDbCircle
 10
1188.407890426592
 20
642.0715246094278
 30
0.0
 40
43.1071502399998
100
AcDbArc
 50
336.4218215218272
 51
23.57817847817285
  0
LINE
  5
4764
330
4621
100
AcDbEntity
  8
配線図
 62
     0
100
AcDbLine
 10
1180.800746266585
 20
621.7858068494352
 30
0.0
 11
1180.800746266585
 21
662.3572423694322
 31
0.0
  0
LINE
  5
4765
330
4621
100
AcDbEntity
  8
配線図
 62
     0
100
AcDbLine
 10
1180.800746266585
 20
702.9286778894293
 30
0.0
 11
1223.268204362226
 21
702.9286778894293
 31
0.0
  0
LINE
  5
4766
330
4621
100
AcDbEntity
  8
配線図
 62
     0
100
AcDbLine
 10
1180.800746266585
 20
662.3572423694322
 30
0.0
 11
1223.268204362226
 21
662.3572423694322
 31
0.0
  0
LINE
  5
4767
330
4621
100
AcDbEntity
  8
配線図
 62
     0
100
AcDbLine
 10
1180.800746266585
 20
621.7858068494352
 30
0.0
 11
1223.268204362226
 21
621.7858068494352
 31
0.0
  0
TEXT
  5
4768
330
4621
100
AcDbEntity
  8
文字
 62
     0
100
AcDbText
 10
1250.560758994347
 20
709.3434107593421
 30
0.0
 40
30.42857664000001
  1
照明
  7
注記
100
AcDbText
  0
ARC
  5
4769
330
4621
100
AcDbEntity
  8
配線図
 62
     0
100
AcDbCircle
 10
1188.407890426592
 20
723.2143956494347
 30
0.0
 40
43.1071502399998
100
AcDbArc
 50
336.4218215218272
 51
23.57817847817285
  0
LINE
  5
476A
330
4621
100
AcDbEntity
  8
配線図
 62
     0
100
AcDbLine
 10
1180.800746266585
 20
702.9286778894293
 30
0.0
 11
1180.800746266585
 21
743.5001134094291
 31
0.0
  0
ARC
  5
476B
330
4621
100
AcDbEntity
  8
配線図
 62
     0
100
AcDbCircle
 10
961.7149944585908
 20
697.8572484494343
 30
0.0
 40
10.14285888
100
AcDbArc
 50
270.0
 51
90.0
  0
ARC
  5
476C
330
4621
100
AcDbEntity
  8
配線図
 62
     0
100
AcDbCircle
 10
961.7149944585908
 20
657.2858129294254
 30
0.0
 40
10.14285888
100
AcDbArc
 50
270.0
 51
90.0
  0
LINE
  5
476D
330
4621
100
AcDbEntity
  8
配線図
 62
     0
100
AcDbLine
 10
961.7149944585908
 20
687.7143895694317
 30
0.0
 11
961.7149944585908
 21
667.4286718094281
 31
0.0
  0
ARC
  5
476E
330
4621
100
AcDbEntity
  8
配線図
 62
     0
100
AcDbCircle
 10
1002.286429978591
 20
657.2858129294254
 30
0.0
 40
10.14285888
100
AcDbArc
 50
270.0
 51
90.0
  0
LINE
  5
476F
330
4621
100
AcDbEntity
  8
配線図
 62
     0
100
AcDbLine
 10
1002.286429978591
 20
697.8572484494343
 30
0.0
 11
1002.286429978591
 21
667.4286718094281
 31
0.0
  0
LINE
  5
4770
330
4621
100
AcDbEntity
  8
配線図
 62
     0
100
AcDbLine
 10
961.7149944585908
 20
738.4286839694323
 30
0.0
 11
961.7149944585908
 21
708.0001073294261
 31
0.0
  0
LINE
  5
4771
330
4621
100
AcDbEntity
  8
配線図
 62
     0
100
AcDbLine
 10
961.7149944585908
 20
738.4286839694323
 30
0.0
 11
1097.629303450583
 21
738.4286839694323
 31
0.0
  0
LINE
  5
4772
330
4621
100
AcDbEntity
  8
配線図
 62
     0
100
AcDbLine
 10
1048.943580826592
 20
775.1270900512682
 30
0.0
 11
1170.657887386587
 21
775.1270900512682
 31
0.0
  0
ENDBLK
  5
4774
330
4621
100
AcDbEntity
  8
0
100
AcDbBlockEnd
  0
BLOCK
  5
76D2
330
76B1
100
AcDbEntity
  8
0
370
    -1
100
AcDbBlockBegin
  2
A$C670F36C2
 70
     0
 10
0.0
 20
0.0
 30
0.0
  3
A$C670F36C2
  1

  0
LINE
  5
76B2
330
76B1
100
AcDbEntity
  8
ランプ
370
    -1
100
AcDbLine
 10
23.99999697150491
 20
45.99898218602652
 30
0.0
 11
23.99999697150497
 21
13.49898218602652
 31
0.0
  0
LINE
  5
76B3
330
76B1
100
AcDbEntity
  8
ランプ
370
    -1
100
AcDbLine
 10
25.99999697150494
 20
46.49898218602675
 30
0.0
 11
25.99999697150497
 21
13.49898218602652
 31
0.0
  0
LINE
  5
76B4
330
76B1
100
AcDbEntity
  8
ランプ
370
    -1
100
AcDbLine
 10
38.99999697150494
 20
45.49898218602686
 30
0.0
 11
38.99999697150497
 21
14.49898218602641
 31
0.0
  0
ARC
  5
76B5
330
76B1
100
AcDbEntity
  8
ランプ
370
    -1
100
AcDbCircle
 10
46.32948031682608
 20
94.68109461484948
 30
0.0
 40
50.0
100
AcDbArc
 50
272.3859440303907
 51
296.3209190179489
  0
LINE
  5
76B6
330
76B1
100
AcDbEntity
  8
ランプ取付板
370
    -1
100
AcDbLine
 10
1.999996971504942
 20
4.498982186026751
 30
0.0
 11
1.999996971504942
 21
56.99898218602652
 31
0.0
  0
LINE
  5
76B7
330
76B1
100
AcDbEntity
  8
ランプ
370
    -1
100
AcDbLine
 10
1.999996971504942
 20
57.49898218602675
 30
0.0
 11
1.99999697150497
 21
2.498982186026751
 31
0.0
  0
LINE
  5
76B8
330
76B1
100
AcDbEntity
  8
ランプ
370
    -1
100
AcDbLine
 10
11.99999697150494
 20
57.49898218602652
 30
0.0
 11
11.99999697150494
 21
2.498982186026751
 31
0.0
  0
LINE
  5
76B9
330
76B1
100
AcDbEntity
  8
ランプ
370
    -1
100
AcDbLine
 10
17.99999697150497
 20
57.10845383110757
 30
0.0
 11
17.99999697150494
 21
3.042292902160966
 31
0.0
  0
ARC
  5
76BA
330
76B1
100
AcDbEntity
  8
ランプ
370
    -1
100
AcDbCircle
 10
95.99999697150497
 20
29.99898218602664
 30
0.0
 40
30.0
100
AcDbArc
 50
243.6790809820508
 51
116.320919017961
  0
ARC
  5
76BB
330
76B1
100
AcDbEntity
  8
ランプ
370
    -1
100
AcDbCircle
 10
46.32948031682608
 20
-34.68313024279621
 30
0.0
 40
50.0
100
AcDbArc
 50
63.67908098205111
 51
87.61405596960934
  0
ARC
  5
76BC
330
76B1
100
AcDbEntity
  8
ランプ
370
    -1
100
AcDbCircle
 10
16.81273077402463
 20
4.498982186026979
 30
0.0
 40
2.0
100
AcDbArc
 50
270.0000000000013
 51
331.3895403340343
  0
LINE
  5
76BD
330
76B1
100
AcDbEntity
  8
ランプ取付板
370
    -1
100
AcDbLine
 10
1.99999697150497
 20
2.498982186026751
 30
0.0
 11
16.62957501813833
 21
2.498982186026751
 31
0.0
  0
LINE
  5
76BE
330
76B1
100
AcDbEntity
  8
ランプ取付板
370
    -1
100
AcDbLine
 10
0.9999969715049701
 20
26.99898218602664
 30
0.0
 11
-0.0000030284950299
 21
27.99898218602664
 31
0.0
  0
LINE
  5
76BF
330
76B1
100
AcDbEntity
  8
ランプ取付板
370
    -1
100
AcDbLine
 10
-0.0000030284950299
 20
27.99898218602664
 30
0.0
 11
-0.0000030284950299
 21
31.99898218602664
 31
0.0
  0
LINE
  5
76C0
330
76B1
100
AcDbEntity
  8
ランプ取付板
370
    -1
100
AcDbLine
 10
-0.0000030284950299
 20
31.99898218602664
 30
0.0
 11
0.9999969715049701
 21
32.99898218602664
 31
0.0
  0
ARC
  5
76C1
330
76B1
100
AcDbEntity
  8
ランプ
370
    -1
100
AcDbCircle
 10
37.99999697150494
 20
14.49898218602641
 30
0.0
 40
1.0
100
AcDbArc
 50
270.0
 51
0.0
  0
LINE
  5
76C2
330
76B1
100
AcDbEntity
  8
ランプ
370
    -1
100
AcDbLine
 10
18.5685219198534
 20
3.541277924665792
 30
0.0
 11
23.99999697150491
 21
13.49898218602652
 31
0.0
  0
LINE
  5
76C3
330
76B1
100
AcDbEntity
  8
ランプ
370
    -1
100
AcDbLine
 10
23.99999697150491
 20
13.49898218602652
 30
0.0
 11
37.99999697150494
 21
13.49898218602641
 31
0.0
  0
LINE
  5
76C4
330
76B1
100
AcDbEntity
  8
ランプ
370
    -1
100
AcDbLine
 10
38.99999697150494
 20
43.49898218602664
 30
0.0
 11
42.60410203518134
 21
44.4000084519455
 31
0.0
  0
ARC
  5
76C5
330
76B1
100
AcDbEntity
  8
ランプ
370
    -1
100
AcDbCircle
 10
43.57424453532667
 20
40.51943845136418
 30
0.0
 40
4.0
100
AcDbArc
 50
92.38594403038924
 51
104.0362434679266
  0
LINE
  5
76C6
330
76B1
100
AcDbEntity
  8
ランプ
370
    -1
100
AcDbLine
 10
43.4077223564779
 20
44.51597074373353
 30
0.0
 11
48.41100755243676
 21
44.72444096023196
 31
0.0
  0
LINE
  5
76C7
330
76B1
100
AcDbEntity
  8
ランプ
370
    -1
100
AcDbLine
 10
43.4077223564779
 20
15.48199362831974
 30
0.0
 11
48.41100755243676
 21
15.27352341182132
 31
0.0
  0
ARC
  5
76C8
330
76B1
100
AcDbEntity
  8
ランプ
370
    -1
100
AcDbCircle
 10
43.57424453532667
 20
19.47852592068909
 30
0.0
 40
4.0
100
AcDbArc
 50
255.9637565320734
 51
267.6140559696107
  0
LINE
  5
76C9
330
76B1
100
AcDbEntity
  8
ランプ
370
    -1
100
AcDbLine
 10
38.99999697150494
 20
16.49898218602664
 30
0.0
 11
42.60410203518134
 21
15.59795592010778
 31
0.0
  0
LINE
  5
76CA
330
76B1
100
AcDbEntity
  8
ランプ
370
    -1
100
AcDbLine
 10
82.69804276269997
 20
3.109244102013008
 30
0.0
 11
68.49940399816785
 21
10.13309989722654
 31
0.0
  0
ARC
  5
76CB
330
76B1
100
AcDbEntity
  8
ランプ
370
    -1
100
AcDbCircle
 10
16.81273077402463
 20
55.4989821860263
 30
0.0
 40
2.0
100
AcDbArc
 50
28.61045966596572
 51
89.99999999999878
  0
LINE
  5
76CC
330
76B1
100
AcDbEntity
  8
ランプ取付板
370
    -1
100
AcDbLine
 10
1.999996971504942
 20
57.49898218602675
 30
0.0
 11
16.81273077402466
 21
57.4989821860263
 31
0.0
  0
ARC
  5
76CD
330
76B1
100
AcDbEntity
  8
ランプ
370
    -1
100
AcDbCircle
 10
37.99999697150494
 20
45.49898218602686
 30
0.0
 40
1.0
100
AcDbArc
 50
0.0
 51
90.0
  0
LINE
  5
76CE
330
76B1
100
AcDbEntity
  8
ランプ
370
    -1
100
AcDbLine
 10
23.99999697150491
 20
46.49898218602675
 30
0.0
 11
37.99999697150494
 21
46.49898218602686
 31
0.0
  0
LINE
  5
76CF
330
76B1
100
AcDbEntity
  8
ランプ
370
    -1
100
AcDbLine
 10
23.99999697150491
 20
45.99898218602652
 30
0.0
 11
23.99999697150491
 21
46.49898218602675
 31
0.0
  0
LINE
  5
76D0
330
76B1
100
AcDbEntity
  8
ランプ
370
    -1
100
AcDbLine
 10
18.5685219198534
 20
56.45668644738748
 30
0.0
 11
23.99999697150491
 21
46.49898218602675
 31
0.0
  0
LINE
  5
76D1
330
76B1
100
AcDbEntity
  8
ランプ
370
    -1
100
AcDbLine
 10
82.69804276269997
 20
56.88872027004027
 30
0.0
 11
68.49940399816785
 21
49.86486447482673
 31
0.0
  0
ENDBLK
  5
76D3
330
76B1
100
AcDbEntity
  8
0
370
    -1
100
AcDbBlockEnd
  0
BLOCK
  5
7B79
330
7B6D
100
AcDbEntity
  8
0
100
AcDbBlockBegin
  2
M4-1-t
 70
     0
 10
0.0
 20
0.0
 30
0.0
  3
M4-1-t
  1

  0
CIRCLE
  5
7B6E
330
7B6D
100
AcDbEntity
  8
0
100
AcDbCircle
 10
0.0
 20
0.0
 30
0.0
 40
4.7
  0
LINE
  5
7B6F
330
7B6D
100
AcDbEntity
  8
0
  6
CENTER
100
AcDbLine
 10
5.729961923015253
 20
0.0
 30
0.0
 11
-5.772039802871859
 21
0.0
 31
0.0
  0
ARC
  5
7B70
330
7B6D
100
AcDbEntity
  8
0
100
AcDbCircle
 10
-2.0
 20
-2.0
 30
0.0
 40
1.666666666666667
100
AcDbArc
 50
0.0
 51
90.0
  0
ARC
  5
7B71
330
7B6D
100
AcDbEntity
  8
0
100
AcDbCircle
 10
2.0
 20
-2.0
 30
0.0
 40
1.666666666666667
100
AcDbArc
 50
90.0
 51
180.0
  0
LINE
  5
7B72
330
7B6D
100
AcDbEntity
  8
0
  6
CENTER
100
AcDbLine
 10
0.0
 20
5.316321722992029
 30
0.0
 11
0.0
 21
-5.377848559411177
 31
0.0
  0
LINE
  5
7B73
330
7B6D
100
AcDbEntity
  8
0
100
AcDbLine
 10
0.3333333333333428
 20
-2.0
 30
0.0
 11
-0.3333333333333428
 21
-2.0
 31
0.0
  0
LINE
  5
7B74
330
7B6D
100
AcDbEntity
  8
0
100
AcDbLine
 10
-0.3333333333333428
 20
2.0
 30
0.0
 11
0.3333333333333428
 21
2.0
 31
0.0
  0
ARC
  5
7B75
330
7B6D
100
AcDbEntity
  8
0
100
AcDbCircle
 10
2.0
 20
2.0
 30
0.0
 40
1.666666666666667
100
AcDbArc
 50
180.0
 51
270.0
  0
LINE
  5
7B76
330
7B6D
100
AcDbEntity
  8
0
100
AcDbLine
 10
-2.0
 20
-0.3333333333333428
 30
0.0
 11
-2.0
 21
0.3333333333333428
 31
0.0
  0
ARC
  5
7B77
330
7B6D
100
AcDbEntity
  8
0
100
AcDbCircle
 10
-2.0
 20
2.0
 30
0.0
 40
1.666666666666667
100
AcDbArc
 50
270.0
 51
0.0
  0
LINE
  5
7B78
330
7B6D
100
AcDbEntity
  8
0
100
AcDbLine
 10
2.0
 20
0.3333333333333428
 30
0.0
 11
2.0
 21
-0.3333333333333428
 31
0.0
  0
ENDBLK
  5
7B7A
330
7B6D
100
AcDbEntity
  8
0
100
AcDbBlockEnd
  0
BLOCK
  5
829C
330
8299
100
AcDbEntity
  8
0
100
AcDbBlockBegin
  2
A$C39504806
 70
     0
 10
0.0
 20
0.0
 30
0.0
  3
A$C39504806
  1

  0
LEADER
  5
829A
330
8299
100
AcDbEntity
  8
0
 62
     7
100
AcDbLeader
  3
ISO-25
 73
     0
 75
     1
 40
25.00000000000001
 41
141.6666666666667
 76
     3
 10
0.0
 20
0.0
 30
0.0
 10
-202.0176056095961
 20
-257.3515990230335
 30
0.0
 10
-207.0176056095961
 20
-257.3515990230335
 30
0.0
1001
ACAD
1000
DSTYLE
1002
{
1070
   147
1040
1.0
1070
    77
1070
     1
1002
}
  0
MTEXT
  5
829B
102
{ACAD_REACTORS
330
829A
102
}
330
8299
100
AcDbEntity
  8
0
 62
     7
100
AcDbMText
 10
-353.6842722762631
 20
-252.3515990230335
 30
0.0
 40
25.0
 41
0.0
 46
0.0
 71
     7
 72
     1
  1
アース端子
 73
     1
 44
1.0
  0
ENDBLK
  5
829D
330
8299
100
AcDbEntity
  8
0
100
AcDbBlockEnd
  0
BLOCK
  5
9971
330
996E
100
AcDbEntity
  8
0
100
AcDbBlockBegin
  2
A$C446D47E5
 70
     0
 10
0.0
 20
0.0
 30
0.0
  3
A$C446D47E5
  1

  0
LINE
  5
996F
330
996E
100
AcDbEntity
  8
object
  6
CENTER
 62
     0
100
AcDbLine
 10
0.0
 20
4.650000000000006
 30
0.0
 11
0.0
 21
-4.650000000000006
 31
0.0
  0
LINE
  5
9970
330
996E
100
AcDbEntity
  8
object
  6
CENTER
 62
     0
100
AcDbLine
 10
-4.649999999999636
 20
0.0
 30
0.0
 11
4.649999999999636
 21
0.0
 31
0.0
  0
ENDBLK
  5
9972
330
996E
100
AcDbEntity
  8
0
100
AcDbBlockEnd
  0
BLOCK
  5
99D7
330
99CD
100
AcDbEntity
  8
0
100
AcDbBlockBegin
  2
*D77
 70
     1
 10
0.0
 20
0.0
 30
0.0
  3
*D77
  1

  0
LINE
  5
9B08
330
99CD
100
AcDbEntity
  8
0
 62
     0
100
AcDbLine
 10
-4829.166965975822
 20
-79.38929086071605
 30
0.0
 11
-4829.166965975822
 21
-30.28929086071639
 31
0.0
  0
LINE
  5
9B09
330
99CD
100
AcDbEntity
  8
0
 62
     0
100
AcDbLine
 10
-4655.166965975822
 20
-79.38929086071605
 30
0.0
 11
-4655.166965975822
 21
-30.28929086071639
 31
0.0
  0
LINE
  5
9B0A
330
99CD
100
AcDbEntity
  8
0
 62
     0
100
AcDbLine
 10
-4824.166965975822
 20
-31.53929086071639
 30
0.0
 11
-4660.166965975822
 21
-31.53929086071639
 31
0.0
  0
SOLID
  5
9B0B
330
99CD
100
AcDbEntity
  8
0
 62
     0
100
AcDbTrace
 10
-4824.166965975822
 20
-30.70595752738306
 30
0.0
 11
-4824.166965975822
 21
-32.37262419404973
 31
0.0
 12
-4829.166965975822
 22
-31.53929086071639
 32
0.0
 13
-4829.166965975822
 23
-31.53929086071639
 33
0.0
  0
SOLID
  5
9B0C
330
99CD
100
AcDbEntity
  8
0
 62
     0
100
AcDbTrace
 10
-4660.166965975822
 20
-30.70595752738306
 30
0.0
 11
-4660.166965975822
 21
-32.37262419404973
 31
0.0
 12
-4655.166965975822
 22
-31.53929086071639
 32
0.0
 13
-4655.166965975822
 23
-31.53929086071639
 33
0.0
  0
MTEXT
  5
9B0D
330
99CD
100
AcDbEntity
  8
0
 62
     0
100
AcDbMText
 10
-4742.166965975822
 20
-24.53929086071639
 30
0.0
 40
8.0
 41
0.0
 46
0.0
 71
     5
 72
     1
  1
174
 73
     1
 44
1.0
  0
POINT
  5
9B0E
330
99CD
100
AcDbEntity
  8
Defpoints
 62
     0
100
AcDbPoint
 10
-4829.166965975822
 20
-79.88929086071605
 30
0.0
  0
POINT
  5
9B0F
330
99CD
100
AcDbEntity
  8
Defpoints
 62
     0
100
AcDbPoint
 10
-4655.166965975822
 20
-79.88929086071605
 30
0.0
  0
POINT
  5
9B10
330
99CD
100
AcDbEntity
  8
Defpoints
 62
     0
100
AcDbPoint
 10
-4655.166965975822
 20
-31.53929086071639
 30
0.0
  0
ENDBLK
  5
99D8
330
99CD
100
AcDbEntity
  8
0
100
AcDbBlockEnd
  0
BLOCK
  5
99E5
330
99DB
100
AcDbEntity
  8
0
100
AcDbBlockBegin
  2
*D78
 70
     1
 10
0.0
 20
0.0
 30
0.0
  3
*D78
  1

  0
LINE
  5
9AC9
330
99DB
100
AcDbEntity
  8
0
 62
     0
100
AcDbLine
 10
-4834.316965975821
 20
-84.53929086071605
 30
0.0
 11
-4883.416965975822
 21
-84.53929086071605
 31
0.0
  0
LINE
  5
9ACA
330
99DB
100
AcDbEntity
  8
0
 62
     0
100
AcDbLine
 10
-4834.316965975821
 20
-258.5392908607163
 30
0.0
 11
-4883.416965975822
 21
-258.5392908607163
 31
0.0
  0
LINE
  5
9ACB
330
99DB
100
AcDbEntity
  8
0
 62
     0
100
AcDbLine
 10
-4882.166965975822
 20
-89.53929086071605
 30
0.0
 11
-4882.166965975822
 21
-253.5392908607163
 31
0.0
  0
SOLID
  5
9ACC
330
99DB
100
AcDbEntity
  8
0
 62
     0
100
AcDbTrace
 10
-4883.000299309155
 20
-89.53929086071605
 30
0.0
 11
-4881.333632642489
 21
-89.53929086071605
 31
0.0
 12
-4882.166965975822
 22
-84.53929086071605
 32
0.0
 13
-4882.166965975822
 23
-84.53929086071605
 33
0.0
  0
SOLID
  5
9ACD
330
99DB
100
AcDbEntity
  8
0
 62
     0
100
AcDbTrace
 10
-4883.000299309155
 20
-253.5392908607163
 30
0.0
 11
-4881.333632642489
 21
-253.5392908607163
 31
0.0
 12
-4882.166965975822
 22
-258.5392908607163
 32
0.0
 13
-4882.166965975822
 23
-258.5392908607163
 33
0.0
  0
MTEXT
  5
9ACE
330
99DB
100
AcDbEntity
  8
0
 62
     0
100
AcDbMText
 10
-4889.166965975822
 20
-171.5392908607169
 30
0.0
 40
8.0
 41
0.0
 46
0.0
 71
     5
 72
     1
  1
174
 11
6.123031769111886E-17
 21
1.0
 31
0.0
 73
     1
 44
1.0
  0
POINT
  5
9ACF
330
99DB
100
AcDbEntity
  8
Defpoints
 62
     0
100
AcDbPoint
 10
-4833.816965975821
 20
-84.53929086071605
 30
0.0
  0
POINT
  5
9AD0
330
99DB
100
AcDbEntity
  8
Defpoints
 62
     0
100
AcDbPoint
 10
-4833.816965975821
 20
-258.5392908607163
 30
0.0
  0
POINT
  5
9AD1
330
99DB
100
AcDbEntity
  8
Defpoints
 62
     0
100
AcDbPoint
 10
-4882.166965975822
 20
-258.5392908607163
 30
0.0
  0
ENDBLK
  5
99E6
330
99DB
100
AcDbEntity
  8
0
100
AcDbBlockEnd
  0
BLOCK
  5
99F3
330
99E9
100
AcDbEntity
  8
0
100
AcDbBlockBegin
  2
*D79
 70
     1
 10
0.0
 20
0.0
 30
0.0
  3
*D79
  1

  0
LINE
  5
9AFF
330
99E9
100
AcDbEntity
  8
0
 62
     0
100
AcDbLine
 10
-4842.166965975822
 20
-272.0392908607162
 30
0.0
 11
-4842.166965975822
 21
-312.7892908607162
 31
0.0
  0
LINE
  5
9B00
330
99E9
100
AcDbEntity
  8
0
 62
     0
100
AcDbLine
 10
-4642.166965975822
 20
-272.0392908607162
 30
0.0
 11
-4642.166965975822
 21
-312.7892908607162
 31
0.0
  0
LINE
  5
9B01
330
99E9
100
AcDbEntity
  8
0
 62
     0
100
AcDbLine
 10
-4837.166965975822
 20
-311.5392908607162
 30
0.0
 11
-4647.166965975822
 21
-311.5392908607162
 31
0.0
  0
SOLID
  5
9B02
330
99E9
100
AcDbEntity
  8
0
 62
     0
100
AcDbTrace
 10
-4837.166965975822
 20
-310.7059575273829
 30
0.0
 11
-4837.166965975822
 21
-312.3726241940495
 31
0.0
 12
-4842.166965975822
 22
-311.5392908607162
 32
0.0
 13
-4842.166965975822
 23
-311.5392908607162
 33
0.0
  0
SOLID
  5
9B03
330
99E9
100
AcDbEntity
  8
0
 62
     0
100
AcDbTrace
 10
-4647.166965975822
 20
-310.7059575273829
 30
0.0
 11
-4647.166965975822
 21
-312.3726241940495
 31
0.0
 12
-4642.166965975822
 22
-311.5392908607162
 32
0.0
 13
-4642.166965975822
 23
-311.5392908607162
 33
0.0
  0
MTEXT
  5
9B04
330
99E9
100
AcDbEntity
  8
0
 62
     0
100
AcDbMText
 10
-4742.166965975822
 20
-304.5392908607162
 30
0.0
 40
8.0
 41
0.0
 46
0.0
 71
     5
 72
     1
  1
200
 73
     1
 44
1.0
  0
POINT
  5
9B05
330
99E9
100
AcDbEntity
  8
Defpoints
 62
     0
100
AcDbPoint
 10
-4842.166965975822
 20
-271.5392908607162
 30
0.0
  0
POINT
  5
9B06
330
99E9
100
AcDbEntity
  8
Defpoints
 62
     0
100
AcDbPoint
 10
-4642.166965975822
 20
-271.5392908607162
 30
0.0
  0
POINT
  5
9B07
330
99E9
100
AcDbEntity
  8
Defpoints
 62
     0
100
AcDbPoint
 10
-4642.166965975822
 20
-311.5392908607162
 30
0.0
  0
ENDBLK
  5
99F4
330
99E9
100
AcDbEntity
  8
0
100
AcDbBlockEnd
  0
BLOCK
  5
9A2E
330
9A24
100
AcDbEntity
  8
0
100
AcDbBlockBegin
  2
*D80
 70
     1
 10
0.0
 20
0.0
 30
0.0
  3
*D80
  1

  0
LINE
  5
9AC0
330
9A24
100
AcDbEntity
  8
0
 62
     0
100
AcDbLine
 10
-4981.24144500068
 20
-71.53929086071605
 30
0.0
 11
-4940.49144500068
 21
-71.53929086071606
 31
0.0
  0
LINE
  5
9AC1
330
9A24
100
AcDbEntity
  8
0
 62
     0
100
AcDbLine
 10
-4982.74144500068
 20
-271.5392908607162
 30
0.0
 11
-4940.49144500068
 21
-271.5392908607162
 31
0.0
  0
LINE
  5
9AC2
330
9A24
100
AcDbEntity
  8
0
 62
     0
100
AcDbLine
 10
-4941.74144500068
 20
-76.53929086071606
 30
0.0
 11
-4941.74144500068
 21
-266.5392908607162
 31
0.0
  0
SOLID
  5
9AC3
330
9A24
100
AcDbEntity
  8
0
 62
     0
100
AcDbTrace
 10
-4942.574778334013
 20
-76.53929086071606
 30
0.0
 11
-4940.908111667347
 21
-76.53929086071606
 31
0.0
 12
-4941.74144500068
 22
-71.53929086071606
 32
0.0
 13
-4941.74144500068
 23
-71.53929086071606
 33
0.0
  0
SOLID
  5
9AC4
330
9A24
100
AcDbEntity
  8
0
 62
     0
100
AcDbTrace
 10
-4942.574778334013
 20
-266.5392908607162
 30
0.0
 11
-4940.908111667347
 21
-266.5392908607162
 31
0.0
 12
-4941.74144500068
 22
-271.5392908607162
 32
0.0
 13
-4941.74144500068
 23
-271.5392908607162
 33
0.0
  0
MTEXT
  5
9AC5
330
9A24
100
AcDbEntity
  8
0
 62
     0
100
AcDbMText
 10
-4948.74144500068
 20
-171.5392908607169
 30
0.0
 40
8.0
 41
0.0
 46
0.0
 71
     5
 72
     1
  1
200
 11
6.123031769111886E-17
 21
1.0
 31
0.0
 73
     1
 44
1.0
  0
POINT
  5
9AC6
330
9A24
100
AcDbEntity
  8
Defpoints
 62
     0
100
AcDbPoint
 10
-4981.74144500068
 20
-71.53929086071605
 30
0.0
  0
POINT
  5
9AC7
330
9A24
100
AcDbEntity
  8
Defpoints
 62
     0
100
AcDbPoint
 10
-4983.24144500068
 20
-271.5392908607162
 30
0.0
  0
POINT
  5
9AC8
330
9A24
100
AcDbEntity
  8
Defpoints
 62
     0
100
AcDbPoint
 10
-4941.74144500068
 20
-271.5392908607162
 30
0.0
  0
ENDBLK
  5
9A2F
330
9A24
100
AcDbEntity
  8
0
100
AcDbBlockEnd
  0
BLOCK
  5
9A44
330
9A3A
100
AcDbEntity
  8
0
100
AcDbBlockBegin
  2
*D81
 70
     1
 10
0.0
 20
0.0
 30
0.0
  3
*D81
  1

  0
LINE
  5
9AE4
330
9A3A
100
AcDbEntity
  8
0
 62
     0
100
AcDbLine
 10
-5181.74144500068
 20
-272.0392908607162
 30
0.0
 11
-5181.74144500068
 21
-312.7892908607162
 31
0.0
  0
LINE
  5
9AE5
330
9A3A
100
AcDbEntity
  8
0
 62
     0
100
AcDbLine
 10
-4981.74144500068
 20
-270.5392908607162
 30
0.0
 11
-4981.74144500068
 21
-312.7892908607162
 31
0.0
  0
LINE
  5
9AE6
330
9A3A
100
AcDbEntity
  8
0
 62
     0
100
AcDbLine
 10
-5176.74144500068
 20
-311.5392908607162
 30
0.0
 11
-4986.74144500068
 21
-311.5392908607162
 31
0.0
  0
SOLID
  5
9AE7
330
9A3A
100
AcDbEntity
  8
0
 62
     0
100
AcDbTrace
 10
-5176.74144500068
 20
-310.7059575273829
 30
0.0
 11
-5176.74144500068
 21
-312.3726241940495
 31
0.0
 12
-5181.74144500068
 22
-311.5392908607162
 32
0.0
 13
-5181.74144500068
 23
-311.5392908607162
 33
0.0
  0
SOLID
  5
9AE8
330
9A3A
100
AcDbEntity
  8
0
 62
     0
100
AcDbTrace
 10
-4986.74144500068
 20
-310.7059575273829
 30
0.0
 11
-4986.74144500068
 21
-312.3726241940495
 31
0.0
 12
-4981.74144500068
 22
-311.5392908607162
 32
0.0
 13
-4981.74144500068
 23
-311.5392908607162
 33
0.0
  0
MTEXT
  5
9AE9
330
9A3A
100
AcDbEntity
  8
0
 62
     0
100
AcDbMText
 10
-5081.74144500068
 20
-304.5392908607162
 30
0.0
 40
8.0
 41
0.0
 46
0.0
 71
     5
 72
     1
  1
200
 73
     1
 44
1.0
  0
POINT
  5
9AEA
330
9A3A
100
AcDbEntity
  8
Defpoints
 62
     0
100
AcDbPoint
 10
-5181.74144500068
 20
-271.5392908607162
 30
0.0
  0
POINT
  5
9AEB
330
9A3A
100
AcDbEntity
  8
Defpoints
 62
     0
100
AcDbPoint
 10
-4981.74144500068
 20
-270.0392908607162
 30
0.0
  0
POINT
  5
9AEC
330
9A3A
100
AcDbEntity
  8
Defpoints
 62
     0
100
AcDbPoint
 10
-4981.74144500068
 20
-311.5392908607162
 30
0.0
  0
ENDBLK
  5
9A45
330
9A3A
100
AcDbEntity
  8
0
100
AcDbBlockEnd
  0
BLOCK
  5
9A5F
330
9A55
100
AcDbEntity
  8
0
100
AcDbBlockBegin
  2
*D82
 70
     1
 10
0.0
 20
0.0
 30
0.0
  3
*D82
  1

  0
LINE
  5
9AF6
330
9A55
100
AcDbEntity
  8
0
 62
     0
100
AcDbLine
 10
-5165.74144500068
 20
-427.0392908607162
 30
0.0
 11
-5165.74144500068
 21
-370.2892908607162
 31
0.0
  0
LINE
  5
9AF7
330
9A55
100
AcDbEntity
  8
0
 62
     0
100
AcDbLine
 10
-4997.74144500068
 20
-427.0392908607162
 30
0.0
 11
-4997.74144500068
 21
-370.2892908607162
 31
0.0
  0
LINE
  5
9AF8
330
9A55
100
AcDbEntity
  8
0
 62
     0
100
AcDbLine
 10
-5160.74144500068
 20
-371.5392908607162
 30
0.0
 11
-5002.74144500068
 21
-371.5392908607162
 31
0.0
  0
SOLID
  5
9AF9
330
9A55
100
AcDbEntity
  8
0
 62
     0
100
AcDbTrace
 10
-5160.74144500068
 20
-370.7059575273829
 30
0.0
 11
-5160.74144500068
 21
-372.3726241940495
 31
0.0
 12
-5165.74144500068
 22
-371.5392908607162
 32
0.0
 13
-5165.74144500068
 23
-371.5392908607162
 33
0.0
  0
SOLID
  5
9AFA
330
9A55
100
AcDbEntity
  8
0
 62
     0
100
AcDbTrace
 10
-5002.74144500068
 20
-370.7059575273829
 30
0.0
 11
-5002.74144500068
 21
-372.3726241940495
 31
0.0
 12
-4997.74144500068
 22
-371.5392908607162
 32
0.0
 13
-4997.74144500068
 23
-371.5392908607162
 33
0.0
  0
MTEXT
  5
9AFB
330
9A55
100
AcDbEntity
  8
0
 62
     0
100
AcDbMText
 10
-5081.74144500068
 20
-364.5392908607162
 30
0.0
 40
8.0
 41
0.0
 46
0.0
 71
     5
 72
     1
  1
168
 73
     1
 44
1.0
  0
POINT
  5
9AFC
330
9A55
100
AcDbEntity
  8
Defpoints
 62
     0
100
AcDbPoint
 10
-5165.74144500068
 20
-427.5392908607162
 30
0.0
  0
POINT
  5
9AFD
330
9A55
100
AcDbEntity
  8
Defpoints
 62
     0
100
AcDbPoint
 10
-4997.74144500068
 20
-427.5392908607162
 30
0.0
  0
POINT
  5
9AFE
330
9A55
100
AcDbEntity
  8
Defpoints
 62
     0
100
AcDbPoint
 10
-4997.74144500068
 20
-371.5392908607162
 30
0.0
  0
ENDBLK
  5
9A60
330
9A55
100
AcDbEntity
  8
0
100
AcDbBlockEnd
  0
BLOCK
  5
9A6C
330
9A62
100
AcDbEntity
  8
0
100
AcDbBlockBegin
  2
*D83
 70
     1
 10
0.0
 20
0.0
 30
0.0
  3
*D83
  1

  0
LINE
  5
9AED
330
9A62
100
AcDbEntity
  8
0
 62
     0
100
AcDbLine
 10
-5168.74144500068
 20
-424.0392908607162
 30
0.0
 11
-5168.74144500068
 21
-350.2892908607162
 31
0.0
  0
LINE
  5
9AEE
330
9A62
100
AcDbEntity
  8
0
 62
     0
100
AcDbLine
 10
-4994.74144500068
 20
-424.0392908607161
 30
0.0
 11
-4994.74144500068
 21
-350.2892908607162
 31
0.0
  0
LINE
  5
9AEF
330
9A62
100
AcDbEntity
  8
0
 62
     0
100
AcDbLine
 10
-5163.74144500068
 20
-351.5392908607162
 30
0.0
 11
-4999.74144500068
 21
-351.5392908607162
 31
0.0
  0
SOLID
  5
9AF0
330
9A62
100
AcDbEntity
  8
0
 62
     0
100
AcDbTrace
 10
-5163.74144500068
 20
-350.7059575273829
 30
0.0
 11
-5163.74144500068
 21
-352.3726241940495
 31
0.0
 12
-5168.74144500068
 22
-351.5392908607162
 32
0.0
 13
-5168.74144500068
 23
-351.5392908607162
 33
0.0
  0
SOLID
  5
9AF1
330
9A62
100
AcDbEntity
  8
0
 62
     0
100
AcDbTrace
 10
-4999.74144500068
 20
-350.7059575273829
 30
0.0
 11
-4999.74144500068
 21
-352.3726241940495
 31
0.0
 12
-4994.74144500068
 22
-351.5392908607162
 32
0.0
 13
-4994.74144500068
 23
-351.5392908607162
 33
0.0
  0
MTEXT
  5
9AF2
330
9A62
100
AcDbEntity
  8
0
 62
     0
100
AcDbMText
 10
-5081.74144500068
 20
-344.5392908607162
 30
0.0
 40
8.0
 41
0.0
 46
0.0
 71
     5
 72
     1
  1
174
 73
     1
 44
1.0
  0
POINT
  5
9AF3
330
9A62
100
AcDbEntity
  8
Defpoints
 62
     0
100
AcDbPoint
 10
-5168.74144500068
 20
-424.5392908607162
 30
0.0
  0
POINT
  5
9AF4
330
9A62
100
AcDbEntity
  8
Defpoints
 62
     0
100
AcDbPoint
 10
-4994.74144500068
 20
-424.5392908607161
 30
0.0
  0
POINT
  5
9AF5
330
9A62
100
AcDbEntity
  8
Defpoints
 62
     0
100
AcDbPoint
 10
-4994.74144500068
 20
-351.5392908607162
 30
0.0
  0
ENDBLK
  5
9A6D
330
9A62
100
AcDbEntity
  8
0
100
AcDbBlockEnd
  0
BLOCK
  5
9A7B
330
9A71
100
AcDbEntity
  8
0
100
AcDbBlockBegin
  2
*D84
 70
     1
 10
0.0
 20
0.0
 30
0.0
  3
*D84
  1

  0
LINE
  5
9AD2
330
9A71
100
AcDbEntity
  8
0
 62
     0
100
AcDbLine
 10
-5166.24144500068
 20
-427.5392908607162
 30
0.0
 11
-5222.99144500068
 21
-427.5392908607162
 31
0.0
  0
LINE
  5
9AD3
330
9A71
100
AcDbEntity
  8
0
 62
     0
100
AcDbLine
 10
-5166.24144500068
 20
-595.5392908607162
 30
0.0
 11
-5222.99144500068
 21
-595.5392908607162
 31
0.0
  0
LINE
  5
9AD4
330
9A71
100
AcDbEntity
  8
0
 62
     0
100
AcDbLine
 10
-5221.74144500068
 20
-432.5392908607162
 30
0.0
 11
-5221.74144500068
 21
-590.5392908607162
 31
0.0
  0
SOLID
  5
9AD5
330
9A71
100
AcDbEntity
  8
0
 62
     0
100
AcDbTrace
 10
-5222.574778334013
 20
-432.5392908607162
 30
0.0
 11
-5220.908111667347
 21
-432.5392908607162
 31
0.0
 12
-5221.74144500068
 22
-427.5392908607162
 32
0.0
 13
-5221.74144500068
 23
-427.5392908607162
 33
0.0
  0
SOLID
  5
9AD6
330
9A71
100
AcDbEntity
  8
0
 62
     0
100
AcDbTrace
 10
-5222.574778334013
 20
-590.5392908607162
 30
0.0
 11
-5220.908111667347
 21
-590.5392908607162
 31
0.0
 12
-5221.74144500068
 22
-595.5392908607162
 32
0.0
 13
-5221.74144500068
 23
-595.5392908607162
 33
0.0
  0
MTEXT
  5
9AD7
330
9A71
100
AcDbEntity
  8
0
 62
     0
100
AcDbMText
 10
-5228.74144500068
 20
-511.539290860717
 30
0.0
 40
8.0
 41
0.0
 46
0.0
 71
     5
 72
     1
  1
168
 11
6.123031769111886E-17
 21
1.0
 31
0.0
 73
     1
 44
1.0
  0
POINT
  5
9AD8
330
9A71
100
AcDbEntity
  8
Defpoints
 62
     0
100
AcDbPoint
 10
-5165.74144500068
 20
-427.5392908607162
 30
0.0
  0
POINT
  5
9AD9
330
9A71
100
AcDbEntity
  8
Defpoints
 62
     0
100
AcDbPoint
 10
-5165.74144500068
 20
-595.5392908607162
 30
0.0
  0
POINT
  5
9ADA
330
9A71
100
AcDbEntity
  8
Defpoints
 62
     0
100
AcDbPoint
 10
-5221.74144500068
 20
-595.5392908607162
 30
0.0
  0
ENDBLK
  5
9A7C
330
9A71
100
AcDbEntity
  8
0
100
AcDbBlockEnd
  0
BLOCK
  5
9A88
330
9A7E
100
AcDbEntity
  8
0
100
AcDbBlockBegin
  2
*D85
 70
     1
 10
0.0
 20
0.0
 30
0.0
  3
*D85
  1

  0
LINE
  5
9ADB
330
9A7E
100
AcDbEntity
  8
0
 62
     0
100
AcDbLine
 10
-5169.24144500068
 20
-598.5392908607162
 30
0.0
 11
-5242.99144500068
 21
-598.5392908607162
 31
0.0
  0
LINE
  5
9ADC
330
9A7E
100
AcDbEntity
  8
0
 62
     0
100
AcDbLine
 10
-5169.24144500068
 20
-424.5392908607161
 30
0.0
 11
-5242.99144500068
 21
-424.5392908607161
 31
0.0
  0
LINE
  5
9ADD
330
9A7E
100
AcDbEntity
  8
0
 62
     0
100
AcDbLine
 10
-5241.74144500068
 20
-593.5392908607162
 30
0.0
 11
-5241.74144500068
 21
-429.5392908607161
 31
0.0
  0
SOLID
  5
9ADE
330
9A7E
100
AcDbEntity
  8
0
 62
     0
100
AcDbTrace
 10
-5242.574778334013
 20
-593.5392908607162
 30
0.0
 11
-5240.908111667347
 21
-593.5392908607162
 31
0.0
 12
-5241.74144500068
 22
-598.5392908607162
 32
0.0
 13
-5241.74144500068
 23
-598.5392908607162
 33
0.0
  0
SOLID
  5
9ADF
330
9A7E
100
AcDbEntity
  8
0
 62
     0
100
AcDbTrace
 10
-5242.574778334013
 20
-429.5392908607161
 30
0.0
 11
-5240.908111667347
 21
-429.5392908607161
 31
0.0
 12
-5241.74144500068
 22
-424.5392908607161
 32
0.0
 13
-5241.74144500068
 23
-424.5392908607161
 33
0.0
  0
MTEXT
  5
9AE0
330
9A7E
100
AcDbEntity
  8
0
 62
     0
100
AcDbMText
 10
-5248.74144500068
 20
-511.5392908607169
 30
0.0
 40
8.0
 41
0.0
 46
0.0
 71
     5
 72
     1
  1
174
 11
6.123031769111886E-17
 21
1.0
 31
0.0
 73
     1
 44
1.0
  0
POINT
  5
9AE1
330
9A7E
100
AcDbEntity
  8
Defpoints
 62
     0
100
AcDbPoint
 10
-5168.74144500068
 20
-598.5392908607162
 30
0.0
  0
POINT
  5
9AE2
330
9A7E
100
AcDbEntity
  8
Defpoints
 62
     0
100
AcDbPoint
 10
-5168.74144500068
 20
-424.5392908607161
 30
0.0
  0
POINT
  5
9AE3
330
9A7E
100
AcDbEntity
  8
Defpoints
 62
     0
100
AcDbPoint
 10
-5241.74144500068
 20
-424.5392908607161
 30
0.0
  0
ENDBLK
  5
9A89
330
9A7E
100
AcDbEntity
  8
0
100
AcDbBlockEnd
  0
ENDSEC
  0
SECTION
  2
ENTITIES
  0
LINE
  5
82E
330
1F
100
AcDbEntity
  8
図面枠
 62
     7
370
    25
100
AcDbLine
 10
-4289.593882832027
 20
43.33883107553982
 30
0.0
 11
-4289.593882832027
 21
-684.6611689244602
 31
0.0
  0
LINE
  5
853
330
1F
100
AcDbEntity
  8
図面枠
 62
     7
370
    25
100
AcDbLine
 10
-4289.593882832027
 20
43.33883107553982
 30
0.0
 11
-5329.593882832027
 21
43.33883107553982
 31
0.0
  0
LINE
  5
854
330
1F
100
AcDbEntity
  8
図面枠
 62
     7
370
    25
100
AcDbLine
 10
-5329.593882832027
 20
43.33883107553982
 30
0.0
 11
-5329.593882832027
 21
-684.6611689244602
 31
0.0
  0
LINE
  5
855
330
1F
100
AcDbEntity
  8
図面枠
 62
     7
370
    25
100
AcDbLine
 10
-5329.593882832027
 20
-684.6611689244602
 30
0.0
 11
-4289.593882832027
 21
-684.6611689244602
 31
0.0
  0
LINE
  5
856
330
1F
100
AcDbEntity
  8
Defpoints
 62
     7
100
AcDbLine
 10
-5329.593882832027
 20
-320.6611689244602
 30
0.0
 11
-5350.913882832027
 21
-320.6611689244602
 31
0.0
  0
MTEXT
  5
F11
330
1F
100
AcDbEntity
  8
図面枠
 62
     7
100
AcDbMText
 10
-4458.593882832026
 20
-674.2611689244602
 30
0.0
 40
7.800000000000001
 41
156.0
 46
0.0
 71
     5
 72
     5
  1
株式会社　渡辺製作所
  7
ARIAL_TTF
 73
     1
 44
1.0
  0
INSERT
  5
F6B
330
1F
100
AcDbEntity
  8
図面枠
 62
     7
100
AcDbBlockReference
  2
A$C75CF5BB1
 10
-4536.3080128461
 20
-680.5686296379733
 30
0.0
 41
0.6240000000000001
 42
0.6240000000000001
 43
0.6240000000000001
  0
MTEXT
  5
F6F
330
1F
100
AcDbEntity
  8
図面枠
 62
     7
100
AcDbMText
 10
-4582.093882832026
 20
-617.4945022577924
 30
0.0
 40
6.5
 41
38.99999999999999
 46
0.0
 71
     5
 72
     5
  1
作成日
  7
ARIAL_TTF
 73
     1
 44
1.0
  0
MTEXT
  5
F70
330
1F
100
AcDbEntity
  8
図面枠
 62
     7
100
AcDbMText
 10
-4582.093882832026
 20
-634.8278355911259
 30
0.0
 40
6.5
 41
38.99999999999999
 46
0.0
 71
     5
 72
     5
  1
改訂日
  7
ARIAL_TTF
 73
     1
 44
1.0
  0
MTEXT
  5
F71
330
1F
100
AcDbEntity
  8
図面枠
 62
     7
100
AcDbMText
 10
-4582.093882832026
 20
-652.1611689244592
 30
0.0
 40
6.5
 41
38.99999999999999
 46
0.0
 71
     5
 72
     5
  1
改訂No.
  7
ARIAL_TTF
 73
     1
 44
1.0
  0
LINE
  5
F80
330
1F
100
AcDbEntity
  8
図面枠
 62
     7
100
AcDbLine
 10
-4458.593882832027
 20
-611.8611689244602
 30
0.0
 11
-4458.593882832027
 21
-663.8611689244602
 31
0.0
  0
LINE
  5
FC2
330
1F
100
AcDbEntity
  8
図面枠
 62
     7
100
AcDbLine
 10
-4289.593882832027
 20
-611.8611689244602
 30
0.0
 11
-4289.593882832027
 21
-628.7611689244602
 31
0.0
  0
LINE
  5
FC3
330
1F
100
AcDbEntity
  8
図面枠
 62
     7
100
AcDbLine
 10
-4289.593882832027
 20
-628.7611689244602
 30
0.0
 11
-4289.593882832027
 21
-646.9611689244601
 31
0.0
  0
LINE
  5
FC4
330
1F
100
AcDbEntity
  8
図面枠
 62
     7
100
AcDbLine
 10
-4289.593882832027
 20
-646.9611689244601
 30
0.0
 11
-4289.593882832027
 21
-663.8611689244602
 31
0.0
  0
LINE
  5
FC8
330
1F
100
AcDbEntity
  8
図面枠
 62
     7
100
AcDbLine
 10
-4601.593882832027
 20
-585.8611689244601
 30
0.0
 11
-4601.593882832027
 21
-684.6611689244602
 31
0.0
  0
LINE
  5
FC9
330
1F
100
AcDbEntity
  8
図面枠
 62
     7
100
AcDbLine
 10
-4562.593882832026
 20
-585.8611689244602
 30
0.0
 11
-4562.593882832027
 21
-663.8611689244591
 31
0.0
  0
LINE
  5
FCA
330
1F
100
AcDbEntity
  8
図面枠
 62
     7
100
AcDbLine
 10
-4497.593882832026
 20
-611.8611689244591
 30
0.0
 11
-4497.593882832026
 21
-663.8611689244591
 31
0.0
  0
MTEXT
  5
FEF
330
1F
100
AcDbEntity
  8
図面枠
 62
     7
100
AcDbMText
 10
-4393.593882832026
 20
-679.4611689244601
 30
0.0
 40
5.199999999999999
 41
77.99999999999999
 46
0.0
 71
     7
 72
     5
  1
WATANABE CO.,LTD.
  7
ARIAL_TTF
 73
     1
 44
1.0
  0
LINE
  5
1046
330
1F
100
AcDbEntity
  8
図面枠
 62
     7
100
AcDbLine
 10
-4497.593882832026
 20
-629.1945022577924
 30
0.0
 11
-4601.593882832026
 21
-629.1945022577924
 31
0.0
  0
LINE
  5
1047
330
1F
100
AcDbEntity
  8
図面枠
 62
     7
100
AcDbLine
 10
-4497.593882832027
 20
-646.5278355911258
 30
0.0
 11
-4601.593882832027
 21
-646.5278355911258
 31
0.0
  0
LINE
  5
10E3
330
1F
100
AcDbEntity
  8
図面枠
 62
     7
100
AcDbLine
 10
-4601.593882832027
 20
-611.8611689244602
 30
0.0
 11
-4289.593882832027
 21
-611.8611689244602
 31
0.0
  0
LINE
  5
10E4
330
1F
100
AcDbEntity
  8
図面枠
 62
     7
100
AcDbLine
 10
-4497.593882832027
 20
-637.8611689244602
 30
0.0
 11
-4289.593882832027
 21
-637.8611689244602
 31
0.0
  0
LINE
  5
10E5
330
1F
100
AcDbEntity
  8
図面枠
 62
     7
100
AcDbLine
 10
-4601.593882832027
 20
-663.8611689244602
 30
0.0
 11
-4289.593882832027
 21
-663.8611689244602
 31
0.0
  0
TEXT
  5
10E6
330
1F
100
AcDbEntity
  8
図面枠
 62
     7
100
AcDbText
 10
-4549.593882832026
 20
-602.7611689244601
 30
0.0
 40
7.800000000000001
  1
エルボ
  7
ARIAL_TTF
 11
-4549.593882832026
 21
-598.8611689244601
 31
0.0
100
AcDbText
 73
     2
  0
TEXT
  5
10E7
330
1F
100
AcDbEntity
  8
図面枠
 62
     7
100
AcDbText
 10
-4593.43933737748
 20
-600.338441651733
 30
0.0
 40
7.800000000000001
  1
名称
  7
ARIAL_TTF
 72
     4
 11
-4582.093882832026
 21
-596.2611689244602
 31
0.0
100
AcDbText
  0
TEXT
  5
10E8
330
1F
100
AcDbEntity
  8
図面枠
 62
     7
100
AcDbText
 10
-4445.593882832027
 20
-654.7611689244602
 30
0.0
 40
7.800000000000001
  1
62289000
  7
ARIAL_TTF
 11
-4445.593882832027
 21
-650.8611689244602
 31
0.0
100
AcDbText
 73
     2
  0
TEXT
  5
10EA
330
1F
100
AcDbEntity
  8
図面枠
 62
     7
100
AcDbText
 10
-4554.793882832027
 20
-623.7778355911257
 30
0.0
 40
6.5
  1
2008/08/08
  7
ARIAL_TTF
 11
-4554.793882832027
 21
-620.5278355911257
 31
0.0
100
AcDbText
 73
     2
  0
LINE
  5
10EC
330
1F
100
AcDbEntity
  8
図面枠
 62
     7
100
AcDbLine
 10
-4289.593882832027
 20
-629.1945022577934
 30
0.0
 11
-4289.593882832027
 21
-611.8611689244602
 31
0.0
  0
TEXT
  5
10EF
330
1F
100
AcDbEntity
  8
図面枠
 62
     7
100
AcDbText
 10
-4554.793882832027
 20
-658.4445022577922
 30
0.0
 40
6.5
  1
0
  7
ARIAL_TTF
 11
-4554.793882832027
 21
-655.1945022577922
 31
0.0
100
AcDbText
 73
     2
  0
LINE
  5
1154
330
1F
100
AcDbEntity
  8
図面枠
 62
     7
100
AcDbLine
 10
-4601.593882832027
 20
-585.8611689244602
 30
0.0
 11
-4289.593882832027
 21
-585.8611689244603
 31
0.0
  0
TEXT
  5
1183
330
1F
100
AcDbEntity
  8
図面枠
 62
     7
100
AcDbText
 10
-4495.112064650209
 20
-626.1611689244602
 30
0.0
 40
7.800000000000001
  1
機種名
  7
ARIAL_TTF
 72
     4
 11
-4478.093882832027
 21
-622.2611689244602
 31
0.0
100
AcDbText
  0
TEXT
  5
1184
330
1F
100
AcDbEntity
  8
図面枠
 62
     7
100
AcDbText
 10
-4489.439337377481
 20
-652.2276461971875
 30
0.0
 40
7.800000000000001
  1
図番
  7
ARIAL_TTF
 72
     4
 11
-4478.093882832027
 21
-648.2611689244602
 31
0.0
100
AcDbText
  0
TEXT
  5
1186
330
1F
100
AcDbEntity
  8
図面枠
 62
     7
100
AcDbText
 10
-4591.858655559298
 20
-609.216850742642
 30
0.0
 40
5.2
  1
NAME
  7
ARIAL_TTF
 72
     4
 11
-4582.093882832026
 21
-606.6611689244602
 31
0.0
100
AcDbText
  0
TEXT
  5
1187
330
1F
100
AcDbEntity
  8
図面枠
 62
     7
100
AcDbText
 10
-4490.207519195662
 20
-635.2316234699148
 30
0.0
 40
5.2
  1
MODEL
  7
ARIAL_TTF
 72
     4
 11
-4478.093882832026
 21
-632.6611689244602
 31
0.0
100
AcDbText
  0
TEXT
  5
1188
330
1F
100
AcDbEntity
  8
図面枠
 62
     7
100
AcDbText
 10
-4492.955246468389
 20
-661.2316234699148
 30
0.0
 40
5.2
  1
DWG. No.
  7
ARIAL_TTF
 72
     4
 11
-4478.093882832026
 21
-658.6611689244602
 31
0.0
100
AcDbText
  0
TEXT
  5
1190
330
1F
100
AcDbEntity
  8
図面枠
 62
     7
100
AcDbText
 10
-4593.106951013843
 20
-661.8779302880955
 30
0.0
 40
3.9
  1
REV. NO.
  7
ARIAL_TTF
 72
     4
 11
-4582.093882832025
 21
-659.9611689244591
 31
0.0
100
AcDbText
  0
TEXT
  5
1191
330
1F
100
AcDbEntity
  8
図面枠
 62
     7
100
AcDbText
 10
-4595.622007832026
 20
-644.5335174093077
 30
0.0
 40
3.9
  1
REV. DATE
  7
ARIAL_TTF
 72
     4
 11
-4582.093882832026
 21
-642.6278355911259
 31
0.0
100
AcDbText
  0
TEXT
  5
1192
330
1F
100
AcDbEntity
  8
図面枠
 62
     7
100
AcDbText
 10
-4596.320019195662
 20
-627.2223431668833
 30
0.0
 40
3.9
  1
DWG. DATE
  7
ARIAL_TTF
 72
     4
 11
-4582.093882832026
 21
-625.2945022577924
 31
0.0
100
AcDbText
  0
TEXT
  5
1204
330
1F
100
AcDbEntity
  8
図面枠
 62
     7
100
AcDbText
 10
-4445.593882832027
 20
-628.7611689244602
 30
0.0
 40
7.800000000000001
  1
PL-150
  7
ARIAL_TTF
 11
-4445.593882832027
 21
-624.8611689244602
 31
0.0
100
AcDbText
 73
     2
  0
MTEXT
  5
1695
330
1F
100
AcDbEntity
  8
0
 62
     7
100
AcDbMText
 10
-4835.593882832026
 20
-671.6611689244602
 30
0.0
 40
6.5
 41
216.66658
 46
0.0
 71
     7
 72
     5
  1
※ 仕様は場合により変更することがあります
 73
     1
 44
1.0
  0
TEXT
  5
1758
330
1F
100
AcDbEntity
  8
構成表
 62
     7
100
AcDbText
 10
-4560.584791922935
 20
8.120649257357996
 30
0.0
 40
5.200000000000002
  1
部　　品　　名
  7
ARIAL_TTF
 72
     4
 11
-4539.193882832026
 21
10.83883107553982
 31
0.0
100
AcDbText
  0
LINE
  5
175E
330
1F
100
AcDbEntity
  8
構成表
 62
     7
100
AcDbLine
 10
-4601.593882832026
 20
4.338831075539815
 30
0.0
 11
-4302.593882832026
 21
4.338831075539815
 31
0.0
  0
LINE
  5
175F
330
1F
100
AcDbEntity
  8
構成表
 62
     7
100
AcDbLine
 10
-4601.593882832026
 20
17.33883107553982
 30
0.0
 11
-4302.593882832026
 21
17.33883107553982
 31
0.0
  0
LINE
  5
1768
330
1F
100
AcDbEntity
  8
構成表
 62
     7
100
AcDbLine
 10
-4601.593882832026
 20
-8.661168924460185
 30
0.0
 11
-4302.593882832026
 21
-8.661168924460185
 31
0.0
  0
LINE
  5
176E
330
1F
100
AcDbEntity
  8
構成表
 62
     7
100
AcDbLine
 10
-4601.593882832026
 20
17.33883107553982
 30
0.0
 11
-4601.593882832026
 21
-8.661168924460185
 31
0.0
  0
LINE
  5
176F
330
1F
100
AcDbEntity
  8
構成表
 62
     7
100
AcDbLine
 10
-4580.793882832029
 20
17.33883107553982
 30
0.0
 11
-4580.793882832029
 21
-8.661168924460185
 31
0.0
  0
TEXT
  5
178B
330
1F
100
AcDbEntity
  8
構成表
 62
     7
100
AcDbText
 10
-4589.775701013844
 20
-4.761168924460186
 30
0.0
 40
5.200000000000002
  1
1
  7
ARIAL_TTF
 72
     2
 11
-4585.993882832026
 21
-2.161168924460185
 31
0.0
100
AcDbText
 73
     2
  0
TEXT
  5
178C
330
1F
100
AcDbEntity
  8
構成表
 62
     7
100
AcDbText
 10
-4598.757519195663
 20
8.194512893721633
 30
0.0
 40
5.200000000000002
  1
番号
  7
ARIAL_TTF
 72
     4
 11
-4591.193882832026
 21
10.83883107553982
 31
0.0
100
AcDbText
  0
TEXT
  5
178F
330
1F
100
AcDbEntity
  8
構成表
 62
     7
100
AcDbText
 10
-4575.593882832026
 20
-4.761168924460186
 30
0.0
 40
5.200000000000002
  1
エルボ本体
  7
ARIAL_TTF
 11
-4575.593882832026
 21
-2.161168924460185
 31
0.0
100
AcDbText
 73
     2
  0
TEXT
  5
1790
330
1F
100
AcDbEntity
  8
構成表
 62
     7
100
AcDbText
 10
-4601.593882832026
 20
22.53883107553986
 30
0.0
 40
6.5
  1
□構成表
  7
ARIAL_TTF
 11
-4601.593882832026
 21
25.78883107553986
 31
0.0
100
AcDbText
 73
     2
  0
LINE
  5
1794
330
1F
100
AcDbEntity
  8
構成表
 62
     7
100
AcDbLine
 10
-4302.593882832026
 20
17.33883107553982
 30
0.0
 11
-4302.593882832026
 21
-8.661168924460185
 31
0.0
  0
LINE
  5
1795
330
1F
100
AcDbEntity
  8
構成表
 62
     7
100
AcDbLine
 10
-4419.59388283203
 20
17.33883107553982
 30
0.0
 11
-4419.593882832029
 21
-8.661168924460185
 31
0.0
  0
LINE
  5
1796
330
1F
100
AcDbEntity
  8
構成表
 62
     7
100
AcDbLine
 10
-4398.793882832028
 20
17.33883107553982
 30
0.0
 11
-4398.793882832028
 21
-8.661168924460185
 31
0.0
  0
LINE
  5
1797
330
1F
100
AcDbEntity
  8
構成表
 62
     7
100
AcDbLine
 10
-4497.593882832029
 20
17.33883107553982
 30
0.0
 11
-4497.593882832029
 21
-8.661168924460185
 31
0.0
  0
TEXT
  5
17B9
330
1F
100
AcDbEntity
  8
構成表
 62
     7
100
AcDbText
 10
-4393.593882832025
 20
-4.761168924455411
 30
0.0
 40
5.200000000000002
  1
-
  7
ARIAL_TTF
 11
-4393.593882832025
 21
-2.16116892445541
 31
0.0
100
AcDbText
 73
     2
  0
TEXT
  5
17BD
330
1F
100
AcDbEntity
  8
構成表
 62
     7
100
AcDbText
 10
-4492.393882832026
 20
-4.761168924460186
 30
0.0
 40
5.200000000000002
  1
亜鉛めっき鋼板
  7
ARIAL_TTF
 11
-4492.393882832026
 21
-2.161168924460185
 31
0.0
100
AcDbText
 73
     2
  0
TEXT
  5
17C2
330
1F
100
AcDbEntity
  8
構成表
 62
     7
100
AcDbText
 10
-4473.691610104753
 20
8.179740166448905
 30
0.0
 40
5.200000000000002
  1
材　　　質
  7
ARIAL_TTF
 72
     4
 11
-4458.593882832026
 21
10.83883107553982
 31
0.0
100
AcDbText
  0
TEXT
  5
17CD
330
1F
100
AcDbEntity
  8
構成表
 62
     7
100
AcDbText
 10
-4416.757519195662
 20
8.150194711907089
 30
0.0
 40
5.200000000000002
  1
数量
  7
ARIAL_TTF
 72
     4
 11
-4409.193882832025
 21
10.83883107554345
 31
0.0
100
AcDbText
  0
TEXT
  5
17CE
330
1F
100
AcDbEntity
  8
構成表
 62
     7
100
AcDbText
 10
-4407.775701013843
 20
-4.761168924456548
 30
0.0
 40
5.200000000000002
  1
1
  7
ARIAL_TTF
 72
     2
 11
-4403.993882832025
 21
-2.161168924456547
 31
0.0
100
AcDbText
 73
     2
  0
TEXT
  5
17CF
330
1F
100
AcDbEntity
  8
構成表
 62
     7
100
AcDbText
 10
-4365.791610104751
 20
8.105876530085268
 30
0.0
 40
5.200000000000002
  1
備　　　考
  7
ARIAL_TTF
 72
     4
 11
-4350.693882832024
 21
10.83883107553982
 31
0.0
100
AcDbText
  0
LINE
  5
882E
330
1F
100
AcDbEntity
  8
Defpoints
 62
     7
100
AcDbLine
 10
-4809.593882832027
 20
52.35883107553991
 30
0.0
 11
-4809.593882832027
 21
43.33883107553982
 31
0.0
  0
LINE
  5
882F
330
1F
100
AcDbEntity
  8
Defpoints
 62
     7
100
AcDbLine
 10
-4289.593882832027
 20
-320.6611689244602
 30
0.0
 11
-4268.273882832027
 21
-320.6611689244602
 31
0.0
  0
LINE
  5
8830
330
1F
100
AcDbEntity
  8
Defpoints
 62
     7
100
AcDbLine
 10
-4809.593882832027
 20
-693.6811689244603
 30
0.0
 11
-4809.593882832027
 21
-684.6611689244602
 31
0.0
  0
LINE
  5
9645
330
1F
100
AcDbEntity
  8
0隠線
 62
     7
100
AcDbLine
 10
-4983.34144500068
 20
-511.5392908607162
 30
0.0
 11
-4983.34144500068
 21
-611.539290860716
 31
0.0
  0
LINE
  5
9646
330
1F
100
AcDbEntity
  8
object
  6
Continuous
 62
     7
100
AcDbLine
 10
-5006.74144500068
 20
-511.5392908607162
 30
0.0
 11
-5006.74144500068
 21
-587.1392908607162
 31
0.0
  0
LINE
  5
9647
330
1F
100
AcDbEntity
  8
0隠線
 62
     7
100
AcDbLine
 10
-4982.74144500068
 20
-511.5392908607162
 30
0.0
 11
-4982.74144500068
 21
-611.539290860716
 31
0.0
  0
LINE
  5
9648
330
1F
100
AcDbEntity
  8
object
 62
     7
100
AcDbLine
 10
-4981.74144500068
 20
-511.5392908607162
 30
0.0
 11
-4981.74144500068
 21
-611.539290860716
 31
0.0
  0
ARC
  5
9649
330
1F
100
AcDbEntity
  8
object
 62
     7
100
AcDbCircle
 10
-5171.74144500068
 20
-556.5392908607162
 30
0.0
 40
3.0
100
AcDbArc
 50
180.0
 51
0.0
  0
LINE
  5
964B
330
1F
100
AcDbEntity
  8
object
  6
CENTER
 62
     7
100
AcDbLine
 10
-5171.74144500068
 20
-460.5392908607161
 30
0.0
 11
-5171.74144500068
 21
-562.5392908607162
 31
0.0
  0
LINE
  5
964C
330
1F
100
AcDbEntity
  8
object
  6
CENTER
 62
     7
100
AcDbLine
 10
-5081.74144500068
 20
-401.5392908607161
 30
0.0
 11
-5081.74144500068
 21
-621.5392908607162
 31
0.0
  0
LINE
  5
964D
330
1F
100
AcDbEntity
  8
object
  6
Continuous
 62
     7
100
AcDbLine
 10
-5156.74144500068
 20
-511.5392908607162
 30
0.0
 11
-5156.74144500068
 21
-587.1392908607162
 31
0.0
  0
LINE
  5
964E
330
1F
100
AcDbEntity
  8
object
 62
     7
100
AcDbLine
 10
-5181.74144500068
 20
-511.5392908607162
 30
0.0
 11
-5181.74144500068
 21
-606.5392908607163
 31
0.0
  0
LINE
  5
9652
330
1F
100
AcDbEntity
  8
object
 62
     7
100
AcDbLine
 10
-5156.74144500068
 20
-587.1392908607162
 30
0.0
 11
-5006.74144500068
 21
-587.1392908607162
 31
0.0
  0
LINE
  5
9653
330
1F
100
AcDbEntity
  8
object
 62
     7
100
AcDbLine
 10
-4981.74144500068
 20
-611.539290860716
 30
0.0
 11
-5176.74144500068
 21
-611.5392908607163
 31
0.0
  0
ARC
  5
9655
330
1F
100
AcDbEntity
  8
object
 62
     7
100
AcDbCircle
 10
-5168.74144500068
 20
-598.5392908607162
 30
0.0
 40
3.0
100
AcDbArc
 50
135.0000000000003
 51
315.0000000000095
  0
LINE
  5
9656
330
1F
100
AcDbEntity
  8
object
  6
CENTER
 62
     7
370
     9
100
AcDbLine
 10
-5164.498804313561
 20
-602.7819315478354
 30
0.0
 11
-5172.984085687799
 21
-594.296650173597
 31
0.0
  0
LINE
  5
9657
330
1F
100
AcDbEntity
  8
object
  6
CENTER
 62
     7
370
     9
100
AcDbLine
 10
-5172.984085687799
 20
-602.7819315478355
 30
0.0
 11
-5161.498804313561
 21
-591.2966501735968
 31
0.0
  0
LINE
  5
9658
330
1F
100
AcDbEntity
  8
object
  6
CENTER
 62
     7
370
     9
100
AcDbLine
 10
-5162.998804313561
 20
-601.2819315478354
 30
0.0
 11
-5171.484085687799
 21
-592.796650173597
 31
0.0
  0
ARC
  5
965A
330
1F
100
AcDbEntity
  8
object
 62
     7
100
AcDbCircle
 10
-5176.74144500068
 20
-606.5392908607163
 30
0.0
 40
5.0
100
AcDbArc
 50
180.0
 51
270.0
  0
LINE
  5
965B
330
1F
100
AcDbEntity
  8
object
 62
     7
100
AcDbLine
 10
-5170.86276534424
 20
-596.4179705171566
 30
0.0
 11
-5167.86276534424
 21
-593.4179705171565
 31
0.0
  0
LINE
  5
965C
330
1F
100
AcDbEntity
  8
object
  6
CENTER
 62
     7
370
     9
100
AcDbLine
 10
-5161.498804313561
 20
-599.7819315478354
 30
0.0
 11
-5169.984085687799
 21
-591.296650173597
 31
0.0
  0
ARC
  5
965D
330
1F
100
AcDbEntity
  8
object
 62
     7
100
AcDbCircle
 10
-5165.74144500068
 20
-595.5392908607162
 30
0.0
 40
3.0
100
AcDbArc
 50
315.0000000000095
 51
135.0000000000003
  0
LINE
  5
965E
330
1F
100
AcDbEntity
  8
object
 62
     7
100
AcDbLine
 10
-5166.62012465712
 20
-600.6606112042758
 30
0.0
 11
-5163.62012465712
 21
-597.6606112042758
 31
0.0
  0
CIRCLE
  5
9661
330
1F
100
AcDbEntity
  8
object
 62
     7
100
AcDbCircle
 10
-5081.74144500068
 20
-601.539290860716
 30
0.0
 40
3.0
  0
LINE
  5
9662
330
1F
100
AcDbEntity
  8
object
 62
     7
100
AcDbLine
 10
-5087.74144500068
 20
-601.539290860716
 30
0.0
 11
-5075.74144500068
 21
-601.539290860716
 31
0.0
  0
ARC
  5
9663
330
1F
100
AcDbEntity
  8
object
 62
     7
100
AcDbCircle
 10
-4994.74144500068
 20
-598.5392908607162
 30
0.0
 40
3.0
100
AcDbArc
 50
224.9999999999905
 51
44.99999999999972
  0
LINE
  5
9664
330
1F
100
AcDbEntity
  8
object
  6
CENTER
 62
     7
370
     9
100
AcDbLine
 10
-4998.984085687799
 20
-602.7819315478354
 30
0.0
 11
-4990.498804313561
 21
-594.296650173597
 31
0.0
  0
LINE
  5
9665
330
1F
100
AcDbEntity
  8
object
  6
CENTER
 62
     7
370
     9
100
AcDbLine
 10
-5000.484085687799
 20
-601.2819315478354
 30
0.0
 11
-4991.998804313561
 21
-592.796650173597
 31
0.0
  0
LINE
  5
9666
330
1F
100
AcDbEntity
  8
object
  6
CENTER
 62
     7
370
     9
100
AcDbLine
 10
-4990.498804313561
 20
-602.7819315478355
 30
0.0
 11
-5001.984085687799
 21
-591.2966501735968
 31
0.0
  0
LINE
  5
9667
330
1F
100
AcDbEntity
  8
object
 62
     7
100
AcDbLine
 10
-4992.62012465712
 20
-596.4179705171566
 30
0.0
 11
-4995.62012465712
 21
-593.4179705171565
 31
0.0
  0
LINE
  5
9668
330
1F
100
AcDbEntity
  8
object
 62
     7
100
AcDbLine
 10
-4996.86276534424
 20
-600.6606112042758
 30
0.0
 11
-4999.86276534424
 21
-597.6606112042758
 31
0.0
  0
ARC
  5
9669
330
1F
100
AcDbEntity
  8
object
 62
     7
100
AcDbCircle
 10
-4997.74144500068
 20
-595.5392908607162
 30
0.0
 40
3.0
100
AcDbArc
 50
44.99999999999972
 51
224.9999999999905
  0
LINE
  5
966A
330
1F
100
AcDbEntity
  8
object
  6
CENTER
 62
     7
370
     9
100
AcDbLine
 10
-5001.984085687799
 20
-599.7819315478354
 30
0.0
 11
-4993.498804313561
 21
-591.296650173597
 31
0.0
  0
LINE
  5
966B
330
1F
100
AcDbEntity
  8
object
 62
     7
100
AcDbLine
 10
-4984.74144500068
 20
-598.5392908607162
 30
0.0
 11
-4978.74144500068
 21
-598.5392908607162
 31
0.0
  0
LINE
  5
9670
330
1F
100
AcDbEntity
  8
object
 62
     7
100
AcDbLine
 10
-4983.34144500068
 20
-71.53929086071605
 30
0.0
 11
-4983.34144500068
 21
-270.5392908607163
 31
0.0
  0
LINE
  5
9671
330
1F
100
AcDbEntity
  8
object
 62
     7
100
AcDbLine
 10
-4982.74144500068
 20
-71.53929086071605
 30
0.0
 11
-4982.74144500068
 21
-270.0392908607162
 31
0.0
  0
LINE
  5
9672
330
1F
100
AcDbEntity
  8
object
 62
     7
100
AcDbLine
 10
-4981.74144500068
 20
-71.53929086071605
 30
0.0
 11
-4981.74144500068
 21
-270.0392908607162
 31
0.0
  0
ARC
  5
9673
330
1F
100
AcDbEntity
  8
object
 62
     7
100
AcDbCircle
 10
-5016.74144500068
 20
-236.5392908607163
 30
0.0
 40
141.2
100
AcDbArc
 50
90.0
 51
180.0
  0
ARC
  5
9674
330
1F
100
AcDbEntity
  8
object
 62
     7
100
AcDbCircle
 10
-5016.74144500068
 20
-236.5392908607163
 30
0.0
 40
140.6
100
AcDbArc
 50
90.0
 51
180.0
  0
LINE
  5
9678
330
1F
100
AcDbEntity
  8
object
  6
CENTER
 62
     7
100
AcDbLine
 10
-5191.741445000679
 20
-511.5392908607161
 30
0.0
 11
-4971.74144500068
 21
-511.5392908607162
 31
0.0
  0
LINE
  5
9679
330
1F
100
AcDbEntity
  8
object
 62
     7
100
AcDbLine
 10
-4981.74144500068
 20
-411.5392908607163
 30
0.0
 11
-5176.74144500068
 21
-411.5392908607161
 31
0.0
  0
LINE
  5
967A
330
1F
100
AcDbEntity
  8
object
 62
     7
100
AcDbLine
 10
-5156.74144500068
 20
-435.939290860716
 30
0.0
 11
-5006.74144500068
 21
-435.9392908607161
 31
0.0
  0
LINE
  5
967D
330
1F
100
AcDbEntity
  8
object
 62
     7
100
AcDbLine
 10
-5181.74144500068
 20
-511.5392908607161
 30
0.0
 11
-5181.74144500068
 21
-416.5392908607161
 31
0.0
  0
LINE
  5
967E
330
1F
100
AcDbEntity
  8
object
  6
Continuous
 62
     7
100
AcDbLine
 10
-5156.74144500068
 20
-511.5392908607161
 30
0.0
 11
-5156.74144500068
 21
-435.939290860716
 31
0.0
  0
LINE
  5
9681
330
1F
100
AcDbEntity
  8
object
 62
     7
100
AcDbLine
 10
-5171.74144500068
 20
-503.7868477154685
 30
0.0
 11
-5171.74144500068
 21
-519.2917340059637
 31
0.0
  0
LINE
  5
9682
330
1F
100
AcDbEntity
  8
object
 62
     7
100
AcDbLine
 10
-5171.74144500068
 20
-519.2917340059638
 30
0.0
 11
-5171.74144500068
 21
-503.7868477154686
 31
0.0
  0
LINE
  5
9683
330
1F
100
AcDbEntity
  8
object
 62
     7
100
AcDbLine
 10
-5171.74144500068
 20
-516.5392908607162
 30
0.0
 11
-5171.74144500068
 21
-506.5392908607162
 31
0.0
  0
ARC
  5
9684
330
1F
100
AcDbEntity
  8
object
 62
     7
100
AcDbCircle
 10
-5171.74144500068
 20
-556.5392908607162
 30
0.0
 40
3.0
100
AcDbArc
 50
0.0
 51
180.0
  0
LINE
  5
9685
330
1F
100
AcDbEntity
  8
object
 62
     7
100
AcDbLine
 10
-5177.74144500068
 20
-556.539290860716
 30
0.0
 11
-5165.74144500068
 21
-556.5392908607162
 31
0.0
  0
LINE
  5
9686
330
1F
100
AcDbEntity
  8
object
 62
     7
100
AcDbLine
 10
-5170.86276534424
 20
-426.6606112042757
 30
0.0
 11
-5167.86276534424
 21
-429.6606112042757
 31
0.0
  0
ARC
  5
9687
330
1F
100
AcDbEntity
  8
object
 62
     7
100
AcDbCircle
 10
-5165.74144500068
 20
-427.5392908607161
 30
0.0
 40
3.0
100
AcDbArc
 50
224.9999999999997
 51
44.9999999999905
  0
LINE
  5
9688
330
1F
100
AcDbEntity
  8
object
  6
CENTER
 62
     7
370
     9
100
AcDbLine
 10
-5162.998804313561
 20
-421.796650173597
 30
0.0
 11
-5171.484085687799
 21
-430.2819315478354
 31
0.0
  0
LINE
  5
9689
330
1F
100
AcDbEntity
  8
object
  6
CENTER
 62
     7
370
     9
100
AcDbLine
 10
-5172.984085687799
 20
-420.2966501735967
 30
0.0
 11
-5161.498804313561
 21
-431.7819315478354
 31
0.0
  0
LINE
  5
968A
330
1F
100
AcDbEntity
  8
object
  6
CENTER
 62
     7
370
     9
100
AcDbLine
 10
-5161.498804313561
 20
-423.296650173597
 30
0.0
 11
-5169.984085687799
 21
-431.7819315478354
 31
0.0
  0
LINE
  5
968B
330
1F
100
AcDbEntity
  8
object
  6
CENTER
 62
     7
370
     9
100
AcDbLine
 10
-5164.498804313561
 20
-420.296650173597
 30
0.0
 11
-5172.984085687799
 21
-428.7819315478354
 31
0.0
  0
ARC
  5
968C
330
1F
100
AcDbEntity
  8
object
 62
     7
100
AcDbCircle
 10
-5171.74144500068
 20
-466.5392908607162
 30
0.0
 40
3.0
100
AcDbArc
 50
180.0
 51
0.0
  0
ARC
  5
968D
330
1F
100
AcDbEntity
  8
object
 62
     7
100
AcDbCircle
 10
-5171.74144500068
 20
-466.5392908607161
 30
0.0
 40
3.0
100
AcDbArc
 50
0.0
 51
180.0
  0
LINE
  5
968E
330
1F
100
AcDbEntity
  8
object
 62
     7
100
AcDbLine
 10
-5177.74144500068
 20
-466.5392908607161
 30
0.0
 11
-5165.74144500068
 21
-466.5392908607162
 31
0.0
  0
ARC
  5
968F
330
1F
100
AcDbEntity
  8
object
 62
     7
100
AcDbCircle
 10
-5176.74144500068
 20
-416.5392908607161
 30
0.0
 40
5.0
100
AcDbArc
 50
90.0
 51
180.0
  0
ARC
  5
9690
330
1F
100
AcDbEntity
  8
object
 62
     7
100
AcDbCircle
 10
-5168.74144500068
 20
-424.5392908607161
 30
0.0
 40
3.0
100
AcDbArc
 50
44.9999999999905
 51
224.9999999999997
  0
LINE
  5
9691
330
1F
100
AcDbEntity
  8
object
 62
     7
100
AcDbLine
 10
-5166.62012465712
 20
-422.4179705171565
 30
0.0
 11
-5163.62012465712
 21
-425.4179705171565
 31
0.0
  0
LINE
  5
9692
330
1F
100
AcDbEntity
  8
object
 62
     7
100
AcDbLine
 10
-4981.74144500068
 20
-511.5392908607162
 30
0.0
 11
-4981.74144500068
 21
-411.5392908607163
 31
0.0
  0
LINE
  5
9693
330
1F
100
AcDbEntity
  8
0隠線
 62
     7
100
AcDbLine
 10
-4982.74144500068
 20
-511.5392908607162
 30
0.0
 11
-4982.74144500068
 21
-411.5392908607163
 31
0.0
  0
LINE
  5
9694
330
1F
100
AcDbEntity
  8
object
  6
Continuous
 62
     7
100
AcDbLine
 10
-5006.74144500068
 20
-511.5392908607162
 30
0.0
 11
-5006.74144500068
 21
-435.9392908607161
 31
0.0
  0
LINE
  5
9695
330
1F
100
AcDbEntity
  8
0隠線
 62
     7
100
AcDbLine
 10
-4983.34144500068
 20
-511.5392908607162
 30
0.0
 11
-4983.34144500068
 21
-411.5392908607163
 31
0.0
  0
ARC
  5
9697
330
1F
100
AcDbEntity
  8
object
 62
     7
100
AcDbCircle
 10
-4991.74144500068
 20
-511.5392908607162
 30
0.0
 40
3.0
100
AcDbArc
 50
180.0
 51
0.0
  0
LINE
  5
9699
330
1F
100
AcDbEntity
  8
object
 62
     7
100
AcDbLine
 10
-4991.74144500068
 20
-517.5392908607162
 30
0.0
 11
-4991.74144500068
 21
-505.5392908607162
 31
0.0
  0
ARC
  5
969A
330
1F
100
AcDbEntity
  8
object
 62
     7
100
AcDbCircle
 10
-4991.74144500068
 20
-511.5392908607162
 30
0.0
 40
3.0
100
AcDbArc
 50
0.0
 51
180.0
  0
LINE
  5
969B
330
1F
100
AcDbEntity
  8
object
 62
     7
100
AcDbLine
 10
-5087.74144500068
 20
-421.5392908607162
 30
0.0
 11
-5075.74144500068
 21
-421.5392908607162
 31
0.0
  0
CIRCLE
  5
969C
330
1F
100
AcDbEntity
  8
object
 62
     7
100
AcDbCircle
 10
-5081.74144500068
 20
-421.5392908607162
 30
0.0
 40
3.0
  0
LINE
  5
969D
330
1F
100
AcDbEntity
  8
object
 62
     7
100
AcDbLine
 10
-4992.62012465712
 20
-426.6606112042757
 30
0.0
 11
-4995.62012465712
 21
-429.6606112042757
 31
0.0
  0
ARC
  5
969E
330
1F
100
AcDbEntity
  8
object
 62
     7
100
AcDbCircle
 10
-4997.74144500068
 20
-427.5392908607161
 30
0.0
 40
3.0
100
AcDbArc
 50
135.0000000000095
 51
315.0000000000003
  0
LINE
  5
969F
330
1F
100
AcDbEntity
  8
object
  6
CENTER
 62
     7
370
     9
100
AcDbLine
 10
-4998.984085687799
 20
-420.296650173597
 30
0.0
 11
-4990.498804313561
 21
-428.7819315478354
 31
0.0
  0
LINE
  5
96A0
330
1F
100
AcDbEntity
  8
object
  6
CENTER
 62
     7
370
     9
100
AcDbLine
 10
-5001.984085687799
 20
-423.296650173597
 30
0.0
 11
-4993.498804313561
 21
-431.7819315478354
 31
0.0
  0
LINE
  5
96A1
330
1F
100
AcDbEntity
  8
object
  6
CENTER
 62
     7
370
     9
100
AcDbLine
 10
-4990.498804313561
 20
-420.2966501735967
 30
0.0
 11
-5001.984085687799
 21
-431.7819315478354
 31
0.0
  0
LINE
  5
96A2
330
1F
100
AcDbEntity
  8
object
  6
CENTER
 62
     7
370
     9
100
AcDbLine
 10
-5000.484085687799
 20
-421.796650173597
 30
0.0
 11
-4991.998804313561
 21
-430.2819315478354
 31
0.0
  0
ARC
  5
96A3
330
1F
100
AcDbEntity
  8
object
 62
     7
100
AcDbCircle
 10
-4994.74144500068
 20
-424.5392908607161
 30
0.0
 40
3.0
100
AcDbArc
 50
315.0000000000003
 51
135.0000000000095
  0
LINE
  5
96A4
330
1F
100
AcDbEntity
  8
object
 62
     7
100
AcDbLine
 10
-4996.86276534424
 20
-422.4179705171565
 30
0.0
 11
-4999.86276534424
 21
-425.4179705171565
 31
0.0
  0
LINE
  5
96A5
330
1F
100
AcDbEntity
  8
object
 62
     7
100
AcDbLine
 10
-4984.74144500068
 20
-424.5392908607161
 30
0.0
 11
-4978.74144500068
 21
-424.5392908607161
 31
0.0
  0
LINE
  5
96A6
330
1F
100
AcDbEntity
  8
object
 62
     7
100
AcDbLine
 10
-5181.74144500068
 20
-269.9392908607163
 30
0.0
 11
-4982.74144500068
 21
-269.9392908607161
 31
0.0
  0
LINE
  5
96A7
330
1F
100
AcDbEntity
  8
object
 62
     7
100
AcDbLine
 10
-5181.74144500068
 20
-270.5392908607163
 30
0.0
 11
-4983.24144500068
 21
-270.5392908607162
 31
0.0
  0
LINE
  5
96A8
330
1F
100
AcDbEntity
  8
object
 62
     7
100
AcDbLine
 10
-5181.74144500068
 20
-271.5392908607162
 30
0.0
 11
-4983.24144500068
 21
-271.5392908607162
 31
0.0
  0
LINE
  5
96AA
330
1F
100
AcDbEntity
  8
object
 62
     7
100
AcDbLine
 10
-5157.94144500068
 20
-236.5392908607163
 30
0.0
 11
-5157.94144500068
 21
-270.0392908607162
 31
0.0
  0
LINE
  5
96AB
330
1F
100
AcDbEntity
  8
object
 62
     7
100
AcDbLine
 10
-5157.34144500068
 20
-236.5392908607163
 30
0.0
 11
-5157.34144500068
 21
-270.0392908607162
 31
0.0
  0
LINE
  5
96AC
330
1F
100
AcDbEntity
  8
object
  6
CENTER
 62
     7
100
AcDbLine
 10
-5171.74144500068
 20
-274.5392908607162
 30
0.0
 11
-5171.74144500068
 21
-266.9392908607163
 31
0.0
  0
LINE
  5
96AE
330
1F
100
AcDbEntity
  8
object
  6
CENTER
 62
     7
100
AcDbLine
 10
-5165.741445000681
 20
-277.5392908607162
 30
0.0
 11
-5165.74144500068
 21
-263.9392908607163
 31
0.0
  0
LINE
  5
96AF
330
1F
100
AcDbEntity
  8
object
 62
     7
100
AcDbLine
 10
-5181.74144500068
 20
-269.9392908607163
 30
0.0
 11
-5181.74144500068
 21
-271.5392908607162
 31
0.0
  0
LINE
  5
96B2
330
1F
100
AcDbEntity
  8
object
  6
CENTER
 62
     7
100
AcDbLine
 10
-5081.74144500068
 20
-291.5392908607162
 30
0.0
 11
-5081.741445000681
 21
-249.9392908607162
 31
0.0
  0
LINE
  5
96B3
330
1F
100
AcDbEntity
  8
object
  6
CENTER
 62
     7
100
AcDbLine
 10
-4997.74144500068
 20
-277.5392908607162
 30
0.0
 11
-4997.74144500068
 21
-263.9392908607161
 31
0.0
  0
LINE
  5
96B4
330
1F
100
AcDbEntity
  8
object
  6
CENTER
 62
     7
100
AcDbLine
 10
-4991.741445000681
 20
-274.5392908607162
 30
0.0
 11
-4991.74144500068
 21
-266.9392908607161
 31
0.0
  0
ARC
  5
96B5
330
1F
100
AcDbEntity
  8
object
 62
     7
100
AcDbCircle
 10
-4983.24144500068
 20
-270.0392908607162
 30
0.0
 40
0.5
100
AcDbArc
 50
270.0
 51
0.0
  0
ARC
  5
96B6
330
1F
100
AcDbEntity
  8
object
 62
     7
100
AcDbCircle
 10
-4983.24144500068
 20
-270.0392908607162
 30
0.0
 40
1.5
100
AcDbArc
 50
270.0
 51
0.0
  0
LINE
  5
96B7
330
1F
100
AcDbEntity
  8
object
  6
CENTER
 62
     7
100
AcDbLine
 10
-4986.341445000681
 20
-258.5392908607162
 30
0.0
 11
-4978.74144500068
 21
-258.5392908607162
 31
0.0
  0
LINE
  5
96B8
330
1F
100
AcDbEntity
  8
object
  6
CENTER
 62
     7
100
AcDbLine
 10
-5003.34144500068
 20
-171.5392908607162
 30
0.0
 11
-4961.74144500068
 21
-171.5392908607162
 31
0.0
  0
LINE
  5
96BE
330
1F
100
AcDbEntity
  8
object
 62
     7
100
AcDbLine
 10
-5016.74144500068
 20
-95.33929086071623
 30
0.0
 11
-4983.24144500068
 21
-95.33929086071623
 31
0.0
  0
LINE
  5
96BF
330
1F
100
AcDbEntity
  8
object
 62
     7
100
AcDbLine
 10
-5016.74144500068
 20
-95.93929086071614
 30
0.0
 11
-4983.24144500068
 21
-95.93929086071614
 31
0.0
  0
LINE
  5
96C0
330
1F
100
AcDbEntity
  8
object
  6
CENTER
 62
     7
100
AcDbLine
 10
-4986.341445000681
 20
-84.53929086071605
 30
0.0
 11
-4978.741445000679
 21
-84.53929086071605
 31
0.0
  0
LINE
  5
96C2
330
1F
100
AcDbEntity
  8
object
 62
     7
100
AcDbLine
 10
-4982.74144500068
 20
-71.53929086071605
 30
0.0
 11
-4981.74144500068
 21
-71.53929086071605
 31
0.0
  0
LINE
  5
96C5
330
1F
100
AcDbEntity
  8
object
  6
CENTER
 62
     7
100
AcDbLine
 10
-4742.166965975821
 20
-61.5392908607164
 30
0.0
 11
-4742.166965975821
 21
-281.5392908607162
 31
0.0
  0
LINE
  5
96C6
330
1F
100
AcDbEntity
  8
object
 62
     7
100
AcDbLine
 10
-4842.166965975822
 20
-271.5392908607162
 30
0.0
 11
-4842.166965975822
 21
-76.53929086071616
 31
0.0
  0
LINE
  5
96C7
330
1F
100
AcDbEntity
  8
object
 62
     7
100
AcDbLine
 10
-4817.166965975822
 20
-96.53929086071616
 30
0.0
 11
-4817.166965975822
 21
-246.5392908607162
 31
0.0
  0
LINE
  5
96C8
330
1F
100
AcDbEntity
  8
object
 62
     7
100
AcDbLine
 10
-4642.166965975822
 20
-271.5392908607162
 30
0.0
 11
-4642.166965975822
 21
-76.53929086071662
 31
0.0
  0
LINE
  5
96C9
330
1F
100
AcDbEntity
  8
object
 62
     7
100
AcDbLine
 10
-4667.166965975822
 20
-96.53929086071616
 30
0.0
 11
-4667.166965975822
 21
-246.5392908607162
 31
0.0
  0
LINE
  5
96CE
330
1F
100
AcDbEntity
  8
0隠線
 62
     7
100
AcDbLine
 10
-4817.766965975822
 20
-96.53929086071616
 30
0.0
 11
-4817.766965975822
 21
-246.5392908607162
 31
0.0
  0
LINE
  5
96CF
330
1F
100
AcDbEntity
  8
0隠線
 62
     7
100
AcDbLine
 10
-4666.566965975822
 20
-96.53929086071616
 30
0.0
 11
-4666.566965975822
 21
-246.5392908607162
 31
0.0
  0
LINE
  5
96DF
330
1F
100
AcDbEntity
  8
object
 62
     7
100
AcDbLine
 10
-4642.166965975822
 20
-271.5392908607162
 30
0.0
 11
-4842.166965975822
 21
-271.5392908607162
 31
0.0
  0
LINE
  5
96E0
330
1F
100
AcDbEntity
  8
object
  6
Continuous
 62
     7
100
AcDbLine
 10
-4667.166965975822
 20
-246.5392908607162
 30
0.0
 11
-4817.166965975822
 21
-246.5392908607162
 31
0.0
  0
LINE
  5
96E1
330
1F
100
AcDbEntity
  8
0隠線
 62
     7
100
AcDbLine
 10
-4642.166965975822
 20
-270.5392908607162
 30
0.0
 11
-4842.166965975822
 21
-270.5392908607162
 31
0.0
  0
LINE
  5
96E2
330
1F
100
AcDbEntity
  8
0隠線
 62
     7
100
AcDbLine
 10
-4842.166965975822
 20
-269.9392908607161
 30
0.0
 11
-4642.166965975822
 21
-269.9392908607161
 31
0.0
  0
LINE
  5
96E4
330
1F
100
AcDbEntity
  8
object
 62
     7
100
AcDbLine
 10
-4842.166965975822
 20
-271.5392908607162
 30
0.0
 11
-4642.166965975822
 21
-271.5392908607162
 31
0.0
  0
LINE
  5
96E6
330
1F
100
AcDbEntity
  8
0隠線
 62
     7
100
AcDbLine
 10
-4817.166965975822
 20
-246.5392908607162
 30
0.0
 11
-4817.166965975822
 21
-270.5392908607162
 31
0.0
  0
LINE
  5
96E7
330
1F
100
AcDbEntity
  8
0隠線
 62
     7
100
AcDbLine
 10
-4808.166965975822
 20
-246.5392908607162
 30
0.0
 11
-4808.166965975822
 21
-270.5392908607162
 31
0.0
  0
CIRCLE
  5
96EB
330
1F
100
AcDbEntity
  8
object
 62
     7
100
AcDbCircle
 10
-4829.166965975822
 20
-258.5392908607163
 30
0.0
 40
1.65
  0
LINE
  5
96EC
330
1F
100
AcDbEntity
  8
0隠線
 62
     7
100
AcDbLine
 10
-4817.166965975822
 20
-246.5392908607162
 30
0.0
 11
-4842.166965975822
 21
-246.5392908607162
 31
0.0
  0
LINE
  5
96EE
330
1F
100
AcDbEntity
  8
0隠線
 62
     7
100
AcDbLine
 10
-4676.166965975822
 20
-246.5392908607162
 30
0.0
 11
-4676.166965975822
 21
-270.5392908607162
 31
0.0
  0
LINE
  5
96EF
330
1F
100
AcDbEntity
  8
0隠線
 62
     7
100
AcDbLine
 10
-4667.166965975822
 20
-246.5392908607162
 30
0.0
 11
-4667.166965975822
 21
-270.5392908607162
 31
0.0
  0
CIRCLE
  5
96F1
330
1F
100
AcDbEntity
  8
object
 62
     7
100
AcDbCircle
 10
-4742.166965975822
 20
-261.5392908607162
 30
0.0
 40
1.65
  0
LINE
  5
96F2
330
1F
100
AcDbEntity
  8
object
 62
     7
100
AcDbLine
 10
-4752.21558210198
 20
-261.5392908607162
 30
0.0
 11
-4732.118349849665
 21
-261.5392908607162
 31
0.0
  0
CIRCLE
  5
96F5
330
1F
100
AcDbEntity
  8
object
 62
     7
100
AcDbCircle
 10
-4655.166965975822
 20
-258.5392908607163
 30
0.0
 40
1.65
  0
LINE
  5
96F6
330
1F
100
AcDbEntity
  8
object
  6
HIDDEN
 62
     7
100
AcDbLine
 10
-4667.166965975822
 20
-246.5392908607162
 30
0.0
 11
-4642.166965975822
 21
-246.5392908607162
 31
0.0
  0
LINE
  5
96F9
330
1F
100
AcDbEntity
  8
object
 62
     7
100
AcDbLine
 10
-4647.166965975822
 20
-71.53929086071662
 30
0.0
 11
-4837.166965975822
 21
-71.53929086071616
 31
0.0
  0
LINE
  5
96FA
330
1F
100
AcDbEntity
  8
object
  6
Continuous
 62
     7
100
AcDbLine
 10
-4667.166965975822
 20
-96.53929086071616
 30
0.0
 11
-4817.166965975822
 21
-96.53929086071616
 31
0.0
  0
LINE
  5
96FC
330
1F
100
AcDbEntity
  8
0隠線
 62
     7
100
AcDbLine
 10
-4667.166965975822
 20
-95.93929086071614
 30
0.0
 11
-4817.166965975822
 21
-95.93929086071614
 31
0.0
  0
LINE
  5
96FE
330
1F
100
AcDbEntity
  8
0隠線
 62
     7
100
AcDbLine
 10
-4817.166965975822
 20
-96.53929086071616
 30
0.0
 11
-4817.166965975822
 21
-71.53929086071616
 31
0.0
  0
LINE
  5
96FF
330
1F
100
AcDbEntity
  8
object
  6
CENTER
 62
     7
100
AcDbLine
 10
-4833.816965975821
 20
-84.53929086071605
 30
0.0
 11
-4824.516965975822
 21
-84.53929086071605
 31
0.0
  0
LINE
  5
9700
330
1F
100
AcDbEntity
  8
0隠線
 62
     7
100
AcDbLine
 10
-4817.166965975822
 20
-96.53929086071616
 30
0.0
 11
-4842.166965975822
 21
-96.53929086071605
 31
0.0
  0
CIRCLE
  5
9701
330
1F
100
AcDbEntity
  8
object
 62
     7
100
AcDbCircle
 10
-4829.166965975822
 20
-84.53929086071605
 30
0.0
 40
1.65
  0
LINE
  5
9702
330
1F
100
AcDbEntity
  8
object
  6
CENTER
 62
     7
100
AcDbLine
 10
-4829.166965975822
 20
-79.88929086071605
 30
0.0
 11
-4829.166965975822
 21
-89.18929086071606
 31
0.0
  0
ARC
  5
9704
330
1F
100
AcDbEntity
  8
object
 62
     7
100
AcDbCircle
 10
-4837.166965975822
 20
-76.53929086071616
 30
0.0
 40
5.0
100
AcDbArc
 50
90.0
 51
180.0
  0
LINE
  5
9705
330
1F
100
AcDbEntity
  8
0隠線
 62
     7
100
AcDbLine
 10
-4667.166965975822
 20
-96.53929086071616
 30
0.0
 11
-4667.166965975822
 21
-71.53929086071616
 31
0.0
  0
LINE
  5
9707
330
1F
100
AcDbEntity
  8
0隠線
 62
     7
100
AcDbLine
 10
-4667.166965975822
 20
-96.53929086071616
 30
0.0
 11
-4642.166965975822
 21
-96.53929086071605
 31
0.0
  0
CIRCLE
  5
9709
330
1F
100
AcDbEntity
  8
object
 62
     7
100
AcDbCircle
 10
-4655.166965975822
 20
-84.53929086071605
 30
0.0
 40
1.65
  0
ARC
  5
970A
330
1F
100
AcDbEntity
  8
object
 62
     7
100
AcDbCircle
 10
-4647.166965975822
 20
-76.53929086071662
 30
0.0
 40
5.0
100
AcDbArc
 50
0.0
 51
90.0
  0
SPLINE
  5
970D
330
1F
100
AcDbEntity
  8
object
 62
     7
100
AcDbSpline
210
0.0
220
0.0
230
1.0
 70
  1064
 71
     3
 72
    11
 73
     7
 74
     5
 42
0.000000001
 43
0.0000000001
 44
0.0000000001
 40
0.0
 40
0.0
 40
0.0
 40
0.0
 40
16.41336898923716
 40
46.6840369009749
 40
72.54824351511621
 40
89.51869800004606
 40
89.51869800004606
 40
89.51869800004606
 40
89.51869800004606
 10
-4486.781093690773
 20
-498.5300295721322
 30
0.0
 10
-4482.205389970226
 20
-502.1788527812208
 30
0.0
 10
-4469.190857641242
 20
-512.5570875878545
 30
0.0
 10
-4442.839863606376
 20
-494.2409231961043
 30
0.0
 10
-4439.181716794876
 20
-468.9451398157404
 30
0.0
 10
-4443.513158196088
 20
-455.2446347837799
 30
0.0
 10
-4445.229210740156
 20
-449.8166988295841
 30
0.0
 11
-4486.781093690773
 21
-498.5300295721322
 31
0.0
 11
-4472.566699184405
 21
-506.7367140667507
 31
0.0
 11
-4446.351531783318
 21
-491.601380110882
 31
0.0
 11
-4441.097364521315
 21
-466.276473197689
 31
0.0
 11
-4445.229210740156
 21
-449.8166988295841
 31
0.0
  0
SPLINE
  5
970E
330
1F
100
AcDbEntity
  8
object
 62
     7
100
AcDbSpline
210
0.0
220
0.0
230
1.0
 70
     8
 71
     3
 72
    10
 73
     6
 74
     0
 42
0.000000001
 43
0.0000000001
 40
0.0
 40
0.0
 40
0.0
 40
0.0
 40
16.41336898923686
 40
46.68403690097419
 40
67.6167456943833
 40
67.6167456943833
 40
67.6167456943833
 40
67.6167456943833
 10
-4486.781093690773
 20
-499.6723721587744
 30
0.0
 10
-4482.205389970225
 20
-503.3211953678629
 30
0.0
 10
-4469.190857641242
 20
-513.6994301744967
 30
0.0
 10
-4444.631083674026
 20
-496.6283148756751
 30
0.0
 10
-4440.660127903247
 20
-479.3318187479063
 30
0.0
 10
-4440.754316607649
 20
-472.3382000774031
 30
0.0
  0
SPLINE
  5
970F
330
1F
100
AcDbEntity
  8
object
 62
     7
100
AcDbSpline
210
0.0
220
0.0
230
1.0
 70
     8
 71
     3
 72
    38
 73
    34
 74
     0
 42
0.000000001
 43
0.0000000001
 40
0.4757581246178867
 40
0.4757581246178867
 40
0.4757581246178867
 40
0.4757581246178867
 40
1.59000992104777
 40
1.59000992104777
 40
4.77002976314331
 40
4.77002976314331
 40
10.27572446942973
 40
10.27572446942973
 40
14.82756900030407
 40
14.82756900030407
 40
17.43356248090284
 40
17.43356248090284
 40
20.03955596150161
 40
20.03955596150161
 40
27.05105870672485
 40
27.05105870672485
 40
34.06256145194808
 40
34.06256145194808
 40
41.07406419717132
 40
41.07406419717132
 40
45.49347990526636
 40
45.49347990526636
 40
54.80792697524005
 40
54.80792697524005
 40
64.12237404521375
 40
64.12237404521375
 40
70.84205767875936
 40
70.84205767875936
 40
77.23889720411681
 40
77.23889720411681
 40
83.63573672947426
 40
83.63573672947426
 40
89.51869800004529
 40
89.51869800004529
 40
89.51869800004529
 40
89.51869800004529
 10
-4484.654560066662
 20
-497.3022748118074
 30
0.0
 10
-4484.222903429357
 20
-497.6455991015916
 30
0.0
 10
-4484.026355239879
 20
-497.8016849984814
 30
0.0
 10
-4483.155463741079
 20
-498.4906159792324
 30
0.0
 10
-4482.285098106569
 20
-499.1677076677422
 30
0.0
 10
-4479.923606831241
 20
-500.9156958161689
 30
0.0
 10
-4478.443366175677
 20
-501.9111165373834
 30
0.0
 10
-4475.773219313542
 20
-503.353529558231
 30
0.0
 10
-4474.579325780166
 20
-503.8652697034087
 30
0.0
 10
-4472.719548186205
 20
-504.3936111226417
 30
0.0
 10
-4472.050173375531
 20
-504.5273209770627
 30
0.0
 10
-4470.675789730984
 20
-504.6812184801438
 30
0.0
 10
-4469.973015025377
 20
-504.7021967440064
 30
0.0
 10
-4467.328800487435
 20
-504.5802843170968
 30
0.0
 10
-4465.298370390124
 20
-504.0969396056053
 30
0.0
 10
-4461.220006294663
 20
-502.4468780593444
 30
0.0
 10
-4459.175588512284
 20
-501.2815924613043
 30
0.0
 10
-4455.288137181798
 20
-498.4463143973501
 30
0.0
 10
-4453.445178098981
 20
-496.7771834471019
 30
0.0
 10
-4450.762605173933
 20
-493.813470938042
 30
0.0
 10
-4449.803773596991
 20
-492.6087283180669
 30
0.0
 10
-4447.137118851072
 20
-488.7678321080639
 30
0.0
 10
-4445.791755096346
 20
-486.0321189111949
 30
0.0
 10
-4443.894288597674
 20
-480.3847337705974
 30
0.0
 10
-4443.342625681003
 20
-477.4745760912626
 30
0.0
 10
-4442.981778190442
 20
-472.4199844748402
 30
0.0
 10
-4443.008811216451
 20
-470.2884476398391
 30
0.0
 10
-4443.369449291203
 20
-466.1535462766788
 30
0.0
 10
-4443.692585380933
 20
-464.1520060405895
 30
0.0
 10
-4444.55330837233
 20
-460.1388418451006
 30
0.0
 10
-4445.088967308108
 20
-458.1298719824443
 30
0.0
 10
-4446.222963593214
 20
-454.2531155959814
 30
0.0
 10
-4446.812734946351
 20
-452.3870501917957
 30
0.0
 10
-4447.407620054702
 20
-450.5054071853558
 30
0.0
  0
SPLINE
  5
9710
330
1F
100
AcDbEntity
  8
object
 62
     7
100
AcDbSpline
210
0.0
220
0.0
230
1.0
 70
     8
 71
     3
 72
    14
 73
    10
 74
     0
 42
0.000000001
 43
0.0000000001
 40
67.6491759304734
 40
67.6491759304734
 40
67.6491759304734
 40
67.6491759304734
 40
70.84205767875936
 40
70.84205767875936
 40
77.23889720411681
 40
77.23889720411681
 40
83.63573672947426
 40
83.63573672947426
 40
89.51869800004529
 40
89.51869800004529
 40
89.51869800004529
 40
89.51869800004529
 10
-4443.039235815048
 20
-472.3381647807153
 30
0.0
 10
-4443.053601893776
 20
-471.3285039255983
 30
0.0
 10
-4443.105780438129
 20
-470.3189881318035
 30
0.0
 10
-4443.369449291195
 20
-467.2958888633208
 30
0.0
 10
-4443.692585380925
 20
-465.2943486272316
 30
0.0
 10
-4444.553308372323
 20
-461.2811844317426
 30
0.0
 10
-4445.088967308101
 20
-459.2722145690864
 30
0.0
 10
-4446.222963593206
 20
-455.3954581826234
 30
0.0
 10
-4446.812734946344
 20
-453.5293927784377
 30
0.0
 10
-4447.407620054694
 20
-451.6477497719978
 30
0.0
  0
LINE
  5
9711
330
1F
100
AcDbEntity
  8
0
 62
     7
100
AcDbLine
 10
-4510.182588247501
 20
-552.8373263811336
 30
0.0
 11
-4510.182588247501
 21
-426.0521059224968
 31
0.0
  0
LINE
  5
9712
330
1F
100
AcDbEntity
  8
0
 62
     7
100
AcDbLine
 10
-4418.771293662976
 20
-552.8373263811336
 30
0.0
 11
-4418.771293662976
 21
-426.0521059224968
 31
0.0
  0
LINE
  5
9713
330
1F
100
AcDbEntity
  8
object
 62
     7
100
AcDbLine
 10
-4530.14573256994
 20
-451.6339362851238
 30
0.0
 11
-4530.14573256994
 21
-499.0580100898965
 31
0.0
  0
LINE
  5
9714
330
1F
100
AcDbEntity
  8
0
 62
     7
100
AcDbLine
 10
-4601.593882832027
 20
-552.8373263811336
 30
0.0
 11
-4601.593882832027
 21
-426.0521059224968
 31
0.0
  0
LINE
  5
9715
330
1F
100
AcDbEntity
  8
object
 62
     7
100
AcDbLine
 10
-4577.260805581903
 20
-499.0580100898965
 30
0.0
 11
-4577.260805581903
 21
-451.6339362851238
 31
0.0
  0
TEXT
  5
9716
330
1F
100
AcDbEntity
  8
0
 62
     7
100
AcDbText
 10
-4504.176940955238
 20
-524.8373263811336
 30
0.0
 40
6.0
  1
3mm×10mm×700mm
  7
注記
 72
     1
 11
-4464.476940955238
 21
-521.8373263811336
 31
0.0
100
AcDbText
 73
     2
  0
LINE
  5
9717
330
1F
100
AcDbEntity
  8
0
 62
     7
100
AcDbLine
 10
-4418.771293662976
 20
-552.8373263811336
 30
0.0
 11
-4601.593882832027
 21
-552.8373263811336
 31
0.0
  0
LINE
  5
9718
330
1F
100
AcDbEntity
  8
object
 62
     7
100
AcDbLine
 10
-4534.240732569941
 20
-503.1530100898965
 30
0.0
 11
-4573.165805581903
 21
-503.1530100898965
 31
0.0
  0
TEXT
  5
9719
330
1F
100
AcDbEntity
  8
0
 62
     7
100
AcDbText
 10
-4587.808235539765
 20
-535.1973263811336
 30
0.0
 40
6.72
  1
（M4×10-4本）
  7
注記
 72
     1
 11
-4555.888235539765
 21
-531.8373263811336
 31
0.0
100
AcDbText
 73
     2
  0
TEXT
  5
971A
330
1F
100
AcDbEntity
  8
0
 62
     7
100
AcDbText
 10
-4585.120235539765
 20
-525.6173263811336
 30
0.0
 40
7.56
  1
ﾄﾗｽﾀｯﾌﾟﾀｲﾄねじ
  7
注記
 72
     1
 11
-4555.888235539765
 21
-521.8373263811336
 31
0.0
100
AcDbText
 73
     2
  0
ARC
  5
971B
330
1F
100
AcDbEntity
  8
object
 62
     7
100
AcDbCircle
 10
-4573.165805581903
 20
-499.0580100898965
 30
0.0
 40
4.095
100
AcDbArc
 50
180.0
 51
270.0
  0
ARC
  5
971C
330
1F
100
AcDbEntity
  8
object
 62
     7
100
AcDbCircle
 10
-4534.240732569941
 20
-499.0580100898965
 30
0.0
 40
4.095
100
AcDbArc
 50
270.0
 51
0.0
  0
LINE
  5
971D
330
1F
100
AcDbEntity
  8
object
 62
     7
100
AcDbLine
 10
-4486.781093690773
 20
-498.5300295721322
 30
0.0
 11
-4486.781093690773
 21
-499.6723721587744
 31
0.0
  0
LINE
  5
971E
330
1F
100
AcDbEntity
  8
object
 62
     7
100
AcDbLine
 10
-4484.654560066662
 20
-497.3022748118074
 30
0.0
 11
-4486.78109369078
 21
-498.5300295721322
 31
0.0
  0
TEXT
  5
971F
330
1F
100
AcDbEntity
  8
0
 62
     7
100
AcDbText
 10
-4470.972940955238
 20
-535.1973263811336
 30
0.0
 40
6.72
  1
2本
  7
注記
 72
     1
 11
-4464.476940955238
 21
-531.8373263811336
 31
0.0
100
AcDbText
 73
     2
  0
TEXT
  5
9720
330
1F
100
AcDbEntity
  8
0
 62
     7
100
AcDbText
 10
-4481.864940955238
 20
-438.4857008550337
 30
0.0
 40
7.56
  1
ウレタン
  7
注記
 72
     1
 11
-4464.476940955238
 21
-434.7057008550337
 31
0.0
100
AcDbText
 73
     2
  0
LINE
  5
9721
330
1F
100
AcDbEntity
  8
0
 62
     7
100
AcDbLine
 10
-4601.593882832027
 20
-426.0521059224968
 30
0.0
 11
-4418.771293662976
 21
-426.0521059224968
 31
0.0
  0
LINE
  5
9722
330
1F
100
AcDbEntity
  8
0
 62
     7
100
AcDbLine
 10
-4601.593882832027
 20
-443.3592957875705
 30
0.0
 11
-4418.771293662976
 21
-443.3592957875705
 31
0.0
  0
TEXT
  5
9723
330
1F
100
AcDbEntity
  8
0
 62
     7
100
AcDbText
 10
-4601.593882832027
 20
-421.565409174696
 30
0.0
 40
9.0
  1
付属品
  7
注記
100
AcDbText
  0
LINE
  5
9724
330
1F
100
AcDbEntity
  8
object
 62
     7
100
AcDbLine
 10
-4577.260805581903
 20
-463.7087206048936
 30
0.0
 11
-4530.14573256994
 21
-463.7087206048936
 31
0.0
  0
LINE
  5
9725
330
1F
100
AcDbEntity
  8
object
 62
     7
100
AcDbLine
 10
-4577.260805581903
 20
-451.6339362851238
 30
0.0
 11
-4530.14573256994
 21
-451.6339362851238
 31
0.0
  0
TEXT
  5
9726
330
1F
100
AcDbEntity
  8
0
 62
     7
100
AcDbText
 10
-4577.560235539764
 20
-438.4857008550337
 30
0.0
 40
7.56
  1
付属ネジ組
  7
注記
 72
     1
 11
-4555.888235539765
 21
-434.7057008550337
 31
0.0
100
AcDbText
 73
     2
  0
LINE
  5
9727
330
1F
100
AcDbEntity
  8
object
 62
     7
100
AcDbLine
 10
-4445.229210740156
 20
-449.8166988295841
 30
0.0
 11
-4447.407620054702
 21
-450.5054071853558
 31
0.0
  0
LINE
  5
9728
330
1F
100
AcDbEntity
  8
object
 62
     7
100
AcDbLine
 10
-4447.407620054694
 20
-450.5054071853558
 30
0.0
 11
-4447.407620054694
 21
-451.6477497719978
 31
0.0
  0
LINE
  5
9965
330
1F
100
AcDbEntity
  8
0
 62
     7
100
AcDbLine
 10
-4601.593882832027
 20
-426.0521059224968
 30
0.0
 11
-4601.593882832027
 21
-443.3592957875705
 31
0.0
  0
LINE
  5
997C
330
1F
100
AcDbEntity
  8
object
  6
CENTER
 62
     7
100
AcDbLine
 10
-4852.166965975823
 20
-171.5392908607161
 30
0.0
 11
-4632.166965975822
 21
-171.5392908607162
 31
0.0
  0
LINE
  5
9984
330
1F
100
AcDbEntity
  8
object
  6
CENTER
 62
     7
100
AcDbLine
 10
-4829.166965975822
 20
-253.8892908607163
 30
0.0
 11
-4829.166965975822
 21
-263.1892908607163
 31
0.0
  0
LINE
  5
9985
330
1F
100
AcDbEntity
  8
object
  6
CENTER
 62
     7
100
AcDbLine
 10
-4833.816965975821
 20
-258.5392908607163
 30
0.0
 11
-4824.516965975822
 21
-258.5392908607163
 31
0.0
  0
LINE
  5
9996
330
1F
100
AcDbEntity
  8
object
  6
CENTER
 62
     7
100
AcDbLine
 10
-4655.166965975822
 20
-253.8892908607163
 30
0.0
 11
-4655.166965975822
 21
-263.1892908607163
 31
0.0
  0
LINE
  5
9997
330
1F
100
AcDbEntity
  8
object
  6
CENTER
 62
     7
100
AcDbLine
 10
-4659.816965975821
 20
-258.5392908607163
 30
0.0
 11
-4650.516965975822
 21
-258.5392908607163
 31
0.0
  0
LINE
  5
99A8
330
1F
100
AcDbEntity
  8
object
  6
CENTER
 62
     7
100
AcDbLine
 10
-4655.166965975822
 20
-79.88929086071605
 30
0.0
 11
-4655.166965975822
 21
-89.18929086071606
 31
0.0
  0
LINE
  5
99A9
330
1F
100
AcDbEntity
  8
object
  6
CENTER
 62
     7
100
AcDbLine
 10
-4659.816965975821
 20
-84.53929086071605
 30
0.0
 11
-4650.516965975822
 21
-84.53929086071605
 31
0.0
  0
DIMENSION
  5
99CC
330
1F
100
AcDbEntity
  8
0
 62
     7
100
AcDbDimension
280
     0
  2
*D77
 10
-4655.166965975822
 20
-31.53929086071639
 30
0.0
 11
-4742.166965975822
 21
-24.53929086071639
 31
0.0
 70
    32
 71
     5
 42
174.0
 73
     0
 74
     0
 75
     0
  3
ISO-25
100
AcDbAlignedDimension
 13
-4829.166965975822
 23
-79.88929086071605
 33
0.0
 14
-4655.166965975822
 24
-79.88929086071605
 34
0.0
100
AcDbRotatedDimension
  0
DIMENSION
  5
99DA
330
1F
100
AcDbEntity
  8
0
 62
     7
100
AcDbDimension
280
     0
  2
*D78
 10
-4882.166965975822
 20
-258.5392908607163
 30
0.0
 11
-4889.166965975822
 21
-171.5392908607169
 31
0.0
 70
    32
 71
     5
 42
174.0000000000002
 73
     0
 74
     0
 75
     0
  3
ISO-25
100
AcDbAlignedDimension
 13
-4833.816965975821
 23
-84.53929086071605
 33
0.0
 14
-4833.816965975821
 24
-258.5392908607163
 34
0.0
 50
90.0
100
AcDbRotatedDimension
  0
DIMENSION
  5
99E8
330
1F
100
AcDbEntity
  8
0
 62
     7
100
AcDbDimension
280
     0
  2
*D79
 10
-4642.166965975822
 20
-311.5392908607162
 30
0.0
 11
-4742.166965975822
 21
-304.5392908607162
 31
0.0
 70
    32
  1
<>
 71
     5
 42
200.0
 73
     0
 74
     0
 75
     0
  3
ISO-25
100
AcDbAlignedDimension
 13
-4842.166965975822
 23
-271.5392908607162
 33
0.0
 14
-4642.166965975822
 24
-271.5392908607162
 34
0.0
100
AcDbRotatedDimension
  0
LEADER
  5
9A12
330
1F
100
AcDbEntity
  8
0
 62
     7
100
AcDbLeader
  3
ISO-25
 73
     0
 74
     0
 75
     1
 40
8.0
 41
80.39999999999999
 76
     3
 10
-4655.166965975822
 20
-258.5392908607163
 30
0.0
 10
-4633.199463469968
 20
-225.6397475321312
 30
0.0
 10
-4628.199463469968
 20
-225.6397475321312
 30
0.0
340
9A13
1001
ACAD
1000
DSTYLE
1002
{
1070
   147
1040
3.0
1070
    77
1070
     1
1002
}
  0
MTEXT
  5
9A13
102
{ACAD_REACTORS
330
9A12
102
}
330
1F
100
AcDbEntity
  8
0
 62
     7
100
AcDbMText
 10
-4625.199463469968
 20
-222.6397475321312
 30
0.0
 40
8.0
 41
0.0
 46
0.0
 71
     7
 72
     1
  1
4-排気口具取付穴
 73
     1
 44
1.0
  0
MTEXT
  5
9A18
330
1F
100
AcDbEntity
  8
0
 62
     7
100
AcDbMText
 10
-4732.166965975821
 20
-228.5392908607162
 30
0.0
 40
8.0
 41
26.6087
 46
0.0
 71
     1
 72
     5
  1
□150
 73
     1
 44
1.0
  0
DIMENSION
  5
9A23
330
1F
100
AcDbEntity
  8
0
 62
     7
100
AcDbDimension
280
     0
  2
*D80
 10
-4941.74144500068
 20
-271.5392908607162
 30
0.0
 11
-4948.74144500068
 21
-171.5392908607169
 31
0.0
 70
    32
 71
     5
 42
200.0000000000001
 73
     0
 74
     0
 75
     0
  3
ISO-25
100
AcDbAlignedDimension
 13
-4981.74144500068
 23
-71.53929086071605
 33
0.0
 14
-4983.24144500068
 24
-271.5392908607162
 34
0.0
 50
90.0
100
AcDbRotatedDimension
  0
DIMENSION
  5
9A39
330
1F
100
AcDbEntity
  8
0
 62
     7
100
AcDbDimension
280
     0
  2
*D81
 10
-4981.74144500068
 20
-311.5392908607162
 30
0.0
 11
-5081.74144500068
 21
-304.5392908607162
 31
0.0
 70
    32
 71
     5
 42
200.0
 73
     0
 74
     0
 75
     0
  3
ISO-25
100
AcDbAlignedDimension
 13
-5181.74144500068
 23
-271.5392908607162
 33
0.0
 14
-4981.74144500068
 24
-270.0392908607162
 34
0.0
100
AcDbRotatedDimension
  0
DIMENSION
  5
9A54
330
1F
100
AcDbEntity
  8
0
 62
     7
100
AcDbDimension
280
     0
  2
*D82
 10
-4997.74144500068
 20
-371.5392908607162
 30
0.0
 11
-5081.74144500068
 21
-364.5392908607162
 31
0.0
 70
    32
 71
     5
 42
168.0
 73
     0
 74
     0
 75
     0
  3
ISO-25
100
AcDbAlignedDimension
 13
-5165.74144500068
 23
-427.5392908607162
 33
0.0
 14
-4997.74144500068
 24
-427.5392908607162
 34
0.0
100
AcDbRotatedDimension
  0
DIMENSION
  5
9A61
330
1F
100
AcDbEntity
  8
0
 62
     7
100
AcDbDimension
280
     0
  2
*D83
 10
-4994.74144500068
 20
-351.5392908607162
 30
0.0
 11
-5081.74144500068
 21
-344.5392908607162
 31
0.0
 70
    32
 71
     5
 42
174.0
 73
     0
 74
     0
 75
     0
  3
ISO-25
100
AcDbAlignedDimension
 13
-5168.74144500068
 23
-424.5392908607162
 33
0.0
 14
-4994.74144500068
 24
-424.5392908607161
 34
0.0
100
AcDbRotatedDimension
  0
DIMENSION
  5
9A70
330
1F
100
AcDbEntity
  8
0
 62
     7
100
AcDbDimension
280
     0
  2
*D84
 10
-5221.74144500068
 20
-595.5392908607162
 30
0.0
 11
-5228.74144500068
 21
-511.539290860717
 31
0.0
 70
    32
 71
     5
 42
168.0
 73
     0
 74
     0
 75
     0
  3
ISO-25
100
AcDbAlignedDimension
 13
-5165.74144500068
 23
-427.5392908607162
 33
0.0
 14
-5165.74144500068
 24
-595.5392908607162
 34
0.0
 50
90.0
100
AcDbRotatedDimension
  0
DIMENSION
  5
9A7D
330
1F
100
AcDbEntity
  8
0
 62
     7
100
AcDbDimension
280
     0
  2
*D85
 10
-5241.74144500068
 20
-424.5392908607161
 30
0.0
 11
-5248.74144500068
 21
-511.5392908607169
 31
0.0
 70
    32
 71
     5
 42
174.0000000000001
 73
     0
 74
     0
 75
     0
  3
ISO-25
100
AcDbAlignedDimension
 13
-5168.74144500068
 23
-598.5392908607162
 33
0.0
 14
-5168.74144500068
 24
-424.5392908607161
 34
0.0
 50
90.0
100
AcDbRotatedDimension
  0
MTEXT
  5
9A90
330
1F
100
AcDbEntity
  8
0
 62
     7
100
AcDbMText
 10
-5071.741445000679
 20
-569.1392908607162
 30
0.0
 40
8.0
 41
26.6087
 46
0.0
 71
     1
 72
     5
  1
□150
 73
     1
 44
1.0
  0
LEADER
  5
9A98
330
1F
100
AcDbEntity
  8
0
 62
     7
100
AcDbLeader
  3
ISO-25
 73
     0
 74
     0
 75
     1
 40
8.0
 41
42.00000000000001
 76
     3
 10
-4996.24144500068
 20
-426.0392908607161
 30
0.0
 10
-4974.273942494826
 20
-393.139747532131
 30
0.0
 10
-4969.273942494826
 20
-393.139747532131
 30
0.0
340
9A99
1001
ACAD
1000
DSTYLE
1002
{
1070
   147
1040
3.0
1070
    77
1070
     1
1002
}
  0
MTEXT
  5
9A99
102
{ACAD_REACTORS
330
9A98
102
}
330
1F
100
AcDbEntity
  8
0
 62
     7
100
AcDbMText
 10
-4966.273942494826
 20
-390.139747532131
 30
0.0
 40
8.0
 41
0.0
 46
0.0
 71
     7
 72
     1
  1
4-取付穴
 73
     1
 44
1.0
  0
LEADER
  5
9B1F
330
1F
100
AcDbEntity
  8
0
 62
     7
100
AcDbLeader
  3
ISO-25
 76
     2
 10
-5118.876968894802
 20
-173.9161522061993
 30
0.0
 10
-5161.28263608196
 20
-138.5904900916059
 30
0.0
211
0.5000000000000003
221
0.8660254037844385
231
0.0
1001
ACAD
1000
DSTYLE
1002
{
1070
   147
1040
0.5
1070
    77
1070
     1
1002
}
  0
CIRCLE
  5
9B20
330
1F
100
AcDbEntity
  8
0
 62
     7
100
AcDbCircle
 10
-5165.277960960429
 20
-135.2622204036913
 30
0.0
 40
5.2
  0
TEXT
  5
9B21
330
1F
100
AcDbEntity
  8
0
 62
     7
100
AcDbText
 10
-5166.111294293762
 20
-137.7622204036913
 30
0.0
 40
5.0
  1
1
 72
     4
 11
-5165.277960960429
 21
-135.2622204036913
 31
0.0
100
AcDbText
  0
VIEWPORT
  5
834
330
3B5
100
AcDbEntity
 67
     1
  8
0
100
AcDbViewport
 10
0.0
 20
0.0
 30
0.0
 40
0.0
 41
0.0
 68
     1
 69
     1
 12
0.0
 22
0.0
 13
0.0
 23
0.0
 14
10.0
 24
10.0
 15
10.0
 25
10.0
 16
0.0
 26
0.0
 36
1.0
 17
0.0
 27
0.0
 37
0.0
 42
50.0
 43
0.0
 44
0.0
 45
0.0
 50
0.0
 51
0.0
 72
   100
 90
    32800
  1

281
     0
 71
     1
 74
     0
110
0.0
120
0.0
130
0.0
111
1.0
121
0.0
131
0.0
112
0.0
122
1.0
132
0.0
 79
     0
146
0.0
170
     0
 61
     5
348
9B29
292
     1
282
     1
141
0.0
142
0.0
 63
   256
  0
VIEWPORT
  5
836
330
3B5
100
AcDbEntity
 67
     1
  8
0
100
AcDbViewport
 10
0.0
 20
0.0
 30
0.0
 40
0.0
 41
0.0
 68
     2
 69
     2
 12
574.3084900932647
 22
139.7819539138712
 13
0.0
 23
0.0
 14
10.0
 24
10.0
 15
10.0
 25
10.0
 16
0.0
 26
0.0
 36
1.0
 17
0.0
 27
0.0
 37
0.0
 42
50.0
 43
0.0
 44
0.0
 45
369.6066557606862
 50
0.0
 51
0.0
 72
   100
 90
    32832
  1

281
     0
 71
     1
 74
     0
110
0.0
120
0.0
130
0.0
111
1.0
121
0.0
131
0.0
112
0.0
122
1.0
132
0.0
 79
     0
146
0.0
170
     0
 61
     5
348
9B29
292
     1
282
     1
141
0.0
142
0.0
 63
   256
  0
ENDSEC
  0
SECTION
  2
OBJECTS
  0
DICTIONARY
  5
C
330
0
100
AcDbDictionary
281
     1
  3
ACAD_COLOR
350
17E1
  3
ACAD_DETAILVIEWSTYLE
350
9B6E
  3
ACAD_GROUP
350
D
  3
ACAD_LAYOUT
350
1A
  3
ACAD_MATERIAL
350
17E0
  3
ACAD_MLEADERSTYLE
350
9B64
  3
ACAD_MLINESTYLE
350
17
  3
ACAD_PLOTSETTINGS
350
19
  3
ACAD_PLOTSTYLENAME
350
E
  3
ACAD_SCALELIST
350
9B3D
  3
ACAD_SECTIONVIEWSTYLE
350
9B6F
  3
ACAD_TABLESTYLE
350
9B62
  3
ACAD_VISUALSTYLE
350
9B24
  3
AcadDim
350
1431
  3
ACDB_RECOMPOSE_DATA
350
9B6A
  3
AcDbVariableDictionary
350
3A8
  3
APPDATA
350
9B66
  0
DICTIONARY
  5
4FB
330
2
100
AcDbDictionary
280
     1
281
     1
  3
ACAD_LAYERFILTERS
360
4FC
  0
DICTIONARY
  5
17E1
102
{ACAD_REACTORS
330
C
102
}
330
C
100
AcDbDictionary
281
     1
  0
DICTIONARY
  5
9B6E
102
{ACAD_REACTORS
330
C
102
}
330
C
100
AcDbDictionary
281
     1
  0
DICTIONARY
  5
D
102
{ACAD_REACTORS
330
C
102
}
330
C
100
AcDbDictionary
281
     1
  0
DICTIONARY
  5
1A
102
{ACAD_REACTORS
330
C
102
}
330
C
100
AcDbDictionary
281
     1
  3
Model
350
22
  3
ﾚｲｱｳﾄ1
350
3B6
  0
DICTIONARY
  5
17E0
102
{ACAD_REACTORS
330
C
102
}
330
C
100
AcDbDictionary
281
     1
  3
ByBlock
350
9B60
  3
ByLayer
350
9B5F
  3
Global
350
9B61
  0
DICTIONARY
  5
9B64
102
{ACAD_REACTORS
330
C
102
}
330
C
100
AcDbDictionary
281
     1
  3
Standard
350
9B65
  0
DICTIONARY
  5
17
102
{ACAD_REACTORS
330
C
102
}
330
C
100
AcDbDictionary
281
     1
  3
Standard
350
18
  0
DICTIONARY
  5
19
102
{ACAD_REACTORS
330
C
102
}
330
C
100
AcDbDictionary
281
     1
  0
ACDBDICTIONARYWDFLT
  5
E
102
{ACAD_REACTORS
330
C
102
}
330
C
100
AcDbDictionary
281
     1
  3
Normal
350
F
100
AcDbDictionaryWithDefault
340
F
  0
DICTIONARY
  5
9B3D
102
{ACAD_REACTORS
330
C
102
}
330
C
100
AcDbDictionary
281
     1
  3
A0
350
9B3E
  3
A1
350
9B3F
  3
A2
350
9B40
  3
A3
350
9B41
  3
A4
350
9B42
  3
A5
350
9B43
  3
A6
350
9B44
  3
A7
350
9B45
  3
A8
350
9B46
  3
A9
350
9B47
  3
B0
350
9B48
  3
B1
350
9B49
  3
B2
350
9B4A
  3
B3
350
9B4B
  3
B4
350
9B4C
  3
B5
350
9B4D
  3
B6
350
9B4E
  3
B7
350
9B4F
  3
B8
350
9B50
  3
B9
350
9B51
  3
C0
350
9B52
  3
C1
350
9B53
  3
C2
350
9B54
  3
C3
350
9B55
  3
C4
350
9B56
  3
C5
350
9B57
  3
C6
350
9B58
  3
C7
350
9B59
  3
C8
350
9B5A
  3
C9
350
9B5B
  3
D0
350
9B5C
  3
D1
350
9B5D
  3
D2
350
9B5E
  0
DICTIONARY
  5
9B6F
102
{ACAD_REACTORS
330
C
102
}
330
C
100
AcDbDictionary
281
     1
  0
DICTIONARY
  5
9B62
102
{ACAD_REACTORS
330
C
102
}
330
C
100
AcDbDictionary
281
     1
  3
Standard
350
9B63
  0
DICTIONARY
  5
9B24
102
{ACAD_REACTORS
330
C
102
}
330
C
100
AcDbDictionary
281
     1
  3
2dWireframe
350
9B29
  3
Basic
350
9B2C
  3
Brighten
350
9B30
  3
ColorChange
350
9B34
  3
Conceptual
350
9B2E
  3
Dim
350
9B2F
  3
EdgeColorOff
350
9B37
  3
Facepattern
350
9B33
  3
Flat
350
9B25
  3
FlatWithEdges
350
9B26
  3
Gouraud
350
9B27
  3
GouraudWithEdges
350
9B28
  3
Hidden
350
9B2B
  3
JitterOff
350
9B35
  3
Linepattern
350
9B32
  3
OverhangOff
350
9B36
  3
Realistic
350
9B2D
  3
Shaded
350
9B3C
  3
Shaded with edges
350
9B3B
  3
Shades of Gray
350
9B38
  3
Sketchy
350
9B39
  3
Thicken
350
9B31
  3
Wireframe
350
9B2A
  3
X-Ray
350
9B3A
  0
XRECORD
  5
1431
102
{ACAD_REACTORS
330
C
102
}
330
C
100
AcDbXrecord
280
     1
 90
   990106
  3

 60
     0
 61
     0
 62
     4
 63
     4
 64
     1
 65
     0
 66
     0
 67
     2
 68
     1
 69
     0
 70
     0
 71
     1
 72
     0
 40
0.0
170
     2
340
9A13
  0
XRECORD
  5
9B6A
102
{ACAD_REACTORS
330
C
102
}
330
C
100
AcDbXrecord
280
     1
 90
        1
330
9B63
  0
DICTIONARY
  5
3A8
102
{ACAD_REACTORS
330
C
102
}
330
C
100
AcDbDictionary
281
     1
  3
CANNOSCALE
350
9B67
  3
CMLEADERSTYLE
350
9B6C
  3
CTABLESTYLE
350
9B6B
  3
DIMASSOC
350
3A9
  3
MSLTSCALE
350
9B6D
  3
PROJECTNAME
350
4FB5
  0
DICTIONARY
  5
9B66
102
{ACAD_REACTORS
330
C
102
}
330
C
100
AcDbDictionary
281
     1
  0
DICTIONARY
  5
4FC
102
{ACAD_REACTORS
330
4FB
102
}
330
4FB
100
AcDbDictionary
280
     1
281
     1
  3
天板
360
4FD
  0
LAYOUT
  5
22
102
{ACAD_REACTORS
330
1A
102
}
330
1A
100
AcDbPlotSettings
  1

  2
自動 EPSON LASER LP-8600FX (NS-SERVER 上)
  4
A4
  6

 40
5.873749732971191
 41
5.789092063903809
 42
5.873748779296875
 43
5.873748779296875
 44
209.9733276367188
 45
296.9259948730469
 46
0.86
 47
0.0
 48
7906.913771
 49
-5698.271214
140
9281.913771
141
-4823.271214
142
1.0
143
3.796855703810896
 70
 11956
 72
     1
 73
     1
 74
     1
  7

 75
     0
 76
     1
 77
     2
 78
   300
147
0.2633758241052727
148
5351.089983711045
149
693.7113998078553
100
AcDbLayout
  1
Model
 70
     1
 71
     0
 10
0.0
 20
0.0
 11
12.0
 21
9.0
 12
0.0
 22
0.0
 32
0.0
 14
-5350.913882832027
 24
-693.6811689244603
 34
0.0
 15
-4268.273882832027
 25
52.35883107553991
 35
0.0
146
0.0
 13
0.0
 23
0.0
 33
0.0
 16
1.0
 26
0.0
 36
0.0
 17
0.0
 27
1.0
 37
0.0
 76
     0
330
1F
331
9B23
  0
LAYOUT
  5
3B6
102
{ACAD_REACTORS
330
1A
102
}
330
1A
100
AcDbPlotSettings
  1

  2
\\Ns-server\EPSON LP-8600FX
  4

  6

 40
0.0
 41
0.0
 42
0.0
 43
0.0
 44
0.0
 45
0.0
 46
0.0
 47
0.0
 48
0.0
 49
0.0
140
0.0
141
0.0
142
1.0
143
1.0
 70
   688
 72
     0
 73
     1
 74
     1
  7

 75
     0
 76
     0
 77
     2
 78
   300
147
1.0
148
0.0
149
0.0
100
AcDbLayout
  1
ﾚｲｱｳﾄ1
 70
     1
 71
     1
 10
0.0
 20
0.0
 11
0.0
 21
0.0
 12
0.0
 22
0.0
 32
0.0
 14
0.0
 24
0.0
 34
0.0
 15
0.0
 25
0.0
 35
0.0
146
0.0
 13
0.0
 23
0.0
 33
0.0
 16
1.0
 26
0.0
 36
0.0
 17
0.0
 27
1.0
 37
0.0
 76
     0
330
3B5
331
834
  0
MATERIAL
  5
9B60
102
{ACAD_REACTORS
330
17E0
102
}
330
17E0
100
AcDbMaterial
  1
ByBlock
 72
     1
 94
      127
  0
MATERIAL
  5
9B5F
102
{ACAD_REACTORS
330
17E0
102
}
330
17E0
100
AcDbMaterial
  1
ByLayer
 72
     1
 94
      127
  0
MATERIAL
  5
9B61
102
{ACAD_REACTORS
330
17E0
102
}
330
17E0
100
AcDbMaterial
  1
Global
 72
     1
 94
      127
  0
MLEADERSTYLE
  5
9B65
102
{ACAD_REACTORS
330
9B64
102
}
330
9B64
100
AcDbMLeaderStyle
179
     2
170
     2
171
     1
172
     0
 90
        2
 40
0.0
 41
0.0
173
     1
 91
-1056964608
340
14
 92
       -2
290
     1
 42
2.0
291
     1
 43
8.0
  3
Standard
341
0
 44
4.0
300

342
11
174
     1
178
     1
175
     1
176
     0
 93
-1056964608
 45
4.0
292
     0
297
     0
 46
4.0
343
0
 94
-1056964608
 47
1.0
 49
1.0
140
1.0
293
     1
141
0.0
294
     1
177
     0
142
1.0
295
     0
296
     0
143
3.75
271
     0
272
     9
273
     9
298
     0
  0
MLINESTYLE
  5
18
102
{ACAD_REACTORS
330
17
102
}
330
17
100
AcDbMlineStyle
  2
STANDARD
 70
     0
  3

 62
   256
 51
90.0
 52
90.0
 71
     2
 49
0.5
 62
   256
  6
BYLAYER
 49
-0.5
 62
   256
  6
BYLAYER
  0
ACDBPLACEHOLDER
  5
F
102
{ACAD_REACTORS
330
E
102
}
330
E
  0
SCALE
  5
9B3E
102
{ACAD_REACTORS
330
9B3D
102
}
330
9B3D
100
AcDbScale
 70
     0
300
1:1
140
1.0
141
1.0
290
     1
  0
SCALE
  5
9B3F
102
{ACAD_REACTORS
330
9B3D
102
}
330
9B3D
100
AcDbScale
 70
     0
300
1:2
140
1.0
141
2.0
290
     0
  0
SCALE
  5
9B40
102
{ACAD_REACTORS
330
9B3D
102
}
330
9B3D
100
AcDbScale
 70
     0
300
1:4
140
1.0
141
4.0
290
     0
  0
SCALE
  5
9B41
102
{ACAD_REACTORS
330
9B3D
102
}
330
9B3D
100
AcDbScale
 70
     0
300
1:5
140
1.0
141
5.0
290
     0
  0
SCALE
  5
9B42
102
{ACAD_REACTORS
330
9B3D
102
}
330
9B3D
100
AcDbScale
 70
     0
300
1:8
140
1.0
141
8.0
290
     0
  0
SCALE
  5
9B43
102
{ACAD_REACTORS
330
9B3D
102
}
330
9B3D
100
AcDbScale
 70
     0
300
1:10
140
1.0
141
10.0
290
     0
  0
SCALE
  5
9B44
102
{ACAD_REACTORS
330
9B3D
102
}
330
9B3D
100
AcDbScale
 70
     0
300
1:16
140
1.0
141
16.0
290
     0
  0
SCALE
  5
9B45
102
{ACAD_REACTORS
330
9B3D
102
}
330
9B3D
100
AcDbScale
 70
     0
300
1:20
140
1.0
141
20.0
290
     0
  0
SCALE
  5
9B46
102
{ACAD_REACTORS
330
9B3D
102
}
330
9B3D
100
AcDbScale
 70
     0
300
1:30
140
1.0
141
30.0
290
     0
  0
SCALE
  5
9B47
102
{ACAD_REACTORS
330
9B3D
102
}
330
9B3D
100
AcDbScale
 70
     0
300
1:40
140
1.0
141
40.0
290
     0
  0
SCALE
  5
9B48
102
{ACAD_REACTORS
330
9B3D
102
}
330
9B3D
100
AcDbScale
 70
     0
300
1:50
140
1.0
141
50.0
290
     0
  0
SCALE
  5
9B49
102
{ACAD_REACTORS
330
9B3D
102
}
330
9B3D
100
AcDbScale
 70
     0
300
1:100
140
1.0
141
100.0
290
     0
  0
SCALE
  5
9B4A
102
{ACAD_REACTORS
330
9B3D
102
}
330
9B3D
100
AcDbScale
 70
     0
300
2:1
140
2.0
141
1.0
290
     0
  0
SCALE
  5
9B4B
102
{ACAD_REACTORS
330
9B3D
102
}
330
9B3D
100
AcDbScale
 70
     0
300
4:1
140
4.0
141
1.0
290
     0
  0
SCALE
  5
9B4C
102
{ACAD_REACTORS
330
9B3D
102
}
330
9B3D
100
AcDbScale
 70
     0
300
8:1
140
8.0
141
1.0
290
     0
  0
SCALE
  5
9B4D
102
{ACAD_REACTORS
330
9B3D
102
}
330
9B3D
100
AcDbScale
 70
     0
300
10:1
140
10.0
141
1.0
290
     0
  0
SCALE
  5
9B4E
102
{ACAD_REACTORS
330
9B3D
102
}
330
9B3D
100
AcDbScale
 70
     0
300
100:1
140
100.0
141
1.0
290
     0
  0
SCALE
  5
9B4F
102
{ACAD_REACTORS
330
9B3D
102
}
330
9B3D
100
AcDbScale
 70
     0
300
1/128" = 1'-0"
140
0.0078125
141
12.0
290
     0
  0
SCALE
  5
9B50
102
{ACAD_REACTORS
330
9B3D
102
}
330
9B3D
100
AcDbScale
 70
     0
300
1/64" = 1'-0"
140
0.015625
141
12.0
290
     0
  0
SCALE
  5
9B51
102
{ACAD_REACTORS
330
9B3D
102
}
330
9B3D
100
AcDbScale
 70
     0
300
1/32" = 1'-0"
140
0.03125
141
12.0
290
     0
  0
SCALE
  5
9B52
102
{ACAD_REACTORS
330
9B3D
102
}
330
9B3D
100
AcDbScale
 70
     0
300
1/16" = 1'-0"
140
0.0625
141
12.0
290
     0
  0
SCALE
  5
9B53
102
{ACAD_REACTORS
330
9B3D
102
}
330
9B3D
100
AcDbScale
 70
     0
300
3/32" = 1'-0"
140
0.09375
141
12.0
290
     0
  0
SCALE
  5
9B54
102
{ACAD_REACTORS
330
9B3D
102
}
330
9B3D
100
AcDbScale
 70
     0
300
1/8" = 1'-0"
140
0.125
141
12.0
290
     0
  0
SCALE
  5
9B55
102
{ACAD_REACTORS
330
9B3D
102
}
330
9B3D
100
AcDbScale
 70
     0
300
3/16" = 1'-0"
140
0.1875
141
12.0
290
     0
  0
SCALE
  5
9B56
102
{ACAD_REACTORS
330
9B3D
102
}
330
9B3D
100
AcDbScale
 70
     0
300
1/4" = 1'-0"
140
0.25
141
12.0
290
     0
  0
SCALE
  5
9B57
102
{ACAD_REACTORS
330
9B3D
102
}
330
9B3D
100
AcDbScale
 70
     0
300
3/8" = 1'-0"
140
0.375
141
12.0
290
     0
  0
SCALE
  5
9B58
102
{ACAD_REACTORS
330
9B3D
102
}
330
9B3D
100
AcDbScale
 70
     0
300
1/2" = 1'-0"
140
0.5
141
12.0
290
     0
  0
SCALE
  5
9B59
102
{ACAD_REACTORS
330
9B3D
102
}
330
9B3D
100
AcDbScale
 70
     0
300
3/4" = 1'-0"
140
0.75
141
12.0
290
     0
  0
SCALE
  5
9B5A
102
{ACAD_REACTORS
330
9B3D
102
}
330
9B3D
100
AcDbScale
 70
     0
300
1" = 1'-0"
140
1.0
141
12.0
290
     0
  0
SCALE
  5
9B5B
102
{ACAD_REACTORS
330
9B3D
102
}
330
9B3D
100
AcDbScale
 70
     0
300
1-1/2" = 1'-0"
140
1.5
141
12.0
290
     0
  0
SCALE
  5
9B5C
102
{ACAD_REACTORS
330
9B3D
102
}
330
9B3D
100
AcDbScale
 70
     0
300
3" = 1'-0"
140
3.0
141
12.0
290
     0
  0
SCALE
  5
9B5D
102
{ACAD_REACTORS
330
9B3D
102
}
330
9B3D
100
AcDbScale
 70
     0
300
6" = 1'-0"
140
6.0
141
12.0
290
     0
  0
SCALE
  5
9B5E
102
{ACAD_REACTORS
330
9B3D
102
}
330
9B3D
100
AcDbScale
 70
     0
300
1'-0" = 1'-0"
140
12.0
141
12.0
290
     0
  0
TABLESTYLE
  5
9B63
102
{ACAD_REACTORS
330
9B62
102
}
102
{ACAD_XDICTIONARY
360
9B68
102
}
330
9B62
100
AcDbTableStyle
  3
Standard
 70
     0
 71
     0
 40
0.06
 41
0.06
280
     0
281
     0
  7
Standard
140
4.5
170
     2
 62
     0
 63
   257
283
     0
 90
        4
 91
        0
  1

274
    -2
284
     1
 64
     0
275
    -2
285
     1
 65
     0
276
    -2
286
     1
 66
     0
277
    -2
287
     1
 67
     0
278
    -2
288
     1
 68
     0
279
    -2
289
     1
 69
     0
  7
Standard
140
6.0
170
     5
 62
     0
 63
   257
283
     0
 90
        4
 91
        0
  1

274
    -2
284
     1
 64
     0
275
    -2
285
     1
 65
     0
276
    -2
286
     1
 66
     0
277
    -2
287
     1
 67
     0
278
    -2
288
     1
 68
     0
279
    -2
289
     1
 69
     0
  7
Standard
140
4.5
170
     5
 62
     0
 63
   257
283
     0
 90
        4
 91
        0
  1

274
    -2
284
     1
 64
     0
275
    -2
285
     1
 65
     0
276
    -2
286
     1
 66
     0
277
    -2
287
     1
 67
     0
278
    -2
288
     1
 68
     0
279
    -2
289
     1
 69
     0
  0
VISUALSTYLE
  5
9B29
102
{ACAD_REACTORS
330
9B24
102
}
330
9B24
100
AcDbVisualStyle
  2
2dWireframe
 70
     4
177
     3
291
     0
 70
    58
 90
        0
176
     1
 90
        2
176
     1
 90
        0
176
     1
 90
        0
176
     1
 40
0.6
176
     1
 40
30.0
176
     1
 62
     7
420
 16777215
176
     1
 90
        1
176
     1
 90
        4
176
     1
 62
     7
176
     1
 62
   257
176
     1
 90
        1
176
     1
 90
        1
176
     1
 40
1.0
176
     1
 90
        0
176
     1
 62
   257
176
     1
 40
1.0
176
     1
 90
        1
176
     1
 90
        6
176
     1
 90
        2
176
     1
 62
     7
176
     1
 90
        5
176
     1
 90
        0
176
     1
 90
        0
176
     1
290
     0
176
     1
 90
        1
176
     1
 40
0.0
176
     1
 90
        0
176
     1
290
     1
176
     1
290
     1
176
     1
290
     0
176
     1
290
     0
176
     1
290
     0
176
     1
290
     0
176
     1
290
     0
176
     1
290
     0
176
     1
290
     0
176
     1
 90
       50
176
     1
 40
0.0
176
     1
 40
1.0
176
     1
 90
        0
176
     1
 62
    18
420
        0
176
     1
 90
       50
176
     1
 90
        3
176
     1
 62
     5
420
      255
176
     1
290
     0
176
     1
 90
       50
176
     1
 90
       50
176
     1
 90
       50
176
     1
290
     0
176
     1
 90
       50
176
     1
 62
   256
176
     0
 40
1.0
176
     0
 90
        2
176
     1
  1
strokes_ogs.tif
176
     1
290
     0
176
     1
 40
1.0
176
     1
 40
1.0
176
     1
  0
VISUALSTYLE
  5
9B2C
102
{ACAD_REACTORS
330
9B24
102
}
330
9B24
100
AcDbVisualStyle
  2
Basic
 70
     7
177
     3
291
     1
 70
    58
 90
        1
176
     1
 90
        0
176
     1
 90
        1
176
     1
 90
        0
176
     1
 40
0.6
176
     1
 40
30.0
176
     1
 62
     7
420
 16777215
176
     1
 90
        0
176
     1
 90
        4
176
     1
 62
     7
176
     1
 62
   257
176
     1
 90
        1
176
     1
 90
        1
176
     1
 40
1.0
176
     1
 90
        8
176
     1
 62
     7
176
     1
 40
1.0
176
     1
 90
        1
176
     1
 90
        6
176
     1
 90
        2
176
     1
 62
     7
176
     1
 90
        5
176
     1
 90
        0
176
     1
 90
        0
176
     1
290
     0
176
     1
 90
        1
176
     1
 40
0.0
176
     1
 90
        0
176
     1
290
     0
176
     1
290
     1
176
     1
290
     1
176
     1
290
     0
176
     1
290
     0
176
     1
290
     0
176
     1
290
     0
176
     1
290
     0
176
     1
290
     0
176
     1
 90
       50
176
     1
 40
0.0
176
     1
 40
1.0
176
     1
 90
        0
176
     1
 62
    18
420
        0
176
     1
 90
       50
176
     1
 90
        3
176
     1
 62
     5
420
      255
176
     1
290
     0
176
     1
 90
       50
176
     1
 90
       50
176
     1
 90
       50
176
     1
290
     0
176
     1
 90
       50
176
     1
 62
   256
176
     0
 40
1.0
176
     0
 90
        2
176
     1
  1
strokes_ogs.tif
176
     1
290
     0
176
     1
 40
1.0
176
     1
 40
1.0
176
     1
  0
VISUALSTYLE
  5
9B30
102
{ACAD_REACTORS
330
9B24
102
}
330
9B24
100
AcDbVisualStyle
  2
Brighten
 70
    12
177
     3
291
     1
 70
    58
 90
        2
176
     1
 90
        2
176
     1
 90
        0
176
     1
 90
        0
176
     1
 40
0.6
176
     1
 40
30.0
176
     1
 62
     7
420
 16777215
176
     1
 90
        1
176
     1
 90
        4
176
     1
 62
     7
176
     1
 62
   257
176
     1
 90
        1
176
     1
 90
        1
176
     1
 40
1.0
176
     1
 90
        8
176
     1
 62
     7
176
     1
 40
1.0
176
     1
 90
        1
176
     1
 90
        6
176
     1
 90
        2
176
     1
 62
     7
176
     1
 90
        5
176
     1
 90
        0
176
     1
 90
        0
176
     1
290
     0
176
     1
 90
        1
176
     1
 40
50.0
176
     1
 90
        0
176
     1
290
     0
176
     1
290
     1
176
     1
290
     1
176
     1
290
     0
176
     1
290
     0
176
     1
290
     0
176
     1
290
     0
176
     1
290
     0
176
     1
290
     0
176
     1
 90
       50
176
     1
 40
0.0
176
     1
 40
1.0
176
     1
 90
        0
176
     1
 62
    18
420
        0
176
     1
 90
       50
176
     1
 90
        3
176
     1
 62
     5
420
      255
176
     1
290
     0
176
     1
 90
       50
176
     1
 90
       50
176
     1
 90
       50
176
     1
290
     0
176
     1
 90
       50
176
     1
 62
   256
176
     0
 40
1.0
176
     0
 90
        2
176
     1
  1
strokes_ogs.tif
176
     1
290
     0
176
     1
 40
1.0
176
     1
 40
1.0
176
     1
  0
VISUALSTYLE
  5
9B34
102
{ACAD_REACTORS
330
9B24
102
}
330
9B24
100
AcDbVisualStyle
  2
ColorChange
 70
    16
177
     3
291
     1
 70
    58
 90
        2
176
     1
 90
        2
176
     1
 90
        3
176
     1
 90
        0
176
     1
 40
0.6
176
     1
 40
30.0
176
     1
 62
     8
420
  8421504
176
     1
 90
        1
176
     1
 90
        4
176
     1
 62
     7
176
     1
 62
   257
176
     1
 90
        1
176
     1
 90
        1
176
     1
 40
1.0
176
     1
 90
        8
176
     1
 62
     8
420
  8421504
176
     1
 40
1.0
176
     1
 90
        1
176
     1
 90
        6
176
     1
 90
        2
176
     1
 62
     7
176
     1
 90
        5
176
     1
 90
        0
176
     1
 90
        0
176
     1
290
     0
176
     1
 90
        1
176
     1
 40
0.0
176
     1
 90
        0
176
     1
290
     0
176
     1
290
     1
176
     1
290
     1
176
     1
290
     0
176
     1
290
     0
176
     1
290
     0
176
     1
290
     0
176
     1
290
     0
176
     1
290
     0
176
     1
 90
       50
176
     1
 40
0.0
176
     1
 40
1.0
176
     1
 90
        0
176
     1
 62
    18
420
        0
176
     1
 90
       50
176
     1
 90
        3
176
     1
 62
     5
420
      255
176
     1
290
     0
176
     1
 90
       50
176
     1
 90
       50
176
     1
 90
       50
176
     1
290
     0
176
     1
 90
       50
176
     1
 62
   256
176
     0
 40
1.0
176
     0
 90
        2
176
     1
  1
strokes_ogs.tif
176
     1
290
     0
176
     1
 40
1.0
176
     1
 40
1.0
176
     1
  0
VISUALSTYLE
  5
9B2E
102
{ACAD_REACTORS
330
9B24
102
}
330
9B24
100
AcDbVisualStyle
  2
Conceptual
 70
     9
177
     3
291
     0
 70
    58
 90
        3
176
     1
 90
        2
176
     1
 90
        0
176
     1
 90
        0
176
     1
 40
0.6
176
     1
 40
30.0
176
     1
 62
     7
420
 16777215
176
     1
 90
        2
176
     1
 90
        2
176
     1
 62
     7
176
     1
 62
   257
176
     1
 90
        1
176
     1
 90
        1
176
     1
 40
179.0
176
     1
 90
        8
176
     1
 62
     7
176
     1
 40
1.0
176
     1
 90
        1
176
     1
 90
        6
176
     1
 90
        2
176
     1
 62
     7
176
     1
 90
        3
176
     1
 90
        0
176
     1
 90
        0
176
     1
290
     0
176
     1
 90
        1
176
     1
 40
0.0
176
     1
 90
        0
176
     1
290
     0
176
     1
290
     1
176
     1
290
     1
176
     1
290
     0
176
     1
290
     0
176
     1
290
     0
176
     1
290
     0
176
     1
290
     0
176
     1
290
     0
176
     1
 90
       50
176
     1
 40
0.0
176
     1
 40
1.0
176
     1
 90
        0
176
     1
 62
    18
420
        0
176
     1
 90
       50
176
     1
 90
        3
176
     1
 62
     5
420
      255
176
     1
290
     0
176
     1
 90
       50
176
     1
 90
       50
176
     1
 90
       50
176
     1
290
     0
176
     1
 90
       50
176
     1
 62
   256
176
     0
 40
1.0
176
     0
 90
        2
176
     1
  1
strokes_ogs.tif
176
     1
290
     0
176
     1
 40
1.0
176
     1
 40
1.0
176
     1
  0
VISUALSTYLE
  5
9B2F
102
{ACAD_REACTORS
330
9B24
102
}
330
9B24
100
AcDbVisualStyle
  2
Dim
 70
    11
177
     3
291
     1
 70
    58
 90
        2
176
     1
 90
        2
176
     1
 90
        0
176
     1
 90
        0
176
     1
 40
0.6
176
     1
 40
30.0
176
     1
 62
     7
420
 16777215
176
     1
 90
        1
176
     1
 90
        4
176
     1
 62
     7
176
     1
 62
   257
176
     1
 90
        1
176
     1
 90
        1
176
     1
 40
1.0
176
     1
 90
        8
176
     1
 62
     7
176
     1
 40
1.0
176
     1
 90
        1
176
     1
 90
        6
176
     1
 90
        2
176
     1
 62
     7
176
     1
 90
        5
176
     1
 90
        0
176
     1
 90
        0
176
     1
290
     0
176
     1
 90
        1
176
     1
 40
-50.0
176
     1
 90
        0
176
     1
290
     0
176
     1
290
     1
176
     1
290
     1
176
     1
290
     0
176
     1
290
     0
176
     1
290
     0
176
     1
290
     0
176
     1
290
     0
176
     1
290
     0
176
     1
 90
       50
176
     1
 40
0.0
176
     1
 40
1.0
176
     1
 90
        0
176
     1
 62
    18
420
        0
176
     1
 90
       50
176
     1
 90
        3
176
     1
 62
     5
420
      255
176
     1
290
     0
176
     1
 90
       50
176
     1
 90
       50
176
     1
 90
       50
176
     1
290
     0
176
     1
 90
       50
176
     1
 62
   256
176
     0
 40
1.0
176
     0
 90
        2
176
     1
  1
strokes_ogs.tif
176
     1
290
     0
176
     1
 40
1.0
176
     1
 40
1.0
176
     1
  0
VISUALSTYLE
  5
9B37
102
{ACAD_REACTORS
330
9B24
102
}
330
9B24
100
AcDbVisualStyle
  2
EdgeColorOff
 70
    22
177
     3
291
     1
 70
    58
 90
        2
176
     0
 90
        2
176
     0
 90
        0
176
     0
 90
        0
176
     0
 40
0.6
176
     0
 40
30.0
176
     0
 62
     7
420
 16777215
176
     0
 90
        1
176
     0
 90
        4
176
     0
 62
     7
176
     0
 62
   257
176
     0
 90
        1
176
     0
 90
        1
176
     0
 40
1.0
176
     0
 90
        8
176
     2
 62
     7
176
     0
 40
1.0
176
     0
 90
        1
176
     0
 90
        6
176
     0
 90
        2
176
     0
 62
     7
176
     0
 90
        5
176
     0
 90
        0
176
     0
 90
        0
176
     0
290
     0
176
     0
 90
        1
176
     0
 40
0.0
176
     0
 90
        0
176
     0
290
     0
176
     0
290
     1
176
     0
290
     1
176
     0
290
     0
176
     0
290
     0
176
     0
290
     0
176
     0
290
     0
176
     0
290
     0
176
     0
290
     0
176
     0
 90
       50
176
     0
 40
0.0
176
     0
 40
1.0
176
     0
 90
        0
176
     0
 62
    18
420
        0
176
     0
 90
       50
176
     0
 90
        3
176
     0
 62
     5
420
      255
176
     0
290
     0
176
     0
 90
       50
176
     0
 90
       50
176
     0
 90
       50
176
     0
290
     0
176
     0
 90
       50
176
     0
 62
   256
176
     0
 40
1.0
176
     0
 90
        2
176
     0
  1
strokes_ogs.tif
176
     0
290
     0
176
     0
 40
1.0
176
     0
 40
1.0
176
     0
  0
VISUALSTYLE
  5
9B33
102
{ACAD_REACTORS
330
9B24
102
}
330
9B24
100
AcDbVisualStyle
  2
Facepattern
 70
    15
177
     3
291
     1
 70
    58
 90
        2
176
     1
 90
        2
176
     1
 90
        0
176
     1
 90
        0
176
     1
 40
0.6
176
     1
 40
30.0
176
     1
 62
     7
420
 16777215
176
     1
 90
        1
176
     1
 90
        4
176
     1
 62
     7
176
     1
 62
   257
176
     1
 90
        1
176
     1
 90
        1
176
     1
 40
1.0
176
     1
 90
        8
176
     1
 62
     7
176
     1
 40
1.0
176
     1
 90
        1
176
     1
 90
        6
176
     1
 90
        2
176
     1
 62
     7
176
     1
 90
        5
176
     1
 90
        0
176
     1
 90
        0
176
     1
290
     0
176
     1
 90
        1
176
     1
 40
0.0
176
     1
 90
        0
176
     1
290
     0
176
     1
290
     1
176
     1
290
     1
176
     1
290
     0
176
     1
290
     0
176
     1
290
     0
176
     1
290
     0
176
     1
290
     0
176
     1
290
     0
176
     1
 90
       50
176
     1
 40
0.0
176
     1
 40
1.0
176
     1
 90
        0
176
     1
 62
    18
420
        0
176
     1
 90
       50
176
     1
 90
        3
176
     1
 62
     5
420
      255
176
     1
290
     0
176
     1
 90
       50
176
     1
 90
       50
176
     1
 90
       50
176
     1
290
     0
176
     1
 90
       50
176
     1
 62
   256
176
     0
 40
1.0
176
     0
 90
        2
176
     1
  1
strokes_ogs.tif
176
     1
290
     0
176
     1
 40
1.0
176
     1
 40
1.0
176
     1
  0
VISUALSTYLE
  5
9B25
102
{ACAD_REACTORS
330
9B24
102
}
330
9B24
100
AcDbVisualStyle
  2
Flat
 70
     0
177
     3
291
     1
 70
    58
 90
        2
176
     1
 90
        1
176
     1
 90
        1
176
     1
 90
        2
176
     1
 40
0.6
176
     1
 40
30.0
176
     1
 62
     7
420
 16777215
176
     1
 90
        0
176
     1
 90
        0
176
     1
 62
     7
176
     1
 62
   257
176
     1
 90
        1
176
     1
 90
        1
176
     1
 40
1.0
176
     1
 90
        8
176
     1
 62
     7
176
     1
 40
1.0
176
     1
 90
        1
176
     1
 90
        6
176
     1
 90
        2
176
     1
 62
     7
176
     1
 90
        5
176
     1
 90
        0
176
     1
 90
        0
176
     1
290
     0
176
     1
 90
       13
176
     1
 40
0.0
176
     1
 90
        0
176
     1
290
     0
176
     1
290
     1
176
     1
290
     1
176
     1
290
     0
176
     1
290
     0
176
     1
290
     0
176
     1
290
     0
176
     1
290
     0
176
     1
290
     0
176
     1
 90
       50
176
     1
 40
0.0
176
     1
 40
1.0
176
     1
 90
        0
176
     1
 62
    18
420
        0
176
     1
 90
       50
176
     1
 90
        3
176
     1
 62
     5
420
      255
176
     1
290
     0
176
     1
 90
       50
176
     1
 90
       50
176
     1
 90
       50
176
     1
290
     0
176
     1
 90
       50
176
     1
 62
   256
176
     0
 40
1.0
176
     0
 90
        2
176
     1
  1
strokes_ogs.tif
176
     1
290
     0
176
     1
 40
1.0
176
     1
 40
1.0
176
     1
  0
VISUALSTYLE
  5
9B26
102
{ACAD_REACTORS
330
9B24
102
}
330
9B24
100
AcDbVisualStyle
  2
FlatWithEdges
 70
     1
177
     3
291
     1
 70
    58
 90
        2
176
     1
 90
        1
176
     1
 90
        1
176
     1
 90
        2
176
     1
 40
0.6
176
     1
 40
30.0
176
     1
 62
     7
420
 16777215
176
     1
 90
        1
176
     1
 90
        0
176
     1
 62
     7
176
     1
 62
   257
176
     1
 90
        1
176
     1
 90
        1
176
     1
 40
1.0
176
     1
 90
        0
176
     1
 62
   257
176
     1
 40
1.0
176
     1
 90
        1
176
     1
 90
        6
176
     1
 90
        2
176
     1
 62
     7
176
     1
 90
        5
176
     1
 90
        0
176
     1
 90
        0
176
     1
290
     0
176
     1
 90
       13
176
     1
 40
0.0
176
     1
 90
        0
176
     1
290
     0
176
     1
290
     1
176
     1
290
     1
176
     1
290
     0
176
     1
290
     0
176
     1
290
     0
176
     1
290
     0
176
     1
290
     0
176
     1
290
     0
176
     1
 90
       50
176
     1
 40
0.0
176
     1
 40
1.0
176
     1
 90
        0
176
     1
 62
    18
420
        0
176
     1
 90
       50
176
     1
 90
        3
176
     1
 62
     5
420
      255
176
     1
290
     0
176
     1
 90
       50
176
     1
 90
       50
176
     1
 90
       50
176
     1
290
     0
176
     1
 90
       50
176
     1
 62
   256
176
     0
 40
1.0
176
     0
 90
        2
176
     1
  1
strokes_ogs.tif
176
     1
290
     0
176
     1
 40
1.0
176
     1
 40
1.0
176
     1
  0
VISUALSTYLE
  5
9B27
102
{ACAD_REACTORS
330
9B24
102
}
330
9B24
100
AcDbVisualStyle
  2
Gouraud
 70
     2
177
     3
291
     1
 70
    58
 90
        2
176
     1
 90
        2
176
     1
 90
        1
176
     1
 90
        2
176
     1
 40
0.6
176
     1
 40
30.0
176
     1
 62
     7
420
 16777215
176
     1
 90
        0
176
     1
 90
        0
176
     1
 62
     7
176
     1
 62
   257
176
     1
 90
        1
176
     1
 90
        1
176
     1
 40
1.0
176
     1
 90
        0
176
     1
 62
     7
176
     1
 40
1.0
176
     1
 90
        1
176
     1
 90
        6
176
     1
 90
        2
176
     1
 62
     7
176
     1
 90
        5
176
     1
 90
        0
176
     1
 90
        0
176
     1
290
     0
176
     1
 90
       13
176
     1
 40
0.0
176
     1
 90
        0
176
     1
290
     0
176
     1
290
     1
176
     1
290
     1
176
     1
290
     0
176
     1
290
     0
176
     1
290
     0
176
     1
290
     0
176
     1
290
     0
176
     1
290
     0
176
     1
 90
       50
176
     1
 40
0.0
176
     1
 40
1.0
176
     1
 90
        0
176
     1
 62
    18
420
        0
176
     1
 90
       50
176
     1
 90
        3
176
     1
 62
     5
420
      255
176
     1
290
     0
176
     1
 90
       50
176
     1
 90
       50
176
     1
 90
       50
176
     1
290
     0
176
     1
 90
       50
176
     1
 62
   256
176
     0
 40
1.0
176
     0
 90
        2
176
     1
  1
strokes_ogs.tif
176
     1
290
     0
176
     1
 40
1.0
176
     1
 40
1.0
176
     1
  0
VISUALSTYLE
  5
9B28
102
{ACAD_REACTORS
330
9B24
102
}
330
9B24
100
AcDbVisualStyle
  2
GouraudWithEdges
 70
     3
177
     3
291
     1
 70
    58
 90
        2
176
     1
 90
        2
176
     1
 90
        1
176
     1
 90
        2
176
     1
 40
0.6
176
     1
 40
30.0
176
     1
 62
     7
420
 16777215
176
     1
 90
        1
176
     1
 90
        0
176
     1
 62
     7
176
     1
 62
   257
176
     1
 90
        1
176
     1
 90
        1
176
     1
 40
1.0
176
     1
 90
        0
176
     1
 62
   257
176
     1
 40
1.0
176
     1
 90
        1
176
     1
 90
        6
176
     1
 90
        2
176
     1
 62
     7
176
     1
 90
        5
176
     1
 90
        0
176
     1
 90
        0
176
     1
290
     0
176
     1
 90
       13
176
     1
 40
0.0
176
     1
 90
        0
176
     1
290
     0
176
     1
290
     1
176
     1
290
     1
176
     1
290
     0
176
     1
290
     0
176
     1
290
     0
176
     1
290
     0
176
     1
290
     0
176
     1
290
     0
176
     1
 90
       50
176
     1
 40
0.0
176
     1
 40
1.0
176
     1
 90
        0
176
     1
 62
    18
420
        0
176
     1
 90
       50
176
     1
 90
        3
176
     1
 62
     5
420
      255
176
     1
290
     0
176
     1
 90
       50
176
     1
 90
       50
176
     1
 90
       50
176
     1
290
     0
176
     1
 90
       50
176
     1
 62
   256
176
     0
 40
1.0
176
     0
 90
        2
176
     1
  1
strokes_ogs.tif
176
     1
290
     0
176
     1
 40
1.0
176
     1
 40
1.0
176
     1
  0
VISUALSTYLE
  5
9B2B
102
{ACAD_REACTORS
330
9B24
102
}
330
9B24
100
AcDbVisualStyle
  2
Hidden
 70
     6
177
     3
291
     0
 70
    58
 90
        1
176
     1
 90
        2
176
     1
 90
        2
176
     1
 90
        0
176
     1
 40
0.6
176
     1
 40
30.0
176
     1
 62
     7
420
 16777215
176
     1
 90
        2
176
     1
 90
        2
176
     1
 62
     7
176
     1
 62
   257
176
     1
 90
        2
176
     1
 90
        1
176
     1
 40
40.0
176
     1
 90
        0
176
     1
 62
   257
176
     1
 40
1.0
176
     1
 90
        1
176
     1
 90
        6
176
     1
 90
        2
176
     1
 62
     7
176
     1
 90
        3
176
     1
 90
        0
176
     1
 90
        0
176
     1
290
     0
176
     1
 90
        1
176
     1
 40
0.0
176
     1
 90
        0
176
     1
290
     0
176
     1
290
     1
176
     1
290
     1
176
     1
290
     0
176
     1
290
     0
176
     1
290
     0
176
     1
290
     0
176
     1
290
     0
176
     1
290
     0
176
     1
 90
       50
176
     1
 40
0.0
176
     1
 40
1.0
176
     1
 90
        0
176
     1
 62
    18
420
        0
176
     1
 90
       50
176
     1
 90
        3
176
     1
 62
     5
420
      255
176
     1
290
     0
176
     1
 90
       50
176
     1
 90
       50
176
     1
 90
       50
176
     1
290
     0
176
     1
 90
       50
176
     1
 62
   256
176
     0
 40
1.0
176
     0
 90
        2
176
     1
  1
strokes_ogs.tif
176
     1
290
     0
176
     1
 40
1.0
176
     1
 40
1.0
176
     1
  0
VISUALSTYLE
  5
9B35
102
{ACAD_REACTORS
330
9B24
102
}
330
9B24
100
AcDbVisualStyle
  2
JitterOff
 70
    20
177
     3
291
     1
 70
    58
 90
        2
176
     0
 90
        2
176
     0
 90
        0
176
     0
 90
        0
176
     0
 40
0.6
176
     0
 40
30.0
176
     0
 62
     7
420
 16777215
176
     0
 90
        1
176
     0
 90
        4
176
     0
 62
     7
176
     0
 62
   257
176
     0
 90
        1
176
     0
 90
        1
176
     0
 40
1.0
176
     0
 90
       10
176
     2
 62
     7
176
     0
 40
1.0
176
     0
 90
        1
176
     0
 90
        6
176
     0
 90
        2
176
     0
 62
     7
176
     0
 90
        5
176
     0
 90
        0
176
     0
 90
        0
176
     0
290
     0
176
     0
 90
        1
176
     0
 40
0.0
176
     0
 90
        0
176
     0
290
     0
176
     0
290
     1
176
     0
290
     1
176
     0
290
     0
176
     0
290
     0
176
     0
290
     0
176
     0
290
     0
176
     0
290
     0
176
     0
290
     0
176
     0
 90
       50
176
     0
 40
0.0
176
     0
 40
1.0
176
     0
 90
        0
176
     0
 62
    18
420
        0
176
     0
 90
       50
176
     0
 90
        3
176
     0
 62
     5
420
      255
176
     0
290
     0
176
     0
 90
       50
176
     0
 90
       50
176
     0
 90
       50
176
     0
290
     0
176
     0
 90
       50
176
     0
 62
   256
176
     0
 40
1.0
176
     0
 90
        2
176
     0
  1
strokes_ogs.tif
176
     0
290
     0
176
     0
 40
1.0
176
     0
 40
1.0
176
     0
  0
VISUALSTYLE
  5
9B32
102
{ACAD_REACTORS
330
9B24
102
}
330
9B24
100
AcDbVisualStyle
  2
Linepattern
 70
    14
177
     3
291
     1
 70
    58
 90
        2
176
     1
 90
        2
176
     1
 90
        0
176
     1
 90
        0
176
     1
 40
0.6
176
     1
 40
30.0
176
     1
 62
     7
420
 16777215
176
     1
 90
        1
176
     1
 90
        4
176
     1
 62
     7
176
     1
 62
   257
176
     1
 90
        7
176
     1
 90
        7
176
     1
 40
1.0
176
     1
 90
        8
176
     1
 62
     7
176
     1
 40
1.0
176
     1
 90
        1
176
     1
 90
        6
176
     1
 90
        2
176
     1
 62
     7
176
     1
 90
        5
176
     1
 90
        0
176
     1
 90
        0
176
     1
290
     0
176
     1
 90
        1
176
     1
 40
0.0
176
     1
 90
        0
176
     1
290
     0
176
     1
290
     1
176
     1
290
     1
176
     1
290
     0
176
     1
290
     0
176
     1
290
     0
176
     1
290
     0
176
     1
290
     0
176
     1
290
     0
176
     1
 90
       50
176
     1
 40
0.0
176
     1
 40
1.0
176
     1
 90
        0
176
     1
 62
    18
420
        0
176
     1
 90
       50
176
     1
 90
        3
176
     1
 62
     5
420
      255
176
     1
290
     0
176
     1
 90
       50
176
     1
 90
       50
176
     1
 90
       50
176
     1
290
     0
176
     1
 90
       50
176
     1
 62
   256
176
     0
 40
1.0
176
     0
 90
        2
176
     1
  1
strokes_ogs.tif
176
     1
290
     0
176
     1
 40
1.0
176
     1
 40
1.0
176
     1
  0
VISUALSTYLE
  5
9B36
102
{ACAD_REACTORS
330
9B24
102
}
330
9B24
100
AcDbVisualStyle
  2
OverhangOff
 70
    21
177
     3
291
     1
 70
    58
 90
        2
176
     0
 90
        2
176
     0
 90
        0
176
     0
 90
        0
176
     0
 40
0.6
176
     0
 40
30.0
176
     0
 62
     7
420
 16777215
176
     0
 90
        1
176
     0
 90
        4
176
     0
 62
     7
176
     0
 62
   257
176
     0
 90
        1
176
     0
 90
        1
176
     0
 40
1.0
176
     0
 90
        9
176
     2
 62
     7
176
     0
 40
1.0
176
     0
 90
        1
176
     0
 90
        6
176
     0
 90
        2
176
     0
 62
     7
176
     0
 90
        5
176
     0
 90
        0
176
     0
 90
        0
176
     0
290
     0
176
     0
 90
        1
176
     0
 40
0.0
176
     0
 90
        0
176
     0
290
     0
176
     0
290
     1
176
     0
290
     1
176
     0
290
     0
176
     0
290
     0
176
     0
290
     0
176
     0
290
     0
176
     0
290
     0
176
     0
290
     0
176
     0
 90
       50
176
     0
 40
0.0
176
     0
 40
1.0
176
     0
 90
        0
176
     0
 62
    18
420
        0
176
     0
 90
       50
176
     0
 90
        3
176
     0
 62
     5
420
      255
176
     0
290
     0
176
     0
 90
       50
176
     0
 90
       50
176
     0
 90
       50
176
     0
290
     0
176
     0
 90
       50
176
     0
 62
   256
176
     0
 40
1.0
176
     0
 90
        2
176
     0
  1
strokes_ogs.tif
176
     0
290
     0
176
     0
 40
1.0
176
     0
 40
1.0
176
     0
  0
VISUALSTYLE
  5
9B2D
102
{ACAD_REACTORS
330
9B24
102
}
330
9B24
100
AcDbVisualStyle
  2
Realistic
 70
     8
177
     3
291
     0
 70
    58
 90
        2
176
     1
 90
        3
176
     1
 90
        0
176
     1
 90
        2
176
     1
 40
0.6
176
     1
 40
30.0
176
     1
 62
     7
420
 16777215
176
     1
 90
        0
176
     1
 90
        0
176
     1
 62
     7
176
     1
 62
   257
176
     1
 90
        1
176
     1
 90
        1
176
     1
 40
1.0
176
     1
 90
        8
176
     1
 62
   257
176
     1
 40
1.0
176
     1
 90
        1
176
     1
 90
        6
176
     1
 90
        2
176
     1
 62
     7
176
     1
 90
        3
176
     1
 90
        0
176
     1
 90
        0
176
     1
290
     0
176
     1
 90
       13
176
     1
 40
0.0
176
     1
 90
        0
176
     1
290
     0
176
     1
290
     1
176
     1
290
     1
176
     1
290
     0
176
     1
290
     0
176
     1
290
     0
176
     1
290
     0
176
     1
290
     0
176
     1
290
     0
176
     1
 90
       50
176
     1
 40
0.0
176
     1
 40
1.0
176
     1
 90
        0
176
     1
 62
    18
420
        0
176
     1
 90
       50
176
     1
 90
        3
176
     1
 62
     5
420
      255
176
     1
290
     0
176
     1
 90
       50
176
     1
 90
       50
176
     1
 90
       50
176
     1
290
     0
176
     1
 90
       50
176
     1
 62
   256
176
     0
 40
1.0
176
     0
 90
        2
176
     1
  1
strokes_ogs.tif
176
     1
290
     0
176
     1
 40
1.0
176
     1
 40
1.0
176
     1
  0
VISUALSTYLE
  5
9B3C
102
{ACAD_REACTORS
330
9B24
102
}
330
9B24
100
AcDbVisualStyle
  2
Shaded
 70
    27
177
     3
291
     0
 70
    58
 90
        2
176
     1
 90
        2
176
     1
 90
        1
176
     1
 90
        2
176
     1
 40
0.6
176
     1
 40
30.0
176
     1
 62
     7
420
 16777215
176
     1
 90
        0
176
     1
 90
        4
176
     1
 62
     7
176
     1
 62
   257
176
     1
 90
        1
176
     1
 90
        1
176
     1
 40
1.0
176
     1
 90
        8
176
     1
 62
   257
176
     1
 40
1.0
176
     1
 90
        1
176
     1
 90
        6
176
     1
 90
        2
176
     1
 62
     8
420
  7895160
176
     1
 90
        3
176
     1
 90
        0
176
     1
 90
        0
176
     1
290
     0
176
     1
 90
        5
176
     1
 40
0.0
176
     1
 90
        0
176
     1
290
     0
176
     1
290
     1
176
     1
290
     1
176
     1
290
     0
176
     1
290
     0
176
     1
290
     0
176
     1
290
     0
176
     1
290
     0
176
     1
290
     0
176
     1
 90
       50
176
     1
 40
0.0
176
     1
 40
1.0
176
     1
 90
        0
176
     1
 62
    18
420
        0
176
     1
 90
       50
176
     1
 90
        3
176
     1
 62
     5
420
      255
176
     1
290
     0
176
     1
 90
       50
176
     1
 90
       50
176
     1
 90
       50
176
     1
290
     0
176
     1
 90
       50
176
     1
 62
   256
176
     0
 40
1.0
176
     0
 90
        2
176
     1
  1
strokes_ogs.tif
176
     1
290
     0
176
     1
 40
1.0
176
     1
 40
1.0
176
     1
  0
VISUALSTYLE
  5
9B3B
102
{ACAD_REACTORS
330
9B24
102
}
330
9B24
100
AcDbVisualStyle
  2
Shaded with edges
 70
    26
177
     3
291
     0
 70
    58
 90
        2
176
     1
 90
        2
176
     1
 90
        1
176
     1
 90
        2
176
     1
 40
0.6
176
     1
 40
30.0
176
     1
 62
     7
420
 16777215
176
     1
 90
        1
176
     1
 90
       10
176
     1
 62
     7
176
     1
 62
   257
176
     1
 90
        2
176
     1
 90
        1
176
     1
 40
1.0
176
     1
 90
        8
176
     1
 62
   257
176
     1
 40
1.0
176
     1
 90
        1
176
     1
 90
        6
176
     1
 90
        2
176
     1
 62
     7
176
     1
 90
        3
176
     1
 90
        0
176
     1
 90
        0
176
     1
290
     0
176
     1
 90
        5
176
     1
 40
0.0
176
     1
 90
        0
176
     1
290
     0
176
     1
290
     1
176
     1
290
     1
176
     1
290
     0
176
     1
290
     0
176
     1
290
     0
176
     1
290
     0
176
     1
290
     0
176
     1
290
     0
176
     1
 90
       50
176
     1
 40
0.0
176
     1
 40
1.0
176
     1
 90
        0
176
     1
 62
    18
420
        0
176
     1
 90
       50
176
     1
 90
        3
176
     1
 62
     5
420
      255
176
     1
290
     0
176
     1
 90
       50
176
     1
 90
       50
176
     1
 90
       50
176
     1
290
     0
176
     1
 90
       50
176
     1
 62
   256
176
     0
 40
1.0
176
     0
 90
        2
176
     1
  1
strokes_ogs.tif
176
     1
290
     0
176
     1
 40
1.0
176
     1
 40
1.0
176
     1
  0
VISUALSTYLE
  5
9B38
102
{ACAD_REACTORS
330
9B24
102
}
330
9B24
100
AcDbVisualStyle
  2
Shades of Gray
 70
    23
177
     3
291
     0
 70
    58
 90
        2
176
     1
 90
        2
176
     1
 90
        3
176
     1
 90
        0
176
     1
 40
0.6
176
     1
 40
30.0
176
     1
 62
     7
420
 16777215
176
     1
 90
        2
176
     1
 90
        2
176
     1
 62
     7
176
     1
 62
     7
176
     1
 90
        1
176
     1
 90
        1
176
     1
 40
40.0
176
     1
 90
        8
176
     1
 62
     7
176
     1
 40
1.0
176
     1
 90
        1
176
     1
 90
        6
176
     1
 90
        2
176
     1
 62
     7
176
     1
 90
        3
176
     1
 90
        0
176
     1
 90
        0
176
     1
290
     0
176
     1
 90
        1
176
     1
 40
0.0
176
     1
 90
        0
176
     1
290
     0
176
     1
290
     1
176
     1
290
     1
176
     1
290
     0
176
     1
290
     0
176
     1
290
     0
176
     1
290
     0
176
     1
290
     0
176
     1
290
     0
176
     1
 90
       50
176
     1
 40
0.0
176
     1
 40
1.0
176
     1
 90
        0
176
     1
 62
    18
420
        0
176
     1
 90
       50
176
     1
 90
        3
176
     1
 62
     5
420
      255
176
     1
290
     0
176
     1
 90
       50
176
     1
 90
       50
176
     1
 90
       50
176
     1
290
     0
176
     1
 90
       50
176
     1
 62
   256
176
     0
 40
1.0
176
     0
 90
        2
176
     1
  1
strokes_ogs.tif
176
     1
290
     0
176
     1
 40
1.0
176
     1
 40
1.0
176
     1
  0
VISUALSTYLE
  5
9B39
102
{ACAD_REACTORS
330
9B24
102
}
330
9B24
100
AcDbVisualStyle
  2
Sketchy
 70
    24
177
     3
291
     0
 70
    58
 90
        1
176
     1
 90
        2
176
     1
 90
        2
176
     1
 90
        0
176
     1
 40
0.6
176
     1
 40
30.0
176
     1
 62
     7
420
 16777215
176
     1
 90
        2
176
     1
 90
        2
176
     1
 62
     7
176
     1
 62
     7
176
     1
 90
        1
176
     1
 90
        1
176
     1
 40
40.0
176
     1
 90
       11
176
     1
 62
     7
176
     1
 40
1.0
176
     1
 90
        1
176
     1
 90
        6
176
     1
 90
        2
176
     1
 62
     7
176
     1
 90
        6
176
     1
 90
        0
176
     1
 90
        0
176
     1
290
     0
176
     1
 90
        1
176
     1
 40
0.0
176
     1
 90
        0
176
     1
290
     0
176
     1
290
     1
176
     1
290
     1
176
     1
290
     0
176
     1
290
     0
176
     1
290
     0
176
     1
290
     0
176
     1
290
     0
176
     1
290
     0
176
     1
 90
       50
176
     1
 40
0.0
176
     1
 40
1.0
176
     1
 90
        0
176
     1
 62
    18
420
        0
176
     1
 90
       50
176
     1
 90
        3
176
     1
 62
     5
420
      255
176
     1
290
     0
176
     1
 90
       50
176
     1
 90
       50
176
     1
 90
       50
176
     1
290
     0
176
     1
 90
       50
176
     1
 62
   256
176
     0
 40
1.0
176
     0
 90
        2
176
     1
  1
strokes_ogs.tif
176
     1
290
     0
176
     1
 40
1.0
176
     1
 40
1.0
176
     1
  0
VISUALSTYLE
  5
9B31
102
{ACAD_REACTORS
330
9B24
102
}
330
9B24
100
AcDbVisualStyle
  2
Thicken
 70
    13
177
     3
291
     1
 70
    58
 90
        2
176
     1
 90
        2
176
     1
 90
        0
176
     1
 90
        0
176
     1
 40
0.6
176
     1
 40
30.0
176
     1
 62
     7
420
 16777215
176
     1
 90
        1
176
     1
 90
        4
176
     1
 62
     7
176
     1
 62
   257
176
     1
 90
        1
176
     1
 90
        1
176
     1
 40
1.0
176
     1
 90
       12
176
     1
 62
     7
176
     1
 40
1.0
176
     1
 90
        1
176
     1
 90
        6
176
     1
 90
        2
176
     1
 62
     7
176
     1
 90
        5
176
     1
 90
        0
176
     1
 90
        0
176
     1
290
     0
176
     1
 90
        1
176
     1
 40
0.0
176
     1
 90
        0
176
     1
290
     0
176
     1
290
     1
176
     1
290
     1
176
     1
290
     0
176
     1
290
     0
176
     1
290
     0
176
     1
290
     0
176
     1
290
     0
176
     1
290
     0
176
     1
 90
       50
176
     1
 40
0.0
176
     1
 40
1.0
176
     1
 90
        0
176
     1
 62
    18
420
        0
176
     1
 90
       50
176
     1
 90
        3
176
     1
 62
     5
420
      255
176
     1
290
     0
176
     1
 90
       50
176
     1
 90
       50
176
     1
 90
       50
176
     1
290
     0
176
     1
 90
       50
176
     1
 62
   256
176
     0
 40
1.0
176
     0
 90
        2
176
     1
  1
strokes_ogs.tif
176
     1
290
     0
176
     1
 40
1.0
176
     1
 40
1.0
176
     1
  0
VISUALSTYLE
  5
9B2A
102
{ACAD_REACTORS
330
9B24
102
}
330
9B24
100
AcDbVisualStyle
  2
Wireframe
 70
     5
177
     3
291
     0
 70
    58
 90
        0
176
     1
 90
        2
176
     1
 90
        0
176
     1
 90
        0
176
     1
 40
0.6
176
     1
 40
30.0
176
     1
 62
     7
420
 16777215
176
     1
 90
        1
176
     1
 90
        4
176
     1
 62
     7
176
     1
 62
   257
176
     1
 90
        1
176
     1
 90
        1
176
     1
 40
1.0
176
     1
 90
        0
176
     1
 62
   257
176
     1
 40
1.0
176
     1
 90
        1
176
     1
 90
        6
176
     1
 90
        2
176
     1
 62
     7
176
     1
 90
        3
176
     1
 90
        0
176
     1
 90
        0
176
     1
290
     0
176
     1
 90
        1
176
     1
 40
0.0
176
     1
 90
        0
176
     1
290
     0
176
     1
290
     1
176
     1
290
     1
176
     1
290
     0
176
     1
290
     0
176
     1
290
     0
176
     1
290
     0
176
     1
290
     0
176
     1
290
     0
176
     1
 90
       50
176
     1
 40
0.0
176
     1
 40
1.0
176
     1
 90
        0
176
     1
 62
    18
420
        0
176
     1
 90
       50
176
     1
 90
        3
176
     1
 62
     5
420
      255
176
     1
290
     0
176
     1
 90
       50
176
     1
 90
       50
176
     1
 90
       50
176
     1
290
     0
176
     1
 90
       50
176
     1
 62
   256
176
     0
 40
1.0
176
     0
 90
        2
176
     1
  1
strokes_ogs.tif
176
     1
290
     0
176
     1
 40
1.0
176
     1
 40
1.0
176
     1
  0
VISUALSTYLE
  5
9B3A
102
{ACAD_REACTORS
330
9B24
102
}
330
9B24
100
AcDbVisualStyle
  2
X-Ray
 70
    25
177
     3
291
     0
 70
    58
 90
        2
176
     1
 90
        2
176
     1
 90
        1
176
     1
 90
        1
176
     1
 40
0.5
176
     1
 40
30.0
176
     1
 62
     7
420
 16777215
176
     1
 90
        1
176
     1
 90
        0
176
     1
 62
     7
176
     1
 62
   257
176
     1
 90
        1
176
     1
 90
        1
176
     1
 40
1.0
176
     1
 90
        8
176
     1
 62
     7
176
     1
 40
1.0
176
     1
 90
        1
176
     1
 90
        6
176
     1
 90
        2
176
     1
 62
     7
176
     1
 90
        3
176
     1
 90
        0
176
     1
 90
        0
176
     1
290
     0
176
     1
 90
       13
176
     1
 40
0.0
176
     1
 90
        0
176
     1
290
     0
176
     1
290
     1
176
     1
290
     1
176
     1
290
     0
176
     1
290
     0
176
     1
290
     0
176
     1
290
     0
176
     1
290
     0
176
     1
290
     0
176
     1
 90
       50
176
     1
 40
0.0
176
     1
 40
1.0
176
     1
 90
        0
176
     1
 62
    18
420
        0
176
     1
 90
       50
176
     1
 90
        3
176
     1
 62
     5
420
      255
176
     1
290
     0
176
     1
 90
       50
176
     1
 90
       50
176
     1
 90
       50
176
     1
290
     0
176
     1
 90
       50
176
     1
 62
   256
176
     0
 40
1.0
176
     0
 90
        2
176
     1
  1
strokes_ogs.tif
176
     1
290
     0
176
     1
 40
1.0
176
     1
 40
1.0
176
     1
  0
DICTIONARYVAR
  5
9B67
102
{ACAD_REACTORS
330
3A8
102
}
330
3A8
100
DictionaryVariables
280
     0
  1
1:1
  0
DICTIONARYVAR
  5
9B6C
102
{ACAD_REACTORS
330
3A8
102
}
330
3A8
100
DictionaryVariables
280
     0
  1
Standard
  0
DICTIONARYVAR
  5
9B6B
102
{ACAD_REACTORS
330
3A8
102
}
330
3A8
100
DictionaryVariables
280
     0
  1
Standard
  0
DICTIONARYVAR
  5
3A9
102
{ACAD_REACTORS
330
3A8
102
}
330
3A8
100
DictionaryVariables
280
     0
  1
1
  0
DICTIONARYVAR
  5
9B6D
102
{ACAD_REACTORS
330
3A8
102
}
330
3A8
100
DictionaryVariables
280
     0
  1
0
  0
DICTIONARYVAR
  5
4FB5
102
{ACAD_REACTORS
330
3A8
102
}
330
3A8
100
DictionaryVariables
280
     0
  1

  0
XRECORD
  5
4FD
102
{ACAD_REACTORS
330
4FC
102
}
330
4FC
100
AcDbXrecord
280
     1
  1
天板
  1
*
  1
*
  1
*
 70
     0
  1
*
  1
*
  0
DICTIONARY
  5
9B68
330
9B63
100
AcDbDictionary
280
     1
281
     1
  3
ACAD_ROUNDTRIP_2008_TABLESTYLE_CELLSTYLEMAP
360
9B69
  0
CELLSTYLEMAP
  5
9B69
102
{ACAD_REACTORS
330
9B68
102
}
330
9B68
100
AcDbCellStyleMap
 90
        3
300
CELLSTYLE
  1
TABLEFORMAT_BEGIN
 90
        5
170
     1
 91
        0
 92
    32768
 62
   257
 93
        1
300
CONTENTFORMAT
  1
CONTENTFORMAT_BEGIN
 90
        0
 91
        0
 92
        4
 93
        0
300

 40
0.0
140
1.0
 94
        5
 62
     0
340
11
144
6.0
309
CONTENTFORMAT_END
171
     1
301
MARGIN
  1
CELLMARGIN_BEGIN
 40
1.5
 40
1.5
 40
1.5
 40
1.5
 40
1.5
 40
1.5
309
CELLMARGIN_END
 94
        6
 95
        1
302
GRIDFORMAT
  1
GRIDFORMAT_BEGIN
 90
        0
 91
        1
 62
     0
 92
       -2
340
14
 93
        0
 40
0.045
309
GRIDFORMAT_END
 95
        2
302
GRIDFORMAT
  1
GRIDFORMAT_BEGIN
 90
        0
 91
        1
 62
     0
 92
       -2
340
14
 93
        0
 40
0.045
309
GRIDFORMAT_END
 95
        4
302
GRIDFORMAT
  1
GRIDFORMAT_BEGIN
 90
        0
 91
        1
 62
     0
 92
       -2
340
14
 93
        0
 40
0.045
309
GRIDFORMAT_END
 95
        8
302
GRIDFORMAT
  1
GRIDFORMAT_BEGIN
 90
        0
 91
        1
 62
     0
 92
       -2
340
14
 93
        0
 40
0.045
309
GRIDFORMAT_END
 95
       16
302
GRIDFORMAT
  1
GRIDFORMAT_BEGIN
 90
        0
 91
        1
 62
     0
 92
       -2
340
14
 93
        0
 40
0.045
309
GRIDFORMAT_END
 95
       32
302
GRIDFORMAT
  1
GRIDFORMAT_BEGIN
 90
        0
 91
        1
 62
     0
 92
       -2
340
14
 93
        0
 40
0.045
309
GRIDFORMAT_END
309
TABLEFORMAT_END
  1
CELLSTYLE_BEGIN
 90
        1
 91
        1
300
_TITLE
309
CELLSTYLE_END
300
CELLSTYLE
  1
TABLEFORMAT_BEGIN
 90
        5
170
     1
 91
        0
 92
        0
 62
   257
 93
        1
300
CONTENTFORMAT
  1
CONTENTFORMAT_BEGIN
 90
        0
 91
        0
 92
        4
 93
        0
300

 40
0.0
140
1.0
 94
        5
 62
     0
340
11
144
4.5
309
CONTENTFORMAT_END
171
     1
301
MARGIN
  1
CELLMARGIN_BEGIN
 40
1.5
 40
1.5
 40
1.5
 40
1.5
 40
1.5
 40
1.5
309
CELLMARGIN_END
 94
        6
 95
        1
302
GRIDFORMAT
  1
GRIDFORMAT_BEGIN
 90
        0
 91
        1
 62
     0
 92
       -2
340
14
 93
        0
 40
0.045
309
GRIDFORMAT_END
 95
        2
302
GRIDFORMAT
  1
GRIDFORMAT_BEGIN
 90
        0
 91
        1
 62
     0
 92
       -2
340
14
 93
        0
 40
0.045
309
GRIDFORMAT_END
 95
        4
302
GRIDFORMAT
  1
GRIDFORMAT_BEGIN
 90
        0
 91
        1
 62
     0
 92
       -2
340
14
 93
        0
 40
0.045
309
GRIDFORMAT_END
 95
        8
302
GRIDFORMAT
  1
GRIDFORMAT_BEGIN
 90
        0
 91
        1
 62
     0
 92
       -2
340
14
 93
        0
 40
0.045
309
GRIDFORMAT_END
 95
       16
302
GRIDFORMAT
  1
GRIDFORMAT_BEGIN
 90
        0
 91
        1
 62
     0
 92
       -2
340
14
 93
        0
 40
0.045
309
GRIDFORMAT_END
 95
       32
302
GRIDFORMAT
  1
GRIDFORMAT_BEGIN
 90
        0
 91
        1
 62
     0
 92
       -2
340
14
 93
        0
 40
0.045
309
GRIDFORMAT_END
309
TABLEFORMAT_END
  1
CELLSTYLE_BEGIN
 90
        2
 91
        1
300
_HEADER
309
CELLSTYLE_END
300
CELLSTYLE
  1
TABLEFORMAT_BEGIN
 90
        5
170
     1
 91
        0
 92
        0
 62
   257
 93
        1
300
CONTENTFORMAT
  1
CONTENTFORMAT_BEGIN
 90
        0
 91
        0
 92
        4
 93
        0
300

 40
0.0
140
1.0
 94
        2
 62
     0
340
11
144
4.5
309
CONTENTFORMAT_END
171
     1
301
MARGIN
  1
CELLMARGIN_BEGIN
 40
1.5
 40
1.5
 40
1.5
 40
1.5
 40
1.5
 40
1.5
309
CELLMARGIN_END
 94
        6
 95
        1
302
GRIDFORMAT
  1
GRIDFORMAT_BEGIN
 90
        0
 91
        1
 62
     0
 92
       -2
340
14
 93
        0
 40
0.045
309
GRIDFORMAT_END
 95
        2
302
GRIDFORMAT
  1
GRIDFORMAT_BEGIN
 90
        0
 91
        1
 62
     0
 92
       -2
340
14
 93
        0
 40
0.045
309
GRIDFORMAT_END
 95
        4
302
GRIDFORMAT
  1
GRIDFORMAT_BEGIN
 90
        0
 91
        1
 62
     0
 92
       -2
340
14
 93
        0
 40
0.045
309
GRIDFORMAT_END
 95
        8
302
GRIDFORMAT
  1
GRIDFORMAT_BEGIN
 90
        0
 91
        1
 62
     0
 92
       -2
340
14
 93
        0
 40
0.045
309
GRIDFORMAT_END
 95
       16
302
GRIDFORMAT
  1
GRIDFORMAT_BEGIN
 90
        0
 91
        1
 62
     0
 92
       -2
340
14
 93
        0
 40
0.045
309
GRIDFORMAT_END
 95
       32
302
GRIDFORMAT
  1
GRIDFORMAT_BEGIN
 90
        0
 91
        1
 62
     0
 92
       -2
340
14
 93
        0
 40
0.045
309
GRIDFORMAT_END
309
TABLEFORMAT_END
  1
CELLSTYLE_BEGIN
 90
        3
 91
        2
300
_DATA
309
CELLSTYLE_END
  0
ENDSEC
  0
EOF
