  0
SECTION
  2
HEADER
  9
$ACADVER
  1
AC1014
  9
$ACADMAINTVER
 70
     9
  9
$DWGCODEPAGE
  3
ANSI_932
  9
$INSBASE
 10
0.0
 20
0.0
 30
0.0
  9
$EXTMIN
 10
-373.02157
 20
-277.971881
 30
0.0
  9
$EXTMAX
 10
394.982385
 20
275.028767
 30
0.0
  9
$LIMMIN
 10
-420.0
 20
-297.0
  9
$LIMMAX
 10
420.0
 20
297.0
  9
$ORTHOMODE
 70
     0
  9
$REGENMODE
 70
     1
  9
$FILLMODE
 70
     1
  9
$QTEXTMODE
 70
     0
  9
$MIRRTEXT
 70
     1
  9
$DRAGMODE
 70
     2
  9
$LTSCALE
 40
1.0
  9
$OSMODE
 70
 15359
  9
$ATTMODE
 70
     1
  9
$TEXTSIZE
 40
1.0
  9
$TRACEWID
 40
0.05
  9
$TEXTSTYLE
  7
STANDARD
  9
$CLAYER
  8
0
  9
$CELTYPE
  6
CONTINUOUS
  9
$CECOLOR
 62
   256
  9
$CELTSCALE
 40
1.0
  9
$DELOBJ
 70
     1
  9
$DISPSILH
 70
     0
  9
$DIMSCALE
 40
2.0
  9
$DIMASZ
 40
2.0
  9
$DIMEXO
 40
1.0
  9
$DIMDLI
 40
0.38
  9
$DIMRND
 40
0.0
  9
$DIMDLE
 40
0.0
  9
$DIMEXE
 40
2.0
  9
$DIMTP
 40
0.0
  9
$DIMTM
 40
0.0
  9
$DIMTXT
 40
3.5
  9
$DIMCEN
 40
0.09
  9
$DIMTSZ
 40
0.0
  9
$DIMTOL
 70
     0
  9
$DIMLIM
 70
     0
  9
$DIMTIH
 70
     0
  9
$DIMTOH
 70
     0
  9
$DIMSE1
 70
     0
  9
$DIMSE2
 70
     0
  9
$DIMTAD
 70
     1
  9
$DIMZIN
 70
     0
  9
$DIMBLK
  1

  9
$DIMASO
 70
     1
  9
$DIMSHO
 70
     1
  9
$DIMPOST
  1

  9
$DIMAPOST
  1

  9
$DIMALT
 70
     0
  9
$DIMALTD
 70
     2
  9
$DIMALTF
 40
25.4
  9
$DIMLFAC
 40
1.0
  9
$DIMTOFL
 70
     0
  9
$DIMTVP
 40
0.0
  9
$DIMTIX
 70
     0
  9
$DIMSOXD
 70
     0
  9
$DIMSAH
 70
     0
  9
$DIMBLK1
  1

  9
$DIMBLK2
  1

  9
$DIMSTYLE
  2
STANDARD
  9
$DIMCLRD
 70
     0
  9
$DIMCLRE
 70
     0
  9
$DIMCLRT
 70
     0
  9
$DIMTFAC
 40
1.0
  9
$DIMGAP
 40
0.5
  9
$DIMJUST
 70
     0
  9
$DIMSD1
 70
     0
  9
$DIMSD2
 70
     0
  9
$DIMTOLJ
 70
     1
  9
$DIMTZIN
 70
     0
  9
$DIMALTZ
 70
     0
  9
$DIMALTTZ
 70
     0
  9
$DIMFIT
 70
     3
  9
$DIMUPT
 70
     0
  9
$DIMUNIT
 70
     2
  9
$DIMDEC
 70
     3
  9
$DIMTDEC
 70
     4
  9
$DIMALTU
 70
     2
  9
$DIMALTTD
 70
     2
  9
$DIMTXSTY
  7
STANDARD
  9
$DIMAUNIT
 70
     0
  9
$LUNITS
 70
     2
  9
$LUPREC
 70
     4
  9
$SKETCHINC
 40
0.1
  9
$FILLETRAD
 40
0.0
  9
$AUNITS
 70
     0
  9
$AUPREC
 70
     0
  9
$MENU
  1
acad
  9
$ELEVATION
 40
0.0
  9
$PELEVATION
 40
0.0
  9
$THICKNESS
 40
0.0
  9
$LIMCHECK
 70
     0
  9
$CHAMFERA
 40
0.0
  9
$CHAMFERB
 40
0.0
  9
$CHAMFERC
 40
0.0
  9
$CHAMFERD
 40
0.0
  9
$SKPOLY
 70
     0
  9
$TDCREATE
 40
2447893.375
  9
$TDUPDATE
 40
2459488.623957095
  9
$TDINDWG
 40
0.0002096528
  9
$TDUSRTIMER
 40
0.0002096528
  9
$USRTIMER
 70
     1
  9
$ANGBASE
 50
0.0
  9
$ANGDIR
 70
     0
  9
$PDMODE
 70
     0
  9
$PDSIZE
 40
0.0
  9
$PLINEWID
 40
0.0
  9
$COORDS
 70
     1
  9
$SPLFRAME
 70
     0
  9
$SPLINETYPE
 70
     6
  9
$SPLINESEGS
 70
     8
  9
$ATTDIA
 70
     0
  9
$ATTREQ
 70
     1
  9
$HANDLING
 70
     1
  9
$HANDSEED
  5
3C4
  9
$SURFTAB1
 70
     6
  9
$SURFTAB2
 70
     6
  9
$SURFTYPE
 70
     6
  9
$SURFU
 70
     6
  9
$SURFV
 70
     6
  9
$UCSNAME
  2

  9
$UCSORG
 10
0.0
 20
0.0
 30
0.0
  9
$UCSXDIR
 10
1.0
 20
0.0
 30
0.0
  9
$UCSYDIR
 10
0.0
 20
1.0
 30
0.0
  9
$PUCSNAME
  2

  9
$PUCSORG
 10
0.0
 20
0.0
 30
0.0
  9
$PUCSXDIR
 10
1.0
 20
0.0
 30
0.0
  9
$PUCSYDIR
 10
0.0
 20
1.0
 30
0.0
  9
$USERI1
 70
     0
  9
$USERI2
 70
     0
  9
$USERI3
 70
     0
  9
$USERI4
 70
     0
  9
$USERI5
 70
     0
  9
$USERR1
 40
0.0
  9
$USERR2
 40
0.0
  9
$USERR3
 40
0.0
  9
$USERR4
 40
0.0
  9
$USERR5
 40
0.0
  9
$WORLDVIEW
 70
     1
  9
$SHADEDGE
 70
     3
  9
$SHADEDIF
 70
    70
  9
$TILEMODE
 70
     1
  9
$MAXACTVP
 70
    16
  9
$PINSBASE
 10
0.0
 20
0.0
 30
0.0
  9
$PLIMCHECK
 70
     0
  9
$PEXTMIN
 10
1.000000000000000E+20
 20
1.000000000000000E+20
 30
1.000000000000000E+20
  9
$PEXTMAX
 10
-1.000000000000000E+20
 20
-1.000000000000000E+20
 30
-1.000000000000000E+20
  9
$PLIMMIN
 10
0.0
 20
0.0
  9
$PLIMMAX
 10
0.0
 20
0.0
  9
$UNITMODE
 70
     0
  9
$VISRETAIN
 70
     0
  9
$PLINEGEN
 70
     1
  9
$PSLTSCALE
 70
     0
  9
$TREEDEPTH
 70
  3020
  9
$PICKSTYLE
 70
     1
  9
$CMLSTYLE
  2
STANDARD
  9
$CMLJUST
 70
     0
  9
$CMLSCALE
 40
1.0
  9
$PROXYGRAPHICS
 70
     0
  9
$MEASUREMENT
 70
     0
  0
ENDSEC
  0
SECTION
  2
CLASSES
  0
CLASS
  1
LWPOLYLINE
  2
AcDbPolyline
  3
ObjectDBX Classes
 90
        0
280
     0
281
     1
  0
CLASS
  1
IMAGE
  2
AcDbRasterImage
  3
ISM
 90
      127
280
     0
281
     1
  0
CLASS
  1
OLE2FRAME
  2
AcDbOle2Frame
  3
ObjectDBX Classes
 90
        0
280
     0
281
     1
  0
CLASS
  1
HATCH
  2
AcDbHatch
  3
ObjectDBX Classes
 90
        0
280
     0
281
     1
  0
CLASS
  1
DICTIONARYVAR
  2
AcDbDictionaryVar
  3
ObjectDBX Classes
 90
        0
280
     0
281
     0
  0
CLASS
  1
RASTERVARIABLES
  2
AcDbRasterVariables
  3
ISM
 90
        0
280
     0
281
     0
  0
CLASS
  1
IMAGEDEF
  2
AcDbRasterImageDef
  3
ISM
 90
        0
280
     0
281
     0
  0
CLASS
  1
IMAGEDEF_REACTOR
  2
AcDbRasterImageDefReactor
  3
ISM
 90
        1
280
     0
281
     0
  0
CLASS
  1
IDBUFFER
  2
AcDbIdBuffer
  3
ObjectDBX Classes
 90
        0
280
     0
281
     0
  0
CLASS
  1
SPATIAL_FILTER
  2
AcDbSpatialFilter
  3
ObjectDBX Classes
 90
        0
280
     0
281
     0
  0
CLASS
  1
XRECORD
  2
AcDbXrecord
  3
ObjectDBX Classes
 90
        0
280
     0
281
     0
  0
CLASS
  1
SORTENTSTABLE
  2
AcDbSortentsTable
  3
ObjectDBX Classes
 90
        0
280
     0
281
     0
  0
CLASS
  1
LAYER_INDEX
  2
AcDbLayerIndex
  3
ObjectDBX Classes
 90
        0
280
     0
281
     0
  0
CLASS
  1
SPATIAL_INDEX
  2
AcDbSpatialIndex
  3
AutoCAD 2000
 90
        0
280
     0
281
     0
  0
CLASS
  1
OBJECT_PTR
  2
CAseDLPNTableRecord
  3
ASE-LPNTableRecord
 90
        1
280
     0
281
     0
  0
CLASS
  1
LAYOUT
  2
AcDbLayout
  3
ObjectDBX Classes
 90
        0
280
     0
281
     0
  0
CLASS
  1
PLOTSETTINGS
  2
AcDbPlotSettings
  3
ObjectDBX Classes
 90
        0
280
     0
281
     0
  0
CLASS
  1
ACDBDICTIONARYWDFLT
  2
AcDbDictionaryWithDefault
  3
ObjectDBX Classes
 90
        0
280
     0
281
     0
  0
CLASS
  1
ACDBPLACEHOLDER
  2
AcDbPlaceHolder
  3
ObjectDBX Classes
 90
        0
280
     0
281
     0
  0
CLASS
  1
VBA_PROJECT
  2
AcDbVbaProject
  3
ObjectDBX Classes
 90
        0
280
     0
281
     0
  0
CLASS
  1
WIPEOUT
  2
AcDbWipeout
  3
WipeOut|AutoCAD Express Tool|expresstools@autodesk.com
 90
      127
280
     0
281
     1
  0
CLASS
  1
WIPEOUTVARIABLES
  2
AcDbWipeoutVariables
  3
WipeOut|AutoCAD Express Tool|expresstools@autodesk.com
 90
        0
280
     0
281
     0
  0
CLASS
  1
RTEXT
  2
RText
  3
RText|AutoCAD Express Tool|expresstools@autodesk.com
 90
        0
280
     0
281
     1
  0
CLASS
  1
ARCALIGNEDTEXT
  2
AcDbArcAlignedText
  3
ATEXT|AutoCAD Express Tool|expresstools@autodesk.com
 90
        0
280
     0
281
     1
  0
CLASS
  1
SCALE
  2
AcDbScale
  3
ObjectDBX Classes
 90
     1153
280
     0
281
     0
  0
CLASS
  1
VISUALSTYLE
  2
AcDbVisualStyle
  3
ObjectDBX Classes
 90
     4095
280
     0
281
     0
  0
CLASS
  1
MATERIAL
  2
AcDbMaterial
  3
ObjectDBX Classes
 90
     1153
280
     0
281
     0
  0
CLASS
  1
TABLESTYLE
  2
AcDbTableStyle
  3
ObjectDBX Classes
 90
     4095
280
     0
281
     0
  0
CLASS
  1
MLEADERSTYLE
  2
AcDbMLeaderStyle
  3
ACDB_MLEADERSTYLE_CLASS
 90
     4095
280
     0
281
     0
  0
ENDSEC
  0
SECTION
  2
TABLES
  0
TABLE
  2
VPORT
  5
6
330
0
100
AcDbSymbolTable
 70
     1
  0
VPORT
  5
19
330
6
100
AcDbSymbolTableRecord
100
AcDbViewportTableRecord
  2
*ACTIVE
 70
     0
 10
0.0
 20
0.0
 11
1.0
 21
1.0
 12
0.0
 22
0.0
 13
0.0
 23
0.0
 14
1.0
 24
1.0
 15
0.0
 25
0.0
 16
0.0
 26
0.0
 36
1.0
 17
0.0
 27
0.0
 37
0.0
 40
594.0
 41
1.414141
 42
50.0
 43
0.0
 44
0.0
 50
0.0
 51
0.0
 71
     0
 72
   500
 73
     1
 74
     1
 75
     0
 76
     0
 77
     0
 78
     0
  0
ENDTAB
  0
TABLE
  2
LTYPE
  5
3
330
0
100
AcDbSymbolTable
 70
     7
  0
LTYPE
  5
C
330
3
100
AcDbSymbolTableRecord
100
AcDbLinetypeTableRecord
  2
BYBLOCK
 70
     0
  3

 72
    65
 73
     0
 40
0.0
  0
LTYPE
  5
D
330
3
100
AcDbSymbolTableRecord
100
AcDbLinetypeTableRecord
  2
BYLAYER
 70
     0
  3

 72
    65
 73
     0
 40
0.0
  0
LTYPE
  5
E
330
3
100
AcDbSymbolTableRecord
100
AcDbLinetypeTableRecord
  2
CONTINUOUS
 70
     0
  3
Solid line
 72
    65
 73
     0
 40
0.0
  0
LTYPE
  5
F
330
3
100
AcDbSymbolTableRecord
100
AcDbLinetypeTableRecord
  2
DASHED
 70
     0
  3
__ __ __ __ __ __ __ __ __ __ __ __ __ __ __
 72
    65
 73
     2
 40
2.0
 49
1.2
 74
     0
 49
-0.8
 74
     0
  0
LTYPE
  5
10
330
3
100
AcDbSymbolTableRecord
100
AcDbLinetypeTableRecord
  2
CENTER
 70
     0
  3
____ _ ____ _ ____ _ ____ _ ____ _ ____ _ ____
 72
    65
 73
     4
 40
12.0
 49
9.0
 74
     0
 49
-1.0
 74
     0
 49
1.0
 74
     0
 49
-1.0
 74
     0
  0
LTYPE
  5
11
330
3
100
AcDbSymbolTableRecord
100
AcDbLinetypeTableRecord
  2
HIDDEN
 70
     0
  3
_ _ _ _ _ _ _ _ _ _ _ _ _ _ _ _ _ _ _ _ _ _ _
 72
    65
 73
     2
 40
3.2
 49
2.4
 74
     0
 49
-0.8
 74
     0
  0
LTYPE
  5
12
330
3
100
AcDbSymbolTableRecord
100
AcDbLinetypeTableRecord
  2
PHANTOM
 70
     0
  3
_____ _ _ _____ _ _ _____ _ _ _____ _ _ _____
 72
    65
 73
     6
 40
13.5
 49
9.0
 74
     0
 49
-1.0
 74
     0
 49
1.0
 74
     0
 49
-0.5
 74
     0
 49
1.0
 74
     0
 49
-1.0
 74
     0
  0
LTYPE
  5
13
330
3
100
AcDbSymbolTableRecord
100
AcDbLinetypeTableRecord
  2
DOT
 70
     0
  3
...............................................
 72
    65
 73
     2
 40
1.0
 49
0.5
 74
     0
 49
-0.5
 74
     0
  0
LTYPE
  5
14
330
3
100
AcDbSymbolTableRecord
100
AcDbLinetypeTableRecord
  2
DASHDOT
 70
     0
  3
__ . __ . __ . __ . __ . __ . __ . __ . __ . __
 72
    65
 73
     4
 40
8.0
 49
5.0
 74
     0
 49
-1.0
 74
     0
 49
1.0
 74
     0
 49
-1.0
 74
     0
  0
ENDTAB
  0
TABLE
  2
LAYER
  5
1
330
0
100
AcDbSymbolTable
 70
     4
  0
LAYER
  5
15
330
1
100
AcDbSymbolTableRecord
100
AcDbLayerTableRecord
  2
0
 70
     0
 62
     7
  6
CONTINUOUS
  0
LAYER
  5
16
330
1
100
AcDbSymbolTableRecord
100
AcDbLayerTableRecord
  2
1
 70
     0
 62
     7
  6
CONTINUOUS
  0
LAYER
  5
17
330
1
100
AcDbSymbolTableRecord
100
AcDbLayerTableRecord
  2
2
 70
     0
 62
     7
  6
CONTINUOUS
  0
LAYER
  5
18
330
1
100
AcDbSymbolTableRecord
100
AcDbLayerTableRecord
  2
3
 70
     0
 62
     7
  6
CONTINUOUS
  0
ENDTAB
  0
TABLE
  2
STYLE
  5
2
330
0
100
AcDbSymbolTable
 70
     1
  0
STYLE
  5
1B
330
2
100
AcDbSymbolTableRecord
100
AcDbTextStyleTableRecord
  2
STANDARD
 70
     0
 40
0.0
 41
1.0
 50
0.0
 71
     0
 42
1.0
  3
txt
  4
BIGFONT
  0
ENDTAB
  0
TABLE
  2
VIEW
  5
4
330
0
100
AcDbSymbolTable
 70
     0
  0
ENDTAB
  0
TABLE
  2
UCS
  5
5
330
0
100
AcDbSymbolTable
 70
     0
  0
ENDTAB
  0
TABLE
  2
APPID
  5
7
330
0
100
AcDbSymbolTable
 70
     1
  0
APPID
  5
1A
330
7
100
AcDbSymbolTableRecord
100
AcDbRegAppTableRecord
  2
ACAD
 70
     0
  0
ENDTAB
  0
TABLE
  2
DIMSTYLE
  5
8
330
0
100
AcDbSymbolTable
 70
     1
  0
DIMSTYLE
105
2B
330
8
100
AcDbSymbolTableRecord
100
AcDbDimStyleTableRecord
  2
STANDARD
 70
     0
  3

  4

  5

  6

  7

 40
2.0
 41
2.0
 42
1.0
 43
0.38
 44
2.0
 45
0.0
 46
0.0
 47
0.0
 48
0.0
140
3.5
141
0.09
142
0.0
143
25.4
144
1.0
145
0.0
146
1.0
147
0.5
 71
     0
 72
     0
 73
     0
 74
     0
 75
     0
 76
     0
 77
     1
 78
     0
170
     0
171
     2
172
     0
173
     0
174
     0
175
     0
176
     0
177
     0
178
     0
270
     2
271
     3
272
     4
273
     2
274
     2
340
1B
275
     0
280
     0
281
     0
282
     0
283
     1
284
     0
285
     0
286
     0
287
     3
288
     0
  0
ENDTAB
  0
TABLE
  2
BLOCK_RECORD
  5
26
330
0
100
AcDbSymbolTable
 70
     8
  0
BLOCK_RECORD
  5
24
330
26
100
AcDbSymbolTableRecord
100
AcDbBlockTableRecord
  2
*MODEL_SPACE
  0
BLOCK_RECORD
  5
25
330
26
100
AcDbSymbolTableRecord
100
AcDbBlockTableRecord
  2
*PAPER_SPACE
  0
BLOCK_RECORD
  5
1C
330
26
100
AcDbSymbolTableRecord
100
AcDbBlockTableRecord
  2
*D0
  0
BLOCK_RECORD
  5
1D
330
26
100
AcDbSymbolTableRecord
100
AcDbBlockTableRecord
  2
*D1
  0
BLOCK_RECORD
  5
1E
330
26
100
AcDbSymbolTableRecord
100
AcDbBlockTableRecord
  2
*D2
  0
BLOCK_RECORD
  5
1F
330
26
100
AcDbSymbolTableRecord
100
AcDbBlockTableRecord
  2
*D3
  0
BLOCK_RECORD
  5
20
330
26
100
AcDbSymbolTableRecord
100
AcDbBlockTableRecord
  2
*D4
  0
BLOCK_RECORD
  5
21
330
26
100
AcDbSymbolTableRecord
100
AcDbBlockTableRecord
  2
*D5
  0
BLOCK_RECORD
  5
22
330
26
100
AcDbSymbolTableRecord
100
AcDbBlockTableRecord
  2
*D6
  0
BLOCK_RECORD
  5
23
330
26
100
AcDbSymbolTableRecord
100
AcDbBlockTableRecord
  2
*D7
  0
ENDTAB
  0
ENDSEC
  0
SECTION
  2
BLOCKS
  0
BLOCK
  5
27
330
24
100
AcDbEntity
  8
0
100
AcDbBlockBegin
  2
*MODEL_SPACE
 70
     0
 10
0.0
 20
0.0
 30
0.0
  3
*MODEL_SPACE
  1

  0
ENDBLK
  5
28
330
24
100
AcDbEntity
  8
0
100
AcDbBlockEnd
  0
BLOCK
  5
29
330
25
100
AcDbEntity
 67
     1
  8
0
100
AcDbBlockBegin
  2
*PAPER_SPACE
 70
     0
 10
0.0
 20
0.0
 30
0.0
  3
*PAPER_SPACE
  1

  0
ENDBLK
  5
2A
330
25
100
AcDbEntity
 67
     1
  8
0
100
AcDbBlockEnd
  0
BLOCK
  5
319
330
1C
100
AcDbEntity
  8
3
100
AcDbBlockBegin
  2
*D0
 70
     1
 10
0.0
 20
0.0
 30
0.0
  3
*D0
  1

  0
TEXT
  5
31A
330
1C
100
AcDbEntity
  8
3
100
AcDbText
 10
-74.021744
 20
-4.015356
 30
0.0
 40
7.0
  1
１３１
 50
90.0
 41
0.9767441860465117
 72
     5
 11
-74.021744
 21
15.584644
 31
0.0
100
AcDbText
  0
LINE
  5
31B
330
1C
100
AcDbEntity
  8
3
100
AcDbLine
 10
-102.868556
 20
-59.065356
 30
0.0
 11
-71.021744
 21
-59.065356
 31
0.0
  0
LINE
  5
31C
330
1C
100
AcDbEntity
  8
3
100
AcDbLine
 10
-73.021744
 20
-59.065356
 30
0.0
 11
-71.986468
 21
-55.201653
 31
0.0
  0
LINE
  5
31D
330
1C
100
AcDbEntity
  8
3
100
AcDbLine
 10
-73.021744
 20
-59.065356
 30
0.0
 11
-74.05702
 21
-55.201653
 31
0.0
  0
LINE
  5
31E
330
1C
100
AcDbEntity
  8
3
100
AcDbLine
 10
-71.986468
 20
-55.201653
 30
0.0
 11
-74.05702
 21
-55.201653
 31
0.0
  0
LINE
  5
31F
330
1C
100
AcDbEntity
  8
3
100
AcDbLine
 10
-73.021744
 20
-59.065356
 30
0.0
 11
-73.021744
 21
72.034644
 31
0.0
  0
LINE
  5
320
330
1C
100
AcDbEntity
  8
3
100
AcDbLine
 10
-73.021744
 20
72.034644
 30
0.0
 11
-74.05702
 21
68.170941
 31
0.0
  0
LINE
  5
321
330
1C
100
AcDbEntity
  8
3
100
AcDbLine
 10
-73.021744
 20
72.034644
 30
0.0
 11
-71.986468
 21
68.170941
 31
0.0
  0
LINE
  5
322
330
1C
100
AcDbEntity
  8
3
100
AcDbLine
 10
-74.05702
 20
68.170941
 30
0.0
 11
-71.986468
 21
68.170941
 31
0.0
  0
LINE
  5
323
330
1C
100
AcDbEntity
  8
3
100
AcDbLine
 10
-107.468556
 20
72.034644
 30
0.0
 11
-71.021744
 21
72.034644
 31
0.0
  0
ENDBLK
  5
324
330
1C
100
AcDbEntity
  8
3
100
AcDbBlockEnd
  0
BLOCK
  5
325
330
1D
100
AcDbEntity
  8
3
100
AcDbBlockBegin
  2
*D1
 70
     1
 10
0.0
 20
0.0
 30
0.0
  3
*D1
  1

  0
LINE
  5
326
330
1D
100
AcDbEntity
  8
3
100
AcDbLine
 10
-106.368556
 20
-74.065356
 30
0.0
 11
-42.974586
 21
-74.065356
 31
0.0
  0
LINE
  5
327
330
1D
100
AcDbEntity
  8
3
100
AcDbLine
 10
-44.974586
 20
-74.065356
 30
0.0
 11
-46.009863
 21
-77.929059
 31
0.0
  0
LINE
  5
328
330
1D
100
AcDbEntity
  8
3
100
AcDbLine
 10
-44.974586
 20
-74.065356
 30
0.0
 11
-43.93931
 21
-77.929059
 31
0.0
  0
LINE
  5
329
330
1D
100
AcDbEntity
  8
3
100
AcDbLine
 10
-46.009863
 20
-77.929059
 30
0.0
 11
-43.93931
 21
-77.929059
 31
0.0
  0
LINE
  5
32A
330
1D
100
AcDbEntity
  8
3
100
AcDbLine
 10
-44.974586
 20
-84.065356
 30
0.0
 11
-44.974586
 21
23.934644
 31
0.0
  0
LINE
  5
32B
330
1D
100
AcDbEntity
  8
3
100
AcDbLine
 10
-44.974586
 20
-61.065356
 30
0.0
 11
-43.93931
 21
-57.201653
 31
0.0
  0
LINE
  5
32C
330
1D
100
AcDbEntity
  8
3
100
AcDbLine
 10
-44.974586
 20
-61.065356
 30
0.0
 11
-46.009863
 21
-57.201653
 31
0.0
  0
LINE
  5
32D
330
1D
100
AcDbEntity
  8
3
100
AcDbLine
 10
-43.93931
 20
-57.201653
 30
0.0
 11
-46.009863
 21
-57.201653
 31
0.0
  0
LINE
  5
32E
330
1D
100
AcDbEntity
  8
3
100
AcDbLine
 10
-104.368556
 20
-61.065356
 30
0.0
 11
-42.974586
 21
-61.065356
 31
0.0
  0
ENDBLK
  5
32F
330
1D
100
AcDbEntity
  8
3
100
AcDbBlockEnd
  0
BLOCK
  5
330
330
1E
100
AcDbEntity
  8
3
100
AcDbBlockBegin
  2
*D2
 70
     1
 10
0.0
 20
0.0
 30
0.0
  3
*D2
  1

  0
TEXT
  5
331
330
1E
100
AcDbEntity
  8
3
100
AcDbText
 10
-176.368556
 20
-20.722893
 30
0.0
 40
7.0
  1
φ４３
 41
0.9180327868852469
 72
     5
 11
-156.768556
 21
-20.722893
 31
0.0
100
AcDbText
  0
LINE
  5
332
330
1E
100
AcDbEntity
  8
3
100
AcDbLine
 10
-104.368556
 20
-52.065356
 30
0.0
 11
-104.368556
 21
-19.722893
 31
0.0
  0
LINE
  5
333
330
1E
100
AcDbEntity
  8
3
100
AcDbLine
 10
-104.368556
 20
-21.722893
 30
0.0
 11
-100.504852
 21
-22.758169
 31
0.0
  0
LINE
  5
334
330
1E
100
AcDbEntity
  8
3
100
AcDbLine
 10
-104.368556
 20
-21.722893
 30
0.0
 11
-100.504852
 21
-20.687617
 31
0.0
  0
LINE
  5
335
330
1E
100
AcDbEntity
  8
3
100
AcDbLine
 10
-100.504852
 20
-22.758169
 30
0.0
 11
-100.504852
 21
-20.687617
 31
0.0
  0
LINE
  5
336
330
1E
100
AcDbEntity
  8
3
100
AcDbLine
 10
-94.368556
 20
-21.722893
 30
0.0
 11
-176.368556
 21
-21.722893
 31
0.0
  0
LINE
  5
337
330
1E
100
AcDbEntity
  8
3
100
AcDbLine
 10
-147.368556
 20
-21.722893
 30
0.0
 11
-151.232259
 21
-20.687617
 31
0.0
  0
LINE
  5
338
330
1E
100
AcDbEntity
  8
3
100
AcDbLine
 10
-147.368556
 20
-21.722893
 30
0.0
 11
-151.232259
 21
-22.758169
 31
0.0
  0
LINE
  5
339
330
1E
100
AcDbEntity
  8
3
100
AcDbLine
 10
-151.232259
 20
-20.687617
 30
0.0
 11
-151.232259
 21
-22.758169
 31
0.0
  0
LINE
  5
33A
330
1E
100
AcDbEntity
  8
3
100
AcDbLine
 10
-147.368556
 20
-52.065356
 30
0.0
 11
-147.368556
 21
-19.722893
 31
0.0
  0
ENDBLK
  5
33B
330
1E
100
AcDbEntity
  8
3
100
AcDbBlockEnd
  0
BLOCK
  5
33C
330
1F
100
AcDbEntity
  8
3
100
AcDbBlockBegin
  2
*D3
 70
     1
 10
0.0
 20
0.0
 30
0.0
  3
*D3
  1

  0
LINE
  5
33D
330
1F
100
AcDbEntity
  8
3
100
AcDbLine
 10
-142.868556
 20
30.494926
 30
0.0
 11
-146.732259
 21
31.530203
 31
0.0
  0
LINE
  5
33E
330
1F
100
AcDbEntity
  8
3
100
AcDbLine
 10
-142.868556
 20
30.494926
 30
0.0
 11
-146.732259
 21
29.45965
 31
0.0
  0
LINE
  5
33F
330
1F
100
AcDbEntity
  8
3
100
AcDbLine
 10
-146.732259
 20
31.530203
 30
0.0
 11
-146.732259
 21
29.45965
 31
0.0
  0
LINE
  5
340
330
1F
100
AcDbEntity
  8
3
100
AcDbLine
 10
-171.868556
 20
30.494926
 30
0.0
 11
-98.868556
 21
30.494926
 31
0.0
  0
LINE
  5
341
330
1F
100
AcDbEntity
  8
3
100
AcDbLine
 10
-108.868556
 20
30.494926
 30
0.0
 11
-105.004852
 21
29.45965
 31
0.0
  0
LINE
  5
342
330
1F
100
AcDbEntity
  8
3
100
AcDbLine
 10
-108.868556
 20
30.494926
 30
0.0
 11
-105.004852
 21
31.530203
 31
0.0
  0
LINE
  5
343
330
1F
100
AcDbEntity
  8
3
100
AcDbLine
 10
-105.004852
 20
29.45965
 30
0.0
 11
-105.004852
 21
31.530203
 31
0.0
  0
ENDBLK
  5
344
330
1F
100
AcDbEntity
  8
3
100
AcDbBlockEnd
  0
BLOCK
  5
345
330
20
100
AcDbEntity
  8
3
100
AcDbBlockBegin
  2
*D4
 70
     1
 10
0.0
 20
0.0
 30
0.0
  3
*D4
  1

  0
TEXT
  5
346
330
20
100
AcDbEntity
  8
3
100
AcDbText
 10
-165.687527
 20
127.719507
 30
0.0
 40
7.0
  1
９０゜
 50
314.9999999999999
 41
1.056603780350538
 72
     5
 11
-151.828234
 21
113.860214
 31
0.0
100
AcDbText
  0
LINE
  5
347
330
20
100
AcDbEntity
  8
3
100
AcDbLine
 10
-170.900064
 20
152.689236
 30
0.0
 11
-170.681085
 21
152.689236
 31
0.0
  0
LINE
  5
348
330
20
100
AcDbEntity
  8
3
100
AcDbLine
 10
-125.868556
 20
107.028869
 30
0.0
 11
-125.868556
 21
103.876706
 31
0.0
  0
LINE
  5
349
330
20
100
AcDbEntity
  8
3
100
AcDbLine
 10
-172.681085
 20
152.689236
 30
0.0
 11
-173.556032
 21
148.7861
 31
0.0
  0
LINE
  5
34A
330
20
100
AcDbEntity
  8
3
100
AcDbLine
 10
-172.681085
 20
152.689236
 30
0.0
 11
-171.487244
 21
148.871547
 31
0.0
  0
LINE
  5
34B
330
20
100
AcDbEntity
  8
3
100
AcDbLine
 10
-173.556032
 20
148.7861
 30
0.0
 11
-171.487244
 21
148.871547
 31
0.0
  0
LINE
  5
34C
330
20
100
AcDbEntity
  8
3
100
AcDbLine
 10
-125.868556
 20
105.876706
 30
0.0
 11
-129.686244
 21
107.070547
 31
0.0
  0
LINE
  5
34D
330
20
100
AcDbEntity
  8
3
100
AcDbLine
 10
-125.868556
 20
105.876706
 30
0.0
 11
-129.771691
 21
105.001759
 31
0.0
  0
LINE
  5
34E
330
20
100
AcDbEntity
  8
3
100
AcDbLine
 10
-129.686244
 20
107.070547
 30
0.0
 11
-129.771691
 21
105.001759
 31
0.0
  0
ARC
  5
34F
330
20
100
AcDbEntity
  8
3
100
AcDbCircle
 10
-125.868556
 20
152.689236
 30
0.0
 40
46.812529
100
AcDbArc
 50
180.0
 51
270.0
  0
ENDBLK
  5
350
330
20
100
AcDbEntity
  8
3
100
AcDbBlockEnd
  0
BLOCK
  5
351
330
21
100
AcDbEntity
  8
3
100
AcDbBlockBegin
  2
*D5
 70
     1
 10
0.0
 20
0.0
 30
0.0
  3
*D5
  1

  0
TEXT
  5
352
330
21
100
AcDbEntity
  8
3
100
AcDbText
 10
-197.775818
 20
-98.653908
 30
0.0
 40
7.0
  1
１２３
 41
0.9180327868852456
 72
     5
 11
-178.175818
 21
-98.653908
 31
0.0
100
AcDbText
  0
LINE
  5
353
330
21
100
AcDbEntity
  8
3
100
AcDbLine
 10
-248.68308
 20
-3.540156
 30
0.0
 11
-248.68308
 21
-101.653908
 31
0.0
  0
LINE
  5
354
330
21
100
AcDbEntity
  8
3
100
AcDbLine
 10
-248.68308
 20
-99.653908
 30
0.0
 11
-244.819377
 21
-100.689184
 31
0.0
  0
LINE
  5
355
330
21
100
AcDbEntity
  8
3
100
AcDbLine
 10
-248.68308
 20
-99.653908
 30
0.0
 11
-244.819377
 21
-98.618632
 31
0.0
  0
LINE
  5
356
330
21
100
AcDbEntity
  8
3
100
AcDbLine
 10
-244.819377
 20
-100.689184
 30
0.0
 11
-244.819377
 21
-98.618632
 31
0.0
  0
LINE
  5
357
330
21
100
AcDbEntity
  8
3
100
AcDbLine
 10
-248.68308
 20
-99.653908
 30
0.0
 11
-125.868556
 21
-99.653908
 31
0.0
  0
LINE
  5
358
330
21
100
AcDbEntity
  8
3
100
AcDbLine
 10
-125.868556
 20
-99.653908
 30
0.0
 11
-129.732259
 21
-98.618632
 31
0.0
  0
LINE
  5
359
330
21
100
AcDbEntity
  8
3
100
AcDbLine
 10
-125.868556
 20
-99.653908
 30
0.0
 11
-129.732259
 21
-100.689184
 31
0.0
  0
LINE
  5
35A
330
21
100
AcDbEntity
  8
3
100
AcDbLine
 10
-129.732259
 20
-98.618632
 30
0.0
 11
-129.732259
 21
-100.689184
 31
0.0
  0
ENDBLK
  5
35B
330
21
100
AcDbEntity
  8
3
100
AcDbBlockEnd
  0
BLOCK
  5
35C
330
22
100
AcDbEntity
  8
3
100
AcDbBlockBegin
  2
*D6
 70
     1
 10
0.0
 20
0.0
 30
0.0
  3
*D6
  1

  0
TEXT
  5
35D
330
22
100
AcDbEntity
  8
3
100
AcDbText
 10
-287.6651
 20
-37.302756
 30
0.0
 40
7.0
  1
５８
 50
90.0
 41
0.9473684210526316
 72
     5
 11
-287.6651
 21
-24.702756
 31
0.0
100
AcDbText
  0
LINE
  5
35E
330
22
100
AcDbEntity
  8
3
100
AcDbLine
 10
-148.868556
 20
-59.065356
 30
0.0
 11
-288.6651
 21
-59.065356
 31
0.0
  0
LINE
  5
35F
330
22
100
AcDbEntity
  8
3
100
AcDbLine
 10
-286.6651
 20
-59.065356
 30
0.0
 11
-285.629824
 21
-55.201653
 31
0.0
  0
LINE
  5
360
330
22
100
AcDbEntity
  8
3
100
AcDbLine
 10
-286.6651
 20
-59.065356
 30
0.0
 11
-287.700376
 21
-55.201653
 31
0.0
  0
LINE
  5
361
330
22
100
AcDbEntity
  8
3
100
AcDbLine
 10
-285.629824
 20
-55.201653
 30
0.0
 11
-287.700376
 21
-55.201653
 31
0.0
  0
LINE
  5
362
330
22
100
AcDbEntity
  8
3
100
AcDbLine
 10
-286.6651
 20
-59.065356
 30
0.0
 11
-286.6651
 21
-1.540156
 31
0.0
  0
LINE
  5
363
330
22
100
AcDbEntity
  8
3
100
AcDbLine
 10
-286.6651
 20
-1.540156
 30
0.0
 11
-287.700376
 21
-5.403859
 31
0.0
  0
LINE
  5
364
330
22
100
AcDbEntity
  8
3
100
AcDbLine
 10
-286.6651
 20
-1.540156
 30
0.0
 11
-285.629824
 21
-5.403859
 31
0.0
  0
LINE
  5
365
330
22
100
AcDbEntity
  8
3
100
AcDbLine
 10
-287.700376
 20
-5.403859
 30
0.0
 11
-285.629824
 21
-5.403859
 31
0.0
  0
LINE
  5
366
330
22
100
AcDbEntity
  8
3
100
AcDbLine
 10
-250.68308
 20
-1.540156
 30
0.0
 11
-288.6651
 21
-1.540156
 31
0.0
  0
ENDBLK
  5
367
330
22
100
AcDbEntity
  8
3
100
AcDbBlockEnd
  0
BLOCK
  5
368
330
23
100
AcDbEntity
  8
3
100
AcDbBlockBegin
  2
*D7
 70
     1
 10
0.0
 20
0.0
 30
0.0
  3
*D7
  1

  0
TEXT
  5
369
330
23
100
AcDbEntity
  8
3
100
AcDbText
 10
-262.848412
 20
-21.40844
 30
0.0
 40
7.0
  1
２０゜
 50
350.0000008334088
 41
1.056603773117113
 72
     5
 11
-243.54618
 21
-24.811944
 31
0.0
100
AcDbText
  0
LINE
  5
36A
330
23
100
AcDbEntity
  8
3
100
AcDbLine
 10
-249.36719
 20
-3.419516
 30
0.0
 11
-257.242626
 21
-25.057098
 31
0.0
  0
LINE
  5
36B
330
23
100
AcDbEntity
  8
3
100
AcDbLine
 10
-248.68308
 20
-3.540156
 30
0.0
 11
-248.68308
 21
-26.566377
 31
0.0
  0
LINE
  5
36C
330
23
100
AcDbEntity
  8
3
100
AcDbLine
 10
-256.558586
 20
-23.177713
 30
0.0
 11
-259.631156
 21
-20.616598
 31
0.0
  0
LINE
  5
36D
330
23
100
AcDbEntity
  8
3
100
AcDbLine
 10
-256.558586
 20
-23.177713
 30
0.0
 11
-260.500067
 21
-22.496007
 31
0.0
  0
LINE
  5
36E
330
23
100
AcDbEntity
  8
3
100
AcDbLine
 10
-259.631156
 20
-20.616598
 30
0.0
 11
-260.500067
 21
-22.496007
 31
0.0
  0
LINE
  5
36F
330
23
100
AcDbEntity
  8
3
100
AcDbLine
 10
-248.68308
 20
-24.566377
 30
0.0
 11
-244.746142
 21
-25.273849
 31
0.0
  0
LINE
  5
370
330
23
100
AcDbEntity
  8
3
100
AcDbLine
 10
-248.68308
 20
-24.566377
 30
0.0
 11
-244.919856
 21
-23.210597
 31
0.0
  0
LINE
  5
371
330
23
100
AcDbEntity
  8
3
100
AcDbLine
 10
-244.746142
 20
-25.273849
 30
0.0
 11
-244.919856
 21
-23.210597
 31
0.0
  0
ARC
  5
372
330
23
100
AcDbEntity
  8
3
100
AcDbCircle
 10
-248.68308
 20
-1.53994
 30
0.0
 40
23.026436
100
AcDbArc
 50
226.525492
 51
293.474508
  0
ENDBLK
  5
373
330
23
100
AcDbEntity
  8
3
100
AcDbBlockEnd
  0
ENDSEC
  0
SECTION
  2
ENTITIES
  0
LINE
  5
2C
330
24
100
AcDbEntity
  8
1
100
AcDbLine
 10
-373.02157
 20
275.028767
 30
0.0
 11
394.982385
 21
275.028767
 31
0.0
  0
LINE
  5
2D
330
24
100
AcDbEntity
  8
1
100
AcDbLine
 10
-373.02157
 20
275.028767
 30
0.0
 11
-373.02157
 21
-277.971881
 31
0.0
  0
LINE
  5
2E
330
24
100
AcDbEntity
  8
1
100
AcDbLine
 10
-373.02157
 20
-277.971881
 30
0.0
 11
394.982385
 21
-277.971881
 31
0.0
  0
LINE
  5
2F
330
24
100
AcDbEntity
  8
1
100
AcDbLine
 10
394.982385
 20
-277.971881
 30
0.0
 11
394.982385
 21
275.028767
 31
0.0
  0
TEXT
  5
30
330
24
100
AcDbEntity
  8
1
100
AcDbText
 10
359.628442
 20
-226.252857
 30
0.0
 40
6.0
  1
設計
 41
0.8640000000000009
 72
     5
 11
370.428442
 21
-226.252857
 31
0.0
100
AcDbText
  0
TEXT
  5
31
330
24
100
AcDbEntity
  8
1
100
AcDbText
 10
379.127478
 20
-226.099658
 30
0.0
 40
6.0
  1
製図
 41
0.8925619834710752
 72
     5
 11
389.927478
 21
-226.099658
 31
0.0
100
AcDbText
  0
TEXT
  5
32
330
24
100
AcDbEntity
  8
1
100
AcDbText
 10
319.005745
 20
-226.252857
 30
0.0
 40
6.0
  1
承認
 41
0.857142857142858
 72
     5
 11
329.805745
 21
-226.252857
 31
0.0
100
AcDbText
  0
TEXT
  5
33
330
24
100
AcDbEntity
  8
1
100
AcDbText
 10
338.989679
 20
-226.19802
 30
0.0
 40
6.0
  1
検図
 41
0.8925619834710705
 72
     5
 11
349.789679
 21
-226.19802
 31
0.0
100
AcDbText
  0
LINE
  5
34
330
24
100
AcDbEntity
  8
1
100
AcDbLine
 10
284.982385
 20
-227.971881
 30
0.0
 11
394.982385
 21
-227.971881
 31
0.0
  0
LINE
  5
35
330
24
100
AcDbEntity
  8
1
100
AcDbLine
 10
342.482385
 20
-245.971881
 30
0.0
 11
342.482385
 21
-259.971881
 31
0.0
  0
TEXT
  5
36
330
24
100
AcDbEntity
  8
1
100
AcDbText
 10
319.55159
 20
-256.012528
 30
0.0
 40
6.0
  1
日　付
 41
0.8400000000000005
 72
     5
 11
336.35159
 21
-256.012528
 31
0.0
100
AcDbText
  0
LINE
  5
37
330
24
100
AcDbEntity
  8
1
100
AcDbLine
 10
40.982385
 20
-259.971881
 30
0.0
 11
394.982385
 21
-259.971881
 31
0.0
  0
TEXT
  5
38
330
24
100
AcDbEntity
  8
1
100
AcDbText
 10
287.775011
 20
-256.322406
 30
0.0
 40
6.0
  1
第三角法
 41
0.8457869634340226
 72
     5
 11
310.575011
 21
-256.322406
 31
0.0
100
AcDbText
  0
TEXT
  5
39
330
24
100
AcDbEntity
  8
1
100
AcDbText
 10
291.087419
 20
-225.99802
 30
0.0
 40
6.0
  1
尺　度
 41
0.8527918781725893
 72
     5
 11
307.887419
 21
-225.99802
 31
0.0
100
AcDbText
  0
LINE
  5
3A
330
24
100
AcDbEntity
  8
1
100
AcDbLine
 10
40.982385
 20
-217.971881
 30
0.0
 11
394.982385
 21
-217.971881
 31
0.0
  0
LINE
  5
3B
330
24
100
AcDbEntity
  8
1
100
AcDbLine
 10
211.982385
 20
-217.971881
 30
0.0
 11
211.982385
 21
-277.971881
 31
0.0
  0
LINE
  5
3C
330
24
100
AcDbEntity
  8
1
100
AcDbLine
 10
374.982385
 20
-245.971881
 30
0.0
 11
374.982385
 21
-217.971881
 31
0.0
  0
LINE
  5
3D
330
24
100
AcDbEntity
  8
1
100
AcDbLine
 10
354.982385
 20
-245.971881
 30
0.0
 11
354.982385
 21
-217.971881
 31
0.0
  0
LINE
  5
3E
330
24
100
AcDbEntity
  8
1
100
AcDbLine
 10
334.982385
 20
-245.971881
 30
0.0
 11
334.982385
 21
-217.971881
 31
0.0
  0
LINE
  5
3F
330
24
100
AcDbEntity
  8
1
100
AcDbLine
 10
284.982385
 20
-277.971881
 30
0.0
 11
284.982385
 21
-217.971881
 31
0.0
  0
LINE
  5
40
330
24
100
AcDbEntity
  8
1
100
AcDbLine
 10
189.982385
 20
-217.971881
 30
0.0
 11
189.982385
 21
-277.971881
 31
0.0
  0
LINE
  5
41
330
24
100
AcDbEntity
  8
1
100
AcDbLine
 10
62.982385
 20
-217.971881
 30
0.0
 11
62.982385
 21
-259.971881
 31
0.0
  0
LINE
  5
42
330
24
100
AcDbEntity
  8
1
100
AcDbLine
 10
284.982385
 20
-245.971881
 30
0.0
 11
394.982385
 21
-245.971881
 31
0.0
  0
TEXT
  5
43
330
24
100
AcDbEntity
  8
1
100
AcDbText
 10
287.101129
 20
-271.880939
 30
0.0
 40
6.0
  1
コードＮｏ
 41
0.7878419452887526
 72
     5
 11
313.021129
 21
-271.880939
 31
0.0
100
AcDbText
  0
TEXT
  5
44
330
24
100
AcDbEntity
  8
1
100
AcDbText
 10
52.886774
 20
-272.875659
 30
0.0
 40
8.0
  1
ミズタニバルブ工業株式会社
 41
1.005799812909261
 72
     5
 11
175.766774
 21
-272.875659
 31
0.0
100
AcDbText
  0
LINE
  5
45
330
24
100
AcDbEntity
  8
1
100
AcDbLine
 10
40.982385
 20
-238.971881
 30
0.0
 11
284.982385
 21
-238.971881
 31
0.0
  0
LINE
  5
46
330
24
100
AcDbEntity
  8
1
100
AcDbLine
 10
115.482385
 20
-238.971881
 30
0.0
 11
115.482385
 21
-259.971881
 31
0.0
  0
LINE
  5
47
330
24
100
AcDbEntity
  8
1
100
AcDbLine
 10
137.482385
 20
-238.971881
 30
0.0
 11
137.482385
 21
-259.971881
 31
0.0
  0
LINE
  5
48
330
24
100
AcDbEntity
  8
1
100
AcDbLine
 10
314.982385
 20
-277.971881
 30
0.0
 11
314.982385
 21
-217.971881
 31
0.0
  0
TEXT
  5
49
330
24
100
AcDbEntity
  8
1
100
AcDbText
 10
345.098131
 20
-256.100293
 30
0.0
 40
6.0
  1
　　・　　・
 41
0.8900255754475691
 72
     5
 11
379.898131
 21
-256.100293
 31
0.0
100
AcDbText
  0
LINE
  5
4A
330
24
100
AcDbEntity
  8
1
100
AcDbLine
 10
161.482385
 20
218.028767
 30
0.0
 11
394.982385
 21
218.028767
 31
0.0
  0
LINE
  5
4B
330
24
100
AcDbEntity
  8
1
100
AcDbLine
 10
161.482385
 20
233.028767
 30
0.0
 11
394.982385
 21
233.028767
 31
0.0
  0
LINE
  5
4C
330
24
100
AcDbEntity
  8
1
100
AcDbLine
 10
161.482385
 20
248.028767
 30
0.0
 11
394.982385
 21
248.028767
 31
0.0
  0
LINE
  5
4D
330
24
100
AcDbEntity
  8
1
100
AcDbLine
 10
161.482385
 20
263.028767
 30
0.0
 11
394.982385
 21
263.028767
 31
0.0
  0
TEXT
  5
4E
330
24
100
AcDbEntity
  8
1
100
AcDbText
 10
165.052644
 20
265.950703
 30
0.0
 40
6.0
  1
記号
 41
0.9152542372881365
 72
     5
 11
175.852644
 21
265.950703
 31
0.0
100
AcDbText
  0
TEXT
  5
4F
330
24
100
AcDbEntity
  8
1
100
AcDbText
 10
316.856729
 20
265.859212
 30
0.0
 40
6.0
  1
訂 正 記 事
 41
1.073684210526316
 72
     5
 11
357.656729
 21
265.859212
 31
0.0
100
AcDbText
  0
TEXT
  5
50
330
24
100
AcDbEntity
  8
1
100
AcDbText
 10
380.887817
 20
265.835536
 30
0.0
 40
6.0
  1
印
 41
0.9411764705882374
 72
     5
 11
385.687817
 21
265.835536
 31
0.0
100
AcDbText
  0
LINE
  5
51
330
24
100
AcDbEntity
  8
1
100
AcDbLine
 10
161.482385
 20
218.028767
 30
0.0
 11
161.482385
 21
275.028767
 31
0.0
  0
LINE
  5
52
330
24
100
AcDbEntity
  8
1
100
AcDbLine
 10
180.482385
 20
218.028767
 30
0.0
 11
180.482385
 21
275.028767
 31
0.0
  0
LINE
  5
53
330
24
100
AcDbEntity
  8
1
100
AcDbLine
 10
372.982385
 20
218.028767
 30
0.0
 11
372.982385
 21
275.028767
 31
0.0
  0
LINE
  5
54
330
24
100
AcDbEntity
  8
1
100
AcDbLine
 10
302.982385
 20
218.028767
 30
0.0
 11
302.982385
 21
275.028767
 31
0.0
  0
LINE
  5
55
330
24
100
AcDbEntity
  8
1
100
AcDbLine
 10
232.982385
 20
218.028767
 30
0.0
 11
232.982385
 21
275.028767
 31
0.0
  0
TEXT
  5
56
330
24
100
AcDbEntity
  8
1
100
AcDbText
 10
246.91768
 20
265.924672
 30
0.0
 40
6.0
  1
変　更　理　由
 41
0.8535564853556481
 72
     5
 11
287.71768
 21
265.924672
 31
0.0
100
AcDbText
  0
TEXT
  5
57
330
24
100
AcDbEntity
  8
1
100
AcDbText
 10
194.793748
 20
266.40334
 30
0.0
 40
6.0
  1
日　　付
 41
0.8382352941176474
 72
     5
 11
217.593748
 21
266.40334
 31
0.0
100
AcDbText
  0
TEXT
  5
58
330
24
100
AcDbEntity
  8
1
100
AcDbText
 10
183.098131
 20
252.400355
 30
0.0
 40
6.0
  1
　　・　　・
 41
0.8900255754475705
 72
     5
 11
217.898131
 21
252.400355
 31
0.0
100
AcDbText
  0
TEXT
  5
59
330
24
100
AcDbEntity
  8
1
100
AcDbText
 10
183.098131
 20
237.400355
 30
0.0
 40
6.0
  1
　　・　　・
 41
0.8900255754475705
 72
     5
 11
217.898131
 21
237.400355
 31
0.0
100
AcDbText
  0
TEXT
  5
5A
330
24
100
AcDbEntity
  8
1
100
AcDbText
 10
183.098131
 20
222.400355
 30
0.0
 40
6.0
  1
　　・　　・
 41
0.8900255754475705
 72
     5
 11
217.898131
 21
222.400355
 31
0.0
100
AcDbText
  0
LINE
  5
5B
330
24
100
AcDbEntity
  8
1
100
AcDbLine
 10
40.982385
 20
-217.971881
 30
0.0
 11
40.982385
 21
-277.971881
 31
0.0
  0
TEXT
  5
5C
330
24
100
AcDbEntity
  8
1
100
AcDbText
 10
290.832582
 20
-240.013492
 30
0.0
 40
6.0
  1
　／ 
 41
0.6000000000000006
 72
     5
 11
301.632582
 21
-240.013492
 31
0.0
100
AcDbText
  0
TEXT
  5
5D
330
24
100
AcDbEntity
  8
1
100
AcDbText
 10
193.904123
 20
-272.024909
 30
0.0
 40
6.0
  1
備 考 
 41
0.6388888888888894
 72
     5
 11
207.704123
 21
-272.024909
 31
0.0
100
AcDbText
  0
TEXT
  5
5E
330
24
100
AcDbEntity
  8
1
100
AcDbText
 10
193.512534
 20
-230.89184
 30
0.0
 40
6.0
  1
仕 上
 41
0.8625000000000007
 72
     5
 11
207.312534
 21
-230.89184
 31
0.0
100
AcDbText
  0
TEXT
  5
5F
330
24
100
AcDbEntity
  8
1
100
AcDbText
 10
193.447176
 20
-248.891666
 30
0.0
 40
6.0
  1
表 面
 41
0.8679245283018856
 72
     5
 11
207.247176
 21
-248.891666
 31
0.0
100
AcDbText
  0
TEXT
  5
60
330
24
100
AcDbEntity
  8
1
100
AcDbText
 10
193.447176
 20
-255.891666
 30
0.0
 40
6.0
  1
処 理
 41
0.8561932195878562
 72
     5
 11
207.247176
 21
-255.891666
 31
0.0
100
AcDbText
  0
TEXT
  5
61
330
24
100
AcDbEntity
  8
1
100
AcDbText
 10
44.79335
 20
-231.693399
 30
0.0
 40
6.0
  1
品 名
 41
0.8961038961038963
 72
     5
 11
58.59335
 21
-231.693399
 31
0.0
100
AcDbText
  0
TEXT
  5
62
330
24
100
AcDbEntity
  8
1
100
AcDbText
 10
44.397766
 20
-252.462534
 30
0.0
 40
6.0
  1
材 質
 41
0.8571428571428573
 72
     5
 11
58.197766
 21
-252.462534
 31
0.0
100
AcDbText
  0
TEXT
  5
63
330
24
100
AcDbEntity
  8
1
100
AcDbText
 10
118.897766
 20
-252.462534
 30
0.0
 40
6.0
  1
規 格
 41
0.8613464110566204
 72
     5
 11
132.697766
 21
-252.462534
 31
0.0
100
AcDbText
  0
POINT
  5
64
330
24
100
AcDbEntity
  8
2
100
AcDbPoint
 10
119.710204
 20
-48.065356
 30
0.0
  0
POINT
  5
65
330
24
100
AcDbEntity
  8
2
100
AcDbPoint
 10
119.710204
 20
-48.065356
 30
0.0
  0
POINT
  5
66
330
24
100
AcDbEntity
  8
2
100
AcDbPoint
 10
119.710204
 20
-48.065356
 30
0.0
  0
LINE
  5
67
330
24
100
AcDbEntity
  8
2
100
AcDbLine
 10
-108.368556
 20
-75.565356
 30
0.0
 11
-108.368556
 21
-74.065356
 31
0.0
  0
LINE
  5
68
330
24
100
AcDbEntity
  8
2
100
AcDbLine
 10
-125.868556
 20
-75.565356
 30
0.0
 11
-108.368556
 21
-75.565356
 31
0.0
  0
LINE
  5
69
330
24
100
AcDbEntity
  8
2
100
AcDbLine
 10
-116.618556
 20
-104.065356
 30
0.0
 11
-116.618556
 21
-84.265356
 31
0.0
  0
LINE
  5
6A
330
24
100
AcDbEntity
  8
2
100
AcDbLine
 10
-116.618556
 20
-74.065356
 30
0.0
 11
-116.618556
 21
-61.064964
 31
0.0
  0
LINE
  5
6B
330
24
100
AcDbEntity
  8
2
100
AcDbLine
 10
-115.618556
 20
-74.065356
 30
0.0
 11
-115.618556
 21
-61.064964
 31
0.0
  0
LINE
  5
6C
330
24
100
AcDbEntity
  8
2
100
AcDbLine
 10
-113.868556
 20
-84.265356
 30
0.0
 11
-125.868556
 21
-84.265356
 31
0.0
  0
LINE
  5
6D
330
24
100
AcDbEntity
  8
2
100
AcDbLine
 10
-112.118556
 20
-83.254993
 30
0.0
 11
-112.118556
 21
-77.765356
 31
0.0
  0
LINE
  5
6E
330
24
100
AcDbEntity
  8
2
100
AcDbLine
 10
-113.868556
 20
-84.265356
 30
0.0
 11
-112.118556
 21
-83.254993
 31
0.0
  0
LINE
  5
6F
330
24
100
AcDbEntity
  8
2
100
AcDbLine
 10
-105.868556
 20
-77.265356
 30
0.0
 11
-105.868556
 21
-76.065356
 31
0.0
  0
LINE
  5
70
330
24
100
AcDbEntity
  8
2
100
AcDbLine
 10
-125.868556
 20
-77.765356
 30
0.0
 11
-111.548005
 21
-77.765356
 31
0.0
  0
LINE
  5
71
330
24
100
AcDbEntity
  8
2
100
AcDbLine
 10
-105.868556
 20
-76.065356
 30
0.0
 11
-125.868556
 21
-76.065356
 31
0.0
  0
LINE
  5
72
330
24
100
AcDbEntity
  8
2
100
AcDbLine
 10
-105.868556
 20
-77.265356
 30
0.0
 11
-125.868556
 21
-77.265356
 31
0.0
  0
ARC
  5
73
330
24
100
AcDbEntity
  8
2
100
AcDbCircle
 10
-111.548005
 20
-72.765356
 30
0.0
 40
5.0
100
AcDbArc
 50
270.0
 51
293.556464
  0
ARC
  5
74
330
24
100
AcDbEntity
  8
2
100
AcDbCircle
 10
-111.548005
 20
-80.565356
 30
0.0
 40
5.0
100
AcDbArc
 50
66.443536
 51
90.0
  0
ARC
  5
75
330
24
100
AcDbEntity
  8
2
100
AcDbCircle
 10
-109.150089
 20
-78.265356
 30
0.0
 40
1.0
100
AcDbArc
 50
90.0
 51
113.556464
  0
ARC
  5
76
330
24
100
AcDbEntity
  8
2
100
AcDbCircle
 10
-109.150089
 20
-75.065356
 30
0.0
 40
1.0
100
AcDbArc
 50
246.443536
 51
270.0
  0
LINE
  5
77
330
24
100
AcDbEntity
  8
2
100
AcDbLine
 10
-118.868556
 20
-83.254993
 30
0.0
 11
-118.868556
 21
-77.765356
 31
0.0
  0
ARC
  5
78
330
24
100
AcDbEntity
  8
2
100
AcDbCircle
 10
-125.868556
 20
-59.511463
 30
0.0
 40
24.753893
100
AcDbArc
 50
270.0
 51
286.426421
  0
ARC
  5
79
330
24
100
AcDbEntity
  8
2
100
AcDbCircle
 10
-115.493556
 20
-78.123277
 30
0.0
 40
6.142079
100
AcDbArc
 50
236.668091
 51
303.331909
  0
ARC
  5
7A
330
24
100
AcDbEntity
  8
2
100
AcDbCircle
 10
-125.868556
 20
-61.515356
 30
0.0
 40
16.25
100
AcDbArc
 50
270.0
 51
284.250033
  0
ARC
  5
7B
330
24
100
AcDbEntity
  8
2
100
AcDbCircle
 10
-117.618556
 20
-61.515356
 30
0.0
 40
16.25
100
AcDbArc
 50
262.930286
 51
284.250033
  0
ARC
  5
7C
330
24
100
AcDbEntity
  8
2
100
AcDbCircle
 10
-121.618556
 20
-61.515356
 30
0.0
 40
16.25
100
AcDbArc
 50
262.485955
 51
284.250033
  0
ARC
  5
7D
330
24
100
AcDbEntity
  8
2
100
AcDbCircle
 10
-113.618556
 20
-61.515356
 30
0.0
 40
16.25
100
AcDbArc
 50
262.930286
 51
270.0
  0
ARC
  5
7E
330
24
100
AcDbEntity
  8
2
100
AcDbCircle
 10
-125.868556
 20
-91.815356
 30
0.0
 40
16.25
100
AcDbArc
 50
75.74996699999998
 51
90.0
  0
ARC
  5
7F
330
24
100
AcDbEntity
  8
2
100
AcDbCircle
 10
-121.618556
 20
-91.815356
 30
0.0
 40
16.25
100
AcDbArc
 50
75.74996699999998
 51
97.514045
  0
ARC
  5
80
330
24
100
AcDbEntity
  8
2
100
AcDbCircle
 10
-117.618556
 20
-91.815356
 30
0.0
 40
16.25
100
AcDbArc
 50
75.74996699999998
 51
97.069714
  0
ARC
  5
81
330
24
100
AcDbEntity
  8
2
100
AcDbCircle
 10
-113.618556
 20
-91.815356
 30
0.0
 40
16.25
100
AcDbArc
 50
90.0
 51
97.069714
  0
LINE
  5
82
330
24
100
AcDbEntity
  8
2
100
AcDbLine
 10
-114.368556
 20
-116.065356
 30
0.0
 11
-125.868556
 21
-116.065356
 31
0.0
  0
ARC
  5
83
330
24
100
AcDbEntity
  8
2
100
AcDbCircle
 10
-128.143556
 20
-110.065356
 30
0.0
 40
15.025
100
AcDbArc
 50
336.463422
 51
23.536578
  0
LINE
  5
84
330
24
100
AcDbEntity
  8
2
100
AcDbLine
 10
-114.368556
 20
-104.065356
 30
0.0
 11
-125.868556
 21
-104.065356
 31
0.0
  0
ELLIPSE
  5
85
330
24
100
AcDbEntity
  8
2
100
AcDbEllipse
 10
-115.909263
 20
-110.065356
 30
0.0
 11
0.0
 21
6.0
 31
0.0
210
0.0
220
0.0
230
1.0
 40
0.458833
 41
0.0
 42
6.283185
  0
ELLIPSE
  5
86
330
24
100
AcDbEntity
  8
2
100
AcDbEllipse
 10
-125.868556
 20
-110.065356
 30
0.0
 11
0.0
 21
6.0
 31
0.0
210
0.0
220
0.0
230
1.0
 40
0.926667
 41
0.0
 42
6.283185
  0
LINE
  5
87
330
24
100
AcDbEntity
  8
2
100
AcDbLine
 10
-115.618556
 20
-104.065356
 30
0.0
 11
-115.618556
 21
-84.265356
 31
0.0
  0
LINE
  5
88
330
24
100
AcDbEntity
  8
2
100
AcDbLine
 10
-143.368556
 20
-75.565356
 30
0.0
 11
-143.368556
 21
-74.065356
 31
0.0
  0
LINE
  5
89
330
24
100
AcDbEntity
  8
2
100
AcDbLine
 10
-125.868556
 20
-75.565356
 30
0.0
 11
-143.368556
 21
-75.565356
 31
0.0
  0
LINE
  5
8A
330
24
100
AcDbEntity
  8
2
100
AcDbLine
 10
-135.118556
 20
-104.065356
 30
0.0
 11
-135.118556
 21
-84.265356
 31
0.0
  0
LINE
  5
8B
330
24
100
AcDbEntity
  8
2
100
AcDbLine
 10
-135.118556
 20
-74.065356
 30
0.0
 11
-135.118556
 21
-61.064964
 31
0.0
  0
LINE
  5
8C
330
24
100
AcDbEntity
  8
2
100
AcDbLine
 10
-136.118556
 20
-74.065356
 30
0.0
 11
-136.118556
 21
-61.064964
 31
0.0
  0
LINE
  5
8D
330
24
100
AcDbEntity
  8
2
100
AcDbLine
 10
-137.868556
 20
-84.265356
 30
0.0
 11
-125.868556
 21
-84.265356
 31
0.0
  0
LINE
  5
8E
330
24
100
AcDbEntity
  8
2
100
AcDbLine
 10
-139.618556
 20
-83.254993
 30
0.0
 11
-139.618556
 21
-77.765356
 31
0.0
  0
LINE
  5
8F
330
24
100
AcDbEntity
  8
2
100
AcDbLine
 10
-137.868556
 20
-84.265356
 30
0.0
 11
-139.618556
 21
-83.254993
 31
0.0
  0
LINE
  5
90
330
24
100
AcDbEntity
  8
2
100
AcDbLine
 10
-145.868556
 20
-77.265356
 30
0.0
 11
-145.868556
 21
-76.065356
 31
0.0
  0
LINE
  5
91
330
24
100
AcDbEntity
  8
2
100
AcDbLine
 10
-125.868556
 20
-77.765356
 30
0.0
 11
-140.189106
 21
-77.765356
 31
0.0
  0
LINE
  5
92
330
24
100
AcDbEntity
  8
2
100
AcDbLine
 10
-145.868556
 20
-76.065356
 30
0.0
 11
-125.868556
 21
-76.065356
 31
0.0
  0
LINE
  5
93
330
24
100
AcDbEntity
  8
2
100
AcDbLine
 10
-145.868556
 20
-77.265356
 30
0.0
 11
-125.868556
 21
-77.265356
 31
0.0
  0
ARC
  5
94
330
24
100
AcDbEntity
  8
2
100
AcDbCircle
 10
-140.189106
 20
-72.765356
 30
0.0
 40
5.0
100
AcDbArc
 50
246.443536
 51
270.0
  0
ARC
  5
95
330
24
100
AcDbEntity
  8
2
100
AcDbCircle
 10
-140.189106
 20
-80.565356
 30
0.0
 40
5.0
100
AcDbArc
 50
90.0
 51
113.556464
  0
ARC
  5
96
330
24
100
AcDbEntity
  8
2
100
AcDbCircle
 10
-142.587022
 20
-78.265356
 30
0.0
 40
1.0
100
AcDbArc
 50
66.443536
 51
90.0
  0
ARC
  5
97
330
24
100
AcDbEntity
  8
2
100
AcDbCircle
 10
-142.587022
 20
-75.065356
 30
0.0
 40
1.0
100
AcDbArc
 50
270.0
 51
293.556464
  0
LINE
  5
98
330
24
100
AcDbEntity
  8
2
100
AcDbLine
 10
-132.868556
 20
-83.254993
 30
0.0
 11
-132.868556
 21
-77.765356
 31
0.0
  0
ARC
  5
99
330
24
100
AcDbEntity
  8
2
100
AcDbCircle
 10
-125.868556
 20
-59.511463
 30
0.0
 40
24.753893
100
AcDbArc
 50
253.573579
 51
270.0
  0
ARC
  5
9A
330
24
100
AcDbEntity
  8
2
100
AcDbCircle
 10
-136.243556
 20
-78.123277
 30
0.0
 40
6.142079
100
AcDbArc
 50
236.668091
 51
303.331909
  0
ARC
  5
9B
330
24
100
AcDbEntity
  8
2
100
AcDbCircle
 10
-125.868556
 20
-61.515356
 30
0.0
 40
16.25
100
AcDbArc
 50
255.749967
 51
270.0
  0
ARC
  5
9C
330
24
100
AcDbEntity
  8
2
100
AcDbCircle
 10
-134.118556
 20
-61.515356
 30
0.0
 40
16.25
100
AcDbArc
 50
255.749967
 51
277.069714
  0
ARC
  5
9D
330
24
100
AcDbEntity
  8
2
100
AcDbCircle
 10
-130.118556
 20
-61.515356
 30
0.0
 40
16.25
100
AcDbArc
 50
255.749967
 51
277.514045
  0
ARC
  5
9E
330
24
100
AcDbEntity
  8
2
100
AcDbCircle
 10
-138.118556
 20
-61.515356
 30
0.0
 40
16.25
100
AcDbArc
 50
270.0
 51
277.069714
  0
ARC
  5
9F
330
24
100
AcDbEntity
  8
2
100
AcDbCircle
 10
-125.868556
 20
-91.815356
 30
0.0
 40
16.25
100
AcDbArc
 50
90.0
 51
104.250033
  0
ARC
  5
A0
330
24
100
AcDbEntity
  8
2
100
AcDbCircle
 10
-130.118556
 20
-91.815356
 30
0.0
 40
16.25
100
AcDbArc
 50
82.485955
 51
104.250033
  0
ARC
  5
A1
330
24
100
AcDbEntity
  8
2
100
AcDbCircle
 10
-134.118556
 20
-91.815356
 30
0.0
 40
16.25
100
AcDbArc
 50
82.930286
 51
104.250033
  0
ARC
  5
A2
330
24
100
AcDbEntity
  8
2
100
AcDbCircle
 10
-138.118556
 20
-91.815356
 30
0.0
 40
16.25
100
AcDbArc
 50
82.930286
 51
90.0
  0
LINE
  5
A3
330
24
100
AcDbEntity
  8
2
100
AcDbLine
 10
-137.368556
 20
-116.065356
 30
0.0
 11
-125.868556
 21
-116.065356
 31
0.0
  0
ARC
  5
A4
330
24
100
AcDbEntity
  8
2
100
AcDbCircle
 10
-123.593556
 20
-110.065356
 30
0.0
 40
15.025
100
AcDbArc
 50
156.463422
 51
203.536578
  0
LINE
  5
A5
330
24
100
AcDbEntity
  8
2
100
AcDbLine
 10
-137.368556
 20
-104.065356
 30
0.0
 11
-125.868556
 21
-104.065356
 31
0.0
  0
ELLIPSE
  5
A6
330
24
100
AcDbEntity
  8
2
100
AcDbEllipse
 10
-135.827848
 20
-110.065356
 30
0.0
 11
0.0
 21
6.0
 31
0.0
210
0.0
220
0.0
230
1.0
 40
0.458833
 41
0.0
 42
6.283185
  0
LINE
  5
A7
330
24
100
AcDbEntity
  8
2
100
AcDbLine
 10
-136.118556
 20
-104.065356
 30
0.0
 11
-136.118556
 21
-84.265356
 31
0.0
  0
LINE
  5
A8
330
24
100
AcDbEntity
  8
2
100
AcDbLine
 10
-143.368556
 20
-74.065356
 30
0.0
 11
-108.368556
 21
-74.065356
 31
0.0
  0
LINE
  5
A9
330
24
100
AcDbEntity
  8
2
100
AcDbLine
 10
-104.868556
 20
-53.565356
 30
0.0
 11
-146.868556
 21
-53.565356
 31
0.0
  0
LINE
  5
AA
330
24
100
AcDbEntity
  8
2
100
AcDbLine
 10
-108.868556
 20
37.434644
 30
0.0
 11
-108.868556
 21
-53.065356
 31
0.0
  0
LINE
  5
AB
330
24
100
AcDbEntity
  8
2
100
AcDbLine
 10
-125.868556
 20
37.934644
 30
0.0
 11
-142.368556
 21
37.934644
 31
0.0
  0
LINE
  5
AC
330
24
100
AcDbEntity
  8
2
100
AcDbLine
 10
-142.368556
 20
37.934644
 30
0.0
 11
-142.868556
 21
37.434644
 31
0.0
  0
LINE
  5
AD
330
24
100
AcDbEntity
  8
2
100
AcDbLine
 10
-139.868556
 20
37.934644
 30
0.0
 11
-139.868556
 21
39.034644
 31
0.0
  0
LINE
  5
AE
330
24
100
AcDbEntity
  8
2
100
AcDbLine
 10
-142.868556
 20
-53.065356
 30
0.0
 11
-142.868556
 21
3.934644
 31
0.0
  0
LINE
  5
AF
330
24
100
AcDbEntity
  8
2
100
AcDbLine
 10
-142.868556
 20
24.934644
 30
0.0
 11
-142.868556
 21
37.434644
 31
0.0
  0
LINE
  5
B0
330
24
100
AcDbEntity
  8
2
100
AcDbLine
 10
-108.868556
 20
-53.065356
 30
0.0
 11
-109.368556
 21
-53.565356
 31
0.0
  0
LINE
  5
B1
330
24
100
AcDbEntity
  8
2
100
AcDbLine
 10
-142.868556
 20
-53.065356
 30
0.0
 11
-142.368556
 21
-53.565356
 31
0.0
  0
LINE
  5
B2
330
24
100
AcDbEntity
  8
2
100
AcDbLine
 10
-111.868556
 20
37.934644
 30
0.0
 11
-111.868556
 21
39.034644
 31
0.0
  0
LINE
  5
B3
330
24
100
AcDbEntity
  8
2
100
AcDbLine
 10
-125.868556
 20
37.934644
 30
0.0
 11
-109.368556
 21
37.934644
 31
0.0
  0
LINE
  5
B4
330
24
100
AcDbEntity
  8
2
100
AcDbLine
 10
-109.368556
 20
37.934644
 30
0.0
 11
-108.868556
 21
37.434644
 31
0.0
  0
LINE
  5
B5
330
24
100
AcDbEntity
  8
2
100
AcDbLine
 10
-142.868556
 20
37.434644
 30
0.0
 11
-108.868556
 21
37.434644
 31
0.0
  0
LINE
  5
B6
330
24
100
AcDbEntity
  8
2
100
AcDbLine
 10
-145.368556
 20
-59.065356
 30
0.0
 11
-145.368556
 21
-61.065356
 31
0.0
  0
LINE
  5
B7
330
24
100
AcDbEntity
  8
2
100
AcDbLine
 10
-145.368556
 20
-61.065356
 30
0.0
 11
-125.868556
 21
-61.065356
 31
0.0
  0
LINE
  5
B8
330
24
100
AcDbEntity
  8
2
100
AcDbLine
 10
-146.868556
 20
-59.065356
 30
0.0
 11
-125.868556
 21
-59.065356
 31
0.0
  0
LINE
  5
B9
330
24
100
AcDbEntity
  8
2
100
AcDbLine
 10
-147.368556
 20
-58.565356
 30
0.0
 11
-146.868556
 21
-59.065356
 31
0.0
  0
LINE
  5
BA
330
24
100
AcDbEntity
  8
2
100
AcDbLine
 10
-147.368556
 20
-54.065356
 30
0.0
 11
-147.368556
 21
-58.565356
 31
0.0
  0
LINE
  5
BB
330
24
100
AcDbEntity
  8
2
100
AcDbLine
 10
-146.868556
 20
-53.565356
 30
0.0
 11
-147.368556
 21
-54.065356
 31
0.0
  0
LINE
  5
BC
330
24
100
AcDbEntity
  8
2
100
AcDbLine
 10
-104.868556
 20
-53.565356
 30
0.0
 11
-104.368556
 21
-54.065356
 31
0.0
  0
LINE
  5
BD
330
24
100
AcDbEntity
  8
2
100
AcDbLine
 10
-104.368556
 20
-54.065356
 30
0.0
 11
-104.368556
 21
-58.565356
 31
0.0
  0
LINE
  5
BE
330
24
100
AcDbEntity
  8
2
100
AcDbLine
 10
-104.368556
 20
-58.565356
 30
0.0
 11
-104.868556
 21
-59.065356
 31
0.0
  0
LINE
  5
BF
330
24
100
AcDbEntity
  8
2
100
AcDbLine
 10
-104.868556
 20
-59.065356
 30
0.0
 11
-125.868556
 21
-59.065356
 31
0.0
  0
LINE
  5
C0
330
24
100
AcDbEntity
  8
2
100
AcDbLine
 10
-106.368556
 20
-59.065356
 30
0.0
 11
-106.368556
 21
-61.065356
 31
0.0
  0
LINE
  5
C1
330
24
100
AcDbEntity
  8
2
100
AcDbLine
 10
-106.368556
 20
-61.065356
 30
0.0
 11
-125.868556
 21
-61.065356
 31
0.0
  0
LINE
  5
C2
330
24
100
AcDbEntity
  8
2
100
AcDbLine
 10
-142.868556
 20
-53.065356
 30
0.0
 11
-108.868556
 21
-53.065356
 31
0.0
  0
LINE
  5
C3
330
24
100
AcDbEntity
  8
2
100
AcDbLine
 10
-104.368556
 20
-54.065356
 30
0.0
 11
-147.368556
 21
-54.065356
 31
0.0
  0
LINE
  5
C4
330
24
100
AcDbEntity
  8
2
100
AcDbLine
 10
-147.368556
 20
-58.565356
 30
0.0
 11
-104.368556
 21
-58.565356
 31
0.0
  0
LINE
  5
C5
330
24
100
AcDbEntity
  8
2
  6
CENTER
100
AcDbLine
 10
-125.868556
 20
-117.78338
 30
0.0
 11
-125.868556
 21
75.428276
 31
0.0
  0
HATCH
  5
C6
330
24
100
AcDbEntity
  8
2
100
AcDbHatch
 10
0.0
 20
0.0
 30
0.0
210
0.0
220
0.0
230
1.0
  2
_U
 70
     0
 71
     1
 91
        1
 92
        1
 93
        6
 72
     1
 10
-106.368556
 20
-61.065356
 11
-106.368556
 21
-59.065356
 72
     1
 10
-106.368556
 20
-59.065356
 11
-125.868556
 21
-59.065356
 72
     1
 10
-125.868556
 20
-59.065356
 11
-145.368556
 21
-59.065356
 72
     1
 10
-145.368556
 20
-59.065356
 11
-145.368556
 21
-61.065356
 72
     1
 10
-145.368556
 20
-61.065356
 11
-125.868556
 21
-61.065356
 72
     1
 10
-125.868556
 20
-61.065356
 11
-106.368556
 21
-61.065356
 97
        6
330
0
330
0
330
0
330
0
330
0
330
0
 75
     0
 76
     0
 52
45.0
 41
1.0
 77
     0
 78
     1
 53
45.0
 43
0.0
 44
0.0
 45
-1.414214
 46
1.414214
 79
     0
 98
        1
 10
0.0
 20
0.0
  0
HATCH
  5
C7
330
24
100
AcDbEntity
  8
2
100
AcDbHatch
 10
0.0
 20
0.0
 30
0.0
210
0.0
220
0.0
230
1.0
  2
_U
 70
     0
 71
     1
 91
        1
 92
        1
 93
        5
 72
     1
 10
-108.368556
 20
-74.065356
 11
-108.368556
 21
-75.565356
 72
     1
 10
-108.368556
 20
-75.565356
 11
-125.868556
 21
-75.565356
 72
     1
 10
-125.868556
 20
-75.565356
 11
-143.368556
 21
-75.565356
 72
     1
 10
-143.368556
 20
-75.565356
 11
-143.368556
 21
-74.065356
 72
     1
 10
-143.368556
 20
-74.065356
 11
-108.368556
 21
-74.065356
 97
        5
330
0
330
0
330
0
330
0
330
0
 75
     0
 76
     0
 52
45.0
 41
1.0
 77
     0
 78
     1
 53
45.0
 43
0.0
 44
0.0
 45
-1.414214
 46
1.414214
 79
     0
 98
        1
 10
0.0
 20
0.0
  0
LINE
  5
C8
330
24
100
AcDbEntity
  8
2
100
AcDbLine
 10
-142.402158
 20
156.189236
 30
0.0
 11
-166.268556
 21
156.189236
 31
0.0
  0
LINE
  5
C9
330
24
100
AcDbEntity
  8
2
100
AcDbLine
 10
-142.402158
 20
149.189236
 30
0.0
 11
-166.268556
 21
149.189236
 31
0.0
  0
LINE
  5
CA
330
24
100
AcDbEntity
  8
2
100
AcDbLine
 10
-166.768556
 20
149.689236
 30
0.0
 11
-166.768556
 21
155.689236
 31
0.0
  0
LINE
  5
CB
330
24
100
AcDbEntity
  8
2
100
AcDbLine
 10
-166.268556
 20
156.189236
 30
0.0
 11
-166.768556
 21
155.689236
 31
0.0
  0
LINE
  5
CC
330
24
100
AcDbEntity
  8
2
100
AcDbLine
 10
-166.268556
 20
149.189236
 30
0.0
 11
-166.768556
 21
149.689236
 31
0.0
  0
LINE
  5
CD
330
24
100
AcDbEntity
  8
2
100
AcDbLine
 10
-166.268556
 20
156.189236
 30
0.0
 11
-166.268556
 21
149.189236
 31
0.0
  0
POINT
  5
CE
330
24
100
AcDbEntity
  8
2
100
AcDbPoint
 10
-125.868556
 20
152.689236
 30
0.0
  0
LINE
  5
CF
330
24
100
AcDbEntity
  8
2
  6
DASHED
100
AcDbLine
 10
-129.368556
 20
136.053431
 30
0.0
 11
-129.368556
 21
112.189236
 31
0.0
  0
LINE
  5
D0
330
24
100
AcDbEntity
  8
2
  6
DASHED
100
AcDbLine
 10
-129.368556
 20
112.189236
 30
0.0
 11
-122.368556
 21
112.189236
 31
0.0
  0
LINE
  5
D1
330
24
100
AcDbEntity
  8
2
  6
DASHED
100
AcDbLine
 10
-122.368556
 20
136.053431
 30
0.0
 11
-122.368556
 21
112.189236
 31
0.0
  0
LINE
  5
D2
330
24
100
AcDbEntity
  8
2
  6
DASHED
100
AcDbLine
 10
-122.868556
 20
111.689236
 30
0.0
 11
-128.868556
 21
111.689236
 31
0.0
  0
LINE
  5
D3
330
24
100
AcDbEntity
  8
2
  6
DASHED
100
AcDbLine
 10
-129.368556
 20
112.189236
 30
0.0
 11
-128.868556
 21
111.689236
 31
0.0
  0
LINE
  5
D4
330
24
100
AcDbEntity
  8
2
  6
DASHED
100
AcDbLine
 10
-122.368556
 20
112.189236
 30
0.0
 11
-122.868556
 21
111.689236
 31
0.0
  0
ARC
  5
D5
330
24
100
AcDbEntity
  8
2
100
AcDbCircle
 10
-125.868556
 20
152.689236
 30
0.0
 40
21.0
100
AcDbArc
 50
209.998711
 51
149.998711
  0
ARC
  5
D6
330
24
100
AcDbEntity
  8
2
100
AcDbCircle
 10
-125.868556
 20
152.689236
 30
0.0
 40
21.5
100
AcDbArc
 50
209.232391
 51
150.765111
  0
LINE
  5
D7
330
24
100
AcDbEntity
  8
2
  6
CENTER
100
AcDbLine
 10
-263.307861
 20
152.689236
 30
0.0
 11
-103.368556
 21
152.689236
 31
0.0
  0
LINE
  5
D8
330
24
100
AcDbEntity
  8
2
  6
CENTER
100
AcDbLine
 10
-125.868556
 20
107.542126
 30
0.0
 11
-125.868556
 21
175.189236
 31
0.0
  0
CIRCLE
  5
D9
330
24
100
AcDbEntity
  8
2
100
AcDbCircle
 10
-125.868556
 20
152.689236
 30
0.0
 40
16.9
  0
CIRCLE
  5
DA
330
24
100
AcDbEntity
  8
2
100
AcDbCircle
 10
-125.868556
 20
152.689236
 30
0.0
 40
14.75
  0
CIRCLE
  5
DB
330
24
100
AcDbEntity
  8
2
100
AcDbCircle
 10
-125.868556
 20
152.689236
 30
0.0
 40
14.45
  0
LINE
  5
DC
330
24
100
AcDbEntity
  8
2
100
AcDbLine
 10
-111.171617
 20
155.689236
 30
0.0
 11
-109.236959
 21
155.689236
 31
0.0
  0
LINE
  5
DD
330
24
100
AcDbEntity
  8
2
100
AcDbLine
 10
-111.171617
 20
149.689236
 30
0.0
 11
-109.236959
 21
149.689236
 31
0.0
  0
ARC
  5
DE
330
24
100
AcDbEntity
  8
2
100
AcDbCircle
 10
-125.868556
 20
152.689236
 30
0.0
 40
16.4
100
AcDbArc
 50
10.540286
 51
349.4597140000001
  0
ARC
  5
DF
330
24
100
AcDbEntity
  8
2
100
AcDbCircle
 10
-125.868556
 20
152.689236
 30
0.0
 40
15.3
100
AcDbArc
 50
11.307729
 51
348.692271
  0
ARC
  5
E0
330
24
100
AcDbEntity
  8
2
100
AcDbCircle
 10
-125.868556
 20
152.689236
 30
0.0
 40
15.0
100
AcDbArc
 50
11.536959
 51
348.463041
  0
LINE
  5
E1
330
24
100
AcDbEntity
  8
2
100
AcDbLine
 10
-108.968556
 20
39.534644
 30
0.0
 11
-109.468556
 21
39.034644
 31
0.0
  0
LINE
  5
E2
330
24
100
AcDbEntity
  8
2
100
AcDbLine
 10
-108.968556
 20
39.534644
 30
0.0
 11
-108.968556
 21
71.534644
 31
0.0
  0
LINE
  5
E3
330
24
100
AcDbEntity
  8
2
100
AcDbLine
 10
-142.268556
 20
39.034644
 30
0.0
 11
-109.468556
 21
39.034644
 31
0.0
  0
LINE
  5
E4
330
24
100
AcDbEntity
  8
2
100
AcDbLine
 10
-142.768556
 20
39.534644
 30
0.0
 11
-142.268556
 21
39.034644
 31
0.0
  0
LINE
  5
E5
330
24
100
AcDbEntity
  8
2
100
AcDbLine
 10
-109.468556
 20
72.034644
 30
0.0
 11
-142.268556
 21
72.034644
 31
0.0
  0
LINE
  5
E6
330
24
100
AcDbEntity
  8
2
100
AcDbLine
 10
-108.968556
 20
71.534644
 30
0.0
 11
-109.468556
 21
72.034644
 31
0.0
  0
LINE
  5
E7
330
24
100
AcDbEntity
  8
2
100
AcDbLine
 10
-142.268556
 20
72.034644
 30
0.0
 11
-142.768556
 21
71.534644
 31
0.0
  0
LINE
  5
E8
330
24
100
AcDbEntity
  8
2
100
AcDbLine
 10
-142.768556
 20
39.534644
 30
0.0
 11
-142.768556
 21
54.834644
 31
0.0
  0
LINE
  5
E9
330
24
100
AcDbEntity
  8
2
100
AcDbLine
 10
-142.768556
 20
62.234644
 30
0.0
 11
-142.768556
 21
71.534644
 31
0.0
  0
LINE
  5
EA
330
24
100
AcDbEntity
  8
2
100
AcDbLine
 10
-166.268556
 20
62.034644
 30
0.0
 11
-142.72495
 21
62.034644
 31
0.0
  0
LINE
  5
EB
330
24
100
AcDbEntity
  8
2
100
AcDbLine
 10
-166.268556
 20
55.034644
 30
0.0
 11
-142.72495
 21
55.034644
 31
0.0
  0
LINE
  5
EC
330
24
100
AcDbEntity
  8
2
100
AcDbLine
 10
-166.768556
 20
61.534644
 30
0.0
 11
-166.768556
 21
55.534644
 31
0.0
  0
LINE
  5
ED
330
24
100
AcDbEntity
  8
2
100
AcDbLine
 10
-166.268556
 20
62.034644
 30
0.0
 11
-166.768556
 21
61.534644
 31
0.0
  0
LINE
  5
EE
330
24
100
AcDbEntity
  8
2
100
AcDbLine
 10
-166.268556
 20
55.034644
 30
0.0
 11
-166.768556
 21
55.534644
 31
0.0
  0
LINE
  5
EF
330
24
100
AcDbEntity
  8
2
100
AcDbLine
 10
-108.968556
 20
71.534644
 30
0.0
 11
-142.768556
 21
71.534644
 31
0.0
  0
LINE
  5
F0
330
24
100
AcDbEntity
  8
2
100
AcDbLine
 10
-108.968556
 20
39.534644
 30
0.0
 11
-142.768556
 21
39.534644
 31
0.0
  0
ARC
  5
F1
330
24
100
AcDbEntity
  8
2
100
AcDbCircle
 10
-159.258553
 20
58.534644
 30
0.0
 40
16.9
100
AcDbArc
 50
347.353517
 51
12.646483
  0
LINE
  5
F2
330
24
100
AcDbEntity
  8
2
100
AcDbLine
 10
-166.268556
 20
62.034644
 30
0.0
 11
-166.268556
 21
55.034644
 31
0.0
  0
POINT
  5
F3
330
24
100
AcDbEntity
  8
2
100
AcDbPoint
 10
-125.868556
 20
-48.065356
 30
0.0
  0
POINT
  5
F4
330
24
100
AcDbEntity
  8
2
100
AcDbPoint
 10
-125.868556
 20
-48.065356
 30
0.0
  0
LINE
  5
F5
330
24
100
AcDbEntity
  8
2
100
AcDbLine
 10
102.210204
 20
-75.565356
 30
0.0
 11
102.210204
 21
-74.065356
 31
0.0
  0
LINE
  5
F6
330
24
100
AcDbEntity
  8
2
100
AcDbLine
 10
119.710204
 20
-75.565356
 30
0.0
 11
102.210204
 21
-75.565356
 31
0.0
  0
LINE
  5
F7
330
24
100
AcDbEntity
  8
2
100
AcDbLine
 10
110.460204
 20
-104.065356
 30
0.0
 11
110.460204
 21
-84.265356
 31
0.0
  0
LINE
  5
F8
330
24
100
AcDbEntity
  8
2
100
AcDbLine
 10
110.460204
 20
-74.065356
 30
0.0
 11
110.460204
 21
-61.064964
 31
0.0
  0
LINE
  5
F9
330
24
100
AcDbEntity
  8
2
100
AcDbLine
 10
109.460204
 20
-74.065356
 30
0.0
 11
109.460204
 21
-61.064964
 31
0.0
  0
LINE
  5
FA
330
24
100
AcDbEntity
  8
2
100
AcDbLine
 10
107.710204
 20
-84.265356
 30
0.0
 11
119.710204
 21
-84.265356
 31
0.0
  0
LINE
  5
FB
330
24
100
AcDbEntity
  8
2
100
AcDbLine
 10
105.960204
 20
-83.254993
 30
0.0
 11
105.960204
 21
-77.765356
 31
0.0
  0
LINE
  5
FC
330
24
100
AcDbEntity
  8
2
100
AcDbLine
 10
107.710204
 20
-84.265356
 30
0.0
 11
105.960204
 21
-83.254993
 31
0.0
  0
LINE
  5
FD
330
24
100
AcDbEntity
  8
2
100
AcDbLine
 10
99.710204
 20
-77.265356
 30
0.0
 11
99.710204
 21
-76.065356
 31
0.0
  0
LINE
  5
FE
330
24
100
AcDbEntity
  8
2
100
AcDbLine
 10
119.710204
 20
-77.765356
 30
0.0
 11
105.389653
 21
-77.765356
 31
0.0
  0
LINE
  5
FF
330
24
100
AcDbEntity
  8
2
100
AcDbLine
 10
99.710204
 20
-76.065356
 30
0.0
 11
119.710204
 21
-76.065356
 31
0.0
  0
LINE
  5
100
330
24
100
AcDbEntity
  8
2
100
AcDbLine
 10
99.710204
 20
-77.265356
 30
0.0
 11
119.710204
 21
-77.265356
 31
0.0
  0
ARC
  5
101
330
24
100
AcDbEntity
  8
2
100
AcDbCircle
 10
105.389653
 20
-72.765356
 30
0.0
 40
5.0
100
AcDbArc
 50
246.443536
 51
270.0
  0
ARC
  5
102
330
24
100
AcDbEntity
  8
2
100
AcDbCircle
 10
105.389653
 20
-80.565356
 30
0.0
 40
5.0
100
AcDbArc
 50
90.0
 51
113.556464
  0
ARC
  5
103
330
24
100
AcDbEntity
  8
2
100
AcDbCircle
 10
102.991737
 20
-78.265356
 30
0.0
 40
1.0
100
AcDbArc
 50
66.443536
 51
90.0
  0
ARC
  5
104
330
24
100
AcDbEntity
  8
2
100
AcDbCircle
 10
102.991737
 20
-75.065356
 30
0.0
 40
1.0
100
AcDbArc
 50
270.0
 51
293.556464
  0
LINE
  5
105
330
24
100
AcDbEntity
  8
2
100
AcDbLine
 10
112.710204
 20
-83.254993
 30
0.0
 11
112.710204
 21
-77.765356
 31
0.0
  0
ARC
  5
106
330
24
100
AcDbEntity
  8
2
100
AcDbCircle
 10
119.710204
 20
-59.511463
 30
0.0
 40
24.753893
100
AcDbArc
 50
253.573579
 51
270.0
  0
ARC
  5
107
330
24
100
AcDbEntity
  8
2
100
AcDbCircle
 10
109.335204
 20
-78.123277
 30
0.0
 40
6.142079
100
AcDbArc
 50
236.668091
 51
303.331909
  0
ARC
  5
108
330
24
100
AcDbEntity
  8
2
100
AcDbCircle
 10
119.710204
 20
-61.515356
 30
0.0
 40
16.25
100
AcDbArc
 50
255.749967
 51
270.0
  0
ARC
  5
109
330
24
100
AcDbEntity
  8
2
100
AcDbCircle
 10
111.460204
 20
-61.515356
 30
0.0
 40
16.25
100
AcDbArc
 50
255.749967
 51
277.069714
  0
ARC
  5
10A
330
24
100
AcDbEntity
  8
2
100
AcDbCircle
 10
115.460204
 20
-61.515356
 30
0.0
 40
16.25
100
AcDbArc
 50
255.749967
 51
277.514045
  0
ARC
  5
10B
330
24
100
AcDbEntity
  8
2
100
AcDbCircle
 10
107.460204
 20
-61.515356
 30
0.0
 40
16.25
100
AcDbArc
 50
270.0
 51
277.069714
  0
ARC
  5
10C
330
24
100
AcDbEntity
  8
2
100
AcDbCircle
 10
119.710204
 20
-91.815356
 30
0.0
 40
16.25
100
AcDbArc
 50
90.0
 51
104.250033
  0
ARC
  5
10D
330
24
100
AcDbEntity
  8
2
100
AcDbCircle
 10
115.460204
 20
-91.815356
 30
0.0
 40
16.25
100
AcDbArc
 50
82.485955
 51
104.250033
  0
ARC
  5
10E
330
24
100
AcDbEntity
  8
2
100
AcDbCircle
 10
111.460204
 20
-91.815356
 30
0.0
 40
16.25
100
AcDbArc
 50
82.930286
 51
104.250033
  0
ARC
  5
10F
330
24
100
AcDbEntity
  8
2
100
AcDbCircle
 10
107.460204
 20
-91.815356
 30
0.0
 40
16.25
100
AcDbArc
 50
82.930286
 51
90.0
  0
LINE
  5
110
330
24
100
AcDbEntity
  8
2
100
AcDbLine
 10
108.210204
 20
-116.065356
 30
0.0
 11
119.710204
 21
-116.065356
 31
0.0
  0
ARC
  5
111
330
24
100
AcDbEntity
  8
2
100
AcDbCircle
 10
121.985204
 20
-110.065356
 30
0.0
 40
15.025
100
AcDbArc
 50
156.463422
 51
203.536578
  0
LINE
  5
112
330
24
100
AcDbEntity
  8
2
100
AcDbLine
 10
108.210204
 20
-104.065356
 30
0.0
 11
119.710204
 21
-104.065356
 31
0.0
  0
ELLIPSE
  5
113
330
24
100
AcDbEntity
  8
2
100
AcDbEllipse
 10
109.750911
 20
-110.065356
 30
0.0
 11
0.0
 21
6.0
 31
0.0
210
0.0
220
0.0
230
1.0
 40
0.458833
 41
0.0
 42
6.283185
  0
ELLIPSE
  5
114
330
24
100
AcDbEntity
  8
2
100
AcDbEllipse
 10
119.710204
 20
-110.065356
 30
0.0
 11
0.0
 21
6.0
 31
0.0
210
0.0
220
0.0
230
1.0
 40
0.926667
 41
0.0
 42
6.283185
  0
LINE
  5
115
330
24
100
AcDbEntity
  8
2
100
AcDbLine
 10
109.460204
 20
-104.065356
 30
0.0
 11
109.460204
 21
-84.265356
 31
0.0
  0
LINE
  5
116
330
24
100
AcDbEntity
  8
2
100
AcDbLine
 10
137.210204
 20
-75.565356
 30
0.0
 11
137.210204
 21
-74.065356
 31
0.0
  0
LINE
  5
117
330
24
100
AcDbEntity
  8
2
100
AcDbLine
 10
119.710204
 20
-75.565356
 30
0.0
 11
137.210204
 21
-75.565356
 31
0.0
  0
LINE
  5
118
330
24
100
AcDbEntity
  8
2
100
AcDbLine
 10
128.960204
 20
-104.065356
 30
0.0
 11
128.960204
 21
-84.265356
 31
0.0
  0
LINE
  5
119
330
24
100
AcDbEntity
  8
2
100
AcDbLine
 10
128.960204
 20
-74.065356
 30
0.0
 11
128.960204
 21
-61.064964
 31
0.0
  0
LINE
  5
11A
330
24
100
AcDbEntity
  8
2
100
AcDbLine
 10
129.960204
 20
-74.065356
 30
0.0
 11
129.960204
 21
-61.064964
 31
0.0
  0
LINE
  5
11B
330
24
100
AcDbEntity
  8
2
100
AcDbLine
 10
131.710204
 20
-84.265356
 30
0.0
 11
119.710204
 21
-84.265356
 31
0.0
  0
LINE
  5
11C
330
24
100
AcDbEntity
  8
2
100
AcDbLine
 10
133.460204
 20
-83.254993
 30
0.0
 11
133.460204
 21
-77.765356
 31
0.0
  0
LINE
  5
11D
330
24
100
AcDbEntity
  8
2
100
AcDbLine
 10
131.710204
 20
-84.265356
 30
0.0
 11
133.460204
 21
-83.254993
 31
0.0
  0
LINE
  5
11E
330
24
100
AcDbEntity
  8
2
100
AcDbLine
 10
139.710204
 20
-77.265356
 30
0.0
 11
139.710204
 21
-76.065356
 31
0.0
  0
LINE
  5
11F
330
24
100
AcDbEntity
  8
2
100
AcDbLine
 10
119.710204
 20
-77.765356
 30
0.0
 11
134.030754
 21
-77.765356
 31
0.0
  0
LINE
  5
120
330
24
100
AcDbEntity
  8
2
100
AcDbLine
 10
139.710204
 20
-76.065356
 30
0.0
 11
119.710204
 21
-76.065356
 31
0.0
  0
LINE
  5
121
330
24
100
AcDbEntity
  8
2
100
AcDbLine
 10
139.710204
 20
-77.265356
 30
0.0
 11
119.710204
 21
-77.265356
 31
0.0
  0
ARC
  5
122
330
24
100
AcDbEntity
  8
2
100
AcDbCircle
 10
134.030754
 20
-72.765356
 30
0.0
 40
5.0
100
AcDbArc
 50
270.0
 51
293.556464
  0
ARC
  5
123
330
24
100
AcDbEntity
  8
2
100
AcDbCircle
 10
134.030754
 20
-80.565356
 30
0.0
 40
5.0
100
AcDbArc
 50
66.443536
 51
90.0
  0
ARC
  5
124
330
24
100
AcDbEntity
  8
2
100
AcDbCircle
 10
136.42867
 20
-78.265356
 30
0.0
 40
1.0
100
AcDbArc
 50
90.0
 51
113.556464
  0
ARC
  5
125
330
24
100
AcDbEntity
  8
2
100
AcDbCircle
 10
136.42867
 20
-75.065356
 30
0.0
 40
1.0
100
AcDbArc
 50
246.443536
 51
270.0
  0
LINE
  5
126
330
24
100
AcDbEntity
  8
2
100
AcDbLine
 10
126.710204
 20
-83.254993
 30
0.0
 11
126.710204
 21
-77.765356
 31
0.0
  0
ARC
  5
127
330
24
100
AcDbEntity
  8
2
100
AcDbCircle
 10
119.710204
 20
-59.511463
 30
0.0
 40
24.753893
100
AcDbArc
 50
270.0
 51
286.426421
  0
ARC
  5
128
330
24
100
AcDbEntity
  8
2
100
AcDbCircle
 10
130.085204
 20
-78.123277
 30
0.0
 40
6.142079
100
AcDbArc
 50
236.668091
 51
303.331909
  0
ARC
  5
129
330
24
100
AcDbEntity
  8
2
100
AcDbCircle
 10
119.710204
 20
-61.515356
 30
0.0
 40
16.25
100
AcDbArc
 50
270.0
 51
284.250033
  0
ARC
  5
12A
330
24
100
AcDbEntity
  8
2
100
AcDbCircle
 10
127.960204
 20
-61.515356
 30
0.0
 40
16.25
100
AcDbArc
 50
262.930286
 51
284.250033
  0
ARC
  5
12B
330
24
100
AcDbEntity
  8
2
100
AcDbCircle
 10
123.960204
 20
-61.515356
 30
0.0
 40
16.25
100
AcDbArc
 50
262.485955
 51
284.250033
  0
ARC
  5
12C
330
24
100
AcDbEntity
  8
2
100
AcDbCircle
 10
131.960204
 20
-61.515356
 30
0.0
 40
16.25
100
AcDbArc
 50
262.930286
 51
270.0
  0
ARC
  5
12D
330
24
100
AcDbEntity
  8
2
100
AcDbCircle
 10
119.710204
 20
-91.815356
 30
0.0
 40
16.25
100
AcDbArc
 50
75.74996699999998
 51
90.0
  0
ARC
  5
12E
330
24
100
AcDbEntity
  8
2
100
AcDbCircle
 10
123.960204
 20
-91.815356
 30
0.0
 40
16.25
100
AcDbArc
 50
75.74996699999998
 51
97.514045
  0
ARC
  5
12F
330
24
100
AcDbEntity
  8
2
100
AcDbCircle
 10
127.960204
 20
-91.815356
 30
0.0
 40
16.25
100
AcDbArc
 50
75.74996699999998
 51
97.069714
  0
ARC
  5
130
330
24
100
AcDbEntity
  8
2
100
AcDbCircle
 10
131.960204
 20
-91.815356
 30
0.0
 40
16.25
100
AcDbArc
 50
90.0
 51
97.069714
  0
LINE
  5
131
330
24
100
AcDbEntity
  8
2
100
AcDbLine
 10
131.210204
 20
-116.065356
 30
0.0
 11
119.710204
 21
-116.065356
 31
0.0
  0
ARC
  5
132
330
24
100
AcDbEntity
  8
2
100
AcDbCircle
 10
117.435204
 20
-110.065356
 30
0.0
 40
15.025
100
AcDbArc
 50
336.463422
 51
23.536578
  0
LINE
  5
133
330
24
100
AcDbEntity
  8
2
100
AcDbLine
 10
131.210204
 20
-104.065356
 30
0.0
 11
119.710204
 21
-104.065356
 31
0.0
  0
ELLIPSE
  5
134
330
24
100
AcDbEntity
  8
2
100
AcDbEllipse
 10
129.669496
 20
-110.065356
 30
0.0
 11
0.0
 21
6.0
 31
0.0
210
0.0
220
0.0
230
1.0
 40
0.458833
 41
0.0
 42
6.283185
  0
LINE
  5
135
330
24
100
AcDbEntity
  8
2
100
AcDbLine
 10
129.960204
 20
-104.065356
 30
0.0
 11
129.960204
 21
-84.265356
 31
0.0
  0
LINE
  5
136
330
24
100
AcDbEntity
  8
2
100
AcDbLine
 10
137.210204
 20
-74.065356
 30
0.0
 11
102.210204
 21
-74.065356
 31
0.0
  0
LINE
  5
137
330
24
100
AcDbEntity
  8
2
100
AcDbLine
 10
98.710204
 20
-53.565356
 30
0.0
 11
140.710204
 21
-53.565356
 31
0.0
  0
LINE
  5
138
330
24
100
AcDbEntity
  8
2
100
AcDbLine
 10
102.710204
 20
37.434644
 30
0.0
 11
102.710204
 21
-53.065356
 31
0.0
  0
LINE
  5
139
330
24
100
AcDbEntity
  8
2
100
AcDbLine
 10
119.710204
 20
37.934644
 30
0.0
 11
136.210204
 21
37.934644
 31
0.0
  0
LINE
  5
13A
330
24
100
AcDbEntity
  8
2
100
AcDbLine
 10
136.210204
 20
37.934644
 30
0.0
 11
136.710204
 21
37.434644
 31
0.0
  0
LINE
  5
13B
330
24
100
AcDbEntity
  8
2
100
AcDbLine
 10
133.710204
 20
37.934644
 30
0.0
 11
133.710204
 21
39.034644
 31
0.0
  0
LINE
  5
13C
330
24
100
AcDbEntity
  8
2
100
AcDbLine
 10
136.710204
 20
-53.065356
 30
0.0
 11
136.710204
 21
3.934644
 31
0.0
  0
LINE
  5
13D
330
24
100
AcDbEntity
  8
2
100
AcDbLine
 10
136.710204
 20
24.934644
 30
0.0
 11
136.710204
 21
37.434644
 31
0.0
  0
LINE
  5
13E
330
24
100
AcDbEntity
  8
2
100
AcDbLine
 10
102.710204
 20
-53.065356
 30
0.0
 11
103.210204
 21
-53.565356
 31
0.0
  0
LINE
  5
13F
330
24
100
AcDbEntity
  8
2
100
AcDbLine
 10
136.710204
 20
-53.065356
 30
0.0
 11
136.210204
 21
-53.565356
 31
0.0
  0
LINE
  5
140
330
24
100
AcDbEntity
  8
2
100
AcDbLine
 10
105.710204
 20
37.934644
 30
0.0
 11
105.710204
 21
39.034644
 31
0.0
  0
LINE
  5
141
330
24
100
AcDbEntity
  8
2
100
AcDbLine
 10
119.710204
 20
37.934644
 30
0.0
 11
103.210204
 21
37.934644
 31
0.0
  0
LINE
  5
142
330
24
100
AcDbEntity
  8
2
100
AcDbLine
 10
103.210204
 20
37.934644
 30
0.0
 11
102.710204
 21
37.434644
 31
0.0
  0
LINE
  5
143
330
24
100
AcDbEntity
  8
2
100
AcDbLine
 10
136.710204
 20
37.434644
 30
0.0
 11
102.710204
 21
37.434644
 31
0.0
  0
LINE
  5
144
330
24
100
AcDbEntity
  8
2
100
AcDbLine
 10
139.210204
 20
-59.065356
 30
0.0
 11
139.210204
 21
-61.065356
 31
0.0
  0
LINE
  5
145
330
24
100
AcDbEntity
  8
2
100
AcDbLine
 10
139.210204
 20
-61.065356
 30
0.0
 11
119.710204
 21
-61.065356
 31
0.0
  0
LINE
  5
146
330
24
100
AcDbEntity
  8
2
100
AcDbLine
 10
140.710204
 20
-59.065356
 30
0.0
 11
119.710204
 21
-59.065356
 31
0.0
  0
LINE
  5
147
330
24
100
AcDbEntity
  8
2
100
AcDbLine
 10
141.210204
 20
-58.565356
 30
0.0
 11
140.710204
 21
-59.065356
 31
0.0
  0
LINE
  5
148
330
24
100
AcDbEntity
  8
2
100
AcDbLine
 10
141.210204
 20
-54.065356
 30
0.0
 11
141.210204
 21
-58.565356
 31
0.0
  0
LINE
  5
149
330
24
100
AcDbEntity
  8
2
100
AcDbLine
 10
140.710204
 20
-53.565356
 30
0.0
 11
141.210204
 21
-54.065356
 31
0.0
  0
LINE
  5
14A
330
24
100
AcDbEntity
  8
2
100
AcDbLine
 10
98.710204
 20
-53.565356
 30
0.0
 11
98.210204
 21
-54.065356
 31
0.0
  0
LINE
  5
14B
330
24
100
AcDbEntity
  8
2
100
AcDbLine
 10
98.210204
 20
-54.065356
 30
0.0
 11
98.210204
 21
-58.565356
 31
0.0
  0
LINE
  5
14C
330
24
100
AcDbEntity
  8
2
100
AcDbLine
 10
98.210204
 20
-58.565356
 30
0.0
 11
98.710204
 21
-59.065356
 31
0.0
  0
LINE
  5
14D
330
24
100
AcDbEntity
  8
2
100
AcDbLine
 10
98.710204
 20
-59.065356
 30
0.0
 11
119.710204
 21
-59.065356
 31
0.0
  0
LINE
  5
14E
330
24
100
AcDbEntity
  8
2
100
AcDbLine
 10
100.210204
 20
-59.065356
 30
0.0
 11
100.210204
 21
-61.065356
 31
0.0
  0
LINE
  5
14F
330
24
100
AcDbEntity
  8
2
100
AcDbLine
 10
100.210204
 20
-61.065356
 30
0.0
 11
119.710204
 21
-61.065356
 31
0.0
  0
LINE
  5
150
330
24
100
AcDbEntity
  8
2
100
AcDbLine
 10
136.710204
 20
-53.065356
 30
0.0
 11
102.710204
 21
-53.065356
 31
0.0
  0
LINE
  5
151
330
24
100
AcDbEntity
  8
2
100
AcDbLine
 10
98.210204
 20
-54.065356
 30
0.0
 11
141.210204
 21
-54.065356
 31
0.0
  0
LINE
  5
152
330
24
100
AcDbEntity
  8
2
100
AcDbLine
 10
141.210204
 20
-58.565356
 30
0.0
 11
98.210204
 21
-58.565356
 31
0.0
  0
HATCH
  5
153
330
24
100
AcDbEntity
  8
2
100
AcDbHatch
 10
0.0
 20
0.0
 30
0.0
210
0.0
220
0.0
230
1.0
  2
_U
 70
     0
 71
     1
 91
        1
 92
        1
 93
        6
 72
     1
 10
100.210204
 20
-61.065356
 11
100.210204
 21
-59.065356
 72
     1
 10
100.210204
 20
-59.065356
 11
119.710204
 21
-59.065356
 72
     1
 10
119.710204
 20
-59.065356
 11
139.210204
 21
-59.065356
 72
     1
 10
139.210204
 20
-59.065356
 11
139.210204
 21
-61.065356
 72
     1
 10
139.210204
 20
-61.065356
 11
119.710204
 21
-61.065356
 72
     1
 10
119.710204
 20
-61.065356
 11
100.210204
 21
-61.065356
 97
        6
330
0
330
0
330
0
330
0
330
0
330
0
 75
     0
 76
     0
 52
45.0
 41
1.0
 77
     0
 78
     1
 53
45.0
 43
0.0
 44
0.0
 45
-1.414214
 46
1.414214
 79
     0
 98
        1
 10
0.0
 20
0.0
  0
HATCH
  5
154
330
24
100
AcDbEntity
  8
2
100
AcDbHatch
 10
0.0
 20
0.0
 30
0.0
210
0.0
220
0.0
230
1.0
  2
_U
 70
     0
 71
     1
 91
        1
 92
        1
 93
        5
 72
     1
 10
102.210204
 20
-74.065356
 11
102.210204
 21
-75.565356
 72
     1
 10
102.210204
 20
-75.565356
 11
119.710204
 21
-75.565356
 72
     1
 10
119.710204
 20
-75.565356
 11
137.210204
 21
-75.565356
 72
     1
 10
137.210204
 20
-75.565356
 11
137.210204
 21
-74.065356
 72
     1
 10
137.210204
 20
-74.065356
 11
102.210204
 21
-74.065356
 97
        5
330
0
330
0
330
0
330
0
330
0
 75
     0
 76
     0
 52
45.0
 41
1.0
 77
     0
 78
     1
 53
45.0
 43
0.0
 44
0.0
 45
-1.414214
 46
1.414214
 79
     0
 98
        1
 10
0.0
 20
0.0
  0
LINE
  5
155
330
24
100
AcDbEntity
  8
2
100
AcDbLine
 10
102.810204
 20
39.534644
 30
0.0
 11
103.310204
 21
39.034644
 31
0.0
  0
LINE
  5
156
330
24
100
AcDbEntity
  8
2
100
AcDbLine
 10
102.810204
 20
39.534644
 30
0.0
 11
102.810204
 21
71.534644
 31
0.0
  0
LINE
  5
157
330
24
100
AcDbEntity
  8
2
100
AcDbLine
 10
136.110204
 20
39.034644
 30
0.0
 11
103.310204
 21
39.034644
 31
0.0
  0
LINE
  5
158
330
24
100
AcDbEntity
  8
2
100
AcDbLine
 10
136.610204
 20
39.534644
 30
0.0
 11
136.110204
 21
39.034644
 31
0.0
  0
LINE
  5
159
330
24
100
AcDbEntity
  8
2
100
AcDbLine
 10
103.310204
 20
72.034644
 30
0.0
 11
136.110204
 21
72.034644
 31
0.0
  0
LINE
  5
15A
330
24
100
AcDbEntity
  8
2
100
AcDbLine
 10
102.810204
 20
71.534644
 30
0.0
 11
103.310204
 21
72.034644
 31
0.0
  0
LINE
  5
15B
330
24
100
AcDbEntity
  8
2
100
AcDbLine
 10
136.110204
 20
72.034644
 30
0.0
 11
136.610204
 21
71.534644
 31
0.0
  0
LINE
  5
15C
330
24
100
AcDbEntity
  8
2
100
AcDbLine
 10
136.610204
 20
39.534644
 30
0.0
 11
136.610204
 21
54.834644
 31
0.0
  0
LINE
  5
15D
330
24
100
AcDbEntity
  8
2
100
AcDbLine
 10
136.610204
 20
62.234644
 30
0.0
 11
136.610204
 21
71.534644
 31
0.0
  0
LINE
  5
15E
330
24
100
AcDbEntity
  8
2
100
AcDbLine
 10
160.110204
 20
62.034644
 30
0.0
 11
136.566598
 21
62.034644
 31
0.0
  0
LINE
  5
15F
330
24
100
AcDbEntity
  8
2
100
AcDbLine
 10
160.110204
 20
55.034644
 30
0.0
 11
136.566598
 21
55.034644
 31
0.0
  0
LINE
  5
160
330
24
100
AcDbEntity
  8
2
100
AcDbLine
 10
160.610204
 20
61.534644
 30
0.0
 11
160.610204
 21
55.534644
 31
0.0
  0
LINE
  5
161
330
24
100
AcDbEntity
  8
2
100
AcDbLine
 10
160.110204
 20
62.034644
 30
0.0
 11
160.610204
 21
61.534644
 31
0.0
  0
LINE
  5
162
330
24
100
AcDbEntity
  8
2
100
AcDbLine
 10
160.110204
 20
55.034644
 30
0.0
 11
160.610204
 21
55.534644
 31
0.0
  0
LINE
  5
163
330
24
100
AcDbEntity
  8
2
100
AcDbLine
 10
102.810204
 20
71.534644
 30
0.0
 11
136.610204
 21
71.534644
 31
0.0
  0
LINE
  5
164
330
24
100
AcDbEntity
  8
2
100
AcDbLine
 10
102.810204
 20
39.534644
 30
0.0
 11
136.610204
 21
39.534644
 31
0.0
  0
ARC
  5
165
330
24
100
AcDbEntity
  8
2
100
AcDbCircle
 10
153.100201
 20
58.534644
 30
0.0
 40
16.9
100
AcDbArc
 50
167.353517
 51
192.646483
  0
LINE
  5
166
330
24
100
AcDbEntity
  8
2
100
AcDbLine
 10
160.110204
 20
62.034644
 30
0.0
 11
160.110204
 21
55.034644
 31
0.0
  0
POINT
  5
167
330
24
100
AcDbEntity
  8
2
100
AcDbPoint
 10
119.710204
 20
-48.065356
 30
0.0
  0
POINT
  5
168
330
24
100
AcDbEntity
  8
2
100
AcDbPoint
 10
252.710204
 20
14.434644
 30
0.0
  0
LINE
  5
169
330
24
100
AcDbEntity
  8
2
100
AcDbLine
 10
252.210204
 20
24.934644
 30
0.0
 11
136.710204
 21
24.934644
 31
0.0
  0
LINE
  5
16A
330
24
100
AcDbEntity
  8
2
100
AcDbLine
 10
252.710204
 20
24.434644
 30
0.0
 11
252.710204
 21
4.434644
 31
0.0
  0
LINE
  5
16B
330
24
100
AcDbEntity
  8
2
100
AcDbLine
 10
252.210204
 20
24.934644
 30
0.0
 11
252.710204
 21
24.434644
 31
0.0
  0
LINE
  5
16C
330
24
100
AcDbEntity
  8
2
100
AcDbLine
 10
252.710204
 20
4.434644
 30
0.0
 11
252.210204
 21
3.934644
 31
0.0
  0
LINE
  5
16D
330
24
100
AcDbEntity
  8
2
100
AcDbLine
 10
252.210204
 20
3.934644
 30
0.0
 11
250.375787
 21
3.934644
 31
0.0
  0
LINE
  5
16E
330
24
100
AcDbEntity
  8
2
100
AcDbLine
 10
230.63529
 20
3.934644
 30
0.0
 11
136.710204
 21
3.934644
 31
0.0
  0
LINE
  5
16F
330
24
100
AcDbEntity
  8
2
100
AcDbLine
 10
234.114549
 20
-4.601211
 30
0.0
 11
242.524729
 21
-1.540156
 31
0.0
  0
LINE
  5
170
330
24
100
AcDbEntity
  8
2
100
AcDbLine
 10
250.935047
 20
1.52095
 30
0.0
 11
242.52553
 21
-1.539864
 31
0.0
  0
LINE
  5
171
330
24
100
AcDbEntity
  8
2
100
AcDbLine
 10
230.662009
 20
4.007422
 30
0.0
 11
233.730035
 21
-4.421909
 31
0.0
  0
LINE
  5
172
330
24
100
AcDbEntity
  8
2
100
AcDbLine
 10
250.375787
 20
3.934644
 30
0.0
 11
251.114349
 21
1.905463
 31
0.0
  0
LINE
  5
173
330
24
100
AcDbEntity
  8
2
100
AcDbLine
 10
233.730035
 20
-4.421909
 30
0.0
 11
234.114549
 21
-4.601211
 31
0.0
  0
LINE
  5
174
330
24
100
AcDbEntity
  8
2
100
AcDbLine
 10
250.935047
 20
1.52095
 30
0.0
 11
251.114349
 21
1.905463
 31
0.0
  0
ARC
  5
175
330
24
100
AcDbEntity
  8
2
100
AcDbCircle
 10
150.710204
 20
14.434644
 30
0.0
 40
17.5
100
AcDbArc
 50
147.181108
 51
212.29933
  0
LINE
  5
176
330
24
100
AcDbEntity
  8
2
100
AcDbLine
 10
252.210204
 20
24.934644
 30
0.0
 11
252.210204
 21
3.934644
 31
0.0
  0
POINT
  5
177
330
24
100
AcDbEntity
  8
2
100
AcDbPoint
 10
240.301667
 20
4.567871
 30
0.0
  0
ARC
  5
178
330
24
100
AcDbEntity
  8
2
100
AcDbCircle
 10
238.519024
 20
1.081516
 30
0.0
 40
8.384128
100
AcDbArc
 50
90.0
 51
151.997723
  0
ARC
  5
179
330
24
100
AcDbEntity
  8
2
100
AcDbCircle
 10
238.519024
 20
-6.008485
 30
0.0
 40
15.474128
100
AcDbArc
 50
45.451578
 51
90.0
  0
LINE
  5
17A
330
24
100
AcDbEntity
  8
2
100
AcDbLine
 10
251.114349
 20
1.905463
 30
0.0
 11
233.730035
 21
-4.421909
 31
0.0
  0
POINT
  5
17B
330
24
100
AcDbEntity
  8
2
100
AcDbPoint
 10
-258.868556
 20
14.434644
 30
0.0
  0
LINE
  5
17C
330
24
100
AcDbEntity
  8
2
100
AcDbLine
 10
-258.368556
 20
24.934644
 30
0.0
 11
-142.868556
 21
24.934644
 31
0.0
  0
LINE
  5
17D
330
24
100
AcDbEntity
  8
2
100
AcDbLine
 10
-258.868556
 20
24.434644
 30
0.0
 11
-258.868556
 21
4.434644
 31
0.0
  0
LINE
  5
17E
330
24
100
AcDbEntity
  8
2
100
AcDbLine
 10
-258.368556
 20
24.934644
 30
0.0
 11
-258.868556
 21
24.434644
 31
0.0
  0
LINE
  5
17F
330
24
100
AcDbEntity
  8
2
100
AcDbLine
 10
-258.868556
 20
4.434644
 30
0.0
 11
-258.368556
 21
3.934644
 31
0.0
  0
LINE
  5
180
330
24
100
AcDbEntity
  8
2
100
AcDbLine
 10
-258.368556
 20
3.934644
 30
0.0
 11
-256.534139
 21
3.934644
 31
0.0
  0
LINE
  5
181
330
24
100
AcDbEntity
  8
2
100
AcDbLine
 10
-236.84685
 20
3.934644
 30
0.0
 11
-142.868556
 21
3.934644
 31
0.0
  0
LINE
  5
182
330
24
100
AcDbEntity
  8
2
100
AcDbLine
 10
-240.272901
 20
-4.601211
 30
0.0
 11
-248.68308
 21
-1.540156
 31
0.0
  0
LINE
  5
183
330
24
100
AcDbEntity
  8
2
100
AcDbLine
 10
-257.093399
 20
1.52095
 30
0.0
 11
-248.683882
 21
-1.539864
 31
0.0
  0
LINE
  5
184
330
24
100
AcDbEntity
  8
2
100
AcDbLine
 10
-236.84685
 20
3.934644
 30
0.0
 11
-239.888387
 21
-4.421909
 31
0.0
  0
LINE
  5
185
330
24
100
AcDbEntity
  8
2
100
AcDbLine
 10
-256.534139
 20
3.934644
 30
0.0
 11
-257.2727
 21
1.905463
 31
0.0
  0
LINE
  5
186
330
24
100
AcDbEntity
  8
2
100
AcDbLine
 10
-239.888387
 20
-4.421909
 30
0.0
 11
-240.272901
 21
-4.601211
 31
0.0
  0
LINE
  5
187
330
24
100
AcDbEntity
  8
2
100
AcDbLine
 10
-257.093399
 20
1.52095
 30
0.0
 11
-257.2727
 21
1.905463
 31
0.0
  0
ARC
  5
188
330
24
100
AcDbEntity
  8
2
100
AcDbCircle
 10
-156.868556
 20
14.434644
 30
0.0
 40
17.5
100
AcDbArc
 50
327.70067
 51
32.818892
  0
LINE
  5
189
330
24
100
AcDbEntity
  8
2
100
AcDbLine
 10
-258.368556
 20
24.934644
 30
0.0
 11
-258.368556
 21
3.934644
 31
0.0
  0
ARC
  5
18A
330
24
100
AcDbEntity
  8
2
100
AcDbCircle
 10
-244.677375
 20
1.081516
 30
0.0
 40
8.384128
100
AcDbArc
 50
28.002277
 51
90.0
  0
ARC
  5
18B
330
24
100
AcDbEntity
  8
2
100
AcDbCircle
 10
-244.677375
 20
-6.008485
 30
0.0
 40
15.474128
100
AcDbArc
 50
90.0
 51
134.548422
  0
LINE
  5
18C
330
24
100
AcDbEntity
  8
2
100
AcDbLine
 10
-257.2727
 20
1.905463
 30
0.0
 11
-239.888387
 21
-4.421909
 31
0.0
  0
POINT
  5
18D
330
24
100
AcDbEntity
  8
2
100
AcDbPoint
 10
-258.868556
 20
152.689236
 30
0.0
  0
LINE
  5
18E
330
24
100
AcDbEntity
  8
2
100
AcDbLine
 10
-139.111236
 20
142.189645
 30
0.0
 11
-258.368556
 21
142.189645
 31
0.0
  0
LINE
  5
18F
330
24
100
AcDbEntity
  8
2
100
AcDbLine
 10
-139.110587
 20
163.189645
 30
0.0
 11
-258.368556
 21
163.189645
 31
0.0
  0
LINE
  5
190
330
24
100
AcDbEntity
  8
2
100
AcDbLine
 10
-258.868556
 20
162.689645
 30
0.0
 11
-258.868556
 21
142.689645
 31
0.0
  0
LINE
  5
191
330
24
100
AcDbEntity
  8
2
100
AcDbLine
 10
-258.368556
 20
142.189645
 30
0.0
 11
-258.868556
 21
142.689645
 31
0.0
  0
LINE
  5
192
330
24
100
AcDbEntity
  8
2
100
AcDbLine
 10
-258.368556
 20
163.189645
 30
0.0
 11
-258.868556
 21
162.689645
 31
0.0
  0
LINE
  5
193
330
24
100
AcDbEntity
  8
2
100
AcDbLine
 10
-258.368556
 20
163.189645
 30
0.0
 11
-258.368556
 21
142.189645
 31
0.0
  0
POINT
  5
194
330
24
100
AcDbEntity
  8
2
100
AcDbPoint
 10
-248.68308
 20
-1.540156
 30
0.0
  0
TEXT
  5
195
330
24
100
AcDbEntity
  8
3
100
AcDbText
 10
65.574945
 20
-227.817829
 30
0.0
 40
7.0
  1
立水栓　
 41
0.8561288561288558
 72
     5
 11
85.174945
 21
-227.817829
 31
0.0
100
AcDbText
  0
TEXT
  5
196
330
24
100
AcDbEntity
  8
3
100
AcDbText
 10
226.850147
 20
-272.76662
 30
0.0
 40
7.0
  1
外観寸法図
 41
0.8545994065281904
 72
     5
 11
260.450147
 21
-272.76662
 31
0.0
100
AcDbText
  0
TEXT
  5
197
330
24
100
AcDbEntity
  8
3
100
AcDbText
 10
290.832582
 20
-240.013492
 30
0.0
 40
6.0
  1
１　２
 41
0.9130434782608703
 72
     5
 11
307.632582
 21
-240.013492
 31
0.0
100
AcDbText
  0
POINT
  5
198
330
24
100
AcDbEntity
  8
3
100
AcDbPoint
 10
394.982385
 20
-277.971881
 30
0.0
  0
LINE
  5
199
330
24
100
AcDbEntity
  8
3
100
AcDbLine
 10
106.710204
 20
-38.065356
 30
0.0
 11
106.710204
 21
-46.065356
 31
0.0
  0
LINE
  5
19A
330
24
100
AcDbEntity
  8
3
100
AcDbLine
 10
132.710204
 20
-38.065356
 30
0.0
 11
132.710204
 21
-46.065356
 31
0.0
  0
LINE
  5
19B
330
24
100
AcDbEntity
  8
3
100
AcDbLine
 10
108.710204
 20
-36.065356
 30
0.0
 11
130.710204
 21
-36.065356
 31
0.0
  0
LINE
  5
19C
330
24
100
AcDbEntity
  8
3
100
AcDbLine
 10
108.710204
 20
-48.065356
 30
0.0
 11
130.710204
 21
-48.065356
 31
0.0
  0
TEXT
  5
19D
330
24
100
AcDbEntity
  8
3
100
AcDbText
 10
150.848471
 20
-53.397122
 30
0.0
 40
7.0
  1
（製品コードＮＯ及び
 41
0.8388017118402284
 72
     5
 11
219.448471
 21
-53.397122
 31
0.0
100
AcDbText
  0
TEXT
  5
19E
330
24
100
AcDbEntity
  8
3
100
AcDbText
 10
150.848471
 20
-64.497122
 30
0.0
 40
7.0
  1
　ロットＮＯの表示）
 41
0.8789237668161437
 72
     5
 11
219.448471
 21
-64.497122
 31
0.0
100
AcDbText
  0
DIMENSION
  5
19F
330
24
100
AcDbEntity
  8
3
100
AcDbDimension
  2
*D0
 10
-73.021744
 20
72.034644
 30
0.0
 11
-84.521744
 21
2.984644
 31
0.0
 70
    32
  3
STANDARD
100
AcDbAlignedDimension
 13
-104.868556
 23
-59.065356
 33
0.0
 14
-109.468556
 24
72.034644
 34
0.0
 50
90.0
100
AcDbRotatedDimension
  0
TEXT
  5
1A0
330
24
100
AcDbEntity
  8
3
100
AcDbText
 10
-36.401024
 20
-52.757145
 30
0.0
 40
7.0
  1
取付穴径　φ２２～２６
 50
90.0
 41
0.8515111695137975
 72
     5
 11
-36.401024
 21
22.842855
 31
0.0
100
AcDbText
  0
TEXT
  5
1A1
330
24
100
AcDbEntity
  8
3
100
AcDbText
 10
-45.974586
 20
-53.065356
 30
0.0
 40
7.0
  1
天板厚サ　０～３０ｍｍ
 50
90.0
 41
0.845953002610966
 72
     5
 11
-45.974586
 21
22.534644
 31
0.0
100
AcDbText
  0
DIMENSION
  5
1A2
330
24
100
AcDbEntity
  8
3
100
AcDbDimension
  2
*D1
 10
-44.974586
 20
-61.065356
 30
0.0
 11
-47.474586
 21
-18.565356
 31
0.0
 70
    32
  3
STANDARD
100
AcDbAlignedDimension
 13
-108.368556
 23
-74.065356
 33
0.0
 14
-106.368556
 24
-61.065356
 34
0.0
 50
90.0
100
AcDbRotatedDimension
  0
TEXT
  5
1A3
330
24
100
AcDbEntity
  8
3
100
AcDbText
 10
-95.889746
 20
-101.362767
 30
0.0
 40
7.0
  1
ＰＪ１／２
 41
0.878048780487805
 72
     5
 11
-62.289746
 21
-101.362767
 31
0.0
100
AcDbText
  0
LWPOLYLINE
  5
1A4
330
24
100
AcDbEntity
  8
3
100
AcDbPolyline
 90
        3
 70
     0
 43
0.0
 10
-115.618556
 20
-94.058438
 10
-96.542296
 20
-102.145367
 10
-62.218886
 20
-102.145367
  0
LINE
  5
1A9
330
24
100
AcDbEntity
  8
3
100
AcDbLine
 10
-112.061297
 20
-95.566454
 30
0.0
 11
-111.657225
 21
-94.613289
 31
0.0
  0
LINE
  5
1AA
330
24
100
AcDbEntity
  8
3
100
AcDbLine
 10
-111.657225
 20
-94.613289
 30
0.0
 11
-115.618556
 21
-94.058438
 31
0.0
  0
LINE
  5
1AB
330
24
100
AcDbEntity
  8
3
100
AcDbLine
 10
-115.618556
 20
-94.058438
 30
0.0
 11
-112.465368
 21
-96.519619
 31
0.0
  0
LINE
  5
1AC
330
24
100
AcDbEntity
  8
3
100
AcDbLine
 10
-112.465368
 20
-96.519619
 30
0.0
 11
-112.061297
 21
-95.566454
 31
0.0
  0
TEXT
  5
1AD
330
24
100
AcDbEntity
  8
3
100
AcDbText
 10
-183.173392
 20
-89.054669
 30
0.0
 40
7.0
  1
２４六角
 41
0.8636363636363633
 72
     5
 11
-156.573392
 21
-89.054669
 31
0.0
100
AcDbText
  0
LWPOLYLINE
  5
1AE
330
24
100
AcDbEntity
  8
3
100
AcDbPolyline
 90
        2
 70
     0
 43
0.0
 10
-138.034041
 20
-80.747906
 10
-153.940291
 20
-85.330914
  0
LINE
  5
1B2
330
24
100
AcDbEntity
  8
3
100
AcDbLine
 10
-141.746709
 20
-81.817624
 30
0.0
 11
-141.460079
 21
-82.81243
 31
0.0
  0
LINE
  5
1B3
330
24
100
AcDbEntity
  8
3
100
AcDbLine
 10
-141.460079
 20
-82.81243
 30
0.0
 11
-138.034041
 21
-80.747906
 31
0.0
  0
LINE
  5
1B4
330
24
100
AcDbEntity
  8
3
100
AcDbLine
 10
-138.034041
 20
-80.747906
 30
0.0
 11
-142.033339
 21
-80.822817
 31
0.0
  0
LINE
  5
1B5
330
24
100
AcDbEntity
  8
3
100
AcDbLine
 10
-142.033339
 20
-80.822817
 30
0.0
 11
-141.746709
 21
-81.817624
 31
0.0
  0
TEXT
  5
1B6
330
24
100
AcDbEntity
  8
3
100
AcDbText
 10
-177.871306
 20
-123.925778
 30
0.0
 40
7.0
  1
２３六角
 41
0.8636363636363633
 72
     5
 11
-151.271306
 21
-123.925778
 31
0.0
100
AcDbText
  0
LWPOLYLINE
  5
1B7
330
24
100
AcDbEntity
  8
3
100
AcDbPolyline
 90
        2
 70
     0
 43
0.0
 10
-136.314406
 20
-110.60629
 10
-149.068144
 20
-120.345257
  0
LINE
  5
1BB
330
24
100
AcDbEntity
  8
3
100
AcDbLine
 10
-139.385182
 20
-112.951186
 30
0.0
 11
-138.756869
 21
-113.773998
 31
0.0
  0
LINE
  5
1BC
330
24
100
AcDbEntity
  8
3
100
AcDbLine
 10
-138.756869
 20
-113.773998
 30
0.0
 11
-136.314406
 21
-110.60629
 31
0.0
  0
LINE
  5
1BD
330
24
100
AcDbEntity
  8
3
100
AcDbLine
 10
-136.314406
 20
-110.60629
 30
0.0
 11
-140.013495
 21
-112.128374
 31
0.0
  0
LINE
  5
1BE
330
24
100
AcDbEntity
  8
3
100
AcDbLine
 10
-140.013495
 20
-112.128374
 30
0.0
 11
-139.385182
 21
-112.951186
 31
0.0
  0
TEXT
  5
1BF
330
24
100
AcDbEntity
  8
3
100
AcDbText
 10
-198.672588
 20
-49.114399
 30
0.0
 40
7.0
  1
（商標表示）
 41
0.9133858267716534
 72
     5
 11
-158.072588
 21
-49.114399
 31
0.0
100
AcDbText
  0
DIMENSION
  5
1C0
330
24
100
AcDbEntity
  8
3
100
AcDbDimension
  2
*D2
 10
-147.368556
 20
-21.722893
 30
0.0
 11
-165.868556
 21
-17.222893
 31
0.0
 70
     1
  3
STANDARD
100
AcDbAlignedDimension
 13
-104.368556
 23
-54.065356
 33
0.0
 14
-147.368556
 24
-54.065356
 34
0.0
  0
LINE
  5
1C1
330
24
100
AcDbEntity
  8
3
100
AcDbLine
 10
-131.368556
 20
-48.065356
 30
0.0
 11
-125.868556
 21
-42.565356
 31
0.0
  0
LINE
  5
1C2
330
24
100
AcDbEntity
  8
3
100
AcDbLine
 10
-129.954342
 20
-48.065356
 30
0.0
 11
-124.454342
 21
-42.565356
 31
0.0
  0
LINE
  5
1C3
330
24
100
AcDbEntity
  8
3
100
AcDbLine
 10
-128.540128
 20
-48.065356
 30
0.0
 11
-123.040128
 21
-42.565356
 31
0.0
  0
LINE
  5
1C4
330
24
100
AcDbEntity
  8
3
100
AcDbLine
 10
-127.125915
 20
-48.065356
 30
0.0
 11
-121.625915
 21
-42.565356
 31
0.0
  0
LINE
  5
1C5
330
24
100
AcDbEntity
  8
3
100
AcDbLine
 10
-125.711701
 20
-48.065356
 30
0.0
 11
-120.211701
 21
-42.565356
 31
0.0
  0
LINE
  5
1C6
330
24
100
AcDbEntity
  8
3
100
AcDbLine
 10
-124.297488
 20
-48.065356
 30
0.0
 11
-118.797488
 21
-42.565356
 31
0.0
  0
LINE
  5
1C7
330
24
100
AcDbEntity
  8
3
100
AcDbLine
 10
-122.883274
 20
-48.065356
 30
0.0
 11
-117.383274
 21
-42.565356
 31
0.0
  0
LINE
  5
1C8
330
24
100
AcDbEntity
  8
3
100
AcDbLine
 10
-121.469061
 20
-48.065356
 30
0.0
 11
-115.977091
 21
-42.573387
 31
0.0
  0
LINE
  5
1C9
330
24
100
AcDbEntity
  8
3
100
AcDbLine
 10
-120.054847
 20
-48.065356
 30
0.0
 11
-115.091847
 21
-43.102356
 31
0.0
  0
LINE
  5
1CA
330
24
100
AcDbEntity
  8
3
100
AcDbLine
 10
-118.640633
 20
-48.065356
 30
0.0
 11
-114.868556
 21
-44.293278
 31
0.0
  0
LINE
  5
1CB
330
24
100
AcDbEntity
  8
3
100
AcDbLine
 10
-117.22642
 20
-48.065356
 30
0.0
 11
-114.868556
 21
-45.707492
 31
0.0
  0
LINE
  5
1CC
330
24
100
AcDbEntity
  8
3
100
AcDbLine
 10
-115.75954
 20
-48.01269
 30
0.0
 11
-114.921222
 21
-47.174372
 31
0.0
  0
LINE
  5
1CD
330
24
100
AcDbEntity
  8
3
100
AcDbLine
 10
-132.782769
 20
-48.065356
 30
0.0
 11
-127.282769
 21
-42.565356
 31
0.0
  0
LINE
  5
1CE
330
24
100
AcDbEntity
  8
3
100
AcDbLine
 10
-134.196983
 20
-48.065356
 30
0.0
 11
-128.696983
 21
-42.565356
 31
0.0
  0
LINE
  5
1CF
330
24
100
AcDbEntity
  8
3
100
AcDbLine
 10
-135.611196
 20
-48.065356
 30
0.0
 11
-130.111196
 21
-42.565356
 31
0.0
  0
LINE
  5
1D0
330
24
100
AcDbEntity
  8
3
100
AcDbLine
 10
-136.57738
 20
-47.617326
 30
0.0
 11
-131.52541
 21
-42.565356
 31
0.0
  0
LINE
  5
1D1
330
24
100
AcDbEntity
  8
3
100
AcDbLine
 10
-136.868556
 20
-46.494288
 30
0.0
 11
-132.939623
 21
-42.565356
 31
0.0
  0
LINE
  5
1D2
330
24
100
AcDbEntity
  8
3
100
AcDbLine
 10
-136.868556
 20
-45.080075
 30
0.0
 11
-134.353837
 21
-42.565356
 31
0.0
  0
LINE
  5
1D3
330
24
100
AcDbEntity
  8
3
100
AcDbLine
 10
-136.858306
 20
-43.655612
 30
0.0
 11
-135.7783
 21
-42.575605
 31
0.0
  0
ARC
  5
1D4
330
24
100
AcDbEntity
  8
3
100
AcDbCircle
 10
-116.118556
 20
-43.815356
 30
0.0
 40
1.25
100
AcDbArc
 50
360.0
 51
90.0
  0
LINE
  5
1D5
330
24
100
AcDbEntity
  8
3
100
AcDbLine
 10
-116.118556
 20
-42.565356
 30
0.0
 11
-135.618556
 21
-42.565356
 31
0.0
  0
ARC
  5
1D6
330
24
100
AcDbEntity
  8
3
100
AcDbCircle
 10
-135.618556
 20
-43.815356
 30
0.0
 40
1.25
100
AcDbArc
 50
90.0
 51
180.0
  0
LINE
  5
1D7
330
24
100
AcDbEntity
  8
3
100
AcDbLine
 10
-136.868556
 20
-43.815356
 30
0.0
 11
-136.868556
 21
-46.815356
 31
0.0
  0
ARC
  5
1D8
330
24
100
AcDbEntity
  8
3
100
AcDbCircle
 10
-135.618556
 20
-46.815356
 30
0.0
 40
1.25
100
AcDbArc
 50
180.0
 51
270.0
  0
LINE
  5
1D9
330
24
100
AcDbEntity
  8
3
100
AcDbLine
 10
-116.118556
 20
-48.065356
 30
0.0
 11
-135.618556
 21
-48.065356
 31
0.0
  0
LINE
  5
1DA
330
24
100
AcDbEntity
  8
3
100
AcDbLine
 10
-114.868556
 20
-43.815356
 30
0.0
 11
-114.868556
 21
-46.815356
 31
0.0
  0
ARC
  5
1DB
330
24
100
AcDbEntity
  8
3
100
AcDbCircle
 10
-116.118556
 20
-46.815356
 30
0.0
 40
1.25
100
AcDbArc
 50
270.0
 51
360.0
  0
LWPOLYLINE
  5
1DC
330
24
100
AcDbEntity
  8
3
100
AcDbPolyline
 90
        2
 70
     0
 43
0.0
 10
-158.903114
 20
-40.867119
 10
-135.609653
 20
-45.590672
  0
LINE
  5
1E0
330
24
100
AcDbEntity
  8
3
100
AcDbLine
 10
-180.232029
 20
-39.147468
 30
0.0
 11
-177.751324
 21
-39.147468
 31
0.0
  0
LINE
  5
1E1
330
24
100
AcDbEntity
  8
3
100
AcDbLine
 10
-180.232029
 20
-38.485991
 30
0.0
 11
-177.291934
 21
-38.899194
 31
0.0
  0
LINE
  5
1E2
330
24
100
AcDbEntity
  8
3
100
AcDbLine
 10
-177.687389
 20
-37.915807
 30
0.0
 11
-180.232029
 21
-37.558182
 31
0.0
  0
LINE
  5
1E3
330
24
100
AcDbEntity
  8
3
100
AcDbLine
 10
-180.232029
 20
-37.309908
 30
0.0
 11
-177.291934
 21
-37.309908
 31
0.0
  0
ARC
  5
1E4
330
24
100
AcDbEntity
  8
3
100
AcDbCircle
 10
-177.751324
 20
-36.850518
 30
0.0
 40
0.45939
100
AcDbArc
 50
0.0
 51
90.0
  0
ARC
  5
1E5
330
24
100
AcDbEntity
  8
3
100
AcDbCircle
 10
-177.751324
 20
-38.370727
 30
0.0
 40
0.45939
100
AcDbArc
 50
360.0
 51
81.99999999999999
  0
ARC
  5
1E6
330
24
100
AcDbEntity
  8
3
100
AcDbCircle
 10
-177.751324
 20
-39.606857
 30
0.0
 40
0.45939
100
AcDbArc
 50
0.0
 51
90.0
  0
LINE
  5
1E7
330
24
100
AcDbEntity
  8
3
100
AcDbLine
 10
-176.373154
 20
-36.391129
 30
0.0
 11
-176.373154
 21
-37.309908
 31
0.0
  0
LINE
  5
1E8
330
24
100
AcDbEntity
  8
3
100
AcDbLine
 10
-176.373154
 20
-37.309908
 30
0.0
 11
-175.086863
 21
-37.309908
 31
0.0
  0
LINE
  5
1E9
330
24
100
AcDbEntity
  8
3
100
AcDbLine
 10
-174.168083
 20
-36.850518
 30
0.0
 11
-174.168083
 21
-38.044932
 31
0.0
  0
LINE
  5
1EA
330
24
100
AcDbEntity
  8
3
100
AcDbLine
 10
-175.086863
 20
-37.309908
 30
0.0
 11
-175.086863
 21
-38.044932
 31
0.0
  0
LINE
  5
1EB
330
24
100
AcDbEntity
  8
3
100
AcDbLine
 10
-176.832544
 20
-39.147468
 30
0.0
 11
-176.189398
 21
-39.147468
 31
0.0
  0
ARC
  5
1EC
330
24
100
AcDbEntity
  8
3
100
AcDbCircle
 10
-176.189398
 20
-38.044932
 30
0.0
 40
1.102536
100
AcDbArc
 50
270.0
 51
360.0
  0
ARC
  5
1ED
330
24
100
AcDbEntity
  8
3
100
AcDbCircle
 10
-172.78428
 20
-36.944084
 30
0.0
 40
2.205071
100
AcDbArc
 50
228.524141
 51
272.241513
  0
ARC
  5
1EE
330
24
100
AcDbEntity
  8
3
100
AcDbCircle
 10
-172.78428
 20
-36.944084
 30
0.0
 40
3.123851
100
AcDbArc
 50
232.173442
 51
271.5820419999999
  0
LINE
  5
1EF
330
24
100
AcDbEntity
  8
3
100
AcDbLine
 10
-173.087378
 20
-37.861176
 30
0.0
 11
-172.026463
 21
-37.861176
 31
0.0
  0
LINE
  5
1F0
330
24
100
AcDbEntity
  8
3
100
AcDbLine
 10
-172.238646
 20
-36.391129
 30
0.0
 11
-173.087378
 21
-37.861176
 31
0.0
  0
LINE
  5
1F1
330
24
100
AcDbEntity
  8
3
100
AcDbLine
 10
-171.708188
 20
-37.309908
 30
0.0
 11
-172.026463
 21
-37.861176
 31
0.0
  0
LINE
  5
1F2
330
24
100
AcDbEntity
  8
3
100
AcDbLine
 10
-171.708188
 20
-37.309908
 30
0.0
 11
-170.952354
 21
-37.309908
 31
0.0
  0
ARC
  5
1F3
330
24
100
AcDbEntity
  8
3
100
AcDbCircle
 10
-170.492964
 20
-36.850518
 30
0.0
 40
0.45939
100
AcDbArc
 50
0.0
 51
90.0
  0
LINE
  5
1F4
330
24
100
AcDbEntity
  8
3
100
AcDbLine
 10
-172.238646
 20
-39.147468
 30
0.0
 11
-172.05489
 21
-39.147468
 31
0.0
  0
ARC
  5
1F5
330
24
100
AcDbEntity
  8
3
100
AcDbCircle
 10
-172.05489
 20
-38.044932
 30
0.0
 40
2.021315
100
AcDbArc
 50
270.0
 51
360.0
  0
LINE
  5
1F6
330
24
100
AcDbEntity
  8
3
100
AcDbLine
 10
-171.503622
 20
-38.5962
 30
0.0
 11
-171.100066
 21
-38.5962
 31
0.0
  0
LINE
  5
1F7
330
24
100
AcDbEntity
  8
3
100
AcDbLine
 10
-171.503622
 20
-37.67742
 30
0.0
 11
-170.952354
 21
-37.67742
 31
0.0
  0
LINE
  5
1F8
330
24
100
AcDbEntity
  8
3
100
AcDbLine
 10
-171.503622
 20
-38.5962
 30
0.0
 11
-171.503622
 21
-37.67742
 31
0.0
  0
LINE
  5
1F9
330
24
100
AcDbEntity
  8
3
100
AcDbLine
 10
-170.952354
 20
-37.309908
 30
0.0
 11
-170.952354
 21
-37.67742
 31
0.0
  0
ARC
  5
1FA
330
24
100
AcDbEntity
  8
3
100
AcDbCircle
 10
-172.05489
 20
-38.044932
 30
0.0
 40
1.102536
100
AcDbArc
 50
270.0
 51
330.0
  0
LINE
  5
1FB
330
24
100
AcDbEntity
  8
3
100
AcDbLine
 10
-169.574185
 20
-37.309908
 30
0.0
 11
-167.369114
 21
-37.309908
 31
0.0
  0
LINE
  5
1FC
330
24
100
AcDbEntity
  8
3
100
AcDbLine
 10
-169.574185
 20
-39.147468
 30
0.0
 11
-167.828503
 21
-39.147468
 31
0.0
  0
ARC
  5
1FD
330
24
100
AcDbEntity
  8
3
100
AcDbCircle
 10
-167.828503
 20
-36.850518
 30
0.0
 40
0.45939
100
AcDbArc
 50
0.0
 51
90.0
  0
ARC
  5
1FE
330
24
100
AcDbEntity
  8
3
100
AcDbCircle
 10
-167.828503
 20
-39.606857
 30
0.0
 40
0.45939
100
AcDbArc
 50
0.0
 51
90.0
  0
ARC
  5
1FF
330
24
100
AcDbEntity
  8
3
100
AcDbCircle
 10
-176.189398
 20
-38.044932
 30
0.0
 40
2.021315
100
AcDbArc
 50
270.0
 51
317.461176
  0
ARC
  5
200
330
24
100
AcDbEntity
  8
3
100
AcDbCircle
 10
-176.189398
 20
-38.044932
 30
0.0
 40
2.021315
100
AcDbArc
 50
344.17338
 51
360.0
  0
CIRCLE
  5
201
330
24
100
AcDbEntity
  8
3
100
AcDbCircle
 10
-173.341181
 20
-36.666762
 30
0.0
 40
0.275634
  0
CIRCLE
  5
202
330
24
100
AcDbEntity
  8
3
100
AcDbCircle
 10
-173.892449
 20
-36.666762
 30
0.0
 40
0.275634
  0
LINE
  5
203
330
24
100
AcDbEntity
  8
3
100
AcDbLine
 10
-176.832544
 20
-39.147468
 30
0.0
 11
-176.832544
 21
-40.066247
 31
0.0
  0
LINE
  5
204
330
24
100
AcDbEntity
  8
3
100
AcDbLine
 10
-172.698036
 20
-39.147468
 30
0.0
 11
-172.698036
 21
-40.066247
 31
0.0
  0
LINE
  5
205
330
24
100
AcDbEntity
  8
3
100
AcDbLine
 10
-172.238646
 20
-39.147468
 30
0.0
 11
-172.238646
 21
-40.066247
 31
0.0
  0
LINE
  5
206
330
24
100
AcDbEntity
  8
3
100
AcDbLine
 10
-170.033575
 20
-36.850518
 30
0.0
 11
-170.033575
 21
-38.044932
 31
0.0
  0
LINE
  5
207
330
24
100
AcDbEntity
  8
3
100
AcDbLine
 10
-180.232029
 20
-36.391129
 30
0.0
 11
-177.751324
 21
-36.391129
 31
0.0
  0
LINE
  5
208
330
24
100
AcDbEntity
  8
3
100
AcDbLine
 10
-176.373154
 20
-36.391129
 30
0.0
 11
-174.627473
 21
-36.391129
 31
0.0
  0
LINE
  5
209
330
24
100
AcDbEntity
  8
3
100
AcDbLine
 10
-172.238646
 20
-36.391129
 30
0.0
 11
-170.492964
 21
-36.391129
 31
0.0
  0
LINE
  5
20A
330
24
100
AcDbEntity
  8
3
100
AcDbLine
 10
-169.574185
 20
-36.391129
 30
0.0
 11
-167.828503
 21
-36.391129
 31
0.0
  0
LINE
  5
20B
330
24
100
AcDbEntity
  8
3
100
AcDbLine
 10
-169.574185
 20
-40.066247
 30
0.0
 11
-167.369114
 21
-40.066247
 31
0.0
  0
LINE
  5
20C
330
24
100
AcDbEntity
  8
3
100
AcDbLine
 10
-172.238646
 20
-40.066247
 30
0.0
 11
-172.05489
 21
-40.066247
 31
0.0
  0
LINE
  5
20D
330
24
100
AcDbEntity
  8
3
100
AcDbLine
 10
-180.232029
 20
-40.066247
 30
0.0
 11
-177.291934
 21
-40.066247
 31
0.0
  0
LINE
  5
20E
330
24
100
AcDbEntity
  8
3
100
AcDbLine
 10
-177.291934
 20
-37.309908
 30
0.0
 11
-177.291934
 21
-36.850518
 31
0.0
  0
LINE
  5
20F
330
24
100
AcDbEntity
  8
3
100
AcDbLine
 10
-177.291934
 20
-40.066247
 30
0.0
 11
-177.291934
 21
-39.606857
 31
0.0
  0
LINE
  5
210
330
24
100
AcDbEntity
  8
3
100
AcDbLine
 10
-177.291934
 20
-38.899194
 30
0.0
 11
-177.291934
 21
-38.370727
 31
0.0
  0
LINE
  5
211
330
24
100
AcDbEntity
  8
3
100
AcDbLine
 10
-180.232029
 20
-40.066247
 30
0.0
 11
-180.232029
 21
-39.147468
 31
0.0
  0
LINE
  5
212
330
24
100
AcDbEntity
  8
3
100
AcDbLine
 10
-180.232029
 20
-38.485991
 30
0.0
 11
-180.232029
 21
-37.558182
 31
0.0
  0
LINE
  5
213
330
24
100
AcDbEntity
  8
3
100
AcDbLine
 10
-180.232029
 20
-37.309908
 30
0.0
 11
-180.232029
 21
-36.391129
 31
0.0
  0
LINE
  5
214
330
24
100
AcDbEntity
  8
3
100
AcDbLine
 10
-167.369114
 20
-37.309908
 30
0.0
 11
-167.369114
 21
-36.850518
 31
0.0
  0
LINE
  5
215
330
24
100
AcDbEntity
  8
3
100
AcDbLine
 10
-169.574185
 20
-40.066247
 30
0.0
 11
-169.574185
 21
-39.147468
 31
0.0
  0
LINE
  5
216
330
24
100
AcDbEntity
  8
3
100
AcDbLine
 10
-169.574185
 20
-37.309908
 30
0.0
 11
-169.574185
 21
-36.391129
 31
0.0
  0
LINE
  5
217
330
24
100
AcDbEntity
  8
3
100
AcDbLine
 10
-176.832544
 20
-40.066247
 30
0.0
 11
-176.189398
 21
-40.066247
 31
0.0
  0
LINE
  5
218
330
24
100
AcDbEntity
  8
3
100
AcDbLine
 10
-172.886937
 20
-40.066247
 30
0.0
 11
-172.698036
 21
-40.066247
 31
0.0
  0
ARC
  5
219
330
24
100
AcDbEntity
  8
3
100
AcDbCircle
 10
-174.627473
 20
-36.850518
 30
0.0
 40
0.45939
100
AcDbArc
 50
0.0
 51
90.0
  0
LINE
  5
21A
330
24
100
AcDbEntity
  8
3
100
AcDbLine
 10
-188.500915
 20
-39.05559
 30
0.0
 11
-188.500915
 21
-37.401786
 31
0.0
  0
LINE
  5
21B
330
24
100
AcDbEntity
  8
3
100
AcDbLine
 10
-188.133403
 20
-37.401786
 30
0.0
 11
-188.133403
 21
-39.05559
 31
0.0
  0
LINE
  5
21C
330
24
100
AcDbEntity
  8
3
100
AcDbLine
 10
-188.133403
 20
-37.401786
 30
0.0
 11
-188.500915
 21
-37.401786
 31
0.0
  0
LINE
  5
21D
330
24
100
AcDbEntity
  8
3
100
AcDbLine
 10
-188.133403
 20
-39.05559
 30
0.0
 11
-188.500915
 21
-39.05559
 31
0.0
  0
LINE
  5
21E
330
24
100
AcDbEntity
  8
3
100
AcDbLine
 10
-189.434601
 20
-39.346129
 30
0.0
 11
-189.61651
 21
-39.528039
 31
0.0
  0
LINE
  5
21F
330
24
100
AcDbEntity
  8
3
100
AcDbLine
 10
-187.39838
 20
-37.401786
 30
0.0
 11
-187.177873
 21
-37.401786
 31
0.0
  0
LINE
  5
220
330
24
100
AcDbEntity
  8
3
100
AcDbLine
 10
-187.85777
 20
-39.05559
 30
0.0
 11
-187.56376
 21
-39.05559
 31
0.0
  0
LINE
  5
221
330
24
100
AcDbEntity
  8
3
100
AcDbLine
 10
-187.85777
 20
-39.05559
 30
0.0
 11
-187.85777
 21
-38.76158
 31
0.0
  0
LINE
  5
222
330
24
100
AcDbEntity
  8
3
100
AcDbLine
 10
-187.177873
 20
-37.695796
 30
0.0
 11
-187.177873
 21
-37.401786
 31
0.0
  0
LINE
  5
223
330
24
100
AcDbEntity
  8
3
100
AcDbLine
 10
-187.343253
 20
-37.695796
 30
0.0
 11
-187.177873
 21
-37.695796
 31
0.0
  0
LINE
  5
224
330
24
100
AcDbEntity
  8
3
100
AcDbLine
 10
-187.7112
 20
-38.197602
 30
0.0
 11
-187.481246
 21
-38.411421
 31
0.0
  0
ARC
  5
225
330
24
100
AcDbEntity
  8
3
100
AcDbCircle
 10
-187.343253
 20
-37.879552
 30
0.0
 40
0.183756
100
AcDbArc
 50
90.0
 51
227.082289
  0
LINE
  5
226
330
24
100
AcDbEntity
  8
3
100
AcDbLine
 10
-187.468381
 20
-38.014122
 30
0.0
 11
-187.238427
 21
-38.227941
 31
0.0
  0
ARC
  5
227
330
24
100
AcDbEntity
  8
3
100
AcDbCircle
 10
-187.56376
 20
-38.577824
 30
0.0
 40
0.477765
100
AcDbArc
 50
270.0
 51
47.082289
  0
ARC
  5
228
330
24
100
AcDbEntity
  8
3
100
AcDbCircle
 10
-187.618887
 20
-38.559449
 30
0.0
 40
0.202132
100
AcDbArc
 50
270.0
 51
47.082289
  0
ARC
  5
229
330
24
100
AcDbEntity
  8
3
100
AcDbCircle
 10
-187.39838
 20
-37.861176
 30
0.0
 40
0.45939
100
AcDbArc
 50
90.0
 51
227.082289
  0
LINE
  5
22A
330
24
100
AcDbEntity
  8
3
100
AcDbLine
 10
-187.618887
 20
-38.76158
 30
0.0
 11
-187.85777
 21
-38.76158
 31
0.0
  0
LINE
  5
22B
330
24
100
AcDbEntity
  8
3
100
AcDbLine
 10
-189.162437
 20
-38.401418
 30
0.0
 11
-189.162437
 21
-37.401786
 31
0.0
  0
LINE
  5
22C
330
24
100
AcDbEntity
  8
3
100
AcDbLine
 10
-188.831676
 20
-38.401418
 30
0.0
 11
-188.831676
 21
-37.401786
 31
0.0
  0
LINE
  5
22D
330
24
100
AcDbEntity
  8
3
100
AcDbLine
 10
-188.831676
 20
-37.401786
 30
0.0
 11
-189.162437
 21
-37.401786
 31
0.0
  0
ARC
  5
22E
330
24
100
AcDbEntity
  8
3
100
AcDbCircle
 10
-189.485847
 20
-38.401418
 30
0.0
 40
0.654171
100
AcDbArc
 50
190.22669
 51
360.0
  0
ARC
  5
22F
330
24
100
AcDbEntity
  8
3
100
AcDbCircle
 10
-189.522598
 20
-38.401418
 30
0.0
 40
0.360162
100
AcDbArc
 50
190.573586
 51
360.0
  0
ARC
  5
230
330
24
100
AcDbEntity
  8
3
100
AcDbCircle
 10
-188.317159
 20
-38.228688
 30
0.0
 40
1.580301
100
AcDbArc
 50
225.0
 51
188.720397
  0
ARC
  5
231
330
24
100
AcDbEntity
  8
3
100
AcDbCircle
 10
-188.317159
 20
-38.228688
 30
0.0
 40
1.837559
100
AcDbArc
 50
225.0
 51
189.066832
  0
LINE
  5
232
330
24
100
AcDbEntity
  8
3
100
AcDbLine
 10
-164.796465
 20
-40.066247
 30
0.0
 11
-164.796465
 21
-37.616168
 31
0.0
  0
LINE
  5
233
330
24
100
AcDbEntity
  8
3
100
AcDbLine
 10
-166.266513
 20
-40.066247
 30
0.0
 11
-166.266513
 21
-37.616168
 31
0.0
  0
LINE
  5
234
330
24
100
AcDbEntity
  8
3
100
AcDbLine
 10
-166.634025
 20
-40.066247
 30
0.0
 11
-165.899001
 21
-40.066247
 31
0.0
  0
LINE
  5
235
330
24
100
AcDbEntity
  8
3
100
AcDbLine
 10
-165.163977
 20
-40.066247
 30
0.0
 11
-164.428953
 21
-40.066247
 31
0.0
  0
LINE
  5
236
330
24
100
AcDbEntity
  8
3
100
AcDbLine
 10
-189.879192
 20
-38.468282
 30
0.0
 11
-189.876644
 21
-38.467507
 31
0.0
  0
LINE
  5
237
330
24
100
AcDbEntity
  8
3
100
AcDbLine
 10
-167.369114
 20
-39.606857
 30
0.0
 11
-167.369114
 21
-40.066247
 31
0.0
  0
LINE
  5
238
330
24
100
AcDbEntity
  8
3
100
AcDbLine
 10
-184.274529
 20
-37.616168
 30
0.0
 11
-185.009553
 21
-37.616168
 31
0.0
  0
LINE
  5
239
330
24
100
AcDbEntity
  8
3
100
AcDbLine
 10
-164.796465
 20
-37.616168
 30
0.0
 11
-165.531489
 21
-38.889267
 31
0.0
  0
LINE
  5
23A
330
24
100
AcDbEntity
  8
3
100
AcDbLine
 10
-166.266513
 20
-37.616168
 30
0.0
 11
-165.531489
 21
-38.889267
 31
0.0
  0
LINE
  5
23B
330
24
100
AcDbEntity
  8
3
100
AcDbLine
 10
-184.642041
 20
-37.616168
 30
0.0
 11
-184.642041
 21
-39.331224
 31
0.0
  0
LINE
  5
23C
330
24
100
AcDbEntity
  8
3
100
AcDbLine
 10
-181.701946
 20
-37.616168
 30
0.0
 11
-180.966922
 21
-37.616168
 31
0.0
  0
LINE
  5
23D
330
24
100
AcDbEntity
  8
3
100
AcDbLine
 10
-183.171993
 20
-37.616168
 30
0.0
 11
-183.907017
 21
-37.616168
 31
0.0
  0
LINE
  5
23E
330
24
100
AcDbEntity
  8
3
100
AcDbLine
 10
-183.539505
 20
-37.616168
 30
0.0
 11
-183.10749
 21
-40.066247
 31
0.0
  0
LINE
  5
23F
330
24
100
AcDbEntity
  8
3
100
AcDbLine
 10
-183.10749
 20
-40.066247
 30
0.0
 11
-182.43697
 21
-38.224007
 31
0.0
  0
LINE
  5
240
330
24
100
AcDbEntity
  8
3
100
AcDbLine
 10
-181.766449
 20
-40.066247
 30
0.0
 11
-182.43697
 21
-38.224007
 31
0.0
  0
LINE
  5
241
330
24
100
AcDbEntity
  8
3
100
AcDbLine
 10
-181.334434
 20
-37.616168
 30
0.0
 11
-181.766449
 21
-40.066247
 31
0.0
  0
ARC
  5
242
330
24
100
AcDbEntity
  8
3
100
AcDbCircle
 10
-185.377064
 20
-39.331224
 30
0.0
 40
0.735024
100
AcDbArc
 50
180.0
 51
360.0
  0
LINE
  5
243
330
24
100
AcDbEntity
  8
3
100
AcDbLine
 10
-190.154719
 20
-35.341095
 30
0.0
 11
-164.953905
 21
-35.341095
 31
0.0
  0
LINE
  5
244
330
24
100
AcDbEntity
  8
3
100
AcDbLine
 10
-190.154719
 20
-41.116281
 30
0.0
 11
-164.953905
 21
-41.116281
 31
0.0
  0
LINE
  5
245
330
24
100
AcDbEntity
  8
3
100
AcDbLine
 10
-191.204753
 20
-40.066247
 30
0.0
 11
-191.204753
 21
-36.391129
 31
0.0
  0
LINE
  5
246
330
24
100
AcDbEntity
  8
3
100
AcDbLine
 10
-163.903871
 20
-40.066247
 30
0.0
 11
-163.903871
 21
-36.391129
 31
0.0
  0
ARC
  5
247
330
24
100
AcDbEntity
  8
3
100
AcDbCircle
 10
-190.154719
 20
-36.391129
 30
0.0
 40
1.050034
100
AcDbArc
 50
90.0
 51
180.0
  0
ARC
  5
248
330
24
100
AcDbEntity
  8
3
100
AcDbCircle
 10
-190.154719
 20
-40.066247
 30
0.0
 40
1.050034
100
AcDbArc
 50
180.0
 51
270.0
  0
ARC
  5
249
330
24
100
AcDbEntity
  8
3
100
AcDbCircle
 10
-164.953905
 20
-36.391129
 30
0.0
 40
1.050034
100
AcDbArc
 50
0.0
 51
90.0
  0
ARC
  5
24A
330
24
100
AcDbEntity
  8
3
100
AcDbCircle
 10
-164.953905
 20
-40.066247
 30
0.0
 40
1.050034
100
AcDbArc
 50
270.0
 51
360.0
  0
LINE
  5
24B
330
24
100
AcDbEntity
  8
3
100
AcDbLine
 10
-189.437613
 20
-39.070351
 30
0.0
 11
-188.833232
 21
-38.465971
 31
0.0
  0
LINE
  5
24C
330
24
100
AcDbEntity
  8
3
100
AcDbLine
 10
-187.348246
 20
-36.980985
 30
0.0
 11
-187.164702
 21
-36.797441
 31
0.0
  0
LINE
  5
24D
330
24
100
AcDbEntity
  8
3
100
AcDbLine
 10
-189.614482
 20
-39.530063
 30
0.0
 11
-189.432578
 21
-39.34816
 31
0.0
  0
LINE
  5
24E
330
24
100
AcDbEntity
  8
3
100
AcDbLine
 10
-187.197696
 20
-37.113278
 30
0.0
 11
-187.015784
 21
-36.931365
 31
0.0
  0
LINE
  5
24F
330
24
100
AcDbEntity
  8
3
100
AcDbLine
 10
-189.46512
 20
-39.663544
 30
0.0
 11
-189.282315
 21
-39.480739
 31
0.0
  0
LINE
  5
250
330
24
100
AcDbEntity
  8
3
100
AcDbLine
 10
-187.065117
 20
-37.263541
 30
0.0
 11
-186.882304
 21
-37.080728
 31
0.0
  0
LINE
  5
251
330
24
100
AcDbEntity
  8
3
100
AcDbLine
 10
-189.300029
 20
-39.781296
 30
0.0
 11
-189.113641
 21
-39.594908
 31
0.0
  0
LINE
  5
252
330
24
100
AcDbEntity
  8
3
100
AcDbLine
 10
-186.950948
 20
-37.432215
 30
0.0
 11
-186.764551
 21
-37.245818
 31
0.0
  0
LINE
  5
253
330
24
100
AcDbEntity
  8
3
100
AcDbLine
 10
-189.118301
 20
-39.88241
 30
0.0
 11
-188.925101
 21
-39.689211
 31
0.0
  0
LINE
  5
254
330
24
100
AcDbEntity
  8
3
100
AcDbLine
 10
-186.856645
 20
-37.620755
 30
0.0
 11
-186.663437
 21
-37.427547
 31
0.0
  0
LINE
  5
255
330
24
100
AcDbEntity
  8
3
100
AcDbLine
 10
-188.918214
 20
-39.965166
 30
0.0
 11
-188.713789
 21
-39.760741
 31
0.0
  0
LINE
  5
256
330
24
100
AcDbEntity
  8
3
100
AcDbLine
 10
-186.785115
 20
-37.832068
 30
0.0
 11
-186.580681
 21
-37.627633
 31
0.0
  0
LINE
  5
257
330
24
100
AcDbEntity
  8
3
100
AcDbLine
 10
-188.696806
 20
-40.026601
 30
0.0
 11
-188.474208
 21
-39.804003
 31
0.0
  0
LINE
  5
258
330
24
100
AcDbEntity
  8
3
100
AcDbLine
 10
-186.741854
 20
-38.071648
 30
0.0
 11
-186.519246
 21
-37.849041
 31
0.0
  0
LINE
  5
259
330
24
100
AcDbEntity
  8
3
100
AcDbLine
 10
-188.448882
 20
-40.06152
 30
0.0
 11
-188.195019
 21
-39.807656
 31
0.0
  0
LINE
  5
25A
330
24
100
AcDbEntity
  8
3
100
AcDbLine
 10
-186.7382
 20
-38.350837
 30
0.0
 11
-186.484327
 21
-38.096965
 31
0.0
  0
LINE
  5
25B
330
24
100
AcDbEntity
  8
3
100
AcDbLine
 10
-188.164407
 20
-40.059887
 30
0.0
 11
-187.845667
 21
-39.741147
 31
0.0
  0
LINE
  5
25C
330
24
100
AcDbEntity
  8
3
100
AcDbLine
 10
-186.804709
 20
-38.700189
 30
0.0
 11
-186.48596
 21
-38.38144
 31
0.0
  0
LINE
  5
25D
330
24
100
AcDbEntity
  8
3
100
AcDbLine
 10
-187.819154
 20
-39.997477
 30
0.0
 11
-186.54837
 21
-38.726693
 31
0.0
  0
LINE
  5
25E
330
24
100
AcDbEntity
  8
3
100
AcDbLine
 10
-187.293637
 20
-39.754802
 30
0.0
 11
-186.791045
 21
-39.252211
 31
0.0
  0
LINE
  5
25F
330
24
100
AcDbEntity
  8
3
100
AcDbLine
 10
-187.329333
 20
-36.679229
 30
0.0
 11
-187.517222
 21
-36.867118
 31
0.0
  0
LINE
  5
260
330
24
100
AcDbEntity
  8
3
100
AcDbLine
 10
-188.831676
 20
-38.181572
 30
0.0
 11
-189.190209
 21
-38.540105
 31
0.0
  0
LINE
  5
261
330
24
100
AcDbEntity
  8
3
100
AcDbLine
 10
-189.383911
 20
-38.733807
 30
0.0
 11
-189.689609
 21
-39.039505
 31
0.0
  0
LINE
  5
262
330
24
100
AcDbEntity
  8
3
100
AcDbLine
 10
-187.510565
 20
-36.577618
 30
0.0
 11
-187.706095
 21
-36.773149
 31
0.0
  0
LINE
  5
263
330
24
100
AcDbEntity
  8
3
100
AcDbLine
 10
-188.831676
 20
-37.898729
 30
0.0
 11
-189.162437
 21
-38.22949
 31
0.0
  0
LINE
  5
264
330
24
100
AcDbEntity
  8
3
100
AcDbLine
 10
-189.665126
 20
-38.732179
 30
0.0
 11
-189.875901
 21
-38.942955
 31
0.0
  0
LINE
  5
265
330
24
100
AcDbEntity
  8
3
100
AcDbLine
 10
-187.710092
 20
-36.494302
 30
0.0
 11
-187.917805
 21
-36.702015
 31
0.0
  0
LINE
  5
266
330
24
100
AcDbEntity
  8
3
100
AcDbLine
 10
-188.831676
 20
-37.615886
 30
0.0
 11
-189.162437
 21
-37.946647
 31
0.0
  0
LINE
  5
267
330
24
100
AcDbEntity
  8
3
100
AcDbLine
 10
-189.820144
 20
-38.604354
 30
0.0
 11
-190.01629
 21
-38.800501
 31
0.0
  0
LINE
  5
268
330
24
100
AcDbEntity
  8
3
100
AcDbLine
 10
-187.930831
 20
-36.432198
 30
0.0
 11
-188.157903
 21
-36.659271
 31
0.0
  0
LINE
  5
269
330
24
100
AcDbEntity
  8
3
100
AcDbLine
 10
-188.900418
 20
-37.401786
 30
0.0
 11
-189.162437
 21
-37.663804
 31
0.0
  0
LINE
  5
26A
330
24
100
AcDbEntity
  8
3
100
AcDbLine
 10
-189.886586
 20
-38.387953
 30
0.0
 11
-190.110428
 21
-38.611796
 31
0.0
  0
LINE
  5
26B
330
24
100
AcDbEntity
  8
3
100
AcDbLine
 10
-190.149433
 20
-38.367958
 30
0.0
 11
-189.889454
 21
-38.107979
 31
0.0
  0
LINE
  5
26C
330
24
100
AcDbEntity
  8
3
100
AcDbLine
 10
-188.437878
 20
-36.656403
 30
0.0
 11
-188.177889
 21
-36.396414
 31
0.0
  0
LINE
  5
26D
330
24
100
AcDbEntity
  8
3
100
AcDbLine
 10
-190.149073
 20
-38.084755
 30
0.0
 11
-189.821275
 21
-37.756958
 31
0.0
  0
LINE
  5
26E
330
24
100
AcDbEntity
  8
3
100
AcDbLine
 10
-188.788898
 20
-36.724581
 30
0.0
 11
-188.461092
 21
-36.396774
 31
0.0
  0
LINE
  5
26F
330
24
100
AcDbEntity
  8
3
100
AcDbLine
 10
-190.089072
 20
-37.741911
 30
0.0
 11
-188.803936
 21
-36.456776
 31
0.0
  0
LINE
  5
270
330
24
100
AcDbEntity
  8
3
100
AcDbLine
 10
-189.858972
 20
-37.228969
 30
0.0
 11
-189.316878
 21
-36.686875
 31
0.0
  0
HATCH
  5
271
330
24
100
AcDbEntity
  8
3
100
AcDbHatch
 10
0.0
 20
0.0
 30
0.0
210
0.0
220
0.0
230
1.0
  2
_U
 70
     0
 71
     1
 91
        1
 92
        1
 93
        4
 72
     1
 10
-188.500915
 20
-39.05559
 11
-188.500915
 21
-37.401786
 72
     1
 10
-188.500915
 20
-37.401786
 11
-188.133403
 21
-37.401786
 72
     1
 10
-188.133403
 20
-37.401786
 11
-188.133403
 21
-39.05559
 72
     1
 10
-188.133403
 20
-39.05559
 11
-188.500915
 21
-39.05559
 97
        4
330
0
330
0
330
0
330
0
 75
     0
 76
     0
 52
45.0
 41
1.0
 77
     0
 78
     1
 53
45.0
 43
0.0
 44
0.0
 45
-0.141421
 46
0.141421
 79
     0
 98
        1
 10
0.0
 20
0.0
  0
LINE
  5
272
330
24
100
AcDbEntity
  8
3
100
AcDbLine
 10
-187.825925
 20
-37.693116
 30
0.0
 11
-187.56644
 21
-37.433631
 31
0.0
  0
LINE
  5
273
330
24
100
AcDbEntity
  8
3
100
AcDbLine
 10
-187.251752
 20
-37.401786
 30
0.0
 11
-187.839479
 21
-37.989513
 31
0.0
  0
LINE
  5
274
330
24
100
AcDbEntity
  8
3
100
AcDbLine
 10
-187.177873
 20
-37.610749
 30
0.0
 11
-187.262919
 21
-37.695796
 31
0.0
  0
LINE
  5
275
330
24
100
AcDbEntity
  8
3
100
AcDbLine
 10
-187.514166
 20
-37.947042
 30
0.0
 11
-187.737833
 21
-38.170709
 31
0.0
  0
LINE
  5
276
330
24
100
AcDbEntity
  8
3
100
AcDbLine
 10
-187.592373
 20
-38.308092
 30
0.0
 11
-187.380302
 21
-38.096021
 31
0.0
  0
LINE
  5
277
330
24
100
AcDbEntity
  8
3
100
AcDbLine
 10
-187.85777
 20
-38.856332
 30
0.0
 11
-187.763018
 21
-38.76158
 31
0.0
  0
LINE
  5
278
330
24
100
AcDbEntity
  8
3
100
AcDbLine
 10
-187.449931
 20
-38.448493
 30
0.0
 11
-187.233769
 21
-38.232331
 31
0.0
  0
LINE
  5
279
330
24
100
AcDbEntity
  8
3
100
AcDbLine
 10
-187.774185
 20
-39.05559
 30
0.0
 11
-187.119828
 21
-38.401233
 31
0.0
  0
LINE
  5
27A
330
24
100
AcDbEntity
  8
3
100
AcDbLine
 10
-187.484767
 20
-39.049014
 30
0.0
 11
-187.09257
 21
-38.656818
 31
0.0
  0
LINE
  5
27B
330
24
100
AcDbEntity
  8
3
100
AcDbLine
 10
-179.772639
 20
-36.391129
 30
0.0
 11
-180.232029
 21
-36.850518
 31
0.0
  0
LINE
  5
27C
330
24
100
AcDbEntity
  8
3
100
AcDbLine
 10
-179.489796
 20
-36.391129
 30
0.0
 11
-180.232029
 21
-37.133361
 31
0.0
  0
LINE
  5
27D
330
24
100
AcDbEntity
  8
3
100
AcDbLine
 10
-180.125733
 20
-37.309908
 30
0.0
 11
-179.206954
 21
-36.391129
 31
0.0
  0
LINE
  5
27E
330
24
100
AcDbEntity
  8
3
100
AcDbLine
 10
-179.842891
 20
-37.309908
 30
0.0
 11
-178.924111
 21
-36.391129
 31
0.0
  0
LINE
  5
27F
330
24
100
AcDbEntity
  8
3
100
AcDbLine
 10
-179.560048
 20
-37.309908
 30
0.0
 11
-178.641268
 21
-36.391129
 31
0.0
  0
LINE
  5
280
330
24
100
AcDbEntity
  8
3
100
AcDbLine
 10
-179.277205
 20
-37.309908
 30
0.0
 11
-178.358425
 21
-36.391129
 31
0.0
  0
LINE
  5
281
330
24
100
AcDbEntity
  8
3
100
AcDbLine
 10
-178.994362
 20
-37.309908
 30
0.0
 11
-178.075583
 21
-36.391129
 31
0.0
  0
LINE
  5
282
330
24
100
AcDbEntity
  8
3
100
AcDbLine
 10
-178.71152
 20
-37.309908
 30
0.0
 11
-177.79274
 21
-36.391129
 31
0.0
  0
LINE
  5
283
330
24
100
AcDbEntity
  8
3
100
AcDbLine
 10
-178.428677
 20
-37.309908
 30
0.0
 11
-177.554295
 21
-36.435526
 31
0.0
  0
LINE
  5
284
330
24
100
AcDbEntity
  8
3
100
AcDbLine
 10
-178.145834
 20
-37.309908
 30
0.0
 11
-177.39567
 21
-36.559744
 31
0.0
  0
LINE
  5
285
330
24
100
AcDbEntity
  8
3
100
AcDbLine
 10
-177.862992
 20
-37.309908
 30
0.0
 11
-177.303069
 21
-36.749986
 31
0.0
  0
LINE
  5
286
330
24
100
AcDbEntity
  8
3
100
AcDbLine
 10
-177.580149
 20
-37.309908
 30
0.0
 11
-177.291934
 21
-37.021693
 31
0.0
  0
LINE
  5
287
330
24
100
AcDbEntity
  8
3
100
AcDbLine
 10
-177.297306
 20
-37.309908
 30
0.0
 11
-177.291934
 21
-37.304536
 31
0.0
  0
LINE
  5
288
330
24
100
AcDbEntity
  8
3
100
AcDbLine
 10
-180.055482
 20
-36.391129
 30
0.0
 11
-180.232029
 21
-36.567676
 31
0.0
  0
LINE
  5
289
330
24
100
AcDbEntity
  8
3
100
AcDbLine
 10
-179.773191
 20
-38.550476
 30
0.0
 11
-178.959709
 21
-37.736995
 31
0.0
  0
LINE
  5
28A
330
24
100
AcDbEntity
  8
3
100
AcDbLine
 10
-179.525201
 20
-38.585329
 30
0.0
 11
-178.711719
 21
-37.771847
 31
0.0
  0
LINE
  5
28B
330
24
100
AcDbEntity
  8
3
100
AcDbLine
 10
-179.277211
 20
-38.620182
 30
0.0
 11
-178.463729
 21
-37.8067
 31
0.0
  0
LINE
  5
28C
330
24
100
AcDbEntity
  8
3
100
AcDbLine
 10
-179.029221
 20
-38.655034
 30
0.0
 11
-178.215739
 21
-37.841553
 31
0.0
  0
LINE
  5
28D
330
24
100
AcDbEntity
  8
3
100
AcDbLine
 10
-178.781231
 20
-38.689887
 30
0.0
 11
-177.967749
 21
-37.876405
 31
0.0
  0
LINE
  5
28E
330
24
100
AcDbEntity
  8
3
100
AcDbLine
 10
-178.533241
 20
-38.72474
 30
0.0
 11
-177.719759
 21
-37.911258
 31
0.0
  0
LINE
  5
28F
330
24
100
AcDbEntity
  8
3
100
AcDbLine
 10
-178.285251
 20
-38.759593
 30
0.0
 11
-177.507217
 21
-37.981559
 31
0.0
  0
LINE
  5
290
330
24
100
AcDbEntity
  8
3
100
AcDbLine
 10
-178.037261
 20
-38.794445
 30
0.0
 11
-177.364984
 21
-38.122169
 31
0.0
  0
LINE
  5
291
330
24
100
AcDbEntity
  8
3
100
AcDbLine
 10
-177.789271
 20
-38.829298
 30
0.0
 11
-177.293447
 21
-38.333474
 31
0.0
  0
LINE
  5
292
330
24
100
AcDbEntity
  8
3
100
AcDbLine
 10
-177.541281
 20
-38.864151
 30
0.0
 11
-177.291934
 21
-38.614804
 31
0.0
  0
LINE
  5
293
330
24
100
AcDbEntity
  8
3
100
AcDbLine
 10
-180.021181
 20
-38.515624
 30
0.0
 11
-179.207699
 21
-37.702142
 31
0.0
  0
LINE
  5
294
330
24
100
AcDbEntity
  8
3
100
AcDbLine
 10
-180.232029
 20
-38.443629
 30
0.0
 11
-179.455689
 21
-37.667289
 31
0.0
  0
LINE
  5
295
330
24
100
AcDbEntity
  8
3
100
AcDbLine
 10
-180.232029
 20
-38.160786
 30
0.0
 11
-179.703679
 21
-37.632436
 31
0.0
  0
LINE
  5
296
330
24
100
AcDbEntity
  8
3
100
AcDbLine
 10
-180.232029
 20
-37.877944
 30
0.0
 11
-179.951669
 21
-37.597584
 31
0.0
  0
LINE
  5
297
330
24
100
AcDbEntity
  8
3
100
AcDbLine
 10
-180.232029
 20
-37.595101
 30
0.0
 11
-180.199659
 21
-37.562731
 31
0.0
  0
LINE
  5
298
330
24
100
AcDbEntity
  8
3
100
AcDbLine
 10
-179.910456
 20
-40.066247
 30
0.0
 11
-178.991676
 21
-39.147468
 31
0.0
  0
LINE
  5
299
330
24
100
AcDbEntity
  8
3
100
AcDbLine
 10
-179.627613
 20
-40.066247
 30
0.0
 11
-178.708834
 21
-39.147468
 31
0.0
  0
LINE
  5
29A
330
24
100
AcDbEntity
  8
3
100
AcDbLine
 10
-179.344771
 20
-40.066247
 30
0.0
 11
-178.425991
 21
-39.147468
 31
0.0
  0
LINE
  5
29B
330
24
100
AcDbEntity
  8
3
100
AcDbLine
 10
-179.061928
 20
-40.066247
 30
0.0
 11
-178.143148
 21
-39.147468
 31
0.0
  0
LINE
  5
29C
330
24
100
AcDbEntity
  8
3
100
AcDbLine
 10
-178.779085
 20
-40.066247
 30
0.0
 11
-177.860305
 21
-39.147468
 31
0.0
  0
LINE
  5
29D
330
24
100
AcDbEntity
  8
3
100
AcDbLine
 10
-178.496242
 20
-40.066247
 30
0.0
 11
-177.602304
 21
-39.172309
 31
0.0
  0
LINE
  5
29E
330
24
100
AcDbEntity
  8
3
100
AcDbLine
 10
-178.2134
 20
-40.066247
 30
0.0
 11
-177.427832
 21
-39.280679
 31
0.0
  0
LINE
  5
29F
330
24
100
AcDbEntity
  8
3
100
AcDbLine
 10
-177.930557
 20
-40.066247
 30
0.0
 11
-177.318163
 21
-39.453853
 31
0.0
  0
LINE
  5
2A0
330
24
100
AcDbEntity
  8
3
100
AcDbLine
 10
-177.647714
 20
-40.066247
 30
0.0
 11
-177.291934
 21
-39.710467
 31
0.0
  0
LINE
  5
2A1
330
24
100
AcDbEntity
  8
3
100
AcDbLine
 10
-177.364872
 20
-40.066247
 30
0.0
 11
-177.291934
 21
-39.99331
 31
0.0
  0
LINE
  5
2A2
330
24
100
AcDbEntity
  8
3
100
AcDbLine
 10
-180.193299
 20
-40.066247
 30
0.0
 11
-179.274519
 21
-39.147468
 31
0.0
  0
LINE
  5
2A3
330
24
100
AcDbEntity
  8
3
100
AcDbLine
 10
-180.232029
 20
-39.822135
 30
0.0
 11
-179.557362
 21
-39.147468
 31
0.0
  0
LINE
  5
2A4
330
24
100
AcDbEntity
  8
3
100
AcDbLine
 10
-180.232029
 20
-39.539292
 30
0.0
 11
-179.840204
 21
-39.147468
 31
0.0
  0
LINE
  5
2A5
330
24
100
AcDbEntity
  8
3
100
AcDbLine
 10
-180.232029
 20
-39.256449
 30
0.0
 11
-180.123047
 21
-39.147468
 31
0.0
  0
LINE
  5
2A6
330
24
100
AcDbEntity
  8
3
100
AcDbLine
 10
-176.832544
 20
-39.46904
 30
0.0
 11
-176.510971
 21
-39.147468
 31
0.0
  0
LINE
  5
2A7
330
24
100
AcDbEntity
  8
3
100
AcDbLine
 10
-175.086863
 20
-37.723359
 30
0.0
 11
-174.17018
 21
-36.806676
 31
0.0
  0
LINE
  5
2A8
330
24
100
AcDbEntity
  8
3
100
AcDbLine
 10
-176.832544
 20
-39.751883
 30
0.0
 11
-176.228129
 21
-39.147468
 31
0.0
  0
LINE
  5
2A9
330
24
100
AcDbEntity
  8
3
100
AcDbLine
 10
-175.086863
 20
-38.006202
 30
0.0
 11
-174.168083
 21
-37.087422
 31
0.0
  0
LINE
  5
2AA
330
24
100
AcDbEntity
  8
3
100
AcDbLine
 10
-174.168083
 20
-37.370265
 30
0.0
 11
-175.123102
 21
-38.325284
 31
0.0
  0
LINE
  5
2AB
330
24
100
AcDbEntity
  8
3
100
AcDbLine
 10
-175.909046
 20
-39.111228
 30
0.0
 11
-176.832544
 21
-40.034726
 31
0.0
  0
LINE
  5
2AC
330
24
100
AcDbEntity
  8
3
100
AcDbLine
 10
-174.168083
 20
-37.653108
 30
0.0
 11
-176.581223
 21
-40.066247
 31
0.0
  0
LINE
  5
2AD
330
24
100
AcDbEntity
  8
3
100
AcDbLine
 10
-174.168083
 20
-37.93595
 30
0.0
 11
-176.29838
 21
-40.066247
 31
0.0
  0
LINE
  5
2AE
330
24
100
AcDbEntity
  8
3
100
AcDbLine
 10
-174.176301
 20
-38.22701
 30
0.0
 11
-176.00732
 21
-40.05803
 31
0.0
  0
LINE
  5
2AF
330
24
100
AcDbEntity
  8
3
100
AcDbLine
 10
-174.237849
 20
-38.571402
 30
0.0
 11
-175.662929
 21
-39.996481
 31
0.0
  0
LINE
  5
2B0
330
24
100
AcDbEntity
  8
3
100
AcDbLine
 10
-174.098401
 20
-38.714797
 30
0.0
 11
-175.179465
 21
-39.79586
 31
0.0
  0
LINE
  5
2B1
330
24
100
AcDbEntity
  8
3
100
AcDbLine
 10
-173.929316
 20
-38.828554
 30
0.0
 11
-174.592298
 21
-39.491536
 31
0.0
  0
LINE
  5
2B2
330
24
100
AcDbEntity
  8
3
100
AcDbLine
 10
-173.746202
 20
-38.928283
 30
0.0
 11
-174.422085
 21
-39.604166
 31
0.0
  0
LINE
  5
2B3
330
24
100
AcDbEntity
  8
3
100
AcDbLine
 10
-173.547819
 20
-39.012742
 30
0.0
 11
-174.242025
 21
-39.706949
 31
0.0
  0
LINE
  5
2B4
330
24
100
AcDbEntity
  8
3
100
AcDbLine
 10
-173.332224
 20
-39.07999
 30
0.0
 11
-174.051564
 21
-39.79933
 31
0.0
  0
LINE
  5
2B5
330
24
100
AcDbEntity
  8
3
100
AcDbLine
 10
-173.096351
 20
-39.12696
 30
0.0
 11
-173.849938
 21
-39.880547
 31
0.0
  0
LINE
  5
2B6
330
24
100
AcDbEntity
  8
3
100
AcDbLine
 10
-172.835117
 20
-39.148569
 30
0.0
 11
-173.636101
 21
-39.949553
 31
0.0
  0
LINE
  5
2B7
330
24
100
AcDbEntity
  8
3
100
AcDbLine
 10
-172.698036
 20
-39.29433
 30
0.0
 11
-173.408614
 21
-40.004909
 31
0.0
  0
LINE
  5
2B8
330
24
100
AcDbEntity
  8
3
100
AcDbLine
 10
-172.698036
 20
-39.577173
 30
0.0
 11
-173.165455
 21
-40.044592
 31
0.0
  0
LINE
  5
2B9
330
24
100
AcDbEntity
  8
3
100
AcDbLine
 10
-172.698036
 20
-39.860015
 30
0.0
 11
-172.903672
 21
-40.065652
 31
0.0
  0
LINE
  5
2BA
330
24
100
AcDbEntity
  8
3
100
AcDbLine
 10
-176.832544
 20
-39.186198
 30
0.0
 11
-176.793814
 21
-39.147468
 31
0.0
  0
LINE
  5
2BB
330
24
100
AcDbEntity
  8
3
100
AcDbLine
 10
-175.086863
 20
-37.440516
 30
0.0
 11
-174.243963
 21
-36.597617
 31
0.0
  0
LINE
  5
2BC
330
24
100
AcDbEntity
  8
3
100
AcDbLine
 10
-175.239097
 20
-37.309908
 30
0.0
 11
-174.387797
 21
-36.458607
 31
0.0
  0
LINE
  5
2BD
330
24
100
AcDbEntity
  8
3
100
AcDbLine
 10
-175.52194
 20
-37.309908
 30
0.0
 11
-174.603772
 21
-36.39174
 31
0.0
  0
LINE
  5
2BE
330
24
100
AcDbEntity
  8
3
100
AcDbLine
 10
-175.804783
 20
-37.309908
 30
0.0
 11
-174.886003
 21
-36.391129
 31
0.0
  0
LINE
  5
2BF
330
24
100
AcDbEntity
  8
3
100
AcDbLine
 10
-176.087625
 20
-37.309908
 30
0.0
 11
-175.168846
 21
-36.391129
 31
0.0
  0
LINE
  5
2C0
330
24
100
AcDbEntity
  8
3
100
AcDbLine
 10
-176.373154
 20
-37.312594
 30
0.0
 11
-176.370468
 21
-37.309908
 31
0.0
  0
LINE
  5
2C1
330
24
100
AcDbEntity
  8
3
100
AcDbLine
 10
-176.370468
 20
-37.309908
 30
0.0
 11
-175.451689
 21
-36.391129
 31
0.0
  0
LINE
  5
2C2
330
24
100
AcDbEntity
  8
3
100
AcDbLine
 10
-176.373154
 20
-37.029752
 30
0.0
 11
-175.734531
 21
-36.391129
 31
0.0
  0
LINE
  5
2C3
330
24
100
AcDbEntity
  8
3
100
AcDbLine
 10
-176.373154
 20
-36.746909
 30
0.0
 11
-176.017374
 21
-36.391129
 31
0.0
  0
LINE
  5
2C4
330
24
100
AcDbEntity
  8
3
100
AcDbLine
 10
-176.373154
 20
-36.464066
 30
0.0
 11
-176.300217
 21
-36.391129
 31
0.0
  0
HATCH
  5
2C5
330
24
100
AcDbEntity
  8
3
100
AcDbHatch
 10
0.0
 20
0.0
 30
0.0
210
0.0
220
0.0
230
1.0
  2
_U
 70
     0
 71
     1
 91
        1
 92
        1
 93
        1
 72
     2
 10
-173.892449
 20
-36.666762
 40
0.275634
 50
0.0
 51
360.0
 73
     1
 97
        1
330
0
 75
     0
 76
     0
 52
45.0
 41
1.0
 77
     0
 78
     1
 53
45.0
 43
0.0
 44
0.0
 45
-0.141421
 46
0.141421
 79
     0
 98
        1
 10
0.0
 20
0.0
  0
HATCH
  5
2C6
330
24
100
AcDbEntity
  8
3
100
AcDbHatch
 10
0.0
 20
0.0
 30
0.0
210
0.0
220
0.0
230
1.0
  2
_U
 70
     0
 71
     1
 91
        1
 92
        1
 93
        1
 72
     2
 10
-173.341181
 20
-36.666762
 40
0.275634
 50
0.0
 51
360.0
 73
     1
 97
        1
330
0
 75
     0
 76
     0
 52
45.0
 41
1.0
 77
     0
 78
     1
 53
45.0
 43
0.0
 44
0.0
 45
-0.141421
 46
0.141421
 79
     0
 98
        1
 10
0.0
 20
0.0
  0
LINE
  5
2C7
330
24
100
AcDbEntity
  8
3
100
AcDbLine
 10
-171.927988
 20
-36.391129
 30
0.0
 11
-172.663012
 21
-37.126152
 31
0.0
  0
LINE
  5
2C8
330
24
100
AcDbEntity
  8
3
100
AcDbLine
 10
-171.645146
 20
-36.391129
 30
0.0
 11
-173.049382
 21
-37.795365
 31
0.0
  0
LINE
  5
2C9
330
24
100
AcDbEntity
  8
3
100
AcDbLine
 10
-171.362303
 20
-36.391129
 30
0.0
 11
-172.83235
 21
-37.861176
 31
0.0
  0
LINE
  5
2CA
330
24
100
AcDbEntity
  8
3
100
AcDbLine
 10
-171.07946
 20
-36.391129
 30
0.0
 11
-172.549508
 21
-37.861176
 31
0.0
  0
LINE
  5
2CB
330
24
100
AcDbEntity
  8
3
100
AcDbLine
 10
-170.796617
 20
-36.391129
 30
0.0
 11
-171.715397
 21
-37.309908
 31
0.0
  0
LINE
  5
2CC
330
24
100
AcDbEntity
  8
3
100
AcDbLine
 10
-171.715397
 20
-37.309908
 30
0.0
 11
-172.266665
 21
-37.861176
 31
0.0
  0
LINE
  5
2CD
330
24
100
AcDbEntity
  8
3
100
AcDbLine
 10
-170.513775
 20
-36.391129
 30
0.0
 11
-171.432554
 21
-37.309908
 31
0.0
  0
LINE
  5
2CE
330
24
100
AcDbEntity
  8
3
100
AcDbLine
 10
-170.282156
 20
-36.442353
 30
0.0
 11
-171.149712
 21
-37.309908
 31
0.0
  0
LINE
  5
2CF
330
24
100
AcDbEntity
  8
3
100
AcDbLine
 10
-171.503622
 20
-37.946661
 30
0.0
 11
-171.234381
 21
-37.67742
 31
0.0
  0
LINE
  5
2D0
330
24
100
AcDbEntity
  8
3
100
AcDbLine
 10
-170.952354
 20
-37.395394
 30
0.0
 11
-170.128208
 21
-36.571248
 31
0.0
  0
LINE
  5
2D1
330
24
100
AcDbEntity
  8
3
100
AcDbLine
 10
-171.503622
 20
-38.229504
 30
0.0
 11
-170.952354
 21
-37.678236
 31
0.0
  0
LINE
  5
2D2
330
24
100
AcDbEntity
  8
3
100
AcDbLine
 10
-170.951538
 20
-37.67742
 30
0.0
 11
-170.041213
 21
-36.767095
 31
0.0
  0
LINE
  5
2D3
330
24
100
AcDbEntity
  8
3
100
AcDbLine
 10
-172.238646
 20
-39.247371
 30
0.0
 11
-172.138743
 21
-39.147468
 31
0.0
  0
LINE
  5
2D4
330
24
100
AcDbEntity
  8
3
100
AcDbLine
 10
-171.503622
 20
-38.512347
 30
0.0
 11
-170.033575
 21
-37.042299
 31
0.0
  0
LINE
  5
2D5
330
24
100
AcDbEntity
  8
3
100
AcDbLine
 10
-172.238646
 20
-39.530213
 30
0.0
 11
-171.833429
 21
-39.124997
 31
0.0
  0
LINE
  5
2D6
330
24
100
AcDbEntity
  8
3
100
AcDbLine
 10
-171.304632
 20
-38.5962
 30
0.0
 11
-170.033575
 21
-37.325142
 31
0.0
  0
LINE
  5
2D7
330
24
100
AcDbEntity
  8
3
100
AcDbLine
 10
-170.033575
 20
-37.607985
 30
0.0
 11
-172.238646
 21
-39.813056
 31
0.0
  0
LINE
  5
2D8
330
24
100
AcDbEntity
  8
3
100
AcDbLine
 10
-170.033575
 20
-37.890828
 30
0.0
 11
-172.208994
 21
-40.066247
 31
0.0
  0
LINE
  5
2D9
330
24
100
AcDbEntity
  8
3
100
AcDbLine
 10
-171.921763
 20
-40.061858
 30
0.0
 11
-170.037963
 21
-38.178059
 31
0.0
  0
LINE
  5
2DA
330
24
100
AcDbEntity
  8
3
100
AcDbLine
 10
-171.588849
 20
-40.011788
 30
0.0
 11
-170.088034
 21
-38.510972
 31
0.0
  0
LINE
  5
2DB
330
24
100
AcDbEntity
  8
3
100
AcDbLine
 10
-171.143169
 20
-39.84895
 30
0.0
 11
-170.250872
 21
-38.956653
 31
0.0
  0
LINE
  5
2DC
330
24
100
AcDbEntity
  8
3
100
AcDbLine
 10
-172.210831
 20
-36.391129
 30
0.0
 11
-172.276642
 21
-36.456939
 31
0.0
  0
LINE
  5
2DD
330
24
100
AcDbEntity
  8
3
100
AcDbLine
 10
-167.608808
 20
-36.447067
 30
0.0
 11
-168.471649
 21
-37.309908
 31
0.0
  0
LINE
  5
2DE
330
24
100
AcDbEntity
  8
3
100
AcDbLine
 10
-167.457923
 20
-36.579024
 30
0.0
 11
-168.188807
 21
-37.309908
 31
0.0
  0
LINE
  5
2DF
330
24
100
AcDbEntity
  8
3
100
AcDbLine
 10
-167.374761
 20
-36.778706
 30
0.0
 11
-167.905964
 21
-37.309908
 31
0.0
  0
LINE
  5
2E0
330
24
100
AcDbEntity
  8
3
100
AcDbLine
 10
-167.369114
 20
-37.055901
 30
0.0
 11
-167.623121
 21
-37.309908
 31
0.0
  0
LINE
  5
2E1
330
24
100
AcDbEntity
  8
3
100
AcDbLine
 10
-167.835712
 20
-36.391129
 30
0.0
 11
-168.754492
 21
-37.309908
 31
0.0
  0
LINE
  5
2E2
330
24
100
AcDbEntity
  8
3
100
AcDbLine
 10
-168.118555
 20
-36.391129
 30
0.0
 11
-169.037335
 21
-37.309908
 31
0.0
  0
LINE
  5
2E3
330
24
100
AcDbEntity
  8
3
100
AcDbLine
 10
-168.401398
 20
-36.391129
 30
0.0
 11
-169.320177
 21
-37.309908
 31
0.0
  0
LINE
  5
2E4
330
24
100
AcDbEntity
  8
3
100
AcDbLine
 10
-168.68424
 20
-36.391129
 30
0.0
 11
-169.574185
 21
-37.281073
 31
0.0
  0
LINE
  5
2E5
330
24
100
AcDbEntity
  8
3
100
AcDbLine
 10
-168.967083
 20
-36.391129
 30
0.0
 11
-169.574185
 21
-36.99823
 31
0.0
  0
LINE
  5
2E6
330
24
100
AcDbEntity
  8
3
100
AcDbLine
 10
-169.249926
 20
-36.391129
 30
0.0
 11
-169.574185
 21
-36.715388
 31
0.0
  0
LINE
  5
2E7
330
24
100
AcDbEntity
  8
3
100
AcDbLine
 10
-169.532769
 20
-36.391129
 30
0.0
 11
-169.574185
 21
-36.432545
 31
0.0
  0
LINE
  5
2E8
330
24
100
AcDbEntity
  8
3
100
AcDbLine
 10
-169.574185
 20
-40.020308
 30
0.0
 11
-168.701344
 21
-39.147468
 31
0.0
  0
LINE
  5
2E9
330
24
100
AcDbEntity
  8
3
100
AcDbLine
 10
-169.337281
 20
-40.066247
 30
0.0
 11
-168.418501
 21
-39.147468
 31
0.0
  0
LINE
  5
2EA
330
24
100
AcDbEntity
  8
3
100
AcDbLine
 10
-169.054438
 20
-40.066247
 30
0.0
 11
-168.135659
 21
-39.147468
 31
0.0
  0
LINE
  5
2EB
330
24
100
AcDbEntity
  8
3
100
AcDbLine
 10
-168.771596
 20
-40.066247
 30
0.0
 11
-167.852816
 21
-39.147468
 31
0.0
  0
LINE
  5
2EC
330
24
100
AcDbEntity
  8
3
100
AcDbLine
 10
-168.488753
 20
-40.066247
 30
0.0
 11
-167.62001
 21
-39.197505
 31
0.0
  0
LINE
  5
2ED
330
24
100
AcDbEntity
  8
3
100
AcDbLine
 10
-168.20591
 20
-40.066247
 30
0.0
 11
-167.465271
 21
-39.325608
 31
0.0
  0
LINE
  5
2EE
330
24
100
AcDbEntity
  8
3
100
AcDbLine
 10
-167.923068
 20
-40.066247
 30
0.0
 11
-167.377306
 21
-39.520486
 31
0.0
  0
LINE
  5
2EF
330
24
100
AcDbEntity
  8
3
100
AcDbLine
 10
-167.640225
 20
-40.066247
 30
0.0
 11
-167.369114
 21
-39.795136
 31
0.0
  0
LINE
  5
2F0
330
24
100
AcDbEntity
  8
3
100
AcDbLine
 10
-167.357382
 20
-40.066247
 30
0.0
 11
-167.369114
 21
-40.077979
 31
0.0
  0
LINE
  5
2F1
330
24
100
AcDbEntity
  8
3
100
AcDbLine
 10
-169.574185
 20
-39.737466
 30
0.0
 11
-168.984187
 21
-39.147468
 31
0.0
  0
LINE
  5
2F2
330
24
100
AcDbEntity
  8
3
100
AcDbLine
 10
-169.574185
 20
-39.454623
 30
0.0
 11
-169.26703
 21
-39.147468
 31
0.0
  0
LINE
  5
2F3
330
24
100
AcDbEntity
  8
3
100
AcDbLine
 10
-169.574185
 20
-39.17178
 30
0.0
 11
-169.549872
 21
-39.147468
 31
0.0
  0
TEXT
  5
2F4
330
24
100
AcDbEntity
  8
3
100
AcDbText
 10
-171.868556
 20
31.494926
 30
0.0
 40
7.0
  1
φ３４
 41
0.9130434782608705
 72
     5
 11
-152.268556
 21
31.494926
 31
0.0
100
AcDbText
  0
DIMENSION
  5
2F5
330
24
100
AcDbEntity
  8
3
100
AcDbDimension
  2
*D3
 10
-108.868556
 20
30.494926
 30
0.0
 11
-125.868556
 21
32.494926
 31
0.0
 70
     1
  3
STANDARD
100
AcDbAlignedDimension
 13
-142.868556
 23
30.494926
 33
0.0
 14
-108.868556
 24
30.494926
 34
0.0
  0
TEXT
  5
2F6
330
24
100
AcDbEntity
  8
3
100
AcDbText
 10
-117.186722
 20
108.711857
 30
0.0
 40
6.999667
  1
吐水
 41
0.8640000274298764
 72
     5
 11
-104.587321
 21
108.711857
 31
0.0
100
AcDbText
  0
DIMENSION
  5
2F7
330
24
100
AcDbEntity
  8
3
100
AcDbDimension
  2
*D4
 10
-125.868556
 20
112.181032
 30
0.0
 11
-150.838284
 21
112.870264
 31
0.0
 70
     2
  3
STANDARD
100
AcDb2LineAngularDimension
 13
-173.119042
 23
152.689236
 33
0.0
 14
-125.868556
 24
152.689236
 34
0.0
 15
-125.868556
 25
152.689236
 35
0.0
 16
-158.970012
 26
119.587779
 36
0.0
1001
ACAD
1000
DSTYLE
1002
{
1070
   275
1070
     0
1070
   179
1070
     0
1002
}
  0
TEXT
  5
2F8
330
24
100
AcDbEntity
  8
3
100
AcDbText
 10
-183.670894
 20
154.655132
 30
0.0
 40
6.999667
  1
止水
 41
0.8639999588551858
 72
     5
 11
-171.071494
 21
154.655132
 31
0.0
100
AcDbText
  0
TEXT
  5
2F9
330
24
100
AcDbEntity
  8
3
100
AcDbText
 10
-127.482544
 20
206.048779
 30
0.0
 40
7.0
  1
＊ハンドル位置ハ製造上ノ誤差ニヨリ
 41
0.8456375838926173
 72
     5
 11
-9.882544
 21
206.048779
 31
0.0
100
AcDbText
  0
TEXT
  5
2FA
330
24
100
AcDbEntity
  8
3
100
AcDbText
 10
-127.482544
 20
206.048779
 30
0.0
 40
7.0
  1
＊ハンドル位置ハ製造上ノ誤差ニヨリ
 41
0.8456375838926173
 72
     5
 11
-9.882544
 21
206.048779
 31
0.0
100
AcDbText
  0
TEXT
  5
2FB
330
24
100
AcDbEntity
  8
3
100
AcDbText
 10
-120.482544
 20
198.048779
 30
0.0
 40
7.0
  1
左図ニ示シタ止水位置ノヨウニパイ
 41
0.845673505798394
 72
     5
 11
-9.882544
 21
198.048779
 31
0.0
100
AcDbText
  0
TEXT
  5
2FC
330
24
100
AcDbEntity
  8
3
100
AcDbText
 10
-120.482544
 20
190.048779
 30
0.0
 40
7.0
  1
プノ真上ニコナイコトガアリマス
 41
0.8393194706994327
 72
     5
 11
-16.882544
 21
190.048779
 31
0.0
100
AcDbText
  0
TEXT
  5
2FD
330
24
100
AcDbEntity
  8
3
100
AcDbText
 10
-120.482544
 20
198.048779
 30
0.0
 40
7.0
  1
左図ニ示シタ止水位置ノヨウニパイ
 41
0.845673505798394
 72
     5
 11
-9.882544
 21
198.048779
 31
0.0
100
AcDbText
  0
TEXT
  5
2FE
330
24
100
AcDbEntity
  8
3
100
AcDbText
 10
-120.482544
 20
190.048779
 30
0.0
 40
7.0
  1
プノ真上ニコナイコトガアリマス
 41
0.8393194706994327
 72
     5
 11
-16.882544
 21
190.048779
 31
0.0
100
AcDbText
  0
ARC
  5
2FF
330
24
100
AcDbEntity
  8
3
100
AcDbCircle
 10
130.710204
 20
-38.065356
 30
0.0
 40
2.0
100
AcDbArc
 50
0.0
 51
90.0
  0
ARC
  5
300
330
24
100
AcDbEntity
  8
3
100
AcDbCircle
 10
130.710204
 20
-46.065356
 30
0.0
 40
2.0
100
AcDbArc
 50
270.0
 51
360.0
  0
ARC
  5
301
330
24
100
AcDbEntity
  8
3
100
AcDbCircle
 10
108.710204
 20
-46.065356
 30
0.0
 40
2.0
100
AcDbArc
 50
180.0
 51
270.0
  0
ARC
  5
302
330
24
100
AcDbEntity
  8
3
100
AcDbCircle
 10
108.710204
 20
-38.065356
 30
0.0
 40
2.0
100
AcDbArc
 50
90.0
 51
180.0
  0
HATCH
  5
303
330
24
100
AcDbEntity
  8
3
100
AcDbHatch
 10
0.0
 20
0.0
 30
0.0
210
0.0
220
0.0
230
1.0
  2
_U
 70
     0
 71
     1
 91
        1
 92
        1
 93
        8
 72
     1
 10
130.710204
 20
-36.065356
 11
108.710204
 21
-36.065356
 72
     2
 10
108.710204
 20
-38.065356
 40
2.0
 50
90.0
 51
180.0
 73
     1
 72
     1
 10
106.710204
 20
-38.065356
 11
106.710204
 21
-46.065356
 72
     2
 10
108.710204
 20
-46.065356
 40
2.0
 50
180.0
 51
270.0
 73
     1
 72
     1
 10
108.710204
 20
-48.065356
 11
130.710204
 21
-48.065356
 72
     2
 10
130.710204
 20
-46.065356
 40
2.0
 50
270.0
 51
360.0
 73
     1
 72
     1
 10
132.710204
 20
-46.065356
 11
132.710204
 21
-38.065356
 72
     2
 10
130.710204
 20
-38.065356
 40
2.0
 50
0.0
 51
90.0
 73
     1
 97
        8
330
0
330
0
330
0
330
0
330
0
330
0
330
0
330
0
 75
     0
 76
     0
 52
45.0
 41
1.0
 77
     0
 78
     1
 53
45.0
 43
0.0
 44
0.0
 45
-1.414214
 46
1.414214
 79
     0
 98
        1
 10
0.0
 20
0.0
  0
LINE
  5
304
330
24
100
AcDbEntity
  8
3
100
AcDbLine
 10
155.443358
 20
-30.280511
 30
0.0
 11
155.443358
 21
-38.280511
 31
0.0
  0
LINE
  5
305
330
24
100
AcDbEntity
  8
3
100
AcDbLine
 10
181.443358
 20
-30.280511
 30
0.0
 11
181.443358
 21
-38.280511
 31
0.0
  0
LINE
  5
306
330
24
100
AcDbEntity
  8
3
100
AcDbLine
 10
157.443358
 20
-28.280511
 30
0.0
 11
179.443358
 21
-28.280511
 31
0.0
  0
LINE
  5
307
330
24
100
AcDbEntity
  8
3
100
AcDbLine
 10
157.443358
 20
-40.280511
 30
0.0
 11
179.443358
 21
-40.280511
 31
0.0
  0
ARC
  5
308
330
24
100
AcDbEntity
  8
3
100
AcDbCircle
 10
179.443358
 20
-30.280511
 30
0.0
 40
2.0
100
AcDbArc
 50
0.0
 51
90.0
  0
ARC
  5
309
330
24
100
AcDbEntity
  8
3
100
AcDbCircle
 10
179.443358
 20
-38.280511
 30
0.0
 40
2.0
100
AcDbArc
 50
270.0
 51
360.0
  0
ARC
  5
30A
330
24
100
AcDbEntity
  8
3
100
AcDbCircle
 10
157.443358
 20
-38.280511
 30
0.0
 40
2.0
100
AcDbArc
 50
180.0
 51
270.0
  0
ARC
  5
30B
330
24
100
AcDbEntity
  8
3
100
AcDbCircle
 10
157.443358
 20
-30.280511
 30
0.0
 40
2.0
100
AcDbArc
 50
90.0
 51
180.0
  0
LWPOLYLINE
  5
30C
330
24
100
AcDbEntity
  8
3
100
AcDbPolyline
 90
        2
 70
     0
 43
0.0
 10
132.710204
 20
-39.459051
 10
155.598969
 20
-33.670201
  0
TEXT
  5
310
330
24
100
AcDbEntity
  8
3
100
AcDbText
 10
156.754822
 20
-38.165637
 30
0.0
 40
4.0
  1
１２Ａ２６３
 41
0.8721804511278202
 72
     5
 11
179.954822
 21
-38.165637
 31
0.0
100
AcDbText
  0
TEXT
  5
311
330
24
100
AcDbEntity
  8
3
100
AcDbText
 10
336.070276
 20
-271.880939
 30
0.0
 40
6.4
  1
５０２２２１
 41
0.8969072164948454
 72
     5
 11
373.190276
 21
-271.880939
 31
0.0
100
AcDbText
  0
TEXT
  5
312
330
24
100
AcDbEntity
  8
3
100
AcDbText
 10
65.002039
 20
-235.834186
 30
0.0
 40
7.0
  1
ＭＬ０５３
 41
0.8807339449541287
 72
     5
 11
98.602039
 21
-235.834186
 31
0.0
100
AcDbText
  0
TEXT
  5
313
330
24
100
AcDbEntity
  8
3
100
AcDbText
 10
345.098131
 20
-256.100293
 30
0.0
 40
6.0
  1
１６　　４　２０
 41
0.8571428571428562
 72
     5
 11
391.898131
 21
-256.100293
 31
0.0
100
AcDbText
  0
DIMENSION
  5
314
330
24
100
AcDbEntity
  8
3
100
AcDbDimension
  2
*D5
 10
-125.868556
 20
-99.653908
 30
0.0
 11
-187.275818
 21
-95.153908
 31
0.0
 70
    32
  3
STANDARD
100
AcDbAlignedDimension
 13
-248.68308
 23
-1.540156
 33
0.0
 14
-125.868556
 24
-99.653908
 34
0.0
100
AcDbRotatedDimension
  0
DIMENSION
  5
315
330
24
100
AcDbEntity
  8
3
100
AcDbDimension
  2
*D6
 10
-286.6651
 20
-1.540156
 30
0.0
 11
-294.6651
 21
-30.302756
 31
0.0
 70
    32
  3
STANDARD
100
AcDbAlignedDimension
 13
-146.868556
 23
-59.065356
 33
0.0
 14
-248.68308
 24
-1.540156
 34
0.0
 50
90.0
100
AcDbRotatedDimension
  0
DIMENSION
  5
316
330
24
100
AcDbEntity
  8
3
100
AcDbDimension
  2
*D7
 10
-248.68308
 20
-1.542243
 30
0.0
 11
-242.16745
 21
-25.055051
 31
0.0
 70
     2
  3
STANDARD
100
AcDb2LineAngularDimension
 13
-248.683868
 23
-1.542104
 33
0.0
 14
-248.68308
 24
-1.53994
 34
0.0
 15
-248.68308
 25
-1.53994
 35
0.0
 16
-252.681579
 26
-24.216553
 36
0.0
1001
ACAD
1000
DSTYLE
1002
{
1070
   275
1070
     0
1070
   179
1070
     0
1002
}
  0
TEXT
  5
317
330
24
100
AcDbEntity
  8
3
100
AcDbText
 10
156.69812
 20
-33.408927
 30
0.0
 40
4.0
  1
５０２２２１
 41
0.896907216494846
 72
     5
 11
179.89812
 21
-33.408927
 31
0.0
100
AcDbText
  0
TEXT
  5
318
330
24
100
AcDbEntity
  8
3
100
AcDbText
 10
358.222772
 20
-240.171024
 30
0.0
 40
7.0
  1
水谷　小野
 41
0.8433382137628103
 72
     5
 11
391.822772
 21
-240.171024
 31
0.0
100
AcDbText
  0
ENDSEC
  0
SECTION
  2
OBJECTS
  0
DICTIONARY
  5
374
330
0
100
AcDbDictionary
  3
ACAD_GROUP
350
375
  3
ACAD_MLINESTYLE
350
376
  3
ACAD_SCALELIST
350
37F
  3
APPDATA
350
3C2
  3
DWGPROPS
350
3C3
  0
DICTIONARY
  5
375
102
{ACAD_REACTORS
330
374
102
}
330
374
100
AcDbDictionary
  0
DICTIONARY
  5
376
102
{ACAD_REACTORS
330
374
102
}
330
374
100
AcDbDictionary
  3
STANDARD
350
377
  0
DICTIONARY
  5
37F
102
{ACAD_REACTORS
330
374
102
}
330
374
100
AcDbDictionary
  0
DICTIONARY
  5
3C2
102
{ACAD_REACTORS
330
374
102
}
330
374
100
AcDbDictionary
  0
XRECORD
  5
3C3
102
{ACAD_REACTORS
330
374
102
}
330
374
100
AcDbXrecord
  1
DWGPROPS COOKIE
  2

  3

  4

  6

  7

  8
emboss
  9

300
=
301
=
302
=
303
=
304
=
305
=
306
=
307
=
308
=
309
=
 40
0.0
 41
0.0
 42
2459488.248957095
  1

 90
        0
  0
MLINESTYLE
  5
377
102
{ACAD_REACTORS
330
376
102
}
330
376
100
AcDbMlineStyle
  2
Standard
 70
     0
  3

 62
     0
 51
90.0
 52
90.0
 71
     2
 49
0.5
 62
   256
  6
BYLAYER
 49
-0.5
 62
   256
  6
BYLAYER
  0
ENDSEC
  0
EOF
