  0
SECTION
  2
HEADER
  9
$ACADVER
  1
AC1015
  9
$ACADMAINTVER
 70
    20
  9
$DWGCODEPAGE
  3
ANSI_932
  9
$INSBASE
 10
0.0
 20
0.0
 30
0.0
  9
$EXTMIN
 10
4.0
 20
54.0
 30
0.0
  9
$EXTMAX
 10
2784.000000000002
 20
1974.0
 30
0.0
  9
$LIMMIN
 10
0.0
 20
0.0
  9
$LIMMAX
 10
29700.0
 20
21000.0
  9
$ORTHOMODE
 70
     1
  9
$REGENMODE
 70
     1
  9
$FILLMODE
 70
     1
  9
$QTEXTMODE
 70
     0
  9
$MIRRTEXT
 70
     1
  9
$LTSCALE
 40
4.0
  9
$ATTMODE
 70
     1
  9
$TEXTSIZE
 40
25.0
  9
$TRACEWID
 40
1.0
  9
$TEXTSTYLE
  7
明朝
  9
$CLAYER
  8
実形
  9
$CELTYPE
  6
ByLayer
  9
$CECOLOR
 62
     1
  9
$CELTSCALE
 40
1.0
  9
$DISPSILH
 70
     0
  9
$DIMSCALE
 40
1.0
  9
$DIMASZ
 40
35.0
  9
$DIMEXO
 40
65.0
  9
$DIMDLI
 40
3.75
  9
$DIMRND
 40
0.0
  9
$DIMDLE
 40
0.0
  9
$DIMEXE
 40
0.0
  9
$DIMTP
 40
0.0
  9
$DIMTM
 40
0.0
  9
$DIMTXT
 40
25.0
  9
$DIMCEN
 40
2.5
  9
$DIMTSZ
 40
0.0
  9
$DIMTOL
 70
     0
  9
$DIMLIM
 70
     0
  9
$DIMTIH
 70
     0
  9
$DIMTOH
 70
     0
  9
$DIMSE1
 70
     0
  9
$DIMSE2
 70
     0
  9
$DIMTAD
 70
     1
  9
$DIMZIN
 70
     8
  9
$DIMBLK
  1
DotSmall
  9
$DIMASO
 70
     1
  9
$DIMSHO
 70
     1
  9
$DIMPOST
  1

  9
$DIMAPOST
  1

  9
$DIMALT
 70
     0
  9
$DIMALTD
 70
     3
  9
$DIMALTF
 40
0.03937007874016
  9
$DIMLFAC
 40
1.0
  9
$DIMTOFL
 70
     1
  9
$DIMTVP
 40
0.0
  9
$DIMTIX
 70
     0
  9
$DIMSOXD
 70
     0
  9
$DIMSAH
 70
     0
  9
$DIMBLK1
  1

  9
$DIMBLK2
  1

  9
$DIMSTYLE
  2
ISO-25
  9
$DIMCLRD
 70
     0
  9
$DIMCLRE
 70
     0
  9
$DIMCLRT
 70
     0
  9
$DIMTFAC
 40
1.0
  9
$DIMGAP
 40
6.25
  9
$DIMJUST
 70
     0
  9
$DIMSD1
 70
     0
  9
$DIMSD2
 70
     0
  9
$DIMTOLJ
 70
     0
  9
$DIMTZIN
 70
     8
  9
$DIMALTZ
 70
     0
  9
$DIMALTTZ
 70
     0
  9
$DIMUPT
 70
     0
  9
$DIMDEC
 70
     2
  9
$DIMTDEC
 70
     2
  9
$DIMALTU
 70
     2
  9
$DIMALTTD
 70
     3
  9
$DIMTXSTY
  7
Standard
  9
$DIMAUNIT
 70
     0
  9
$DIMADEC
 70
     0
  9
$DIMALTRND
 40
0.0
  9
$DIMAZIN
 70
     0
  9
$DIMDSEP
 70
    46
  9
$DIMATFIT
 70
     3
  9
$DIMFRAC
 70
     0
  9
$DIMLDRBLK
  1
Open30
  9
$DIMLUNIT
 70
     2
  9
$DIMLWD
 70
    18
  9
$DIMLWE
 70
    18
  9
$DIMTMOVE
 70
     2
  9
$LUNITS
 70
     2
  9
$LUPREC
 70
     2
  9
$SKETCHINC
 40
1.0
  9
$FILLETRAD
 40
30.0
  9
$AUNITS
 70
     0
  9
$AUPREC
 70
     0
  9
$MENU
  1
.
  9
$ELEVATION
 40
0.0
  9
$PELEVATION
 40
0.0
  9
$THICKNESS
 40
0.0
  9
$LIMCHECK
 70
     1
  9
$CHAMFERA
 40
10.0
  9
$CHAMFERB
 40
10.0
  9
$CHAMFERC
 40
20.0
  9
$CHAMFERD
 40
0.0
  9
$SKPOLY
 70
     0
  9
$TDCREATE
 40
2451673.575802199
  9
$TDUCREATE
 40
2451673.200802199
  9
$TDUPDATE
 40
2454088.478778206
  9
$TDUUPDATE
 40
2454088.103778206
  9
$TDINDWG
 40
2.0118535417
  9
$TDUSRTIMER
 40
2.0118524884
  9
$USRTIMER
 70
     1
  9
$ANGBASE
 50
0.0
  9
$ANGDIR
 70
     0
  9
$PDMODE
 70
     3
  9
$PDSIZE
 40
0.0
  9
$PLINEWID
 40
0.0
  9
$SPLFRAME
 70
     0
  9
$SPLINETYPE
 70
     6
  9
$SPLINESEGS
 70
     8
  9
$HANDSEED
  5
500D
  9
$SURFTAB1
 70
     6
  9
$SURFTAB2
 70
     6
  9
$SURFTYPE
 70
     6
  9
$SURFU
 70
     6
  9
$SURFV
 70
     6
  9
$UCSBASE
  2

  9
$UCSNAME
  2

  9
$UCSORG
 10
0.0
 20
0.0
 30
0.0
  9
$UCSXDIR
 10
1.0
 20
0.0
 30
0.0
  9
$UCSYDIR
 10
0.0
 20
1.0
 30
0.0
  9
$UCSORTHOREF
  2

  9
$UCSORTHOVIEW
 70
     0
  9
$UCSORGTOP
 10
0.0
 20
0.0
 30
0.0
  9
$UCSORGBOTTOM
 10
0.0
 20
0.0
 30
0.0
  9
$UCSORGLEFT
 10
0.0
 20
0.0
 30
0.0
  9
$UCSORGRIGHT
 10
0.0
 20
0.0
 30
0.0
  9
$UCSORGFRONT
 10
0.0
 20
0.0
 30
0.0
  9
$UCSORGBACK
 10
0.0
 20
0.0
 30
0.0
  9
$PUCSBASE
  2

  9
$PUCSNAME
  2

  9
$PUCSORG
 10
0.0
 20
0.0
 30
0.0
  9
$PUCSXDIR
 10
1.0
 20
0.0
 30
0.0
  9
$PUCSYDIR
 10
0.0
 20
1.0
 30
0.0
  9
$PUCSORTHOREF
  2

  9
$PUCSORTHOVIEW
 70
     0
  9
$PUCSORGTOP
 10
0.0
 20
0.0
 30
0.0
  9
$PUCSORGBOTTOM
 10
0.0
 20
0.0
 30
0.0
  9
$PUCSORGLEFT
 10
0.0
 20
0.0
 30
0.0
  9
$PUCSORGRIGHT
 10
0.0
 20
0.0
 30
0.0
  9
$PUCSORGFRONT
 10
0.0
 20
0.0
 30
0.0
  9
$PUCSORGBACK
 10
0.0
 20
0.0
 30
0.0
  9
$USERI1
 70
     0
  9
$USERI2
 70
     0
  9
$USERI3
 70
     0
  9
$USERI4
 70
     0
  9
$USERI5
 70
     0
  9
$USERR1
 40
0.0
  9
$USERR2
 40
0.0
  9
$USERR3
 40
0.0
  9
$USERR4
 40
0.0
  9
$USERR5
 40
0.0
  9
$WORLDVIEW
 70
     1
  9
$SHADEDGE
 70
     3
  9
$SHADEDIF
 70
    70
  9
$TILEMODE
 70
     1
  9
$MAXACTVP
 70
    64
  9
$PINSBASE
 10
0.0
 20
0.0
 30
0.0
  9
$PLIMCHECK
 70
     0
  9
$PEXTMIN
 10
27.8447512626648
 20
20.24591643810271
 30
0.0
  9
$PEXTMAX
 10
250.6027613639831
 20
182.2132479429245
 30
0.0
  9
$PLIMMIN
 10
-3.757080078125
 20
-3.757083177566528
  9
$PLIMMAX
 10
293.2112426757813
 20
206.2162444591522
  9
$UNITMODE
 70
     0
  9
$VISRETAIN
 70
     1
  9
$PLINEGEN
 70
     0
  9
$PSLTSCALE
 70
     1
  9
$TREEDEPTH
 70
  3020
  9
$CMLSTYLE
  2
Standard
  9
$CMLJUST
 70
     0
  9
$CMLSCALE
 40
20.0
  9
$PROXYGRAPHICS
 70
     1
  9
$MEASUREMENT
 70
     1
  9
$CELWEIGHT
370
    -1
  9
$ENDCAPS
280
     0
  9
$JOINSTYLE
280
     0
  9
$LWDISPLAY
290
     1
  9
$INSUNITS
 70
     4
  9
$HYPERLINKBASE
  1

  9
$STYLESHEET
  1

  9
$XEDIT
290
     1
  9
$CEPSNTYPE
380
     0
  9
$PSTYLEMODE
290
     1
  9
$FINGERPRINTGUID
  2
{C8EA1F16-24C9-11D4-9416-CE0A3B32152F}
  9
$VERSIONGUID
  2
{6C635F91-D259-4774-89FC-8AFFDE4201D8}
  9
$EXTNAMES
290
     1
  9
$PSVPSCALE
 40
0.0
  9
$OLESTARTUP
290
     0
  0
ENDSEC
  0
SECTION
  2
CLASSES
  0
CLASS
  1
ACDBDICTIONARYWDFLT
  2
AcDbDictionaryWithDefault
  3
ObjectDBX Classes
 90
        0
280
     0
281
     0
  0
CLASS
  1
ACDBPLACEHOLDER
  2
AcDbPlaceHolder
  3
ObjectDBX Classes
 90
        0
280
     0
281
     0
  0
CLASS
  1
LAYOUT
  2
AcDbLayout
  3
ObjectDBX Classes
 90
        0
280
     0
281
     0
  0
CLASS
  1
TABLESTYLE
  2
AcDbTableStyle
  3
ObjectDBX Classes
 90
     2047
280
     0
281
     0
  0
CLASS
  1
DICTIONARYVAR
  2
AcDbDictionaryVar
  3
ObjectDBX Classes
 90
        0
280
     0
281
     0
  0
CLASS
  1
SORTENTSTABLE
  2
AcDbSortentsTable
  3
ObjectDBX Classes
 90
        0
280
     0
281
     0
  0
ENDSEC
  0
SECTION
  2
TABLES
  0
TABLE
  2
VPORT
  5
8
330
0
100
AcDbSymbolTable
 70
     2
  0
VPORT
  5
4FFC
330
8
100
AcDbSymbolTableRecord
100
AcDbViewportTableRecord
  2
*Active
 70
     0
 10
0.0
 20
0.0
 11
1.0
 21
1.0
 12
3683.875749563748
 22
2459.070165484099
 13
0.0
 23
0.0
 14
10.0
 24
10.0
 15
10.0
 25
10.0
 16
0.0
 26
0.0
 36
1.0
 17
0.0
 27
0.0
 37
0.0
 40
5398.679531597803
 41
1.682584269662921
 42
50.0
 43
0.0
 44
0.0
 50
0.0
 51
0.0
 71
     0
 72
   100
 73
     1
 74
     3
 75
     0
 76
     0
 77
     0
 78
     0
281
     0
 65
     1
110
0.0
120
0.0
130
0.0
111
1.0
121
0.0
131
0.0
112
0.0
122
1.0
132
0.0
 79
     0
146
0.0
  0
ENDTAB
  0
TABLE
  2
LTYPE
  5
5
330
0
100
AcDbSymbolTable
 70
    46
  0
LTYPE
  5
14
330
5
100
AcDbSymbolTableRecord
100
AcDbLinetypeTableRecord
  2
ByBlock
 70
     0
  3

 72
    65
 73
     0
 40
0.0
  0
LTYPE
  5
15
330
5
100
AcDbSymbolTableRecord
100
AcDbLinetypeTableRecord
  2
ByLayer
 70
     0
  3

 72
    65
 73
     0
 40
0.0
  0
LTYPE
  5
16
330
5
100
AcDbSymbolTableRecord
100
AcDbLinetypeTableRecord
  2
Continuous
 70
     0
  3
Solid line
 72
    65
 73
     0
 40
0.0
  0
LTYPE
  5
34
330
5
100
AcDbSymbolTableRecord
100
AcDbLinetypeTableRecord
  2
ACAD_ISO02W100
 70
     0
  3
ISO dash __ __ __ __ __ __ __ __ __ __ __ __ __
 72
    65
 73
     2
 40
15.0
 49
12.0
 74
     0
 49
-3.0
 74
     0
  0
LTYPE
  5
35
330
5
100
AcDbSymbolTableRecord
100
AcDbLinetypeTableRecord
  2
ACAD_ISO03W100
 70
     0
  3
ISO dash space __    __    __    __    __    __
 72
    65
 73
     2
 40
30.0
 49
12.0
 74
     0
 49
-18.0
 74
     0
  0
LTYPE
  5
36
330
5
100
AcDbSymbolTableRecord
100
AcDbLinetypeTableRecord
  2
ACAD_ISO04W100
 70
     0
  3
ISO long-dash dot ____ . ____ . ____ . ____ . _
 72
    65
 73
     4
 40
30.0
 49
24.0
 74
     0
 49
-3.0
 74
     0
 49
0.0
 74
     0
 49
-3.0
 74
     0
  0
LTYPE
  5
37
330
5
100
AcDbSymbolTableRecord
100
AcDbLinetypeTableRecord
  2
ACAD_ISO05W100
 70
     0
  3
ISO long-dash double-dot ____ .. ____ .. ____ .
 72
    65
 73
     6
 40
34.0
 49
24.0
 74
     0
 49
-3.0
 74
     0
 49
0.5
 74
     0
 49
-3.0
 74
     0
 49
0.5
 74
     0
 49
-3.0
 74
     0
  0
LTYPE
  5
38
330
5
100
AcDbSymbolTableRecord
100
AcDbLinetypeTableRecord
  2
ACAD_ISO06W100
 70
     0
  3
ISO long-dash triple-dot ____ ... ____ ... ____
 72
    65
 73
     8
 40
37.5
 49
24.0
 74
     0
 49
-3.0
 74
     0
 49
0.5
 74
     0
 49
-3.0
 74
     0
 49
0.5
 74
     0
 49
-3.0
 74
     0
 49
0.5
 74
     0
 49
-3.0
 74
     0
  0
LTYPE
  5
39
330
5
100
AcDbSymbolTableRecord
100
AcDbLinetypeTableRecord
  2
ACAD_ISO07W100
 70
     0
  3
ISO dot . . . . . . . . . . . . . . . . . . . .
 72
    65
 73
     2
 40
3.0
 49
0.0
 74
     0
 49
-3.0
 74
     0
  0
LTYPE
  5
3A
330
5
100
AcDbSymbolTableRecord
100
AcDbLinetypeTableRecord
  2
ACAD_ISO08W100
 70
     0
  3
ISO long-dash short-dash ____ __ ____ __ ____ _
 72
    65
 73
     4
 40
36.0
 49
24.0
 74
     0
 49
-3.0
 74
     0
 49
6.0
 74
     0
 49
-3.0
 74
     0
  0
LTYPE
  5
3B
330
5
100
AcDbSymbolTableRecord
100
AcDbLinetypeTableRecord
  2
ACAD_ISO09W100
 70
     0
  3
ISO long-dash double-short-dash ____ __ __ ____
 72
    65
 73
     6
 40
45.0
 49
24.0
 74
     0
 49
-3.0
 74
     0
 49
6.0
 74
     0
 49
-3.0
 74
     0
 49
6.0
 74
     0
 49
-3.0
 74
     0
  0
LTYPE
  5
3C
330
5
100
AcDbSymbolTableRecord
100
AcDbLinetypeTableRecord
  2
ACAD_ISO10W100
 70
     0
  3
ISO dash dot __ . __ . __ . __ . __ . __ . __ .
 72
    65
 73
     4
 40
18.0
 49
12.0
 74
     0
 49
-3.0
 74
     0
 49
0.0
 74
     0
 49
-3.0
 74
     0
  0
LTYPE
  5
3D
330
5
100
AcDbSymbolTableRecord
100
AcDbLinetypeTableRecord
  2
ACAD_ISO11W100
 70
     0
  3
ISO double-dash dot __ __ . __ __ . __ __ . __ 
 72
    65
 73
     6
 40
33.0
 49
12.0
 74
     0
 49
-3.0
 74
     0
 49
12.0
 74
     0
 49
-3.0
 74
     0
 49
0.0
 74
     0
 49
-3.0
 74
     0
  0
LTYPE
  5
3E
330
5
100
AcDbSymbolTableRecord
100
AcDbLinetypeTableRecord
  2
ACAD_ISO12W100
 70
     0
  3
ISO dash double-dot __ . . __ . . __ . . __ . .
 72
    65
 73
     6
 40
21.0
 49
12.0
 74
     0
 49
-3.0
 74
     0
 49
0.0
 74
     0
 49
-3.0
 74
     0
 49
0.0
 74
     0
 49
-3.0
 74
     0
  0
LTYPE
  5
3F
330
5
100
AcDbSymbolTableRecord
100
AcDbLinetypeTableRecord
  2
ACAD_ISO13W100
 70
     0
  3
ISO double-dash double-dot __ __ . . __ __ . . 
 72
    65
 73
     8
 40
36.0
 49
12.0
 74
     0
 49
-3.0
 74
     0
 49
12.0
 74
     0
 49
-3.0
 74
     0
 49
0.0
 74
     0
 49
-3.0
 74
     0
 49
0.0
 74
     0
 49
-3.0
 74
     0
  0
LTYPE
  5
40
330
5
100
AcDbSymbolTableRecord
100
AcDbLinetypeTableRecord
  2
ACAD_ISO14W100
 70
     0
  3
ISO dash triple-dot __ . . . __ . . . __ . . . 
 72
    65
 73
     8
 40
24.0
 49
12.0
 74
     0
 49
-3.0
 74
     0
 49
0.0
 74
     0
 49
-3.0
 74
     0
 49
0.0
 74
     0
 49
-3.0
 74
     0
 49
0.0
 74
     0
 49
-3.0
 74
     0
  0
LTYPE
  5
41
330
5
100
AcDbSymbolTableRecord
100
AcDbLinetypeTableRecord
  2
ACAD_ISO15W100
 70
     0
  3
ISO double-dash triple-dot __ __ . . . __ __ . 
 72
    65
 73
    10
 40
39.0
 49
12.0
 74
     0
 49
-3.0
 74
     0
 49
12.0
 74
     0
 49
-3.0
 74
     0
 49
0.0
 74
     0
 49
-3.0
 74
     0
 49
0.0
 74
     0
 49
-3.0
 74
     0
 49
0.0
 74
     0
 49
-3.0
 74
     0
  0
LTYPE
  5
42
330
5
100
AcDbSymbolTableRecord
100
AcDbLinetypeTableRecord
  2
BATTING
 70
     0
  3
Batting SSSSSSSSSSSSSSSSSSSSSSSSSSSSSSSSSSSSSSS
 72
    65
 73
     4
 40
10.16254
 49
0.00254
 74
     0
 49
-2.54
 74
     4
 75
   134
340
33
 46
2.54
 50
0.0
 44
-2.54
 45
0.0
 49
-5.08
 74
     4
 75
   134
340
33
 46
2.54
 50
180.0
 44
2.54
 45
0.0
 49
-2.54
 74
     0
  0
LTYPE
  5
43
330
5
100
AcDbSymbolTableRecord
100
AcDbLinetypeTableRecord
  2
BORDER
 70
     0
  3
Border __ __ . __ __ . __ __ . __ __ . __ __ .
 72
    65
 73
     6
 40
44.45
 49
12.7
 74
     0
 49
-6.349999999999998
 74
     0
 49
12.7
 74
     0
 49
-6.349999999999998
 74
     0
 49
0.0
 74
     0
 49
-6.349999999999998
 74
     0
  0
LTYPE
  5
44
330
5
100
AcDbSymbolTableRecord
100
AcDbLinetypeTableRecord
  2
BORDER2
 70
     0
  3
Border (.5x) __.__.__.__.__.__.__.__.__.__.__.
 72
    65
 73
     6
 40
22.225
 49
6.349999999999998
 74
     0
 49
-3.174999999999998
 74
     0
 49
6.349999999999998
 74
     0
 49
-3.174999999999998
 74
     0
 49
0.0
 74
     0
 49
-3.174999999999998
 74
     0
  0
LTYPE
  5
45
330
5
100
AcDbSymbolTableRecord
100
AcDbLinetypeTableRecord
  2
BORDERX2
 70
     0
  3
Border (2x) ____  ____  .  ____  ____  .  ___
 72
    65
 73
     6
 40
88.9
 49
25.4
 74
     0
 49
-12.7
 74
     0
 49
25.4
 74
     0
 49
-12.7
 74
     0
 49
0.0
 74
     0
 49
-12.7
 74
     0
  0
LTYPE
  5
46
330
5
100
AcDbSymbolTableRecord
100
AcDbLinetypeTableRecord
  2
CENTER
 70
     0
  3
Center ____ _ ____ _ ____ _ ____ _ ____ _ ____
 72
    65
 73
     4
 40
50.8
 49
31.75
 74
     0
 49
-6.349999999999998
 74
     0
 49
6.349999999999998
 74
     0
 49
-6.349999999999998
 74
     0
  0
LTYPE
  5
47
330
5
100
AcDbSymbolTableRecord
100
AcDbLinetypeTableRecord
  2
CENTER2
 70
     0
  3
Center (.5x) ___ _ ___ _ ___ _ ___ _ ___ _ ___
 72
    65
 73
     4
 40
28.575
 49
19.05
 74
     0
 49
-3.174999999999998
 74
     0
 49
3.174999999999998
 74
     0
 49
-3.174999999999998
 74
     0
  0
LTYPE
  5
48
330
5
100
AcDbSymbolTableRecord
100
AcDbLinetypeTableRecord
  2
CENTERX2
 70
     0
  3
Center (2x) ________  __  ________  __  _____
 72
    65
 73
     4
 40
101.6
 49
63.5
 74
     0
 49
-12.7
 74
     0
 49
12.7
 74
     0
 49
-12.7
 74
     0
  0
LTYPE
  5
49
330
5
100
AcDbSymbolTableRecord
100
AcDbLinetypeTableRecord
  2
DASHDOT
 70
     0
  3
Dash dot __ . __ . __ . __ . __ . __ . __ . __
 72
    65
 73
     4
 40
25.4
 49
12.7
 74
     0
 49
-6.349999999999998
 74
     0
 49
0.0
 74
     0
 49
-6.349999999999998
 74
     0
  0
LTYPE
  5
4A
330
5
100
AcDbSymbolTableRecord
100
AcDbLinetypeTableRecord
  2
DASHDOT2
 70
     0
  3
Dash dot (.5x) _._._._._._._._._._._._._._._.
 72
    65
 73
     4
 40
12.7
 49
6.349999999999998
 74
     0
 49
-3.174999999999998
 74
     0
 49
0.0
 74
     0
 49
-3.174999999999998
 74
     0
  0
LTYPE
  5
4B
330
5
100
AcDbSymbolTableRecord
100
AcDbLinetypeTableRecord
  2
DASHDOTX2
 70
     0
  3
Dash dot (2x) ____  .  ____  .  ____  .  ___
 72
    65
 73
     4
 40
50.8
 49
25.4
 74
     0
 49
-12.7
 74
     0
 49
0.0
 74
     0
 49
-12.7
 74
     0
  0
LTYPE
  5
4C
330
5
100
AcDbSymbolTableRecord
100
AcDbLinetypeTableRecord
  2
DASHED
 70
     0
  3
Dashed __ __ __ __ __ __ __ __ __ __ __ __ __ _
 72
    65
 73
     2
 40
19.05
 49
12.7
 74
     0
 49
-6.349999999999998
 74
     0
  0
LTYPE
  5
4D
330
5
100
AcDbSymbolTableRecord
100
AcDbLinetypeTableRecord
  2
DASHED2
 70
     0
  3
Dashed (.5x) _ _ _ _ _ _ _ _ _ _ _ _ _ _ _ _ _
 72
    65
 73
     2
 40
9.524999999999996
 49
6.349999999999998
 74
     0
 49
-3.174999999999998
 74
     0
  0
LTYPE
  5
4E
330
5
100
AcDbSymbolTableRecord
100
AcDbLinetypeTableRecord
  2
DASHEDX2
 70
     0
  3
Dashed (2x) ____  ____  ____  ____  ____  ___
 72
    65
 73
     2
 40
38.1
 49
25.4
 74
     0
 49
-12.7
 74
     0
  0
LTYPE
  5
4F
330
5
100
AcDbSymbolTableRecord
100
AcDbLinetypeTableRecord
  2
DIVIDE
 70
     0
  3
Divide ____ . . ____ . . ____ . . ____ . . ____
 72
    65
 73
     6
 40
31.75
 49
12.7
 74
     0
 49
-6.349999999999998
 74
     0
 49
0.0
 74
     0
 49
-6.349999999999998
 74
     0
 49
0.0
 74
     0
 49
-6.349999999999998
 74
     0
  0
LTYPE
  5
50
330
5
100
AcDbSymbolTableRecord
100
AcDbLinetypeTableRecord
  2
DIVIDE2
 70
     0
  3
Divide (.5x) __..__..__..__..__..__..__..__.._
 72
    65
 73
     6
 40
15.875
 49
6.349999999999998
 74
     0
 49
-3.174999999999998
 74
     0
 49
0.0
 74
     0
 49
-3.174999999999998
 74
     0
 49
0.0
 74
     0
 49
-3.174999999999998
 74
     0
  0
LTYPE
  5
51
330
5
100
AcDbSymbolTableRecord
100
AcDbLinetypeTableRecord
  2
DIVIDEX2
 70
     0
  3
Divide (2x) ________  .  .  ________  .  .  _
 72
    65
 73
     6
 40
63.49999999999999
 49
25.4
 74
     0
 49
-12.7
 74
     0
 49
0.0
 74
     0
 49
-12.7
 74
     0
 49
0.0
 74
     0
 49
-12.7
 74
     0
  0
LTYPE
  5
52
330
5
100
AcDbSymbolTableRecord
100
AcDbLinetypeTableRecord
  2
DOT
 70
     0
  3
Dot . . . . . . . . . . . . . . . . . . . . . .
 72
    65
 73
     2
 40
6.349999999999998
 49
0.0
 74
     0
 49
-6.349999999999998
 74
     0
  0
LTYPE
  5
53
330
5
100
AcDbSymbolTableRecord
100
AcDbLinetypeTableRecord
  2
DOT2
 70
     0
  3
Dot (.5x) .....................................
 72
    65
 73
     2
 40
3.174999999999998
 49
0.0
 74
     0
 49
-3.174999999999998
 74
     0
  0
LTYPE
  5
54
330
5
100
AcDbSymbolTableRecord
100
AcDbLinetypeTableRecord
  2
DOTX2
 70
     0
  3
Dot (2x) .  .  .  .  .  .  .  .  .  .  .  .  . 
 72
    65
 73
     2
 40
12.7
 49
0.0
 74
     0
 49
-12.7
 74
     0
  0
LTYPE
  5
55
330
5
100
AcDbSymbolTableRecord
100
AcDbLinetypeTableRecord
  2
FENCELINE1
 70
     0
  3
Fenceline circle ----0-----0----0-----0----0---
 72
    65
 73
     4
 40
36.83
 49
6.349999999999998
 74
     0
 49
-2.54
 74
     4
 75
   133
340
33
 46
2.54
 50
0.0
 44
-2.54
 45
0.0
 49
-2.54
 74
     0
 49
25.4
 74
     0
  0
LTYPE
  5
56
330
5
100
AcDbSymbolTableRecord
100
AcDbLinetypeTableRecord
  2
FENCELINE2
 70
     0
  3
Fenceline square ----[]-----[]----[]-----[]----
 72
    65
 73
     4
 40
36.83
 49
6.349999999999998
 74
     0
 49
-2.54
 74
     4
 75
   132
340
33
 46
2.54
 50
0.0
 44
-2.54
 45
0.0
 49
-2.54
 74
     0
 49
25.4
 74
     0
  0
LTYPE
  5
57
330
5
100
AcDbSymbolTableRecord
100
AcDbLinetypeTableRecord
  2
GAS_LINE
 70
     0
  3
Gas line ----GAS----GAS----GAS----GAS----GAS---
 72
    65
 73
     3
 40
24.13
 49
12.7
 74
     0
 49
-5.08
 74
     2
 75
     0
340
11
 46
2.54
 50
0.0
 44
-2.54
 45
-1.27
  9
GAS
 49
-6.349999999999998
 74
     0
  0
LTYPE
  5
58
330
5
100
AcDbSymbolTableRecord
100
AcDbLinetypeTableRecord
  2
HIDDEN
 70
     0
  3
Hidden __ __ __ __ __ __ __ __ __ __ __ __ __ _
 72
    65
 73
     2
 40
9.524999999999996
 49
6.349999999999998
 74
     0
 49
-3.174999999999998
 74
     0
  0
LTYPE
  5
59
330
5
100
AcDbSymbolTableRecord
100
AcDbLinetypeTableRecord
  2
HIDDEN2
 70
     0
  3
Hidden (.5x) _ _ _ _ _ _ _ _ _ _ _ _ _ _ _ _ _
 72
    65
 73
     2
 40
4.762499999999998
 49
3.174999999999998
 74
     0
 49
-1.587499999999999
 74
     0
  0
LTYPE
  5
5A
330
5
100
AcDbSymbolTableRecord
100
AcDbLinetypeTableRecord
  2
HIDDENX2
 70
     0
  3
Hidden (2x) ____ ____ ____ ____ ____ ____ ____
 72
    65
 73
     2
 40
19.05
 49
12.7
 74
     0
 49
-6.349999999999998
 74
     0
  0
LTYPE
  5
5B
330
5
100
AcDbSymbolTableRecord
100
AcDbLinetypeTableRecord
  2
HOT_WATER_SUPPLY
 70
     0
  3
Hot water supply ---- HW ---- HW ---- HW ----
 72
    65
 73
     3
 40
22.86
 49
12.7
 74
     0
 49
-5.08
 74
     2
 75
     0
340
11
 46
2.54
 50
0.0
 44
-2.54
 45
-1.27
  9
HW
 49
-5.08
 74
     0
  0
LTYPE
  5
5C
330
5
100
AcDbSymbolTableRecord
100
AcDbLinetypeTableRecord
  2
PHANTOM
 70
     0
  3
Phantom ______  __  __  ______  __  __  ______
 72
    65
 73
     6
 40
63.5
 49
31.75
 74
     0
 49
-6.349999999999998
 74
     0
 49
6.349999999999998
 74
     0
 49
-6.349999999999998
 74
     0
 49
6.349999999999998
 74
     0
 49
-6.349999999999998
 74
     0
  0
LTYPE
  5
5D
330
5
100
AcDbSymbolTableRecord
100
AcDbLinetypeTableRecord
  2
PHANTOM2
 70
     0
  3
Phantom (.5x) ___ _ _ ___ _ _ ___ _ _ ___ _ _
 72
    65
 73
     6
 40
31.75
 49
15.875
 74
     0
 49
-3.174999999999998
 74
     0
 49
3.174999999999998
 74
     0
 49
-3.174999999999998
 74
     0
 49
3.174999999999998
 74
     0
 49
-3.174999999999998
 74
     0
  0
LTYPE
  5
5E
330
5
100
AcDbSymbolTableRecord
100
AcDbLinetypeTableRecord
  2
PHANTOMX2
 70
     0
  3
Phantom (2x) ____________    ____    ____   _
 72
    65
 73
     6
 40
127.0
 49
63.5
 74
     0
 49
-12.7
 74
     0
 49
12.7
 74
     0
 49
-12.7
 74
     0
 49
12.7
 74
     0
 49
-12.7
 74
     0
  0
LTYPE
  5
5F
330
5
100
AcDbSymbolTableRecord
100
AcDbLinetypeTableRecord
  2
TRACKS
 70
     0
  3
Tracks -|-|-|-|-|-|-|-|-|-|-|-|-|-|-|-|-|-|-|-|
 72
    65
 73
     2
 40
7.62
 49
3.81
 74
     4
 75
   130
340
33
 46
6.349999999999998
 50
0.0
 44
0.0
 45
0.0
 49
3.81
 74
     0
  0
LTYPE
  5
60
330
5
100
AcDbSymbolTableRecord
100
AcDbLinetypeTableRecord
  2
ZIGZAG
 70
     0
  3
Zig zag /\/\/\/\/\/\/\/\/\/\/\/\/\/\/\/\/\/\/\/
 72
    65
 73
     4
 40
20.32254
 49
0.00254
 74
     0
 49
-5.08
 74
     4
 75
   131
340
33
 46
5.08
 50
0.0
 44
-5.08
 45
0.0
 49
-10.16
 74
     4
 75
   131
340
33
 46
5.08
 50
180.0
 44
5.08
 45
0.0
 49
-5.08
 74
     0
  0
ENDTAB
  0
TABLE
  2
LAYER
  5
2
102
{ACAD_XDICTIONARY
360
36D2
102
}
330
0
100
AcDbSymbolTable
 70
    10
  0
LAYER
  5
10
330
2
100
AcDbSymbolTableRecord
100
AcDbLayerTableRecord
  2
0
 70
     0
 62
     7
  6
Continuous
370
    -3
390
F
  0
LAYER
  5
C3
330
2
100
AcDbSymbolTableRecord
100
AcDbLayerTableRecord
  2
Defpoints
 70
     0
 62
     7
  6
Continuous
290
     0
370
    -3
390
F
  0
LAYER
  5
256
330
2
100
AcDbSymbolTableRecord
100
AcDbLayerTableRecord
  2
センター
 70
     0
 62
     7
  6
CENTER2
370
    18
390
F
  0
LAYER
  5
268
330
2
100
AcDbSymbolTableRecord
100
AcDbLayerTableRecord
  2
実形
 70
     0
 62
     7
  6
Continuous
370
    -3
390
F
  0
LAYER
  5
269
330
2
100
AcDbSymbolTableRecord
100
AcDbLayerTableRecord
  2
補助
 70
     0
 62
     7
  6
Continuous
370
    -3
390
F
  0
LAYER
  5
26A
330
2
100
AcDbSymbolTableRecord
100
AcDbLayerTableRecord
  2
寸法
 70
     0
 62
     7
  6
Continuous
370
    18
390
F
  0
LAYER
  5
26B
330
2
100
AcDbSymbolTableRecord
100
AcDbLayerTableRecord
  2
ハッチング
 70
     0
 62
     7
  6
Continuous
370
    18
390
F
  0
LAYER
  5
26D
330
2
100
AcDbSymbolTableRecord
100
AcDbLayerTableRecord
  2
文字
 70
     0
 62
     7
  6
Continuous
370
    -3
390
F
  0
LAYER
  5
209E
330
2
100
AcDbSymbolTableRecord
100
AcDbLayerTableRecord
  2
Cen
 70
     0
 62
     7
  6
CENTER2
370
    15
390
F
  0
LAYER
  5
262D
330
2
100
AcDbSymbolTableRecord
100
AcDbLayerTableRecord
  2
実形（補助）
 70
     0
 62
     6
  6
Continuous
370
    -3
390
F
  0
ENDTAB
  0
TABLE
  2
STYLE
  5
3
330
0
100
AcDbSymbolTable
 70
     4
  0
STYLE
  5
11
330
3
100
AcDbSymbolTableRecord
100
AcDbTextStyleTableRecord
  2
Standard
 70
     0
 40
0.0
 41
1.0
 50
0.0
 71
     0
 42
25.0
  3
txt.shx
  4
bigfont.shx
  0
STYLE
  5
33
330
3
100
AcDbSymbolTableRecord
100
AcDbTextStyleTableRecord
  2

 70
     1
 40
0.0
 41
1.0
 50
0.0
 71
     0
 42
2.5
  3
ltypeshp.shx
  4

  0
STYLE
  5
38BE
330
3
100
AcDbSymbolTableRecord
100
AcDbTextStyleTableRecord
  2
明朝
 70
     0
 40
0.0
 41
1.0
 50
0.0
 71
     0
 42
25.0
  3
MS Mincho.ttf
  4

1001
ACAD
1000
MS Mincho
1071
    32785
  0
STYLE
  5
4085
330
3
100
AcDbSymbolTableRecord
100
AcDbTextStyleTableRecord
  2
MS明朝1
 70
     0
 40
0.0
 41
1.0
 50
0.0
 71
     0
 42
25.0
  3
MS Mincho.ttf
  4

1001
ACAD
1000
MS Mincho
1071
    32785
  0
ENDTAB
  0
TABLE
  2
VIEW
  5
6
330
0
100
AcDbSymbolTable
 70
     0
  0
ENDTAB
  0
TABLE
  2
UCS
  5
7
330
0
100
AcDbSymbolTable
 70
     0
  0
ENDTAB
  0
TABLE
  2
APPID
  5
9
330
0
100
AcDbSymbolTable
 70
     4
  0
APPID
  5
12
330
9
100
AcDbSymbolTableRecord
100
AcDbRegAppTableRecord
  2
ACAD
 70
     0
  0
APPID
  5
36D1
330
9
100
AcDbSymbolTableRecord
100
AcDbRegAppTableRecord
  2
ACAD_PSEXT
 70
     0
  0
APPID
  5
3A8F
330
9
100
AcDbSymbolTableRecord
100
AcDbRegAppTableRecord
  2
ACAD_DSTYLE_DIMTEXT_FILL
 70
     0
  0
APPID
  5
4FBE
330
9
100
AcDbSymbolTableRecord
100
AcDbRegAppTableRecord
  2
DCO15
 70
     0
  0
ENDTAB
  0
TABLE
  2
DIMSTYLE
  5
A
330
0
100
AcDbSymbolTable
 70
     2
100
AcDbDimStyleTable
 71
     2
340
27
340
3AD8
  0
DIMSTYLE
105
27
102
{ACAD_REACTORS
330
343C
330
35DB
330
35F5
330
362B
330
3638
330
3794
330
37CE
330
3842
330
3C5C
330
3C95
330
3CAB
330
3CB8
330
3CEA
330
3D00
330
3DDC
330
40A3
330
40AD
330
40B8
330
450F
330
46BA
330
46C8
330
4707
330
4C40
330
4CC4
330
4CFB
330
4D23
330
4D30
330
4EA0
330
4ED9
330
380C
102
}
330
A
100
AcDbSymbolTableRecord
100
AcDbDimStyleTableRecord
  2
ISO-25
 70
     0
 41
35.0
 42
65.0
 43
3.75
 44
0.0
 73
     0
 74
     0
 77
     1
 78
     8
140
25.0
141
2.5
143
0.03937007874016
147
6.25
171
     3
172
     1
271
     2
272
     2
274
     3
279
     2
283
     0
284
     8
340
11
341
DA
342
D0
371
    15
372
    15
  0
DIMSTYLE
105
3AD8
330
A
100
AcDbSymbolTableRecord
100
AcDbDimStyleTableRecord
  2
ISO-25　ｂ
 70
     0
 41
35.0
 42
65.0
 43
3.75
 44
0.0
 73
     0
 74
     0
 77
     1
 78
     8
140
25.0
141
2.5
143
0.03937007874016
147
6.25
171
     3
172
     1
271
     2
272
     2
274
     3
279
     2
283
     0
284
     8
340
11
341
DA
342
D0
371
    18
372
    18
  0
ENDTAB
  0
TABLE
  2
BLOCK_RECORD
  5
1
330
0
100
AcDbSymbolTable
 70
    33
  0
BLOCK_RECORD
  5
1F
102
{ACAD_XDICTIONARY
360
317F
102
}
330
1
100
AcDbSymbolTableRecord
100
AcDbBlockTableRecord
  2
*Model_Space
340
22
  0
BLOCK_RECORD
  5
1B
330
1
100
AcDbSymbolTableRecord
100
AcDbBlockTableRecord
  2
*Paper_Space
340
1E
  0
BLOCK_RECORD
  5
23
330
1
100
AcDbSymbolTableRecord
100
AcDbBlockTableRecord
  2
*Paper_Space0
340
26
  0
BLOCK_RECORD
  5
D0
330
1
100
AcDbSymbolTableRecord
100
AcDbBlockTableRecord
  2
_DotSmall
340
0
102
{BLKREFS
331
3804
331
3805
331
49E4
331
49E5
331
49EE
331
49EF
331
49FF
331
4A00
331
4A08
331
4A09
331
4A11
331
4A12
331
4A1A
331
4A1B
331
4A23
331
4A24
331
4A2C
331
4A2D
331
4A35
331
4A36
331
4A3F
331
4A40
331
4ADB
331
4ADC
331
4E01
331
4E02
331
4E0A
331
4E0B
331
4E13
331
4E14
331
4E1C
331
4E1D
331
4E2E
331
4E2F
331
4E40
331
4E41
331
4E49
331
4E4A
331
4E53
331
4E54
331
4E5C
331
4E5D
331
4E64
331
4E65
331
4E6E
331
4E6F
331
4EC5
331
4EC6
331
4EE9
331
4EEA
331
4F28
331
4F29
331
4F31
331
4F32
102
}
  0
BLOCK_RECORD
  5
D4
330
1
100
AcDbSymbolTableRecord
100
AcDbBlockTableRecord
  2
_Origin2
340
0
  0
BLOCK_RECORD
  5
DA
330
1
100
AcDbSymbolTableRecord
100
AcDbBlockTableRecord
  2
_Open30
340
0
  0
BLOCK_RECORD
  5
343D
330
1
100
AcDbSymbolTableRecord
100
AcDbBlockTableRecord
  2
*D4
340
0
  0
BLOCK_RECORD
  5
35DC
330
1
100
AcDbSymbolTableRecord
100
AcDbBlockTableRecord
  2
*D5
340
0
  0
BLOCK_RECORD
  5
35F6
330
1
100
AcDbSymbolTableRecord
100
AcDbBlockTableRecord
  2
*D6
340
0
  0
BLOCK_RECORD
  5
362C
330
1
100
AcDbSymbolTableRecord
100
AcDbBlockTableRecord
  2
*D7
340
0
  0
BLOCK_RECORD
  5
3639
330
1
100
AcDbSymbolTableRecord
100
AcDbBlockTableRecord
  2
*D8
340
0
  0
BLOCK_RECORD
  5
3795
330
1
100
AcDbSymbolTableRecord
100
AcDbBlockTableRecord
  2
*D9
340
0
  0
BLOCK_RECORD
  5
37CF
330
1
100
AcDbSymbolTableRecord
100
AcDbBlockTableRecord
  2
*D10
340
0
  0
BLOCK_RECORD
  5
37FF
330
1
100
AcDbSymbolTableRecord
100
AcDbBlockTableRecord
  2
*D11
340
0
  0
BLOCK_RECORD
  5
380B
102
{ACAD_XDICTIONARY
360
380D
102
}
330
1
100
AcDbSymbolTableRecord
100
AcDbBlockTableRecord
  2
A$C3AA8414F
340
0
  0
BLOCK_RECORD
  5
3843
330
1
100
AcDbSymbolTableRecord
100
AcDbBlockTableRecord
  2
*D13
340
0
  0
BLOCK_RECORD
  5
3C5D
330
1
100
AcDbSymbolTableRecord
100
AcDbBlockTableRecord
  2
*D14
340
0
  0
BLOCK_RECORD
  5
3C96
330
1
100
AcDbSymbolTableRecord
100
AcDbBlockTableRecord
  2
*D15
340
0
  0
BLOCK_RECORD
  5
3CAC
330
1
100
AcDbSymbolTableRecord
100
AcDbBlockTableRecord
  2
*D16
340
0
  0
BLOCK_RECORD
  5
3CB9
330
1
100
AcDbSymbolTableRecord
100
AcDbBlockTableRecord
  2
*D17
340
0
  0
BLOCK_RECORD
  5
3CEB
330
1
100
AcDbSymbolTableRecord
100
AcDbBlockTableRecord
  2
*D18
340
0
  0
BLOCK_RECORD
  5
3D01
330
1
100
AcDbSymbolTableRecord
100
AcDbBlockTableRecord
  2
*D19
340
0
  0
BLOCK_RECORD
  5
3DDD
330
1
100
AcDbSymbolTableRecord
100
AcDbBlockTableRecord
  2
*D20
340
0
  0
BLOCK_RECORD
  5
4510
330
1
100
AcDbSymbolTableRecord
100
AcDbBlockTableRecord
  2
*D21
340
0
  0
BLOCK_RECORD
  5
46BB
330
1
100
AcDbSymbolTableRecord
100
AcDbBlockTableRecord
  2
*D22
340
0
  0
BLOCK_RECORD
  5
46C9
330
1
100
AcDbSymbolTableRecord
100
AcDbBlockTableRecord
  2
*D23
340
0
  0
BLOCK_RECORD
  5
4708
330
1
100
AcDbSymbolTableRecord
100
AcDbBlockTableRecord
  2
*D24
340
0
  0
BLOCK_RECORD
  5
4C41
330
1
100
AcDbSymbolTableRecord
100
AcDbBlockTableRecord
  2
*D25
340
0
  0
BLOCK_RECORD
  5
4CC5
330
1
100
AcDbSymbolTableRecord
100
AcDbBlockTableRecord
  2
*D26
340
0
  0
BLOCK_RECORD
  5
4CDA
102
{ACAD_XDICTIONARY
360
4CE1
102
}
330
1
100
AcDbSymbolTableRecord
100
AcDbBlockTableRecord
  2
A$C5FA122E6
340
0
  0
BLOCK_RECORD
  5
4CFC
330
1
100
AcDbSymbolTableRecord
100
AcDbBlockTableRecord
  2
*D28
340
0
  0
BLOCK_RECORD
  5
4D24
330
1
100
AcDbSymbolTableRecord
100
AcDbBlockTableRecord
  2
*D29
340
0
  0
BLOCK_RECORD
  5
4D31
330
1
100
AcDbSymbolTableRecord
100
AcDbBlockTableRecord
  2
*D30
340
0
  0
BLOCK_RECORD
  5
4EAD
330
1
100
AcDbSymbolTableRecord
100
AcDbBlockTableRecord
  2
*D31
340
0
  0
BLOCK_RECORD
  5
4EDA
330
1
100
AcDbSymbolTableRecord
100
AcDbBlockTableRecord
  2
*D32
340
0
  0
ENDTAB
  0
ENDSEC
  0
SECTION
  2
BLOCKS
  0
BLOCK
  5
20
330
1F
100
AcDbEntity
  8
0
100
AcDbBlockBegin
  2
*Model_Space
 70
     0
 10
0.0
 20
0.0
 30
0.0
  3
*Model_Space
  1

  0
ENDBLK
  5
21
330
1F
100
AcDbEntity
  8
0
100
AcDbBlockEnd
  0
BLOCK
  5
1C
330
1B
100
AcDbEntity
 67
     1
  8
0
100
AcDbBlockBegin
  2
*Paper_Space
 70
     0
 10
0.0
 20
0.0
 30
0.0
  3
*Paper_Space
  1

  0
ENDBLK
  5
1D
330
1B
100
AcDbEntity
 67
     1
  8
0
100
AcDbBlockEnd
  0
BLOCK
  5
24
330
23
100
AcDbEntity
  8
0
100
AcDbBlockBegin
  2
*Paper_Space0
 70
     0
 10
0.0
 20
0.0
 30
0.0
  3
*Paper_Space0
  1

  0
ENDBLK
  5
25
330
23
100
AcDbEntity
  8
0
100
AcDbBlockEnd
  0
BLOCK
  5
D2
330
D0
100
AcDbEntity
  8
0
100
AcDbBlockBegin
  2
_DotSmall
 70
     0
 10
0.0
 20
0.0
 30
0.0
  3
_DotSmall
  1

  0
LWPOLYLINE
  5
D1
330
D0
100
AcDbEntity
  8
0
 62
     0
100
AcDbPolyline
 90
        2
 70
     1
 43
0.5
 10
-0.0625
 20
0.0
 42
1.0
 10
0.0625
 20
0.0
 42
1.0
  0
ENDBLK
  5
D3
330
D0
100
AcDbEntity
  8
0
100
AcDbBlockEnd
  0
BLOCK
  5
D8
330
D4
100
AcDbEntity
  8
0
100
AcDbBlockBegin
  2
_Origin2
 70
     0
 10
0.0
 20
0.0
 30
0.0
  3
_Origin2
  1

  0
CIRCLE
  5
D5
330
D4
100
AcDbEntity
  8
0
 62
     0
370
    -2
100
AcDbCircle
 10
0.0
 20
0.0
 30
0.0
 40
0.5
  0
CIRCLE
  5
D6
330
D4
100
AcDbEntity
  8
0
 62
     0
370
    -2
100
AcDbCircle
 10
0.0
 20
0.0
 30
0.0
 40
0.25
  0
LINE
  5
D7
330
D4
100
AcDbEntity
  8
0
 62
     0
370
    -2
100
AcDbLine
 10
-0.5
 20
0.0
 30
0.0
 11
-1.0
 21
0.0
 31
0.0
  0
ENDBLK
  5
D9
330
D4
100
AcDbEntity
  8
0
100
AcDbBlockEnd
  0
BLOCK
  5
DE
330
DA
100
AcDbEntity
  8
0
100
AcDbBlockBegin
  2
_Open30
 70
     0
 10
0.0
 20
0.0
 30
0.0
  3
_Open30
  1

  0
LINE
  5
DB
330
DA
100
AcDbEntity
  8
0
 62
     0
370
    -2
100
AcDbLine
 10
-1.0
 20
0.26794919
 30
0.0
 11
0.0
 21
0.0
 31
0.0
  0
LINE
  5
DC
330
DA
100
AcDbEntity
  8
0
 62
     0
370
    -2
100
AcDbLine
 10
0.0
 20
0.0
 30
0.0
 11
-1.0
 21
-0.26794919
 31
0.0
  0
LINE
  5
DD
330
DA
100
AcDbEntity
  8
0
 62
     0
370
    -2
100
AcDbLine
 10
0.0
 20
0.0
 30
0.0
 11
-1.0
 21
0.0
 31
0.0
  0
ENDBLK
  5
DF
330
DA
100
AcDbEntity
  8
0
100
AcDbBlockEnd
  0
BLOCK
  5
3447
330
343D
100
AcDbEntity
  8
0
100
AcDbBlockBegin
  2
*D4
 70
     1
 10
0.0
 20
0.0
 30
0.0
  3
*D4
  1

  0
LINE
  5
49E1
330
343D
100
AcDbEntity
  8
実形
 62
     0
370
    18
100
AcDbLine
 10
2120.24186677995
 20
1357.917035974716
 30
0.0
 11
2120.24186677995
 21
1450.850175250843
 31
0.0
  0
LINE
  5
49E2
330
343D
100
AcDbEntity
  8
実形
 62
     0
370
    18
100
AcDbLine
 10
1920.24186677995
 20
1357.917035974716
 30
0.0
 11
1920.24186677995
 21
1450.850175250843
 31
0.0
  0
LINE
  5
49E3
330
343D
100
AcDbEntity
  8
実形
 62
     0
370
    18
100
AcDbLine
 10
2120.24186677995
 20
1450.850175250843
 30
0.0
 11
1920.24186677995
 21
1450.850175250843
 31
0.0
  0
INSERT
  5
49E4
330
343D
100
AcDbEntity
  8
実形
 62
     0
370
    18
100
AcDbBlockReference
  2
_DotSmall
 10
2120.24186677995
 20
1450.850175250843
 30
0.0
 41
35.0
 42
35.0
 43
35.0
  0
INSERT
  5
49E5
330
343D
100
AcDbEntity
  8
実形
 62
     0
370
    18
100
AcDbBlockReference
  2
_DotSmall
 10
1920.24186677995
 20
1450.850175250843
 30
0.0
 41
35.0
 42
35.0
 43
35.0
 50
180.0
  0
MTEXT
  5
49E6
330
343D
100
AcDbEntity
  8
実形
 62
     0
100
AcDbMText
 10
2020.24186677995
 20
1469.600175250843
 30
0.0
 40
25.0
 41
0.0
 71
     5
 72
     1
  1
20
 73
     1
 44
1.0
1001
ACAD
1000
MTEXTBEGIN
1070
    73
1070
     1
1070
    44
1040
1.0
1070
    74
1070
     0
1000
MTEXTEND
  0
POINT
  5
49E7
330
343D
100
AcDbEntity
  8
Defpoints
 62
     0
100
AcDbPoint
 10
2120.24186677995
 20
1292.917035974716
 30
0.0
  0
POINT
  5
49E8
330
343D
100
AcDbEntity
  8
Defpoints
 62
     0
100
AcDbPoint
 10
1920.24186677995
 20
1292.917035974716
 30
0.0
  0
POINT
  5
49E9
330
343D
100
AcDbEntity
  8
Defpoints
 62
     0
100
AcDbPoint
 10
1920.24186677995
 20
1450.850175250843
 30
0.0
  0
ENDBLK
  5
3448
330
343D
100
AcDbEntity
  8
0
100
AcDbBlockEnd
  0
BLOCK
  5
35E6
330
35DC
100
AcDbEntity
  8
0
100
AcDbBlockBegin
  2
*D5
 70
     1
 10
0.0
 20
0.0
 30
0.0
  3
*D5
  1

  0
LINE
  5
49EA
330
35DC
100
AcDbEntity
  8
実形
 62
     0
370
    18
100
AcDbLine
 10
1909.026888515969
 20
1235.494991504019
 30
0.0
 11
1856.80637514003
 21
1235.494991504019
 31
0.0
  0
LINE
  5
49EB
330
35DC
100
AcDbEntity
  8
実形
 62
     0
370
    18
100
AcDbLine
 10
1909.026888515969
 20
1185.494991504019
 30
0.0
 11
1856.80637514003
 21
1185.494991504019
 31
0.0
  0
LINE
  5
49EC
330
35DC
100
AcDbEntity
  8
実形
 62
     0
370
    18
100
AcDbLine
 10
1856.80637514003
 20
1235.494991504019
 30
0.0
 11
1856.80637514003
 21
1185.494991504019
 31
0.0
  0
MTEXT
  5
49ED
330
35DC
100
AcDbEntity
  8
実形
 62
     0
100
AcDbMText
 10
1828.521604669488
 20
1204.898501422162
 30
0.0
 40
25.0
 41
0.0
 71
     5
 72
     1
  1
5
 11
0.0000000000000001
 21
1.0
 31
0.0
 73
     1
 44
1.0
1001
ACAD
1000
MTEXTBEGIN
1070
    73
1070
     1
1070
    44
1040
1.0
1070
    74
1070
     0
1000
MTEXTEND
  0
INSERT
  5
49EE
330
35DC
100
AcDbEntity
  8
実形
 62
     0
370
    18
100
AcDbBlockReference
  2
_DotSmall
 10
1856.80637514003
 20
1235.494991504019
 30
0.0
 41
35.0
 42
35.0
 43
35.0
 50
90.0
  0
INSERT
  5
49EF
330
35DC
100
AcDbEntity
  8
実形
 62
     0
370
    18
100
AcDbBlockReference
  2
_DotSmall
 10
1856.80637514003
 20
1185.494991504019
 30
0.0
 41
35.0
 42
35.0
 43
35.0
 50
270.0
  0
POINT
  5
49F0
330
35DC
100
AcDbEntity
  8
Defpoints
 62
     0
100
AcDbPoint
 10
1974.026888515969
 20
1235.494991504019
 30
0.0
  0
POINT
  5
49F1
330
35DC
100
AcDbEntity
  8
Defpoints
 62
     0
100
AcDbPoint
 10
1974.026888515969
 20
1185.494991504019
 30
0.0
  0
POINT
  5
49F2
330
35DC
100
AcDbEntity
  8
Defpoints
 62
     0
100
AcDbPoint
 10
1856.80637514003
 20
1185.494991504019
 30
0.0
  0
ENDBLK
  5
35E7
330
35DC
100
AcDbEntity
  8
0
100
AcDbBlockEnd
  0
BLOCK
  5
3601
330
35F6
100
AcDbEntity
  8
0
100
AcDbBlockBegin
  2
*D6
 70
     1
 10
0.0
 20
0.0
 30
0.0
  3
*D6
  1

  0
LINE
  5
4AD7
330
35F6
100
AcDbEntity
  8
実形
 62
     0
370
    18
100
AcDbLine
 10
2412.104409273164
 20
1235.494991504019
 30
0.0
 11
2671.059143312576
 21
1235.494991504018
 31
0.0
  0
LINE
  5
4AD8
330
35F6
100
AcDbEntity
  8
実形
 62
     0
370
    18
100
AcDbLine
 10
2616.786359603848
 20
1205.494991504018
 30
0.0
 11
2671.059143312576
 21
1205.494991504018
 31
0.0
  0
LINE
  5
4AD9
330
35F6
100
AcDbEntity
  8
実形
 62
     0
370
    18
100
AcDbLine
 10
2671.059143312576
 20
1235.494991504018
 30
0.0
 11
2671.059143312576
 21
1205.494991504018
 31
0.0
  0
MTEXT
  5
4ADA
330
35F6
100
AcDbEntity
  8
実形
 62
     0
100
AcDbMText
 10
2658.700091573817
 20
1258.506686640437
 30
0.0
 40
25.0
 41
0.0
 71
     5
 72
     1
  1
3
 11
0.0000000000000001
 21
1.0
 31
0.0
 73
     1
 44
1.0
1001
ACAD
1000
MTEXTBEGIN
1070
    73
1070
     1
1070
    44
1040
1.0
1070
    74
1070
     0
1000
MTEXTEND
  0
INSERT
  5
4ADB
330
35F6
100
AcDbEntity
  8
実形
 62
     0
370
    18
100
AcDbBlockReference
  2
_DotSmall
 10
2671.059143312576
 20
1235.494991504018
 30
0.0
 41
35.0
 42
35.0
 43
35.0
 50
90.0
  0
INSERT
  5
4ADC
330
35F6
100
AcDbEntity
  8
実形
 62
     0
370
    18
100
AcDbBlockReference
  2
_DotSmall
 10
2671.059143312576
 20
1205.494991504018
 30
0.0
 41
35.0
 42
35.0
 43
35.0
 50
270.0
  0
POINT
  5
4ADD
330
35F6
100
AcDbEntity
  8
Defpoints
 62
     0
100
AcDbPoint
 10
2347.104409273164
 20
1235.494991504019
 30
0.0
  0
POINT
  5
4ADE
330
35F6
100
AcDbEntity
  8
Defpoints
 62
     0
100
AcDbPoint
 10
2551.786359603848
 20
1205.494991504019
 30
0.0
  0
POINT
  5
4ADF
330
35F6
100
AcDbEntity
  8
Defpoints
 62
     0
100
AcDbPoint
 10
2671.059143312576
 20
1205.494991504018
 30
0.0
  0
ENDBLK
  5
3602
330
35F6
100
AcDbEntity
  8
0
100
AcDbBlockEnd
  0
BLOCK
  5
3636
330
362C
100
AcDbEntity
  8
0
100
AcDbBlockBegin
  2
*D7
 70
     1
 10
0.0
 20
0.0
 30
0.0
  3
*D7
  1

  0
LINE
  5
49FC
330
362C
100
AcDbEntity
  8
実形
 62
     0
370
    18
100
AcDbLine
 10
1920.24186677995
 20
1007.228470191014
 30
0.0
 11
1920.24186677995
 21
865.5774837476931
 31
0.0
  0
LINE
  5
49FD
330
362C
100
AcDbEntity
  8
実形
 62
     0
370
    18
100
AcDbLine
 10
2470.241866779951
 20
962.195617625673
 30
0.0
 11
2470.241866779951
 21
865.5774837476931
 31
0.0
  0
LINE
  5
49FE
330
362C
100
AcDbEntity
  8
実形
 62
     0
370
    18
100
AcDbLine
 10
1920.24186677995
 20
865.5774837476931
 30
0.0
 11
2470.241866779951
 21
865.5774837476931
 31
0.0
  0
INSERT
  5
49FF
330
362C
100
AcDbEntity
  8
実形
 62
     0
370
    18
100
AcDbBlockReference
  2
_DotSmall
 10
1920.24186677995
 20
865.5774837476931
 30
0.0
 41
35.0
 42
35.0
 43
35.0
 50
180.0
  0
INSERT
  5
4A00
330
362C
100
AcDbEntity
  8
実形
 62
     0
370
    18
100
AcDbBlockReference
  2
_DotSmall
 10
2470.241866779951
 20
865.5774837476931
 30
0.0
 41
35.0
 42
35.0
 43
35.0
  0
MTEXT
  5
4A01
330
362C
100
AcDbEntity
  8
実形
 62
     0
100
AcDbMText
 10
2195.24186677995
 20
884.3274837476931
 30
0.0
 40
25.0
 41
0.0
 71
     5
 72
     1
  1
55
 73
     1
 44
1.0
1001
ACAD
1000
MTEXTBEGIN
1070
    73
1070
     1
1070
    44
1040
1.0
1070
    74
1070
     0
1000
MTEXTEND
  0
POINT
  5
4A02
330
362C
100
AcDbEntity
  8
Defpoints
 62
     0
100
AcDbPoint
 10
1920.24186677995
 20
1072.228470191014
 30
0.0
  0
POINT
  5
4A03
330
362C
100
AcDbEntity
  8
Defpoints
 62
     0
100
AcDbPoint
 10
2470.241866779951
 20
1027.195617625673
 30
0.0
  0
POINT
  5
4A04
330
362C
100
AcDbEntity
  8
Defpoints
 62
     0
100
AcDbPoint
 10
2470.241866779951
 20
865.5774837476931
 30
0.0
  0
ENDBLK
  5
3637
330
362C
100
AcDbEntity
  8
0
100
AcDbBlockEnd
  0
BLOCK
  5
3643
330
3639
100
AcDbEntity
  8
0
100
AcDbBlockBegin
  2
*D8
 70
     1
 10
0.0
 20
0.0
 30
0.0
  3
*D8
  1

  0
LINE
  5
4A05
330
3639
100
AcDbEntity
  8
実形
 62
     0
370
    18
100
AcDbLine
 10
1920.24186677995
 20
1062.114320190446
 30
0.0
 11
1920.24186677995
 21
1008.852206874465
 31
0.0
  0
LINE
  5
4A06
330
3639
100
AcDbEntity
  8
実形
 62
     0
370
    18
100
AcDbLine
 10
2040.24186677995
 20
1062.114320190446
 30
0.0
 11
2040.24186677995
 21
1008.852206874465
 31
0.0
  0
LINE
  5
4A07
330
3639
100
AcDbEntity
  8
実形
 62
     0
370
    18
100
AcDbLine
 10
1920.24186677995
 20
1008.852206874465
 30
0.0
 11
2040.24186677995
 21
1008.852206874465
 31
0.0
  0
INSERT
  5
4A08
330
3639
100
AcDbEntity
  8
実形
 62
     0
370
    18
100
AcDbBlockReference
  2
_DotSmall
 10
1920.24186677995
 20
1008.852206874465
 30
0.0
 41
35.0
 42
35.0
 43
35.0
 50
180.0
  0
INSERT
  5
4A09
330
3639
100
AcDbEntity
  8
実形
 62
     0
370
    18
100
AcDbBlockReference
  2
_DotSmall
 10
2040.24186677995
 20
1008.852206874465
 30
0.0
 41
35.0
 42
35.0
 43
35.0
  0
MTEXT
  5
4A0A
330
3639
100
AcDbEntity
  8
実形
 62
     0
100
AcDbMText
 10
1980.24186677995
 20
1027.602206874465
 30
0.0
 40
25.0
 41
0.0
 71
     5
 72
     1
  1
12
 73
     1
 44
1.0
1001
ACAD
1000
MTEXTBEGIN
1070
    73
1070
     1
1070
    44
1040
1.0
1070
    74
1070
     0
1000
MTEXTEND
  0
POINT
  5
4A0B
330
3639
100
AcDbEntity
  8
Defpoints
 62
     0
100
AcDbPoint
 10
1920.24186677995
 20
1127.114320190446
 30
0.0
  0
POINT
  5
4A0C
330
3639
100
AcDbEntity
  8
Defpoints
 62
     0
100
AcDbPoint
 10
2040.24186677995
 20
1127.114320190446
 30
0.0
  0
POINT
  5
4A0D
330
3639
100
AcDbEntity
  8
Defpoints
 62
     0
100
AcDbPoint
 10
2040.24186677995
 20
1008.852206874465
 30
0.0
  0
ENDBLK
  5
3644
330
3639
100
AcDbEntity
  8
0
100
AcDbBlockEnd
  0
BLOCK
  5
379F
330
3795
100
AcDbEntity
  8
0
100
AcDbBlockBegin
  2
*D9
 70
     1
 10
0.0
 20
0.0
 30
0.0
  3
*D9
  1

  0
LINE
  5
4A0E
330
3795
100
AcDbEntity
  8
実形
  6
CENTER
 62
     0
370
    18
100
AcDbLine
 10
2420.24186677995
 20
1050.494991504018
 30
0.0
 11
2420.24186677995
 21
1007.405642144761
 31
0.0
  0
LINE
  5
4A0F
330
3795
100
AcDbEntity
  8
実形
  6
CENTER
 62
     0
370
    18
100
AcDbLine
 10
2520.24186677995
 20
1050.494991504018
 30
0.0
 11
2520.24186677995
 21
1007.405642144761
 31
0.0
  0
LINE
  5
4A10
330
3795
100
AcDbEntity
  8
実形
  6
CENTER
 62
     0
370
    18
100
AcDbLine
 10
2420.24186677995
 20
1007.405642144761
 30
0.0
 11
2520.24186677995
 21
1007.405642144761
 31
0.0
  0
INSERT
  5
4A11
330
3795
100
AcDbEntity
  8
実形
  6
CENTER
 62
     0
370
    18
100
AcDbBlockReference
  2
_DotSmall
 10
2420.24186677995
 20
1007.405642144761
 30
0.0
 41
35.0
 42
35.0
 43
35.0
 50
180.0
  0
INSERT
  5
4A12
330
3795
100
AcDbEntity
  8
実形
  6
CENTER
 62
     0
370
    18
100
AcDbBlockReference
  2
_DotSmall
 10
2520.24186677995
 20
1007.405642144761
 30
0.0
 41
35.0
 42
35.0
 43
35.0
  0
MTEXT
  5
4A13
330
3795
100
AcDbEntity
  8
実形
  6
CENTER
 62
     0
100
AcDbMText
 10
2470.241866779951
 20
1026.155642144761
 30
0.0
 40
25.0
 41
0.0
 71
     5
 72
     1
  1
10
 73
     1
 44
1.0
1001
ACAD
1000
MTEXTBEGIN
1070
    73
1070
     1
1070
    44
1040
1.0
1070
    74
1070
     0
1000
MTEXTEND
  0
POINT
  5
4A14
330
3795
100
AcDbEntity
  8
Defpoints
  6
CENTER
 62
     0
100
AcDbPoint
 10
2420.24186677995
 20
1115.494991504019
 30
0.0
  0
POINT
  5
4A15
330
3795
100
AcDbEntity
  8
Defpoints
  6
CENTER
 62
     0
100
AcDbPoint
 10
2520.24186677995
 20
1115.494991504019
 30
0.0
  0
POINT
  5
4A16
330
3795
100
AcDbEntity
  8
Defpoints
  6
CENTER
 62
     0
100
AcDbPoint
 10
2520.24186677995
 20
1007.405642144761
 30
0.0
  0
ENDBLK
  5
37A0
330
3795
100
AcDbEntity
  8
0
100
AcDbBlockEnd
  0
BLOCK
  5
37D9
330
37CF
100
AcDbEntity
  8
0
100
AcDbBlockBegin
  2
*D10
 70
     1
 10
0.0
 20
0.0
 30
0.0
  3
*D10
  1

  0
LINE
  5
4A17
330
37CF
100
AcDbEntity
  8
実形
  6
CENTER
 62
     0
370
    18
100
AcDbLine
 10
2616.786359603848
 20
1185.494991504018
 30
0.0
 11
2671.059143312576
 21
1185.494991504018
 31
0.0
  0
LINE
  5
4A18
330
37CF
100
AcDbEntity
  8
実形
  6
CENTER
 62
     0
370
    18
100
AcDbLine
 10
2618.224938872652
 20
1115.494991504018
 30
0.0
 11
2671.059143312576
 21
1115.494991504018
 31
0.0
  0
LINE
  5
4A19
330
37CF
100
AcDbEntity
  8
実形
  6
CENTER
 62
     0
370
    18
100
AcDbLine
 10
2671.059143312576
 20
1185.494991504018
 30
0.0
 11
2671.059143312576
 21
1115.494991504018
 31
0.0
  0
INSERT
  5
4A1A
330
37CF
100
AcDbEntity
  8
実形
  6
CENTER
 62
     0
370
    18
100
AcDbBlockReference
  2
_DotSmall
 10
2671.059143312576
 20
1185.494991504018
 30
0.0
 41
35.0
 42
35.0
 43
35.0
 50
90.0
  0
INSERT
  5
4A1B
330
37CF
100
AcDbEntity
  8
実形
  6
CENTER
 62
     0
370
    18
100
AcDbBlockReference
  2
_DotSmall
 10
2671.059143312576
 20
1115.494991504018
 30
0.0
 41
35.0
 42
35.0
 43
35.0
 50
270.0
  0
MTEXT
  5
4A1C
330
37CF
100
AcDbEntity
  8
実形
  6
CENTER
 62
     0
100
AcDbMText
 10
2652.309143312575
 20
1150.494991504019
 30
0.0
 40
25.0
 41
0.0
 71
     5
 72
     1
  1
7
 11
0.0000000000000001
 21
1.0
 31
0.0
 73
     1
 44
1.0
1001
ACAD
1000
MTEXTBEGIN
1070
    73
1070
     1
1070
    44
1040
1.0
1070
    74
1070
     0
1000
MTEXTEND
  0
POINT
  5
4A1D
330
37CF
100
AcDbEntity
  8
Defpoints
  6
CENTER
 62
     0
100
AcDbPoint
 10
2551.786359603848
 20
1185.494991504019
 30
0.0
  0
POINT
  5
4A1E
330
37CF
100
AcDbEntity
  8
Defpoints
  6
CENTER
 62
     0
100
AcDbPoint
 10
2553.224938872653
 20
1115.494991504019
 30
0.0
  0
POINT
  5
4A1F
330
37CF
100
AcDbEntity
  8
Defpoints
  6
CENTER
 62
     0
100
AcDbPoint
 10
2671.059143312576
 20
1115.494991504018
 30
0.0
  0
ENDBLK
  5
37DA
330
37CF
100
AcDbEntity
  8
0
100
AcDbBlockEnd
  0
BLOCK
  5
3800
330
37FF
100
AcDbEntity
  8
0
100
AcDbBlockBegin
  2
*D11
 70
     1
 10
0.0
 20
0.0
 30
0.0
  3
*D11
  1

  0
LINE
  5
3801
330
37FF
100
AcDbEntity
  8
実形
 62
     0
370
    18
100
AcDbLine
 10
2177.268788759011
 20
944.0144002706819
 30
0.0
 11
2546.870523059634
 21
944.0144002706819
 31
0.0
  0
LINE
  5
3802
330
37FF
100
AcDbEntity
  8
実形
 62
     0
370
    18
100
AcDbLine
 10
2502.602828392386
 20
914.014400270682
 30
0.0
 11
2546.870523059634
 21
914.014400270682
 31
0.0
  0
LINE
  5
3803
330
37FF
100
AcDbEntity
  8
実形
 62
     0
370
    18
100
AcDbLine
 10
2546.870523059634
 20
944.0144002706819
 30
0.0
 11
2546.870523059634
 21
914.014400270682
 31
0.0
  0
INSERT
  5
3804
330
37FF
100
AcDbEntity
  8
実形
 62
     0
370
    18
100
AcDbBlockReference
  2
_DotSmall
 10
2546.870523059634
 20
944.0144002706819
 30
0.0
 41
35.0
 42
35.0
 43
35.0
 50
90.0
  0
INSERT
  5
3805
330
37FF
100
AcDbEntity
  8
実形
 62
     0
370
    18
100
AcDbBlockReference
  2
_DotSmall
 10
2546.870523059634
 20
914.014400270682
 30
0.0
 41
35.0
 42
35.0
 43
35.0
 50
270.0
  0
MTEXT
  5
3806
330
37FF
100
AcDbEntity
  8
実形
 62
     0
100
AcDbMText
 10
2528.120523059634
 20
929.0144002706822
 30
0.0
 40
25.0
 41
0.0
 71
     5
 72
     1
  1
3
 11
0.0000000000000001
 21
1.0
 31
0.0
 73
     1
 44
1.0
1001
ACAD
1000
MTEXTBEGIN
1070
    73
1070
     1
1070
    44
1040
1.0
1070
    74
1070
     0
1000
MTEXTEND
  0
POINT
  5
3807
330
37FF
100
AcDbEntity
  8
Defpoints
 62
     0
100
AcDbPoint
 10
2112.268788759013
 20
944.0144002706819
 30
0.0
  0
POINT
  5
3808
330
37FF
100
AcDbEntity
  8
Defpoints
 62
     0
100
AcDbPoint
 10
2437.602828392386
 20
914.014400270682
 30
0.0
  0
POINT
  5
3809
330
37FF
100
AcDbEntity
  8
Defpoints
 62
     0
100
AcDbPoint
 10
2546.870523059634
 20
914.014400270682
 30
0.0
  0
ENDBLK
  5
380A
330
37FF
100
AcDbEntity
  8
0
100
AcDbBlockEnd
  0
BLOCK
  5
380F
330
380B
100
AcDbEntity
  8
0
100
AcDbBlockBegin
  2
A$C3AA8414F
 70
     0
 10
0.0
 20
0.0
 30
0.0
  3
A$C3AA8414F
  1

  0
DIMENSION
  5
380C
330
380B
100
AcDbEntity
  8
実形
100
AcDbDimension
  2
*D11
 10
434.6017319957844
 20
4.375000579532183
 30
0.0
 11
434.6017319957844
 21
19.37500057953264
 31
0.0
 12
-2112.268791063849
 22
-909.6393996911498
 32
0.0
 70
   128
  1
3
 71
     5
 42
30.0
  3
ISO-25
100
AcDbAlignedDimension
 13
-0.0000023048373805
 23
34.3750005795323
 33
0.0
 14
325.3340373285373
 24
4.375000579532183
 34
0.0
 50
90.0
100
AcDbRotatedDimension
1001
ACAD
1000
DSTYLE
1002
{
1070
   371
1070
    18
1070
   372
1070
    18
1002
}
  0
ENDBLK
  5
3810
330
380B
100
AcDbEntity
  8
0
100
AcDbBlockEnd
  0
BLOCK
  5
384D
330
3843
100
AcDbEntity
  8
0
100
AcDbBlockBegin
  2
*D13
 70
     1
 10
0.0
 20
0.0
 30
0.0
  3
*D13
  1

  0
LINE
  5
4A20
330
3843
100
AcDbEntity
  8
実形
 62
     0
370
    18
100
AcDbLine
 10
1909.026888515969
 20
1235.494991504019
 30
0.0
 11
1809.353845099318
 21
1235.494991504019
 31
0.0
  0
LINE
  5
4A21
330
3843
100
AcDbEntity
  8
実形
 62
     0
370
    18
100
AcDbLine
 10
1910.24186677995
 20
1085.498470191014
 30
0.0
 11
1809.353845099318
 21
1085.498470191014
 31
0.0
  0
LINE
  5
4A22
330
3843
100
AcDbEntity
  8
実形
 62
     0
370
    18
100
AcDbLine
 10
1809.353845099318
 20
1235.494991504019
 30
0.0
 11
1809.353845099318
 21
1085.498470191014
 31
0.0
  0
INSERT
  5
4A23
330
3843
100
AcDbEntity
  8
実形
 62
     0
370
    18
100
AcDbBlockReference
  2
_DotSmall
 10
1809.353845099318
 20
1235.494991504019
 30
0.0
 41
35.0
 42
35.0
 43
35.0
 50
90.0
  0
INSERT
  5
4A24
330
3843
100
AcDbEntity
  8
実形
 62
     0
370
    18
100
AcDbBlockReference
  2
_DotSmall
 10
1809.353845099318
 20
1085.498470191014
 30
0.0
 41
35.0
 42
35.0
 43
35.0
 50
270.0
  0
MTEXT
  5
4A25
330
3843
100
AcDbEntity
  8
実形
 62
     0
100
AcDbMText
 10
1790.603845099318
 20
1160.496730847516
 30
0.0
 40
25.0
 41
0.0
 71
     5
 72
     1
  1
15
 11
0.0000000000000001
 21
1.0
 31
0.0
 73
     1
 44
1.0
1001
ACAD
1000
MTEXTBEGIN
1070
    73
1070
     1
1070
    44
1040
1.0
1070
    74
1070
     0
1000
MTEXTEND
  0
POINT
  5
4A26
330
3843
100
AcDbEntity
  8
Defpoints
 62
     0
100
AcDbPoint
 10
1974.026888515969
 20
1235.494991504019
 30
0.0
  0
POINT
  5
4A27
330
3843
100
AcDbEntity
  8
Defpoints
 62
     0
100
AcDbPoint
 10
1975.24186677995
 20
1085.498470191014
 30
0.0
  0
POINT
  5
4A28
330
3843
100
AcDbEntity
  8
Defpoints
 62
     0
100
AcDbPoint
 10
1809.353845099318
 20
1085.498470191014
 30
0.0
  0
ENDBLK
  5
384E
330
3843
100
AcDbEntity
  8
0
100
AcDbBlockEnd
  0
BLOCK
  5
3C67
330
3C5D
100
AcDbEntity
  8
0
 62
     1
100
AcDbBlockBegin
  2
*D14
 70
     1
 10
0.0
 20
0.0
 30
0.0
  3
*D14
  1

  0
LINE
  5
4E6A
330
3C5D
100
AcDbEntity
  8
実形
 62
     0
370
    18
100
AcDbLine
 10
605.9232741308663
 20
1598.2293783503
 30
0.0
 11
567.9856858341045
 21
1598.2293783503
 31
0.0
  0
LINE
  5
4E6B
330
3C5D
100
AcDbEntity
  8
実形
 62
     0
370
    18
100
AcDbLine
 10
606.3441103166624
 20
1578.2293783503
 30
0.0
 11
567.9856858341045
 21
1578.2293783503
 31
0.0
  0
LINE
  5
4E6C
330
3C5D
100
AcDbEntity
  8
実形
 62
     0
370
    18
100
AcDbLine
 10
567.9856858341045
 20
1598.2293783503
 30
0.0
 11
567.9856858341045
 21
1578.2293783503
 31
0.0
  0
MTEXT
  5
4E6D
330
3C5D
100
AcDbEntity
  8
実形
 62
     0
100
AcDbMText
 10
548.9244533087767
 20
1626.536030249335
 30
0.0
 40
25.0
 41
0.0
 71
     5
 72
     1
  1
20
 11
0.0000000000000001
 21
1.0
 31
0.0
 73
     1
 44
1.0
1001
ACAD
1000
MTEXTBEGIN
1070
    73
1070
     1
1070
    44
1040
1.0
1070
    74
1070
     0
1000
MTEXTEND
  0
INSERT
  5
4E6E
330
3C5D
100
AcDbEntity
  8
実形
 62
     0
370
    18
100
AcDbBlockReference
  2
_DotSmall
 10
567.9856858341045
 20
1598.2293783503
 30
0.0
 41
35.0
 42
35.0
 43
35.0
 50
90.0
  0
INSERT
  5
4E6F
330
3C5D
100
AcDbEntity
  8
実形
 62
     0
370
    18
100
AcDbBlockReference
  2
_DotSmall
 10
567.9856858341045
 20
1578.2293783503
 30
0.0
 41
35.0
 42
35.0
 43
35.0
 50
270.0
  0
POINT
  5
4E70
330
3C5D
100
AcDbEntity
  8
Defpoints
 62
     0
100
AcDbPoint
 10
670.923274130866
 20
1598.2293783503
 30
0.0
  0
POINT
  5
4E71
330
3C5D
100
AcDbEntity
  8
Defpoints
 62
     0
100
AcDbPoint
 10
671.3441103166624
 20
1578.2293783503
 30
0.0
  0
POINT
  5
4E72
330
3C5D
100
AcDbEntity
  8
Defpoints
 62
     0
100
AcDbPoint
 10
567.9856858341045
 20
1578.2293783503
 30
0.0
  0
ENDBLK
  5
3C68
330
3C5D
100
AcDbEntity
  8
0
 62
     1
100
AcDbBlockEnd
  0
BLOCK
  5
3CA0
330
3C96
100
AcDbEntity
  8
0
 62
     1
100
AcDbBlockBegin
  2
*D15
 70
     1
 10
0.0
 20
0.0
 30
0.0
  3
*D15
  1

  0
LINE
  5
4E61
330
3C96
100
AcDbEntity
  8
実形
 62
     0
370
    18
100
AcDbLine
 10
606.3441103166624
 20
1578.2293783503
 30
0.0
 11
568.1545336407396
 21
1578.2293783503
 31
0.0
  0
LINE
  5
4E62
330
3C96
100
AcDbEntity
  8
実形
 62
     0
370
    18
100
AcDbLine
 10
607.7040211793574
 20
1508.237485031463
 30
0.0
 11
568.1545336407396
 21
1508.237485031463
 31
0.0
  0
LINE
  5
4E63
330
3C96
100
AcDbEntity
  8
実形
 62
     0
370
    18
100
AcDbLine
 10
568.1545336407396
 20
1578.2293783503
 30
0.0
 11
568.1545336407396
 21
1508.237485031463
 31
0.0
  0
INSERT
  5
4E64
330
3C96
100
AcDbEntity
  8
実形
 62
     0
370
    18
100
AcDbBlockReference
  2
_DotSmall
 10
568.1545336407396
 20
1578.2293783503
 30
0.0
 41
35.0
 42
35.0
 43
35.0
 50
90.0
  0
INSERT
  5
4E65
330
3C96
100
AcDbEntity
  8
実形
 62
     0
370
    18
100
AcDbBlockReference
  2
_DotSmall
 10
568.1545336407396
 20
1508.237485031463
 30
0.0
 41
35.0
 42
35.0
 43
35.0
 50
270.0
  0
MTEXT
  5
4E66
330
3C96
100
AcDbEntity
  8
実形
 62
     0
100
AcDbMText
 10
549.4045336407396
 20
1543.233431690882
 30
0.0
 40
25.0
 41
0.0
 71
     5
 72
     1
  1
70
 11
0.0000000000000001
 21
1.0
 31
0.0
 73
     1
 44
1.0
1001
ACAD
1000
MTEXTBEGIN
1070
    73
1070
     1
1070
    44
1040
1.0
1070
    74
1070
     0
1000
MTEXTEND
  0
POINT
  5
4E67
330
3C96
100
AcDbEntity
  8
Defpoints
 62
     0
100
AcDbPoint
 10
671.3441103166624
 20
1578.2293783503
 30
0.0
  0
POINT
  5
4E68
330
3C96
100
AcDbEntity
  8
Defpoints
 62
     0
100
AcDbPoint
 10
672.7040211793572
 20
1508.237485031463
 30
0.0
  0
POINT
  5
4E69
330
3C96
100
AcDbEntity
  8
Defpoints
 62
     0
100
AcDbPoint
 10
568.1545336407396
 20
1508.237485031463
 30
0.0
  0
ENDBLK
  5
3CA1
330
3C96
100
AcDbEntity
  8
0
 62
     1
100
AcDbBlockEnd
  0
BLOCK
  5
3CB6
330
3CAC
100
AcDbEntity
  8
0
 62
     1
100
AcDbBlockBegin
  2
*D16
 70
     1
 10
0.0
 20
0.0
 30
0.0
  3
*D16
  1

  0
LINE
  5
4E58
330
3CAC
100
AcDbEntity
  8
実形
 62
     0
370
    18
100
AcDbLine
 10
604.9842279642253
 20
1053.2293783503
 30
0.0
 11
567.9856858341045
 21
1053.2293783503
 31
0.0
  0
LINE
  5
4E59
330
3CAC
100
AcDbEntity
  8
実形
 62
     0
370
    18
100
AcDbLine
 10
605.923274130866
 20
1033.2293783503
 30
0.0
 11
567.9856858341045
 21
1033.2293783503
 31
0.0
  0
LINE
  5
4E5A
330
3CAC
100
AcDbEntity
  8
実形
 62
     0
370
    18
100
AcDbLine
 10
567.9856858341045
 20
1053.2293783503
 30
0.0
 11
567.9856858341045
 21
1033.2293783503
 31
0.0
  0
MTEXT
  5
4E5B
330
3CAC
100
AcDbEntity
  8
実形
 62
     0
100
AcDbMText
 10
548.6215277062036
 20
999.6021183297996
 30
0.0
 40
25.0
 41
0.0
 71
     5
 72
     1
  1
20
 11
0.0000000000000001
 21
1.0
 31
0.0
 73
     1
 44
1.0
1001
ACAD
1000
MTEXTBEGIN
1070
    73
1070
     1
1070
    44
1040
1.0
1070
    74
1070
     0
1000
MTEXTEND
  0
INSERT
  5
4E5C
330
3CAC
100
AcDbEntity
  8
実形
 62
     0
370
    18
100
AcDbBlockReference
  2
_DotSmall
 10
567.9856858341045
 20
1053.2293783503
 30
0.0
 41
35.0
 42
35.0
 43
35.0
 50
90.0
  0
INSERT
  5
4E5D
330
3CAC
100
AcDbEntity
  8
実形
 62
     0
370
    18
100
AcDbBlockReference
  2
_DotSmall
 10
567.9856858341045
 20
1033.2293783503
 30
0.0
 41
35.0
 42
35.0
 43
35.0
 50
270.0
  0
POINT
  5
4E5E
330
3CAC
100
AcDbEntity
  8
Defpoints
 62
     0
100
AcDbPoint
 10
669.9842279642252
 20
1053.2293783503
 30
0.0
  0
POINT
  5
4E5F
330
3CAC
100
AcDbEntity
  8
Defpoints
 62
     0
100
AcDbPoint
 10
670.923274130866
 20
1033.2293783503
 30
0.0
  0
POINT
  5
4E60
330
3CAC
100
AcDbEntity
  8
Defpoints
 62
     0
100
AcDbPoint
 10
567.9856858341045
 20
1033.2293783503
 30
0.0
  0
ENDBLK
  5
3CB7
330
3CAC
100
AcDbEntity
  8
0
 62
     1
100
AcDbBlockEnd
  0
BLOCK
  5
3CC3
330
3CB9
100
AcDbEntity
  8
0
 62
     1
100
AcDbBlockBegin
  2
*D17
 70
     1
 10
0.0
 20
0.0
 30
0.0
  3
*D17
  1

  0
LINE
  5
4E4F
330
3CB9
100
AcDbEntity
  8
実形
 62
     0
370
    18
100
AcDbLine
 10
561.4673939708373
 20
1053.2293783503
 30
0.0
 11
567.9856858341045
 21
1053.2293783503
 31
0.0
  0
LINE
  5
4E50
330
3CB9
100
AcDbEntity
  8
実形
 62
     0
370
    18
100
AcDbLine
 10
606.3441103166624
 20
1068.2293783503
 30
0.0
 11
567.9856858341045
 21
1068.2293783503
 31
0.0
  0
LINE
  5
4E51
330
3CB9
100
AcDbEntity
  8
実形
 62
     0
370
    18
100
AcDbLine
 10
567.9856858341045
 20
1053.2293783503
 30
0.0
 11
567.9856858341045
 21
1068.2293783503
 31
0.0
  0
MTEXT
  5
4E52
330
3CB9
100
AcDbEntity
  8
実形
 62
     0
100
AcDbMText
 10
548.0238671385887
 20
1071.590921029012
 30
0.0
 40
25.0
 41
0.0
 71
     5
 72
     1
  1
15
 11
0.0000000000000001
 21
1.0
 31
0.0
 73
     1
 44
1.0
1001
ACAD
1000
MTEXTBEGIN
1070
    73
1070
     1
1070
    44
1040
1.0
1070
    74
1070
     0
1000
MTEXTEND
  0
INSERT
  5
4E53
330
3CB9
100
AcDbEntity
  8
実形
 62
     0
370
    18
100
AcDbBlockReference
  2
_DotSmall
 10
567.9856858341045
 20
1053.2293783503
 30
0.0
 41
35.0
 42
35.0
 43
35.0
 50
270.0
  0
INSERT
  5
4E54
330
3CB9
100
AcDbEntity
  8
実形
 62
     0
370
    18
100
AcDbBlockReference
  2
_DotSmall
 10
567.9856858341045
 20
1068.2293783503
 30
0.0
 41
35.0
 42
35.0
 43
35.0
 50
90.0
  0
POINT
  5
4E55
330
3CB9
100
AcDbEntity
  8
Defpoints
 62
     0
100
AcDbPoint
 10
626.4673939708373
 20
1053.2293783503
 30
0.0
  0
POINT
  5
4E56
330
3CB9
100
AcDbEntity
  8
Defpoints
 62
     0
100
AcDbPoint
 10
671.3441103166624
 20
1068.2293783503
 30
0.0
  0
POINT
  5
4E57
330
3CB9
100
AcDbEntity
  8
Defpoints
 62
     0
100
AcDbPoint
 10
567.9856858341045
 20
1068.2293783503
 30
0.0
  0
ENDBLK
  5
3CC4
330
3CB9
100
AcDbEntity
  8
0
 62
     1
100
AcDbBlockEnd
  0
BLOCK
  5
3CF5
330
3CEB
100
AcDbEntity
  8
0
 62
     1
100
AcDbBlockBegin
  2
*D18
 70
     1
 10
0.0
 20
0.0
 30
0.0
  3
*D18
  1

  0
LINE
  5
4E46
330
3CEB
100
AcDbEntity
  8
実形
 62
     0
370
    18
100
AcDbLine
 10
568.2668912637926
 20
1508.237485031463
 30
0.0
 11
567.8592243739659
 21
1508.237485031463
 31
0.0
  0
LINE
  5
4E47
330
3CEB
100
AcDbEntity
  8
実形
 62
     0
370
    18
100
AcDbLine
 10
568.623876929383
 20
1068.2293783503
 30
0.0
 11
567.8592243739656
 21
1068.2293783503
 31
0.0
  0
LINE
  5
4E48
330
3CEB
100
AcDbEntity
  8
実形
 62
     0
370
    18
100
AcDbLine
 10
567.8592243739659
 20
1508.237485031463
 30
0.0
 11
567.8592243739656
 21
1068.2293783503
 31
0.0
  0
INSERT
  5
4E49
330
3CEB
100
AcDbEntity
  8
実形
 62
     0
370
    18
100
AcDbBlockReference
  2
_DotSmall
 10
567.8592243739659
 20
1508.237485031463
 30
0.0
 41
35.0
 42
35.0
 43
35.0
 50
90.0
  0
INSERT
  5
4E4A
330
3CEB
100
AcDbEntity
  8
実形
 62
     0
370
    18
100
AcDbBlockReference
  2
_DotSmall
 10
567.8592243739656
 20
1068.2293783503
 30
0.0
 41
35.0
 42
35.0
 43
35.0
 50
270.0
  0
MTEXT
  5
4E4B
330
3CEB
100
AcDbEntity
  8
実形
 62
     0
100
AcDbMText
 10
549.1092243739656
 20
1288.233431690882
 30
0.0
 40
25.0
 41
0.0
 71
     5
 72
     1
  1
440
 11
0.0000000000000001
 21
1.0
 31
0.0
 73
     1
 44
1.0
1001
ACAD
1000
MTEXTBEGIN
1070
    73
1070
     1
1070
    44
1040
1.0
1070
    74
1070
     0
1000
MTEXTEND
  0
POINT
  5
4E4C
330
3CEB
100
AcDbEntity
  8
Defpoints
 62
     0
100
AcDbPoint
 10
633.2668912637926
 20
1508.237485031463
 30
0.0
  0
POINT
  5
4E4D
330
3CEB
100
AcDbEntity
  8
Defpoints
 62
     0
100
AcDbPoint
 10
633.6238769293832
 20
1068.2293783503
 30
0.0
  0
POINT
  5
4E4E
330
3CEB
100
AcDbEntity
  8
Defpoints
 62
     0
100
AcDbPoint
 10
567.8592243739656
 20
1068.2293783503
 30
0.0
  0
ENDBLK
  5
3CF6
330
3CEB
100
AcDbEntity
  8
0
 62
     1
100
AcDbBlockEnd
  0
BLOCK
  5
3D0B
330
3D01
100
AcDbEntity
  8
0
 62
     1
100
AcDbBlockBegin
  2
*D19
 70
     1
 10
0.0
 20
0.0
 30
0.0
  3
*D19
  1

  0
LINE
  5
4E3D
330
3D01
100
AcDbEntity
  8
実形
 62
     0
370
    18
100
AcDbLine
 10
605.9232741308663
 20
1598.2293783503
 30
0.0
 11
499.9856858341048
 21
1598.2293783503
 31
0.0
  0
LINE
  5
4E3E
330
3D01
100
AcDbEntity
  8
実形
 62
     0
370
    18
100
AcDbLine
 10
605.923274130866
 20
1033.2293783503
 30
0.0
 11
499.9856858341046
 21
1033.229378350301
 31
0.0
  0
LINE
  5
4E3F
330
3D01
100
AcDbEntity
  8
実形
 62
     0
370
    18
100
AcDbLine
 10
499.9856858341048
 20
1598.2293783503
 30
0.0
 11
499.9856858341046
 21
1033.229378350301
 31
0.0
  0
INSERT
  5
4E40
330
3D01
100
AcDbEntity
  8
実形
 62
     0
370
    18
100
AcDbBlockReference
  2
_DotSmall
 10
499.9856858341048
 20
1598.2293783503
 30
0.0
 41
35.0
 42
35.0
 43
35.0
 50
90.0
  0
INSERT
  5
4E41
330
3D01
100
AcDbEntity
  8
実形
 62
     0
370
    18
100
AcDbBlockReference
  2
_DotSmall
 10
499.9856858341046
 20
1033.229378350301
 30
0.0
 41
35.0
 42
35.0
 43
35.0
 50
270.0
  0
MTEXT
  5
4E42
330
3D01
100
AcDbEntity
  8
実形
 62
     0
100
AcDbMText
 10
481.2356858341045
 20
1315.7293783503
 30
0.0
 40
25.0
 41
0.0
 71
     5
 72
     1
  1
565
 11
0.0000000000000001
 21
1.0
 31
0.0
 73
     1
 44
1.0
1001
ACAD
1000
MTEXTBEGIN
1070
    73
1070
     1
1070
    44
1040
1.0
1070
    74
1070
     0
1000
MTEXTEND
  0
POINT
  5
4E43
330
3D01
100
AcDbEntity
  8
Defpoints
 62
     0
100
AcDbPoint
 10
670.923274130866
 20
1598.2293783503
 30
0.0
  0
POINT
  5
4E44
330
3D01
100
AcDbEntity
  8
Defpoints
 62
     0
100
AcDbPoint
 10
670.923274130866
 20
1033.2293783503
 30
0.0
  0
POINT
  5
4E45
330
3D01
100
AcDbEntity
  8
Defpoints
 62
     0
100
AcDbPoint
 10
499.9856858341046
 20
1033.229378350301
 30
0.0
  0
ENDBLK
  5
3D0C
330
3D01
100
AcDbEntity
  8
0
 62
     1
100
AcDbBlockEnd
  0
BLOCK
  5
3DE7
330
3DDD
100
AcDbEntity
  8
0
 62
     1
100
AcDbBlockBegin
  2
*D20
 70
     1
 10
0.0
 20
0.0
 30
0.0
  3
*D20
  1

  0
LINE
  5
4F2D
330
3DDD
100
AcDbEntity
  8
実形
 62
     0
370
    18
100
AcDbLine
 10
658.923274130866
 20
909.6978503671524
 30
0.0
 11
658.923274130866
 21
868.3491766463516
 31
0.0
  0
LINE
  5
4F2E
330
3DDD
100
AcDbEntity
  8
実形
 62
     0
370
    18
100
AcDbLine
 10
708.9383815103809
 20
867.4264522553674
 30
0.0
 11
708.9383815103809
 21
868.3491766463516
 31
0.0
  0
LINE
  5
4F2F
330
3DDD
100
AcDbEntity
  8
実形
 62
     0
370
    18
100
AcDbLine
 10
658.923274130866
 20
868.3491766463516
 30
0.0
 11
708.9383815103809
 21
868.3491766463516
 31
0.0
  0
MTEXT
  5
4F30
330
3DDD
100
AcDbEntity
  8
実形
 62
     0
100
AcDbMText
 10
622.7249313059947
 20
887.0991766463516
 30
0.0
 40
25.0
 41
0.0
 71
     5
 72
     1
  1
50
 73
     1
 44
1.0
1001
ACAD
1000
MTEXTBEGIN
1070
    73
1070
     1
1070
    44
1040
1.0
1070
    74
1070
     0
1000
MTEXTEND
  0
INSERT
  5
4F31
330
3DDD
100
AcDbEntity
  8
実形
 62
     0
370
    18
100
AcDbBlockReference
  2
_DotSmall
 10
658.923274130866
 20
868.3491766463516
 30
0.0
 41
35.0
 42
35.0
 43
35.0
 50
180.0
  0
INSERT
  5
4F32
330
3DDD
100
AcDbEntity
  8
実形
 62
     0
370
    18
100
AcDbBlockReference
  2
_DotSmall
 10
708.9383815103809
 20
868.3491766463516
 30
0.0
 41
35.0
 42
35.0
 43
35.0
  0
POINT
  5
4F33
330
3DDD
100
AcDbEntity
  8
Defpoints
 62
     0
100
AcDbPoint
 10
658.923274130866
 20
974.6978503671526
 30
0.0
  0
POINT
  5
4F34
330
3DDD
100
AcDbEntity
  8
Defpoints
 62
     0
100
AcDbPoint
 10
708.9383815103809
 20
932.4264522553676
 30
0.0
  0
POINT
  5
4F35
330
3DDD
100
AcDbEntity
  8
Defpoints
 62
     0
100
AcDbPoint
 10
708.9383815103809
 20
868.3491766463516
 30
0.0
  0
ENDBLK
  5
3DE8
330
3DDD
100
AcDbEntity
  8
0
 62
     1
100
AcDbBlockEnd
  0
BLOCK
  5
451A
330
4510
100
AcDbEntity
  8
0
 62
     1
100
AcDbBlockBegin
  2
*D21
 70
     1
 10
0.0
 20
0.0
 30
0.0
  3
*D21
  1

  0
LINE
  5
4E2B
330
4510
100
AcDbEntity
  8
実形
 62
     0
370
    18
100
AcDbLine
 10
600.4050526521277
 20
681.9081429519782
 30
0.0
 11
518.8696465186438
 21
681.9081429519782
 31
0.0
  0
LINE
  5
4E2C
330
4510
100
AcDbEntity
  8
実形
 62
     0
370
    18
100
AcDbLine
 10
600.4050526521277
 20
487.9081429519784
 30
0.0
 11
518.8696465186438
 21
487.9081429519784
 31
0.0
  0
LINE
  5
4E2D
330
4510
100
AcDbEntity
  8
実形
 62
     0
370
    18
100
AcDbLine
 10
518.8696465186438
 20
681.9081429519782
 30
0.0
 11
518.8696465186438
 21
487.9081429519784
 31
0.0
  0
INSERT
  5
4E2E
330
4510
100
AcDbEntity
  8
実形
 62
     0
370
    18
100
AcDbBlockReference
  2
_DotSmall
 10
518.8696465186438
 20
681.9081429519782
 30
0.0
 41
35.0
 42
35.0
 43
35.0
 50
90.0
  0
INSERT
  5
4E2F
330
4510
100
AcDbEntity
  8
実形
 62
     0
370
    18
100
AcDbBlockReference
  2
_DotSmall
 10
518.8696465186438
 20
487.9081429519784
 30
0.0
 41
35.0
 42
35.0
 43
35.0
 50
270.0
  0
MTEXT
  5
4E30
330
4510
100
AcDbEntity
  8
実形
 62
     0
100
AcDbMText
 10
500.1196465186438
 20
584.9081429519783
 30
0.0
 40
25.0
 41
0.0
 71
     5
 72
     1
  1
194
 11
0.0000000000000001
 21
1.0
 31
0.0
 73
     1
 44
1.0
1001
ACAD
1000
MTEXTBEGIN
1070
    73
1070
     1
1070
    44
1040
1.0
1070
    74
1070
     0
1000
MTEXTEND
  0
POINT
  5
4E31
330
4510
100
AcDbEntity
  8
Defpoints
 62
     0
100
AcDbPoint
 10
665.4050526521277
 20
681.9081429519782
 30
0.0
  0
POINT
  5
4E32
330
4510
100
AcDbEntity
  8
Defpoints
 62
     0
100
AcDbPoint
 10
665.4050526521277
 20
487.9081429519782
 30
0.0
  0
POINT
  5
4E33
330
4510
100
AcDbEntity
  8
Defpoints
 62
     0
100
AcDbPoint
 10
518.8696465186438
 20
487.9081429519784
 30
0.0
  0
ENDBLK
  5
451B
330
4510
100
AcDbEntity
  8
0
 62
     1
100
AcDbBlockEnd
  0
BLOCK
  5
46C5
330
46BB
100
AcDbEntity
  8
0
 62
     1
100
AcDbBlockBegin
  2
*D22
 70
     1
 10
0.0
 20
0.0
 30
0.0
  3
*D22
  1

  0
LINE
  5
4A29
330
46BB
100
AcDbEntity
  8
実形
 62
     0
370
    18
100
AcDbLine
 10
2050.24186677995
 20
1343.163300988021
 30
0.0
 11
2050.24186677995
 21
1350.171922688963
 31
0.0
  0
LINE
  5
4A2A
330
46BB
100
AcDbEntity
  8
実形
 62
     0
370
    18
100
AcDbLine
 10
2120.24186677995
 20
1415.171922688962
 30
0.0
 11
2120.24186677995
 21
1350.171922688963
 31
0.0
  0
LINE
  5
4A2B
330
46BB
100
AcDbEntity
  8
実形
 62
     0
370
    18
100
AcDbLine
 10
2050.24186677995
 20
1350.171922688963
 30
0.0
 11
2120.24186677995
 21
1350.171922688963
 31
0.0
  0
INSERT
  5
4A2C
330
46BB
100
AcDbEntity
  8
実形
 62
     0
370
    18
100
AcDbBlockReference
  2
_DotSmall
 10
2050.24186677995
 20
1350.171922688963
 30
0.0
 41
35.0
 42
35.0
 43
35.0
 50
180.0
  0
INSERT
  5
4A2D
330
46BB
100
AcDbEntity
  8
実形
 62
     0
370
    18
100
AcDbBlockReference
  2
_DotSmall
 10
2120.24186677995
 20
1350.171922688963
 30
0.0
 41
35.0
 42
35.0
 43
35.0
  0
MTEXT
  5
4A2E
330
46BB
100
AcDbEntity
  8
実形
 62
     0
100
AcDbMText
 10
2085.24186677995
 20
1368.921922688963
 30
0.0
 40
25.0
 41
0.0
 71
     5
 72
     1
  1
7
 73
     1
 44
1.0
1001
ACAD
1000
MTEXTBEGIN
1070
    73
1070
     1
1070
    44
1040
1.0
1070
    74
1070
     0
1000
MTEXTEND
  0
POINT
  5
4A2F
330
46BB
100
AcDbEntity
  8
Defpoints
 62
     0
100
AcDbPoint
 10
2050.24186677995
 20
1278.16330098802
 30
0.0
  0
POINT
  5
4A30
330
46BB
100
AcDbEntity
  8
Defpoints
 62
     0
100
AcDbPoint
 10
2120.24186677995
 20
1350.171922688963
 30
0.0
  0
POINT
  5
4A31
330
46BB
100
AcDbEntity
  8
Defpoints
 62
     0
100
AcDbPoint
 10
2120.24186677995
 20
1350.171922688963
 30
0.0
  0
ENDBLK
  5
46C6
330
46BB
100
AcDbEntity
  8
0
 62
     1
100
AcDbBlockEnd
  0
BLOCK
  5
46D3
330
46C9
100
AcDbEntity
  8
0
 62
     1
100
AcDbBlockBegin
  2
*D23
 70
     1
 10
0.0
 20
0.0
 30
0.0
  3
*D23
  1

  0
LINE
  5
4A32
330
46C9
100
AcDbEntity
  8
実形
 62
     0
370
    18
100
AcDbLine
 10
1970.24186677995
 20
1328.365542684089
 30
0.0
 11
1970.24186677995
 21
1349.507781300828
 31
0.0
  0
LINE
  5
4A33
330
46C9
100
AcDbEntity
  8
実形
 62
     0
370
    18
100
AcDbLine
 10
2050.24186677995
 20
1316.348024068269
 30
0.0
 11
2050.24186677995
 21
1349.507781300828
 31
0.0
  0
LINE
  5
4A34
330
46C9
100
AcDbEntity
  8
実形
 62
     0
370
    18
100
AcDbLine
 10
1970.24186677995
 20
1349.507781300828
 30
0.0
 11
2050.24186677995
 21
1349.507781300828
 31
0.0
  0
INSERT
  5
4A35
330
46C9
100
AcDbEntity
  8
実形
 62
     0
370
    18
100
AcDbBlockReference
  2
_DotSmall
 10
1970.24186677995
 20
1349.507781300828
 30
0.0
 41
35.0
 42
35.0
 43
35.0
 50
180.0
  0
INSERT
  5
4A36
330
46C9
100
AcDbEntity
  8
実形
 62
     0
370
    18
100
AcDbBlockReference
  2
_DotSmall
 10
2050.24186677995
 20
1349.507781300828
 30
0.0
 41
35.0
 42
35.0
 43
35.0
  0
MTEXT
  5
4A37
330
46C9
100
AcDbEntity
  8
実形
 62
     0
100
AcDbMText
 10
2010.24186677995
 20
1368.257781300828
 30
0.0
 40
25.0
 41
0.0
 71
     5
 72
     1
  1
8
 73
     1
 44
1.0
1001
ACAD
1000
MTEXTBEGIN
1070
    73
1070
     1
1070
    44
1040
1.0
1070
    74
1070
     0
1000
MTEXTEND
  0
POINT
  5
4A38
330
46C9
100
AcDbEntity
  8
Defpoints
 62
     0
100
AcDbPoint
 10
1970.24186677995
 20
1263.365542684089
 30
0.0
  0
POINT
  5
4A39
330
46C9
100
AcDbEntity
  8
Defpoints
 62
     0
100
AcDbPoint
 10
2050.24186677995
 20
1251.348024068269
 30
0.0
  0
POINT
  5
4A3A
330
46C9
100
AcDbEntity
  8
Defpoints
 62
     0
100
AcDbPoint
 10
2050.24186677995
 20
1349.507781300828
 30
0.0
  0
ENDBLK
  5
46D4
330
46C9
100
AcDbEntity
  8
0
 62
     1
100
AcDbBlockEnd
  0
BLOCK
  5
4712
330
4708
100
AcDbEntity
  8
0
 62
     1
100
AcDbBlockBegin
  2
*D24
 70
     1
 10
0.0
 20
0.0
 30
0.0
  3
*D24
  1

  0
LINE
  5
4A3B
330
4708
100
AcDbEntity
  8
実形
 62
     0
370
    18
100
AcDbLine
 10
1920.24186677995
 20
1314.360476632784
 30
0.0
 11
1920.24186677995
 21
1349.507781300828
 31
0.0
  0
LINE
  5
4A3C
330
4708
100
AcDbEntity
  8
実形
 62
     0
370
    18
100
AcDbLine
 10
1970.24186677995
 20
1315.02299244461
 30
0.0
 11
1970.24186677995
 21
1349.507781300828
 31
0.0
  0
LINE
  5
4A3D
330
4708
100
AcDbEntity
  8
実形
 62
     0
370
    18
100
AcDbLine
 10
1920.24186677995
 20
1349.507781300828
 30
0.0
 11
1970.24186677995
 21
1349.507781300828
 31
0.0
  0
MTEXT
  5
4A3E
330
4708
100
AcDbEntity
  8
実形
 62
     0
100
AcDbMText
 10
1945.24186677995
 20
1368.623608071728
 30
0.0
 40
25.0
 41
0.0
 71
     5
 72
     1
  1
5
 73
     1
 44
1.0
1001
ACAD
1000
MTEXTBEGIN
1070
    73
1070
     1
1070
    44
1040
1.0
1070
    74
1070
     0
1000
MTEXTEND
  0
INSERT
  5
4A3F
330
4708
100
AcDbEntity
  8
実形
 62
     0
370
    18
100
AcDbBlockReference
  2
_DotSmall
 10
1920.24186677995
 20
1349.507781300828
 30
0.0
 41
35.0
 42
35.0
 43
35.0
 50
180.0
  0
INSERT
  5
4A40
330
4708
100
AcDbEntity
  8
実形
 62
     0
370
    18
100
AcDbBlockReference
  2
_DotSmall
 10
1970.24186677995
 20
1349.507781300828
 30
0.0
 41
35.0
 42
35.0
 43
35.0
  0
POINT
  5
4A41
330
4708
100
AcDbEntity
  8
Defpoints
 62
     0
100
AcDbPoint
 10
1920.24186677995
 20
1249.360476632784
 30
0.0
  0
POINT
  5
4A42
330
4708
100
AcDbEntity
  8
Defpoints
 62
     0
100
AcDbPoint
 10
1970.24186677995
 20
1250.02299244461
 30
0.0
  0
POINT
  5
4A43
330
4708
100
AcDbEntity
  8
Defpoints
 62
     0
100
AcDbPoint
 10
1970.24186677995
 20
1349.507781300828
 30
0.0
  0
ENDBLK
  5
4713
330
4708
100
AcDbEntity
  8
0
 62
     1
100
AcDbBlockEnd
  0
BLOCK
  5
4C4B
330
4C41
100
AcDbEntity
  8
0
 62
     1
100
AcDbBlockBegin
  2
*D25
 70
     1
 10
0.0
 20
0.0
 30
0.0
  3
*D25
  1

  0
LINE
  5
4E19
330
4C41
100
AcDbEntity
  8
実形
 62
     0
370
    18
100
AcDbLine
 10
658.923274130866
 20
1651.2293783503
 30
0.0
 11
658.923274130866
 21
1767.611854205581
 31
0.0
  0
LINE
  5
4E1A
330
4C41
100
AcDbEntity
  8
実形
 62
     0
370
    18
100
AcDbLine
 10
1108.923274130866
 20
1663.2293783503
 30
0.0
 11
1108.923274130866
 21
1767.611854205581
 31
0.0
  0
LINE
  5
4E1B
330
4C41
100
AcDbEntity
  8
実形
 62
     0
370
    18
100
AcDbLine
 10
658.923274130866
 20
1767.611854205581
 30
0.0
 11
1108.923274130866
 21
1767.611854205581
 31
0.0
  0
INSERT
  5
4E1C
330
4C41
100
AcDbEntity
  8
実形
 62
     0
370
    18
100
AcDbBlockReference
  2
_DotSmall
 10
658.923274130866
 20
1767.611854205581
 30
0.0
 41
35.0
 42
35.0
 43
35.0
 50
180.0
  0
INSERT
  5
4E1D
330
4C41
100
AcDbEntity
  8
実形
 62
     0
370
    18
100
AcDbBlockReference
  2
_DotSmall
 10
1108.923274130866
 20
1767.611854205581
 30
0.0
 41
35.0
 42
35.0
 43
35.0
  0
MTEXT
  5
4E1E
330
4C41
100
AcDbEntity
  8
実形
 62
     0
100
AcDbMText
 10
883.9232741308663
 20
1786.361854205581
 30
0.0
 40
25.0
 41
0.0
 71
     5
 72
     1
  1
450
 73
     1
 44
1.0
1001
ACAD
1000
MTEXTBEGIN
1070
    73
1070
     1
1070
    44
1040
1.0
1070
    74
1070
     0
1000
MTEXTEND
  0
POINT
  5
4E1F
330
4C41
100
AcDbEntity
  8
Defpoints
 62
     0
100
AcDbPoint
 10
658.923274130866
 20
1586.2293783503
 30
0.0
  0
POINT
  5
4E20
330
4C41
100
AcDbEntity
  8
Defpoints
 62
     0
100
AcDbPoint
 10
1108.923274130866
 20
1598.2293783503
 30
0.0
  0
POINT
  5
4E21
330
4C41
100
AcDbEntity
  8
Defpoints
 62
     0
100
AcDbPoint
 10
1108.923274130866
 20
1767.611854205581
 30
0.0
  0
ENDBLK
  5
4C4C
330
4C41
100
AcDbEntity
  8
0
 62
     1
100
AcDbBlockEnd
  0
BLOCK
  5
4CCF
330
4CC5
100
AcDbEntity
  8
0
 62
     1
100
AcDbBlockBegin
  2
*D26
 70
     1
 10
0.0
 20
0.0
 30
0.0
  3
*D26
  1

  0
LINE
  5
4E10
330
4CC5
100
AcDbEntity
  8
実形
 62
     0
370
    18
100
AcDbLine
 10
1447.932197175396
 20
1343.2293783503
 30
0.0
 11
1689.239990772156
 21
1343.2293783503
 31
0.0
  0
LINE
  5
4E11
330
4CC5
100
AcDbEntity
  8
実形
 62
     0
370
    18
100
AcDbLine
 10
1611.923274130866
 20
1598.2293783503
 30
0.0
 11
1689.239990772156
 21
1598.2293783503
 31
0.0
  0
LINE
  5
4E12
330
4CC5
100
AcDbEntity
  8
実形
 62
     0
370
    18
100
AcDbLine
 10
1689.239990772156
 20
1343.2293783503
 30
0.0
 11
1689.239990772156
 21
1598.2293783503
 31
0.0
  0
INSERT
  5
4E13
330
4CC5
100
AcDbEntity
  8
実形
 62
     0
370
    18
100
AcDbBlockReference
  2
_DotSmall
 10
1689.239990772156
 20
1343.2293783503
 30
0.0
 41
35.0
 42
35.0
 43
35.0
 50
270.0
  0
INSERT
  5
4E14
330
4CC5
100
AcDbEntity
  8
実形
 62
     0
370
    18
100
AcDbBlockReference
  2
_DotSmall
 10
1689.239990772156
 20
1598.2293783503
 30
0.0
 41
35.0
 42
35.0
 43
35.0
 50
90.0
  0
MTEXT
  5
4E15
330
4CC5
100
AcDbEntity
  8
実形
 62
     0
100
AcDbMText
 10
1670.489990772155
 20
1470.7293783503
 30
0.0
 40
25.0
 41
0.0
 71
     5
 72
     1
  1
255
 11
0.0000000000000001
 21
1.0
 31
0.0
 73
     1
 44
1.0
1001
ACAD
1000
MTEXTBEGIN
1070
    73
1070
     1
1070
    44
1040
1.0
1070
    74
1070
     0
1000
MTEXTEND
  0
POINT
  5
4E16
330
4CC5
100
AcDbEntity
  8
Defpoints
 62
     0
100
AcDbPoint
 10
1382.932197175396
 20
1343.2293783503
 30
0.0
  0
POINT
  5
4E17
330
4CC5
100
AcDbEntity
  8
Defpoints
 62
     0
100
AcDbPoint
 10
1546.923274130866
 20
1598.2293783503
 30
0.0
  0
POINT
  5
4E18
330
4CC5
100
AcDbEntity
  8
Defpoints
 62
     0
100
AcDbPoint
 10
1689.239990772156
 20
1598.2293783503
 30
0.0
  0
ENDBLK
  5
4CD0
330
4CC5
100
AcDbEntity
  8
0
 62
     1
100
AcDbBlockEnd
  0
BLOCK
  5
4CE3
330
4CDA
100
AcDbEntity
  8
0
 62
     1
100
AcDbBlockBegin
  2
A$C5FA122E6
 70
     0
 10
0.0
 20
0.0
 30
0.0
  3
A$C5FA122E6
  1

  0
TEXT
  5
4CDB
330
4CDA
100
AcDbEntity
  8
寸法
100
AcDbText
 10
52.46803844894565
 20
72.44780202264564
 30
0.0
 40
25.0
  1
8500R
100
AcDbText
  0
LEADER
  5
4CDC
330
4CDA
100
AcDbEntity
  8
0
100
AcDbLeader
  3
ISO-25
 40
25.0
 41
16.66666666666666
 76
     2
 10
0.0000029303209885
 20
33.56163710534293
 30
0.0
 10
39.22241212496557
 20
68.3984633240625
 30
0.0
213
0.0
223
-12.5
233
0.0
1001
ACAD
1000
DSTYLE
1002
{
1070
    41
1040
25.0
1070
   147
1040
6.25
1070
    77
1070
     0
1070
    73
1070
     1
1070
    74
1070
     1
1070
   279
1070
     1
1070
   342
1005
DA
1002
}
  0
TEXT
  5
4CDD
330
4CDA
100
AcDbEntity
  8
寸法
100
AcDbText
 10
363.7427845123128
 20
95.49770420886487
 30
0.0
 40
25.0
  1
30R
100
AcDbText
  0
LEADER
  5
4CDE
330
4CDA
100
AcDbEntity
  8
0
100
AcDbLeader
  3
ISO-25
 40
25.0
 41
16.66666666666666
 76
     2
 10
485.1020920494666
 20
3.555895013039843
 30
0.0
 10
419.5346821762722
 20
77.45464778182213
 30
0.0
213
0.0
223
-12.5
233
0.0
1001
ACAD
1000
DSTYLE
1002
{
1070
    41
1040
25.0
1070
   147
1040
6.25
1070
    77
1070
     0
1070
    73
1070
     1
1070
    74
1070
     1
1070
   279
1070
     1
1070
   342
1005
DA
1002
}
  0
TEXT
  5
4CDF
330
4CDA
100
AcDbEntity
  8
寸法
100
AcDbText
 10
295.995423185559
 20
44.42969633368192
 30
0.0
 40
25.0
  1
23R
100
AcDbText
  0
LEADER
  5
4CE0
330
4CDA
100
AcDbEntity
  8
0
100
AcDbLeader
  3
ISO-25
 40
25.0
 41
16.66666666666666
 76
     2
 10
470.5068634696508
 20
0.0
 30
0.0
 10
363.9891986842304
 20
45.77113321036086
 30
0.0
213
0.0
223
-12.5
233
0.0
1001
ACAD
1000
DSTYLE
1002
{
1070
    41
1040
25.0
1070
   147
1040
6.25
1070
    77
1070
     0
1070
    73
1070
     1
1070
    74
1070
     1
1070
   279
1070
     1
1070
   342
1005
DA
1002
}
  0
ENDBLK
  5
4CE4
330
4CDA
100
AcDbEntity
  8
0
 62
     1
100
AcDbBlockEnd
  0
BLOCK
  5
4D06
330
4CFC
100
AcDbEntity
  8
0
 62
     1
100
AcDbBlockBegin
  2
*D28
 70
     1
 10
0.0
 20
0.0
 30
0.0
  3
*D28
  1

  0
LINE
  5
4E07
330
4CFC
100
AcDbEntity
  8
実形
 62
     0
370
    18
100
AcDbLine
 10
708.9232741308659
 20
982.430209407452
 30
0.0
 11
708.9232741308659
 21
868.3491766463516
 31
0.0
  0
LINE
  5
4E08
330
4CFC
100
AcDbEntity
  8
実形
 62
     0
370
    18
100
AcDbLine
 10
1508.923274130866
 20
967.2459356799665
 30
0.0
 11
1508.923274130866
 21
868.3491766463516
 31
0.0
  0
LINE
  5
4E09
330
4CFC
100
AcDbEntity
  8
実形
 62
     0
370
    18
100
AcDbLine
 10
708.9232741308659
 20
868.3491766463516
 30
0.0
 11
1508.923274130866
 21
868.3491766463516
 31
0.0
  0
INSERT
  5
4E0A
330
4CFC
100
AcDbEntity
  8
実形
 62
     0
370
    18
100
AcDbBlockReference
  2
_DotSmall
 10
708.9232741308659
 20
868.3491766463516
 30
0.0
 41
35.0
 42
35.0
 43
35.0
 50
180.0
  0
INSERT
  5
4E0B
330
4CFC
100
AcDbEntity
  8
実形
 62
     0
370
    18
100
AcDbBlockReference
  2
_DotSmall
 10
1508.923274130866
 20
868.3491766463516
 30
0.0
 41
35.0
 42
35.0
 43
35.0
  0
MTEXT
  5
4E0C
330
4CFC
100
AcDbEntity
  8
実形
 62
     0
100
AcDbMText
 10
1108.923274130866
 20
887.0991766463516
 30
0.0
 40
25.0
 41
0.0
 71
     5
 72
     1
  1
800
 73
     1
 44
1.0
1001
ACAD
1000
MTEXTBEGIN
1070
    73
1070
     1
1070
    44
1040
1.0
1070
    74
1070
     0
1000
MTEXTEND
  0
POINT
  5
4E0D
330
4CFC
100
AcDbEntity
  8
Defpoints
 62
     0
100
AcDbPoint
 10
708.9232741308659
 20
1047.430209407452
 30
0.0
  0
POINT
  5
4E0E
330
4CFC
100
AcDbEntity
  8
Defpoints
 62
     0
100
AcDbPoint
 10
1508.923274130866
 20
1032.245935679966
 30
0.0
  0
POINT
  5
4E0F
330
4CFC
100
AcDbEntity
  8
Defpoints
 62
     0
100
AcDbPoint
 10
1508.923274130866
 20
868.3491766463516
 30
0.0
  0
ENDBLK
  5
4D07
330
4CFC
100
AcDbEntity
  8
0
 62
     1
100
AcDbBlockEnd
  0
BLOCK
  5
4D2E
330
4D24
100
AcDbEntity
  8
0
 62
     1
100
AcDbBlockBegin
  2
*D29
 70
     1
 10
0.0
 20
0.0
 30
0.0
  3
*D29
  1

  0
LINE
  5
4DFE
330
4D24
100
AcDbEntity
  8
実形
 62
     0
370
    18
100
AcDbLine
 10
658.923274130866
 20
976.3598646712344
 30
0.0
 11
658.923274130866
 21
793.7777268741264
 31
0.0
  0
LINE
  5
4DFF
330
4D24
100
AcDbEntity
  8
実形
 62
     0
370
    18
100
AcDbLine
 10
1558.923274130866
 20
980.2293783503003
 30
0.0
 11
1558.923274130866
 21
793.7777268741264
 31
0.0
  0
LINE
  5
4E00
330
4D24
100
AcDbEntity
  8
実形
 62
     0
370
    18
100
AcDbLine
 10
658.923274130866
 20
793.7777268741264
 30
0.0
 11
1558.923274130866
 21
793.7777268741264
 31
0.0
  0
INSERT
  5
4E01
330
4D24
100
AcDbEntity
  8
実形
 62
     0
370
    18
100
AcDbBlockReference
  2
_DotSmall
 10
658.923274130866
 20
793.7777268741264
 30
0.0
 41
35.0
 42
35.0
 43
35.0
 50
180.0
  0
INSERT
  5
4E02
330
4D24
100
AcDbEntity
  8
実形
 62
     0
370
    18
100
AcDbBlockReference
  2
_DotSmall
 10
1558.923274130866
 20
793.7777268741264
 30
0.0
 41
35.0
 42
35.0
 43
35.0
  0
MTEXT
  5
4E03
330
4D24
100
AcDbEntity
  8
実形
 62
     0
100
AcDbMText
 10
1108.923274130866
 20
812.5277268741266
 30
0.0
 40
25.0
 41
0.0
 71
     5
 72
     1
  1
900
 73
     1
 44
1.0
1001
ACAD
1000
MTEXTBEGIN
1070
    73
1070
     1
1070
    44
1040
1.0
1070
    74
1070
     0
1000
MTEXTEND
  0
POINT
  5
4E04
330
4D24
100
AcDbEntity
  8
Defpoints
 62
     0
100
AcDbPoint
 10
658.923274130866
 20
1041.359864671234
 30
0.0
  0
POINT
  5
4E05
330
4D24
100
AcDbEntity
  8
Defpoints
 62
     0
100
AcDbPoint
 10
1558.923274130866
 20
1045.2293783503
 30
0.0
  0
POINT
  5
4E06
330
4D24
100
AcDbEntity
  8
Defpoints
 62
     0
100
AcDbPoint
 10
1558.923274130866
 20
793.7777268741264
 30
0.0
  0
ENDBLK
  5
4D2F
330
4D24
100
AcDbEntity
  8
0
 62
     1
100
AcDbBlockEnd
  0
BLOCK
  5
4D3B
330
4D31
100
AcDbEntity
  8
0
 62
     1
100
AcDbBlockBegin
  2
*D30
 70
     1
 10
0.0
 20
0.0
 30
0.0
  3
*D30
  1

  0
LINE
  5
4F24
330
4D31
100
AcDbEntity
  8
実形
 62
     0
370
    18
100
AcDbLine
 10
1508.923274130866
 20
981.6163593471573
 30
0.0
 11
1508.923274130866
 21
868.9227252248528
 31
0.0
  0
LINE
  5
4F25
330
4D31
100
AcDbEntity
  8
実形
 62
     0
370
    18
100
AcDbLine
 10
1558.923274130866
 20
980.2293783503003
 30
0.0
 11
1558.923274130866
 21
868.9227252248528
 31
0.0
  0
LINE
  5
4F26
330
4D31
100
AcDbEntity
  8
実形
 62
     0
370
    18
100
AcDbLine
 10
1508.923274130866
 20
868.9227252248528
 30
0.0
 11
1558.923274130866
 21
868.9227252248528
 31
0.0
  0
MTEXT
  5
4F27
330
4D31
100
AcDbEntity
  8
実形
 62
     0
100
AcDbMText
 10
1596.211926798827
 20
891.2205344993997
 30
0.0
 40
25.0
 41
0.0
 71
     5
 72
     1
  1
50
 73
     1
 44
1.0
1001
ACAD
1000
MTEXTBEGIN
1070
    73
1070
     1
1070
    44
1040
1.0
1070
    74
1070
     0
1000
MTEXTEND
  0
INSERT
  5
4F28
330
4D31
100
AcDbEntity
  8
実形
 62
     0
370
    18
100
AcDbBlockReference
  2
_DotSmall
 10
1508.923274130866
 20
868.9227252248528
 30
0.0
 41
35.0
 42
35.0
 43
35.0
 50
180.0
  0
INSERT
  5
4F29
330
4D31
100
AcDbEntity
  8
実形
 62
     0
370
    18
100
AcDbBlockReference
  2
_DotSmall
 10
1558.923274130866
 20
868.9227252248528
 30
0.0
 41
35.0
 42
35.0
 43
35.0
  0
POINT
  5
4F2A
330
4D31
100
AcDbEntity
  8
Defpoints
 62
     0
100
AcDbPoint
 10
1508.923274130866
 20
1046.616359347157
 30
0.0
  0
POINT
  5
4F2B
330
4D31
100
AcDbEntity
  8
Defpoints
 62
     0
100
AcDbPoint
 10
1558.923274130866
 20
1045.2293783503
 30
0.0
  0
POINT
  5
4F2C
330
4D31
100
AcDbEntity
  8
Defpoints
 62
     0
100
AcDbPoint
 10
1558.923274130866
 20
868.9227252248528
 30
0.0
  0
ENDBLK
  5
4D3C
330
4D31
100
AcDbEntity
  8
0
 62
     1
100
AcDbBlockEnd
  0
BLOCK
  5
4EB7
330
4EAD
100
AcDbEntity
  8
0
 62
     1
100
AcDbBlockBegin
  2
*D31
 70
     1
 10
0.0
 20
0.0
 30
0.0
  3
*D31
  1

  0
LINE
  5
4EC2
330
4EAD
100
AcDbEntity
  8
実形
 62
     0
370
    18
100
AcDbLine
 10
1029.882783616744
 20
412.8530594848916
 30
0.0
 11
1029.882783616744
 21
349.3884334232098
 31
0.0
  0
LINE
  5
4EC3
330
4EAD
100
AcDbEntity
  8
実形
 62
     0
370
    18
100
AcDbLine
 10
1187.882783616744
 20
412.8530594848916
 30
0.0
 11
1187.882783616744
 21
349.3884334232098
 31
0.0
  0
LINE
  5
4EC4
330
4EAD
100
AcDbEntity
  8
実形
 62
     0
370
    18
100
AcDbLine
 10
1029.882783616744
 20
349.3884334232098
 30
0.0
 11
1187.882783616744
 21
349.3884334232098
 31
0.0
  0
INSERT
  5
4EC5
330
4EAD
100
AcDbEntity
  8
実形
 62
     0
370
    18
100
AcDbBlockReference
  2
_DotSmall
 10
1029.882783616744
 20
349.3884334232098
 30
0.0
 41
35.0
 42
35.0
 43
35.0
 50
180.0
  0
INSERT
  5
4EC6
330
4EAD
100
AcDbEntity
  8
実形
 62
     0
370
    18
100
AcDbBlockReference
  2
_DotSmall
 10
1187.882783616744
 20
349.3884334232098
 30
0.0
 41
35.0
 42
35.0
 43
35.0
  0
MTEXT
  5
4EC7
330
4EAD
100
AcDbEntity
  8
実形
 62
     0
100
AcDbMText
 10
1108.882783616744
 20
368.1384334232098
 30
0.0
 40
25.0
 41
0.0
 71
     5
 72
     1
  1
158
 73
     1
 44
1.0
1001
ACAD
1000
MTEXTBEGIN
1070
    73
1070
     1
1070
    44
1040
1.0
1070
    74
1070
     0
1000
MTEXTEND
  0
POINT
  5
4EC8
330
4EAD
100
AcDbEntity
  8
Defpoints
 62
     0
100
AcDbPoint
 10
1029.882783616744
 20
477.8530594848916
 30
0.0
  0
POINT
  5
4EC9
330
4EAD
100
AcDbEntity
  8
Defpoints
 62
     0
100
AcDbPoint
 10
1187.882783616744
 20
477.8530594848916
 30
0.0
  0
POINT
  5
4ECA
330
4EAD
100
AcDbEntity
  8
Defpoints
 62
     0
100
AcDbPoint
 10
1187.882783616744
 20
349.3884334232098
 30
0.0
  0
ENDBLK
  5
4EB8
330
4EAD
100
AcDbEntity
  8
0
 62
     1
100
AcDbBlockEnd
  0
BLOCK
  5
4EE4
330
4EDA
100
AcDbEntity
  8
0
 62
     1
100
AcDbBlockBegin
  2
*D32
 70
     1
 10
0.0
 20
0.0
 30
0.0
  3
*D32
  1

  0
LINE
  5
4EE6
330
4EDA
100
AcDbEntity
  8
実形
 62
     0
370
    18
100
AcDbLine
 10
1018.423274130866
 20
412.9081429519782
 30
0.0
 11
1018.423274130866
 21
293.3592235724792
 31
0.0
  0
LINE
  5
4EE7
330
4EDA
100
AcDbEntity
  8
実形
 62
     0
370
    18
100
AcDbLine
 10
1199.423274130866
 20
412.9081429519782
 30
0.0
 11
1199.423274130866
 21
293.3592235724792
 31
0.0
  0
LINE
  5
4EE8
330
4EDA
100
AcDbEntity
  8
実形
 62
     0
370
    18
100
AcDbLine
 10
1018.423274130866
 20
293.3592235724792
 30
0.0
 11
1199.423274130866
 21
293.3592235724792
 31
0.0
  0
INSERT
  5
4EE9
330
4EDA
100
AcDbEntity
  8
実形
 62
     0
370
    18
100
AcDbBlockReference
  2
_DotSmall
 10
1018.423274130866
 20
293.3592235724792
 30
0.0
 41
35.0
 42
35.0
 43
35.0
 50
180.0
  0
INSERT
  5
4EEA
330
4EDA
100
AcDbEntity
  8
実形
 62
     0
370
    18
100
AcDbBlockReference
  2
_DotSmall
 10
1199.423274130866
 20
293.3592235724792
 30
0.0
 41
35.0
 42
35.0
 43
35.0
  0
MTEXT
  5
4EEB
330
4EDA
100
AcDbEntity
  8
実形
 62
     0
100
AcDbMText
 10
1108.923274130866
 20
312.1092235724792
 30
0.0
 40
25.0
 41
0.0
 71
     5
 72
     1
  1
181
 73
     1
 44
1.0
1001
ACAD
1000
MTEXTBEGIN
1070
    73
1070
     1
1070
    44
1040
1.0
1070
    74
1070
     0
1000
MTEXTEND
  0
POINT
  5
4EEC
330
4EDA
100
AcDbEntity
  8
Defpoints
 62
     0
100
AcDbPoint
 10
1018.423274130866
 20
477.9081429519782
 30
0.0
  0
POINT
  5
4EED
330
4EDA
100
AcDbEntity
  8
Defpoints
 62
     0
100
AcDbPoint
 10
1199.423274130866
 20
477.9081429519782
 30
0.0
  0
POINT
  5
4EEE
330
4EDA
100
AcDbEntity
  8
Defpoints
 62
     0
100
AcDbPoint
 10
1199.423274130866
 20
293.3592235724792
 30
0.0
  0
ENDBLK
  5
4EE5
330
4EDA
100
AcDbEntity
  8
0
 62
     1
100
AcDbBlockEnd
  0
ENDSEC
  0
SECTION
  2
ENTITIES
  0
LINE
  5
73
330
1F
100
AcDbEntity
  8
0
100
AcDbLine
 10
4.0
 20
54.0
 30
0.0
 11
278.0
 21
54.0
 31
0.0
  0
LINE
  5
76
330
1F
100
AcDbEntity
  8
0
100
AcDbLine
 10
4.0
 20
252.0
 30
0.0
 11
4.0
 21
54.0
 31
0.0
  0
LINE
  5
9C
330
1F
100
AcDbEntity
  8
補助
100
AcDbLine
 10
4.0
 20
54.0
 30
0.0
 11
2784.0
 21
54.0
 31
0.0
  0
LINE
  5
9F
330
1F
100
AcDbEntity
  8
補助
100
AcDbLine
 10
4.0
 20
1974.0
 30
0.0
 11
4.0
 21
54.0
 31
0.0
  0
LINE
  5
A0
330
1F
100
AcDbEntity
  8
補助
100
AcDbLine
 10
2784.0
 20
1974.0
 30
0.0
 11
4.0
 21
1974.0
 31
0.0
  0
LINE
  5
A5
330
1F
100
AcDbEntity
  8
補助
100
AcDbLine
 10
2784.0
 20
54.0
 30
0.0
 11
2784.0
 21
1974.0
 31
0.0
  0
LINE
  5
2E6
330
1F
100
AcDbEntity
  8
実形
 62
     0
100
AcDbLine
 10
1108.923274130866
 20
676.9081429519782
 30
0.0
 11
658.9232741308657
 21
676.9081429519782
 31
0.0
  0
TEXT
  5
4F7
330
1F
100
AcDbEntity
  8
実形
 62
     0
100
AcDbText
 10
561.2672535861784
 20
463.7797299596276
 30
0.0
 40
25.0
  1
9
 50
90.0
100
AcDbText
  0
LINE
  5
F27
330
1F
100
AcDbEntity
  8
実形
 62
     0
100
AcDbLine
 10
1108.923274130866
 20
676.9081429519782
 30
0.0
 11
658.9232741308657
 21
676.9081429519782
 31
0.0
  0
LINE
  5
1238
330
1F
100
AcDbEntity
  8
実形
 62
     0
100
AcDbLine
 10
658.923274130866
 20
676.9081429519783
 30
0.0
 11
1108.923274130866
 21
676.9081429519782
 31
0.0
  0
LINE
  5
187B
330
1F
100
AcDbEntity
  8
実形
 62
     0
100
AcDbLine
 10
670.923274130866
 20
1598.2293783503
 30
0.0
 11
1108.923274130866
 21
1598.2293783503
 31
0.0
  0
LINE
  5
187D
330
1F
100
AcDbEntity
  8
実形
 62
     0
100
AcDbLine
 10
1108.923274130866
 20
1033.2293783503
 30
0.0
 11
670.923274130866
 21
1033.2293783503
 31
0.0
  0
LINE
  5
187E
330
1F
100
AcDbEntity
  8
実形
 62
     0
100
AcDbLine
 10
658.923274130866
 20
1045.2293783503
 30
0.0
 11
658.923274130866
 21
1586.2293783503
 31
0.0
  0
LINE
  5
188F
330
1F
100
AcDbEntity
  8
実形
 62
     0
100
AcDbLine
 10
1108.923274130866
 20
1585.2293783503
 30
0.0
 11
701.9232741308663
 21
1585.2293783503
 31
0.0
  0
LINE
  5
1893
330
1F
100
AcDbEntity
  8
実形
 62
     0
100
AcDbLine
 10
701.9232741308659
 20
1046.2293783503
 30
0.0
 11
1108.923274130866
 21
1046.2293783503
 31
0.0
  0
LINE
  5
1895
330
1F
100
AcDbEntity
  8
実形
 62
     0
100
AcDbLine
 10
671.923274130866
 20
1555.2293783503
 30
0.0
 11
671.9232741308658
 21
1076.2293783503
 31
0.0
  0
LINE
  5
18A0
330
1F
100
AcDbEntity
  8
実形
 62
     0
100
AcDbLine
 10
663.923274130866
 20
681.9081429519782
 30
0.0
 11
1108.923274130866
 21
681.9081429519782
 31
0.0
  0
LINE
  5
18A2
330
1F
100
AcDbEntity
  8
実形
 62
     0
100
AcDbLine
 10
663.923274130866
 20
681.9081429519782
 30
0.0
 11
658.923274130866
 21
676.9081429519782
 31
0.0
  0
LINE
  5
18B3
330
1F
100
AcDbEntity
  8
実形
 62
     0
100
AcDbLine
 10
671.923274130866
 20
676.9081429519782
 30
0.0
 11
671.923274130866
 21
666.9081429519782
 31
0.0
  0
LINE
  5
18B4
330
1F
100
AcDbEntity
  8
実形
 62
     0
100
AcDbLine
 10
671.923274130866
 20
666.9081429519783
 30
0.0
 11
1108.923274130866
 21
666.9081429519782
 31
0.0
  0
LINE
  5
2D67
330
1F
100
AcDbEntity
  8
補助
100
AcDbLine
 10
2784.0
 20
1779.0
 30
0.0
 11
2019.387286519283
 21
1779.0
 31
0.0
  0
LINE
  5
2D68
330
1F
100
AcDbEntity
  8
補助
100
AcDbLine
 10
2784.0
 20
1909.0
 30
0.0
 11
2019.387286519283
 21
1909.0
 31
0.0
  0
LINE
  5
2D69
330
1F
100
AcDbEntity
  8
補助
100
AcDbLine
 10
2784.0
 20
1844.0
 30
0.0
 11
2019.387286519282
 21
1844.0
 31
0.0
  0
LINE
  5
2D6A
330
1F
100
AcDbEntity
  8
補助
100
AcDbLine
 10
1894.0
 20
1974.0
 30
0.0
 11
2784.0
 21
1974.0
 31
0.0
  0
LINE
  5
2D6B
330
1F
100
AcDbEntity
  8
補助
100
AcDbLine
 10
2202.547653420927
 20
1779.0
 30
0.0
 11
2202.547653420927
 21
1974.0
 31
0.0
  0
LINE
  5
2D6C
330
1F
100
AcDbEntity
  8
補助
100
AcDbLine
 10
2019.387286519282
 20
1779.0
 30
0.0
 11
2019.387286519283
 21
1974.0
 31
0.0
  0
TEXT
  5
2D6D
330
1F
100
AcDbEntity
  8
実形
100
AcDbText
 10
2048.227810657787
 20
1795.557142857143
 30
0.0
 40
30.0
  1
ボウル
  7
明朝
 72
     4
 11
2114.056382086358
 21
1811.5
 31
0.0
100
AcDbText
  0
TEXT
  5
2D6E
330
1F
100
AcDbEntity
  8
補助
100
AcDbText
 10
2050.295698850121
 20
1926.328571428571
 30
0.0
 40
30.0
  1
部品名
  7
明朝
 72
     4
 11
2116.124270278692
 21
1941.5
 31
0.0
100
AcDbText
  0
TEXT
  5
2D6F
330
1F
100
AcDbEntity
  8
実形
100
AcDbText
 10
2050.295698850121
 20
1861.242857142857
 30
0.0
 40
30.0
  1
天板
  7
明朝
 72
     4
 11
2094.181413135835
 21
1876.5
 31
0.0
100
AcDbText
  0
TEXT
  5
2D70
330
1F
100
AcDbEntity
  8
実形
100
AcDbText
 10
2594.7
 20
1796.842857142857
 30
0.0
 40
30.0
  1
0.7ｍｍ
  7
明朝
 72
     4
 11
2671.5
 21
1811.5
 31
0.0
100
AcDbText
  0
TEXT
  5
2D71
330
1F
100
AcDbEntity
  8
実形
100
AcDbText
 10
2594.7
 20
1861.842857142857
 30
0.0
 40
30.0
  1
1.0ｍｍ
  7
明朝
 72
     4
 11
2671.5
 21
1876.5
 31
0.0
100
AcDbText
  0
TEXT
  5
2D72
330
1F
100
AcDbEntity
  8
補助
100
AcDbText
 10
2583.728571428571
 20
1926.328571428571
 30
0.0
 40
30.0
  1
素材寸法
  7
明朝
 72
     4
 11
2671.5
 21
1941.5
 31
0.0
100
AcDbText
  0
LINE
  5
2D73
330
1F
100
AcDbEntity
  8
補助
100
AcDbLine
 10
2559.0
 20
1779.0
 30
0.0
 11
2559.0
 21
1974.0
 31
0.0
  0
TEXT
  5
2D74
330
1F
100
AcDbEntity
  8
実形
100
AcDbText
 10
2257.462484482228
 20
1796.842857142857
 30
0.0
 40
30.0
  1
SUS27A-BA
  7
明朝
 72
     4
 11
2356.205341625085
 21
1811.5
 31
0.0
100
AcDbText
  0
TEXT
  5
2D75
330
1F
100
AcDbEntity
  8
実形
100
AcDbText
 10
2256.126024861322
 20
1861.071428571429
 30
0.0
 40
30.0
  1
SUS304-H/L
  7
明朝
 72
     4
 11
2365.840310575608
 21
1876.5
 31
0.0
100
AcDbText
  0
TEXT
  5
2D76
330
1F
100
AcDbEntity
  8
補助
100
AcDbText
 10
2338.490869919937
 20
1925.947979478155
 30
0.0
 40
30.0
  1
材質
  7
明朝
 72
     4
 11
2382.376584205651
 21
1941.119408049583
 31
0.0
100
AcDbText
  0
LINE
  5
2D77
330
1F
100
AcDbEntity
  8
補助
100
AcDbLine
 10
2784.0
 20
1779.0
 30
0.0
 11
2784.0
 21
1974.0
 31
0.0
  0
LINE
  5
2D78
330
1F
100
AcDbEntity
  8
補助
100
AcDbLine
 10
2784.0
 20
1974.0
 30
0.0
 11
2784.000000000002
 21
1779.0
 31
0.0
  0
TEXT
  5
2D79
330
1F
100
AcDbEntity
  8
0
100
AcDbText
 10
363.2991915588209
 20
177.2997766317869
 30
0.0
 40
25.0
  1
※オーバーシンクの穴あけは片側－７mm（全体で－１４mm）､４角３Rにてお願いします。
  7
明朝
100
AcDbText
  0
TEXT
  5
2D7A
330
1F
100
AcDbEntity
  8
0
100
AcDbText
 10
363.2991915588209
 20
115.3251125490171
 30
0.0
 40
25.0
  1
※アンダーシンクとしての穴あけ加工はかぶり寸法を考慮して現物合わせにてお願いします。
  7
明朝
100
AcDbText
  0
TEXT
  5
2D7B
330
1F
100
AcDbEntity
  8
補助
100
AcDbText
 10
2215.84018895969
 20
135.3
 30
0.0
 40
30.0
  1
尺度
  7
明朝
 72
     4
 11
2259.725903245404
 21
151.5
 31
0.0
100
AcDbText
  0
TEXT
  5
2D7C
330
1F
100
AcDbEntity
  8
補助
100
AcDbText
 10
2215.84018895969
 20
201.8428571428572
 30
0.0
 40
30.0
  1
品番
  7
明朝
 72
     4
 11
2259.725903245404
 21
216.5
 31
0.0
100
AcDbText
  0
LINE
  5
2D7D
330
1F
100
AcDbEntity
  8
補助
100
AcDbLine
 10
2179.152012737711
 20
119.0
 30
0.0
 11
2784.0
 21
119.0
 31
0.0
  0
LINE
  5
2D7E
330
1F
100
AcDbEntity
  8
補助
100
AcDbLine
 10
2179.152012737711
 20
249.0
 30
0.0
 11
2784.0
 21
249.0
 31
0.0
  0
LINE
  5
2D7F
330
1F
100
AcDbEntity
  8
補助
100
AcDbLine
 10
2179.152012737711
 20
184.0
 30
0.0
 11
2784.0
 21
184.0
 31
0.0
  0
LINE
  5
2D80
330
1F
100
AcDbEntity
  8
補助
100
AcDbLine
 10
2179.152012737711
 20
54.0
 30
0.0
 11
2179.152012737711
 21
249.0
 31
0.0
  0
LINE
  5
2D82
330
1F
100
AcDbEntity
  8
補助
100
AcDbLine
 10
2184.0
 20
119.0
 30
0.0
 11
2784.0
 21
119.0
 31
0.0
  0
TEXT
  5
2D83
330
1F
100
AcDbEntity
  8
0
100
AcDbText
 10
2367.18242443257
 20
198.5
 30
0.0
 40
35.0
  1
HLm/m 900-565S
  7
明朝
 72
     4
 11
2546.38242443257
 21
216.5
 31
0.0
100
AcDbText
  0
LINE
  5
2D92
330
1F
100
AcDbEntity
  8
補助
100
AcDbLine
 10
2333.337725082612
 20
119.0
 30
0.0
 11
2333.337725082612
 21
249.0
 31
0.0
  0
TEXT
  5
2D93
330
1F
100
AcDbEntity
  8
0
100
AcDbText
 10
2498.32241896807
 20
135.8657142857143
 30
0.0
 40
32.0
  1
1：10
  7
明朝
 72
     4
 11
2556.836704682355
 21
151.5
 31
0.0
100
AcDbText
  0
LINE
  5
2D94
330
1F
100
AcDbEntity
  8
補助
100
AcDbLine
 10
2784.0
 20
119.0
 30
0.0
 11
2784.0
 21
184.0
 31
0.0
  0
LINE
  5
2D95
330
1F
100
AcDbEntity
  8
補助
100
AcDbLine
 10
2784.0
 20
184.0
 30
0.0
 11
2784.0
 21
249.0
 31
0.0
  0
LINE
  5
2D96
330
1F
100
AcDbEntity
  8
補助
100
AcDbLine
 10
2784.0
 20
54.0
 30
0.0
 11
2784.0
 21
119.0
 31
0.0
  0
LINE
  5
317E
330
1F
100
AcDbEntity
  8
実形
 62
     0
100
AcDbLine
 10
1108.923274130866
 20
1578.2293783503
 30
0.0
 11
701.9232741308663
 21
1578.2293783503
 31
0.0
  0
LINE
  5
3182
330
1F
100
AcDbEntity
  8
実形
 62
     0
100
AcDbLine
 10
678.923274130866
 20
1555.2293783503
 30
0.0
 11
678.9232741308658
 21
1076.2293783503
 31
0.0
  0
LINE
  5
3184
330
1F
100
AcDbEntity
  8
実形
 62
     0
100
AcDbLine
 10
701.9232741308659
 20
1053.2293783503
 30
0.0
 11
1108.923274130866
 21
1053.2293783503
 31
0.0
  0
ARC
  5
32DF
330
1F
100
AcDbEntity
  8
実形
 62
     0
100
AcDbCircle
 10
670.923274130866
 20
1045.2293783503
 30
0.0
 40
12.0
100
AcDbArc
 50
180.0
 51
270.0
  0
ARC
  5
32E0
330
1F
100
AcDbEntity
  8
実形
 62
     0
100
AcDbCircle
 10
670.923274130866
 20
1586.2293783503
 30
0.0
 40
12.0
100
AcDbArc
 50
89.99999999999998
 51
180.0
  0
LINE
  5
32E2
330
1F
100
AcDbEntity
  8
実形
 62
     0
100
AcDbLine
 10
670.923274130866
 20
1593.2293783503
 30
0.0
 11
1108.923274130866
 21
1593.2293783503
 31
0.0
  0
LINE
  5
32E5
330
1F
100
AcDbEntity
  8
実形
 62
     0
100
AcDbLine
 10
1108.923274130866
 20
1038.2293783503
 30
0.0
 11
670.923274130866
 21
1038.2293783503
 31
0.0
  0
ARC
  5
32E7
330
1F
100
AcDbEntity
  8
実形
 62
     0
100
AcDbCircle
 10
670.923274130866
 20
1045.2293783503
 30
0.0
 40
7.0
100
AcDbArc
 50
180.0
 51
270.0
  0
LINE
  5
32E8
330
1F
100
AcDbEntity
  8
実形
 62
     0
100
AcDbLine
 10
663.923274130866
 20
1045.2293783503
 30
0.0
 11
663.923274130866
 21
1586.2293783503
 31
0.0
  0
ARC
  5
32E9
330
1F
100
AcDbEntity
  8
実形
 62
     0
100
AcDbCircle
 10
670.923274130866
 20
1586.2293783503
 30
0.0
 40
7.0
100
AcDbArc
 50
89.99999999999998
 51
180.0
  0
LINE
  5
3318
330
1F
100
AcDbEntity
  8
実形
100
AcDbLine
 10
2047.778774356497
 20
1225.494991504018
 30
0.0
 11
1977.181073295985
 21
1225.494991504018
 31
0.0
  0
LINE
  5
3319
330
1F
100
AcDbEntity
  8
実形
100
AcDbLine
 10
2038.741866779951
 20
1215.494991504019
 30
0.0
 11
1980.335258076002
 21
1215.494991504019
 31
0.0
  0
LINE
  5
3369
330
1F
100
AcDbEntity
  8
実形
100
AcDbLine
 10
1973.450200802062
 20
1213.323317217719
 30
0.0
 11
1935.979414508232
 21
1187.073830046884
 31
0.0
  0
LINE
  5
336A
330
1F
100
AcDbEntity
  8
実形
100
AcDbLine
 10
1970.296016022046
 20
1223.323317217719
 30
0.0
 11
1930.24186677995
 21
1195.264101474968
 31
0.0
  0
LINE
  5
336B
330
1F
100
AcDbEntity
  8
実形
100
AcDbLine
 10
1967.141831242029
 20
1233.323317217719
 30
0.0
 11
1924.504319051667
 21
1203.454372903051
 31
0.0
  0
LINE
  5
336C
330
1F
100
AcDbEntity
  8
実形
100
AcDbLine
 10
2047.778774356495
 20
1235.494991504019
 30
0.0
 11
1974.026888515969
 21
1235.494991504019
 31
0.0
  0
LINE
  5
33B1
330
1F
100
AcDbEntity
  8
実形
100
AcDbLine
 10
2050.24186677995
 20
1085.498470191014
 30
0.0
 11
2040.24186677995
 21
1085.498470191014
 31
0.0
  0
LINE
  5
33BF
330
1F
100
AcDbEntity
  8
実形
100
AcDbLine
 10
2040.24186677995
 20
1213.994991504019
 30
0.0
 11
2040.24186677995
 21
1085.498470191014
 31
0.0
  0
LINE
  5
33CB
330
1F
100
AcDbEntity
  8
実形
100
AcDbLine
 10
2050.241866779951
 20
1219.494991504019
 30
0.0
 11
2050.24186677995
 21
1085.498470191014
 31
0.0
  0
ARC
  5
33F2
330
1F
100
AcDbEntity
  8
実形
100
AcDbCircle
 10
1930.209840593387
 20
1195.241666104471
 30
0.0
 40
10.00007645083167
100
AcDbArc
 50
124.7884338140566
 51
305.2365156603804
  0
ARC
  5
33F4
330
1F
100
AcDbEntity
  8
実形
100
AcDbCircle
 10
1974.026888515969
 20
1223.494991504019
 30
0.0
 40
12.0
100
AcDbArc
 50
90.0
 51
125.012474737218
  0
ARC
  5
33F6
330
1F
100
AcDbEntity
  8
実形
100
AcDbCircle
 10
1977.181073295985
 20
1213.494991504019
 30
0.0
 40
12.0
100
AcDbArc
 50
90.0
 51
125.0124747372179
  0
ARC
  5
33F7
330
1F
100
AcDbEntity
  8
実形
100
AcDbCircle
 10
1980.335258076002
 20
1203.494991504019
 30
0.0
 40
12.0
100
AcDbArc
 50
90.0000000000001
 51
125.0124747372175
  0
DIMENSION
  5
343C
330
1F
100
AcDbEntity
  8
実形
100
AcDbDimension
  2
*D4
 10
1920.24186677995
 20
1450.850175250843
 30
0.0
 11
2020.24186677995
 21
1469.600175250843
 31
0.0
 70
    32
  1
20
 71
     5
 42
200.0
  3
ISO-25
100
AcDbAlignedDimension
 13
2120.24186677995
 23
1292.917035974716
 33
0.0
 14
1920.24186677995
 24
1292.917035974716
 34
0.0
 50
180.0
100
AcDbRotatedDimension
1001
ACAD
1000
DSTYLE
1002
{
1070
   371
1070
    18
1070
   372
1070
    18
1002
}
  0
LINE
  5
3456
330
1F
100
AcDbEntity
  8
実形
100
AcDbLine
 10
2557.307530076185
 20
1205.494991504018
 30
0.0
 11
2122.704959203406
 21
1205.494991504019
 31
0.0
  0
LINE
  5
3466
330
1F
100
AcDbEntity
  8
実形
100
AcDbLine
 10
2557.307530076185
 20
1195.494991504019
 30
0.0
 11
2122.704959203406
 21
1195.494991504019
 31
0.0
  0
LINE
  5
3474
330
1F
100
AcDbEntity
  8
実形
100
AcDbLine
 10
2420.24186677995
 20
1185.494991504018
 30
0.0
 11
2420.241866779951
 21
1115.494991504019
 31
0.0
  0
LINE
  5
349E
330
1F
100
AcDbEntity
  8
実形
100
AcDbLine
 10
2117.977927620455
 20
1196.465251143802
 30
0.0
 11
2052.505805939447
 21
1224.524731864235
 31
0.0
  0
LINE
  5
34AA
330
1F
100
AcDbEntity
  8
実形
100
AcDbLine
 10
2052.505805939444
 20
1234.524731864236
 30
0.0
 11
2117.977927620456
 21
1206.465251143802
 31
0.0
  0
DIMENSION
  5
35DB
330
1F
100
AcDbEntity
  8
実形
100
AcDbDimension
  2
*D5
 10
1856.80637514003
 20
1185.494991504019
 30
0.0
 11
1828.521604669488
 21
1204.898501422162
 31
0.0
 70
   160
  1
5
 71
     5
 42
50.0
  3
ISO-25
100
AcDbAlignedDimension
 13
1974.026888515969
 23
1235.494991504019
 33
0.0
 14
1974.026888515969
 24
1185.494991504019
 34
0.0
 50
90.0
100
AcDbRotatedDimension
1001
ACAD
1000
DSTYLE
1002
{
1070
   371
1070
    18
1070
   372
1070
    18
1002
}
  0
DIMENSION
  5
35F5
330
1F
100
AcDbEntity
  8
実形
100
AcDbDimension
  2
*D6
 10
2671.059143312576
 20
1205.494991504018
 30
0.0
 11
2658.700091573817
 21
1258.506686640437
 31
0.0
 70
   160
  1
3
 71
     5
 42
30.0
  3
ISO-25
100
AcDbAlignedDimension
 13
2347.104409273164
 23
1235.494991504019
 33
0.0
 14
2551.786359603848
 24
1205.494991504019
 34
0.0
 50
90.0
100
AcDbRotatedDimension
1001
ACAD
1000
DSTYLE
1002
{
1070
   371
1070
    18
1070
   372
1070
    18
1002
}
  0
DIMENSION
  5
362B
330
1F
100
AcDbEntity
  8
実形
100
AcDbDimension
  2
*D7
 10
2470.241866779951
 20
865.5774837476931
 30
0.0
 11
2195.24186677995
 21
884.3274837476931
 31
0.0
 70
    32
  1
55
 71
     5
 42
550.0
  3
ISO-25
100
AcDbAlignedDimension
 13
1920.24186677995
 23
1072.228470191014
 33
0.0
 14
2470.241866779951
 24
1027.195617625673
 34
0.0
100
AcDbRotatedDimension
1001
ACAD
1000
DSTYLE
1002
{
1070
   371
1070
    18
1070
   372
1070
    18
1002
}
  0
DIMENSION
  5
3638
330
1F
100
AcDbEntity
  8
実形
100
AcDbDimension
  2
*D8
 10
2040.24186677995
 20
1008.852206874465
 30
0.0
 11
1980.24186677995
 21
1027.602206874465
 31
0.0
 70
    32
  1
12
 71
     5
 42
120.0
  3
ISO-25
100
AcDbAlignedDimension
 13
1920.24186677995
 23
1127.114320190446
 33
0.0
 14
2040.24186677995
 24
1127.114320190446
 34
0.0
100
AcDbRotatedDimension
1001
ACAD
1000
DSTYLE
1002
{
1070
   371
1070
    18
1070
   372
1070
    18
1002
}
  0
HATCH
  5
36DB
330
1F
100
AcDbEntity
  8
実形
 62
     0
100
AcDbHatch
 10
0.0
 20
0.0
 30
0.0
210
0.0
220
0.0
230
1.0
  2
SOLID
 70
     1
 71
     0
 91
        1
 92
        7
 72
     1
 73
     1
 93
        2
 10
2050.243844716226
 20
1004.153577802473
 42
-1.0
 10
2050.239888843675
 20
1013.254985557755
 42
-1.0
 97
        0
 75
     0
 76
     1
 47
0.1166526434546944
 98
        1
 10
2052.34222588616
 20
1007.304986216481
  0
LINE
  5
36DC
330
1F
100
AcDbEntity
  8
実形
100
AcDbLine
 10
2050.24186677995
 20
1062.114320190446
 30
0.0
 11
2050.24186677995
 21
1008.704281680114
 31
0.0
  0
LINE
  5
36DE
330
1F
100
AcDbEntity
  8
実形
100
AcDbLine
 10
2040.245492109563
 20
1008.942244482651
 30
0.0
 11
2048.102536876071
 21
1008.942244482651
 31
0.0
  0
LINE
  5
36E1
330
1F
100
AcDbEntity
  8
実形
100
AcDbLine
 10
2520.241866779951
 20
1185.494991504019
 30
0.0
 11
2420.24186677995
 21
1185.494991504019
 31
0.0
  0
LINE
  5
36E2
330
1F
100
AcDbEntity
  8
実形
100
AcDbLine
 10
2520.241866779951
 20
1185.494991504019
 30
0.0
 11
2520.24186677995
 21
1115.494991504019
 31
0.0
  0
LINE
  5
36E3
330
1F
100
AcDbEntity
  8
実形
 62
     5
100
AcDbLine
 10
2420.241866779951
 20
1185.494991504019
 30
0.0
 11
2420.241866779951
 21
1115.494991504019
 31
0.0
  0
LINE
  5
36F2
330
1F
100
AcDbEntity
  8
実形
100
AcDbLine
 10
2520.24186677995
 20
1115.494991504019
 30
0.0
 11
2420.24186677995
 21
1115.494991504019
 31
0.0
  0
LINE
  5
3777
330
1F
100
AcDbEntity
  8
実形
100
AcDbLine
 10
2050.24186677995
 20
1085.498470191014
 30
0.0
 11
2557.307530076184
 21
1085.498470191014
 31
0.0
  0
DIMENSION
  5
3794
330
1F
100
AcDbEntity
  8
実形
  6
CENTER
100
AcDbDimension
  2
*D9
 10
2520.24186677995
 20
1007.405642144761
 30
0.0
 11
2470.241866779951
 21
1026.155642144761
 31
0.0
 70
    32
  1
10
 71
     5
 42
100.0000000000004
  3
ISO-25
100
AcDbAlignedDimension
 13
2420.24186677995
 23
1115.494991504019
 33
0.0
 14
2520.24186677995
 24
1115.494991504019
 34
0.0
100
AcDbRotatedDimension
1001
ACAD
1000
DSTYLE
1002
{
1070
   371
1070
    18
1070
   372
1070
    18
1002
}
  0
DIMENSION
  5
37CE
330
1F
100
AcDbEntity
  8
実形
  6
CENTER
100
AcDbDimension
  2
*D10
 10
2671.059143312576
 20
1115.494991504018
 30
0.0
 11
2652.309143312575
 21
1150.494991504019
 31
0.0
 70
    32
  1
7
 71
     5
 42
70.0
  3
ISO-25
100
AcDbAlignedDimension
 13
2551.786359603848
 23
1185.494991504019
 33
0.0
 14
2553.224938872653
 24
1115.494991504019
 34
0.0
 50
90.0
100
AcDbRotatedDimension
1001
ACAD
1000
DSTYLE
1002
{
1070
   371
1070
    18
1070
   372
1070
    18
1002
}
  0
HATCH
  5
37FB
330
1F
100
AcDbEntity
  8
実形
 62
     0
100
AcDbHatch
 10
0.0
 20
0.0
 30
0.0
210
0.0
220
0.0
230
1.0
  2
SOLID
 70
     1
 71
     0
 91
        1
 92
        7
 72
     1
 73
     1
 93
        2
 10
2671.243946053997
 20
1080.734096451041
 42
-1.0
 10
2671.239990181446
 20
1089.835504206324
 42
-1.0
 97
        0
 75
     0
 76
     1
 47
0.1166526434546944
 98
        1
 10
2673.342327223932
 20
1083.885504865049
  0
LINE
  5
37FC
330
1F
100
AcDbEntity
  8
実形
100
AcDbLine
 10
2612.333898308023
 20
1085.52276313122
 30
0.0
 11
2620.190943074531
 21
1085.52276313122
 31
0.0
  0
LINE
  5
37FD
330
1F
100
AcDbEntity
  8
実形
  6
CENTER
100
AcDbLine
 10
2671.059143312576
 20
1113.307491504019
 30
0.0
 11
2671.059143312576
 21
1085.52276313122
 31
0.0
  0
TEXT
  5
3812
330
1F
100
AcDbEntity
  8
実形
  6
CENTER
100
AcDbText
 10
2667.067422303582
 20
1057.125233164175
 30
0.0
 40
25.0
  1
3
 50
90.0
100
AcDbText
  0
TEXT
  5
3813
330
1F
100
AcDbEntity
  8
実形
  6
CENTER
100
AcDbText
 10
2073.024782389219
 20
1018.203007676829
 30
0.0
 40
25.0
  1
1
100
AcDbText
  0
ARC
  5
3816
330
1F
100
AcDbEntity
  8
実形
100
AcDbCircle
 10
2047.778774356495
 20
1223.494991504019
 30
0.0
 40
12.0
100
AcDbArc
 50
66.80140948635167
 51
90.0000000000001
  0
ARC
  5
3817
330
1F
100
AcDbEntity
  8
実形
100
AcDbCircle
 10
2122.704959203406
 20
1207.494991504019
 30
0.0
 40
12.0
100
AcDbArc
 50
246.8014094863516
 51
270.0
  0
ARC
  5
3818
330
1F
100
AcDbEntity
  8
実形
100
AcDbCircle
 10
2122.704959203406
 20
1217.494991504018
 30
0.0
 40
12.0
100
AcDbArc
 50
246.8014094863516
 51
270.0
  0
ARC
  5
381C
330
1F
100
AcDbEntity
  8
実形
100
AcDbCircle
 10
2040.141866779951
 20
1215.394991504019
 30
0.0
 40
0.1
100
AcDbArc
 50
0.0
 51
90.0000000000001
  0
ARC
  5
3822
330
1F
100
AcDbEntity
  8
実形
100
AcDbCircle
 10
2038.741866779951
 20
1213.994991504019
 30
0.0
 40
1.5
100
AcDbArc
 50
359.9999999999998
 51
90.0000000000001
  0
ARC
  5
382E
330
1F
100
AcDbEntity
  8
実形
100
AcDbCircle
 10
2044.241866779951
 20
1219.494991504019
 30
0.0
 40
6.0
100
AcDbArc
 50
359.9999999999998
 51
90.0
  0
ARC
  5
3830
330
1F
100
AcDbEntity
  8
実形
100
AcDbCircle
 10
2047.778774356497
 20
1213.494991504019
 30
0.0
 40
12.0
100
AcDbArc
 50
66.80140948635115
 51
90.0
  0
DIMENSION
  5
3842
330
1F
100
AcDbEntity
  8
実形
100
AcDbDimension
  2
*D13
 10
1809.353845099318
 20
1085.498470191014
 30
0.0
 11
1790.603845099318
 21
1160.496730847516
 31
0.0
 70
    32
  1
15
 71
     5
 42
149.9965213130049
  3
ISO-25
100
AcDbAlignedDimension
 13
1974.026888515969
 23
1235.494991504019
 33
0.0
 14
1975.24186677995
 24
1085.498470191014
 34
0.0
 50
90.0
100
AcDbRotatedDimension
1001
ACAD
1000
DSTYLE
1002
{
1070
   371
1070
    18
1070
   372
1070
    18
1002
}
  0
TEXT
  5
386C
330
1F
100
AcDbEntity
  8
実形
100
AcDbText
 10
1930.646917583179
 20
1559.327160060711
 30
0.0
 40
25.0
  1
ツバ折込み詳細図（1/1）
  7
明朝
100
AcDbText
  0
LINE
  5
39D5
330
1F
100
AcDbEntity
  8
実形
 62
     0
100
AcDbLine
 10
708.9232741308659
 20
1128.2293783503
 30
0.0
 11
708.923274130866
 21
1288.2293783503
 31
0.0
  0
LINE
  5
39E3
330
1F
100
AcDbEntity
  8
実形
 62
     0
100
AcDbLine
 10
1108.923274130866
 20
1068.2293783503
 30
0.0
 11
768.9232741308659
 21
1068.2293783503
 31
0.0
  0
LINE
  5
39FB
330
1F
100
AcDbEntity
  8
実形
  6
ACAD_ISO08W100
 62
     0
100
AcDbLine
 10
1108.923274130866
 20
1463.388671458655
 30
0.0
 11
1108.923274130866
 21
1221.850159117704
 31
0.0
  0
LINE
  5
3A50
330
1F
100
AcDbEntity
  8
実形
 62
     0
100
AcDbLine
 10
1105.021233815539
 20
1508.270983191769
 30
0.0
 11
1108.923274130866
 21
1508.237485031463
 31
0.0
  0
ARC
  5
3A53
330
1F
100
AcDbEntity
  8
実形
 62
     0
100
AcDbCircle
 10
1015.936168837933
 20
-7006.250101335815
 30
0.0
 40
8500.0
100
AcDbArc
 50
89.37319118165254
 51
89.39949509543541
  0
DIMENSION
  5
3C5C
330
1F
100
AcDbEntity
  8
実形
 62
     0
100
AcDbDimension
  2
*D14
 10
567.9856858341045
 20
1578.2293783503
 30
0.0
 11
548.9244533087767
 21
1626.536030249335
 31
0.0
 70
   160
 71
     5
 42
20.0
  3
ISO-25
100
AcDbAlignedDimension
 13
670.923274130866
 23
1598.2293783503
 33
0.0
 14
671.3441103166624
 24
1578.2293783503
 34
0.0
 50
90.0
100
AcDbRotatedDimension
1001
ACAD
1000
DSTYLE
1002
{
1070
   279
1070
     2
1070
   371
1070
    18
1070
   372
1070
    18
1002
}
  0
DIMENSION
  5
3C95
330
1F
100
AcDbEntity
  8
実形
 62
     0
100
AcDbDimension
  2
*D15
 10
568.1545336407396
 20
1508.237485031463
 30
0.0
 11
549.4045336407396
 21
1543.233431690882
 31
0.0
 70
    32
  1
70
 71
     5
 42
69.99189331883711
  3
ISO-25
100
AcDbAlignedDimension
 13
671.3441103166624
 23
1578.2293783503
 33
0.0
 14
672.7040211793572
 24
1508.237485031463
 34
0.0
 50
90.0
100
AcDbRotatedDimension
1001
ACAD
1000
DSTYLE
1002
{
1070
   279
1070
     2
1070
   371
1070
    18
1070
   372
1070
    18
1002
}
  0
DIMENSION
  5
3CAB
330
1F
100
AcDbEntity
  8
実形
 62
     0
100
AcDbDimension
  2
*D16
 10
567.9856858341045
 20
1033.2293783503
 30
0.0
 11
548.6215277062036
 21
999.6021183297996
 31
0.0
 70
   160
 71
     5
 42
19.99999999999953
  3
ISO-25
100
AcDbAlignedDimension
 13
669.9842279642252
 23
1053.2293783503
 33
0.0
 14
670.923274130866
 24
1033.2293783503
 34
0.0
 50
90.0
100
AcDbRotatedDimension
1001
ACAD
1000
DSTYLE
1002
{
1070
   279
1070
     2
1070
   371
1070
    18
1070
   372
1070
    18
1002
}
  0
DIMENSION
  5
3CB8
330
1F
100
AcDbEntity
  8
実形
 62
     0
100
AcDbDimension
  2
*D17
 10
567.9856858341045
 20
1068.2293783503
 30
0.0
 11
548.0238671385887
 21
1071.590921029012
 31
0.0
 70
   160
 71
     5
 42
15.00000000000045
  3
ISO-25
100
AcDbAlignedDimension
 13
626.4673939708373
 23
1053.2293783503
 33
0.0
 14
671.3441103166624
 24
1068.2293783503
 34
0.0
 50
90.0
100
AcDbRotatedDimension
1001
ACAD
1000
DSTYLE
1002
{
1070
   279
1070
     2
1070
   371
1070
    18
1070
   372
1070
    18
1002
}
  0
DIMENSION
  5
3CEA
330
1F
100
AcDbEntity
  8
実形
 62
     0
100
AcDbDimension
  2
*D18
 10
567.8592243739656
 20
1068.2293783503
 30
0.0
 11
549.1092243739656
 21
1288.233431690882
 31
0.0
 70
    32
  1
440
 71
     5
 42
440.0081066811623
  3
ISO-25
100
AcDbAlignedDimension
 13
633.2668912637926
 23
1508.237485031463
 33
0.0
 14
633.6238769293832
 24
1068.2293783503
 34
0.0
 50
90.0
100
AcDbRotatedDimension
1001
ACAD
1000
DSTYLE
1002
{
1070
   279
1070
     2
1070
   371
1070
    18
1070
   372
1070
    18
1002
}
  0
DIMENSION
  5
3D00
330
1F
100
AcDbEntity
  8
実形
 62
     0
100
AcDbDimension
  2
*D19
 10
499.9856858341046
 20
1033.229378350301
 30
0.0
 11
481.2356858341045
 21
1315.7293783503
 31
0.0
 70
    32
 71
     5
 42
564.9999999999997
  3
ISO-25
100
AcDbAlignedDimension
 13
670.923274130866
 23
1598.2293783503
 33
0.0
 14
670.923274130866
 24
1033.2293783503
 34
0.0
 50
90.0
100
AcDbRotatedDimension
1001
ACAD
1000
DSTYLE
1002
{
1070
   279
1070
     2
1070
   371
1070
    18
1070
   372
1070
    18
1002
}
  0
DIMENSION
  5
3DDC
330
1F
100
AcDbEntity
  8
実形
 62
     0
100
AcDbDimension
  2
*D20
 10
708.9383815103809
 20
868.3491766463516
 30
0.0
 11
622.7249313059947
 21
887.0991766463516
 31
0.0
 70
   160
  1
50
 71
     5
 42
50.01510737951503
  3
ISO-25
100
AcDbAlignedDimension
 13
658.923274130866
 23
974.6978503671526
 33
0.0
 14
708.9383815103809
 24
932.4264522553676
 34
0.0
100
AcDbRotatedDimension
1001
ACAD
1000
DSTYLE
1002
{
1070
   279
1070
     2
1070
   371
1070
    18
1070
   372
1070
    18
1002
}
  0
LINE
  5
3EC6
330
1F
100
AcDbEntity
  8
実形
  6
ACAD_ISO08W100
 62
     0
100
AcDbLine
 10
937.9656438498711
 20
1343.2293783503
 30
0.0
 11
1108.923274130866
 21
1343.2293783503
 31
0.0
  0
ARC
  5
3F3B
330
1F
100
AcDbEntity
  8
実形
 62
     0
100
AcDbCircle
 10
1108.923274130866
 20
1343.2293783503
 30
0.0
 40
79.0
100
AcDbArc
 50
90.0
 51
270.0
  0
ARC
  5
3F3D
330
1F
100
AcDbEntity
  8
実形
 62
     0
100
AcDbCircle
 10
1108.923274130866
 20
1343.2293783503
 30
0.0
 40
90.5
100
AcDbArc
 50
90.0
 51
270.0
  0
TEXT
  5
40A2
330
1F
100
AcDbEntity
  8
寸法
 62
     0
100
AcDbText
 10
807.4271136624448
 20
1224.903205268063
 30
0.0
 40
25.0
  1
2000R
100
AcDbText
  0
LEADER
  5
40A3
330
1F
100
AcDbEntity
  8
0
 62
     0
100
AcDbLeader
  3
ISO-25
 40
25.0
 41
16.66666666666666
 76
     2
 10
718.4628164404821
 20
1214.836797089174
 30
0.0
 10
793.9985534071711
 20
1228.258682095486
 30
0.0
213
0.0
223
-12.5
233
0.0
1001
ACAD
1000
DSTYLE
1002
{
1070
    41
1040
25.0
1070
   147
1040
6.25
1070
    77
1070
     0
1070
    73
1070
     1
1070
    74
1070
     1
1070
   279
1070
     1
1070
   342
1005
DA
1002
}
  0
TEXT
  5
40AC
330
1F
100
AcDbEntity
  8
寸法
 62
     0
100
AcDbText
 10
780.5699941719957
 20
1388.811556849472
 30
0.0
 40
25.0
  1
100R
100
AcDbText
  0
LEADER
  5
40AD
330
1F
100
AcDbEntity
  8
0
 62
     0
100
AcDbLeader
  3
ISO-25
 40
25.0
 41
16.66666666666666
 76
     2
 10
741.6885281918657
 20
1443.646094410957
 30
0.0
 10
788.1645275382362
 20
1419.587860616451
 30
0.0
213
0.0
223
-12.5
233
0.0
1001
ACAD
1000
DSTYLE
1002
{
1070
    41
1040
25.0
1070
   147
1040
6.25
1070
    77
1070
     0
1070
    73
1070
     1
1070
    74
1070
     1
1070
   279
1070
     1
1070
   342
1005
DA
1002
}
  0
TEXT
  5
40B7
330
1F
100
AcDbEntity
  8
寸法
 62
     0
100
AcDbText
 10
793.1441009332228
 20
1446.134884139024
 30
0.0
 40
25.0
  1
60R
100
AcDbText
  0
LEADER
  5
40B8
330
1F
100
AcDbEntity
  8
0
 62
     0
100
AcDbLeader
  3
ISO-25
 40
25.0
 41
16.66666666666666
 76
     2
 10
734.2191823545181
 20
1486.86632297594
 30
0.0
 10
780.6951817008885
 20
1462.808089181435
 30
0.0
213
0.0
223
-12.5
233
0.0
1001
ACAD
1000
DSTYLE
1002
{
1070
    41
1040
25.0
1070
   147
1040
6.25
1070
    77
1070
     0
1070
    73
1070
     1
1070
    74
1070
     1
1070
   279
1070
     1
1070
   342
1005
DA
1002
}
  0
LINE
  5
450A
330
1F
100
AcDbEntity
  8
実形
 62
     0
100
AcDbLine
 10
708.9057710692639
 20
666.9081429519782
 30
0.0
 11
708.9057710692639
 21
526.0484973352722
 31
0.0
  0
LINE
  5
450E
330
1F
100
AcDbEntity
  8
実形
 62
     0
100
AcDbLine
 10
1018.423274130866
 20
487.9081429519784
 30
0.0
 11
1108.923274130866
 21
487.9081429519781
 31
0.0
  0
DIMENSION
  5
450F
330
1F
100
AcDbEntity
  8
実形
 62
     0
100
AcDbDimension
  2
*D21
 10
518.8696465186438
 20
487.9081429519784
 30
0.0
 11
500.1196465186438
 21
584.9081429519783
 31
0.0
 70
    32
 71
     5
 42
193.9999999999999
  3
ISO-25
100
AcDbAlignedDimension
 13
665.4050526521277
 23
681.9081429519782
 33
0.0
 14
665.4050526521277
 24
487.9081429519782
 34
0.0
 50
90.0
100
AcDbRotatedDimension
1001
ACAD
1000
DSTYLE
1002
{
1070
   371
1070
    18
1070
   372
1070
    18
1002
}
  0
LINE
  5
4575
330
1F
100
AcDbEntity
  8
実形
 62
     0
100
AcDbLine
 10
1018.423274130866
 20
487.9081429519784
 30
0.0
 11
1018.423274130866
 21
477.9081429519782
 31
0.0
  0
LINE
  5
4585
330
1F
100
AcDbEntity
  8
実形
 62
     0
100
AcDbLine
 10
1018.423274130866
 20
477.9081429519782
 30
0.0
 11
1108.923274130866
 21
477.9081429519782
 31
0.0
  0
LINE
  5
4673
330
1F
100
AcDbEntity
  8
実形
 62
     0
100
AcDbLine
 10
554.663051242991
 20
497.9081429519783
 30
0.0
 11
554.663051242991
 21
487.9081429519784
 31
0.0
  0
LINE
  5
4674
330
1F
100
AcDbEntity
  8
実形
 62
     0
100
AcDbLine
 10
554.663051242991
 20
496.9081429519784
 30
0.0
 11
601.5641385568779
 21
496.9081429519784
 31
0.0
  0
DIMENSION
  5
46BA
330
1F
100
AcDbEntity
  8
実形
 62
     0
100
AcDbDimension
  2
*D22
 10
2120.24186677995
 20
1350.171922688963
 30
0.0
 11
2085.24186677995
 21
1368.921922688963
 31
0.0
 70
    32
  1
7
 71
     5
 42
70.0
  3
ISO-25
100
AcDbAlignedDimension
 13
2050.24186677995
 23
1278.16330098802
 33
0.0
 14
2120.24186677995
 24
1350.171922688963
 34
0.0
100
AcDbRotatedDimension
1001
ACAD
1000
DSTYLE
1002
{
1070
   371
1070
    18
1070
   372
1070
    18
1002
}
  0
DIMENSION
  5
46C8
330
1F
100
AcDbEntity
  8
実形
 62
     0
100
AcDbDimension
  2
*D23
 10
2050.24186677995
 20
1349.507781300828
 30
0.0
 11
2010.24186677995
 21
1368.257781300828
 31
0.0
 70
    32
  1
8
 71
     5
 42
80.0
  3
ISO-25
100
AcDbAlignedDimension
 13
1970.24186677995
 23
1263.365542684089
 33
0.0
 14
2050.24186677995
 24
1251.348024068269
 34
0.0
100
AcDbRotatedDimension
1001
ACAD
1000
DSTYLE
1002
{
1070
   371
1070
    18
1070
   372
1070
    18
1002
}
  0
DIMENSION
  5
4707
330
1F
100
AcDbEntity
  8
実形
 62
     0
100
AcDbDimension
  2
*D24
 10
1970.24186677995
 20
1349.507781300828
 30
0.0
 11
1945.24186677995
 21
1368.623608071728
 31
0.0
 70
   160
  1
5
 71
     5
 42
50.0
  3
ISO-25
100
AcDbAlignedDimension
 13
1920.24186677995
 23
1249.360476632784
 33
0.0
 14
1970.24186677995
 24
1250.02299244461
 34
0.0
100
AcDbRotatedDimension
1001
ACAD
1000
DSTYLE
1002
{
1070
   371
1070
    18
1070
   372
1070
    18
1002
}
  0
LINE
  5
4779
330
1F
100
AcDbEntity
  8
実形
 62
     0
100
AcDbLine
 10
2120.24186677995
 20
1350.171922688963
 30
0.0
 11
2120.24186677995
 21
1315.7293783503
 31
0.0
  0
HATCH
  5
47C0
330
1F
100
AcDbEntity
  8
実形
 62
     0
100
AcDbHatch
 10
0.0
 20
0.0
 30
0.0
210
0.0
220
0.0
230
1.0
  2
SOLID
 70
     1
 71
     0
 91
        1
 92
        7
 72
     1
 73
     1
 93
        2
 10
554.6055648259813
 20
492.4129010387406
 42
-1.0
 10
554.6016089534307
 20
501.5143087940233
 42
-1.0
 97
        0
 75
     0
 76
     1
 47
0.1166526434546944
 98
        1
 10
556.7039459959162
 20
495.5643094527489
  0
LINE
  5
4A49
330
1F
100
AcDbEntity
  8
実形
100
AcDbLine
 10
2620.190943074531
 20
1085.52276313122
 30
0.0
 11
2671.059143312576
 21
1085.498470191014
 31
0.0
  0
LINE
  5
4AD5
330
1F
100
AcDbEntity
  8
実形
100
AcDbLine
 10
2671.059143312576
 20
1185.494991504018
 30
0.0
 11
2671.059143312576
 21
1207.682491504018
 31
0.0
  0
TEXT
  5
4AE0
330
1F
100
AcDbEntity
  8
実形
100
AcDbText
 10
2706.41702071211
 20
1186.146369568902
 30
0.0
 40
25.0
  1
2
 50
90.0
100
AcDbText
  0
TEXT
  5
4AFB
330
1F
100
AcDbEntity
  8
寸法
 62
     0
100
AcDbText
 10
790.7679288792523
 20
534.0916688402062
 30
0.0
 40
25.0
  1
30R
100
AcDbText
  0
LEADER
  5
4AFC
330
1F
100
AcDbEntity
  8
0
 62
     0
100
AcDbLeader
  3
ISO-25
 40
25.0
 41
16.66666666666666
 76
     2
 10
721.0107305054297
 20
509.5463894039458
 30
0.0
 10
773.8268841632815
 20
535.4433149714058
 30
0.0
213
0.0
223
-12.5
233
0.0
1001
ACAD
1000
DSTYLE
1002
{
1070
    41
1040
25.0
1070
   147
1040
6.25
1070
    77
1070
     0
1070
    73
1070
     1
1070
    74
1070
     1
1070
   279
1070
     1
1070
   342
1005
DA
1002
}
  0
DIMENSION
  5
4C40
330
1F
100
AcDbEntity
  8
実形
 62
     0
100
AcDbDimension
  2
*D25
 10
1108.923274130866
 20
1767.611854205581
 30
0.0
 11
883.9232741308663
 21
1786.361854205581
 31
0.0
 70
    32
 71
     5
 42
450.0
  3
ISO-25
100
AcDbAlignedDimension
 13
658.923274130866
 23
1586.2293783503
 33
0.0
 14
1108.923274130866
 24
1598.2293783503
 34
0.0
100
AcDbRotatedDimension
1001
ACAD
1000
DSTYLE
1002
{
1070
   371
1070
    18
1070
   372
1070
    18
1002
}
  0
LINE
  5
4C60
330
1F
100
AcDbEntity
  8
実形
 62
     0
100
AcDbLine
 10
1108.923274130866
 20
1068.2293783503
 30
0.0
 11
768.9232741308659
 21
1068.2293783503
 31
0.0
  0
LINE
  5
4C63
330
1F
100
AcDbEntity
  8
実形
 62
     0
100
AcDbLine
 10
708.9232741308659
 20
1128.2293783503
 30
0.0
 11
708.9232741308659
 21
1288.2293783503
 31
0.0
  0
ARC
  5
4C65
330
1F
100
AcDbEntity
  8
実形
 62
     0
100
AcDbCircle
 10
2708.923274130866
 20
1288.2293783503
 30
0.0
 40
2000.0
100
AcDbArc
 50
180.0
 51
182.8704377633737
  0
ARC
  5
4C7D
330
1F
100
AcDbEntity
  8
実形
 62
     0
100
AcDbCircle
 10
1108.923274130866
 20
5683.229378350302
 30
0.0
 40
4600.0
100
AcDbArc
 50
266.207865867942
 51
270.0
  0
ARC
  5
4C89
330
1F
100
AcDbEntity
  8
実形
 62
     0
100
AcDbCircle
 10
811.3071507455451
 20
1193.081870405701
 30
0.0
 40
100.0
100
AcDbArc
 50
182.8704377633736
 51
266.2078658679411
  0
ARC
  5
4C8B
330
1F
100
AcDbEntity
  8
実形
 62
     0
100
AcDbCircle
 10
768.9232741308659
 20
1128.2293783503
 30
0.0
 40
60.0
100
AcDbArc
 50
180.0
 51
270.0
  0
ARC
  5
4C8C
330
1F
100
AcDbEntity
  8
実形
 62
     0
100
AcDbCircle
 10
701.9232741308659
 20
1076.2293783503
 30
0.0
 40
23.0
100
AcDbArc
 50
180.0
 51
270.0
  0
ARC
  5
4C8D
330
1F
100
AcDbEntity
  8
実形
 62
     0
100
AcDbCircle
 10
701.9232741308659
 20
1076.2293783503
 30
0.0
 40
30.0
100
AcDbArc
 50
180.0
 51
270.0
  0
ARC
  5
4C96
330
1F
100
AcDbEntity
  8
実形
 62
     0
100
AcDbCircle
 10
701.9232741308663
 20
1555.2293783503
 30
0.0
 40
30.0
100
AcDbArc
 50
90.0
 51
180.0
  0
ARC
  5
4C97
330
1F
100
AcDbEntity
  8
実形
 62
     0
100
AcDbCircle
 10
701.9232741308663
 20
1555.2293783503
 30
0.0
 40
23.0
100
AcDbArc
 50
90.0
 51
180.0
  0
LINE
  5
4C98
330
1F
100
AcDbEntity
  8
実形
 62
     0
100
AcDbLine
 10
1546.923274130866
 20
1598.2293783503
 30
0.0
 11
1108.923274130866
 21
1598.2293783503
 31
0.0
  0
LINE
  5
4C99
330
1F
100
AcDbEntity
  8
実形
  6
ACAD_ISO08W100
 62
     0
100
AcDbLine
 10
1279.880904411861
 20
1343.2293783503
 30
0.0
 11
1108.923274130866
 21
1343.2293783503
 31
0.0
  0
LINE
  5
4C9A
330
1F
100
AcDbEntity
  8
実形
 62
     0
100
AcDbLine
 10
1546.923274130866
 20
1593.2293783503
 30
0.0
 11
1108.923274130866
 21
1593.2293783503
 31
0.0
  0
ARC
  5
4C9B
330
1F
100
AcDbEntity
  8
実形
 62
     0
100
AcDbCircle
 10
1546.923274130866
 20
1586.2293783503
 30
0.0
 40
12.0
100
AcDbArc
 50
360.0
 51
89.99999999999998
  0
ARC
  5
4C9C
330
1F
100
AcDbEntity
  8
実形
 62
     0
100
AcDbCircle
 10
1546.923274130866
 20
1586.2293783503
 30
0.0
 40
7.0
100
AcDbArc
 50
360.0
 51
89.99999999999998
  0
LINE
  5
4C9D
330
1F
100
AcDbEntity
  8
実形
 62
     0
100
AcDbLine
 10
1108.923274130866
 20
1033.2293783503
 30
0.0
 11
1546.923274130866
 21
1033.2293783503
 31
0.0
  0
LINE
  5
4C9E
330
1F
100
AcDbEntity
  8
実形
 62
     0
100
AcDbLine
 10
1108.923274130866
 20
1068.2293783503
 30
0.0
 11
1448.923274130866
 21
1068.2293783503
 31
0.0
  0
LINE
  5
4C9F
330
1F
100
AcDbEntity
  8
実形
 62
     0
100
AcDbLine
 10
1108.923274130866
 20
1038.2293783503
 30
0.0
 11
1546.923274130866
 21
1038.2293783503
 31
0.0
  0
ARC
  5
4CA0
330
1F
100
AcDbEntity
  8
実形
 62
     0
100
AcDbCircle
 10
1546.923274130866
 20
1045.2293783503
 30
0.0
 40
12.0
100
AcDbArc
 50
269.9999999999999
 51
360.0
  0
ARC
  5
4CA1
330
1F
100
AcDbEntity
  8
実形
 62
     0
100
AcDbCircle
 10
1546.923274130866
 20
1045.2293783503
 30
0.0
 40
7.0
100
AcDbArc
 50
269.9999999999999
 51
360.0
  0
LINE
  5
4CA2
330
1F
100
AcDbEntity
  8
実形
 62
     0
100
AcDbLine
 10
1558.923274130866
 20
1045.2293783503
 30
0.0
 11
1558.923274130866
 21
1586.2293783503
 31
0.0
  0
LINE
  5
4CA3
330
1F
100
AcDbEntity
  8
実形
 62
     0
100
AcDbLine
 10
1508.923274130866
 20
1128.2293783503
 30
0.0
 11
1508.923274130866
 21
1288.2293783503
 31
0.0
  0
LINE
  5
4CA4
330
1F
100
AcDbEntity
  8
実形
 62
     0
100
AcDbLine
 10
1508.923274130866
 20
1128.2293783503
 30
0.0
 11
1508.923274130866
 21
1288.2293783503
 31
0.0
  0
LINE
  5
4CA5
330
1F
100
AcDbEntity
  8
実形
 62
     0
100
AcDbLine
 10
1553.923274130866
 20
1045.2293783503
 30
0.0
 11
1553.923274130866
 21
1586.2293783503
 31
0.0
  0
LINE
  5
4CA6
330
1F
100
AcDbEntity
  8
実形
 62
     0
100
AcDbLine
 10
1108.923274130866
 20
1585.2293783503
 30
0.0
 11
1515.923274130866
 21
1585.2293783503
 31
0.0
  0
ARC
  5
4CA7
330
1F
100
AcDbEntity
  8
実形
 62
     0
100
AcDbCircle
 10
1515.923274130866
 20
1555.2293783503
 30
0.0
 40
30.0
100
AcDbArc
 50
360.0
 51
89.99999999999996
  0
LINE
  5
4CA8
330
1F
100
AcDbEntity
  8
実形
 62
     0
100
AcDbLine
 10
1108.923274130866
 20
1578.2293783503
 30
0.0
 11
1515.923274130866
 21
1578.2293783503
 31
0.0
  0
ARC
  5
4CA9
330
1F
100
AcDbEntity
  8
実形
 62
     0
100
AcDbCircle
 10
1515.923274130866
 20
1555.2293783503
 30
0.0
 40
23.0
100
AcDbArc
 50
360.0
 51
89.99999999999996
  0
LINE
  5
4CAA
330
1F
100
AcDbEntity
  8
実形
 62
     0
100
AcDbLine
 10
1515.923274130866
 20
1046.2293783503
 30
0.0
 11
1108.923274130866
 21
1046.2293783503
 31
0.0
  0
ARC
  5
4CAB
330
1F
100
AcDbEntity
  8
実形
 62
     0
100
AcDbCircle
 10
1515.923274130866
 20
1076.2293783503
 30
0.0
 40
30.0
100
AcDbArc
 50
269.9999999999999
 51
360.0
  0
LINE
  5
4CAC
330
1F
100
AcDbEntity
  8
実形
 62
     0
100
AcDbLine
 10
1515.923274130866
 20
1053.2293783503
 30
0.0
 11
1108.923274130866
 21
1053.2293783503
 31
0.0
  0
ARC
  5
4CAD
330
1F
100
AcDbEntity
  8
実形
 62
     0
100
AcDbCircle
 10
1515.923274130866
 20
1076.2293783503
 30
0.0
 40
23.0
100
AcDbArc
 50
269.9999999999999
 51
360.0
  0
LINE
  5
4CAE
330
1F
100
AcDbEntity
  8
実形
 62
     0
100
AcDbLine
 10
1545.923274130866
 20
1555.2293783503
 30
0.0
 11
1545.923274130866
 21
1076.2293783503
 31
0.0
  0
LINE
  5
4CAF
330
1F
100
AcDbEntity
  8
実形
 62
     0
100
AcDbLine
 10
1538.923274130866
 20
1555.2293783503
 30
0.0
 11
1538.923274130866
 21
1076.2293783503
 31
0.0
  0
LINE
  5
4CB0
330
1F
100
AcDbEntity
  8
実形
 62
     0
100
AcDbLine
 10
1112.825314446193
 20
1508.270983191769
 30
0.0
 11
1108.923274130866
 21
1508.237485031463
 31
0.0
  0
ARC
  5
4CB1
330
1F
100
AcDbEntity
  8
実形
 62
     0
100
AcDbCircle
 10
1201.910379423792
 20
-7006.250101335815
 30
0.0
 40
8500.0
100
AcDbArc
 50
90.60050490456452
 51
90.6268088183474
  0
ARC
  5
4CB2
330
1F
100
AcDbEntity
  8
実形
 62
     0
100
AcDbCircle
 10
1108.923274130866
 20
1343.2293783503
 30
0.0
 40
79.0
100
AcDbArc
 50
269.9999999999999
 51
89.99999999999996
  0
ARC
  5
4CB3
330
1F
100
AcDbEntity
  8
実形
 62
     0
100
AcDbCircle
 10
1108.923274130866
 20
1343.2293783503
 30
0.0
 40
90.5
100
AcDbArc
 50
269.9999999999999
 51
89.99999999999996
  0
LINE
  5
4CBA
330
1F
100
AcDbEntity
  8
実形
 62
     0
100
AcDbLine
 10
1108.923274130866
 20
1068.2293783503
 30
0.0
 11
1448.923274130866
 21
1068.2293783503
 31
0.0
  0
ARC
  5
4CBB
330
1F
100
AcDbEntity
  8
実形
 62
     0
100
AcDbCircle
 10
1448.923274130866
 20
1128.2293783503
 30
0.0
 40
60.0
100
AcDbArc
 50
269.9999999999999
 51
360.0
  0
ARC
  5
4CBC
330
1F
100
AcDbEntity
  8
実形
 62
     0
100
AcDbCircle
 10
-491.0767258691339
 20
1288.229378350301
 30
0.0
 40
2000.0
100
AcDbArc
 50
357.1295622366263
 51
360.0
  0
ARC
  5
4CBD
330
1F
100
AcDbEntity
  8
実形
 62
     0
100
AcDbCircle
 10
1406.539397516187
 20
1193.081870405701
 30
0.0
 40
100.0
100
AcDbArc
 50
273.7921341320588
 51
357.1295622366264
  0
ARC
  5
4CBE
330
1F
100
AcDbEntity
  8
実形
 62
     0
100
AcDbCircle
 10
1108.92327413087
 20
5683.229378350302
 30
0.0
 40
4600.0
100
AcDbArc
 50
269.9999999999999
 51
273.792134132058
  0
DIMENSION
  5
4CC4
330
1F
100
AcDbEntity
  8
実形
 62
     0
100
AcDbDimension
  2
*D26
 10
1689.239990772156
 20
1598.2293783503
 30
0.0
 11
1670.489990772155
 21
1470.7293783503
 31
0.0
 70
    32
 71
     5
 42
255.0
  3
ISO-25
100
AcDbAlignedDimension
 13
1382.932197175396
 23
1343.2293783503
 33
0.0
 14
1546.923274130866
 24
1598.2293783503
 34
0.0
 50
90.0
100
AcDbRotatedDimension
1001
ACAD
1000
DSTYLE
1002
{
1070
   371
1070
    18
1070
   372
1070
    18
1002
}
  0
TEXT
  5
4CF1
330
1F
100
AcDbEntity
  8
寸法
 62
     0
100
AcDbText
 10
1108.437979334468
 20
1131.548745136308
 30
0.0
 40
25.0
  1
4600R
100
AcDbText
  0
LEADER
  5
4CF2
330
1F
100
AcDbEntity
  8
0
 62
     0
100
AcDbLeader
  3
ISO-25
 40
25.0
 41
16.66666666666666
 76
     2
 10
1055.969943815844
 20
1092.662580219005
 30
0.0
 10
1095.192353010489
 20
1127.499406437725
 30
0.0
213
0.0
223
-12.5
233
0.0
1001
ACAD
1000
DSTYLE
1002
{
1070
    41
1040
25.0
1070
   147
1040
6.25
1070
    77
1070
     0
1070
    73
1070
     1
1070
    74
1070
     1
1070
   279
1070
     1
1070
   342
1005
DA
1002
}
  0
TEXT
  5
4CF3
330
1F
100
AcDbEntity
  8
寸法
 62
     0
100
AcDbText
 10
1419.712725397836
 20
1154.598647322527
 30
0.0
 40
25.0
  1
30R
100
AcDbText
  0
LEADER
  5
4CF4
330
1F
100
AcDbEntity
  8
0
 62
     0
100
AcDbLeader
  3
ISO-25
 40
25.0
 41
16.66666666666666
 76
     2
 10
1541.07203293499
 20
1062.656838126702
 30
0.0
 10
1475.504623061795
 20
1136.555590895484
 30
0.0
213
0.0
223
-12.5
233
0.0
1001
ACAD
1000
DSTYLE
1002
{
1070
    41
1040
25.0
1070
   147
1040
6.25
1070
    77
1070
     0
1070
    73
1070
     1
1070
    74
1070
     1
1070
   279
1070
     1
1070
   342
1005
DA
1002
}
  0
TEXT
  5
4CF5
330
1F
100
AcDbEntity
  8
寸法
 62
     0
100
AcDbText
 10
1337.311019529661
 20
1112.430740547046
 30
0.0
 40
25.0
  1
23R
100
AcDbText
  0
LEADER
  5
4CF6
330
1F
100
AcDbEntity
  8
0
 62
     0
100
AcDbLeader
  3
ISO-25
 40
25.0
 41
16.66666666666666
 76
     2
 10
1526.476804355174
 20
1059.100943113662
 30
0.0
 10
1419.959139569753
 20
1104.872076324023
 30
0.0
213
0.0
223
-12.5
233
0.0
1001
ACAD
1000
DSTYLE
1002
{
1070
    41
1040
25.0
1070
   147
1040
6.25
1070
    77
1070
     0
1070
    73
1070
     1
1070
    74
1070
     1
1070
   279
1070
     1
1070
   342
1005
DA
1002
}
  0
DIMENSION
  5
4CFB
330
1F
100
AcDbEntity
  8
実形
 62
     0
100
AcDbDimension
  2
*D28
 10
1508.923274130866
 20
868.3491766463516
 30
0.0
 11
1108.923274130866
 21
887.0991766463516
 31
0.0
 70
    32
 71
     5
 42
800.0
  3
ISO-25
100
AcDbAlignedDimension
 13
708.9232741308659
 23
1047.430209407452
 33
0.0
 14
1508.923274130866
 24
1032.245935679966
 34
0.0
100
AcDbRotatedDimension
1001
ACAD
1000
DSTYLE
1002
{
1070
   371
1070
    18
1070
   372
1070
    18
1002
}
  0
DIMENSION
  5
4D23
330
1F
100
AcDbEntity
  8
実形
 62
     0
100
AcDbDimension
  2
*D29
 10
1558.923274130866
 20
793.7777268741264
 30
0.0
 11
1108.923274130866
 21
812.5277268741266
 31
0.0
 70
    32
 71
     5
 42
900.0
  3
ISO-25
100
AcDbAlignedDimension
 13
658.923274130866
 23
1041.359864671234
 33
0.0
 14
1558.923274130866
 24
1045.2293783503
 34
0.0
100
AcDbRotatedDimension
1001
ACAD
1000
DSTYLE
1002
{
1070
   371
1070
    18
1070
   372
1070
    18
1002
}
  0
DIMENSION
  5
4D30
330
1F
100
AcDbEntity
  8
実形
 62
     0
100
AcDbDimension
  2
*D30
 10
1558.923274130866
 20
868.9227252248528
 30
0.0
 11
1596.211926798827
 21
891.2205344993997
 31
0.0
 70
   160
 71
     5
 42
50.0
  3
ISO-25
100
AcDbAlignedDimension
 13
1508.923274130866
 23
1046.616359347157
 33
0.0
 14
1558.923274130866
 24
1045.2293783503
 34
0.0
100
AcDbRotatedDimension
1001
ACAD
1000
DSTYLE
1002
{
1070
   371
1070
    18
1070
   372
1070
    18
1002
}
  0
LINE
  5
4DA5
330
1F
100
AcDbEntity
  8
実形
 62
     0
100
AcDbLine
 10
1018.423274130864
 20
487.9081429519784
 30
0.0
 11
738.0338141463027
 21
496.061171827243
 31
0.0
  0
ARC
  5
4DC5
330
1F
100
AcDbEntity
  8
実形
 62
     0
100
AcDbCircle
 10
738.9057710692639
 20
526.0484973352722
 30
0.0
 40
30.0
100
AcDbArc
 50
180.0
 51
268.3344503844605
  0
LINE
  5
4DCF
330
1F
100
AcDbEntity
  8
実形
 62
     0
100
AcDbLine
 10
1108.923274130866
 20
676.9081429519782
 30
0.0
 11
1558.923274130866
 21
676.9081429519782
 31
0.0
  0
LINE
  5
4DD0
330
1F
100
AcDbEntity
  8
実形
 62
     0
100
AcDbLine
 10
1108.923274130866
 20
676.9081429519782
 30
0.0
 11
1558.923274130866
 21
676.9081429519782
 31
0.0
  0
LINE
  5
4DD1
330
1F
100
AcDbEntity
  8
実形
 62
     0
100
AcDbLine
 10
1558.923274130866
 20
676.9081429519783
 30
0.0
 11
1108.923274130866
 21
676.9081429519782
 31
0.0
  0
LINE
  5
4DD2
330
1F
100
AcDbEntity
  8
実形
 62
     0
100
AcDbLine
 10
1553.923274130866
 20
681.9081429519782
 30
0.0
 11
1108.923274130866
 21
681.9081429519782
 31
0.0
  0
LINE
  5
4DD3
330
1F
100
AcDbEntity
  8
実形
 62
     0
100
AcDbLine
 10
1199.423274130866
 20
487.9081429519784
 30
0.0
 11
1108.923274130866
 21
487.9081429519781
 31
0.0
  0
LINE
  5
4DD4
330
1F
100
AcDbEntity
  8
実形
 62
     0
100
AcDbLine
 10
1199.423274130866
 20
477.9081429519782
 30
0.0
 11
1108.923274130866
 21
477.9081429519782
 31
0.0
  0
LINE
  5
4DD5
330
1F
100
AcDbEntity
  8
実形
 62
     0
100
AcDbLine
 10
1553.923274130866
 20
681.9081429519782
 30
0.0
 11
1558.923274130866
 21
676.9081429519782
 31
0.0
  0
LINE
  5
4DD6
330
1F
100
AcDbEntity
  8
実形
 62
     0
100
AcDbLine
 10
1545.923274130866
 20
676.9081429519782
 30
0.0
 11
1545.923274130866
 21
666.9081429519782
 31
0.0
  0
LINE
  5
4DD7
330
1F
100
AcDbEntity
  8
実形
 62
     0
100
AcDbLine
 10
1545.923274130866
 20
666.9081429519783
 30
0.0
 11
1108.923274130866
 21
666.9081429519782
 31
0.0
  0
LINE
  5
4DD8
330
1F
100
AcDbEntity
  8
実形
 62
     0
100
AcDbLine
 10
1508.940777192468
 20
666.9081429519782
 30
0.0
 11
1508.940777192468
 21
526.0484973352722
 31
0.0
  0
LINE
  5
4DD9
330
1F
100
AcDbEntity
  8
実形
 62
     0
100
AcDbLine
 10
1199.423274130866
 20
487.9081429519784
 30
0.0
 11
1199.423274130866
 21
477.9081429519782
 31
0.0
  0
LEADER
  5
4DDB
330
1F
100
AcDbEntity
  8
0
 62
     0
100
AcDbLeader
  3
ISO-25
 40
25.0
 41
16.66666666666666
 76
     2
 10
1496.835817756302
 20
509.5463894039458
 30
0.0
 10
1444.019664098451
 20
535.4433149714058
 30
0.0
211
-1.0
221
0.0
231
0.0
213
0.0
223
-12.5
233
0.0
1001
ACAD
1000
DSTYLE
1002
{
1070
    41
1040
25.0
1070
   147
1040
6.25
1070
    77
1070
     0
1070
    73
1070
     1
1070
    74
1070
     1
1070
   279
1070
     1
1070
   342
1005
DA
1002
}
  0
LINE
  5
4DDC
330
1F
100
AcDbEntity
  8
実形
 62
     0
100
AcDbLine
 10
1199.423274130868
 20
487.9081429519784
 30
0.0
 11
1479.812734115429
 21
496.061171827243
 31
0.0
  0
ARC
  5
4DDD
330
1F
100
AcDbEntity
  8
実形
 62
     0
100
AcDbCircle
 10
1478.940777192468
 20
526.0484973352722
 30
0.0
 40
30.0
100
AcDbArc
 50
271.6655496155395
 51
0.000000000000007
  0
TEXT
  5
4DE6
330
1F
100
AcDbEntity
  8
寸法
 62
     0
100
AcDbText
 10
1371.160525898663
 20
530.7384804135067
 30
0.0
 40
25.0
  1
30R
100
AcDbText
  0
LINE
  5
4E7E
330
1F
100
AcDbEntity
  8
実形
  6
ACAD_ISO08W100
 62
     0
100
AcDbLine
 10
1108.923274130866
 20
591.0084098446822
 30
0.0
 11
1108.923274130866
 21
418.7048042455225
 31
0.0
  0
DIMENSION
  5
4EA0
330
1F
100
AcDbEntity
  8
実形
 62
     0
100
AcDbDimension
  2
*D31
 10
1187.882783616744
 20
349.3884334232098
 30
0.0
 11
1108.882783616744
 21
368.1384334232098
 31
0.0
 70
    32
 71
     5
 42
158.0
  3
ISO-25
100
AcDbAlignedDimension
 13
1029.882783616744
 23
477.8530594848916
 33
0.0
 14
1187.882783616744
 24
477.8530594848916
 34
0.0
100
AcDbRotatedDimension
1001
ACAD
1000
DSTYLE
1002
{
1070
   371
1070
    18
1070
   372
1070
    18
1002
}
  0
DIMENSION
  5
4ED9
330
1F
100
AcDbEntity
  8
実形
100
AcDbDimension
  2
*D32
 10
1199.423274130866
 20
293.3592235724792
 30
0.0
 11
1108.923274130866
 21
312.1092235724792
 31
0.0
 70
    32
 71
     5
 42
180.9999999999998
  3
ISO-25
100
AcDbAlignedDimension
 13
1018.423274130866
 23
477.9081429519782
 33
0.0
 14
1199.423274130866
 24
477.9081429519782
 34
0.0
100
AcDbRotatedDimension
1001
ACAD
1000
DSTYLE
1002
{
1070
   371
1070
    18
1070
   372
1070
    18
1002
}
  0
LINE
  5
4F58
330
1F
100
AcDbEntity
  8
実形
 62
     0
100
AcDbLine
 10
708.9232741308673
 20
1448.229378350303
 30
0.0
 11
708.9232741308663
 21
1288.229378350303
 31
0.0
  0
LINE
  5
4F59
330
1F
100
AcDbEntity
  8
実形
 62
     0
100
AcDbLine
 10
1108.923274130867
 20
1508.2293783503
 30
0.0
 11
768.9232741308676
 21
1508.229378350303
 31
0.0
  0
ARC
  5
4F5A
330
1F
100
AcDbEntity
  8
実形
 62
     0
100
AcDbCircle
 10
768.9232741308671
 20
1448.229378350303
 30
0.0
 40
60.0
100
AcDbArc
 50
89.99999999999962
 51
179.9999999999996
  0
ARC
  5
4F5B
330
1F
100
AcDbEntity
  8
実形
 62
     0
100
AcDbCircle
 10
2708.923274130866
 20
1288.22937835029
 30
0.0
 40
2000.0
100
AcDbArc
 50
177.1295622366259
 51
179.9999999999996
  0
ARC
  5
4F5C
330
1F
100
AcDbEntity
  8
実形
 62
     0
100
AcDbCircle
 10
811.3071507455456
 20
1383.376886294902
 30
0.0
 40
100.0
100
AcDbArc
 50
93.79213413205851
 51
177.129562236626
  0
ARC
  5
4F5D
330
1F
100
AcDbEntity
  8
実形
 62
     0
100
AcDbCircle
 10
1108.923274130836
 20
-3106.770621649699
 30
0.0
 40
4600.0
100
AcDbArc
 50
89.99999999999962
 51
93.79213413205773
  0
LINE
  5
4F5E
330
1F
100
AcDbEntity
  8
実形
 62
     0
100
AcDbLine
 10
1508.923274130865
 20
1448.229378350303
 30
0.0
 11
1508.923274130866
 21
1288.229378350303
 31
0.0
  0
LINE
  5
4F5F
330
1F
100
AcDbEntity
  8
実形
 62
     0
100
AcDbLine
 10
1108.923274130864
 20
1508.2293783503
 30
0.0
 11
1448.923274130865
 21
1508.229378350303
 31
0.0
  0
ARC
  5
4F60
330
1F
100
AcDbEntity
  8
実形
 62
     0
100
AcDbCircle
 10
1448.923274130865
 20
1448.229378350303
 30
0.0
 40
60.0
100
AcDbArc
 50
0.0000000000003887
 51
90.00000000000039
  0
ARC
  5
4F61
330
1F
100
AcDbEntity
  8
実形
 62
     0
100
AcDbCircle
 10
-491.0767258691334
 20
1288.22937835029
 30
0.0
 40
2000.0
100
AcDbArc
 50
0.0000000000003887
 51
2.870437763374068
  0
ARC
  5
4F62
330
1F
100
AcDbEntity
  8
実形
 62
     0
100
AcDbCircle
 10
1406.539397516186
 20
1383.376886294902
 30
0.0
 40
100.0
100
AcDbArc
 50
2.870437763373966
 51
86.20786586794151
  0
ARC
  5
4F63
330
1F
100
AcDbEntity
  8
実形
 62
     0
100
AcDbCircle
 10
1108.923274130896
 20
-3106.770621649699
 30
0.0
 40
4600.0
100
AcDbArc
 50
86.20786586794226
 51
90.00000000000039
  0
MTEXT
  5
4FA3
102
{ACAD_XDICTIONARY
360
500B
102
}
330
1F
100
AcDbEntity
  8
実形
100
AcDbMText
 10
2227.967152227791
 20
112.7244618729064
 30
0.0
 40
25.0
 41
612.2988505747128
 71
     1
 72
     5
  1
{\fArial|b0|i0|c0|p32;\H1.8x; e\H0.7778x;-KITCHEN \H0.3428x;U-ARCHITECTURE WORKS}
 73
     1
 44
1.0
1001
ACAD
1000
MTEXTBEGIN
1070
    73
1070
     1
1070
    44
1040
1.0
1070
    74
1070
     0
1000
MTEXTEND
  0
VIEWPORT
  5
2E
102
{ACAD_XDICTIONARY
360
5007
102
}
330
1B
100
AcDbEntity
 67
     1
  8
0
100
AcDbViewport
 10
144.7270812988281
 20
101.2295806407928
 30
0.0
 40
411.6736216682419
 41
222.1517806396485
 68
     1
 69
     1
 12
144.7270812988281
 22
101.2295806407928
 13
0.0
 23
0.0
 14
10.0
 24
10.0
 15
10.0
 25
10.0
 16
0.0
 26
0.0
 36
1.0
 17
0.0
 27
0.0
 37
0.0
 42
50.0
 43
0.0
 44
0.0
 45
222.1517806396485
 50
0.0
 51
0.0
 72
   100
 90
    32800
  1

281
     0
 71
     1
 74
     0
110
0.0
120
0.0
130
0.0
111
1.0
121
0.0
131
0.0
112
0.0
122
1.0
132
0.0
 79
     0
146
0.0
  0
VIEWPORT
  5
30
102
{ACAD_XDICTIONARY
360
5009
102
}
330
1B
100
AcDbEntity
 67
     1
  8
0
100
AcDbViewport
 10
139.2237563133239
 20
101.2295821905136
 30
0.0
 40
222.7580101013184
 41
161.9673315048218
 68
     2
 69
     2
 12
210.0
 22
148.5
 13
0.0
 23
0.0
 14
10.0
 24
10.0
 15
10.0
 25
10.0
 16
0.0
 26
0.0
 36
1.0
 17
0.0
 27
0.0
 37
0.0
 42
50.0
 43
0.0
 44
0.0
 45
309.0686705647124
 50
0.0
 51
0.0
 72
   100
 90
    32864
  1

281
     0
 71
     1
 74
     0
110
0.0
120
0.0
130
0.0
111
1.0
121
0.0
131
0.0
112
0.0
122
1.0
132
0.0
 79
     0
146
0.0
  0
ENDSEC
  0
SECTION
  2
OBJECTS
  0
DICTIONARY
  5
C
330
0
100
AcDbDictionary
281
     1
  3
ACAD_COLOR
350
314C
  3
ACAD_GROUP
350
D
  3
ACAD_LAYOUT
350
1A
  3
ACAD_MATERIAL
350
314B
  3
ACAD_MLINESTYLE
350
17
  3
ACAD_PLOTSETTINGS
350
19
  3
ACAD_PLOTSTYLENAME
350
E
  3
ACAD_TABLESTYLE
350
314D
  3
AcadDim
350
124
  3
ACDBHEADERROUNDTRIPXREC
350
4FFE
  3
AcDbVariableDictionary
350
3172
  3
ASE_INDEX_DICTIONARY
350
4FBD
  3
DWGPROPS
350
4FFD
  0
DICTIONARY
  5
36D2
330
2
100
AcDbDictionary
280
     1
281
     1
  3
ACAD_LAYERFILTERS
360
3725
  3
ACAD_LAYERSTATES
360
36D3
  3
ACLYDICTIONARY
360
3724
  0
DICTIONARY
  5
317F
330
1F
100
AcDbDictionary
280
     1
281
     1
  3
ACAD_SORTENTS
360
3180
  0
DICTIONARY
  5
380D
330
380B
100
AcDbDictionary
280
     1
281
     1
  3
ACAD_SORTENTS
360
380E
  0
DICTIONARY
  5
4CE1
330
4CDA
100
AcDbDictionary
280
     1
281
     1
  3
ACAD_SORTENTS
360
4CE2
  0
DICTIONARY
  5
500B
330
4FA3
100
AcDbDictionary
280
     1
281
     1
  3
ACAD_MTEXT_RT
360
500C
  0
DICTIONARY
  5
5007
330
2E
100
AcDbDictionary
280
     1
281
     1
  3
ACAD_XREC_ROUNDTRIP
360
5008
  0
DICTIONARY
  5
5009
330
30
100
AcDbDictionary
280
     1
281
     1
  3
ACAD_XREC_ROUNDTRIP
360
500A
  0
DICTIONARY
  5
314C
102
{ACAD_REACTORS
330
C
102
}
330
C
100
AcDbDictionary
281
     1
  0
DICTIONARY
  5
D
102
{ACAD_REACTORS
330
C
102
}
330
C
100
AcDbDictionary
281
     1
  0
DICTIONARY
  5
1A
102
{ACAD_REACTORS
330
C
102
}
330
C
100
AcDbDictionary
281
     1
  3
Model
350
22
  3
ﾚｲｱｳﾄ1
350
1E
  3
ﾚｲｱｳﾄ2
350
26
  0
DICTIONARY
  5
314B
102
{ACAD_REACTORS
330
C
102
}
330
C
100
AcDbDictionary
281
     1
  0
DICTIONARY
  5
17
102
{ACAD_REACTORS
330
C
102
}
330
C
100
AcDbDictionary
281
     1
  3
Standard
350
18
  0
DICTIONARY
  5
19
102
{ACAD_REACTORS
330
C
102
}
330
C
100
AcDbDictionary
281
     1
  0
ACDBDICTIONARYWDFLT
  5
E
102
{ACAD_REACTORS
330
C
102
}
330
C
100
AcDbDictionary
281
     1
  3
Normal
350
F
100
AcDbDictionaryWithDefault
340
F
  0
DICTIONARY
  5
314D
102
{ACAD_REACTORS
330
C
102
}
330
C
100
AcDbDictionary
281
     1
  3
Standard
350
314E
  0
XRECORD
  5
124
102
{ACAD_REACTORS
330
C
102
}
330
C
100
AcDbXrecord
280
     1
 90
   990106
  3

 60
     0
 61
     0
 62
     1
 63
     3
 64
     0
 65
     0
 66
     0
 67
     3
 68
     1
 69
     0
 70
     0
 71
     0
 72
     0
 40
30.0
170
     0
  0
DICTIONARY
  5
4FFE
102
{ACAD_REACTORS
330
C
102
}
330
C
100
AcDbDictionary
281
     1
  3
COLORDICT
350
5000
  3
MATERIALDICT
350
4FFF
  0
DICTIONARY
  5
3172
102
{ACAD_REACTORS
330
C
102
}
330
C
100
AcDbDictionary
281
     1
  3
CTABLESTYLE
350
3173
  3
DIMASSOC
350
4FDF
  3
PROJECTNAME
350
4FE0
  0
DICTIONARY
  5
4FBD
102
{ACAD_REACTORS
330
C
102
}
330
C
100
AcDbDictionary
281
     1
  3
ASEBlockHierarchyIndexRecord
350
4FBF
1001
DCO15
1040
1558326043.795
  0
XRECORD
  5
4FFD
102
{ACAD_REACTORS
330
C
102
}
330
C
100
AcDbXrecord
280
     1
  1
DWGPROPS COOKIE
  2

  3

  4

  6

  7

  8
山崎　広絵
  9

300
=
301
=
302
=
303
=
304
=
305
=
306
=
307
=
308
=
309
=
 40
2.01185318287037
 41
2451673.575802199
 42
2454088.478778206
  1

 90
        0
  0
DICTIONARY
  5
3725
102
{ACAD_REACTORS
330
36D2
102
}
330
36D2
100
AcDbDictionary
281
     1
  0
DICTIONARY
  5
36D3
102
{ACAD_REACTORS
330
36D2
102
}
330
36D2
100
AcDbDictionary
281
     1
  0
DICTIONARY
  5
3724
102
{ACAD_REACTORS
330
36D2
102
}
330
36D2
100
AcDbDictionary
281
     1
1001
ACAD
1000
<All
  0
SORTENTSTABLE
  5
3180
102
{ACAD_REACTORS
330
317F
102
}
330
317F
100
AcDbSortentsTable
330
1F
331
47C0
  5
4C60
331
3822
  5
3821
331
4C9A
  5
4C9C
331
4CA2
  5
4CA4
331
4CAA
  5
4CAC
331
4AE0
  5
4C63
331
4CB2
  5
4CBA
331
36DB
  5
39AC
331
2D7B
  5
32E2
331
336A
  5
37FD
331
2D83
  5
3345
331
2D93
  5
3574
331
A5
  5
A5
331
18B4
  5
2D92
331
40A2
  5
4682
331
4DD0
  5
4DD2
331
4DD8
  5
4DDB
331
3CAB
  5
40D6
331
450A
  5
47C0
331
4C60
  5
4C6A
331
36E3
  5
3816
331
4CBA
  5
4CBC
331
4CF2
  5
4CF4
331
4779
  5
4C40
331
33F2
  5
393C
331
2D6C
  5
3139
331
2D74
  5
3185
331
187D
  5
18B5
331
46BA
  5
4AFB
331
4ED9
  5
4F57
331
37CE
  5
3A0C
331
4C9B
  5
4C9D
331
3474
  5
3818
331
4CA3
  5
4CA5
331
4A49
  5
39D4
331
4CAB
  5
4CAD
331
4CB3
  5
4CBB
331
36DC
  5
39AD
331
2D7C
  5
32E3
331
76
  5
76
331
336B
  5
3813
331
1895
  5
2D88
331
2D94
  5
358D
331
3184
  5
2B46
331
2E6
  5
2E6
331
33CB
  5
382E
331
40A3
  5
4683
331
3C5C
  5
40AD
331
4DD1
  5
4DD3
331
4DD9
  5
4DDC
331
4CBB
  5
4CBD
331
39E3
  5
18B7
331
4CF3
  5
4CF5
331
4C89
  5
4C90
331
39FB
  5
408E
331
381C
  5
3822
331
3812
  5
3A4D
331
2D6D
  5
313A
331
2D75
  5
3186
331
187E
  5
1D77
331
3DDC
  5
450A
331
3A53
  5
40AC
331
4AD5
  5
4C62
331
4C9C
  5
4C9E
331
4CA4
  5
4CA6
331
3F3B
  5
4573
331
4CAC
  5
4CAE
331
37FB
  5
3A28
331
386C
  5
3F3D
331
2D7D
  5
32E4
331
336C
  5
362A
331
9F
  5
9F
331
2D95
  5
359B
331
40AC
  5
4684
331
4DD2
  5
4DD4
331
4CFB
  5
4D30
331
3C95
  5
40B8
331
4D23
  5
4DA5
331
4CBC
  5
4CBE
331
4CF4
  5
4CF6
331
4673
  5
4A49
331
4F7
  5
4F7
331
33F4
  5
3815
331
3813
  5
3A50
331
32E5
  5
18BC
331
F27
  5
F27
331
2D6E
  5
313B
331
2D76
  5
3187
331
3638
  5
39AA
331
4C9D
  5
4C9F
331
4CA5
  5
4CA7
331
349E
  5
393E
331
37FC
  5
3A3C
331
4CAD
  5
4CAF
331
36DE
  5
39B8
331
4AFB
  5
4C65
331
188F
  5
2356
331
2D7E
  5
32E5
331
A0
  5
A0
331
2D96
  5
35DA
331
4DD3
  5
4DD5
331
40AD
  5
46BA
331
4CC4
  5
4CF2
331
4DDB
  5
4DDD
331
4C63
  5
1D78
331
4CBD
  5
4CBF
331
39D5
  5
1D9E
331
4CF5
  5
4CFB
331
4C8B
  5
4C6D
331
4674
  5
4AD5
331
4DA5
  5
4DC5
331
4C96
  5
2364
331
2D67
  5
2D93
331
1238
  5
1238
331
2D6F
  5
317E
331
2D77
  5
32DE
331
4C9E
  5
4CA0
331
4CA6
  5
4CA8
331
382E
  5
386C
331
3F3D
  5
4670
331
37FD
  5
3A3D
331
4CAE
  5
4CB0
331
4AFC
  5
4C66
331
2D7F
  5
3318
331
18A0
  5
2D8D
331
4DD4
  5
4DD6
331
4DDC
  5
4DE6
331
450E
  5
2D8E
331
4575
  5
4931
331
4CBE
  5
4CC0
331
4585
  5
2D8F
331
4CF6
  5
4D23
331
3777
  5
39C2
331
4C8C
  5
2B51
331
4C97
  5
29D4
331
32DF
  5
18BD
331
33F6
  5
3812
331
2D68
  5
2D94
331
32E7
  5
18BE
331
3456
  5
36E3
331
2D70
  5
3181
331
3466
  5
362B
331
4DC5
  5
4DD0
331
4C9F
  5
4CA1
331
3EC6
  5
187D
331
4CA7
  5
4CA9
331
4CAF
  5
4CB1
331
2D78
  5
32DF
331
2D80
  5
3319
331
33BF
  5
381C
331
35DB
  5
3944
331
4DD5
  5
4DD7
331
362B
  5
397C
331
4DDD
  5
4E7C
331
450F
  5
4819
331
4C65
  5
4C7D
331
4C7D
  5
4C91
331
3818
  5
36F2
331
4C8D
  5
2B44
331
2D69
  5
2D95
331
3816
  5
3943
331
32E0
  5
1890
331
33F7
  5
37FC
331
2D71
  5
3182
331
32E8
  5
1D9F
331
3318
  5
35DB
331
3CB8
  5
40D7
331
3D00
  5
43FF
331
4707
  5
4C3F
331
4C98
  5
4C9A
331
4CA0
  5
4CA2
331
4CA8
  5
4CAA
331
3830
  5
393F
331
4CB0
  5
4CB2
331
40B7
  5
46C8
331
73
  5
73
331
2D79
  5
32E0
331
18A2
  5
2D90
331
343C
  5
393D
331
40B8
  5
4779
331
4DD6
  5
4DD8
331
4DE6
  5
4EA0
331
36E1
  5
36DC
331
3817
  5
3638
331
2D6A
  5
2D96
331
2D72
  5
3183
331
32E9
  5
1892
331
3319
  5
3777
331
187B
  5
187C
331
4E7E
  5
40A2
331
3794
  5
3A05
331
46C8
  5
4AFC
331
3A50
  5
40A3
331
4C99
  5
4C9B
331
4CA1
  5
4CA3
331
317E
  5
2860
331
34AA
  5
3941
331
4CA9
  5
4CAB
331
4CB1
  5
4CB3
331
2D7A
  5
32E1
331
3369
  5
37FB
331
33B1
  5
393B
331
9C
  5
9C
331
1893
  5
2A5C
331
2D82
  5
3325
331
2D92
  5
34AA
331
3182
  5
2D8B
331
18B3
  5
2D91
331
4C40
  5
4C68
331
3842
  5
3A52
331
4DCF
  5
4DD1
331
35F5
  5
3945
331
4DD7
  5
4DD9
331
36E2
  5
3817
331
4CF1
  5
4CF3
331
36F2
  5
36E2
331
2D6B
  5
3138
331
32E2
  5
187E
331
2D73
  5
3184
331
4D30
  5
4DA6
331
3CEA
  5
417D
331
4EA0
  5
4ED9
  0
SORTENTSTABLE
  5
380E
102
{ACAD_REACTORS
330
380D
102
}
330
380D
100
AcDbSortentsTable
330
380B
  0
SORTENTSTABLE
  5
4CE2
102
{ACAD_REACTORS
330
4CE1
102
}
330
4CE1
100
AcDbSortentsTable
330
4CDA
  0
XRECORD
  5
500C
102
{ACAD_REACTORS
330
500B
102
}
330
500B
100
AcDbXrecord
280
     1
 40
239804.0
  1
\pl25;{\fArial|b0|i0|c0|p32;\H1.8x;e\H0.7778x;-KITCHEN \H0.3428x;U-ARCHITECTURE WORKS}
  0
XRECORD
  5
5008
102
{ACAD_REACTORS
330
5007
102
}
330
5007
100
AcDbXrecord
280
     1
102
SHADEPLOT
 70
     0
  0
XRECORD
  5
500A
102
{ACAD_REACTORS
330
5009
102
}
330
5009
100
AcDbXrecord
280
     1
102
SHADEPLOT
 70
     0
  0
LAYOUT
  5
22
102
{ACAD_XDICTIONARY
360
5003
102
}
102
{ACAD_REACTORS
330
1A
102
}
330
1A
100
AcDbPlotSettings
  1

  2
Adobe PDF
  4
User32767
  6

 40
3.174999952316283
 41
3.174999952316283
 42
3.175003051757812
 43
3.17498779296875
 44
210.0
 45
297.0
 46
0.73
 47
6.2
 48
0.0
 49
0.0
140
0.0
141
0.0
142
1.0
143
10.0
 70
 11956
 72
     1
 73
     1
 74
     1
  7

 75
    20
147
0.1
148
-3.625557436171219
149
-2.563525459925585
100
AcDbLayout
  1
Model
 70
     1
 71
     0
 10
0.0
 20
0.0
 11
12.0
 21
9.0
 12
0.0
 22
0.0
 32
0.0
 14
0.0
 24
0.0
 34
0.0
 15
0.0
 25
0.0
 35
0.0
146
0.0
 13
0.0
 23
0.0
 33
0.0
 16
1.0
 26
0.0
 36
0.0
 17
0.0
 27
1.0
 37
0.0
 76
     0
330
1F
  0
LAYOUT
  5
1E
102
{ACAD_XDICTIONARY
360
5001
102
}
102
{ACAD_REACTORS
330
1A
102
}
330
1A
100
AcDbPlotSettings
  1

  2
EPSON PM-800C
  4
A4
  6

 40
3.757083177566528
 41
14.7637300491333
 42
3.757080078125
 43
3.757080078125
 44
209.9733276367186
 45
296.9683227539062
 46
0.0
 47
0.0
 48
0.0
 49
0.0
140
0.0
141
0.0
142
1.0
143
1.0
 70
   688
 72
     1
 73
     1
 74
     5
  7

 75
    16
147
1.0
148
0.0
149
0.0
100
AcDbLayout
  1
ﾚｲｱｳﾄ1
 70
     1
 71
     1
 10
-3.757080078125
 20
-3.757083177566528
 11
293.2112426757813
 21
206.2162444591522
 12
0.0
 22
0.0
 32
0.0
 14
27.8447512626648
 24
20.24591643810271
 34
0.0
 15
250.6027613639831
 25
182.2132479429245
 35
0.0
146
0.0
 13
0.0
 23
0.0
 33
0.0
 16
1.0
 26
0.0
 36
0.0
 17
0.0
 27
1.0
 37
0.0
 76
     0
330
1B
331
2E
  0
LAYOUT
  5
26
102
{ACAD_XDICTIONARY
360
5005
102
}
102
{ACAD_REACTORS
330
1A
102
}
330
1A
100
AcDbPlotSettings
  1

  2
EPSON PM-800C
  4

  6

 40
0.0
 41
0.0
 42
0.0
 43
0.0
 44
0.0
 45
0.0
 46
0.0
 47
0.0
 48
0.0
 49
0.0
140
0.0
141
0.0
142
1.0
143
1.0
 70
   688
 72
     0
 73
     0
 74
     5
  7

 75
    16
147
1.0
148
0.0
149
0.0
100
AcDbLayout
  1
ﾚｲｱｳﾄ2
 70
     1
 71
     2
 10
0.0
 20
0.0
 11
12.0
 21
9.0
 12
0.0
 22
0.0
 32
0.0
 14
0.0
 24
0.0
 34
0.0
 15
0.0
 25
0.0
 35
0.0
146
0.0
 13
0.0
 23
0.0
 33
0.0
 16
1.0
 26
0.0
 36
0.0
 17
0.0
 27
1.0
 37
0.0
 76
     0
330
23
  0
MLINESTYLE
  5
18
102
{ACAD_REACTORS
330
17
102
}
330
17
100
AcDbMlineStyle
  2
STANDARD
 70
     0
  3

 62
   256
 51
90.0
 52
90.0
 71
     2
 49
0.5
 62
   256
  6
BYLAYER
 49
-0.5
 62
   256
  6
BYLAYER
  0
ACDBPLACEHOLDER
  5
F
102
{ACAD_REACTORS
330
E
102
}
330
E
  0
ACAD_PROXY_OBJECT
  5
314E
102
{ACAD_REACTORS
330
314D
102
}
330
314D
100
AcDbProxyObject
 90
      499
 91
      503
 95
       25
 70
     0
 93
     1849
310
4214DD185B99185C992420000000000000F83F0000000000003E0FC00000000000004901028000000C1008070000C3001FDFF8000000C1003FBFF000000182007F7FE00000030400FEFFC00000060801FDFF8000000C1003FBFF000000182000000000000000C2020B0000001820100E000186003FBFF000000182007F7FE0
310
0000030400FEFFC00000060801FDFF8000000C1003FBFF000000182007F7FE0000003040000000000000012404160000003040201C00030C007F7FE00000030400FEFFC00000060801FDFF8000000C1003FBFF000000182007F7FE00000030400FEFFC000000608000
340
11
340
11
340
11
 94
        0
1001
ACAD
1000
AcRTDxfName
1000
TABLESTYLE
1000
AcRTDxfName
1000
TABLESTYLE
  0
XRECORD
  5
5000
102
{ACAD_REACTORS
330
4FFE
102
}
330
4FFE
100
AcDbXrecord
280
     1
340
314C
  0
XRECORD
  5
4FFF
102
{ACAD_REACTORS
330
4FFE
102
}
330
4FFE
100
AcDbXrecord
280
     1
340
314B
  0
DICTIONARYVAR
  5
3173
102
{ACAD_REACTORS
330
3172
102
}
330
3172
100
DictionaryVariables
280
     0
  1
STANDARD
  0
DICTIONARYVAR
  5
4FDF
102
{ACAD_REACTORS
330
3172
102
}
330
3172
100
DictionaryVariables
280
     0
  1
1
  0
DICTIONARYVAR
  5
4FE0
102
{ACAD_REACTORS
330
3172
102
}
330
3172
100
DictionaryVariables
280
     0
  1

  0
XRECORD
  5
4FBF
102
{ACAD_REACTORS
330
4FBD
102
}
330
4FBD
100
AcDbXrecord
280
     1
330
49E4
330
49E5
330
49EE
330
49EF
330
4ADB
330
4ADC
330
49FF
330
4A00
330
4A08
330
4A09
330
4A11
330
4A12
330
4A1A
330
4A1B
330
3804
330
3805
330
4A23
330
4A24
330
4E6E
330
4E6F
330
4E64
330
4E65
330
4E5C
330
4E5D
330
4E53
330
4E54
330
4E49
330
4E4A
330
4E40
330
4E41
330
4F31
330
4F32
330
4E2E
330
4E2F
330
4A2C
330
4A2D
330
4A35
330
4A36
330
4A3F
330
4A40
330
4E1C
330
4E1D
330
4E13
330
4E14
330
4E0A
330
4E0B
330
4E01
330
4E02
330
4F28
330
4F29
330
4EC5
330
4EC6
330
4EE9
330
4EEA
  0
DICTIONARY
  5
5003
330
22
100
AcDbDictionary
280
     1
281
     1
  3
ACAD_XREC_ROUNDTRIP
360
5004
  0
DICTIONARY
  5
5001
330
1E
100
AcDbDictionary
280
     1
281
     1
  3
ACAD_XREC_ROUNDTRIP
360
5002
  0
DICTIONARY
  5
5005
330
26
100
AcDbDictionary
280
     1
281
     1
  3
ACAD_XREC_ROUNDTRIP
360
5006
  0
XRECORD
  5
5004
102
{ACAD_REACTORS
330
5003
102
}
330
5003
100
AcDbXrecord
280
     1
102
SHADEPLOT
 70
     0
102
SHADEPLOTRESLEVEL
 70
     2
102
SHADEPLOTCUSTOMDPI
 70
   300
  0
XRECORD
  5
5002
102
{ACAD_REACTORS
330
5001
102
}
330
5001
100
AcDbXrecord
280
     1
102
SHADEPLOT
 70
     0
102
SHADEPLOTRESLEVEL
 70
     2
102
SHADEPLOTCUSTOMDPI
 70
   300
  0
XRECORD
  5
5006
102
{ACAD_REACTORS
330
5005
102
}
330
5005
100
AcDbXrecord
280
     1
102
SHADEPLOT
 70
     0
102
SHADEPLOTRESLEVEL
 70
     2
102
SHADEPLOTCUSTOMDPI
 70
   300
  0
ENDSEC
  0
EOF
