  0
SECTION
  2
HEADER
  9
$ACADVER
  1
AC1015
  9
$ACADMAINTVER
 70
    20
  9
$DWGCODEPAGE
  3
ANSI_932
  9
$INSBASE
 10
0.0
 20
0.0
 30
0.0
  9
$EXTMIN
 10
4.0
 20
52.4664496120827
 30
0.0
  9
$EXTMAX
 10
2784.000000000002
 20
1974.0
 30
0.0
  9
$LIMMIN
 10
0.0
 20
0.0
  9
$LIMMAX
 10
0.0
 20
0.0
  9
$ORTHOMODE
 70
     1
  9
$REGENMODE
 70
     1
  9
$FILLMODE
 70
     1
  9
$QTEXTMODE
 70
     0
  9
$MIRRTEXT
 70
     1
  9
$LTSCALE
 40
12.7
  9
$ATTMODE
 70
     1
  9
$TEXTSIZE
 40
0.0
  9
$TRACEWID
 40
1.0
  9
$TEXTSTYLE
  7
Standard
  9
$CLAYER
  8
寸法
  9
$CELTYPE
  6
Continuous
  9
$CECOLOR
 62
   256
  9
$CELTSCALE
 40
1.0
  9
$DISPSILH
 70
     0
  9
$DIMSCALE
 40
1.0
  9
$DIMASZ
 40
35.0
  9
$DIMEXO
 40
65.0
  9
$DIMDLI
 40
3.75
  9
$DIMRND
 40
0.0
  9
$DIMDLE
 40
0.0
  9
$DIMEXE
 40
0.0
  9
$DIMTP
 40
0.0
  9
$DIMTM
 40
0.0
  9
$DIMTXT
 40
25.0
  9
$DIMCEN
 40
2.5
  9
$DIMTSZ
 40
0.0
  9
$DIMTOL
 70
     0
  9
$DIMLIM
 70
     0
  9
$DIMTIH
 70
     0
  9
$DIMTOH
 70
     0
  9
$DIMSE1
 70
     0
  9
$DIMSE2
 70
     0
  9
$DIMTAD
 70
     1
  9
$DIMZIN
 70
     8
  9
$DIMBLK
  1
DotSmall
  9
$DIMASO
 70
     1
  9
$DIMSHO
 70
     1
  9
$DIMPOST
  1

  9
$DIMAPOST
  1

  9
$DIMALT
 70
     0
  9
$DIMALTD
 70
     3
  9
$DIMALTF
 40
0.03937007874016
  9
$DIMLFAC
 40
1.0
  9
$DIMTOFL
 70
     1
  9
$DIMTVP
 40
0.0
  9
$DIMTIX
 70
     0
  9
$DIMSOXD
 70
     0
  9
$DIMSAH
 70
     0
  9
$DIMBLK1
  1

  9
$DIMBLK2
  1

  9
$DIMSTYLE
  2
ISO-25
  9
$DIMCLRD
 70
     0
  9
$DIMCLRE
 70
     0
  9
$DIMCLRT
 70
     0
  9
$DIMTFAC
 40
1.0
  9
$DIMGAP
 40
6.25
  9
$DIMJUST
 70
     0
  9
$DIMSD1
 70
     0
  9
$DIMSD2
 70
     0
  9
$DIMTOLJ
 70
     0
  9
$DIMTZIN
 70
     8
  9
$DIMALTZ
 70
     0
  9
$DIMALTTZ
 70
     0
  9
$DIMUPT
 70
     0
  9
$DIMDEC
 70
     2
  9
$DIMTDEC
 70
     2
  9
$DIMALTU
 70
     2
  9
$DIMALTTD
 70
     3
  9
$DIMTXSTY
  7
Standard
  9
$DIMAUNIT
 70
     0
  9
$DIMADEC
 70
     0
  9
$DIMALTRND
 40
0.0
  9
$DIMAZIN
 70
     0
  9
$DIMDSEP
 70
    46
  9
$DIMATFIT
 70
     3
  9
$DIMFRAC
 70
     0
  9
$DIMLDRBLK
  1
Open30
  9
$DIMLUNIT
 70
     2
  9
$DIMLWD
 70
    15
  9
$DIMLWE
 70
    15
  9
$DIMTMOVE
 70
     0
  9
$LUNITS
 70
     2
  9
$LUPREC
 70
     4
  9
$SKETCHINC
 40
0.1
  9
$FILLETRAD
 40
0.0
  9
$AUNITS
 70
     0
  9
$AUPREC
 70
     0
  9
$MENU
  1
acad
  9
$ELEVATION
 40
0.0
  9
$PELEVATION
 40
0.0
  9
$THICKNESS
 40
0.0
  9
$LIMCHECK
 70
     0
  9
$CHAMFERA
 40
0.0
  9
$CHAMFERB
 40
0.0
  9
$CHAMFERC
 40
0.0
  9
$CHAMFERD
 40
0.0
  9
$SKPOLY
 70
     0
  9
$TDCREATE
 40
2453833.477679213
  9
$TDUCREATE
 40
2453833.102679213
  9
$TDUPDATE
 40
2454088.478182685
  9
$TDUUPDATE
 40
2454088.103182685
  9
$TDINDWG
 40
0.0114915972
  9
$TDUSRTIMER
 40
0.0114910648
  9
$USRTIMER
 70
     1
  9
$ANGBASE
 50
0.0
  9
$ANGDIR
 70
     0
  9
$PDMODE
 70
     1
  9
$PDSIZE
 40
-2.0
  9
$PLINEWID
 40
0.0
  9
$SPLFRAME
 70
     0
  9
$SPLINETYPE
 70
     6
  9
$SPLINESEGS
 70
     8
  9
$HANDSEED
  5
82F
  9
$SURFTAB1
 70
     6
  9
$SURFTAB2
 70
     6
  9
$SURFTYPE
 70
     6
  9
$SURFU
 70
     6
  9
$SURFV
 70
     6
  9
$UCSBASE
  2

  9
$UCSNAME
  2

  9
$UCSORG
 10
0.0
 20
0.0
 30
0.0
  9
$UCSXDIR
 10
1.0
 20
0.0
 30
0.0
  9
$UCSYDIR
 10
0.0
 20
1.0
 30
0.0
  9
$UCSORTHOREF
  2

  9
$UCSORTHOVIEW
 70
     0
  9
$UCSORGTOP
 10
0.0
 20
0.0
 30
0.0
  9
$UCSORGBOTTOM
 10
0.0
 20
0.0
 30
0.0
  9
$UCSORGLEFT
 10
0.0
 20
0.0
 30
0.0
  9
$UCSORGRIGHT
 10
0.0
 20
0.0
 30
0.0
  9
$UCSORGFRONT
 10
0.0
 20
0.0
 30
0.0
  9
$UCSORGBACK
 10
0.0
 20
0.0
 30
0.0
  9
$PUCSBASE
  2

  9
$PUCSNAME
  2

  9
$PUCSORG
 10
0.0
 20
0.0
 30
0.0
  9
$PUCSXDIR
 10
1.0
 20
0.0
 30
0.0
  9
$PUCSYDIR
 10
0.0
 20
1.0
 30
0.0
  9
$PUCSORTHOREF
  2

  9
$PUCSORTHOVIEW
 70
     0
  9
$PUCSORGTOP
 10
0.0
 20
0.0
 30
0.0
  9
$PUCSORGBOTTOM
 10
0.0
 20
0.0
 30
0.0
  9
$PUCSORGLEFT
 10
0.0
 20
0.0
 30
0.0
  9
$PUCSORGRIGHT
 10
0.0
 20
0.0
 30
0.0
  9
$PUCSORGFRONT
 10
0.0
 20
0.0
 30
0.0
  9
$PUCSORGBACK
 10
0.0
 20
0.0
 30
0.0
  9
$USERI1
 70
     0
  9
$USERI2
 70
     0
  9
$USERI3
 70
     0
  9
$USERI4
 70
     0
  9
$USERI5
 70
     0
  9
$USERR1
 40
0.0
  9
$USERR2
 40
0.0
  9
$USERR3
 40
0.0
  9
$USERR4
 40
0.0
  9
$USERR5
 40
0.0
  9
$WORLDVIEW
 70
     1
  9
$SHADEDGE
 70
     3
  9
$SHADEDIF
 70
    70
  9
$TILEMODE
 70
     1
  9
$MAXACTVP
 70
    16
  9
$PINSBASE
 10
0.0
 20
0.0
 30
0.0
  9
$PLIMCHECK
 70
     0
  9
$PEXTMIN
 10
1.000000000000000E+20
 20
1.000000000000000E+20
 30
1.000000000000000E+20
  9
$PEXTMAX
 10
-1.000000000000000E+20
 20
-1.000000000000000E+20
 30
-1.000000000000000E+20
  9
$PLIMMIN
 10
0.0
 20
0.0
  9
$PLIMMAX
 10
12.0
 20
9.0
  9
$UNITMODE
 70
     0
  9
$VISRETAIN
 70
     0
  9
$PLINEGEN
 70
     1
  9
$PSLTSCALE
 70
     0
  9
$TREEDEPTH
 70
  3020
  9
$CMLSTYLE
  2
Standard
  9
$CMLJUST
 70
     0
  9
$CMLSCALE
 40
1.0
  9
$PROXYGRAPHICS
 70
     0
  9
$MEASUREMENT
 70
     1
  9
$CELWEIGHT
370
     0
  9
$ENDCAPS
280
     0
  9
$JOINSTYLE
280
     0
  9
$LWDISPLAY
290
     1
  9
$INSUNITS
 70
     4
  9
$HYPERLINKBASE
  1

  9
$STYLESHEET
  1

  9
$XEDIT
290
     1
  9
$CEPSNTYPE
380
     0
  9
$PSTYLEMODE
290
     1
  9
$FINGERPRINTGUID
  2

  9
$VERSIONGUID
  2
{63FAEBF8-E03A-4B1D-B147-8D417672AC01}
  9
$EXTNAMES
290
     1
  9
$PSVPSCALE
 40
0.0
  9
$OLESTARTUP
290
     0
  0
ENDSEC
  0
SECTION
  2
CLASSES
  0
CLASS
  1
IMAGE
  2
AcDbRasterImage
  3
ISM
 90
    32895
280
     0
281
     1
  0
CLASS
  1
DICTIONARYVAR
  2
AcDbDictionaryVar
  3
ObjectDBX Classes
 90
        0
280
     0
281
     0
  0
CLASS
  1
RASTERVARIABLES
  2
AcDbRasterVariables
  3
ISM
 90
    32768
280
     0
281
     0
  0
CLASS
  1
IMAGEDEF
  2
AcDbRasterImageDef
  3
ISM
 90
    32768
280
     0
281
     0
  0
CLASS
  1
IMAGEDEF_REACTOR
  2
AcDbRasterImageDefReactor
  3
ISM
 90
    32769
280
     0
281
     0
  0
CLASS
  1
IDBUFFER
  2
AcDbIdBuffer
  3
ObjectDBX Classes
 90
    32768
280
     0
281
     0
  0
CLASS
  1
SPATIAL_FILTER
  2
AcDbSpatialFilter
  3
ObjectDBX Classes
 90
    32768
280
     0
281
     0
  0
CLASS
  1
SORTENTSTABLE
  2
AcDbSortentsTable
  3
ObjectDBX Classes
 90
    32768
280
     0
281
     0
  0
CLASS
  1
LAYER_INDEX
  2
AcDbLayerIndex
  3
ObjectDBX Classes
 90
    32768
280
     0
281
     0
  0
CLASS
  1
SPATIAL_INDEX
  2
AcDbSpatialIndex
  3
ObjectDBX Classes
 90
    32768
280
     0
281
     0
  0
CLASS
  1
OBJECT_PTR
  2
CAseDLPNTableRecord
  3
ASE-LPNTableRecord
 90
    32769
280
     0
281
     0
  0
CLASS
  1
LAYOUT
  2
AcDbLayout
  3
ObjectDBX Classes
 90
        0
280
     0
281
     0
  0
CLASS
  1
PLOTSETTINGS
  2
AcDbPlotSettings
  3
ObjectDBX Classes
 90
    32768
280
     0
281
     0
  0
CLASS
  1
ACDBDICTIONARYWDFLT
  2
AcDbDictionaryWithDefault
  3
ObjectDBX Classes
 90
        0
280
     0
281
     0
  0
CLASS
  1
ACDBPLACEHOLDER
  2
AcDbPlaceHolder
  3
ObjectDBX Classes
 90
        0
280
     0
281
     0
  0
CLASS
  1
VBA_PROJECT
  2
AcDbVbaProject
  3
acad
 90
    32768
280
     0
281
     0
  0
CLASS
  1
WIPEOUT
  2
AcDbWipeout
  3
"WipeOut|Product Desc: Object Enabler for WipeOut entity^I^I^I^I^I^I|Company: Autodesk, Inc.^I^I^I^I^I^I|WEB Address: www.autodesk.com"
 90
    32895
280
     0
281
     1
  0
CLASS
  1
WIPEOUTVARIABLES
  2
AcDbWipeoutVariables
  3
"WipeOut|Product Desc:     WipeOut Dbx Application|Company:          Autodesk, Inc.|WEB Address:      www.autodesk.com"
 90
        0
280
     0
281
     0
  0
CLASS
  1
RTEXT
  2
RText
  3
RText|AutoCAD Express Tool|expresstools@autodesk.com
 90
    32768
280
     0
281
     1
  0
CLASS
  1
ARCALIGNEDTEXT
  2
AcDbArcAlignedText
  3
ATEXT|AutoCAD Express Tool|expresstools@autodesk.com
 90
    32768
280
     0
281
     1
  0
ENDSEC
  0
SECTION
  2
TABLES
  0
TABLE
  2
VPORT
  5
7
330
0
100
AcDbSymbolTable
 70
     2
  0
VPORT
  5
826
330
7
100
AcDbSymbolTableRecord
100
AcDbViewportTableRecord
  2
*Active
 70
     0
 10
0.0
 20
0.0
 11
1.0
 21
1.0
 12
1679.438347382957
 22
1415.608076104819
 13
0.0
 23
0.0
 14
1.0
 24
1.0
 15
0.0
 25
0.0
 16
0.0
 26
0.0
 36
1.0
 17
0.0
 27
0.0
 37
0.0
 40
2752.195938762772
 41
1.682584269662921
 42
50.0
 43
0.0
 44
0.0
 50
0.0
 51
0.0
 71
     0
 72
   100
 73
     1
 74
     1
 75
     0
 76
     0
 77
     0
 78
     0
281
     0
 65
     0
110
0.0
120
0.0
130
0.0
111
1.0
121
0.0
131
0.0
112
0.0
122
1.0
132
0.0
 79
     0
146
0.0
  0
ENDTAB
  0
TABLE
  2
LTYPE
  5
4
330
0
100
AcDbSymbolTable
 70
    25
  0
LTYPE
  5
11
330
4
100
AcDbSymbolTableRecord
100
AcDbLinetypeTableRecord
  2
ByBlock
 70
     0
  3

 72
    65
 73
     0
 40
0.0
  0
LTYPE
  5
12
330
4
100
AcDbSymbolTableRecord
100
AcDbLinetypeTableRecord
  2
ByLayer
 70
     0
  3

 72
    65
 73
     0
 40
0.0
  0
LTYPE
  5
13
330
4
100
AcDbSymbolTableRecord
100
AcDbLinetypeTableRecord
  2
Continuous
 70
     0
  3
Solid line
 72
    65
 73
     0
 40
0.0
  0
LTYPE
  5
3F
330
4
100
AcDbSymbolTableRecord
100
AcDbLinetypeTableRecord
  2
STYLE_01
 70
     0
  3

 72
    65
 73
     2
 40
0.4724409448818899
 49
0.3779527559055118
 74
     0
 49
-0.094488188976378
 74
     0
  0
LTYPE
  5
40
330
4
100
AcDbSymbolTableRecord
100
AcDbLinetypeTableRecord
  2
STYLE_02
 70
     0
  3

 72
    65
 73
     2
 40
0.9448818897637796
 49
0.3779527559055118
 74
     0
 49
-0.5669291338582677
 74
     0
  0
LTYPE
  5
41
330
4
100
AcDbSymbolTableRecord
100
AcDbLinetypeTableRecord
  2
STYLE_03
 70
     0
  3

 72
    65
 73
     4
 40
0.9448818897637796
 49
0.7559055118110237
 74
     0
 49
-0.094488188976378
 74
     0
 49
0.0020000000000001
 74
     0
 49
-0.0924881889763779
 74
     0
  0
LTYPE
  5
42
330
4
100
AcDbSymbolTableRecord
100
AcDbLinetypeTableRecord
  2
STYLE_04
 70
     0
  3

 72
    65
 73
     6
 40
1.070866141732282
 49
0.7559055118110237
 74
     0
 49
-0.094488188976378
 74
     0
 49
0.015748031496063
 74
     0
 49
-0.094488188976378
 74
     0
 49
0.015748031496063
 74
     0
 49
-0.094488188976378
 74
     0
  0
LTYPE
  5
43
330
4
100
AcDbSymbolTableRecord
100
AcDbLinetypeTableRecord
  2
STYLE_05
 70
     0
  3

 72
    65
 73
     8
 40
1.181102362204724
 49
0.7559055118110237
 74
     0
 49
-0.094488188976378
 74
     0
 49
0.015748031496063
 74
     0
 49
-0.094488188976378
 74
     0
 49
0.015748031496063
 74
     0
 49
-0.094488188976378
 74
     0
 49
0.015748031496063
 74
     0
 49
-0.094488188976378
 74
     0
  0
LTYPE
  5
44
330
4
100
AcDbSymbolTableRecord
100
AcDbLinetypeTableRecord
  2
STYLE_06
 70
     0
  3

 72
    65
 73
     2
 40
0.094488188976378
 49
0.002
 74
     0
 49
-0.092488188976378
 74
     0
  0
LTYPE
  5
45
330
4
100
AcDbSymbolTableRecord
100
AcDbLinetypeTableRecord
  2
STYLE_07
 70
     0
  3

 72
    65
 73
     4
 40
1.133858267716534
 49
0.7559055118110237
 74
     0
 49
-0.094488188976378
 74
     0
 49
0.1889763779527559
 74
     0
 49
-0.094488188976378
 74
     0
  0
LTYPE
  5
46
330
4
100
AcDbSymbolTableRecord
100
AcDbLinetypeTableRecord
  2
STYLE_08
 70
     0
  3

 72
    65
 73
     6
 40
1.417322834645668
 49
0.7559055118110237
 74
     0
 49
-0.094488188976378
 74
     0
 49
0.1889763779527559
 74
     0
 49
-0.094488188976378
 74
     0
 49
0.1889763779527559
 74
     0
 49
-0.094488188976378
 74
     0
  0
LTYPE
  5
47
330
4
100
AcDbSymbolTableRecord
100
AcDbLinetypeTableRecord
  2
STYLE_09
 70
     0
  3

 72
    65
 73
     4
 40
0.5669291338582677
 49
0.3779527559055118
 74
     0
 49
-0.094488188976378
 74
     0
 49
0.002
 74
     0
 49
-0.092488188976378
 74
     0
  0
LTYPE
  5
48
330
4
100
AcDbSymbolTableRecord
100
AcDbLinetypeTableRecord
  2
STYLE_10
 70
     0
  3

 72
    65
 73
     6
 40
1.039370078740156
 49
0.3779527559055118
 74
     0
 49
-0.094488188976378
 74
     0
 49
0.3779527559055118
 74
     0
 49
-0.094488188976378
 74
     0
 49
0.0020000000000001
 74
     0
 49
-0.0924881889763779
 74
     0
  0
LTYPE
  5
49
330
4
100
AcDbSymbolTableRecord
100
AcDbLinetypeTableRecord
  2
STYLE_11
 70
     0
  3

 72
    65
 73
     6
 40
0.6614173228346456
 49
0.3779527559055118
 74
     0
 49
-0.094488188976378
 74
     0
 49
0.002
 74
     0
 49
-0.092488188976378
 74
     0
 49
0.002
 74
     0
 49
-0.092488188976378
 74
     0
  0
LTYPE
  5
4A
330
4
100
AcDbSymbolTableRecord
100
AcDbLinetypeTableRecord
  2
STYLE_12
 70
     0
  3

 72
    65
 73
     8
 40
1.133858267716534
 49
0.3779527559055118
 74
     0
 49
-0.094488188976378
 74
     0
 49
0.3779527559055118
 74
     0
 49
-0.094488188976378
 74
     0
 49
0.0020000000000001
 74
     0
 49
-0.0924881889763779
 74
     0
 49
0.0020000000000001
 74
     0
 49
-0.0924881889763779
 74
     0
  0
LTYPE
  5
4B
330
4
100
AcDbSymbolTableRecord
100
AcDbLinetypeTableRecord
  2
STYLE_13
 70
     0
  3

 72
    65
 73
     8
 40
0.7559055118110237
 49
0.3779527559055118
 74
     0
 49
-0.094488188976378
 74
     0
 49
0.002
 74
     0
 49
-0.092488188976378
 74
     0
 49
0.002
 74
     0
 49
-0.092488188976378
 74
     0
 49
0.0020000000000001
 74
     0
 49
-0.0924881889763779
 74
     0
  0
LTYPE
  5
4C
330
4
100
AcDbSymbolTableRecord
100
AcDbLinetypeTableRecord
  2
STYLE_14
 70
     0
  3

 72
    65
 73
    10
 40
1.228346456692912
 49
0.3779527559055118
 74
     0
 49
-0.094488188976378
 74
     0
 49
0.3779527559055118
 74
     0
 49
-0.094488188976378
 74
     0
 49
0.0020000000000001
 74
     0
 49
-0.0924881889763779
 74
     0
 49
0.0020000000000001
 74
     0
 49
-0.0924881889763779
 74
     0
 49
0.0020000000000001
 74
     0
 49
-0.0924881889763779
 74
     0
  0
LTYPE
  5
4D
330
4
100
AcDbSymbolTableRecord
100
AcDbLinetypeTableRecord
  2
STYLE_15
 70
     0
  3

 72
    65
 73
     2
 40
0.32008
 49
0.002
 74
     0
 49
-0.31808
 74
     0
  0
LTYPE
  5
4E
330
4
100
AcDbSymbolTableRecord
100
AcDbLinetypeTableRecord
  2
STYLE_16
 70
     0
  3

 72
    65
 73
     6
 40
1.399999999999999
 49
0.3999999999999999
 74
     0
 49
-0.2
 74
     0
 49
0.3999999999999999
 74
     0
 49
-0.1999999999999999
 74
     0
 49
0.0020000000000001
 74
     0
 49
-0.1979999999999998
 74
     0
  0
LTYPE
  5
4F
330
4
100
AcDbSymbolTableRecord
100
AcDbLinetypeTableRecord
  2
STYLE_17
 70
     0
  3

 72
    65
 73
     6
 40
0.6999999999999999
 49
0.2
 74
     0
 49
-0.1
 74
     0
 49
0.2
 74
     0
 49
-0.1
 74
     0
 49
0.002
 74
     0
 49
-0.098
 74
     0
  0
LTYPE
  5
50
330
4
100
AcDbSymbolTableRecord
100
AcDbLinetypeTableRecord
  2
STYLE_18
 70
     0
  3

 72
    65
 73
     6
 40
2.799999999999998
 49
0.8
 74
     0
 49
-0.3999999999999999
 74
     0
 49
0.7999999999999999
 74
     0
 49
-0.3999999999999998
 74
     0
 49
0.0020000000000001
 74
     0
 49
-0.3979999999999997
 74
     0
  0
LTYPE
  5
51
330
4
100
AcDbSymbolTableRecord
100
AcDbLinetypeTableRecord
  2
STYLE_19
 70
     0
  3

 72
    65
 73
     4
 40
1.599999999999999
 49
1.0
 74
     0
 49
-0.1999999999999999
 74
     0
 49
0.1999999999999999
 74
     0
 49
-0.1999999999999999
 74
     0
  0
LTYPE
  5
52
330
4
100
AcDbSymbolTableRecord
100
AcDbLinetypeTableRecord
  2
STYLE_20
 70
     0
  3

 72
    65
 73
     4
 40
0.9
 49
0.6000000000000001
 74
     0
 49
-0.1
 74
     0
 49
0.1
 74
     0
 49
-0.1
 74
     0
  0
LTYPE
  5
53
330
4
100
AcDbSymbolTableRecord
100
AcDbLinetypeTableRecord
  2
STYLE_21
 70
     0
  3

 72
    65
 73
     4
 40
3.199999999999998
 49
2.0
 74
     0
 49
-0.3999999999999998
 74
     0
 49
0.3999999999999998
 74
     0
 49
-0.3999999999999998
 74
     0
  0
LTYPE
  5
54
330
4
100
AcDbSymbolTableRecord
100
AcDbLinetypeTableRecord
  2
STYLE_22
 70
     0
  3

 72
    65
 73
     4
 40
0.8
 49
0.3999999999999999
 74
     0
 49
-0.2
 74
     0
 49
0.002
 74
     0
 49
-0.198
 74
     0
  0
LTYPE
  5
55
330
4
100
AcDbSymbolTableRecord
100
AcDbLinetypeTableRecord
  2
STYLE_23
 70
     0
  3

 72
    65
 73
     4
 40
0.3999999999999999
 49
0.2
 74
     0
 49
-0.1
 74
     0
 49
0.002
 74
     0
 49
-0.098
 74
     0
  0
LTYPE
  5
56
330
4
100
AcDbSymbolTableRecord
100
AcDbLinetypeTableRecord
  2
STYLE_24
 70
     0
  3

 72
    65
 73
     4
 40
1.599999999999999
 49
0.8
 74
     0
 49
-0.3999999999999999
 74
     0
 49
0.0020000000000001
 74
     0
 49
-0.3979999999999999
 74
     0
  0
ENDTAB
  0
TABLE
  2
LAYER
  5
2
330
0
100
AcDbSymbolTable
 70
    10
  0
LAYER
  5
14
330
2
100
AcDbSymbolTableRecord
100
AcDbLayerTableRecord
  2
0
 70
     0
 62
     7
  6
Continuous
370
    15
390
1D
  0
LAYER
  5
57
330
2
100
AcDbSymbolTableRecord
100
AcDbLayerTableRecord
  2
Defpoints
 70
     0
 62
     7
  6
Continuous
290
     0
370
    -3
390
1D
  0
LAYER
  5
58
330
2
100
AcDbSymbolTableRecord
100
AcDbLayerTableRecord
  2
一般
 70
     0
 62
     7
  6
Continuous
370
     5
390
1D
  0
LAYER
  5
59
330
2
100
AcDbSymbolTableRecord
100
AcDbLayerTableRecord
  2
寸法
 70
     0
 62
     7
  6
Continuous
370
    18
390
1D
  0
LAYER
  5
5B
330
2
100
AcDbSymbolTableRecord
100
AcDbLayerTableRecord
  2
センター
 70
     0
 62
     7
  6
STYLE_20
370
    18
390
1D
  0
LAYER
  5
5C
330
2
100
AcDbSymbolTableRecord
100
AcDbLayerTableRecord
  2
実形
 70
     0
 62
     7
  6
Continuous
370
    15
390
1D
  0
LAYER
  5
5D
330
2
100
AcDbSymbolTableRecord
100
AcDbLayerTableRecord
  2
補助
 70
     1
 62
     4
  6
Continuous
370
    15
390
1D
  0
LAYER
  5
5E
330
2
100
AcDbSymbolTableRecord
100
AcDbLayerTableRecord
  2
ハッチング
 70
     0
 62
     7
  6
Continuous
370
    18
390
1D
  0
LAYER
  5
5F
330
2
100
AcDbSymbolTableRecord
100
AcDbLayerTableRecord
  2
文字
 70
     0
 62
     7
  6
Continuous
370
    15
390
1D
  0
LAYER
  5
60
330
2
100
AcDbSymbolTableRecord
100
AcDbLayerTableRecord
  2
Cen
 70
     0
 62
     7
  6
STYLE_20
370
    15
390
1D
  0
ENDTAB
  0
TABLE
  2
STYLE
  5
3
330
0
100
AcDbSymbolTable
 70
     3
  0
STYLE
  5
17
330
3
100
AcDbSymbolTableRecord
100
AcDbTextStyleTableRecord
  2
Standard
 70
     0
 40
0.0
 41
1.0
 50
0.0
 71
     0
 42
0.0
  3
txt
  4
BIGFONT.SHX
  0
STYLE
  5
3D
330
3
100
AcDbSymbolTableRecord
100
AcDbTextStyleTableRecord
  2
Arial
 70
     0
 40
0.0
 41
1.0
 50
0.0
 71
     0
 42
0.0
  3
ARIAL.TTF
  4

1001
ACAD
1000
Arial
1071
        0
  0
STYLE
  5
3E
330
3
100
AcDbSymbolTableRecord
100
AcDbTextStyleTableRecord
  2
ＭＳ ゴシック
 70
     0
 40
0.0
 41
1.0
 50
0.0
 71
     0
 42
0.0
  3
MS Gothic.ttf
  4

1001
ACAD
1000
ＭＳ ゴシック
1071
        0
  0
ENDTAB
  0
TABLE
  2
VIEW
  5
5
330
0
100
AcDbSymbolTable
 70
     0
  0
ENDTAB
  0
TABLE
  2
UCS
  5
6
330
0
100
AcDbSymbolTable
 70
     0
  0
ENDTAB
  0
TABLE
  2
APPID
  5
8
330
0
100
AcDbSymbolTable
 70
     2
  0
APPID
  5
16
330
8
100
AcDbSymbolTableRecord
100
AcDbRegAppTableRecord
  2
ACAD
 70
     0
  0
APPID
  5
270
330
8
100
AcDbSymbolTableRecord
100
AcDbRegAppTableRecord
  2
DCO15
 70
     0
  0
ENDTAB
  0
TABLE
  2
DIMSTYLE
  5
9
330
0
100
AcDbSymbolTable
 70
     3
100
AcDbDimStyleTable
 71
     1
340
28A
  0
DIMSTYLE
105
18
330
9
100
AcDbSymbolTableRecord
100
AcDbDimStyleTableRecord
  2
Standard
 70
     0
340
17
  0
DIMSTYLE
105
6A
330
9
100
AcDbSymbolTableRecord
100
AcDbDimStyleTableRecord
  2
Arch
 70
     0
  3
<>
  4
[]
 41
22.4482421875
 42
15.875
 43
10.16
 44
31.75
 46
1.587499999999999
 73
     0
 74
     0
 77
     1
 78
    11
140
24.4326171875
141
0.0
143
0.0393700787401575
146
0.8
147
1.587499999999999
171
     3
172
     1
174
     1
179
     2
271
     1
272
     1
273
     4
276
     2
284
    11
285
    15
286
    15
340
3E
341
66
342
61
  0
DIMSTYLE
105
28A
102
{ACAD_REACTORS
330
254
330
239
330
238
330
234
330
232
330
201
330
200
330
1EE
330
1ED
330
1EC
330
1D5
330
1D4
330
1D2
330
1D1
330
1D0
330
1CF
330
68D
330
6CC
330
716
330
79E
330
79F
330
7CC
330
7DA
330
7F4
102
}
330
9
100
AcDbSymbolTableRecord
100
AcDbDimStyleTableRecord
  2
ISO-25
 70
     0
 41
35.0
 42
65.0
 43
3.75
 44
0.0
 73
     0
 74
     0
 77
     1
 78
     8
140
25.0
141
2.5
143
0.03937007874016
147
6.25
171
     3
172
     1
271
     2
272
     2
274
     3
283
     0
284
     8
340
17
341
278
342
274
371
    15
372
    15
  0
ENDTAB
  0
TABLE
  2
BLOCK_RECORD
  5
1
330
0
100
AcDbSymbolTable
 70
    29
  0
BLOCK_RECORD
  5
A
330
1
100
AcDbSymbolTableRecord
100
AcDbBlockTableRecord
  2
*MODEL_SPACE
340
20
  0
BLOCK_RECORD
  5
B
330
1
100
AcDbSymbolTableRecord
100
AcDbBlockTableRecord
  2
*PAPER_SPACE
340
21
  0
BLOCK_RECORD
  5
61
330
1
100
AcDbSymbolTableRecord
100
AcDbBlockTableRecord
  2
VW_SLASH
340
0
  0
BLOCK_RECORD
  5
66
330
1
100
AcDbSymbolTableRecord
100
AcDbBlockTableRecord
  2
VW_FILLEDARROW
340
0
  0
BLOCK_RECORD
  5
2A
330
1
100
AcDbSymbolTableRecord
100
AcDbBlockTableRecord
  2
*U2
340
0
102
{BLKREFS
331
1DA
102
}
  0
BLOCK_RECORD
  5
274
330
1
100
AcDbSymbolTableRecord
100
AcDbBlockTableRecord
  2
_DotSmall
340
0
102
{BLKREFS
331
59B
331
59C
331
618
331
619
331
621
331
622
331
62A
331
62B
331
633
331
634
331
63C
331
63D
331
645
331
646
331
64E
331
64F
331
657
331
658
331
660
331
661
331
668
331
669
331
730
331
731
331
739
331
73A
331
741
331
742
331
74B
331
74C
331
755
331
756
331
75E
331
75F
331
773
331
774
331
799
331
79A
331
7BD
331
7BE
331
7C6
331
7C7
331
7D1
331
7D2
331
7DF
331
7E0
331
7F9
331
7FA
102
}
  0
BLOCK_RECORD
  5
278
330
1
100
AcDbSymbolTableRecord
100
AcDbBlockTableRecord
  2
_Open30
340
0
  0
BLOCK_RECORD
  5
2A6
330
1
100
AcDbSymbolTableRecord
100
AcDbBlockTableRecord
  2
*D5
340
0
  0
BLOCK_RECORD
  5
2B2
330
1
100
AcDbSymbolTableRecord
100
AcDbBlockTableRecord
  2
*D6
340
0
  0
BLOCK_RECORD
  5
2FD
330
1
100
AcDbSymbolTableRecord
100
AcDbBlockTableRecord
  2
*D7
340
0
  0
BLOCK_RECORD
  5
30A
330
1
100
AcDbSymbolTableRecord
100
AcDbBlockTableRecord
  2
*D8
340
0
  0
BLOCK_RECORD
  5
323
330
1
100
AcDbSymbolTableRecord
100
AcDbBlockTableRecord
  2
*D9
340
0
  0
BLOCK_RECORD
  5
33D
330
1
100
AcDbSymbolTableRecord
100
AcDbBlockTableRecord
  2
*D10
340
0
  0
BLOCK_RECORD
  5
357
330
1
100
AcDbSymbolTableRecord
100
AcDbBlockTableRecord
  2
*D11
340
0
  0
BLOCK_RECORD
  5
363
330
1
100
AcDbSymbolTableRecord
100
AcDbBlockTableRecord
  2
*D12
340
0
  0
BLOCK_RECORD
  5
36F
330
1
100
AcDbSymbolTableRecord
100
AcDbBlockTableRecord
  2
*D13
340
0
  0
BLOCK_RECORD
  5
37B
330
1
100
AcDbSymbolTableRecord
100
AcDbBlockTableRecord
  2
*D14
340
0
  0
BLOCK_RECORD
  5
387
330
1
100
AcDbSymbolTableRecord
100
AcDbBlockTableRecord
  2
*D15
340
0
  0
BLOCK_RECORD
  5
393
330
1
100
AcDbSymbolTableRecord
100
AcDbBlockTableRecord
  2
*D16
340
0
  0
BLOCK_RECORD
  5
39F
330
1
100
AcDbSymbolTableRecord
100
AcDbBlockTableRecord
  2
*D17
340
0
  0
BLOCK_RECORD
  5
3AB
330
1
100
AcDbSymbolTableRecord
100
AcDbBlockTableRecord
  2
*D18
340
0
  0
BLOCK_RECORD
  5
3B7
330
1
100
AcDbSymbolTableRecord
100
AcDbBlockTableRecord
  2
*D19
340
0
  0
BLOCK_RECORD
  5
3C2
330
1
100
AcDbSymbolTableRecord
100
AcDbBlockTableRecord
  2
*D20
340
0
  0
BLOCK_RECORD
  5
68E
330
1
100
AcDbSymbolTableRecord
100
AcDbBlockTableRecord
  2
*D21
340
0
  0
BLOCK_RECORD
  5
6CD
330
1
100
AcDbSymbolTableRecord
100
AcDbBlockTableRecord
  2
*D22
340
0
  0
BLOCK_RECORD
  5
717
330
1
100
AcDbSymbolTableRecord
100
AcDbBlockTableRecord
  2
*D23
340
0
  0
BLOCK_RECORD
  5
7A0
330
1
100
AcDbSymbolTableRecord
100
AcDbBlockTableRecord
  2
*D24
340
0
  0
BLOCK_RECORD
  5
7AC
330
1
100
AcDbSymbolTableRecord
100
AcDbBlockTableRecord
  2
*D25
340
0
  0
BLOCK_RECORD
  5
7CD
330
1
100
AcDbSymbolTableRecord
100
AcDbBlockTableRecord
  2
*D26
340
0
  0
BLOCK_RECORD
  5
7DB
330
1
100
AcDbSymbolTableRecord
100
AcDbBlockTableRecord
  2
*D27
340
0
  0
BLOCK_RECORD
  5
7F5
330
1
100
AcDbSymbolTableRecord
100
AcDbBlockTableRecord
  2
*D28
340
0
  0
ENDTAB
  0
ENDSEC
  0
SECTION
  2
BLOCKS
  0
BLOCK
  5
D
330
A
100
AcDbEntity
  8
0
100
AcDbBlockBegin
  2
*MODEL_SPACE
 70
     0
 10
0.0
 20
0.0
 30
0.0
  3
*MODEL_SPACE
  1

  0
ENDBLK
  5
E
330
A
100
AcDbEntity
  8
0
100
AcDbBlockEnd
  0
BLOCK
  5
F
330
B
100
AcDbEntity
 67
     1
  8
0
100
AcDbBlockBegin
  2
*PAPER_SPACE
 70
     0
 10
0.0
 20
0.0
 30
0.0
  3
*PAPER_SPACE
  1

  0
ENDBLK
  5
10
330
B
100
AcDbEntity
 67
     1
  8
0
100
AcDbBlockEnd
  0
BLOCK
  5
62
330
61
100
AcDbEntity
  8
0
  6
ByBlock
 62
     0
370
    -2
100
AcDbBlockBegin
  2
VW_SLASH
 70
     0
 10
0.0
 20
0.0
 30
0.0
  3
VW_SLASH
  1

  0
LINE
  5
63
330
61
100
AcDbEntity
  8
0
  6
ByBlock
 62
     0
370
    -2
100
AcDbLine
 10
0.0
 20
0.0
 30
0.0
 11
-1.0
 21
0.0
 31
0.0
  0
LINE
  5
64
330
61
100
AcDbEntity
  8
0
  6
ByBlock
 62
     0
370
    20
100
AcDbLine
 10
-0.4987813153181721
 20
-0.4987813153181719
 30
0.0
 11
0.4987813153181721
 21
0.4987813153181719
 31
0.0
  0
ENDBLK
  5
65
330
61
100
AcDbEntity
  8
0
100
AcDbBlockEnd
  0
BLOCK
  5
67
330
66
100
AcDbEntity
  8
0
  6
ByBlock
 62
     0
370
    -2
100
AcDbBlockBegin
  2
VW_FILLEDARROW
 70
     0
 10
0.0
 20
0.0
 30
0.0
  3
VW_FILLEDARROW
  1

  0
SOLID
  5
68
330
66
100
AcDbEntity
  8
0
 62
     0
370
    -2
100
AcDbTrace
 10
0.0
 20
0.0
 30
0.0
 11
-1.4107666015625
 21
-0.3780137715974714
 31
0.0
 12
-1.4107666015625
 22
0.3780137715974717
 32
0.0
 13
-1.4107666015625
 23
0.3780137715974717
 33
0.0
  0
ENDBLK
  5
69
330
66
100
AcDbEntity
  8
0
100
AcDbBlockEnd
  0
BLOCK
  5
BF
330
2A
100
AcDbEntity
  8
0
100
AcDbBlockBegin
  2
*U2
 70
     1
 10
0.0
 20
0.0
 30
0.0
  3
*U2
  1

  0
LINE
  5
C0
330
2A
100
AcDbEntity
  8
0
 62
     7
370
    15
100
AcDbLine
 10
-444.4518779813249
 20
-346.5521201782597
 30
0.0
 11
-466.8611509291007
 21
-359.5019258221918
 31
0.0
  0
LINE
  5
C1
330
2A
100
AcDbEntity
  8
0
 62
     7
370
    15
100
AcDbLine
 10
-466.8611509291007
 20
-359.5019258221918
 30
0.0
 11
-453.9290539962466
 21
-337.0824287452545
 31
0.0
  0
LINE
  5
C2
330
2A
100
AcDbEntity
  8
0
 62
     7
370
    15
100
AcDbLine
 10
-466.8611509291007
 20
-359.5019258221918
 30
0.0
 11
-449.1904659887858
 21
-341.817274461757
 31
0.0
  0
ENDBLK
  5
C3
330
2A
100
AcDbEntity
  8
0
100
AcDbBlockEnd
  0
BLOCK
  5
275
330
274
100
AcDbEntity
  8
0
100
AcDbBlockBegin
  2
_DotSmall
 70
     0
 10
0.0
 20
0.0
 30
0.0
  3
_DotSmall
  1

  0
LWPOLYLINE
  5
276
330
274
100
AcDbEntity
  8
0
 62
     0
100
AcDbPolyline
 90
        2
 70
     1
 43
0.5
 10
-0.0625
 20
0.0
 42
1.0
 10
0.0625
 20
0.0
 42
1.0
  0
ENDBLK
  5
277
330
274
100
AcDbEntity
  8
0
100
AcDbBlockEnd
  0
BLOCK
  5
279
330
278
100
AcDbEntity
  8
0
100
AcDbBlockBegin
  2
_Open30
 70
     0
 10
0.0
 20
0.0
 30
0.0
  3
_Open30
  1

  0
LINE
  5
27A
330
278
100
AcDbEntity
  8
0
 62
     0
370
    -2
100
AcDbLine
 10
-1.0
 20
0.26794919
 30
0.0
 11
0.0
 21
0.0
 31
0.0
  0
LINE
  5
27B
330
278
100
AcDbEntity
  8
0
 62
     0
370
    -2
100
AcDbLine
 10
0.0
 20
0.0
 30
0.0
 11
-1.0
 21
-0.26794919
 31
0.0
  0
LINE
  5
27C
330
278
100
AcDbEntity
  8
0
 62
     0
370
    -2
100
AcDbLine
 10
0.0
 20
0.0
 30
0.0
 11
-1.0
 21
0.0
 31
0.0
  0
ENDBLK
  5
27D
330
278
100
AcDbEntity
  8
0
100
AcDbBlockEnd
  0
BLOCK
  5
2B0
330
2A6
100
AcDbEntity
  8
0
370
     0
100
AcDbBlockBegin
  2
*D5
 70
     1
 10
0.0
 20
0.0
 30
0.0
  3
*D5
  1

  0
LINE
  5
75B
330
2A6
100
AcDbEntity
  8
寸法
  6
Continuous
 62
     0
370
    15
100
AcDbLine
 10
935.2705095546989
 20
1219.657240370982
 30
0.0
 11
935.2705095546989
 21
1157.356925647109
 31
0.0
  0
LINE
  5
75C
330
2A6
100
AcDbEntity
  8
寸法
  6
Continuous
 62
     0
370
    15
100
AcDbLine
 10
1375.270509554699
 20
1219.657240370982
 30
0.0
 11
1375.270509554699
 21
1157.356925647109
 31
0.0
  0
LINE
  5
75D
330
2A6
100
AcDbEntity
  8
寸法
  6
Continuous
 62
     0
370
    15
100
AcDbLine
 10
935.2705095546989
 20
1157.356925647109
 30
0.0
 11
1375.270509554699
 21
1157.356925647109
 31
0.0
  0
INSERT
  5
75E
330
2A6
100
AcDbEntity
  8
寸法
  6
Continuous
 62
     0
370
    15
100
AcDbBlockReference
  2
_DotSmall
 10
935.2705095546989
 20
1157.356925647109
 30
0.0
 41
35.0
 42
35.0
 43
35.0
 50
180.0
  0
INSERT
  5
75F
330
2A6
100
AcDbEntity
  8
寸法
  6
Continuous
 62
     0
370
    15
100
AcDbBlockReference
  2
_DotSmall
 10
1375.270509554699
 20
1157.356925647109
 30
0.0
 41
35.0
 42
35.0
 43
35.0
  0
MTEXT
  5
760
330
2A6
100
AcDbEntity
  8
寸法
  6
Continuous
 62
     0
370
    15
100
AcDbMText
 10
1155.270509554699
 20
1176.106925647109
 30
0.0
 40
25.0
 41
0.0
 71
     5
 72
     1
  1
440
 73
     1
 44
1.0
1001
ACAD
1000
MTEXTBEGIN
1070
    73
1070
     1
1070
    44
1040
1.0
1070
    74
1070
     0
1000
MTEXTEND
  0
POINT
  5
761
330
2A6
100
AcDbEntity
  8
Defpoints
  6
Continuous
 62
     0
370
     0
100
AcDbPoint
 10
935.2705095546989
 20
1284.657240370982
 30
0.0
  0
POINT
  5
762
330
2A6
100
AcDbEntity
  8
Defpoints
  6
Continuous
 62
     0
370
     0
100
AcDbPoint
 10
1375.270509554699
 20
1284.657240370982
 30
0.0
  0
POINT
  5
763
330
2A6
100
AcDbEntity
  8
Defpoints
  6
Continuous
 62
     0
370
     0
100
AcDbPoint
 10
1375.270509554699
 20
1157.356925647109
 30
0.0
  0
ENDBLK
  5
2B1
330
2A6
100
AcDbEntity
  8
0
370
     0
100
AcDbBlockEnd
  0
BLOCK
  5
2BD
330
2B2
100
AcDbEntity
  8
0
370
     0
100
AcDbBlockBegin
  2
*D6
 70
     1
 10
0.0
 20
0.0
 30
0.0
  3
*D6
  1

  0
LINE
  5
597
330
2B2
100
AcDbEntity
  8
寸法
  6
Continuous
 62
     0
370
    15
100
AcDbLine
 10
825.2705095546987
 20
780.0
 30
0.0
 11
772.3383917846446
 21
780.0
 31
0.0
  0
LINE
  5
598
330
2B2
100
AcDbEntity
  8
寸法
  6
Continuous
 62
     0
370
    15
100
AcDbLine
 10
825.2705095546987
 20
830.0
 30
0.0
 11
772.3383917846446
 21
830.0
 31
0.0
  0
LINE
  5
599
330
2B2
100
AcDbEntity
  8
寸法
  6
Continuous
 62
     0
370
    15
100
AcDbLine
 10
772.3383917846446
 20
780.0
 30
0.0
 11
772.3383917846446
 21
830.0
 31
0.0
  0
LINE
  5
59A
330
2B2
100
AcDbEntity
  8
寸法
  6
Continuous
 62
     0
370
    15
100
AcDbLine
 10
772.3383917846446
 20
830.0
 30
0.0
 11
772.3383917846446
 21
915.0
 31
0.0
  0
INSERT
  5
59B
330
2B2
100
AcDbEntity
  8
寸法
  6
Continuous
 62
     0
370
    15
100
AcDbBlockReference
  2
_DotSmall
 10
772.3383917846446
 20
780.0
 30
0.0
 41
35.0
 42
35.0
 43
35.0
 50
270.0
  0
INSERT
  5
59C
330
2B2
100
AcDbEntity
  8
寸法
  6
Continuous
 62
     0
370
    15
100
AcDbBlockReference
  2
_DotSmall
 10
772.3383917846446
 20
830.0
 30
0.0
 41
35.0
 42
35.0
 43
35.0
 50
90.0
  0
MTEXT
  5
59D
330
2B2
100
AcDbEntity
  8
寸法
  6
Continuous
 62
     0
370
    15
100
AcDbMText
 10
753.5883917846442
 20
890.0000000000003
 30
0.0
 40
25.0
 41
0.0
 71
     5
 72
     1
  1
50
 11
0.0000000000000001
 21
1.0
 31
0.0
 73
     1
 44
1.0
1001
ACAD
1000
MTEXTBEGIN
1070
    73
1070
     1
1070
    44
1040
1.0
1070
    74
1070
     0
1000
MTEXTEND
  0
POINT
  5
59E
330
2B2
100
AcDbEntity
  8
Defpoints
  6
Continuous
 62
     0
370
     0
100
AcDbPoint
 10
890.2705095546988
 20
780.0
 30
0.0
  0
POINT
  5
59F
330
2B2
100
AcDbEntity
  8
Defpoints
  6
Continuous
 62
     0
370
     0
100
AcDbPoint
 10
890.2705095546988
 20
830.0
 30
0.0
  0
POINT
  5
5A0
330
2B2
100
AcDbEntity
  8
Defpoints
  6
Continuous
 62
     0
370
     0
100
AcDbPoint
 10
772.3383917846446
 20
830.0
 30
0.0
  0
ENDBLK
  5
2BE
330
2B2
100
AcDbEntity
  8
0
370
     0
100
AcDbBlockEnd
  0
BLOCK
  5
308
330
2FD
100
AcDbEntity
  8
0
370
     0
100
AcDbBlockBegin
  2
*D7
 70
     1
 10
0.0
 20
0.0
 30
0.0
  3
*D7
  1

  0
LINE
  5
76F
330
2FD
100
AcDbEntity
  8
寸法
  6
Continuous
 62
     0
370
    15
100
AcDbLine
 10
874.8749999999997
 20
1282.603012618982
 30
0.0
 11
772.3383917846446
 21
1282.603012618982
 31
0.0
  0
LINE
  5
770
330
2FD
100
AcDbEntity
  8
寸法
  6
Continuous
 62
     0
370
    15
100
AcDbLine
 10
874.8749999999997
 20
1300.603012618982
 30
0.0
 11
772.3383917846446
 21
1300.603012618982
 31
0.0
  0
LINE
  5
771
330
2FD
100
AcDbEntity
  8
寸法
  6
Continuous
 62
     0
370
    15
100
AcDbLine
 10
772.3383917846446
 20
1300.603012618982
 30
0.0
 11
772.3383917846446
 21
1282.603012618982
 31
0.0
  0
LINE
  5
772
330
2FD
100
AcDbEntity
  8
寸法
  6
Continuous
 62
     0
370
    15
100
AcDbLine
 10
772.3383917846446
 20
1282.603012618982
 30
0.0
 11
772.3383917846445
 21
1201.769679285648
 31
0.0
  0
INSERT
  5
773
330
2FD
100
AcDbEntity
  8
寸法
  6
Continuous
 62
     0
370
    15
100
AcDbBlockReference
  2
_DotSmall
 10
772.3383917846446
 20
1300.603012618982
 30
0.0
 41
35.0
 42
35.0
 43
35.0
 50
90.0
  0
INSERT
  5
774
330
2FD
100
AcDbEntity
  8
寸法
  6
Continuous
 62
     0
370
    15
100
AcDbBlockReference
  2
_DotSmall
 10
772.3383917846446
 20
1282.603012618982
 30
0.0
 41
35.0
 42
35.0
 43
35.0
 50
270.0
  0
MTEXT
  5
775
330
2FD
100
AcDbEntity
  8
寸法
  6
Continuous
 62
     0
370
    15
100
AcDbMText
 10
753.5883917846442
 20
1224.686345952315
 30
0.0
 40
25.0
 41
0.0
 71
     5
 72
     1
  1
18
 11
0.0000000000000001
 21
1.0
 31
0.0
 73
     1
 44
1.0
1001
ACAD
1000
MTEXTBEGIN
1070
    73
1070
     1
1070
    44
1040
1.0
1070
    74
1070
     0
1000
MTEXTEND
  0
POINT
  5
776
330
2FD
100
AcDbEntity
  8
Defpoints
  6
Continuous
 62
     0
370
     0
100
AcDbPoint
 10
939.8749999999996
 20
1282.603012618982
 30
0.0
  0
POINT
  5
777
330
2FD
100
AcDbEntity
  8
Defpoints
  6
Continuous
 62
     0
370
     0
100
AcDbPoint
 10
939.8749999999996
 20
1300.603012618982
 30
0.0
  0
POINT
  5
778
330
2FD
100
AcDbEntity
  8
Defpoints
  6
Continuous
 62
     0
370
     0
100
AcDbPoint
 10
772.3383917846446
 20
1300.603012618982
 30
0.0
  0
ENDBLK
  5
309
330
2FD
100
AcDbEntity
  8
0
370
     0
100
AcDbBlockEnd
  0
BLOCK
  5
315
330
30A
100
AcDbEntity
  8
0
370
     0
100
AcDbBlockBegin
  2
*D8
 70
     1
 10
0.0
 20
0.0
 30
0.0
  3
*D8
  1

  0
LINE
  5
795
330
30A
100
AcDbEntity
  8
寸法
  6
Continuous
 62
     0
370
    15
100
AcDbLine
 10
859.0
 20
1300.603012618982
 30
0.0
 11
772.3383917846446
 21
1300.603012618982
 31
0.0
  0
LINE
  5
796
330
30A
100
AcDbEntity
  8
寸法
  6
Continuous
 62
     0
370
    15
100
AcDbLine
 10
859.0
 20
1327.603012618982
 30
0.0
 11
772.3383917846446
 21
1327.603012618982
 31
0.0
  0
LINE
  5
797
330
30A
100
AcDbEntity
  8
寸法
  6
Continuous
 62
     0
370
    15
100
AcDbLine
 10
772.3383917846446
 20
1300.603012618982
 30
0.0
 11
772.3383917846446
 21
1327.603012618982
 31
0.0
  0
MTEXT
  5
798
330
30A
100
AcDbEntity
  8
寸法
  6
Continuous
 62
     0
370
    15
100
AcDbMText
 10
747.1404621194815
 20
1328.712775868897
 30
0.0
 40
25.0
 41
0.0
 71
     5
 72
     1
  1
27
 11
0.0000000000000001
 21
1.0
 31
0.0
 73
     1
 44
1.0
1001
ACAD
1000
MTEXTBEGIN
1070
    73
1070
     1
1070
    44
1040
1.0
1070
    74
1070
     0
1000
MTEXTEND
  0
INSERT
  5
799
330
30A
100
AcDbEntity
  8
寸法
  6
Continuous
 62
     0
370
    15
100
AcDbBlockReference
  2
_DotSmall
 10
772.3383917846446
 20
1300.603012618982
 30
0.0
 41
35.0
 42
35.0
 43
35.0
 50
270.0
  0
INSERT
  5
79A
330
30A
100
AcDbEntity
  8
寸法
  6
Continuous
 62
     0
370
    15
100
AcDbBlockReference
  2
_DotSmall
 10
772.3383917846446
 20
1327.603012618982
 30
0.0
 41
35.0
 42
35.0
 43
35.0
 50
90.0
  0
POINT
  5
79B
330
30A
100
AcDbEntity
  8
Defpoints
  6
Continuous
 62
     0
370
     0
100
AcDbPoint
 10
924.0
 20
1300.603012618982
 30
0.0
  0
POINT
  5
79C
330
30A
100
AcDbEntity
  8
Defpoints
  6
Continuous
 62
     0
370
     0
100
AcDbPoint
 10
924.0
 20
1327.603012618982
 30
0.0
  0
POINT
  5
79D
330
30A
100
AcDbEntity
  8
Defpoints
  6
Continuous
 62
     0
370
     0
100
AcDbPoint
 10
772.3383917846446
 20
1327.603012618982
 30
0.0
  0
ENDBLK
  5
316
330
30A
100
AcDbEntity
  8
0
370
     0
100
AcDbBlockEnd
  0
BLOCK
  5
32E
330
323
100
AcDbEntity
  8
0
370
     0
100
AcDbBlockBegin
  2
*D9
 70
     1
 10
0.0
 20
0.0
 30
0.0
  3
*D9
  1

  0
LINE
  5
747
330
323
100
AcDbEntity
  8
寸法
  6
Continuous
 62
     0
370
    15
100
AcDbLine
 10
890.2705095546988
 20
1203.782240370982
 30
0.0
 11
890.2705095546988
 21
1157.356925647109
 31
0.0
  0
LINE
  5
748
330
323
100
AcDbEntity
  8
寸法
  6
Continuous
 62
     0
370
    15
100
AcDbLine
 10
908.2705095546987
 20
1203.782240370982
 30
0.0
 11
908.2705095546987
 21
1157.356925647109
 31
0.0
  0
LINE
  5
749
330
323
100
AcDbEntity
  8
寸法
  6
Continuous
 62
     0
370
    15
100
AcDbLine
 10
908.2705095546987
 20
1157.356925647109
 30
0.0
 11
890.2705095546988
 21
1157.356925647109
 31
0.0
  0
LINE
  5
74A
330
323
100
AcDbEntity
  8
寸法
  6
Continuous
 62
     0
370
    15
100
AcDbLine
 10
890.2705095546988
 20
1157.356925647109
 30
0.0
 11
809.4371762213652
 21
1157.356925647109
 31
0.0
  0
INSERT
  5
74B
330
323
100
AcDbEntity
  8
寸法
  6
Continuous
 62
     0
370
    15
100
AcDbBlockReference
  2
_DotSmall
 10
908.2705095546987
 20
1157.356925647109
 30
0.0
 41
35.0
 42
35.0
 43
35.0
  0
INSERT
  5
74C
330
323
100
AcDbEntity
  8
寸法
  6
Continuous
 62
     0
370
    15
100
AcDbBlockReference
  2
_DotSmall
 10
890.2705095546988
 20
1157.356925647109
 30
0.0
 41
35.0
 42
35.0
 43
35.0
 50
180.0
  0
MTEXT
  5
74D
330
323
100
AcDbEntity
  8
寸法
  6
Continuous
 62
     0
370
    15
100
AcDbMText
 10
832.3538428880322
 20
1176.106925647109
 30
0.0
 40
25.0
 41
0.0
 71
     5
 72
     1
  1
18
 73
     1
 44
1.0
1001
ACAD
1000
MTEXTBEGIN
1070
    73
1070
     1
1070
    44
1040
1.0
1070
    74
1070
     0
1000
MTEXTEND
  0
POINT
  5
74E
330
323
100
AcDbEntity
  8
Defpoints
  6
Continuous
 62
     0
370
     0
100
AcDbPoint
 10
890.2705095546988
 20
1268.782240370982
 30
0.0
  0
POINT
  5
74F
330
323
100
AcDbEntity
  8
Defpoints
  6
Continuous
 62
     0
370
     0
100
AcDbPoint
 10
908.2705095546987
 20
1268.782240370982
 30
0.0
  0
POINT
  5
750
330
323
100
AcDbEntity
  8
Defpoints
  6
Continuous
 62
     0
370
     0
100
AcDbPoint
 10
908.2705095546987
 20
1157.356925647109
 30
0.0
  0
ENDBLK
  5
32F
330
323
100
AcDbEntity
  8
0
370
     0
100
AcDbBlockEnd
  0
BLOCK
  5
348
330
33D
100
AcDbEntity
  8
0
370
     0
100
AcDbBlockBegin
  2
*D10
 70
     1
 10
0.0
 20
0.0
 30
0.0
  3
*D10
  1

  0
LINE
  5
751
330
33D
100
AcDbEntity
  8
寸法
  6
Continuous
 62
     0
370
    15
100
AcDbLine
 10
1420.270509554699
 20
1203.782240370982
 30
0.0
 11
1420.270509554699
 21
1157.356925647109
 31
0.0
  0
LINE
  5
752
330
33D
100
AcDbEntity
  8
寸法
  6
Continuous
 62
     0
370
    15
100
AcDbLine
 10
1402.270509554699
 20
1203.782240370982
 30
0.0
 11
1402.270509554699
 21
1157.356925647109
 31
0.0
  0
LINE
  5
753
330
33D
100
AcDbEntity
  8
寸法
  6
Continuous
 62
     0
370
    15
100
AcDbLine
 10
1402.270509554699
 20
1157.356925647109
 30
0.0
 11
1420.270509554699
 21
1157.356925647109
 31
0.0
  0
LINE
  5
754
330
33D
100
AcDbEntity
  8
寸法
  6
Continuous
 62
     0
370
    15
100
AcDbLine
 10
1420.270509554699
 20
1157.356925647109
 30
0.0
 11
1501.103842888032
 21
1157.356925647109
 31
0.0
  0
INSERT
  5
755
330
33D
100
AcDbEntity
  8
寸法
  6
Continuous
 62
     0
370
    15
100
AcDbBlockReference
  2
_DotSmall
 10
1402.270509554699
 20
1157.356925647109
 30
0.0
 41
35.0
 42
35.0
 43
35.0
 50
180.0
  0
INSERT
  5
756
330
33D
100
AcDbEntity
  8
寸法
  6
Continuous
 62
     0
370
    15
100
AcDbBlockReference
  2
_DotSmall
 10
1420.270509554699
 20
1157.356925647109
 30
0.0
 41
35.0
 42
35.0
 43
35.0
  0
MTEXT
  5
757
330
33D
100
AcDbEntity
  8
寸法
  6
Continuous
 62
     0
370
    15
100
AcDbMText
 10
1478.187176221365
 20
1176.106925647109
 30
0.0
 40
25.0
 41
0.0
 71
     5
 72
     1
  1
18
 73
     1
 44
1.0
1001
ACAD
1000
MTEXTBEGIN
1070
    73
1070
     1
1070
    44
1040
1.0
1070
    74
1070
     0
1000
MTEXTEND
  0
POINT
  5
758
330
33D
100
AcDbEntity
  8
Defpoints
  6
Continuous
 62
     0
370
     0
100
AcDbPoint
 10
1420.270509554699
 20
1268.782240370982
 30
0.0
  0
POINT
  5
759
330
33D
100
AcDbEntity
  8
Defpoints
  6
Continuous
 62
     0
370
     0
100
AcDbPoint
 10
1402.270509554699
 20
1268.782240370982
 30
0.0
  0
POINT
  5
75A
330
33D
100
AcDbEntity
  8
Defpoints
  6
Continuous
 62
     0
370
     0
100
AcDbPoint
 10
1402.270509554699
 20
1157.356925647109
 30
0.0
  0
ENDBLK
  5
349
330
33D
100
AcDbEntity
  8
0
370
     0
100
AcDbBlockEnd
  0
BLOCK
  5
361
330
357
100
AcDbEntity
  8
0
370
     0
100
AcDbBlockBegin
  2
*D11
 70
     1
 10
0.0
 20
0.0
 30
0.0
  3
*D11
  1

  0
LINE
  5
615
330
357
100
AcDbEntity
  8
寸法
  6
Continuous
 62
     0
370
    15
100
AcDbLine
 10
2321.466055913164
 20
639.9999999999997
 30
0.0
 11
2357.919068683756
 21
639.9999999999997
 31
0.0
  0
LINE
  5
616
330
357
100
AcDbEntity
  8
寸法
  6
Continuous
 62
     0
370
    15
100
AcDbLine
 10
2321.466055913164
 20
740.0
 30
0.0
 11
2357.919068683756
 21
740.0
 31
0.0
  0
LINE
  5
617
330
357
100
AcDbEntity
  8
寸法
  6
Continuous
 62
     0
370
    15
100
AcDbLine
 10
2357.919068683756
 20
639.9999999999997
 30
0.0
 11
2357.919068683756
 21
740.0
 31
0.0
  0
INSERT
  5
618
330
357
100
AcDbEntity
  8
寸法
  6
Continuous
 62
     0
370
    15
100
AcDbBlockReference
  2
_DotSmall
 10
2357.919068683756
 20
639.9999999999997
 30
0.0
 41
35.0
 42
35.0
 43
35.0
 50
270.0
  0
INSERT
  5
619
330
357
100
AcDbEntity
  8
寸法
  6
Continuous
 62
     0
370
    15
100
AcDbBlockReference
  2
_DotSmall
 10
2357.919068683756
 20
740.0
 30
0.0
 41
35.0
 42
35.0
 43
35.0
 50
90.0
  0
MTEXT
  5
61A
330
357
100
AcDbEntity
  8
寸法
  6
Continuous
 62
     0
370
    15
100
AcDbMText
 10
2339.169068683756
 20
690.0000000000003
 30
0.0
 40
25.0
 41
0.0
 71
     5
 72
     1
  1
20
 11
0.0000000000000001
 21
1.0
 31
0.0
 73
     1
 44
1.0
1001
ACAD
1000
MTEXTBEGIN
1070
    73
1070
     1
1070
    44
1040
1.0
1070
    74
1070
     0
1000
MTEXTEND
  0
POINT
  5
61B
330
357
100
AcDbEntity
  8
Defpoints
  6
Continuous
 62
     0
370
     0
100
AcDbPoint
 10
2256.466055913165
 20
640.0
 30
0.0
  0
POINT
  5
61C
330
357
100
AcDbEntity
  8
Defpoints
  6
Continuous
 62
     0
370
     0
100
AcDbPoint
 10
2256.466055913165
 20
740.0000000000001
 30
0.0
  0
POINT
  5
61D
330
357
100
AcDbEntity
  8
Defpoints
  6
Continuous
 62
     0
370
     0
100
AcDbPoint
 10
2357.919068683756
 20
740.0
 30
0.0
  0
ENDBLK
  5
362
330
357
100
AcDbEntity
  8
0
370
     0
100
AcDbBlockEnd
  0
BLOCK
  5
36D
330
363
100
AcDbEntity
  8
0
370
     0
100
AcDbBlockBegin
  2
*D12
 70
     1
 10
0.0
 20
0.0
 30
0.0
  3
*D12
  1

  0
LINE
  5
61E
330
363
100
AcDbEntity
  8
寸法
  6
Continuous
 62
     0
370
    15
100
AcDbLine
 10
2321.466055913164
 20
614.4999999999997
 30
0.0
 11
2403.886733972866
 21
614.4999999999997
 31
0.0
  0
LINE
  5
61F
330
363
100
AcDbEntity
  8
寸法
  6
Continuous
 62
     0
370
    15
100
AcDbLine
 10
2321.466055913164
 20
765.5
 30
0.0
 11
2403.886733972866
 21
765.5
 31
0.0
  0
LINE
  5
620
330
363
100
AcDbEntity
  8
寸法
  6
Continuous
 62
     0
370
    15
100
AcDbLine
 10
2403.886733972866
 20
614.4999999999997
 30
0.0
 11
2403.886733972866
 21
765.5
 31
0.0
  0
INSERT
  5
621
330
363
100
AcDbEntity
  8
寸法
  6
Continuous
 62
     0
370
    15
100
AcDbBlockReference
  2
_DotSmall
 10
2403.886733972866
 20
614.4999999999997
 30
0.0
 41
35.0
 42
35.0
 43
35.0
 50
270.0
  0
INSERT
  5
622
330
363
100
AcDbEntity
  8
寸法
  6
Continuous
 62
     0
370
    15
100
AcDbBlockReference
  2
_DotSmall
 10
2403.886733972866
 20
765.5
 30
0.0
 41
35.0
 42
35.0
 43
35.0
 50
90.0
  0
MTEXT
  5
623
330
363
100
AcDbEntity
  8
寸法
  6
Continuous
 62
     0
370
    15
100
AcDbMText
 10
2385.136733972867
 20
690.0000000000003
 30
0.0
 40
25.0
 41
0.0
 71
     5
 72
     1
  1
31
 11
0.0000000000000001
 21
1.0
 31
0.0
 73
     1
 44
1.0
1001
ACAD
1000
MTEXTBEGIN
1070
    73
1070
     1
1070
    44
1040
1.0
1070
    74
1070
     0
1000
MTEXTEND
  0
POINT
  5
624
330
363
100
AcDbEntity
  8
Defpoints
  6
Continuous
 62
     0
370
     0
100
AcDbPoint
 10
2256.466055913165
 20
614.5
 30
0.0
  0
POINT
  5
625
330
363
100
AcDbEntity
  8
Defpoints
  6
Continuous
 62
     0
370
     0
100
AcDbPoint
 10
2256.466055913165
 20
765.5000000000001
 30
0.0
  0
POINT
  5
626
330
363
100
AcDbEntity
  8
Defpoints
  6
Continuous
 62
     0
370
     0
100
AcDbPoint
 10
2403.886733972866
 20
765.5
 30
0.0
  0
ENDBLK
  5
36E
330
363
100
AcDbEntity
  8
0
370
     0
100
AcDbBlockEnd
  0
BLOCK
  5
379
330
36F
100
AcDbEntity
  8
0
370
     0
100
AcDbBlockBegin
  2
*D13
 70
     1
 10
0.0
 20
0.0
 30
0.0
  3
*D13
  1

  0
LINE
  5
627
330
36F
100
AcDbEntity
  8
寸法
  6
Continuous
 62
     0
370
    15
100
AcDbLine
 10
2193.966055913164
 20
805.0
 30
0.0
 11
2193.966055913164
 21
838.8838972733093
 31
0.0
  0
LINE
  5
628
330
36F
100
AcDbEntity
  8
寸法
  6
Continuous
 62
     0
370
    15
100
AcDbLine
 10
1943.966055913163
 20
805.0
 30
0.0
 11
1943.966055913163
 21
838.8838972733093
 31
0.0
  0
LINE
  5
629
330
36F
100
AcDbEntity
  8
寸法
  6
Continuous
 62
     0
370
    15
100
AcDbLine
 10
2193.966055913164
 20
838.8838972733093
 30
0.0
 11
1943.966055913163
 21
838.8838972733093
 31
0.0
  0
INSERT
  5
62A
330
36F
100
AcDbEntity
  8
寸法
  6
Continuous
 62
     0
370
    15
100
AcDbBlockReference
  2
_DotSmall
 10
2193.966055913164
 20
838.8838972733093
 30
0.0
 41
35.0
 42
35.0
 43
35.0
  0
INSERT
  5
62B
330
36F
100
AcDbEntity
  8
寸法
  6
Continuous
 62
     0
370
    15
100
AcDbBlockReference
  2
_DotSmall
 10
1943.966055913163
 20
838.8838972733093
 30
0.0
 41
35.0
 42
35.0
 43
35.0
 50
180.0
  0
MTEXT
  5
62C
330
36F
100
AcDbEntity
  8
寸法
  6
Continuous
 62
     0
370
    15
100
AcDbMText
 10
2068.966055913163
 20
857.6338972733093
 30
0.0
 40
25.0
 41
0.0
 71
     5
 72
     1
  1
50
 73
     1
 44
1.0
1001
ACAD
1000
MTEXTBEGIN
1070
    73
1070
     1
1070
    44
1040
1.0
1070
    74
1070
     0
1000
MTEXTEND
  0
POINT
  5
62D
330
36F
100
AcDbEntity
  8
Defpoints
  6
Continuous
 62
     0
370
     0
100
AcDbPoint
 10
2193.966055913164
 20
740.0000000000001
 30
0.0
  0
POINT
  5
62E
330
36F
100
AcDbEntity
  8
Defpoints
  6
Continuous
 62
     0
370
     0
100
AcDbPoint
 10
1943.966055913163
 20
740.0000000000001
 30
0.0
  0
POINT
  5
62F
330
36F
100
AcDbEntity
  8
Defpoints
  6
Continuous
 62
     0
370
     0
100
AcDbPoint
 10
1943.966055913163
 20
838.8838972733093
 30
0.0
  0
ENDBLK
  5
37A
330
36F
100
AcDbEntity
  8
0
370
     0
100
AcDbBlockEnd
  0
BLOCK
  5
385
330
37B
100
AcDbEntity
  8
0
370
     0
100
AcDbBlockBegin
  2
*D14
 70
     1
 10
0.0
 20
0.0
 30
0.0
  3
*D14
  1

  0
LINE
  5
630
330
37B
100
AcDbEntity
  8
寸法
  6
Continuous
 62
     0
370
    15
100
AcDbLine
 10
1908.966055913163
 20
805.0
 30
0.0
 11
1908.966055913163
 21
889.9187367385902
 31
0.0
  0
LINE
  5
631
330
37B
100
AcDbEntity
  8
寸法
  6
Continuous
 62
     0
370
    15
100
AcDbLine
 10
2228.966055913164
 20
805.0
 30
0.0
 11
2228.966055913164
 21
889.9187367385902
 31
0.0
  0
LINE
  5
632
330
37B
100
AcDbEntity
  8
寸法
  6
Continuous
 62
     0
370
    15
100
AcDbLine
 10
1908.966055913163
 20
889.9187367385902
 30
0.0
 11
2228.966055913164
 21
889.9187367385902
 31
0.0
  0
INSERT
  5
633
330
37B
100
AcDbEntity
  8
寸法
  6
Continuous
 62
     0
370
    15
100
AcDbBlockReference
  2
_DotSmall
 10
1908.966055913163
 20
889.9187367385902
 30
0.0
 41
35.0
 42
35.0
 43
35.0
 50
180.0
  0
INSERT
  5
634
330
37B
100
AcDbEntity
  8
寸法
  6
Continuous
 62
     0
370
    15
100
AcDbBlockReference
  2
_DotSmall
 10
2228.966055913164
 20
889.9187367385902
 30
0.0
 41
35.0
 42
35.0
 43
35.0
  0
MTEXT
  5
635
330
37B
100
AcDbEntity
  8
寸法
  6
Continuous
 62
     0
370
    15
100
AcDbMText
 10
2068.966055913163
 20
908.6687367385902
 30
0.0
 40
25.0
 41
0.0
 71
     5
 72
     1
  1
64
 73
     1
 44
1.0
1001
ACAD
1000
MTEXTBEGIN
1070
    73
1070
     1
1070
    44
1040
1.0
1070
    74
1070
     0
1000
MTEXTEND
  0
POINT
  5
636
330
37B
100
AcDbEntity
  8
Defpoints
  6
Continuous
 62
     0
370
     0
100
AcDbPoint
 10
1908.966055913163
 20
740.0000000000001
 30
0.0
  0
POINT
  5
637
330
37B
100
AcDbEntity
  8
Defpoints
  6
Continuous
 62
     0
370
     0
100
AcDbPoint
 10
2228.966055913164
 20
740.0000000000001
 30
0.0
  0
POINT
  5
638
330
37B
100
AcDbEntity
  8
Defpoints
  6
Continuous
 62
     0
370
     0
100
AcDbPoint
 10
2228.966055913164
 20
889.9187367385902
 30
0.0
  0
ENDBLK
  5
386
330
37B
100
AcDbEntity
  8
0
370
     0
100
AcDbBlockEnd
  0
BLOCK
  5
391
330
387
100
AcDbEntity
  8
0
370
     0
100
AcDbBlockBegin
  2
*D15
 70
     1
 10
0.0
 20
0.0
 30
0.0
  3
*D15
  1

  0
LINE
  5
639
330
387
100
AcDbEntity
  8
寸法
  6
Continuous
 62
     0
370
    15
100
AcDbLine
 10
2256.466055913165
 20
805.0
 30
0.0
 11
2256.466055913165
 21
937.1259633629808
 31
0.0
  0
LINE
  5
63A
330
387
100
AcDbEntity
  8
寸法
  6
Continuous
 62
     0
370
    15
100
AcDbLine
 10
1881.466055913163
 20
805.0
 30
0.0
 11
1881.466055913163
 21
937.1259633629808
 31
0.0
  0
LINE
  5
63B
330
387
100
AcDbEntity
  8
寸法
  6
Continuous
 62
     0
370
    15
100
AcDbLine
 10
2256.466055913165
 20
937.1259633629808
 30
0.0
 11
1881.466055913163
 21
937.1259633629808
 31
0.0
  0
INSERT
  5
63C
330
387
100
AcDbEntity
  8
寸法
  6
Continuous
 62
     0
370
    15
100
AcDbBlockReference
  2
_DotSmall
 10
2256.466055913165
 20
937.1259633629808
 30
0.0
 41
35.0
 42
35.0
 43
35.0
  0
INSERT
  5
63D
330
387
100
AcDbEntity
  8
寸法
  6
Continuous
 62
     0
370
    15
100
AcDbBlockReference
  2
_DotSmall
 10
1881.466055913163
 20
937.1259633629808
 30
0.0
 41
35.0
 42
35.0
 43
35.0
 50
180.0
  0
MTEXT
  5
63E
330
387
100
AcDbEntity
  8
寸法
  6
Continuous
 62
     0
370
    15
100
AcDbMText
 10
2068.966055913164
 20
955.8759633629808
 30
0.0
 40
25.0
 41
0.0
 71
     5
 72
     1
  1
75
 73
     1
 44
1.0
1001
ACAD
1000
MTEXTBEGIN
1070
    73
1070
     1
1070
    44
1040
1.0
1070
    74
1070
     0
1000
MTEXTEND
  0
POINT
  5
63F
330
387
100
AcDbEntity
  8
Defpoints
  6
Continuous
 62
     0
370
     0
100
AcDbPoint
 10
2256.466055913165
 20
740.0000000000001
 30
0.0
  0
POINT
  5
640
330
387
100
AcDbEntity
  8
Defpoints
  6
Continuous
 62
     0
370
     0
100
AcDbPoint
 10
1881.466055913163
 20
740.0000000000001
 30
0.0
  0
POINT
  5
641
330
387
100
AcDbEntity
  8
Defpoints
  6
Continuous
 62
     0
370
     0
100
AcDbPoint
 10
1881.466055913163
 20
937.1259633629808
 30
0.0
  0
ENDBLK
  5
392
330
387
100
AcDbEntity
  8
0
370
     0
100
AcDbBlockEnd
  0
BLOCK
  5
39D
330
393
100
AcDbEntity
  8
0
370
     0
100
AcDbBlockBegin
  2
*D16
 70
     1
 10
0.0
 20
0.0
 30
0.0
  3
*D16
  1

  0
LINE
  5
642
330
393
100
AcDbEntity
  8
寸法
  6
Continuous
 62
     0
370
    15
100
AcDbLine
 10
987.2705095546983
 20
560.0
 30
0.0
 11
987.2705095546983
 21
449.7722679432378
 31
0.0
  0
LINE
  5
643
330
393
100
AcDbEntity
  8
寸法
  6
Continuous
 62
     0
370
    15
100
AcDbLine
 10
1103.270509554698
 20
560.0
 30
0.0
 11
1103.270509554698
 21
449.7722679432378
 31
0.0
  0
LINE
  5
644
330
393
100
AcDbEntity
  8
寸法
  6
Continuous
 62
     0
370
    15
100
AcDbLine
 10
987.2705095546983
 20
449.7722679432378
 30
0.0
 11
1103.270509554698
 21
449.7722679432378
 31
0.0
  0
INSERT
  5
645
330
393
100
AcDbEntity
  8
寸法
  6
Continuous
 62
     0
370
    15
100
AcDbBlockReference
  2
_DotSmall
 10
987.2705095546983
 20
449.7722679432378
 30
0.0
 41
35.0
 42
35.0
 43
35.0
 50
180.0
  0
INSERT
  5
646
330
393
100
AcDbEntity
  8
寸法
  6
Continuous
 62
     0
370
    15
100
AcDbBlockReference
  2
_DotSmall
 10
1103.270509554698
 20
449.7722679432378
 30
0.0
 41
35.0
 42
35.0
 43
35.0
  0
MTEXT
  5
647
330
393
100
AcDbEntity
  8
寸法
  6
Continuous
 62
     0
370
    15
100
AcDbMText
 10
1045.270509554698
 20
468.5222679432378
 30
0.0
 40
25.0
 41
0.0
 71
     5
 72
     1
  1
116
 73
     1
 44
1.0
1001
ACAD
1000
MTEXTBEGIN
1070
    73
1070
     1
1070
    44
1040
1.0
1070
    74
1070
     0
1000
MTEXTEND
  0
POINT
  5
648
330
393
100
AcDbEntity
  8
Defpoints
  6
Continuous
 62
     0
370
     0
100
AcDbPoint
 10
987.2705095546983
 20
625.0
 30
0.0
  0
POINT
  5
649
330
393
100
AcDbEntity
  8
Defpoints
  6
Continuous
 62
     0
370
     0
100
AcDbPoint
 10
1103.270509554698
 20
625.0
 30
0.0
  0
POINT
  5
64A
330
393
100
AcDbEntity
  8
Defpoints
  6
Continuous
 62
     0
370
     0
100
AcDbPoint
 10
1103.270509554698
 20
449.7722679432378
 30
0.0
  0
ENDBLK
  5
39E
330
393
100
AcDbEntity
  8
0
370
     0
100
AcDbBlockEnd
  0
BLOCK
  5
3A9
330
39F
100
AcDbEntity
  8
0
370
     0
100
AcDbBlockBegin
  2
*D17
 70
     1
 10
0.0
 20
0.0
 30
0.0
  3
*D17
  1

  0
LINE
  5
64B
330
39F
100
AcDbEntity
  8
寸法
  6
Continuous
 62
     0
370
    15
100
AcDbLine
 10
1001.270509554698
 20
560.0
 30
0.0
 11
1001.270509554698
 21
514.6938559080801
 31
0.0
  0
LINE
  5
64C
330
39F
100
AcDbEntity
  8
寸法
  6
Continuous
 62
     0
370
    15
100
AcDbLine
 10
1089.270509554698
 20
560.0
 30
0.0
 11
1089.270509554698
 21
514.6938559080801
 31
0.0
  0
LINE
  5
64D
330
39F
100
AcDbEntity
  8
寸法
  6
Continuous
 62
     0
370
    15
100
AcDbLine
 10
1001.270509554698
 20
514.6938559080801
 30
0.0
 11
1089.270509554698
 21
514.6938559080801
 31
0.0
  0
INSERT
  5
64E
330
39F
100
AcDbEntity
  8
寸法
  6
Continuous
 62
     0
370
    15
100
AcDbBlockReference
  2
_DotSmall
 10
1001.270509554698
 20
514.6938559080801
 30
0.0
 41
35.0
 42
35.0
 43
35.0
 50
180.0
  0
INSERT
  5
64F
330
39F
100
AcDbEntity
  8
寸法
  6
Continuous
 62
     0
370
    15
100
AcDbBlockReference
  2
_DotSmall
 10
1089.270509554698
 20
514.6938559080801
 30
0.0
 41
35.0
 42
35.0
 43
35.0
  0
MTEXT
  5
650
330
39F
100
AcDbEntity
  8
寸法
  6
Continuous
 62
     0
370
    15
100
AcDbMText
 10
1045.270509554698
 20
533.4438559080801
 30
0.0
 40
25.0
 41
0.0
 71
     5
 72
     1
  1
88
 73
     1
 44
1.0
1001
ACAD
1000
MTEXTBEGIN
1070
    73
1070
     1
1070
    44
1040
1.0
1070
    74
1070
     0
1000
MTEXTEND
  0
POINT
  5
651
330
39F
100
AcDbEntity
  8
Defpoints
  6
Continuous
 62
     0
370
     0
100
AcDbPoint
 10
1001.270509554698
 20
625.0
 30
0.0
  0
POINT
  5
652
330
39F
100
AcDbEntity
  8
Defpoints
  6
Continuous
 62
     0
370
     0
100
AcDbPoint
 10
1089.270509554698
 20
625.0
 30
0.0
  0
POINT
  5
653
330
39F
100
AcDbEntity
  8
Defpoints
  6
Continuous
 62
     0
370
     0
100
AcDbPoint
 10
1089.270509554698
 20
514.6938559080801
 30
0.0
  0
ENDBLK
  5
3AA
330
39F
100
AcDbEntity
  8
0
370
     0
100
AcDbBlockEnd
  0
BLOCK
  5
3B5
330
3AB
100
AcDbEntity
  8
0
370
     0
100
AcDbBlockBegin
  2
*D18
 70
     1
 10
0.0
 20
0.0
 30
0.0
  3
*D18
  1

  0
LINE
  5
654
330
3AB
100
AcDbEntity
  8
寸法
  6
Continuous
 62
     0
370
    15
100
AcDbLine
 10
825.2705095546987
 20
830.0
 30
0.0
 11
692.3589816287747
 21
830.0
 31
0.0
  0
LINE
  5
655
330
3AB
100
AcDbEntity
  8
寸法
  6
Continuous
 62
     0
370
    15
100
AcDbLine
 10
825.2705095546987
 20
631.0
 30
0.0
 11
692.3589816287747
 21
631.0000000000001
 31
0.0
  0
LINE
  5
656
330
3AB
100
AcDbEntity
  8
寸法
  6
Continuous
 62
     0
370
    15
100
AcDbLine
 10
692.3589816287747
 20
830.0
 30
0.0
 11
692.3589816287747
 21
631.0000000000001
 31
0.0
  0
INSERT
  5
657
330
3AB
100
AcDbEntity
  8
寸法
  6
Continuous
 62
     0
370
    15
100
AcDbBlockReference
  2
_DotSmall
 10
692.3589816287747
 20
830.0
 30
0.0
 41
35.0
 42
35.0
 43
35.0
 50
90.0
  0
INSERT
  5
658
330
3AB
100
AcDbEntity
  8
寸法
  6
Continuous
 62
     0
370
    15
100
AcDbBlockReference
  2
_DotSmall
 10
692.3589816287747
 20
631.0000000000001
 30
0.0
 41
35.0
 42
35.0
 43
35.0
 50
270.0
  0
MTEXT
  5
659
330
3AB
100
AcDbEntity
  8
寸法
  6
Continuous
 62
     0
370
    15
100
AcDbMText
 10
673.6089816287744
 20
730.5000000000003
 30
0.0
 40
25.0
 41
0.0
 71
     5
 72
     1
  1
199
 11
0.0000000000000001
 21
1.0
 31
0.0
 73
     1
 44
1.0
1001
ACAD
1000
MTEXTBEGIN
1070
    73
1070
     1
1070
    44
1040
1.0
1070
    74
1070
     0
1000
MTEXTEND
  0
POINT
  5
65A
330
3AB
100
AcDbEntity
  8
Defpoints
  6
Continuous
 62
     0
370
     0
100
AcDbPoint
 10
890.2705095546988
 20
830.0
 30
0.0
  0
POINT
  5
65B
330
3AB
100
AcDbEntity
  8
Defpoints
  6
Continuous
 62
     0
370
     0
100
AcDbPoint
 10
890.2705095546988
 20
631.0
 30
0.0
  0
POINT
  5
65C
330
3AB
100
AcDbEntity
  8
Defpoints
  6
Continuous
 62
     0
370
     0
100
AcDbPoint
 10
692.3589816287747
 20
631.0000000000001
 30
0.0
  0
ENDBLK
  5
3B6
330
3AB
100
AcDbEntity
  8
0
370
     0
100
AcDbBlockEnd
  0
BLOCK
  5
3C0
330
3B7
100
AcDbEntity
  8
0
370
     0
100
AcDbBlockBegin
  2
*D19
 70
     1
 10
0.0
 20
0.0
 30
0.0
  3
*D19
  1

  0
LINE
  5
65D
330
3B7
100
AcDbEntity
  8
寸法
  6
Continuous
 62
     0
370
    15
100
AcDbLine
 10
825.2705095546987
 20
646.0
 30
0.0
 11
772.3383917846446
 21
646.0
 31
0.0
  0
LINE
  5
65E
330
3B7
100
AcDbEntity
  8
寸法
  6
Continuous
 62
     0
370
    15
100
AcDbLine
 10
825.2705095546987
 20
631.0
 30
0.0
 11
772.3383917846446
 21
631.0
 31
0.0
  0
LINE
  5
65F
330
3B7
100
AcDbEntity
  8
寸法
  6
Continuous
 62
     0
370
    15
100
AcDbLine
 10
772.3383917846446
 20
646.0
 30
0.0
 11
772.3383917846446
 21
631.0
 31
0.0
  0
INSERT
  5
660
330
3B7
100
AcDbEntity
  8
寸法
  6
Continuous
 62
     0
370
    15
100
AcDbBlockReference
  2
_DotSmall
 10
772.3383917846446
 20
646.0
 30
0.0
 41
35.0
 42
35.0
 43
35.0
 50
90.0
  0
INSERT
  5
661
330
3B7
100
AcDbEntity
  8
寸法
  6
Continuous
 62
     0
370
    15
100
AcDbBlockReference
  2
_DotSmall
 10
772.3383917846446
 20
631.0
 30
0.0
 41
35.0
 42
35.0
 43
35.0
 50
270.0
  0
POINT
  5
662
330
3B7
100
AcDbEntity
  8
Defpoints
  6
Continuous
 62
     0
370
     0
100
AcDbPoint
 10
890.2705095546988
 20
646.0
 30
0.0
  0
POINT
  5
663
330
3B7
100
AcDbEntity
  8
Defpoints
  6
Continuous
 62
     0
370
     0
100
AcDbPoint
 10
890.2705095546988
 20
631.0
 30
0.0
  0
POINT
  5
664
330
3B7
100
AcDbEntity
  8
Defpoints
  6
Continuous
 62
     0
370
     0
100
AcDbPoint
 10
772.3383917846446
 20
631.0
 30
0.0
  0
ENDBLK
  5
3C1
330
3B7
100
AcDbEntity
  8
0
370
     0
100
AcDbBlockEnd
  0
BLOCK
  5
3CC
330
3C2
100
AcDbEntity
  8
0
370
     0
100
AcDbBlockBegin
  2
*D20
 70
     1
 10
0.0
 20
0.0
 30
0.0
  3
*D20
  1

  0
LINE
  5
665
330
3C2
100
AcDbEntity
  8
寸法
  6
Continuous
 62
     0
370
    15
100
AcDbLine
 10
855.270509554699
 20
1327.603012618982
 30
0.0
 11
772.3383917846446
 21
1327.603012618982
 31
0.0
  0
LINE
  5
666
330
3C2
100
AcDbEntity
  8
寸法
  6
Continuous
 62
     0
370
    15
100
AcDbLine
 10
855.270509554699
 20
1687.603012618982
 30
0.0
 11
772.3383917846446
 21
1687.603012618982
 31
0.0
  0
LINE
  5
667
330
3C2
100
AcDbEntity
  8
寸法
  6
Continuous
 62
     0
370
    15
100
AcDbLine
 10
772.3383917846446
 20
1327.603012618982
 30
0.0
 11
772.3383917846446
 21
1687.603012618982
 31
0.0
  0
INSERT
  5
668
330
3C2
100
AcDbEntity
  8
寸法
  6
Continuous
 62
     0
370
    15
100
AcDbBlockReference
  2
_DotSmall
 10
772.3383917846446
 20
1327.603012618982
 30
0.0
 41
35.0
 42
35.0
 43
35.0
 50
270.0
  0
INSERT
  5
669
330
3C2
100
AcDbEntity
  8
寸法
  6
Continuous
 62
     0
370
    15
100
AcDbBlockReference
  2
_DotSmall
 10
772.3383917846446
 20
1687.603012618982
 30
0.0
 41
35.0
 42
35.0
 43
35.0
 50
90.0
  0
MTEXT
  5
66A
330
3C2
100
AcDbEntity
  8
寸法
  6
Continuous
 62
     0
370
    15
100
AcDbMText
 10
753.5883917846442
 20
1507.603012618982
 30
0.0
 40
25.0
 41
0.0
 71
     5
 72
     1
  1
360
 11
0.0000000000000001
 21
1.0
 31
0.0
 73
     1
 44
1.0
1001
ACAD
1000
MTEXTBEGIN
1070
    73
1070
     1
1070
    44
1040
1.0
1070
    74
1070
     0
1000
MTEXTEND
  0
POINT
  5
66B
330
3C2
100
AcDbEntity
  8
Defpoints
  6
Continuous
 62
     0
370
     0
100
AcDbPoint
 10
920.2705095546988
 20
1327.603012618982
 30
0.0
  0
POINT
  5
66C
330
3C2
100
AcDbEntity
  8
Defpoints
  6
Continuous
 62
     0
370
     0
100
AcDbPoint
 10
920.2705095546988
 20
1687.603012618982
 30
0.0
  0
POINT
  5
66D
330
3C2
100
AcDbEntity
  8
Defpoints
  6
Continuous
 62
     0
370
     0
100
AcDbPoint
 10
772.3383917846446
 20
1687.603012618982
 30
0.0
  0
ENDBLK
  5
3CD
330
3C2
100
AcDbEntity
  8
0
370
     0
100
AcDbBlockEnd
  0
BLOCK
  5
698
330
68E
100
AcDbEntity
  8
0
370
     0
100
AcDbBlockBegin
  2
*D21
 70
     1
 10
0.0
 20
0.0
 30
0.0
  3
*D21
  1

  0
LINE
  5
73E
330
68E
100
AcDbEntity
  8
寸法
  6
Continuous
 62
     0
370
    15
100
AcDbLine
 10
890.2705095546988
 20
1256.307099171627
 30
0.0
 11
890.2705095546988
 21
1105.329859982745
 31
0.0
  0
LINE
  5
73F
330
68E
100
AcDbEntity
  8
寸法
  6
Continuous
 62
     0
370
    15
100
AcDbLine
 10
1420.270509554699
 20
1256.307099171627
 30
0.0
 11
1420.270509554699
 21
1105.329859982745
 31
0.0
  0
LINE
  5
740
330
68E
100
AcDbEntity
  8
寸法
  6
Continuous
 62
     0
370
    15
100
AcDbLine
 10
890.2705095546988
 20
1105.329859982745
 30
0.0
 11
1420.270509554699
 21
1105.329859982745
 31
0.0
  0
INSERT
  5
741
330
68E
100
AcDbEntity
  8
寸法
  6
Continuous
 62
     0
370
    15
100
AcDbBlockReference
  2
_DotSmall
 10
890.2705095546988
 20
1105.329859982745
 30
0.0
 41
35.0
 42
35.0
 43
35.0
 50
180.0
  0
INSERT
  5
742
330
68E
100
AcDbEntity
  8
寸法
  6
Continuous
 62
     0
370
    15
100
AcDbBlockReference
  2
_DotSmall
 10
1420.270509554699
 20
1105.329859982745
 30
0.0
 41
35.0
 42
35.0
 43
35.0
  0
MTEXT
  5
743
330
68E
100
AcDbEntity
  8
寸法
  6
Continuous
 62
     0
370
     0
100
AcDbMText
 10
1155.270509554699
 20
1124.079859982745
 30
0.0
 40
25.0
 41
0.0
 71
     5
 72
     1
  1
530
 73
     1
 44
1.0
1001
ACAD
1000
MTEXTBEGIN
1070
    73
1070
     1
1070
    44
1040
1.0
1070
    74
1070
     0
1000
MTEXTEND
  0
POINT
  5
744
330
68E
100
AcDbEntity
  8
Defpoints
  6
Continuous
 62
     0
370
     0
100
AcDbPoint
 10
890.2705095546988
 20
1321.307099171627
 30
0.0
  0
POINT
  5
745
330
68E
100
AcDbEntity
  8
Defpoints
  6
Continuous
 62
     0
370
     0
100
AcDbPoint
 10
1420.270509554699
 20
1321.307099171627
 30
0.0
  0
POINT
  5
746
330
68E
100
AcDbEntity
  8
Defpoints
  6
Continuous
 62
     0
370
     0
100
AcDbPoint
 10
1420.270509554699
 20
1105.329859982745
 30
0.0
  0
ENDBLK
  5
699
330
68E
100
AcDbEntity
  8
0
370
     0
100
AcDbBlockEnd
  0
BLOCK
  5
6D8
330
6CD
100
AcDbEntity
  8
0
370
     0
100
AcDbBlockBegin
  2
*D22
 70
     1
 10
0.0
 20
0.0
 30
0.0
  3
*D22
  1

  0
LINE
  5
735
330
6CD
100
AcDbEntity
  8
寸法
  6
Continuous
 62
     0
370
    15
100
AcDbLine
 10
908.2705095546987
 20
1255.193812579866
 30
0.0
 11
908.2705095546987
 21
1157.356925647109
 31
0.0
  0
LINE
  5
736
330
6CD
100
AcDbEntity
  8
寸法
  6
Continuous
 62
     0
370
    15
100
AcDbLine
 10
935.2705095546989
 20
1255.193812579866
 30
0.0
 11
935.2705095546989
 21
1157.356925647109
 31
0.0
  0
LINE
  5
737
330
6CD
100
AcDbEntity
  8
寸法
  6
Continuous
 62
     0
370
    15
100
AcDbLine
 10
908.2705095546987
 20
1157.356925647109
 30
0.0
 11
935.2705095546989
 21
1157.356925647109
 31
0.0
  0
MTEXT
  5
738
330
6CD
100
AcDbEntity
  8
寸法
  6
Continuous
 62
     0
370
     0
100
AcDbMText
 10
937.3898138599487
 20
1175.466798918385
 30
0.0
 40
25.0
 41
0.0
 71
     5
 72
     1
  1
27
 73
     1
 44
1.0
1001
ACAD
1000
MTEXTBEGIN
1070
    73
1070
     1
1070
    44
1040
1.0
1070
    74
1070
     0
1000
MTEXTEND
  0
INSERT
  5
739
330
6CD
100
AcDbEntity
  8
寸法
  6
Continuous
 62
     0
370
    15
100
AcDbBlockReference
  2
_DotSmall
 10
908.2705095546987
 20
1157.356925647109
 30
0.0
 41
35.0
 42
35.0
 43
35.0
 50
180.0
  0
INSERT
  5
73A
330
6CD
100
AcDbEntity
  8
寸法
  6
Continuous
 62
     0
370
    15
100
AcDbBlockReference
  2
_DotSmall
 10
935.2705095546989
 20
1157.356925647109
 30
0.0
 41
35.0
 42
35.0
 43
35.0
  0
POINT
  5
73B
330
6CD
100
AcDbEntity
  8
Defpoints
  6
Continuous
 62
     0
370
     0
100
AcDbPoint
 10
908.2705095546987
 20
1320.193812579866
 30
0.0
  0
POINT
  5
73C
330
6CD
100
AcDbEntity
  8
Defpoints
  6
Continuous
 62
     0
370
     0
100
AcDbPoint
 10
935.2705095546989
 20
1320.193812579866
 30
0.0
  0
POINT
  5
73D
330
6CD
100
AcDbEntity
  8
Defpoints
  6
Continuous
 62
     0
370
     0
100
AcDbPoint
 10
935.2705095546989
 20
1157.356925647109
 30
0.0
  0
ENDBLK
  5
6D9
330
6CD
100
AcDbEntity
  8
0
370
     0
100
AcDbBlockEnd
  0
BLOCK
  5
721
330
717
100
AcDbEntity
  8
0
370
     0
100
AcDbBlockBegin
  2
*D23
 70
     1
 10
0.0
 20
0.0
 30
0.0
  3
*D23
  1

  0
LINE
  5
72C
330
717
100
AcDbEntity
  8
寸法
  6
Continuous
 62
     0
370
    15
100
AcDbLine
 10
1402.270509554699
 20
1255.193812579866
 30
0.0
 11
1402.270509554699
 21
1157.356925647109
 31
0.0
  0
LINE
  5
72D
330
717
100
AcDbEntity
  8
寸法
  6
Continuous
 62
     0
370
    15
100
AcDbLine
 10
1375.270509554699
 20
1255.193812579866
 30
0.0
 11
1375.270509554699
 21
1157.356925647109
 31
0.0
  0
LINE
  5
72E
330
717
100
AcDbEntity
  8
寸法
  6
Continuous
 62
     0
370
    15
100
AcDbLine
 10
1402.270509554699
 20
1157.356925647109
 30
0.0
 11
1375.270509554699
 21
1157.356925647109
 31
0.0
  0
MTEXT
  5
72F
330
717
100
AcDbEntity
  8
寸法
  6
Continuous
 62
     0
370
     0
100
AcDbMText
 10
1373.151205249449
 20
1175.466798918385
 30
0.0
 40
25.0
 41
0.0
 71
     5
 72
     1
  1
27
 73
     1
 44
1.0
1001
ACAD
1000
MTEXTBEGIN
1070
    73
1070
     1
1070
    44
1040
1.0
1070
    74
1070
     0
1000
MTEXTEND
  0
INSERT
  5
730
330
717
100
AcDbEntity
  8
寸法
  6
Continuous
 62
     0
370
    15
100
AcDbBlockReference
  2
_DotSmall
 10
1402.270509554699
 20
1157.356925647109
 30
0.0
 41
35.0
 42
35.0
 43
35.0
  0
INSERT
  5
731
330
717
100
AcDbEntity
  8
寸法
  6
Continuous
 62
     0
370
    15
100
AcDbBlockReference
  2
_DotSmall
 10
1375.270509554699
 20
1157.356925647109
 30
0.0
 41
35.0
 42
35.0
 43
35.0
 50
180.0
  0
POINT
  5
732
330
717
100
AcDbEntity
  8
Defpoints
  6
Continuous
 62
     0
370
     0
100
AcDbPoint
 10
1402.270509554699
 20
1320.193812579866
 30
0.0
  0
POINT
  5
733
330
717
100
AcDbEntity
  8
Defpoints
  6
Continuous
 62
     0
370
     0
100
AcDbPoint
 10
1375.270509554699
 20
1320.193812579866
 30
0.0
  0
POINT
  5
734
330
717
100
AcDbEntity
  8
Defpoints
  6
Continuous
 62
     0
370
     0
100
AcDbPoint
 10
1375.270509554699
 20
1157.356925647109
 30
0.0
  0
ENDBLK
  5
722
330
717
100
AcDbEntity
  8
0
370
     0
100
AcDbBlockEnd
  0
BLOCK
  5
7AA
330
7A0
100
AcDbEntity
  8
0
370
     0
100
AcDbBlockBegin
  2
*D24
 70
     1
 10
0.0
 20
0.0
 30
0.0
  3
*D24
  1

  0
LINE
  5
7B9
330
7A0
100
AcDbEntity
  8
寸法
  6
Continuous
 62
     0
370
    15
100
AcDbLine
 10
859.0
 20
1714.603012618981
 30
0.0
 11
772.3383917846446
 21
1714.603012618981
 31
0.0
  0
LINE
  5
7BA
330
7A0
100
AcDbEntity
  8
寸法
  6
Continuous
 62
     0
370
    15
100
AcDbLine
 10
859.0
 20
1687.603012618981
 30
0.0
 11
772.3383917846446
 21
1687.603012618981
 31
0.0
  0
LINE
  5
7BB
330
7A0
100
AcDbEntity
  8
寸法
  6
Continuous
 62
     0
370
    15
100
AcDbLine
 10
772.3383917846446
 20
1714.603012618981
 30
0.0
 11
772.3383917846446
 21
1687.603012618981
 31
0.0
  0
MTEXT
  5
7BC
330
7A0
100
AcDbEntity
  8
寸法
  6
Continuous
 62
     0
370
    15
100
AcDbMText
 10
747.1404621194815
 20
1686.493249369067
 30
0.0
 40
25.0
 41
0.0
 71
     5
 72
     1
  1
27
 11
0.0000000000000001
 21
1.0
 31
0.0
 73
     1
 44
1.0
1001
ACAD
1000
MTEXTBEGIN
1070
    73
1070
     1
1070
    44
1040
1.0
1070
    74
1070
     0
1000
MTEXTEND
  0
INSERT
  5
7BD
330
7A0
100
AcDbEntity
  8
寸法
  6
Continuous
 62
     0
370
    15
100
AcDbBlockReference
  2
_DotSmall
 10
772.3383917846446
 20
1714.603012618981
 30
0.0
 41
35.0
 42
35.0
 43
35.0
 50
90.0
  0
INSERT
  5
7BE
330
7A0
100
AcDbEntity
  8
寸法
  6
Continuous
 62
     0
370
    15
100
AcDbBlockReference
  2
_DotSmall
 10
772.3383917846446
 20
1687.603012618981
 30
0.0
 41
35.0
 42
35.0
 43
35.0
 50
270.0
  0
POINT
  5
7BF
330
7A0
100
AcDbEntity
  8
Defpoints
  6
Continuous
 62
     0
370
     0
100
AcDbPoint
 10
924.0
 20
1714.603012618981
 30
0.0
  0
POINT
  5
7C0
330
7A0
100
AcDbEntity
  8
Defpoints
  6
Continuous
 62
     0
370
     0
100
AcDbPoint
 10
924.0
 20
1687.603012618981
 30
0.0
  0
POINT
  5
7C1
330
7A0
100
AcDbEntity
  8
Defpoints
  6
Continuous
 62
     0
370
     0
100
AcDbPoint
 10
772.3383917846446
 20
1687.603012618981
 30
0.0
  0
ENDBLK
  5
7AB
330
7A0
100
AcDbEntity
  8
0
370
     0
100
AcDbBlockEnd
  0
BLOCK
  5
7B7
330
7AC
100
AcDbEntity
  8
0
370
     0
100
AcDbBlockBegin
  2
*D25
 70
     1
 10
0.0
 20
0.0
 30
0.0
  3
*D25
  1

  0
LINE
  5
7C2
330
7AC
100
AcDbEntity
  8
寸法
  6
Continuous
 62
     0
370
    15
100
AcDbLine
 10
874.8749999999997
 20
1732.603012618981
 30
0.0
 11
772.3383917846446
 21
1732.603012618981
 31
0.0
  0
LINE
  5
7C3
330
7AC
100
AcDbEntity
  8
寸法
  6
Continuous
 62
     0
370
    15
100
AcDbLine
 10
874.8749999999997
 20
1714.603012618981
 30
0.0
 11
772.3383917846446
 21
1714.603012618981
 31
0.0
  0
LINE
  5
7C4
330
7AC
100
AcDbEntity
  8
寸法
  6
Continuous
 62
     0
370
    15
100
AcDbLine
 10
772.3383917846446
 20
1714.603012618981
 30
0.0
 11
772.3383917846446
 21
1732.603012618981
 31
0.0
  0
LINE
  5
7C5
330
7AC
100
AcDbEntity
  8
寸法
  6
Continuous
 62
     0
370
    15
100
AcDbLine
 10
772.3383917846446
 20
1732.603012618981
 30
0.0
 11
772.3383917846447
 21
1813.436345952315
 31
0.0
  0
INSERT
  5
7C6
330
7AC
100
AcDbEntity
  8
寸法
  6
Continuous
 62
     0
370
    15
100
AcDbBlockReference
  2
_DotSmall
 10
772.3383917846446
 20
1714.603012618981
 30
0.0
 41
35.0
 42
35.0
 43
35.0
 50
270.0
  0
INSERT
  5
7C7
330
7AC
100
AcDbEntity
  8
寸法
  6
Continuous
 62
     0
370
    15
100
AcDbBlockReference
  2
_DotSmall
 10
772.3383917846446
 20
1732.603012618981
 30
0.0
 41
35.0
 42
35.0
 43
35.0
 50
90.0
  0
MTEXT
  5
7C8
330
7AC
100
AcDbEntity
  8
寸法
  6
Continuous
 62
     0
370
    15
100
AcDbMText
 10
753.5883917846442
 20
1790.519679285648
 30
0.0
 40
25.0
 41
0.0
 71
     5
 72
     1
  1
18
 11
0.0000000000000001
 21
1.0
 31
0.0
 73
     1
 44
1.0
1001
ACAD
1000
MTEXTBEGIN
1070
    73
1070
     1
1070
    44
1040
1.0
1070
    74
1070
     0
1000
MTEXTEND
  0
POINT
  5
7C9
330
7AC
100
AcDbEntity
  8
Defpoints
  6
Continuous
 62
     0
370
     0
100
AcDbPoint
 10
939.8749999999996
 20
1732.603012618981
 30
0.0
  0
POINT
  5
7CA
330
7AC
100
AcDbEntity
  8
Defpoints
  6
Continuous
 62
     0
370
     0
100
AcDbPoint
 10
939.8749999999996
 20
1714.603012618981
 30
0.0
  0
POINT
  5
7CB
330
7AC
100
AcDbEntity
  8
Defpoints
  6
Continuous
 62
     0
370
     0
100
AcDbPoint
 10
772.3383917846446
 20
1714.603012618981
 30
0.0
  0
ENDBLK
  5
7B8
330
7AC
100
AcDbEntity
  8
0
370
     0
100
AcDbBlockEnd
  0
BLOCK
  5
7D7
330
7CD
100
AcDbEntity
  8
0
370
     0
100
AcDbBlockBegin
  2
*D26
 70
     1
 10
0.0
 20
0.0
 30
0.0
  3
*D26
  1

  0
LINE
  5
7CE
330
7CD
100
AcDbEntity
  8
寸法
  6
Continuous
 62
     0
370
    15
100
AcDbLine
 10
809.8749999999997
 20
1282.603012618982
 30
0.0
 11
684.1874999999999
 21
1282.603012618982
 31
0.0
  0
LINE
  5
7CF
330
7CD
100
AcDbEntity
  8
寸法
  6
Continuous
 62
     0
370
    15
100
AcDbLine
 10
809.8749999999997
 20
1732.603012618981
 30
0.0
 11
684.1874999999999
 21
1732.603012618981
 31
0.0
  0
LINE
  5
7D0
330
7CD
100
AcDbEntity
  8
寸法
  6
Continuous
 62
     0
370
    15
100
AcDbLine
 10
684.1874999999999
 20
1282.603012618982
 30
0.0
 11
684.1874999999999
 21
1732.603012618981
 31
0.0
  0
INSERT
  5
7D1
330
7CD
100
AcDbEntity
  8
寸法
  6
Continuous
 62
     0
370
    15
100
AcDbBlockReference
  2
_DotSmall
 10
684.1874999999999
 20
1282.603012618982
 30
0.0
 41
35.0
 42
35.0
 43
35.0
 50
270.0
  0
INSERT
  5
7D2
330
7CD
100
AcDbEntity
  8
寸法
  6
Continuous
 62
     0
370
    15
100
AcDbBlockReference
  2
_DotSmall
 10
684.1874999999999
 20
1732.603012618981
 30
0.0
 41
35.0
 42
35.0
 43
35.0
 50
90.0
  0
MTEXT
  5
7D3
330
7CD
100
AcDbEntity
  8
寸法
  6
Continuous
 62
     0
370
     0
100
AcDbMText
 10
665.4374999999998
 20
1507.603012618982
 30
0.0
 40
25.0
 41
0.0
 71
     5
 72
     1
  1
450
 11
0.0000000000000001
 21
1.0
 31
0.0
 73
     1
 44
1.0
1001
ACAD
1000
MTEXTBEGIN
1070
    73
1070
     1
1070
    44
1040
1.0
1070
    74
1070
     0
1000
MTEXTEND
  0
POINT
  5
7D4
330
7CD
100
AcDbEntity
  8
Defpoints
  6
Continuous
 62
     0
370
     0
100
AcDbPoint
 10
874.8749999999997
 20
1282.603012618982
 30
0.0
  0
POINT
  5
7D5
330
7CD
100
AcDbEntity
  8
Defpoints
  6
Continuous
 62
     0
370
     0
100
AcDbPoint
 10
874.8749999999997
 20
1732.603012618981
 30
0.0
  0
POINT
  5
7D6
330
7CD
100
AcDbEntity
  8
Defpoints
  6
Continuous
 62
     0
370
     0
100
AcDbPoint
 10
684.1874999999999
 20
1732.603012618981
 30
0.0
  0
ENDBLK
  5
7D8
330
7CD
100
AcDbEntity
  8
0
370
     0
100
AcDbBlockEnd
  0
BLOCK
  5
7E5
330
7DB
100
AcDbEntity
  8
0
370
     0
100
AcDbBlockBegin
  2
*D27
 70
     1
 10
0.0
 20
0.0
 30
0.0
  3
*D27
  1

  0
LINE
  5
7DC
330
7DB
100
AcDbEntity
  8
寸法
  6
Continuous
 62
     0
370
    15
100
AcDbLine
 10
1045.270509554698
 20
1747.940806400974
 30
0.0
 11
1045.270509554698
 21
1839.0
 31
0.0
  0
LINE
  5
7DD
330
7DB
100
AcDbEntity
  8
寸法
  6
Continuous
 62
     0
370
    15
100
AcDbLine
 10
890.2705095546981
 20
1747.940806400974
 30
0.0
 11
890.2705095546981
 21
1839.0
 31
0.0
  0
LINE
  5
7DE
330
7DB
100
AcDbEntity
  8
寸法
  6
Continuous
 62
     0
370
    15
100
AcDbLine
 10
1045.270509554698
 20
1839.0
 30
0.0
 11
890.2705095546981
 21
1839.0
 31
0.0
  0
INSERT
  5
7DF
330
7DB
100
AcDbEntity
  8
寸法
  6
Continuous
 62
     0
370
    15
100
AcDbBlockReference
  2
_DotSmall
 10
1045.270509554698
 20
1839.0
 30
0.0
 41
35.0
 42
35.0
 43
35.0
  0
INSERT
  5
7E0
330
7DB
100
AcDbEntity
  8
寸法
  6
Continuous
 62
     0
370
    15
100
AcDbBlockReference
  2
_DotSmall
 10
890.2705095546981
 20
1839.0
 30
0.0
 41
35.0
 42
35.0
 43
35.0
 50
180.0
  0
MTEXT
  5
7E1
330
7DB
100
AcDbEntity
  8
寸法
  6
Continuous
 62
     0
370
     0
100
AcDbMText
 10
967.7705095546983
 20
1857.75
 30
0.0
 40
25.0
 41
0.0
 71
     5
 72
     1
  1
155
 73
     1
 44
1.0
1001
ACAD
1000
MTEXTBEGIN
1070
    73
1070
     1
1070
    44
1040
1.0
1070
    74
1070
     0
1000
MTEXTEND
  0
POINT
  5
7E2
330
7DB
100
AcDbEntity
  8
Defpoints
  6
Continuous
 62
     0
370
     0
100
AcDbPoint
 10
1045.270509554698
 20
1682.940806400974
 30
0.0
  0
POINT
  5
7E3
330
7DB
100
AcDbEntity
  8
Defpoints
  6
Continuous
 62
     0
370
     0
100
AcDbPoint
 10
890.2705095546981
 20
1682.940806400974
 30
0.0
  0
POINT
  5
7E4
330
7DB
100
AcDbEntity
  8
Defpoints
  6
Continuous
 62
     0
370
     0
100
AcDbPoint
 10
890.2705095546981
 20
1839.0
 30
0.0
  0
ENDBLK
  5
7E6
330
7DB
100
AcDbEntity
  8
0
370
     0
100
AcDbBlockEnd
  0
BLOCK
  5
7FF
330
7F5
100
AcDbEntity
  8
0
370
     0
100
AcDbBlockBegin
  2
*D28
 70
     1
 10
0.0
 20
0.0
 30
0.0
  3
*D28
  1

  0
LINE
  5
7F6
330
7F5
100
AcDbEntity
  8
寸法
  6
Continuous
 62
     0
370
    15
100
AcDbLine
 10
1440.270509554699
 20
1507.603012618982
 30
0.0
 11
1581.830228541132
 21
1507.603012618982
 31
0.0
  0
LINE
  5
7F7
330
7F5
100
AcDbEntity
  8
寸法
  6
Continuous
 62
     0
370
    15
100
AcDbLine
 10
1440.270509554699
 20
1282.603012618982
 30
0.0
 11
1581.830228541132
 21
1282.603012618982
 31
0.0
  0
LINE
  5
7F8
330
7F5
100
AcDbEntity
  8
寸法
  6
Continuous
 62
     0
370
    15
100
AcDbLine
 10
1581.830228541132
 20
1507.603012618982
 30
0.0
 11
1581.830228541132
 21
1282.603012618982
 31
0.0
  0
INSERT
  5
7F9
330
7F5
100
AcDbEntity
  8
寸法
  6
Continuous
 62
     0
370
    15
100
AcDbBlockReference
  2
_DotSmall
 10
1581.830228541132
 20
1507.603012618982
 30
0.0
 41
35.0
 42
35.0
 43
35.0
 50
90.0
  0
INSERT
  5
7FA
330
7F5
100
AcDbEntity
  8
寸法
  6
Continuous
 62
     0
370
    15
100
AcDbBlockReference
  2
_DotSmall
 10
1581.830228541132
 20
1282.603012618982
 30
0.0
 41
35.0
 42
35.0
 43
35.0
 50
270.0
  0
MTEXT
  5
7FB
330
7F5
100
AcDbEntity
  8
寸法
  6
Continuous
 62
     0
370
     0
100
AcDbMText
 10
1563.080228541132
 20
1395.103012618982
 30
0.0
 40
25.0
 41
0.0
 71
     5
 72
     1
  1
225
 11
0.0000000000000001
 21
1.0
 31
0.0
 73
     1
 44
1.0
1001
ACAD
1000
MTEXTBEGIN
1070
    73
1070
     1
1070
    44
1040
1.0
1070
    74
1070
     0
1000
MTEXTEND
  0
POINT
  5
7FC
330
7F5
100
AcDbEntity
  8
Defpoints
  6
Continuous
 62
     0
370
     0
100
AcDbPoint
 10
1375.270509554699
 20
1507.603012618982
 30
0.0
  0
POINT
  5
7FD
330
7F5
100
AcDbEntity
  8
Defpoints
  6
Continuous
 62
     0
370
     0
100
AcDbPoint
 10
1375.270509554699
 20
1282.603012618982
 30
0.0
  0
POINT
  5
7FE
330
7F5
100
AcDbEntity
  8
Defpoints
  6
Continuous
 62
     0
370
     0
100
AcDbPoint
 10
1581.830228541132
 20
1282.603012618982
 30
0.0
  0
ENDBLK
  5
800
330
7F5
100
AcDbEntity
  8
0
370
     0
100
AcDbBlockEnd
  0
ENDSEC
  0
SECTION
  2
ENTITIES
  0
LINE
  5
1C4
330
A
100
AcDbEntity
  8
0
100
AcDbLine
 10
4.0
 20
252.0
 30
0.0
 11
4.0
 21
54.0
 31
0.0
  0
LINE
  5
1C5
330
A
100
AcDbEntity
  8
0
100
AcDbLine
 10
4.0
 20
54.0
 30
0.0
 11
2784.0
 21
54.0
 31
0.0
  0
LINE
  5
1C6
330
A
100
AcDbEntity
  8
0
100
AcDbLine
 10
4.0
 20
1974.0
 30
0.0
 11
4.0
 21
54.0
 31
0.0
  0
LINE
  5
1C7
330
A
100
AcDbEntity
  8
0
100
AcDbLine
 10
2784.0
 20
1974.0
 30
0.0
 11
4.0
 21
1974.0
 31
0.0
  0
LINE
  5
1C8
330
A
100
AcDbEntity
  8
0
100
AcDbLine
 10
2784.0
 20
54.0
 30
0.0
 11
2784.0
 21
1974.0
 31
0.0
  0
CIRCLE
  5
1C9
330
A
100
AcDbEntity
  8
実形
370
    15
100
AcDbCircle
 10
1045.270509554699
 20
1507.603012618982
 30
0.0
 40
44.0
  0
CIRCLE
  5
1CA
330
A
100
AcDbEntity
  8
実形
370
    15
100
AcDbCircle
 10
1045.270509554699
 20
1507.603012618982
 30
0.0
 40
58.0
  0
LINE
  5
1CB
330
A
100
AcDbEntity
  8
実形
370
    15
100
AcDbLine
 10
1390.270509554699
 20
830.0
 30
0.0
 11
920.2705095546988
 21
830.0
 31
0.0
  0
LINE
  5
1CC
330
A
100
AcDbEntity
  8
センター
  6
STYLE_21
370
    15
100
AcDbLine
 10
1045.270509554698
 20
1745.0
 30
0.0
 11
1045.270509554698
 21
1232.489725517626
 31
0.0
  0
LINE
  5
1CD
330
A
100
AcDbEntity
  8
センター
  6
STYLE_21
370
    15
100
AcDbLine
 10
1465.0
 20
1507.603012618982
 30
0.0
 11
908.125
 21
1507.603012618982
 31
0.0
  0
MTEXT
  5
1CE
330
A
100
AcDbEntity
  8
寸法
100
AcDbMText
 10
992.712383369807
 20
676.1874983178245
 30
0.0
 40
24.4326171875
 41
0.0
 71
     1
 72
     1
  1
{\C7;\l30R}
  7
ＭＳ ゴシック
 11
0.0
 21
1.0
 31
0.0
 73
     1
 44
0.7828267384257845
1001
ACAD
1000
MTEXTBEGIN
1070
    73
1070
     1
1070
    44
1040
0.7828267384257845
1070
    74
1070
     0
1000
MTEXTEND
  0
DIMENSION
  5
1CF
330
A
100
AcDbEntity
  8
寸法
  6
Continuous
370
    15
100
AcDbDimension
  2
*D5
 10
1375.270509554699
 20
1157.356925647109
 30
0.0
 11
1155.270509554699
 21
1176.106925647109
 31
0.0
 70
    32
 71
     5
 42
439.9999999999997
  3
ISO-25
100
AcDbAlignedDimension
 13
935.2705095546989
 23
1284.657240370982
 33
0.0
 14
1375.270509554699
 24
1284.657240370982
 34
0.0
100
AcDbRotatedDimension
  0
DIMENSION
  5
1D0
330
A
100
AcDbEntity
  8
寸法
  6
Continuous
370
    15
100
AcDbDimension
  2
*D20
 10
772.3383917846446
 20
1687.603012618982
 30
0.0
 11
753.5883917846442
 21
1507.603012618982
 31
0.0
 70
    32
 71
     5
 42
359.9999999999998
  3
ISO-25
100
AcDbAlignedDimension
 13
920.2705095546988
 23
1327.603012618982
 33
0.0
 14
920.2705095546988
 24
1687.603012618982
 34
0.0
 50
90.0
100
AcDbRotatedDimension
  0
DIMENSION
  5
1D1
330
A
100
AcDbEntity
  8
寸法
  6
Continuous
370
    15
100
AcDbDimension
  2
*D19
 10
772.3383917846446
 20
631.0
 30
0.0
 11
772.3383917846445
 21
638.5000000000002
 31
0.0
 70
    32
  1
 
 71
     5
 42
15.0
  3
ISO-25
100
AcDbAlignedDimension
 13
890.2705095546988
 23
646.0
 33
0.0
 14
890.2705095546988
 24
631.0
 34
0.0
 50
90.0
100
AcDbRotatedDimension
  0
DIMENSION
  5
1D2
330
A
100
AcDbEntity
  8
寸法
  6
Continuous
370
    15
100
AcDbDimension
  2
*D18
 10
692.3589816287747
 20
631.0000000000001
 30
0.0
 11
673.6089816287744
 21
730.5000000000003
 31
0.0
 70
    32
 71
     5
 42
199.0
  3
ISO-25
100
AcDbAlignedDimension
 13
890.2705095546988
 23
830.0
 33
0.0
 14
890.2705095546988
 24
631.0
 34
0.0
 50
90.0
100
AcDbRotatedDimension
  0
MTEXT
  5
1D3
330
A
100
AcDbEntity
  8
寸法
100
AcDbMText
 10
773.584635175702
 20
571.5264050313881
 30
0.0
 40
24.4326171875
 41
0.0
 71
     1
 72
     1
  1
{\C7;\l15}
  7
ＭＳ ゴシック
 11
0.0
 21
1.0
 31
0.0
 73
     1
 44
0.7828267384257845
1001
ACAD
1000
MTEXTBEGIN
1070
    73
1070
     1
1070
    44
1040
0.7828267384257845
1070
    74
1070
     0
1000
MTEXTEND
  0
DIMENSION
  5
1D4
330
A
100
AcDbEntity
  8
寸法
  6
Continuous
370
    15
100
AcDbDimension
  2
*D17
 10
1089.270509554698
 20
514.6938559080801
 30
0.0
 11
1045.270509554698
 21
533.4438559080801
 31
0.0
 70
    32
 71
     5
 42
87.99999999999966
  3
ISO-25
100
AcDbAlignedDimension
 13
1001.270509554698
 23
625.0
 33
0.0
 14
1089.270509554698
 24
625.0
 34
0.0
100
AcDbRotatedDimension
  0
DIMENSION
  5
1D5
330
A
100
AcDbEntity
  8
寸法
  6
Continuous
370
    15
100
AcDbDimension
  2
*D16
 10
1103.270509554698
 20
449.7722679432378
 30
0.0
 11
1045.270509554698
 21
468.5222679432378
 31
0.0
 70
    32
 71
     5
 42
115.9999999999997
  3
ISO-25
100
AcDbAlignedDimension
 13
987.2705095546983
 23
625.0
 33
0.0
 14
1103.270509554698
 24
625.0
 34
0.0
100
AcDbRotatedDimension
  0
POLYLINE
  5
1D6
330
A
100
AcDbEntity
  8
0
100
AcDb2dPolyline
 66
     1
 10
0.0
 20
0.0
 30
0.0
 75
     5
  0
VERTEX
  5
1D7
330
1D6
100
AcDbEntity
  8
0
100
AcDbVertex
100
AcDb2dVertex
 10
952.9691934279526
 20
657.6508519555861
 30
0.0
  0
VERTEX
  5
1D8
330
1D6
100
AcDbEntity
  8
0
100
AcDbVertex
100
AcDb2dVertex
 10
989.9833171661045
 20
694.6942306323121
 30
0.0
  0
SEQEND
  5
1D9
330
1D6
100
AcDbEntity
  8
0
  0
INSERT
  5
1DA
330
A
100
AcDbEntity
  8
0
100
AcDbBlockReference
  2
*U2
 10
1419.830344357053
 20
1017.152777777778
 30
0.0
  0
ARC
  5
1DB
330
A
100
AcDbEntity
  8
実形
370
    15
100
AcDbCircle
 10
1395.270509554699
 20
1507.603012618982
 30
0.0
 40
460.0
100
AcDbArc
 50
169.2202061986661
 51
190.7797938013338
  0
ARC
  5
1DC
330
A
100
AcDbEntity
  8
実形
370
    15
100
AcDbCircle
 10
915.2705095546988
 20
1507.603012618982
 30
0.0
 40
460.0
100
AcDbArc
 50
349.220206198666
 51
10.77979380133388
  0
ARC
  5
1DD
330
A
100
AcDbEntity
  8
実形
370
    15
100
AcDbCircle
 10
1155.270509554698
 20
387.6030126189822
 30
0.0
 40
1300.0
100
AcDbArc
 50
84.99476510884166
 51
95.00523489115831
  0
ARC
  5
1DE
330
A
100
AcDbEntity
  8
実形
370
    15
100
AcDbCircle
 10
1155.270509554698
 20
2627.603012618982
 30
0.0
 40
1300.0
100
AcDbArc
 50
264.9947651088417
 51
275.0052348911584
  0
ARC
  5
1DF
330
A
100
AcDbEntity
  8
実形
370
    15
100
AcDbCircle
 10
1259.094154900637
 20
1442.140802901995
 30
0.0
 40
109.9999999999999
100
AcDbArc
 50
275.0052348911584
 51
349.2202061986662
  0
ARC
  5
1E0
330
A
100
AcDbEntity
  8
実形
370
    15
100
AcDbCircle
 10
1051.44686420876
 20
1442.140802901995
 30
0.0
 40
109.9999999999998
100
AcDbArc
 50
190.7797938013338
 51
264.9947651088413
  0
ARC
  5
1E1
330
A
100
AcDbEntity
  8
実形
370
    15
100
AcDbCircle
 10
1051.44686420876
 20
1573.065222335969
 30
0.0
 40
110.0
100
AcDbArc
 50
95.00523489115812
 51
169.2202061986659
  0
ARC
  5
1E2
330
A
100
AcDbEntity
  8
実形
370
    15
100
AcDbCircle
 10
1259.094154900637
 20
1573.065222335969
 30
0.0
 40
109.9999999999999
100
AcDbArc
 50
10.77979380133389
 51
84.9947651088418
  0
LINE
  5
1E3
330
A
100
AcDbEntity
  8
実形
370
    15
100
AcDbLine
 10
1420.270509554699
 20
830.0
 30
0.0
 11
920.2705095546988
 21
830.0
 31
0.0
  0
LINE
  5
1E4
330
A
100
AcDbEntity
  8
実形
370
    15
100
AcDbLine
 10
935.2705095546989
 20
820.0000000000001
 30
0.0
 11
935.2705095546989
 21
677.3505485843473
 31
0.0
  0
LINE
  5
1E5
330
A
100
AcDbEntity
  8
実形
370
    15
100
AcDbLine
 10
987.2705095546983
 20
631.0
 30
0.0
 11
987.2705095546983
 21
621.0
 31
0.0
  0
LINE
  5
1E6
330
A
100
AcDbEntity
  8
実形
370
    15
100
AcDbLine
 10
987.2705095546983
 20
621.0
 30
0.0
 11
1103.270509554698
 21
621.0
 31
0.0
  0
LINE
  5
1E7
330
A
100
AcDbEntity
  8
実形
370
    15
100
AcDbLine
 10
1103.270509554698
 20
621.0
 30
0.0
 11
1103.270509554698
 21
631.0
 31
0.0
  0
LINE
  5
1E8
330
A
100
AcDbEntity
  8
実形
370
    15
100
AcDbLine
 10
1103.270509554698
 20
631.0
 30
0.0
 11
987.2705095546983
 21
631.0
 31
0.0
  0
LINE
  5
1E9
330
A
100
AcDbEntity
  8
実形
370
    15
100
AcDbLine
 10
1375.270509554699
 20
820.0000000000001
 30
0.0
 11
1375.270509554699
 21
677.3505485843478
 31
0.0
  0
ARC
  5
1EA
330
A
100
AcDbEntity
  8
実形
370
    15
100
AcDbCircle
 10
1345.270509554698
 20
677.3505485843478
 30
0.0
 40
30.00000000000011
100
AcDbArc
 50
275.2900812053711
 51
0.0
  0
ARC
  5
1EB
330
A
100
AcDbEntity
  8
実形
370
    15
100
AcDbCircle
 10
965.2705095546984
 20
677.3505485843473
 30
0.0
 40
29.99999999999989
100
AcDbArc
 50
180.0
 51
245.8569017071845
  0
DIMENSION
  5
1EC
330
A
100
AcDbEntity
  8
寸法
  6
Continuous
370
    15
100
AcDbDimension
  2
*D15
 10
1881.466055913163
 20
937.1259633629808
 30
0.0
 11
2068.966055913164
 21
955.8759633629808
 31
0.0
 70
    32
  1
75
 71
     5
 42
375.0000000000011
  3
ISO-25
100
AcDbAlignedDimension
 13
2256.466055913165
 23
740.0000000000001
 33
0.0
 14
1881.466055913163
 24
740.0000000000001
 34
0.0
100
AcDbRotatedDimension
  0
DIMENSION
  5
1ED
330
A
100
AcDbEntity
  8
寸法
  6
Continuous
370
    15
100
AcDbDimension
  2
*D14
 10
2228.966055913164
 20
889.9187367385902
 30
0.0
 11
2068.966055913163
 21
908.6687367385902
 31
0.0
 70
    32
  1
64
 71
     5
 42
320.0000000000007
  3
ISO-25
100
AcDbAlignedDimension
 13
1908.966055913163
 23
740.0000000000001
 33
0.0
 14
2228.966055913164
 24
740.0000000000001
 34
0.0
100
AcDbRotatedDimension
  0
DIMENSION
  5
1EE
330
A
100
AcDbEntity
  8
寸法
  6
Continuous
370
    15
100
AcDbDimension
  2
*D13
 10
1943.966055913163
 20
838.8838972733093
 30
0.0
 11
2068.966055913163
 21
857.6338972733093
 31
0.0
 70
    32
  1
50
 71
     5
 42
250.0000000000007
  3
ISO-25
100
AcDbAlignedDimension
 13
2193.966055913164
 23
740.0000000000001
 33
0.0
 14
1943.966055913163
 24
740.0000000000001
 34
0.0
100
AcDbRotatedDimension
  0
LINE
  5
1EF
330
A
100
AcDbEntity
  8
センター
  6
STYLE_21
370
    15
100
AcDbLine
 10
1858.109587151783
 20
690.0
 30
0.0
 11
2279.822524674543
 21
690.0
 31
0.0
  0
LINE
  5
1F0
330
A
100
AcDbEntity
  8
実形
370
    15
100
AcDbLine
 10
1956.966055913163
 20
619.5
 30
0.0
 11
2180.966055913163
 21
619.5
 31
0.0
  0
LINE
  5
1F1
330
A
100
AcDbEntity
  8
実形
370
    15
100
AcDbLine
 10
2180.966055913163
 20
760.5000000000001
 30
0.0
 11
1956.966055913163
 21
760.5000000000001
 31
0.0
  0
LINE
  5
1F2
330
A
100
AcDbEntity
  8
実形
370
    15
100
AcDbLine
 10
2143.966055913163
 20
740.0
 30
0.0
 11
1993.966055913163
 21
740.0
 31
0.0
  0
LINE
  5
1F3
330
A
100
AcDbEntity
  8
実形
370
    15
100
AcDbLine
 10
1993.966055913163
 20
640.0
 30
0.0
 11
2143.966055913163
 21
640.0
 31
0.0
  0
LINE
  5
1F4
330
A
100
AcDbEntity
  8
実形
370
    15
100
AcDbLine
 10
2180.966055913163
 20
765.5000000000001
 30
0.0
 11
1956.966055913163
 21
765.5000000000001
 31
0.0
  0
LINE
  5
1F5
330
A
100
AcDbEntity
  8
実形
370
    15
100
AcDbLine
 10
1956.966055913163
 20
614.5
 30
0.0
 11
2180.966055913163
 21
614.5
 31
0.0
  0
LINE
  5
1F6
330
A
100
AcDbEntity
  8
センター
  6
STYLE_21
370
    15
100
AcDbLine
 10
2068.966055913163
 20
796.7445143789384
 30
0.0
 11
2068.966055913163
 21
583.2554856210617
 31
0.0
  0
CIRCLE
  5
1F7
330
A
100
AcDbEntity
  8
実形
370
    15
100
AcDbCircle
 10
1908.966055913163
 20
690.0
 30
0.0
 40
8.966055913163016
  0
ARC
  5
1F8
330
A
100
AcDbEntity
  8
実形
370
    15
100
AcDbCircle
 10
1993.966055913163
 20
690.0
 30
0.0
 40
50.0
100
AcDbArc
 50
90.0
 51
180.0
  0
ARC
  5
1F9
330
A
100
AcDbEntity
  8
実形
370
    15
100
AcDbCircle
 10
1993.966055913163
 20
690.0
 30
0.0
 40
50.0
100
AcDbArc
 50
180.0
 51
270.0
  0
ARC
  5
1FA
330
A
100
AcDbEntity
  8
実形
370
    15
100
AcDbCircle
 10
1956.966055913163
 20
690.0
 30
0.0
 40
70.5
100
AcDbArc
 50
90.0
 51
180.0
  0
ARC
  5
1FB
330
A
100
AcDbEntity
  8
実形
370
    15
100
AcDbCircle
 10
1956.966055913163
 20
690.0
 30
0.0
 40
70.5
100
AcDbArc
 50
180.0
 51
270.0
  0
ARC
  5
1FC
330
A
100
AcDbEntity
  8
実形
370
    15
100
AcDbCircle
 10
1956.966055913163
 20
690.0
 30
0.0
 40
75.5
100
AcDbArc
 50
90.0
 51
180.0
  0
ARC
  5
1FD
330
A
100
AcDbEntity
  8
実形
370
    15
100
AcDbCircle
 10
1956.966055913163
 20
690.0
 30
0.0
 40
75.5
100
AcDbArc
 50
180.0
 51
270.0
  0
LINE
  5
1FE
330
A
100
AcDbEntity
  8
実形
370
    15
100
AcDbLine
 10
1943.966055913163
 20
690.0
 30
0.0
 11
1943.966055930697
 21
690.0000000048548
 31
0.0
  0
LINE
  5
1FF
330
A
100
AcDbEntity
  8
実形
370
    15
100
AcDbLine
 10
1881.466055913163
 20
689.9999999999996
 30
0.0
 11
1881.466055930072
 21
690.0000000048544
 31
0.0
  0
DIMENSION
  5
200
330
A
100
AcDbEntity
  8
寸法
  6
Continuous
370
    15
100
AcDbDimension
  2
*D12
 10
2403.886733972866
 20
765.5
 30
0.0
 11
2385.136733972867
 21
690.0000000000003
 31
0.0
 70
    32
  1
31
 71
     5
 42
151.0000000000001
  3
ISO-25
100
AcDbAlignedDimension
 13
2256.466055913165
 23
614.5
 33
0.0
 14
2256.466055913165
 24
765.5000000000001
 34
0.0
 50
90.0
100
AcDbRotatedDimension
  0
DIMENSION
  5
201
330
A
100
AcDbEntity
  8
寸法
  6
Continuous
370
    15
100
AcDbDimension
  2
*D11
 10
2357.919068683756
 20
740.0
 30
0.0
 11
2339.169068683756
 21
690.0000000000003
 31
0.0
 70
    32
  1
20
 71
     5
 42
100.0000000000001
  3
ISO-25
100
AcDbAlignedDimension
 13
2256.466055913165
 23
640.0
 33
0.0
 14
2256.466055913165
 24
740.0000000000001
 34
0.0
 50
90.0
100
AcDbRotatedDimension
  0
CIRCLE
  5
202
330
A
100
AcDbEntity
  8
実形
370
    15
100
AcDbCircle
 10
2228.966055913164
 20
690.0
 30
0.0
 40
8.966055913163016
  0
ARC
  5
203
330
A
100
AcDbEntity
  8
実形
370
    15
100
AcDbCircle
 10
2143.966055913163
 20
690.0
 30
0.0
 40
50.0
100
AcDbArc
 50
270.0
 51
0.0
  0
ARC
  5
204
330
A
100
AcDbEntity
  8
実形
370
    15
100
AcDbCircle
 10
2143.966055913163
 20
690.0
 30
0.0
 40
50.0
100
AcDbArc
 50
0.0
 51
90.0
  0
ARC
  5
205
330
A
100
AcDbEntity
  8
実形
370
    15
100
AcDbCircle
 10
2180.966055913163
 20
690.0
 30
0.0
 40
70.5
100
AcDbArc
 50
270.0
 51
0.0
  0
ARC
  5
206
330
A
100
AcDbEntity
  8
実形
370
    15
100
AcDbCircle
 10
2180.966055913163
 20
690.0
 30
0.0
 40
70.49999999999975
100
AcDbArc
 50
0.0
 51
90.0
  0
ARC
  5
207
330
A
100
AcDbEntity
  8
実形
370
    15
100
AcDbCircle
 10
2180.966055913163
 20
690.0
 30
0.0
 40
75.5
100
AcDbArc
 50
270.0
 51
0.0
  0
ARC
  5
208
330
A
100
AcDbEntity
  8
実形
370
    15
100
AcDbCircle
 10
2180.966055913163
 20
690.0
 30
0.0
 40
75.49999999999954
100
AcDbArc
 50
0.0
 51
90.0
  0
LINE
  5
209
330
A
100
AcDbEntity
  8
実形
370
    15
100
AcDbLine
 10
2193.966055913164
 20
690.0
 30
0.0
 11
2193.966055933199
 21
690.0000000048549
 31
0.0
  0
LINE
  5
20A
330
A
100
AcDbEntity
  8
実形
370
    15
100
AcDbLine
 10
2256.466055913165
 20
690.0
 30
0.0
 11
2256.466055933824
 21
690.0000000048549
 31
0.0
  0
LINE
  5
20B
330
A
100
AcDbEntity
  8
実形
100
AcDbLine
 10
1896.726147280784
 20
1029.844993515625
 30
0.0
 11
2247.167114254015
 21
1029.844993515625
 31
0.0
  0
LINE
  5
20C
330
A
100
AcDbEntity
  8
実形
100
AcDbLine
 10
1896.726147280784
 20
1036.844993515625
 30
0.0
 11
2247.167114254015
 21
1036.844993515625
 31
0.0
  0
MTEXT
  5
20D
330
A
100
AcDbEntity
  8
0
100
AcDbMText
 10
1911.798874802533
 20
1072.573229032491
 30
0.0
 40
24.4326171875
 41
0.0
 71
     1
 72
     1
  1
{\C7;\l\U+30aa\U+30fc\U+30d0\U+30fc\U+30d5\U+30ed\U+30fc\U+8a73\U+7d30}
  7
ＭＳ ゴシック
 73
     1
 44
0.7828267384257845
1001
ACAD
1000
MTEXTBEGIN
1070
    73
1070
     1
1070
    44
1040
0.7828267384257845
1070
    74
1070
     0
1000
MTEXTEND
  0
LINE
  5
20E
330
A
100
AcDbEntity
  8
センター
  6
STYLE_21
370
    15
100
AcDbLine
 10
1045.270509554698
 20
740.0
 30
0.0
 11
1045.270509554698
 21
555.9459701746168
 31
0.0
  0
LINE
  5
20F
330
A
100
AcDbEntity
  8
実形
  6
Continuous
370
    15
100
AcDbLine
 10
936.0000960740567
 20
1545.103012618982
 30
0.0
 11
928.0
 21
1545.103012618982
 31
0.0
  0
LINE
  5
210
330
A
100
AcDbEntity
  8
実形
  6
Continuous
370
    15
100
AcDbLine
 10
928.0
 20
1470.103012618982
 30
0.0
 11
936.0000960740567
 21
1470.103012618982
 31
0.0
  0
LINE
  5
211
330
A
100
AcDbEntity
  8
実形
  6
Continuous
370
    15
100
AcDbLine
 10
928.0
 20
1545.103012618982
 30
0.0
 11
928.0
 21
1470.103012618982
 31
0.0
  0
MTEXT
  5
212
330
A
100
AcDbEntity
  8
実形
100
AcDbMText
 10
2120.0
 20
171.291558159722
 30
0.0
 40
35.29155815972222
 41
0.0
 71
     2
 72
     1
  1
{\C7;\l\U+5c3a\U+5ea6}
  7
ＭＳ ゴシック
 73
     1
 44
0.7828267384257845
1001
ACAD
1000
MTEXTBEGIN
1070
    73
1070
     1
1070
    44
1040
0.7828267384257845
1070
    74
1070
     0
1000
MTEXTEND
  0
MTEXT
  5
213
330
A
100
AcDbEntity
  8
実形
100
AcDbMText
 10
2120.0
 20
236.2915581597222
 30
0.0
 40
35.29155815972222
 41
0.0
 71
     2
 72
     1
  1
{\C7;\l\U+54c1\U+756a}
  7
ＭＳ ゴシック
 73
     1
 44
0.7828267384257845
1001
ACAD
1000
MTEXTBEGIN
1070
    73
1070
     1
1070
    44
1040
0.7828267384257845
1070
    74
1070
     0
1000
MTEXTEND
  0
LINE
  5
214
330
A
100
AcDbEntity
  8
0
100
AcDbLine
 10
2064.0
 20
119.0
 30
0.0
 11
2784.0
 21
119.0
 31
0.0
  0
LINE
  5
215
330
A
100
AcDbEntity
  8
0
100
AcDbLine
 10
2064.0
 20
249.0
 30
0.0
 11
2784.0
 21
249.0
 31
0.0
  0
LINE
  5
216
330
A
100
AcDbEntity
  8
0
100
AcDbLine
 10
2064.0
 20
184.0
 30
0.0
 11
2784.0
 21
184.0
 31
0.0
  0
LINE
  5
217
330
A
100
AcDbEntity
  8
0
100
AcDbLine
 10
2064.0
 20
54.0
 30
0.0
 11
2064.0
 21
249.0
 31
0.0
  0
LINE
  5
218
330
A
100
AcDbEntity
  8
0
100
AcDbLine
 10
2184.0
 20
119.0
 30
0.0
 11
2784.0
 21
119.0
 31
0.0
  0
LINE
  5
219
330
A
100
AcDbEntity
  8
0
100
AcDbLine
 10
2184.0
 20
119.0
 30
0.0
 11
2184.0
 21
249.0
 31
0.0
  0
LINE
  5
21A
330
A
100
AcDbEntity
  8
Cen
100
AcDbLine
 10
2784.0
 20
119.0
 30
0.0
 11
2784.0
 21
184.0
 31
0.0
  0
LINE
  5
21B
330
A
100
AcDbEntity
  8
0
100
AcDbLine
 10
2784.0
 20
184.0
 30
0.0
 11
2784.0
 21
249.0
 31
0.0
  0
MTEXT
  5
21C
330
A
100
AcDbEntity
  8
0
100
AcDbMText
 10
324.2632881086037
 20
232.1276171875001
 30
0.0
 40
24.4326171875
 41
0.0
 71
     1
 72
     1
  3
{\C7;\l\U+203B\U+5b9f\U+5bf8\U+306b\U+306f\U+88fd\U+9020\U+4e0a\U+306e\U+8aa4\U+5dee\U+304c\U+591a\U+5c11\U+751f\U+305a\U+308b\U+5834\U+5408\U+304c\U+3042\U+308a\U+307e\U+3059\U+3002\U+30b7\U+30f3\U+30af\U+306e\U+7a74\U+3042\U+3051\U+52a0\U+5de5\U+30
  1
6f\U+73fe\U+7269\U+5408\U+308f\U+305b\U+306b\U+3066\U+304a\U+9858\U+3044\U+3057\U+307e\U+3059\U+3002}
  7
ＭＳ ゴシック
 73
     1
 44
0.7828267384257845
1001
ACAD
1000
MTEXTBEGIN
1070
    73
1070
     1
1070
    44
1040
0.7828267384257845
1070
    74
1070
     0
1000
MTEXTEND
  0
MTEXT
  5
21D
330
A
100
AcDbEntity
  8
0
100
AcDbMText
 10
2480.0
 20
236.2915581597222
 30
0.0
 40
35.29155815972222
 41
0.0
 71
     2
 72
     1
  1
{\C7;\lHLm/m530-450}{\C7;\lS}
  7
ＭＳ ゴシック
 73
     1
 44
0.7828267384257845
1001
ACAD
1000
MTEXTBEGIN
1070
    73
1070
     1
1070
    44
1040
0.7828267384257845
1070
    74
1070
     0
1000
MTEXTEND
  0
MTEXT
  5
21E
330
A
100
AcDbEntity
  8
0
100
AcDbMText
 10
2480.0
 20
171.291558159722
 30
0.0
 40
35.29155815972222
 41
0.0
 71
     2
 72
     1
  1
{\C7;\l1\U+ff1a10}
  7
ＭＳ ゴシック
 73
     1
 44
0.7828267384257845
1001
ACAD
1000
MTEXTBEGIN
1070
    73
1070
     1
1070
    44
1040
0.7828267384257845
1070
    74
1070
     0
1000
MTEXTEND
  0
LINE
  5
21F
330
A
100
AcDbEntity
  8
実形
100
AcDbLine
 10
2084.0
 20
1974.0
 30
0.0
 11
2784.0
 21
1974.0
 31
0.0
  0
LINE
  5
220
330
A
100
AcDbEntity
  8
0
100
AcDbLine
 10
2784.0
 20
1844.0
 30
0.0
 11
2084.0
 21
1844.0
 31
0.0
  0
LINE
  5
221
330
A
100
AcDbEntity
  8
0
100
AcDbLine
 10
2784.0
 20
1909.0
 30
0.0
 11
2084.0
 21
1909.0
 31
0.0
  0
LINE
  5
222
330
A
100
AcDbEntity
  8
0
100
AcDbLine
 10
2784.0
 20
1779.0
 30
0.0
 11
2084.0
 21
1779.0
 31
0.0
  0
LINE
  5
223
330
A
100
AcDbEntity
  8
0
100
AcDbLine
 10
2084.0
 20
1779.0
 30
0.0
 11
2084.0
 21
1974.0
 31
0.0
  0
LINE
  5
224
330
A
100
AcDbEntity
  8
0
100
AcDbLine
 10
2254.0
 20
1779.0
 30
0.0
 11
2254.0
 21
1974.0
 31
0.0
  0
MTEXT
  5
225
330
A
100
AcDbEntity
  8
実形
100
AcDbMText
 10
2169.0
 20
1824.818885059231
 30
0.0
 40
29.86208767361111
 41
0.0
 71
     2
 72
     1
  1
{\C7;\l\U+30dc\U+30fc\U+30eb}
  7
ＭＳ ゴシック
 73
     1
 44
0.7896004755260076
1001
ACAD
1000
MTEXTBEGIN
1070
    73
1070
     1
1070
    44
1040
0.7896004755260076
1070
    74
1070
     0
1000
MTEXTEND
  0
MTEXT
  5
226
330
A
100
AcDbEntity
  8
実形
100
AcDbMText
 10
2169.0
 20
1889.818885059232
 30
0.0
 40
29.86208767361111
 41
0.0
 71
     2
 72
     1
  1
{\C7;\l\U+5929\U+677f}
  7
ＭＳ ゴシック
 73
     1
 44
0.7896004755260076
1001
ACAD
1000
MTEXTBEGIN
1070
    73
1070
     1
1070
    44
1040
0.7896004755260076
1070
    74
1070
     0
1000
MTEXTEND
  0
MTEXT
  5
227
330
A
100
AcDbEntity
  8
実形
100
AcDbMText
 10
2169.0
 20
1954.818885059232
 30
0.0
 40
29.86208767361111
 41
0.0
 71
     2
 72
     1
  1
{\C7;\l\U+90e8\U+54c1\U+540d}
  7
ＭＳ ゴシック
 73
     1
 44
0.7896004755260076
1001
ACAD
1000
MTEXTBEGIN
1070
    73
1070
     1
1070
    44
1040
0.7896004755260076
1070
    74
1070
     0
1000
MTEXTEND
  0
MTEXT
  5
228
330
A
100
AcDbEntity
  8
実形
100
AcDbMText
 10
2671.5
 20
1954.818885059232
 30
0.0
 40
29.86208767361111
 41
0.0
 71
     2
 72
     1
  1
{\C7;\l\U+7d20\U+6750\U+5bf8\U+6cd5}
  7
ＭＳ ゴシック
 73
     1
 44
0.7896004755260076
1001
ACAD
1000
MTEXTBEGIN
1070
    73
1070
     1
1070
    44
1040
0.7896004755260076
1070
    74
1070
     0
1000
MTEXTEND
  0
MTEXT
  5
229
330
A
100
AcDbEntity
  8
実形
100
AcDbMText
 10
2671.5
 20
1889.818885059232
 30
0.0
 40
29.86208767361111
 41
0.0
 71
     2
 72
     1
  1
{\C7;\l1.0\U+ff4d\U+ff4d}
  7
ＭＳ ゴシック
 73
     1
 44
0.7896004755260076
1001
ACAD
1000
MTEXTBEGIN
1070
    73
1070
     1
1070
    44
1040
0.7896004755260076
1070
    74
1070
     0
1000
MTEXTEND
  0
MTEXT
  5
22A
330
A
100
AcDbEntity
  8
実形
100
AcDbMText
 10
2671.5
 20
1824.818885059231
 30
0.0
 40
29.86208767361111
 41
0.0
 71
     2
 72
     1
  1
{\C7;\l0.7\U+ff4d\U+ff4d}
  7
ＭＳ ゴシック
 73
     1
 44
0.7896004755260076
1001
ACAD
1000
MTEXTBEGIN
1070
    73
1070
     1
1070
    44
1040
0.7896004755260076
1070
    74
1070
     0
1000
MTEXTEND
  0
LINE
  5
22B
330
A
100
AcDbEntity
  8
0
100
AcDbLine
 10
2559.0
 20
1779.0
 30
0.0
 11
2559.0
 21
1974.0
 31
0.0
  0
MTEXT
  5
22C
330
A
100
AcDbEntity
  8
実形
100
AcDbMText
 10
2406.5
 20
1824.818885059232
 30
0.0
 40
29.86208767361111
 41
0.0
 71
     2
 72
     1
  1
{\C7;\lSUS304}
  7
ＭＳ ゴシック
 73
     1
 44
0.7896004755260076
1001
ACAD
1000
MTEXTBEGIN
1070
    73
1070
     1
1070
    44
1040
0.7896004755260076
1070
    74
1070
     0
1000
MTEXTEND
  0
MTEXT
  5
22D
330
A
100
AcDbEntity
  8
実形
100
AcDbMText
 10
2406.5
 20
1889.818885059232
 30
0.0
 40
29.86208767361111
 41
0.0
 71
     2
 72
     1
  1
{\C7;\lSUS304}
  7
ＭＳ ゴシック
 73
     1
 44
0.7896004755260076
1001
ACAD
1000
MTEXTBEGIN
1070
    73
1070
     1
1070
    44
1040
0.7896004755260076
1070
    74
1070
     0
1000
MTEXTEND
  0
MTEXT
  5
22E
330
A
100
AcDbEntity
  8
実形
100
AcDbMText
 10
2406.5
 20
1954.818885059232
 30
0.0
 40
29.86208767361111
 41
0.0
 71
     2
 72
     1
  1
{\C7;\l\U+6750\U+8cea}
  7
ＭＳ ゴシック
 73
     1
 44
0.7896004755260076
1001
ACAD
1000
MTEXTBEGIN
1070
    73
1070
     1
1070
    44
1040
0.7896004755260076
1070
    74
1070
     0
1000
MTEXTEND
  0
LINE
  5
22F
330
A
100
AcDbEntity
  8
実形
100
AcDbLine
 10
2784.0
 20
1974.0
 30
0.0
 11
2784.000000000002
 21
1779.0
 31
0.0
  0
LINE
  5
230
330
A
100
AcDbEntity
  8
0
100
AcDbLine
 10
2784.0
 20
1779.0
 30
0.0
 11
2784.0
 21
1974.0
 31
0.0
  0
DIMENSION
  5
232
330
A
100
AcDbEntity
  8
寸法
  6
Continuous
 62
     7
370
    15
100
AcDbDimension
  2
*D10
 10
1402.270509554699
 20
1157.356925647109
 30
0.0
 11
1478.187176221365
 21
1157.356925647109
 31
0.0
 70
   160
 71
     5
 42
18.0
  3
ISO-25
100
AcDbAlignedDimension
 13
1420.270509554699
 23
1268.782240370982
 33
0.0
 14
1402.270509554699
 24
1268.782240370982
 34
0.0
100
AcDbRotatedDimension
  0
DIMENSION
  5
234
330
A
100
AcDbEntity
  8
寸法
  6
Continuous
 62
     7
370
    15
100
AcDbDimension
  2
*D9
 10
908.2705095546987
 20
1157.356925647109
 30
0.0
 11
832.3538428880322
 21
1157.356925647109
 31
0.0
 70
   160
 71
     5
 42
18.00000000000011
  3
ISO-25
100
AcDbAlignedDimension
 13
890.2705095546988
 23
1268.782240370982
 33
0.0
 14
908.2705095546987
 24
1268.782240370982
 34
0.0
100
AcDbRotatedDimension
  0
LINE
  5
235
330
A
100
AcDbEntity
  8
補助
370
     5
100
AcDbLine
 10
935.2705095546989
 20
1774.0
 30
0.0
 11
935.2705095546989
 21
820.0000000000001
 31
0.0
  0
LINE
  5
236
330
A
100
AcDbEntity
  8
補助
370
     5
100
AcDbLine
 10
935.2705095546989
 20
820.0000000000001
 30
0.0
 11
935.2705095546989
 21
390.0
 31
0.0
  0
DIMENSION
  5
238
330
A
100
AcDbEntity
  8
寸法
  6
Continuous
 62
     7
370
    15
100
AcDbDimension
  2
*D8
 10
772.3383917846446
 20
1327.603012618982
 30
0.0
 11
747.1404621194815
 21
1328.712775868897
 31
0.0
 70
   160
 71
     5
 42
27.0
  3
ISO-25
100
AcDbAlignedDimension
 13
924.0
 23
1300.603012618982
 33
0.0
 14
924.0
 24
1327.603012618982
 34
0.0
 50
90.0
100
AcDbRotatedDimension
1001
ACAD
1000
DSTYLE
1002
{
1070
   279
1070
     2
1002
}
  0
DIMENSION
  5
239
330
A
100
AcDbEntity
  8
寸法
  6
Continuous
 62
     7
370
    15
100
AcDbDimension
  2
*D7
 10
772.3383917846446
 20
1300.603012618982
 30
0.0
 11
772.3383917846442
 21
1224.686345952315
 31
0.0
 70
   160
 71
     5
 42
18.0
  3
ISO-25
100
AcDbAlignedDimension
 13
939.8749999999996
 23
1282.603012618982
 33
0.0
 14
939.8749999999996
 24
1300.603012618982
 34
0.0
 50
90.0
100
AcDbRotatedDimension
  0
LINE
  5
23D
330
A
100
AcDbEntity
  8
補助
370
     5
100
AcDbLine
 10
908.2705095546987
 20
1774.0
 30
0.0
 11
908.2705095546987
 21
820.0000000000001
 31
0.0
  0
LINE
  5
23E
330
A
100
AcDbEntity
  8
補助
370
     5
100
AcDbLine
 10
908.2705095546987
 20
820.0000000000001
 30
0.0
 11
908.2705095546987
 21
782.0
 31
0.0
  0
LINE
  5
23F
330
A
100
AcDbEntity
  8
補助
370
     5
100
AcDbLine
 10
890.2705095546988
 20
1774.0
 30
0.0
 11
890.2705095546988
 21
390.0
 31
0.0
  0
LINE
  5
240
330
A
100
AcDbEntity
  8
補助
370
     5
100
AcDbLine
 10
845.0
 20
1327.603012618982
 30
0.0
 11
1485.0
 21
1327.603012618982
 31
0.0
  0
LINE
  5
241
330
A
100
AcDbEntity
  8
補助
370
     5
100
AcDbLine
 10
855.0
 20
1282.603012618982
 30
0.0
 11
1635.0
 21
1282.603012618982
 31
0.0
  0
LINE
  5
242
330
A
100
AcDbEntity
  8
補助
370
     5
100
AcDbLine
 10
810.0
 20
1507.603012618982
 30
0.0
 11
1590.0
 21
1507.603012618982
 31
0.0
  0
LINE
  5
244
330
A
100
AcDbEntity
  8
補助
370
     5
100
AcDbLine
 10
1045.270509554699
 20
1774.0
 30
0.0
 11
1045.270509554699
 21
820.0000000000001
 31
0.0
  0
LINE
  5
245
330
A
100
AcDbEntity
  8
補助
370
     5
100
AcDbLine
 10
1045.270509554699
 20
820.0000000000001
 30
0.0
 11
1045.270509554699
 21
390.0
 31
0.0
  0
LINE
  5
247
330
A
100
AcDbEntity
  8
補助
370
     5
100
AcDbLine
 10
1375.270509554699
 20
1507.603012618982
 30
0.0
 11
1375.270509554699
 21
820.0000000000001
 31
0.0
  0
LINE
  5
248
330
A
100
AcDbEntity
  8
補助
370
     5
100
AcDbLine
 10
1375.270509554699
 20
820.0000000000001
 30
0.0
 11
1375.270509554699
 21
395.0
 31
0.0
  0
LINE
  5
249
330
A
100
AcDbEntity
  8
実形
  6
Continuous
370
    15
100
AcDbLine
 10
928.0
 20
795.5
 30
0.0
 11
928.0
 21
764.5
 31
0.0
  0
LINE
  5
24A
330
A
100
AcDbEntity
  8
補助
370
     5
100
AcDbLine
 10
1420.270509554699
 20
1203.782240370982
 30
0.0
 11
1420.270509554699
 21
1755.0
 31
0.0
  0
LINE
  5
24B
330
A
100
AcDbEntity
  8
補助
370
     5
100
AcDbLine
 10
650.25
 20
1732.603012618981
 30
0.0
 11
1660.0
 21
1732.603012618981
 31
0.0
  0
LINE
  5
24C
330
A
100
AcDbEntity
  8
補助
370
     5
100
AcDbLine
 10
1402.270509554699
 20
1203.782240370982
 30
0.0
 11
1402.270509554699
 21
1755.0
 31
0.0
  0
LINE
  5
24D
330
A
100
AcDbEntity
  8
補助
370
     5
100
AcDbLine
 10
865.0
 20
1714.603012618981
 30
0.0
 11
1525.0
 21
1714.603012618981
 31
0.0
  0
LWPOLYLINE
  5
24E
330
A
100
AcDbEntity
  8
実形
  6
Continuous
 62
     7
370
    15
100
AcDbPolyline
 90
        8
 70
   129
 43
0.0
 10
890.2705095546988
 20
1722.603012618981
 42
-0.4142135623730951
 10
900.2705095546987
 20
1732.603012618981
 10
1410.270509554699
 20
1732.603012618981
 42
-0.4142135623730951
 10
1420.270509554699
 20
1722.603012618981
 10
1420.270509554699
 20
1292.603012618982
 42
-0.4142135623730951
 10
1410.270509554699
 20
1282.603012618982
 10
900.2705095546987
 20
1282.603012618982
 42
-0.4142135623730951
 10
890.2705095546988
 20
1292.603012618982
  0
LWPOLYLINE
  5
24F
330
A
100
AcDbEntity
  8
実形
  6
Continuous
 62
     7
370
    15
100
AcDbPolyline
 90
        8
 70
   129
 43
0.0
 10
895.2705095546988
 20
1722.603012618981
 42
-0.4142135623730951
 10
900.2705095546987
 20
1727.603012618981
 10
1410.270509554699
 20
1727.603012618981
 42
-0.4142135623730951
 10
1415.270509554699
 20
1722.603012618981
 10
1415.270509554699
 20
1292.603012618982
 42
-0.4142135623730951
 10
1410.270509554699
 20
1287.603012618982
 10
900.2705095546987
 20
1287.603012618982
 42
-0.4142135623730951
 10
895.2705095546988
 20
1292.603012618982
  0
LINE
  5
250
330
A
100
AcDbEntity
  8
補助
370
     5
100
AcDbLine
 10
895.2705095546988
 20
1300.603012618982
 30
0.0
 11
1530.0
 21
1300.603012618982
 31
0.0
  0
LINE
  5
251
330
A
100
AcDbEntity
  8
補助
370
     5
100
AcDbLine
 10
868.0
 20
1687.603012618982
 30
0.0
 11
1532.0
 21
1687.603012618982
 31
0.0
  0
LWPOLYLINE
  5
252
330
A
100
AcDbEntity
  8
実形
  6
Continuous
 62
     7
370
    15
100
AcDbPolyline
 90
        8
 70
   129
 43
0.0
 10
908.125
 20
1684.603012618981
 42
-0.4142135623730951
 10
938.1249999999999
 20
1714.603012618981
 10
1372.270509554698
 20
1714.603012618981
 42
-0.4142135623730951
 10
1402.270509554699
 20
1684.603012618981
 10
1402.270509554699
 20
1330.603012618982
 42
-0.4142135623730951
 10
1372.270509554698
 20
1300.603012618982
 10
938.1249999999999
 20
1300.603012618982
 42
-0.4142135623730951
 10
908.125
 20
1330.603012618982
  0
LWPOLYLINE
  5
253
330
A
100
AcDbEntity
  8
実形
  6
Continuous
 62
     7
370
    15
100
AcDbPolyline
 90
        8
 70
   129
 43
0.0
 10
903.125
 20
1684.603012618981
 42
-0.4142135623730951
 10
938.1249999999999
 20
1719.603012618982
 10
1372.270509554698
 20
1719.603012618982
 42
-0.4142135623730951
 10
1407.270509554699
 20
1684.603012618981
 10
1407.270509554699
 20
1330.603012618982
 42
-0.4142135623730951
 10
1372.270509554698
 20
1295.603012618982
 10
938.1249999999999
 20
1295.603012618982
 42
-0.4142135623730951
 10
903.125
 20
1330.603012618982
  0
DIMENSION
  5
254
330
A
100
AcDbEntity
  8
寸法
  6
Continuous
 62
     7
370
    15
100
AcDbDimension
  2
*D6
 10
772.3383917846446
 20
830.0
 30
0.0
 11
753.5883917846442
 21
890.0000000000003
 31
0.0
 70
    32
 71
     5
 42
50.0
  3
ISO-25
100
AcDbAlignedDimension
 13
890.2705095546988
 23
780.0
 33
0.0
 14
890.2705095546988
 24
830.0
 34
0.0
 50
90.0
100
AcDbRotatedDimension
  0
LINE
  5
255
330
A
100
AcDbEntity
  8
補助
370
     5
100
AcDbLine
 10
874.3955095546988
 20
780.0
 30
0.0
 11
961.0
 21
780.0
 31
0.0
  0
LINE
  5
256
330
A
100
AcDbEntity
  8
実形
  6
Continuous
 62
     7
370
    15
100
AcDbLine
 10
928.0
 20
795.5
 30
0.0
 11
935.2705095546989
 21
795.5
 31
0.0
  0
LINE
  5
257
330
A
100
AcDbEntity
  8
実形
  6
Continuous
 62
     7
370
    15
100
AcDbLine
 10
928.0
 20
764.5
 30
0.0
 11
935.2705095546989
 21
764.5
 31
0.0
  0
LINE
  5
258
330
A
100
AcDbEntity
  8
実形
 62
     7
100
AcDbLine
 10
890.2705095546988
 20
830.0
 30
0.0
 11
1265.270509554698
 21
830.0
 31
0.0
  0
LINE
  5
259
330
A
100
AcDbEntity
  8
実形
 62
     7
100
AcDbLine
 10
895.2705095546988
 20
835.0
 30
0.0
 11
1415.270509554699
 21
835.0
 31
0.0
  0
LINE
  5
25A
330
A
100
AcDbEntity
  8
実形
 62
     7
100
AcDbLine
 10
895.2705095546988
 20
835.0
 30
0.0
 11
890.2705095546988
 21
830.0
 31
0.0
  0
LINE
  5
25B
330
A
100
AcDbEntity
  8
実形
 62
     7
100
AcDbLine
 10
903.2705095546988
 20
830.0
 30
0.0
 11
903.2705095546988
 21
820.0
 31
0.0
  0
LINE
  5
25C
330
A
100
AcDbEntity
  8
実形
 62
     7
100
AcDbLine
 10
903.2705095546988
 20
820.0000000000001
 30
0.0
 11
1407.270509554699
 21
820.0000000000001
 31
0.0
  0
LINE
  5
25D
330
A
100
AcDbEntity
  8
実形
 62
     7
100
AcDbLine
 10
1415.270509554699
 20
835.0
 30
0.0
 11
1420.270509554699
 21
830.0
 31
0.0
  0
LINE
  5
25E
330
A
100
AcDbEntity
  8
実形
 62
     7
100
AcDbLine
 10
1407.270509554699
 20
830.0
 30
0.0
 11
1407.270509554699
 21
820.0
 31
0.0
  0
LINE
  5
25F
330
A
100
AcDbEntity
  8
実形
 62
     7
100
AcDbLine
 10
1407.270509554699
 20
830.0
 30
0.0
 11
1407.270509554699
 21
820.0000000000001
 31
0.0
  0
LINE
  5
260
330
A
100
AcDbEntity
  8
補助
370
     5
100
AcDbLine
 10
874.3955095546988
 20
631.0
 30
0.0
 11
1017.0
 21
631.0
 31
0.0
  0
LINE
  5
261
330
A
100
AcDbEntity
  8
補助
370
     5
100
AcDbLine
 10
874.3955095546988
 20
646.0
 30
0.0
 11
1382.0
 21
646.0
 31
0.0
  0
LINE
  5
262
330
A
100
AcDbEntity
  8
実形
  6
Continuous
 62
     7
370
    15
100
AcDbLine
 10
987.2705095546983
 20
631.0
 30
0.0
 11
953.0
 21
649.9747454862085
 31
0.0
  0
LINE
  5
263
330
A
100
AcDbEntity
  8
実形
  6
Continuous
 62
     7
370
    15
100
AcDbLine
 10
1103.270509554698
 20
631.0
 30
0.0
 11
1348.03645587152
 21
647.4783283626692
 31
0.0
  0
MTEXT
  5
264
330
A
100
AcDbEntity
  8
実形
100
AcDbMText
 10
2157.378072601224
 20
110.7884141414142
 30
0.0
 40
25.0
 41
612.0
 71
     1
 72
     1
  1
{\fArial|b0|i0|c0|p0;\C7;\H1.8x;\l e}{\fArial|b0|i0|c0|p0;\C7;\H1.4x;\l-KITCHEN }{\fArial|b0|i0|c0|p0;\C7;\H0.4799x;\lU-ARCHITECTURE WORKS}
  7
ＭＳ ゴシック
 73
     1
 44
0.3111260053352385
1001
ACAD
1000
MTEXTBEGIN
1070
    73
1070
     1
1070
    44
1040
0.3111260053352385
1070
    74
1070
     0
1000
MTEXTEND
  0
DIMENSION
  5
68D
330
A
100
AcDbEntity
  8
寸法
  6
Continuous
370
     0
100
AcDbDimension
  2
*D21
 10
1420.270509554699
 20
1105.329859982745
 30
0.0
 11
1155.270509554699
 21
1124.079859982745
 31
0.0
 70
    32
 71
     5
 42
530.0000000000001
  3
ISO-25
100
AcDbAlignedDimension
 13
890.2705095546988
 23
1321.307099171627
 33
0.0
 14
1420.270509554699
 24
1321.307099171627
 34
0.0
100
AcDbRotatedDimension
  0
DIMENSION
  5
6CC
330
A
100
AcDbEntity
  8
寸法
  6
Continuous
370
     0
100
AcDbDimension
  2
*D22
 10
935.2705095546989
 20
1157.356925647109
 30
0.0
 11
937.3898138599487
 21
1175.466798918385
 31
0.0
 70
   160
 71
     5
 42
27.0
  3
ISO-25
100
AcDbAlignedDimension
 13
908.2705095546987
 23
1320.193812579866
 33
0.0
 14
935.2705095546989
 24
1320.193812579866
 34
0.0
100
AcDbRotatedDimension
1001
ACAD
1000
DSTYLE
1002
{
1070
   279
1070
     2
1002
}
  0
DIMENSION
  5
716
330
A
100
AcDbEntity
  8
寸法
  6
Continuous
370
     0
100
AcDbDimension
  2
*D23
 10
1375.270509554699
 20
1157.356925647109
 30
0.0
 11
1373.151205249449
 21
1175.466798918385
 31
0.0
 70
   160
 71
     5
 42
27.0
  3
ISO-25
100
AcDbAlignedDimension
 13
1402.270509554699
 23
1320.193812579866
 33
0.0
 14
1375.270509554699
 24
1320.193812579866
 34
0.0
 50
180.0
100
AcDbRotatedDimension
1001
ACAD
1000
DSTYLE
1002
{
1070
   279
1070
     2
1002
}
  0
DIMENSION
  5
79E
330
A
100
AcDbEntity
  8
寸法
  6
Continuous
 62
     7
370
    15
100
AcDbDimension
  2
*D24
 10
772.3383917846446
 20
1687.603012618981
 30
0.0
 11
747.1404621194815
 21
1686.493249369067
 31
0.0
 70
   160
 71
     5
 42
27.0
  3
ISO-25
100
AcDbAlignedDimension
 13
924.0
 23
1714.603012618981
 33
0.0
 14
924.0
 24
1687.603012618981
 34
0.0
 50
270.0
100
AcDbRotatedDimension
1001
ACAD
1000
DSTYLE
1002
{
1070
   279
1070
     2
1002
}
  0
DIMENSION
  5
79F
330
A
100
AcDbEntity
  8
寸法
  6
Continuous
 62
     7
370
    15
100
AcDbDimension
  2
*D25
 10
772.3383917846446
 20
1714.603012618981
 30
0.0
 11
772.3383917846442
 21
1790.519679285648
 31
0.0
 70
   160
 71
     5
 42
18.0
  3
ISO-25
100
AcDbAlignedDimension
 13
939.8749999999996
 23
1732.603012618981
 33
0.0
 14
939.8749999999996
 24
1714.603012618981
 34
0.0
 50
270.0
100
AcDbRotatedDimension
  0
DIMENSION
  5
7CC
330
A
100
AcDbEntity
  8
寸法
  6
Continuous
370
     0
100
AcDbDimension
  2
*D26
 10
684.1874999999999
 20
1732.603012618981
 30
0.0
 11
665.4374999999998
 21
1507.603012618982
 31
0.0
 70
    32
 71
     5
 42
449.9999999999994
  3
ISO-25
100
AcDbAlignedDimension
 13
874.8749999999997
 23
1282.603012618982
 33
0.0
 14
874.8749999999997
 24
1732.603012618981
 34
0.0
 50
90.0
100
AcDbRotatedDimension
  0
DIMENSION
  5
7DA
330
A
100
AcDbEntity
  8
寸法
  6
Continuous
370
     0
100
AcDbDimension
  2
*D27
 10
890.2705095546981
 20
1839.0
 30
0.0
 11
967.7705095546983
 21
1857.75
 31
0.0
 70
    32
 71
     5
 42
155.0
  3
ISO-25
100
AcDbAlignedDimension
 13
1045.270509554698
 23
1682.940806400974
 33
0.0
 14
890.2705095546981
 24
1682.940806400974
 34
0.0
100
AcDbRotatedDimension
  0
DIMENSION
  5
7F4
330
A
100
AcDbEntity
  8
寸法
  6
Continuous
370
     0
100
AcDbDimension
  2
*D28
 10
1581.830228541132
 20
1282.603012618982
 30
0.0
 11
1563.080228541132
 21
1395.103012618982
 31
0.0
 70
    32
 71
     5
 42
225.0
  3
ISO-25
100
AcDbAlignedDimension
 13
1375.270509554699
 23
1507.603012618982
 33
0.0
 14
1375.270509554699
 24
1282.603012618982
 34
0.0
 50
90.0
100
AcDbRotatedDimension
  0
ENDSEC
  0
SECTION
  2
OBJECTS
  0
DICTIONARY
  5
19
330
0
100
AcDbDictionary
281
     1
  3
ACAD_COLOR
350
268
  3
ACAD_GROUP
350
1A
  3
ACAD_LAYOUT
350
1E
  3
ACAD_MATERIAL
350
267
  3
ACAD_MLINESTYLE
350
1B
  3
ACAD_PLOTSETTINGS
350
22
  3
ACAD_PLOTSTYLENAME
350
1F
  3
ACAD_WIPEOUT_VARS
350
23
  3
ACDBHEADERROUNDTRIPXREC
350
828
  3
AcDbVariableDictionary
350
814
  3
ASE_INDEX_DICTIONARY
350
26F
  3
DWGPROPS
350
827
  0
DICTIONARY
  5
268
102
{ACAD_REACTORS
330
19
102
}
330
19
100
AcDbDictionary
281
     1
  0
DICTIONARY
  5
1A
102
{ACAD_REACTORS
330
19
102
}
330
19
100
AcDbDictionary
281
     1
  0
DICTIONARY
  5
1E
102
{ACAD_REACTORS
330
19
102
}
330
19
100
AcDbDictionary
281
     1
  3
Layout1
350
21
  3
Model
350
20
  0
DICTIONARY
  5
267
102
{ACAD_REACTORS
330
19
102
}
330
19
100
AcDbDictionary
281
     1
  0
DICTIONARY
  5
1B
102
{ACAD_REACTORS
330
19
102
}
330
19
100
AcDbDictionary
281
     1
  3
Standard
350
1C
  0
DICTIONARY
  5
22
102
{ACAD_REACTORS
330
19
102
}
330
19
100
AcDbDictionary
281
     1
  0
ACDBDICTIONARYWDFLT
  5
1F
102
{ACAD_REACTORS
330
19
102
}
330
19
100
AcDbDictionary
281
     1
  3
Normal
350
1D
100
AcDbDictionaryWithDefault
340
1D
  0
WIPEOUTVARIABLES
  5
23
330
19
100
AcDbWipeoutVariables
 70
     0
  0
DICTIONARY
  5
828
102
{ACAD_REACTORS
330
19
102
}
330
19
100
AcDbDictionary
281
     1
  3
COLORDICT
350
82A
  3
MATERIALDICT
350
829
  0
DICTIONARY
  5
814
102
{ACAD_REACTORS
330
19
102
}
330
19
100
AcDbDictionary
281
     1
  3
DIMASSOC
350
815
  3
PROJECTNAME
350
816
  0
DICTIONARY
  5
26F
102
{ACAD_REACTORS
330
19
102
}
330
19
100
AcDbDictionary
281
     1
  3
ASEBlockHierarchyIndexRecord
350
271
1001
DCO15
1040
1558325966.812
  0
XRECORD
  5
827
102
{ACAD_REACTORS
330
19
102
}
330
19
100
AcDbXrecord
280
     1
  1
DWGPROPS COOKIE
  2

  3

  4

  6

  7

  8
山崎　広絵
  9

300
=
301
=
302
=
303
=
304
=
305
=
306
=
307
=
308
=
309
=
 40
0.0114905092592593
 41
2453833.477679213
 42
2454088.478182685
  1

 90
        0
  0
LAYOUT
  5
21
102
{ACAD_XDICTIONARY
360
82D
102
}
102
{ACAD_REACTORS
330
1E
102
}
330
1E
100
AcDbPlotSettings
  1

  2

  4

  6

 40
0.0
 41
0.0
 42
0.0
 43
0.0
 44
0.0
 45
0.0
 46
0.0
 47
0.0
 48
0.0
 49
0.0
140
0.0
141
0.0
142
1.0
143
1.0
 70
     0
 72
     0
 73
     0
 74
     0
  7

 75
     0
147
1.0
148
0.0
149
0.0
100
AcDbLayout
  1
Layout1
 70
     0
 71
     1
 10
0.0
 20
0.0
 11
12.0
 21
9.0
 12
0.0
 22
0.0
 32
0.0
 14
1.000000000000000E+20
 24
1.000000000000000E+20
 34
1.000000000000000E+20
 15
-1.000000000000000E+20
 25
-1.000000000000000E+20
 35
-1.000000000000000E+20
146
0.0
 13
0.0
 23
0.0
 33
0.0
 16
1.0
 26
0.0
 36
0.0
 17
0.0
 27
1.0
 37
0.0
 76
     0
330
B
  0
LAYOUT
  5
20
102
{ACAD_XDICTIONARY
360
82B
102
}
102
{ACAD_REACTORS
330
1E
102
}
330
1E
100
AcDbPlotSettings
  1

  2

  4

  6

 40
0.0
 41
0.0
 42
0.0
 43
0.0
 44
0.0
 45
0.0
 46
0.0
 47
0.0
 48
0.0
 49
0.0
140
0.0
141
0.0
142
1.0
143
1.0
 70
  1024
 72
     0
 73
     0
 74
     0
  7

 75
     0
147
1.0
148
0.0
149
0.0
100
AcDbLayout
  1
Model
 70
     0
 71
     0
 10
0.0
 20
0.0
 11
0.0
 21
0.0
 12
0.0
 22
0.0
 32
0.0
 14
0.0
 24
0.0
 34
0.0
 15
0.0
 25
0.0
 35
0.0
146
0.0
 13
0.0
 23
0.0
 33
0.0
 16
0.0
 26
0.0
 36
0.0
 17
0.0
 27
0.0
 37
0.0
 76
     0
330
A
  0
MLINESTYLE
  5
1C
102
{ACAD_REACTORS
330
1B
102
}
330
1B
100
AcDbMlineStyle
  2
STANDARD
 70
     0
  3

 62
     0
 51
90.0
 52
90.0
 71
     2
 49
0.5
 62
   256
  6
BYLAYER
 49
-0.5
 62
   256
  6
BYLAYER
  0
ACDBPLACEHOLDER
  5
1D
102
{ACAD_REACTORS
330
1F
102
}
330
1F
  0
XRECORD
  5
82A
102
{ACAD_REACTORS
330
828
102
}
330
828
100
AcDbXrecord
280
     1
340
268
  0
XRECORD
  5
829
102
{ACAD_REACTORS
330
828
102
}
330
828
100
AcDbXrecord
280
     1
340
267
  0
DICTIONARYVAR
  5
815
102
{ACAD_REACTORS
330
814
102
}
330
814
100
DictionaryVariables
280
     0
  1
1
  0
DICTIONARYVAR
  5
816
102
{ACAD_REACTORS
330
814
102
}
330
814
100
DictionaryVariables
280
     0
  1

  0
XRECORD
  5
271
102
{ACAD_REACTORS
330
26F
102
}
330
26F
100
AcDbXrecord
280
     1
330
1DA
330
75E
330
75F
330
59B
330
59C
330
773
330
774
330
799
330
79A
330
74B
330
74C
330
755
330
756
330
618
330
619
330
621
330
622
330
62A
330
62B
330
633
330
634
330
63C
330
63D
330
645
330
646
330
64E
330
64F
330
657
330
658
330
660
330
661
330
668
330
669
330
741
330
742
330
739
330
73A
330
730
330
731
330
7BD
330
7BE
330
7C6
330
7C7
330
7D1
330
7D2
330
7DF
330
7E0
330
7F9
330
7FA
330
283
330
284
330
2A0
330
2A1
330
5A4
330
5A5
330
5AD
330
5AE
330
5B6
330
5B7
330
5C0
330
5C1
330
5CA
330
5CB
330
67A
330
67B
330
5FB
330
5FC
330
60F
330
610
330
685
330
686
  0
DICTIONARY
  5
82D
330
21
100
AcDbDictionary
280
     1
281
     1
  3
ACAD_XREC_ROUNDTRIP
360
82E
  0
DICTIONARY
  5
82B
330
20
100
AcDbDictionary
280
     1
281
     1
  3
ACAD_XREC_ROUNDTRIP
360
82C
  0
XRECORD
  5
82E
102
{ACAD_REACTORS
330
82D
102
}
330
82D
100
AcDbXrecord
280
     1
102
SHADEPLOT
 70
     0
102
SHADEPLOTRESLEVEL
 70
     2
102
SHADEPLOTCUSTOMDPI
 70
   300
  0
XRECORD
  5
82C
102
{ACAD_REACTORS
330
82B
102
}
330
82B
100
AcDbXrecord
280
     1
102
SHADEPLOT
 70
     0
102
SHADEPLOTRESLEVEL
 70
     2
102
SHADEPLOTCUSTOMDPI
 70
   300
  0
ENDSEC
  0
EOF
