  0
SECTION
  2
HEADER
  9
$ACADVER
  1
AC1015
  9
$ACADMAINTVER
 70
    20
  9
$DWGCODEPAGE
  3
ANSI_932
  9
$INSBASE
 10
0.0
 20
0.0
 30
0.0
  9
$EXTMIN
 10
1255.0
 20
921.0295695199304
 30
0.0
  9
$EXTMAX
 10
4035.0
 20
2842.02956951993
 30
0.0
  9
$LIMMIN
 10
0.0
 20
0.0
  9
$LIMMAX
 10
0.0
 20
0.0
  9
$ORTHOMODE
 70
     1
  9
$REGENMODE
 70
     1
  9
$FILLMODE
 70
     1
  9
$QTEXTMODE
 70
     0
  9
$MIRRTEXT
 70
     1
  9
$LTSCALE
 40
5.08
  9
$ATTMODE
 70
     1
  9
$TEXTSIZE
 40
0.0
  9
$TRACEWID
 40
1.0
  9
$TEXTSTYLE
  7
Standard
  9
$CLAYER
  8
寸法
  9
$CELTYPE
  6
Continuous
  9
$CECOLOR
 62
   256
  9
$CELTSCALE
 40
1.0
  9
$DISPSILH
 70
     0
  9
$DIMSCALE
 40
1.0
  9
$DIMASZ
 40
35.0
  9
$DIMEXO
 40
65.0
  9
$DIMDLI
 40
3.75
  9
$DIMRND
 40
0.0
  9
$DIMDLE
 40
0.0
  9
$DIMEXE
 40
0.0
  9
$DIMTP
 40
0.0
  9
$DIMTM
 40
0.0
  9
$DIMTXT
 40
25.0
  9
$DIMCEN
 40
2.5
  9
$DIMTSZ
 40
0.0
  9
$DIMTOL
 70
     0
  9
$DIMLIM
 70
     0
  9
$DIMTIH
 70
     0
  9
$DIMTOH
 70
     0
  9
$DIMSE1
 70
     0
  9
$DIMSE2
 70
     0
  9
$DIMTAD
 70
     1
  9
$DIMZIN
 70
     8
  9
$DIMBLK
  1
DotSmall
  9
$DIMASO
 70
     1
  9
$DIMSHO
 70
     1
  9
$DIMPOST
  1

  9
$DIMAPOST
  1

  9
$DIMALT
 70
     0
  9
$DIMALTD
 70
     3
  9
$DIMALTF
 40
0.03937007874016
  9
$DIMLFAC
 40
1.0
  9
$DIMTOFL
 70
     1
  9
$DIMTVP
 40
0.0
  9
$DIMTIX
 70
     0
  9
$DIMSOXD
 70
     0
  9
$DIMSAH
 70
     0
  9
$DIMBLK1
  1

  9
$DIMBLK2
  1

  9
$DIMSTYLE
  2
ISO-25
  9
$DIMCLRD
 70
     0
  9
$DIMCLRE
 70
     0
  9
$DIMCLRT
 70
     0
  9
$DIMTFAC
 40
1.0
  9
$DIMGAP
 40
6.25
  9
$DIMJUST
 70
     0
  9
$DIMSD1
 70
     0
  9
$DIMSD2
 70
     0
  9
$DIMTOLJ
 70
     0
  9
$DIMTZIN
 70
     8
  9
$DIMALTZ
 70
     0
  9
$DIMALTTZ
 70
     0
  9
$DIMUPT
 70
     0
  9
$DIMDEC
 70
     2
  9
$DIMTDEC
 70
     2
  9
$DIMALTU
 70
     2
  9
$DIMALTTD
 70
     3
  9
$DIMTXSTY
  7
Standard
  9
$DIMAUNIT
 70
     0
  9
$DIMADEC
 70
     0
  9
$DIMALTRND
 40
0.0
  9
$DIMAZIN
 70
     0
  9
$DIMDSEP
 70
    46
  9
$DIMATFIT
 70
     3
  9
$DIMFRAC
 70
     0
  9
$DIMLDRBLK
  1
Open30
  9
$DIMLUNIT
 70
     2
  9
$DIMLWD
 70
    15
  9
$DIMLWE
 70
    15
  9
$DIMTMOVE
 70
     0
  9
$LUNITS
 70
     2
  9
$LUPREC
 70
     4
  9
$SKETCHINC
 40
0.1
  9
$FILLETRAD
 40
0.0
  9
$AUNITS
 70
     0
  9
$AUPREC
 70
     0
  9
$MENU
  1
acad
  9
$ELEVATION
 40
0.0
  9
$PELEVATION
 40
0.0
  9
$THICKNESS
 40
0.0
  9
$LIMCHECK
 70
     0
  9
$CHAMFERA
 40
0.0
  9
$CHAMFERB
 40
0.0
  9
$CHAMFERC
 40
0.0
  9
$CHAMFERD
 40
0.0
  9
$SKPOLY
 70
     0
  9
$TDCREATE
 40
2453833.490621192
  9
$TDUCREATE
 40
2453833.115621192
  9
$TDUPDATE
 40
2454088.478015764
  9
$TDUUPDATE
 40
2454088.103015764
  9
$TDINDWG
 40
0.0645388310
  9
$TDUSRTIMER
 40
0.0645384606
  9
$USRTIMER
 70
     1
  9
$ANGBASE
 50
0.0
  9
$ANGDIR
 70
     0
  9
$PDMODE
 70
     1
  9
$PDSIZE
 40
-2.0
  9
$PLINEWID
 40
0.0
  9
$SPLFRAME
 70
     0
  9
$SPLINETYPE
 70
     6
  9
$SPLINESEGS
 70
     8
  9
$HANDSEED
  5
6A7
  9
$SURFTAB1
 70
     6
  9
$SURFTAB2
 70
     6
  9
$SURFTYPE
 70
     6
  9
$SURFU
 70
     6
  9
$SURFV
 70
     6
  9
$UCSBASE
  2

  9
$UCSNAME
  2

  9
$UCSORG
 10
0.0
 20
0.0
 30
0.0
  9
$UCSXDIR
 10
1.0
 20
0.0
 30
0.0
  9
$UCSYDIR
 10
0.0
 20
1.0
 30
0.0
  9
$UCSORTHOREF
  2

  9
$UCSORTHOVIEW
 70
     0
  9
$UCSORGTOP
 10
0.0
 20
0.0
 30
0.0
  9
$UCSORGBOTTOM
 10
0.0
 20
0.0
 30
0.0
  9
$UCSORGLEFT
 10
0.0
 20
0.0
 30
0.0
  9
$UCSORGRIGHT
 10
0.0
 20
0.0
 30
0.0
  9
$UCSORGFRONT
 10
0.0
 20
0.0
 30
0.0
  9
$UCSORGBACK
 10
0.0
 20
0.0
 30
0.0
  9
$PUCSBASE
  2

  9
$PUCSNAME
  2

  9
$PUCSORG
 10
0.0
 20
0.0
 30
0.0
  9
$PUCSXDIR
 10
1.0
 20
0.0
 30
0.0
  9
$PUCSYDIR
 10
0.0
 20
1.0
 30
0.0
  9
$PUCSORTHOREF
  2

  9
$PUCSORTHOVIEW
 70
     0
  9
$PUCSORGTOP
 10
0.0
 20
0.0
 30
0.0
  9
$PUCSORGBOTTOM
 10
0.0
 20
0.0
 30
0.0
  9
$PUCSORGLEFT
 10
0.0
 20
0.0
 30
0.0
  9
$PUCSORGRIGHT
 10
0.0
 20
0.0
 30
0.0
  9
$PUCSORGFRONT
 10
0.0
 20
0.0
 30
0.0
  9
$PUCSORGBACK
 10
0.0
 20
0.0
 30
0.0
  9
$USERI1
 70
     0
  9
$USERI2
 70
     0
  9
$USERI3
 70
     0
  9
$USERI4
 70
     0
  9
$USERI5
 70
     0
  9
$USERR1
 40
0.0
  9
$USERR2
 40
0.0
  9
$USERR3
 40
0.0
  9
$USERR4
 40
0.0
  9
$USERR5
 40
0.0
  9
$WORLDVIEW
 70
     1
  9
$SHADEDGE
 70
     3
  9
$SHADEDIF
 70
    70
  9
$TILEMODE
 70
     1
  9
$MAXACTVP
 70
    16
  9
$PINSBASE
 10
0.0
 20
0.0
 30
0.0
  9
$PLIMCHECK
 70
     0
  9
$PEXTMIN
 10
1.000000000000000E+20
 20
1.000000000000000E+20
 30
1.000000000000000E+20
  9
$PEXTMAX
 10
-1.000000000000000E+20
 20
-1.000000000000000E+20
 30
-1.000000000000000E+20
  9
$PLIMMIN
 10
0.0
 20
0.0
  9
$PLIMMAX
 10
12.0
 20
9.0
  9
$UNITMODE
 70
     0
  9
$VISRETAIN
 70
     0
  9
$PLINEGEN
 70
     1
  9
$PSLTSCALE
 70
     0
  9
$TREEDEPTH
 70
  3020
  9
$CMLSTYLE
  2
Standard
  9
$CMLJUST
 70
     0
  9
$CMLSCALE
 40
1.0
  9
$PROXYGRAPHICS
 70
     0
  9
$MEASUREMENT
 70
     1
  9
$CELWEIGHT
370
     0
  9
$ENDCAPS
280
     0
  9
$JOINSTYLE
280
     0
  9
$LWDISPLAY
290
     1
  9
$INSUNITS
 70
     4
  9
$HYPERLINKBASE
  1

  9
$STYLESHEET
  1

  9
$XEDIT
290
     1
  9
$CEPSNTYPE
380
     0
  9
$PSTYLEMODE
290
     1
  9
$FINGERPRINTGUID
  2

  9
$VERSIONGUID
  2
{B4E3E241-A5AD-48A8-BCE6-5AACD9FF8113}
  9
$EXTNAMES
290
     1
  9
$PSVPSCALE
 40
0.0
  9
$OLESTARTUP
290
     0
  0
ENDSEC
  0
SECTION
  2
CLASSES
  0
CLASS
  1
IMAGE
  2
AcDbRasterImage
  3
ISM
 90
    32895
280
     0
281
     1
  0
CLASS
  1
DICTIONARYVAR
  2
AcDbDictionaryVar
  3
ObjectDBX Classes
 90
        0
280
     0
281
     0
  0
CLASS
  1
RASTERVARIABLES
  2
AcDbRasterVariables
  3
ISM
 90
    32768
280
     0
281
     0
  0
CLASS
  1
IMAGEDEF
  2
AcDbRasterImageDef
  3
ISM
 90
    32768
280
     0
281
     0
  0
CLASS
  1
IMAGEDEF_REACTOR
  2
AcDbRasterImageDefReactor
  3
ISM
 90
    32769
280
     0
281
     0
  0
CLASS
  1
IDBUFFER
  2
AcDbIdBuffer
  3
ObjectDBX Classes
 90
    32768
280
     0
281
     0
  0
CLASS
  1
SPATIAL_FILTER
  2
AcDbSpatialFilter
  3
ObjectDBX Classes
 90
    32768
280
     0
281
     0
  0
CLASS
  1
SORTENTSTABLE
  2
AcDbSortentsTable
  3
ObjectDBX Classes
 90
    32768
280
     0
281
     0
  0
CLASS
  1
LAYER_INDEX
  2
AcDbLayerIndex
  3
ObjectDBX Classes
 90
    32768
280
     0
281
     0
  0
CLASS
  1
SPATIAL_INDEX
  2
AcDbSpatialIndex
  3
ObjectDBX Classes
 90
    32768
280
     0
281
     0
  0
CLASS
  1
OBJECT_PTR
  2
CAseDLPNTableRecord
  3
ASE-LPNTableRecord
 90
    32769
280
     0
281
     0
  0
CLASS
  1
LAYOUT
  2
AcDbLayout
  3
ObjectDBX Classes
 90
        0
280
     0
281
     0
  0
CLASS
  1
PLOTSETTINGS
  2
AcDbPlotSettings
  3
ObjectDBX Classes
 90
    32768
280
     0
281
     0
  0
CLASS
  1
ACDBDICTIONARYWDFLT
  2
AcDbDictionaryWithDefault
  3
ObjectDBX Classes
 90
        0
280
     0
281
     0
  0
CLASS
  1
ACDBPLACEHOLDER
  2
AcDbPlaceHolder
  3
ObjectDBX Classes
 90
        0
280
     0
281
     0
  0
CLASS
  1
VBA_PROJECT
  2
AcDbVbaProject
  3
acad
 90
    32768
280
     0
281
     0
  0
CLASS
  1
WIPEOUT
  2
AcDbWipeout
  3
"WipeOut|Product Desc: Object Enabler for WipeOut entity^I^I^I^I^I^I|Company: Autodesk, Inc.^I^I^I^I^I^I|WEB Address: www.autodesk.com"
 90
      127
280
     0
281
     1
  0
CLASS
  1
WIPEOUTVARIABLES
  2
AcDbWipeoutVariables
  3
"WipeOut|Product Desc:     WipeOut Dbx Application|Company:          Autodesk, Inc.|WEB Address:      www.autodesk.com"
 90
        0
280
     0
281
     0
  0
CLASS
  1
RTEXT
  2
RText
  3
RText|AutoCAD Express Tool|expresstools@autodesk.com
 90
    32768
280
     0
281
     1
  0
CLASS
  1
ARCALIGNEDTEXT
  2
AcDbArcAlignedText
  3
ATEXT|AutoCAD Express Tool|expresstools@autodesk.com
 90
    32768
280
     0
281
     1
  0
ENDSEC
  0
SECTION
  2
TABLES
  0
TABLE
  2
VPORT
  5
7
330
0
100
AcDbSymbolTable
 70
     2
  0
VPORT
  5
69E
330
7
100
AcDbSymbolTableRecord
100
AcDbViewportTableRecord
  2
*Active
 70
     0
 10
0.0
 20
0.0
 11
1.0
 21
1.0
 12
2982.559654677655
 22
2220.774360448937
 13
0.0
 23
0.0
 14
1.0
 24
1.0
 15
0.0
 25
0.0
 16
0.0
 26
0.0
 36
1.0
 17
0.0
 27
0.0
 37
0.0
 40
2623.39419018134
 41
1.682584269662921
 42
50.0
 43
0.0
 44
0.0
 50
0.0
 51
0.0
 71
     0
 72
   100
 73
     1
 74
     1
 75
     0
 76
     0
 77
     0
 78
     0
281
     0
 65
     0
110
0.0
120
0.0
130
0.0
111
1.0
121
0.0
131
0.0
112
0.0
122
1.0
132
0.0
 79
     0
146
0.0
  0
ENDTAB
  0
TABLE
  2
LTYPE
  5
4
330
0
100
AcDbSymbolTable
 70
    25
  0
LTYPE
  5
11
330
4
100
AcDbSymbolTableRecord
100
AcDbLinetypeTableRecord
  2
ByBlock
 70
     0
  3

 72
    65
 73
     0
 40
0.0
  0
LTYPE
  5
12
330
4
100
AcDbSymbolTableRecord
100
AcDbLinetypeTableRecord
  2
ByLayer
 70
     0
  3

 72
    65
 73
     0
 40
0.0
  0
LTYPE
  5
13
330
4
100
AcDbSymbolTableRecord
100
AcDbLinetypeTableRecord
  2
Continuous
 70
     0
  3
Solid line
 72
    65
 73
     0
 40
0.0
  0
LTYPE
  5
30
330
4
100
AcDbSymbolTableRecord
100
AcDbLinetypeTableRecord
  2
STYLE_01
 70
     0
  3

 72
    65
 73
     2
 40
0.5905511811023623
 49
0.4724409448818899
 74
     0
 49
-0.1181102362204724
 74
     0
  0
LTYPE
  5
31
330
4
100
AcDbSymbolTableRecord
100
AcDbLinetypeTableRecord
  2
STYLE_02
 70
     0
  3

 72
    65
 73
     2
 40
1.181102362204724
 49
0.4724409448818899
 74
     0
 49
-0.7086614173228348
 74
     0
  0
LTYPE
  5
32
330
4
100
AcDbSymbolTableRecord
100
AcDbLinetypeTableRecord
  2
STYLE_03
 70
     0
  3

 72
    65
 73
     4
 40
1.181102362204724
 49
0.9448818897637796
 74
     0
 49
-0.1181102362204725
 74
     0
 49
0.0004999999999999
 74
     0
 49
-0.1176102362204726
 74
     0
  0
LTYPE
  5
33
330
4
100
AcDbSymbolTableRecord
100
AcDbLinetypeTableRecord
  2
STYLE_04
 70
     0
  3

 72
    65
 73
     6
 40
1.338582677165353
 49
0.9448818897637796
 74
     0
 49
-0.1181102362204725
 74
     0
 49
0.0196850393700787
 74
     0
 49
-0.1181102362204725
 74
     0
 49
0.0196850393700787
 74
     0
 49
-0.1181102362204725
 74
     0
  0
LTYPE
  5
34
330
4
100
AcDbSymbolTableRecord
100
AcDbLinetypeTableRecord
  2
STYLE_05
 70
     0
  3

 72
    65
 73
     8
 40
1.476377952755905
 49
0.9448818897637796
 74
     0
 49
-0.1181102362204725
 74
     0
 49
0.0196850393700787
 74
     0
 49
-0.1181102362204725
 74
     0
 49
0.0196850393700787
 74
     0
 49
-0.1181102362204725
 74
     0
 49
0.0196850393700787
 74
     0
 49
-0.1181102362204725
 74
     0
  0
LTYPE
  5
35
330
4
100
AcDbSymbolTableRecord
100
AcDbLinetypeTableRecord
  2
STYLE_06
 70
     0
  3

 72
    65
 73
     2
 40
0.1181102362204724
 49
0.0005
 74
     0
 49
-0.1176102362204724
 74
     0
  0
LTYPE
  5
36
330
4
100
AcDbSymbolTableRecord
100
AcDbLinetypeTableRecord
  2
STYLE_07
 70
     0
  3

 72
    65
 73
     4
 40
1.417322834645668
 49
0.9448818897637796
 74
     0
 49
-0.1181102362204725
 74
     0
 49
0.2362204724409447
 74
     0
 49
-0.1181102362204725
 74
     0
  0
LTYPE
  5
37
330
4
100
AcDbSymbolTableRecord
100
AcDbLinetypeTableRecord
  2
STYLE_08
 70
     0
  3

 72
    65
 73
     6
 40
1.771653543307085
 49
0.9448818897637796
 74
     0
 49
-0.1181102362204725
 74
     0
 49
0.2362204724409447
 74
     0
 49
-0.1181102362204725
 74
     0
 49
0.2362204724409447
 74
     0
 49
-0.1181102362204725
 74
     0
  0
LTYPE
  5
38
330
4
100
AcDbSymbolTableRecord
100
AcDbLinetypeTableRecord
  2
STYLE_09
 70
     0
  3

 72
    65
 73
     4
 40
0.7086614173228348
 49
0.4724409448818899
 74
     0
 49
-0.1181102362204724
 74
     0
 49
0.0005
 74
     0
 49
-0.1176102362204724
 74
     0
  0
LTYPE
  5
39
330
4
100
AcDbSymbolTableRecord
100
AcDbLinetypeTableRecord
  2
STYLE_10
 70
     0
  3

 72
    65
 73
     6
 40
1.299212598425196
 49
0.4724409448818899
 74
     0
 49
-0.1181102362204724
 74
     0
 49
0.4724409448818899
 74
     0
 49
-0.1181102362204725
 74
     0
 49
0.0004999999999999
 74
     0
 49
-0.1176102362204726
 74
     0
  0
LTYPE
  5
3A
330
4
100
AcDbSymbolTableRecord
100
AcDbLinetypeTableRecord
  2
STYLE_11
 70
     0
  3

 72
    65
 73
     6
 40
0.826771653543307
 49
0.4724409448818899
 74
     0
 49
-0.1181102362204724
 74
     0
 49
0.0005
 74
     0
 49
-0.1176102362204724
 74
     0
 49
0.0004999999999999
 74
     0
 49
-0.1176102362204724
 74
     0
  0
LTYPE
  5
3B
330
4
100
AcDbSymbolTableRecord
100
AcDbLinetypeTableRecord
  2
STYLE_12
 70
     0
  3

 72
    65
 73
     8
 40
1.417322834645668
 49
0.4724409448818899
 74
     0
 49
-0.1181102362204724
 74
     0
 49
0.4724409448818899
 74
     0
 49
-0.1181102362204725
 74
     0
 49
0.0004999999999999
 74
     0
 49
-0.1176102362204726
 74
     0
 49
0.0004999999999999
 74
     0
 49
-0.1176102362204726
 74
     0
  0
LTYPE
  5
3C
330
4
100
AcDbSymbolTableRecord
100
AcDbLinetypeTableRecord
  2
STYLE_13
 70
     0
  3

 72
    65
 73
     8
 40
0.9448818897637796
 49
0.4724409448818899
 74
     0
 49
-0.1181102362204724
 74
     0
 49
0.0005
 74
     0
 49
-0.1176102362204724
 74
     0
 49
0.0004999999999999
 74
     0
 49
-0.1176102362204724
 74
     0
 49
0.0004999999999999
 74
     0
 49
-0.1176102362204726
 74
     0
  0
LTYPE
  5
3D
330
4
100
AcDbSymbolTableRecord
100
AcDbLinetypeTableRecord
  2
STYLE_14
 70
     0
  3

 72
    65
 73
    10
 40
1.53543307086614
 49
0.4724409448818899
 74
     0
 49
-0.1181102362204724
 74
     0
 49
0.4724409448818899
 74
     0
 49
-0.1181102362204725
 74
     0
 49
0.0004999999999999
 74
     0
 49
-0.1176102362204726
 74
     0
 49
0.0004999999999999
 74
     0
 49
-0.1176102362204726
 74
     0
 49
0.0004999999999999
 74
     0
 49
-0.1176102362204726
 74
     0
  0
LTYPE
  5
3E
330
4
100
AcDbSymbolTableRecord
100
AcDbLinetypeTableRecord
  2
STYLE_15
 70
     0
  3

 72
    65
 73
     2
 40
0.4001000000000002
 49
0.0005
 74
     0
 49
-0.3996
 74
     0
  0
LTYPE
  5
3F
330
4
100
AcDbSymbolTableRecord
100
AcDbLinetypeTableRecord
  2
STYLE_16
 70
     0
  3

 72
    65
 73
     6
 40
1.749999999999999
 49
0.5
 74
     0
 49
-0.2499999999999999
 74
     0
 49
0.5
 74
     0
 49
-0.2499999999999998
 74
     0
 49
0.0004999999999999
 74
     0
 49
-0.2495
 74
     0
  0
LTYPE
  5
40
330
4
100
AcDbSymbolTableRecord
100
AcDbLinetypeTableRecord
  2
STYLE_17
 70
     0
  3

 72
    65
 73
     6
 40
0.875
 49
0.25
 74
     0
 49
-0.1250000000000001
 74
     0
 49
0.2499999999999999
 74
     0
 49
-0.125
 74
     0
 49
0.0004999999999999
 74
     0
 49
-0.1245
 74
     0
  0
LTYPE
  5
41
330
4
100
AcDbSymbolTableRecord
100
AcDbLinetypeTableRecord
  2
STYLE_18
 70
     0
  3

 72
    65
 73
     6
 40
3.5
 49
1.0
 74
     0
 49
-0.5
 74
     0
 49
1.0
 74
     0
 49
-0.5
 74
     0
 49
0.0004999999999999
 74
     0
 49
-0.4995
 74
     0
  0
LTYPE
  5
42
330
4
100
AcDbSymbolTableRecord
100
AcDbLinetypeTableRecord
  2
STYLE_19
 70
     0
  3

 72
    65
 73
     4
 40
2.0
 49
1.25
 74
     0
 49
-0.2499999999999999
 74
     0
 49
0.2499999999999999
 74
     0
 49
-0.2499999999999999
 74
     0
  0
LTYPE
  5
43
330
4
100
AcDbSymbolTableRecord
100
AcDbLinetypeTableRecord
  2
STYLE_20
 70
     0
  3

 72
    65
 73
     4
 40
1.125
 49
0.7500000000000001
 74
     0
 49
-0.125
 74
     0
 49
0.125
 74
     0
 49
-0.125
 74
     0
  0
LTYPE
  5
44
330
4
100
AcDbSymbolTableRecord
100
AcDbLinetypeTableRecord
  2
STYLE_21
 70
     0
  3

 72
    65
 73
     4
 40
4.0
 49
2.5
 74
     0
 49
-0.5
 74
     0
 49
0.5
 74
     0
 49
-0.5
 74
     0
  0
LTYPE
  5
45
330
4
100
AcDbSymbolTableRecord
100
AcDbLinetypeTableRecord
  2
STYLE_22
 70
     0
  3

 72
    65
 73
     4
 40
0.9999999999999998
 49
0.5
 74
     0
 49
-0.2499999999999999
 74
     0
 49
0.0004999999999999
 74
     0
 49
-0.2495
 74
     0
  0
LTYPE
  5
46
330
4
100
AcDbSymbolTableRecord
100
AcDbLinetypeTableRecord
  2
STYLE_23
 70
     0
  3

 72
    65
 73
     4
 40
0.5000000000000002
 49
0.25
 74
     0
 49
-0.1250000000000001
 74
     0
 49
0.0005
 74
     0
 49
-0.1245
 74
     0
  0
LTYPE
  5
47
330
4
100
AcDbSymbolTableRecord
100
AcDbLinetypeTableRecord
  2
STYLE_24
 70
     0
  3

 72
    65
 73
     4
 40
2.0
 49
1.0
 74
     0
 49
-0.5
 74
     0
 49
0.0004999999999999
 74
     0
 49
-0.4995
 74
     0
  0
ENDTAB
  0
TABLE
  2
LAYER
  5
2
330
0
100
AcDbSymbolTable
 70
    10
  0
LAYER
  5
14
330
2
100
AcDbSymbolTableRecord
100
AcDbLayerTableRecord
  2
0
 70
     0
 62
     7
  6
Continuous
370
    15
390
1D
  0
LAYER
  5
48
330
2
100
AcDbSymbolTableRecord
100
AcDbLayerTableRecord
  2
Defpoints
 70
     0
 62
     7
  6
Continuous
290
     0
370
    -3
390
1D
  0
LAYER
  5
49
330
2
100
AcDbSymbolTableRecord
100
AcDbLayerTableRecord
  2
一般
 70
     0
 62
     7
  6
Continuous
370
     5
390
1D
  0
LAYER
  5
4A
330
2
100
AcDbSymbolTableRecord
100
AcDbLayerTableRecord
  2
寸法
 70
     0
 62
     7
  6
Continuous
370
    15
390
1D
  0
LAYER
  5
4C
330
2
100
AcDbSymbolTableRecord
100
AcDbLayerTableRecord
  2
センター
 70
     0
 62
     7
  6
STYLE_20
370
    15
390
1D
  0
LAYER
  5
4D
330
2
100
AcDbSymbolTableRecord
100
AcDbLayerTableRecord
  2
実形
 70
     0
 62
     7
  6
Continuous
370
    15
390
1D
  0
LAYER
  5
4E
330
2
100
AcDbSymbolTableRecord
100
AcDbLayerTableRecord
  2
補助
 70
     1
 62
     4
  6
Continuous
370
     5
390
1D
  0
LAYER
  5
4F
330
2
100
AcDbSymbolTableRecord
100
AcDbLayerTableRecord
  2
クィチング
 70
     0
 62
     7
  6
Continuous
370
    15
390
1D
  0
LAYER
  5
50
330
2
100
AcDbSymbolTableRecord
100
AcDbLayerTableRecord
  2
文字
 70
     0
 62
     7
  6
Continuous
370
    15
390
1D
  0
LAYER
  5
51
330
2
100
AcDbSymbolTableRecord
100
AcDbLayerTableRecord
  2
CEN
 70
     0
 62
     7
  6
STYLE_20
370
    15
390
1D
  0
ENDTAB
  0
TABLE
  2
STYLE
  5
3
330
0
100
AcDbSymbolTable
 70
     3
  0
STYLE
  5
17
330
3
100
AcDbSymbolTableRecord
100
AcDbTextStyleTableRecord
  2
Standard
 70
     0
 40
0.0
 41
1.0
 50
0.0
 71
     0
 42
0.0
  3
txt
  4
BIGFONT.SHX
  0
STYLE
  5
2E
330
3
100
AcDbSymbolTableRecord
100
AcDbTextStyleTableRecord
  2
Arial
 70
     0
 40
0.0
 41
1.0
 50
0.0
 71
     0
 42
0.0
  3
ARIAL.TTF
  4

1001
ACAD
1000
Arial
1071
        0
  0
STYLE
  5
2F
330
3
100
AcDbSymbolTableRecord
100
AcDbTextStyleTableRecord
  2
ＭＳ ゴシック
 70
     0
 40
0.0
 41
1.0
 50
0.0
 71
     0
 42
0.0
  3
MS Gothic.ttf
  4

1001
ACAD
1000
ＭＳ ゴシック
1071
        0
  0
ENDTAB
  0
TABLE
  2
VIEW
  5
5
330
0
100
AcDbSymbolTable
 70
     0
  0
ENDTAB
  0
TABLE
  2
UCS
  5
6
330
0
100
AcDbSymbolTable
 70
     0
  0
ENDTAB
  0
TABLE
  2
APPID
  5
8
330
0
100
AcDbSymbolTable
 70
     2
  0
APPID
  5
16
330
8
100
AcDbSymbolTableRecord
100
AcDbRegAppTableRecord
  2
ACAD
 70
     0
  0
APPID
  5
677
330
8
100
AcDbSymbolTableRecord
100
AcDbRegAppTableRecord
  2
DCO15
 70
     0
  0
ENDTAB
  0
TABLE
  2
DIMSTYLE
  5
9
330
0
100
AcDbSymbolTable
 70
     2
100
AcDbDimStyleTable
 71
     2
340
1A1
340
18
  0
DIMSTYLE
105
18
330
9
100
AcDbSymbolTableRecord
100
AcDbDimStyleTableRecord
  2
Standard
 70
     0
 41
35.0
 42
65.0
 43
3.75
 44
0.0
141
2.5
340
17
341
18F
342
18B
371
    15
372
    15
  0
DIMSTYLE
105
1A1
102
{ACAD_REACTORS
330
1F6
330
22E
330
26D
330
27B
330
29B
330
29C
330
2F0
330
2FF
330
461
330
48D
330
48E
330
544
330
551
330
5DB
330
60F
330
63B
330
63A
330
668
102
}
330
9
100
AcDbSymbolTableRecord
100
AcDbDimStyleTableRecord
  2
ISO-25
 70
     0
 41
35.0
 42
65.0
 43
3.75
 44
0.0
 73
     0
 74
     0
 77
     1
 78
     8
140
25.0
141
2.5
143
0.03937007874016
147
6.25
171
     3
172
     1
271
     2
272
     2
274
     3
283
     0
284
     8
340
17
341
18F
342
18B
371
    15
372
    15
  0
ENDTAB
  0
TABLE
  2
BLOCK_RECORD
  5
1
330
0
100
AcDbSymbolTable
 70
    21
  0
BLOCK_RECORD
  5
A
330
1
100
AcDbSymbolTableRecord
100
AcDbBlockTableRecord
  2
*MODEL_SPACE
340
20
  0
BLOCK_RECORD
  5
B
330
1
100
AcDbSymbolTableRecord
100
AcDbBlockTableRecord
  2
*PAPER_SPACE
340
21
  0
BLOCK_RECORD
  5
2D
330
1
100
AcDbSymbolTableRecord
100
AcDbBlockTableRecord
  2
*U0
340
0
102
{BLKREFS
331
175
102
}
  0
BLOCK_RECORD
  5
18B
330
1
100
AcDbSymbolTableRecord
100
AcDbBlockTableRecord
  2
_DotSmall
340
0
102
{BLKREFS
331
1FB
331
1FC
331
24A
331
24B
331
280
331
281
331
296
331
297
331
2BA
331
2BB
331
2C4
331
2C5
331
2F5
331
2F6
331
304
331
305
331
466
331
467
331
526
331
527
331
52F
331
530
331
549
331
54A
331
59E
331
59F
331
609
331
60A
331
635
331
636
331
659
331
65A
331
663
331
664
331
66D
331
66E
102
}
  0
BLOCK_RECORD
  5
18F
330
1
100
AcDbSymbolTableRecord
100
AcDbBlockTableRecord
  2
_Open30
340
0
  0
BLOCK_RECORD
  5
1F7
330
1
100
AcDbSymbolTableRecord
100
AcDbBlockTableRecord
  2
*D3
340
0
  0
BLOCK_RECORD
  5
22F
330
1
100
AcDbSymbolTableRecord
100
AcDbBlockTableRecord
  2
*D4
340
0
  0
BLOCK_RECORD
  5
26E
330
1
100
AcDbSymbolTableRecord
100
AcDbBlockTableRecord
  2
*D5
340
0
  0
BLOCK_RECORD
  5
27C
330
1
100
AcDbSymbolTableRecord
100
AcDbBlockTableRecord
  2
*D6
340
0
  0
BLOCK_RECORD
  5
29D
330
1
100
AcDbSymbolTableRecord
100
AcDbBlockTableRecord
  2
*D7
340
0
  0
BLOCK_RECORD
  5
2AA
330
1
100
AcDbSymbolTableRecord
100
AcDbBlockTableRecord
  2
*D8
340
0
  0
BLOCK_RECORD
  5
2F1
330
1
100
AcDbSymbolTableRecord
100
AcDbBlockTableRecord
  2
*D9
340
0
  0
BLOCK_RECORD
  5
300
330
1
100
AcDbSymbolTableRecord
100
AcDbBlockTableRecord
  2
*D10
340
0
  0
BLOCK_RECORD
  5
462
330
1
100
AcDbSymbolTableRecord
100
AcDbBlockTableRecord
  2
*D11
340
0
  0
BLOCK_RECORD
  5
48F
330
1
100
AcDbSymbolTableRecord
100
AcDbBlockTableRecord
  2
*D12
340
0
  0
BLOCK_RECORD
  5
49B
330
1
100
AcDbSymbolTableRecord
100
AcDbBlockTableRecord
  2
*D13
340
0
  0
BLOCK_RECORD
  5
545
330
1
100
AcDbSymbolTableRecord
100
AcDbBlockTableRecord
  2
*D14
340
0
  0
BLOCK_RECORD
  5
552
330
1
100
AcDbSymbolTableRecord
100
AcDbBlockTableRecord
  2
*D15
340
0
  0
BLOCK_RECORD
  5
5DC
330
1
100
AcDbSymbolTableRecord
100
AcDbBlockTableRecord
  2
*D16
340
0
  0
BLOCK_RECORD
  5
610
330
1
100
AcDbSymbolTableRecord
100
AcDbBlockTableRecord
  2
*D17
340
0
  0
BLOCK_RECORD
  5
63C
330
1
100
AcDbSymbolTableRecord
100
AcDbBlockTableRecord
  2
*D18
340
0
  0
BLOCK_RECORD
  5
649
330
1
100
AcDbSymbolTableRecord
100
AcDbBlockTableRecord
  2
*D19
340
0
  0
BLOCK_RECORD
  5
669
330
1
100
AcDbSymbolTableRecord
100
AcDbBlockTableRecord
  2
*D20
340
0
  0
ENDTAB
  0
ENDSEC
  0
SECTION
  2
BLOCKS
  0
BLOCK
  5
D
330
A
100
AcDbEntity
  8
0
100
AcDbBlockBegin
  2
*MODEL_SPACE
 70
     0
 10
0.0
 20
0.0
 30
0.0
  3
*MODEL_SPACE
  1

  0
ENDBLK
  5
E
330
A
100
AcDbEntity
  8
0
100
AcDbBlockEnd
  0
BLOCK
  5
F
330
B
100
AcDbEntity
 67
     1
  8
0
100
AcDbBlockBegin
  2
*PAPER_SPACE
 70
     0
 10
0.0
 20
0.0
 30
0.0
  3
*PAPER_SPACE
  1

  0
ENDBLK
  5
10
330
B
100
AcDbEntity
 67
     1
  8
0
100
AcDbBlockEnd
  0
BLOCK
  5
AD
330
2D
100
AcDbEntity
  8
0
100
AcDbBlockBegin
  2
*U0
 70
     1
 10
0.0
 20
0.0
 30
0.0
  3
*U0
  1

  0
LINE
  5
AE
330
2D
100
AcDbEntity
  8
0
 62
     7
370
    15
100
AcDbLine
 10
-8.150197997738192
 20
-28.02286132648059
 30
0.0
 11
-6.399999999999922
 21
-29.92956951993032
 31
0.0
  0
LINE
  5
AF
330
2D
100
AcDbEntity
  8
0
 62
     7
370
    15
100
AcDbLine
 10
-6.399999999999922
 20
-29.92956951993032
 30
0.0
 11
-8.869069745714629
 21
-29.15340989907115
 31
0.0
  0
LINE
  5
B0
330
2D
100
AcDbEntity
  8
0
 62
     7
370
    15
100
AcDbLine
 10
-6.399999999999922
 20
-29.92956951993032
 30
0.0
 11
-8.509633871726522
 21
-28.58813561277593
 31
0.0
  0
ENDBLK
  5
B1
330
2D
100
AcDbEntity
  8
0
100
AcDbBlockEnd
  0
BLOCK
  5
18C
330
18B
100
AcDbEntity
  8
0
100
AcDbBlockBegin
  2
_DotSmall
 70
     0
 10
0.0
 20
0.0
 30
0.0
  3
_DotSmall
  1

  0
LWPOLYLINE
  5
18D
330
18B
100
AcDbEntity
  8
0
 62
     0
100
AcDbPolyline
 90
        2
 70
     1
 43
0.5
 10
-0.0625
 20
0.0
 42
1.0
 10
0.0625
 20
0.0
 42
1.0
  0
ENDBLK
  5
18E
330
18B
100
AcDbEntity
  8
0
100
AcDbBlockEnd
  0
BLOCK
  5
190
330
18F
100
AcDbEntity
  8
0
100
AcDbBlockBegin
  2
_Open30
 70
     0
 10
0.0
 20
0.0
 30
0.0
  3
_Open30
  1

  0
LINE
  5
191
330
18F
100
AcDbEntity
  8
0
 62
     0
370
    -2
100
AcDbLine
 10
-1.0
 20
0.26794919
 30
0.0
 11
0.0
 21
0.0
 31
0.0
  0
LINE
  5
192
330
18F
100
AcDbEntity
  8
0
 62
     0
370
    -2
100
AcDbLine
 10
0.0
 20
0.0
 30
0.0
 11
-1.0
 21
-0.26794919
 31
0.0
  0
LINE
  5
193
330
18F
100
AcDbEntity
  8
0
 62
     0
370
    -2
100
AcDbLine
 10
0.0
 20
0.0
 30
0.0
 11
-1.0
 21
0.0
 31
0.0
  0
ENDBLK
  5
194
330
18F
100
AcDbEntity
  8
0
100
AcDbBlockEnd
  0
BLOCK
  5
201
330
1F7
100
AcDbEntity
  8
0
370
     0
100
AcDbBlockBegin
  2
*D3
 70
     1
 10
0.0
 20
0.0
 30
0.0
  3
*D3
  1

  0
LINE
  5
1F8
330
1F7
100
AcDbEntity
  8
寸法
  6
Continuous
 62
     0
370
    15
100
AcDbLine
 10
2304.593629999999
 20
2482.705025519931
 30
0.0
 11
2304.593629999999
 21
2587.960759095235
 31
0.0
  0
LINE
  5
1F9
330
1F7
100
AcDbEntity
  8
寸法
  6
Continuous
 62
     0
370
    15
100
AcDbLine
 10
2109.593629999999
 20
2482.705025519928
 30
0.0
 11
2109.593629999999
 21
2587.960759095235
 31
0.0
  0
LINE
  5
1FA
330
1F7
100
AcDbEntity
  8
寸法
  6
Continuous
 62
     0
370
    15
100
AcDbLine
 10
2304.593629999999
 20
2587.960759095235
 30
0.0
 11
2109.593629999999
 21
2587.960759095235
 31
0.0
  0
INSERT
  5
1FB
330
1F7
100
AcDbEntity
  8
寸法
  6
Continuous
 62
     0
370
    15
100
AcDbBlockReference
  2
_DotSmall
 10
2304.593629999999
 20
2587.960759095235
 30
0.0
 41
35.0
 42
35.0
 43
35.0
  0
INSERT
  5
1FC
330
1F7
100
AcDbEntity
  8
寸法
  6
Continuous
 62
     0
370
    15
100
AcDbBlockReference
  2
_DotSmall
 10
2109.593629999999
 20
2587.960759095235
 30
0.0
 41
35.0
 42
35.0
 43
35.0
 50
180.0
  0
MTEXT
  5
1FD
330
1F7
100
AcDbEntity
  8
寸法
  6
Continuous
 62
     0
370
     0
100
AcDbMText
 10
2207.09363
 20
2606.710759095235
 30
0.0
 40
25.0
 41
0.0
 71
     5
 72
     1
  1
195
 73
     1
 44
1.0
1001
ACAD
1000
MTEXTBEGIN
1070
    73
1070
     1
1070
    44
1040
1.0
1070
    74
1070
     0
1000
MTEXTEND
  0
POINT
  5
1FE
330
1F7
100
AcDbEntity
  8
Defpoints
  6
Continuous
 62
     0
370
     0
100
AcDbPoint
 10
2304.593629999999
 20
2417.705025519931
 30
0.0
  0
POINT
  5
1FF
330
1F7
100
AcDbEntity
  8
Defpoints
  6
Continuous
 62
     0
370
     0
100
AcDbPoint
 10
2109.593629999999
 20
2417.705025519929
 30
0.0
  0
POINT
  5
200
330
1F7
100
AcDbEntity
  8
Defpoints
  6
Continuous
 62
     0
370
     0
100
AcDbPoint
 10
2109.593629999999
 20
2587.960759095235
 30
0.0
  0
ENDBLK
  5
202
330
1F7
100
AcDbEntity
  8
0
370
     0
100
AcDbBlockEnd
  0
BLOCK
  5
23A
330
22F
100
AcDbEntity
  8
0
370
     0
100
AcDbBlockBegin
  2
*D4
 70
     1
 10
0.0
 20
0.0
 30
0.0
  3
*D4
  1

  0
LINE
  5
246
330
22F
100
AcDbEntity
  8
寸法
  6
Continuous
 62
     0
370
    15
100
AcDbLine
 10
2090.0
 20
2090.707901519932
 30
0.0
 11
1976.722314771368
 21
2090.707901519932
 31
0.0
  0
LINE
  5
247
330
22F
100
AcDbEntity
  8
寸法
  6
Continuous
 62
     0
370
    15
100
AcDbLine
 10
2090.0
 20
2108.70502551993
 30
0.0
 11
1976.722314771368
 21
2108.70502551993
 31
0.0
  0
LINE
  5
248
330
22F
100
AcDbEntity
  8
寸法
  6
Continuous
 62
     0
370
    15
100
AcDbLine
 10
1976.722314771368
 20
2108.70502551993
 30
0.0
 11
1976.722314771368
 21
2090.707901519932
 31
0.0
  0
LINE
  5
249
330
22F
100
AcDbEntity
  8
寸法
  6
Continuous
 62
     0
370
    15
100
AcDbLine
 10
1976.722314771368
 20
2090.707901519932
 30
0.0
 11
1976.722314771368
 21
2009.874568186598
 31
0.0
  0
INSERT
  5
24A
330
22F
100
AcDbEntity
  8
寸法
  6
Continuous
 62
     0
370
    15
100
AcDbBlockReference
  2
_DotSmall
 10
1976.722314771368
 20
2108.70502551993
 30
0.0
 41
35.0
 42
35.0
 43
35.0
 50
90.0
  0
INSERT
  5
24B
330
22F
100
AcDbEntity
  8
寸法
  6
Continuous
 62
     0
370
    15
100
AcDbBlockReference
  2
_DotSmall
 10
1976.722314771368
 20
2090.707901519932
 30
0.0
 41
35.0
 42
35.0
 43
35.0
 50
270.0
  0
MTEXT
  5
24C
330
22F
100
AcDbEntity
  8
寸法
  6
Continuous
 62
     0
370
     0
100
AcDbMText
 10
1957.972314771368
 20
2032.791234853265
 30
0.0
 40
25.0
 41
0.0
 71
     5
 72
     1
  1
18
 11
0.0000000000000001
 21
1.0
 31
0.0
 73
     1
 44
1.0
1001
ACAD
1000
MTEXTBEGIN
1070
    73
1070
     1
1070
    44
1040
1.0
1070
    74
1070
     0
1000
MTEXTEND
  0
POINT
  5
24D
330
22F
100
AcDbEntity
  8
Defpoints
  6
Continuous
 62
     0
370
     0
100
AcDbPoint
 10
2155.0
 20
2090.707901519932
 30
0.0
  0
POINT
  5
24E
330
22F
100
AcDbEntity
  8
Defpoints
  6
Continuous
 62
     0
370
     0
100
AcDbPoint
 10
2155.0
 20
2108.70502551993
 30
0.0
  0
POINT
  5
24F
330
22F
100
AcDbEntity
  8
Defpoints
  6
Continuous
 62
     0
370
     0
100
AcDbPoint
 10
1976.722314771368
 20
2108.70502551993
 30
0.0
  0
ENDBLK
  5
23B
330
22F
100
AcDbEntity
  8
0
370
     0
100
AcDbBlockEnd
  0
BLOCK
  5
279
330
26E
100
AcDbEntity
  8
0
370
     0
100
AcDbBlockBegin
  2
*D5
 70
     1
 10
0.0
 20
0.0
 30
0.0
  3
*D5
  1

  0
LINE
  5
292
330
26E
100
AcDbEntity
  8
寸法
  6
Continuous
 62
     0
370
    15
100
AcDbLine
 10
2090.0
 20
2108.70502551993
 30
0.0
 11
1976.722314771368
 21
2108.70502551993
 31
0.0
  0
LINE
  5
293
330
26E
100
AcDbEntity
  8
寸法
  6
Continuous
 62
     0
370
    15
100
AcDbLine
 10
2089.999999999999
 20
2135.70502551993
 30
0.0
 11
1976.722314771368
 21
2135.70502551993
 31
0.0
  0
LINE
  5
294
330
26E
100
AcDbEntity
  8
寸法
  6
Continuous
 62
     0
370
    15
100
AcDbLine
 10
1976.722314771368
 20
2108.70502551993
 30
0.0
 11
1976.722314771368
 21
2135.70502551993
 31
0.0
  0
MTEXT
  5
295
330
26E
100
AcDbEntity
  8
寸法
  6
Continuous
 62
     0
370
     0
100
AcDbMText
 10
1953.161932499919
 20
2126.158273152395
 30
0.0
 40
25.0
 41
0.0
 71
     5
 72
     1
  1
27
 11
0.0000000000000001
 21
1.0
 31
0.0
 73
     1
 44
1.0
1001
ACAD
1000
MTEXTBEGIN
1070
    73
1070
     1
1070
    44
1040
1.0
1070
    74
1070
     0
1000
MTEXTEND
  0
INSERT
  5
296
330
26E
100
AcDbEntity
  8
寸法
  6
Continuous
 62
     0
370
    15
100
AcDbBlockReference
  2
_DotSmall
 10
1976.722314771368
 20
2108.70502551993
 30
0.0
 41
35.0
 42
35.0
 43
35.0
 50
270.0
  0
INSERT
  5
297
330
26E
100
AcDbEntity
  8
寸法
  6
Continuous
 62
     0
370
    15
100
AcDbBlockReference
  2
_DotSmall
 10
1976.722314771368
 20
2135.70502551993
 30
0.0
 41
35.0
 42
35.0
 43
35.0
 50
90.0
  0
POINT
  5
298
330
26E
100
AcDbEntity
  8
Defpoints
  6
Continuous
 62
     0
370
     0
100
AcDbPoint
 10
2155.0
 20
2108.70502551993
 30
0.0
  0
POINT
  5
299
330
26E
100
AcDbEntity
  8
Defpoints
  6
Continuous
 62
     0
370
     0
100
AcDbPoint
 10
2155.0
 20
2135.70502551993
 30
0.0
  0
POINT
  5
29A
330
26E
100
AcDbEntity
  8
Defpoints
  6
Continuous
 62
     0
370
     0
100
AcDbPoint
 10
1976.722314771368
 20
2135.70502551993
 30
0.0
  0
ENDBLK
  5
27A
330
26E
100
AcDbEntity
  8
0
370
     0
100
AcDbBlockEnd
  0
BLOCK
  5
286
330
27C
100
AcDbEntity
  8
0
370
     0
100
AcDbBlockBegin
  2
*D6
 70
     1
 10
0.0
 20
0.0
 30
0.0
  3
*D6
  1

  0
LINE
  5
27D
330
27C
100
AcDbEntity
  8
寸法
  6
Continuous
 62
     0
370
    15
100
AcDbLine
 10
2090.0
 20
2135.70502551993
 30
0.0
 11
1976.722314771368
 21
2135.70502551993
 31
0.0
  0
LINE
  5
27E
330
27C
100
AcDbEntity
  8
寸法
  6
Continuous
 62
     0
370
    15
100
AcDbLine
 10
2090.0
 20
2390.70502551993
 30
0.0
 11
1976.722314771368
 21
2390.70502551993
 31
0.0
  0
LINE
  5
27F
330
27C
100
AcDbEntity
  8
寸法
  6
Continuous
 62
     0
370
    15
100
AcDbLine
 10
1976.722314771368
 20
2135.70502551993
 30
0.0
 11
1976.722314771368
 21
2390.70502551993
 31
0.0
  0
INSERT
  5
280
330
27C
100
AcDbEntity
  8
寸法
  6
Continuous
 62
     0
370
    15
100
AcDbBlockReference
  2
_DotSmall
 10
1976.722314771368
 20
2135.70502551993
 30
0.0
 41
35.0
 42
35.0
 43
35.0
 50
270.0
  0
INSERT
  5
281
330
27C
100
AcDbEntity
  8
寸法
  6
Continuous
 62
     0
370
    15
100
AcDbBlockReference
  2
_DotSmall
 10
1976.722314771368
 20
2390.70502551993
 30
0.0
 41
35.0
 42
35.0
 43
35.0
 50
90.0
  0
MTEXT
  5
282
330
27C
100
AcDbEntity
  8
寸法
  6
Continuous
 62
     0
370
     0
100
AcDbMText
 10
1957.972314771368
 20
2263.20502551993
 30
0.0
 40
25.0
 41
0.0
 71
     5
 72
     1
  1
255
 11
0.0000000000000001
 21
1.0
 31
0.0
 73
     1
 44
1.0
1001
ACAD
1000
MTEXTBEGIN
1070
    73
1070
     1
1070
    44
1040
1.0
1070
    74
1070
     0
1000
MTEXTEND
  0
POINT
  5
283
330
27C
100
AcDbEntity
  8
Defpoints
  6
Continuous
 62
     0
370
     0
100
AcDbPoint
 10
2155.0
 20
2135.70502551993
 30
0.0
  0
POINT
  5
284
330
27C
100
AcDbEntity
  8
Defpoints
  6
Continuous
 62
     0
370
     0
100
AcDbPoint
 10
2155.0
 20
2390.70502551993
 30
0.0
  0
POINT
  5
285
330
27C
100
AcDbEntity
  8
Defpoints
  6
Continuous
 62
     0
370
     0
100
AcDbPoint
 10
1976.722314771368
 20
2390.70502551993
 30
0.0
  0
ENDBLK
  5
287
330
27C
100
AcDbEntity
  8
0
370
     0
100
AcDbBlockEnd
  0
BLOCK
  5
2A8
330
29D
100
AcDbEntity
  8
0
370
     0
100
AcDbBlockBegin
  2
*D7
 70
     1
 10
0.0
 20
0.0
 30
0.0
  3
*D7
  1

  0
LINE
  5
2B6
330
29D
100
AcDbEntity
  8
寸法
  6
Continuous
 62
     0
370
    15
100
AcDbLine
 10
2090.0
 20
2435.702149519928
 30
0.0
 11
1976.722314771368
 21
2435.702149519928
 31
0.0
  0
LINE
  5
2B7
330
29D
100
AcDbEntity
  8
寸法
  6
Continuous
 62
     0
370
    15
100
AcDbLine
 10
2090.0
 20
2417.705025519929
 30
0.0
 11
1976.722314771368
 21
2417.705025519929
 31
0.0
  0
LINE
  5
2B8
330
29D
100
AcDbEntity
  8
寸法
  6
Continuous
 62
     0
370
    15
100
AcDbLine
 10
1976.722314771368
 20
2417.705025519929
 30
0.0
 11
1976.722314771368
 21
2435.702149519928
 31
0.0
  0
LINE
  5
2B9
330
29D
100
AcDbEntity
  8
寸法
  6
Continuous
 62
     0
370
    15
100
AcDbLine
 10
1976.722314771368
 20
2435.702149519928
 30
0.0
 11
1976.722314771368
 21
2516.535482853262
 31
0.0
  0
INSERT
  5
2BA
330
29D
100
AcDbEntity
  8
寸法
  6
Continuous
 62
     0
370
    15
100
AcDbBlockReference
  2
_DotSmall
 10
1976.722314771368
 20
2417.705025519929
 30
0.0
 41
35.0
 42
35.0
 43
35.0
 50
270.0
  0
INSERT
  5
2BB
330
29D
100
AcDbEntity
  8
寸法
  6
Continuous
 62
     0
370
    15
100
AcDbBlockReference
  2
_DotSmall
 10
1976.722314771368
 20
2435.702149519928
 30
0.0
 41
35.0
 42
35.0
 43
35.0
 50
90.0
  0
MTEXT
  5
2BC
330
29D
100
AcDbEntity
  8
寸法
  6
Continuous
 62
     0
370
     0
100
AcDbMText
 10
1957.972314771368
 20
2493.618816186595
 30
0.0
 40
25.0
 41
0.0
 71
     5
 72
     1
  1
18
 11
0.0000000000000001
 21
1.0
 31
0.0
 73
     1
 44
1.0
1001
ACAD
1000
MTEXTBEGIN
1070
    73
1070
     1
1070
    44
1040
1.0
1070
    74
1070
     0
1000
MTEXTEND
  0
POINT
  5
2BD
330
29D
100
AcDbEntity
  8
Defpoints
  6
Continuous
 62
     0
370
     0
100
AcDbPoint
 10
2155.0
 20
2435.702149519928
 30
0.0
  0
POINT
  5
2BE
330
29D
100
AcDbEntity
  8
Defpoints
  6
Continuous
 62
     0
370
     0
100
AcDbPoint
 10
2155.0
 20
2417.705025519929
 30
0.0
  0
POINT
  5
2BF
330
29D
100
AcDbEntity
  8
Defpoints
  6
Continuous
 62
     0
370
     0
100
AcDbPoint
 10
1976.722314771368
 20
2417.705025519929
 30
0.0
  0
ENDBLK
  5
2A9
330
29D
100
AcDbEntity
  8
0
370
     0
100
AcDbBlockEnd
  0
BLOCK
  5
2B4
330
2AA
100
AcDbEntity
  8
0
370
     0
100
AcDbBlockBegin
  2
*D8
 70
     1
 10
0.0
 20
0.0
 30
0.0
  3
*D8
  1

  0
LINE
  5
2C0
330
2AA
100
AcDbEntity
  8
寸法
  6
Continuous
 62
     0
370
    15
100
AcDbLine
 10
2090.0
 20
2417.705025519929
 30
0.0
 11
1976.722314771368
 21
2417.705025519929
 31
0.0
  0
LINE
  5
2C1
330
2AA
100
AcDbEntity
  8
寸法
  6
Continuous
 62
     0
370
    15
100
AcDbLine
 10
2089.999999999999
 20
2390.70502551993
 30
0.0
 11
1976.722314771368
 21
2390.70502551993
 31
0.0
  0
LINE
  5
2C2
330
2AA
100
AcDbEntity
  8
寸法
  6
Continuous
 62
     0
370
    15
100
AcDbLine
 10
1976.722314771368
 20
2417.705025519929
 30
0.0
 11
1976.722314771368
 21
2390.70502551993
 31
0.0
  0
MTEXT
  5
2C3
330
2AA
100
AcDbEntity
  8
寸法
  6
Continuous
 62
     0
370
     0
100
AcDbMText
 10
1953.161932499919
 20
2400.251777887465
 30
0.0
 40
25.0
 41
0.0
 71
     5
 72
     1
  1
27
 11
0.0000000000000001
 21
1.0
 31
0.0
 73
     1
 44
1.0
1001
ACAD
1000
MTEXTBEGIN
1070
    73
1070
     1
1070
    44
1040
1.0
1070
    74
1070
     0
1000
MTEXTEND
  0
INSERT
  5
2C4
330
2AA
100
AcDbEntity
  8
寸法
  6
Continuous
 62
     0
370
    15
100
AcDbBlockReference
  2
_DotSmall
 10
1976.722314771368
 20
2417.705025519929
 30
0.0
 41
35.0
 42
35.0
 43
35.0
 50
90.0
  0
INSERT
  5
2C5
330
2AA
100
AcDbEntity
  8
寸法
  6
Continuous
 62
     0
370
    15
100
AcDbBlockReference
  2
_DotSmall
 10
1976.722314771368
 20
2390.70502551993
 30
0.0
 41
35.0
 42
35.0
 43
35.0
 50
270.0
  0
POINT
  5
2C6
330
2AA
100
AcDbEntity
  8
Defpoints
  6
Continuous
 62
     0
370
     0
100
AcDbPoint
 10
2155.0
 20
2417.705025519929
 30
0.0
  0
POINT
  5
2C7
330
2AA
100
AcDbEntity
  8
Defpoints
  6
Continuous
 62
     0
370
     0
100
AcDbPoint
 10
2155.0
 20
2390.70502551993
 30
0.0
  0
POINT
  5
2C8
330
2AA
100
AcDbEntity
  8
Defpoints
  6
Continuous
 62
     0
370
     0
100
AcDbPoint
 10
1976.722314771368
 20
2390.70502551993
 30
0.0
  0
ENDBLK
  5
2B5
330
2AA
100
AcDbEntity
  8
0
370
     0
100
AcDbBlockEnd
  0
BLOCK
  5
2FB
330
2F1
100
AcDbEntity
  8
0
370
     0
100
AcDbBlockBegin
  2
*D9
 70
     1
 10
0.0
 20
0.0
 30
0.0
  3
*D9
  1

  0
LINE
  5
2F2
330
2F1
100
AcDbEntity
  8
寸法
  6
Continuous
 62
     0
370
    15
100
AcDbLine
 10
2025.0
 20
2090.707901519932
 30
0.0
 11
1876.577962857116
 21
2090.707901519932
 31
0.0
  0
LINE
  5
2F3
330
2F1
100
AcDbEntity
  8
寸法
  6
Continuous
 62
     0
370
    15
100
AcDbLine
 10
2025.0
 20
2435.707901519931
 30
0.0
 11
1876.577962857116
 21
2435.707901519931
 31
0.0
  0
LINE
  5
2F4
330
2F1
100
AcDbEntity
  8
寸法
  6
Continuous
 62
     0
370
    15
100
AcDbLine
 10
1876.577962857116
 20
2090.707901519932
 30
0.0
 11
1876.577962857116
 21
2435.707901519931
 31
0.0
  0
INSERT
  5
2F5
330
2F1
100
AcDbEntity
  8
寸法
  6
Continuous
 62
     0
370
    15
100
AcDbBlockReference
  2
_DotSmall
 10
1876.577962857116
 20
2090.707901519932
 30
0.0
 41
35.0
 42
35.0
 43
35.0
 50
270.0
  0
INSERT
  5
2F6
330
2F1
100
AcDbEntity
  8
寸法
  6
Continuous
 62
     0
370
    15
100
AcDbBlockReference
  2
_DotSmall
 10
1876.577962857116
 20
2435.707901519931
 30
0.0
 41
35.0
 42
35.0
 43
35.0
 50
90.0
  0
MTEXT
  5
2F7
330
2F1
100
AcDbEntity
  8
寸法
  6
Continuous
 62
     0
370
     0
100
AcDbMText
 10
1857.827962857116
 20
2263.207901519932
 30
0.0
 40
25.0
 41
0.0
 71
     5
 72
     1
  1
345
 11
0.0000000000000001
 21
1.0
 31
0.0
 73
     1
 44
1.0
1001
ACAD
1000
MTEXTBEGIN
1070
    73
1070
     1
1070
    44
1040
1.0
1070
    74
1070
     0
1000
MTEXTEND
  0
POINT
  5
2F8
330
2F1
100
AcDbEntity
  8
Defpoints
  6
Continuous
 62
     0
370
     0
100
AcDbPoint
 10
2090.0
 20
2090.707901519932
 30
0.0
  0
POINT
  5
2F9
330
2F1
100
AcDbEntity
  8
Defpoints
  6
Continuous
 62
     0
370
     0
100
AcDbPoint
 10
2090.0
 20
2435.707901519931
 30
0.0
  0
POINT
  5
2FA
330
2F1
100
AcDbEntity
  8
Defpoints
  6
Continuous
 62
     0
370
     0
100
AcDbPoint
 10
1876.577962857116
 20
2435.707901519931
 30
0.0
  0
ENDBLK
  5
2FC
330
2F1
100
AcDbEntity
  8
0
370
     0
100
AcDbBlockEnd
  0
BLOCK
  5
30A
330
300
100
AcDbEntity
  8
0
370
     0
100
AcDbBlockBegin
  2
*D10
 70
     1
 10
0.0
 20
0.0
 30
0.0
  3
*D10
  1

  0
LINE
  5
301
330
300
100
AcDbEntity
  8
寸法
  6
Continuous
 62
     0
370
    15
100
AcDbLine
 10
2109.593629999999
 20
2070.70502551993
 30
0.0
 11
2109.593629999999
 21
1875.837731440775
 31
0.0
  0
LINE
  5
302
330
300
100
AcDbEntity
  8
寸法
  6
Continuous
 62
     0
370
    15
100
AcDbLine
 10
2639.59363
 20
2070.70502551993
 30
0.0
 11
2639.59363
 21
1875.837731440775
 31
0.0
  0
LINE
  5
303
330
300
100
AcDbEntity
  8
寸法
  6
Continuous
 62
     0
370
    15
100
AcDbLine
 10
2109.593629999999
 20
1875.837731440775
 30
0.0
 11
2639.59363
 21
1875.837731440775
 31
0.0
  0
INSERT
  5
304
330
300
100
AcDbEntity
  8
寸法
  6
Continuous
 62
     0
370
    15
100
AcDbBlockReference
  2
_DotSmall
 10
2109.593629999999
 20
1875.837731440775
 30
0.0
 41
35.0
 42
35.0
 43
35.0
 50
180.0
  0
INSERT
  5
305
330
300
100
AcDbEntity
  8
寸法
  6
Continuous
 62
     0
370
    15
100
AcDbBlockReference
  2
_DotSmall
 10
2639.59363
 20
1875.837731440775
 30
0.0
 41
35.0
 42
35.0
 43
35.0
  0
MTEXT
  5
306
330
300
100
AcDbEntity
  8
寸法
  6
Continuous
 62
     0
370
     0
100
AcDbMText
 10
2374.593629999999
 20
1894.587731440775
 30
0.0
 40
25.0
 41
0.0
 71
     5
 72
     1
  1
530
 73
     1
 44
1.0
1001
ACAD
1000
MTEXTBEGIN
1070
    73
1070
     1
1070
    44
1040
1.0
1070
    74
1070
     0
1000
MTEXTEND
  0
POINT
  5
307
330
300
100
AcDbEntity
  8
Defpoints
  6
Continuous
 62
     0
370
     0
100
AcDbPoint
 10
2109.593629999999
 20
2135.70502551993
 30
0.0
  0
POINT
  5
308
330
300
100
AcDbEntity
  8
Defpoints
  6
Continuous
 62
     0
370
     0
100
AcDbPoint
 10
2639.59363
 20
2135.70502551993
 30
0.0
  0
POINT
  5
309
330
300
100
AcDbEntity
  8
Defpoints
  6
Continuous
 62
     0
370
     0
100
AcDbPoint
 10
2639.59363
 20
1875.837731440775
 30
0.0
  0
ENDBLK
  5
30B
330
300
100
AcDbEntity
  8
0
370
     0
100
AcDbBlockEnd
  0
BLOCK
  5
46C
330
462
100
AcDbEntity
  8
0
370
     0
100
AcDbBlockBegin
  2
*D11
 70
     1
 10
0.0
 20
0.0
 30
0.0
  3
*D11
  1

  0
LINE
  5
463
330
462
100
AcDbEntity
  8
寸法
  6
Continuous
 62
     0
370
    15
100
AcDbLine
 10
2659.999999999998
 20
2263.207901519932
 30
0.0
 11
2780.993205881863
 21
2263.207901519932
 31
0.0
  0
LINE
  5
464
330
462
100
AcDbEntity
  8
寸法
  6
Continuous
 62
     0
370
    15
100
AcDbLine
 10
2659.999999999998
 20
2090.707901519932
 30
0.0
 11
2780.993205881863
 21
2090.707901519932
 31
0.0
  0
LINE
  5
465
330
462
100
AcDbEntity
  8
寸法
  6
Continuous
 62
     0
370
    15
100
AcDbLine
 10
2780.993205881863
 20
2263.207901519932
 30
0.0
 11
2780.993205881863
 21
2090.707901519932
 31
0.0
  0
INSERT
  5
466
330
462
100
AcDbEntity
  8
寸法
  6
Continuous
 62
     0
370
    15
100
AcDbBlockReference
  2
_DotSmall
 10
2780.993205881863
 20
2263.207901519932
 30
0.0
 41
35.0
 42
35.0
 43
35.0
 50
90.0
  0
INSERT
  5
467
330
462
100
AcDbEntity
  8
寸法
  6
Continuous
 62
     0
370
    15
100
AcDbBlockReference
  2
_DotSmall
 10
2780.993205881863
 20
2090.707901519932
 30
0.0
 41
35.0
 42
35.0
 43
35.0
 50
270.0
  0
MTEXT
  5
468
330
462
100
AcDbEntity
  8
寸法
  6
Continuous
 62
     0
370
     0
100
AcDbMText
 10
2762.243205881863
 20
2176.957901519932
 30
0.0
 40
25.0
 41
0.0
 71
     5
 72
     1
  1
172.5
 11
0.0000000000000001
 21
1.0
 31
0.0
 73
     1
 44
1.0
1001
ACAD
1000
MTEXTBEGIN
1070
    73
1070
     1
1070
    44
1040
1.0
1070
    74
1070
     0
1000
MTEXTEND
  0
POINT
  5
469
330
462
100
AcDbEntity
  8
Defpoints
  6
Continuous
 62
     0
370
     0
100
AcDbPoint
 10
2594.999999999998
 20
2263.207901519932
 30
0.0
  0
POINT
  5
46A
330
462
100
AcDbEntity
  8
Defpoints
  6
Continuous
 62
     0
370
     0
100
AcDbPoint
 10
2594.999999999998
 20
2090.707901519932
 30
0.0
  0
POINT
  5
46B
330
462
100
AcDbEntity
  8
Defpoints
  6
Continuous
 62
     0
370
     0
100
AcDbPoint
 10
2780.993205881863
 20
2090.707901519932
 30
0.0
  0
ENDBLK
  5
46D
330
462
100
AcDbEntity
  8
0
370
     0
100
AcDbBlockEnd
  0
BLOCK
  5
499
330
48F
100
AcDbEntity
  8
0
370
     0
100
AcDbBlockBegin
  2
*D12
 70
     1
 10
0.0
 20
0.0
 30
0.0
  3
*D12
  1

  0
LINE
  5
523
330
48F
100
AcDbEntity
  8
寸法
  6
Continuous
 62
     0
370
    15
100
AcDbLine
 10
2246.59363
 20
1516.733874320626
 30
0.0
 11
2246.59363
 21
1406.506142263864
 31
0.0
  0
LINE
  5
524
330
48F
100
AcDbEntity
  8
寸法
  6
Continuous
 62
     0
370
    15
100
AcDbLine
 10
2362.59363
 20
1516.733874320626
 30
0.0
 11
2362.59363
 21
1406.506142263864
 31
0.0
  0
LINE
  5
525
330
48F
100
AcDbEntity
  8
寸法
  6
Continuous
 62
     0
370
    15
100
AcDbLine
 10
2246.59363
 20
1406.506142263864
 30
0.0
 11
2362.59363
 21
1406.506142263864
 31
0.0
  0
INSERT
  5
526
330
48F
100
AcDbEntity
  8
寸法
  6
Continuous
 62
     0
370
    15
100
AcDbBlockReference
  2
_DotSmall
 10
2246.59363
 20
1406.506142263864
 30
0.0
 41
35.0
 42
35.0
 43
35.0
 50
180.0
  0
INSERT
  5
527
330
48F
100
AcDbEntity
  8
寸法
  6
Continuous
 62
     0
370
    15
100
AcDbBlockReference
  2
_DotSmall
 10
2362.59363
 20
1406.506142263864
 30
0.0
 41
35.0
 42
35.0
 43
35.0
  0
MTEXT
  5
528
330
48F
100
AcDbEntity
  8
寸法
  6
Continuous
 62
     0
370
    15
100
AcDbMText
 10
2304.593629999999
 20
1425.256142263864
 30
0.0
 40
25.0
 41
0.0
 71
     5
 72
     1
  1
116
 73
     1
 44
1.0
1001
ACAD
1000
MTEXTBEGIN
1070
    73
1070
     1
1070
    44
1040
1.0
1070
    74
1070
     0
1000
MTEXTEND
  0
POINT
  5
529
330
48F
100
AcDbEntity
  8
Defpoints
  6
Continuous
 62
     0
370
     0
100
AcDbPoint
 10
2246.59363
 20
1581.733874320626
 30
0.0
  0
POINT
  5
52A
330
48F
100
AcDbEntity
  8
Defpoints
  6
Continuous
 62
     0
370
     0
100
AcDbPoint
 10
2362.59363
 20
1581.733874320626
 30
0.0
  0
POINT
  5
52B
330
48F
100
AcDbEntity
  8
Defpoints
  6
Continuous
 62
     0
370
     0
100
AcDbPoint
 10
2362.59363
 20
1406.506142263864
 30
0.0
  0
ENDBLK
  5
49A
330
48F
100
AcDbEntity
  8
0
370
     0
100
AcDbBlockEnd
  0
BLOCK
  5
4A5
330
49B
100
AcDbEntity
  8
0
370
     0
100
AcDbBlockBegin
  2
*D13
 70
     1
 10
0.0
 20
0.0
 30
0.0
  3
*D13
  1

  0
LINE
  5
52C
330
49B
100
AcDbEntity
  8
寸法
  6
Continuous
 62
     0
370
    15
100
AcDbLine
 10
2260.59363
 20
1516.733874320626
 30
0.0
 11
2260.59363
 21
1471.427730228707
 31
0.0
  0
LINE
  5
52D
330
49B
100
AcDbEntity
  8
寸法
  6
Continuous
 62
     0
370
    15
100
AcDbLine
 10
2348.593629999999
 20
1516.733874320626
 30
0.0
 11
2348.593629999999
 21
1471.427730228707
 31
0.0
  0
LINE
  5
52E
330
49B
100
AcDbEntity
  8
寸法
  6
Continuous
 62
     0
370
    15
100
AcDbLine
 10
2260.59363
 20
1471.427730228707
 30
0.0
 11
2348.593629999999
 21
1471.427730228707
 31
0.0
  0
INSERT
  5
52F
330
49B
100
AcDbEntity
  8
寸法
  6
Continuous
 62
     0
370
    15
100
AcDbBlockReference
  2
_DotSmall
 10
2260.59363
 20
1471.427730228707
 30
0.0
 41
35.0
 42
35.0
 43
35.0
 50
180.0
  0
INSERT
  5
530
330
49B
100
AcDbEntity
  8
寸法
  6
Continuous
 62
     0
370
    15
100
AcDbBlockReference
  2
_DotSmall
 10
2348.593629999999
 20
1471.427730228707
 30
0.0
 41
35.0
 42
35.0
 43
35.0
  0
MTEXT
  5
531
330
49B
100
AcDbEntity
  8
寸法
  6
Continuous
 62
     0
370
    15
100
AcDbMText
 10
2304.593629999999
 20
1490.177730228707
 30
0.0
 40
25.0
 41
0.0
 71
     5
 72
     1
  1
88
 73
     1
 44
1.0
1001
ACAD
1000
MTEXTBEGIN
1070
    73
1070
     1
1070
    44
1040
1.0
1070
    74
1070
     0
1000
MTEXTEND
  0
POINT
  5
532
330
49B
100
AcDbEntity
  8
Defpoints
  6
Continuous
 62
     0
370
     0
100
AcDbPoint
 10
2260.59363
 20
1581.733874320626
 30
0.0
  0
POINT
  5
533
330
49B
100
AcDbEntity
  8
Defpoints
  6
Continuous
 62
     0
370
     0
100
AcDbPoint
 10
2348.593629999999
 20
1581.733874320626
 30
0.0
  0
POINT
  5
534
330
49B
100
AcDbEntity
  8
Defpoints
  6
Continuous
 62
     0
370
     0
100
AcDbPoint
 10
2348.593629999999
 20
1471.427730228707
 30
0.0
  0
ENDBLK
  5
4A6
330
49B
100
AcDbEntity
  8
0
370
     0
100
AcDbBlockEnd
  0
BLOCK
  5
54F
330
545
100
AcDbEntity
  8
0
370
     0
100
AcDbBlockBegin
  2
*D14
 70
     1
 10
0.0
 20
0.0
 30
0.0
  3
*D14
  1

  0
LINE
  5
546
330
545
100
AcDbEntity
  8
寸法
  6
Continuous
 62
     0
370
    15
100
AcDbLine
 10
2059.59363
 20
1710.733874320626
 30
0.0
 11
1893.302269765149
 21
1710.733874320626
 31
0.0
  0
LINE
  5
547
330
545
100
AcDbEntity
  8
寸法
  6
Continuous
 62
     0
370
    15
100
AcDbLine
 10
2059.59363
 20
1556.733874320626
 30
0.0
 11
1893.302269765149
 21
1556.733874320626
 31
0.0
  0
LINE
  5
548
330
545
100
AcDbEntity
  8
寸法
  6
Continuous
 62
     0
370
    15
100
AcDbLine
 10
1893.302269765149
 20
1710.733874320626
 30
0.0
 11
1893.302269765149
 21
1556.733874320626
 31
0.0
  0
INSERT
  5
549
330
545
100
AcDbEntity
  8
寸法
  6
Continuous
 62
     0
370
    15
100
AcDbBlockReference
  2
_DotSmall
 10
1893.302269765149
 20
1710.733874320626
 30
0.0
 41
35.0
 42
35.0
 43
35.0
 50
90.0
  0
INSERT
  5
54A
330
545
100
AcDbEntity
  8
寸法
  6
Continuous
 62
     0
370
    15
100
AcDbBlockReference
  2
_DotSmall
 10
1893.302269765149
 20
1556.733874320626
 30
0.0
 41
35.0
 42
35.0
 43
35.0
 50
270.0
  0
MTEXT
  5
54B
330
545
100
AcDbEntity
  8
寸法
  6
Continuous
 62
     0
370
     0
100
AcDbMText
 10
1874.552269765148
 20
1633.733874320626
 30
0.0
 40
25.0
 41
0.0
 71
     5
 72
     1
  1
154
 11
0.0000000000000001
 21
1.0
 31
0.0
 73
     1
 44
1.0
1001
ACAD
1000
MTEXTBEGIN
1070
    73
1070
     1
1070
    44
1040
1.0
1070
    74
1070
     0
1000
MTEXTEND
  0
POINT
  5
54C
330
545
100
AcDbEntity
  8
Defpoints
  6
Continuous
 62
     0
370
     0
100
AcDbPoint
 10
2124.593629999999
 20
1710.733874320626
 30
0.0
  0
POINT
  5
54D
330
545
100
AcDbEntity
  8
Defpoints
  6
Continuous
 62
     0
370
     0
100
AcDbPoint
 10
2124.593629999999
 20
1556.733874320626
 30
0.0
  0
POINT
  5
54E
330
545
100
AcDbEntity
  8
Defpoints
  6
Continuous
 62
     0
370
     0
100
AcDbPoint
 10
1893.302269765149
 20
1556.733874320626
 30
0.0
  0
ENDBLK
  5
550
330
545
100
AcDbEntity
  8
0
370
     0
100
AcDbBlockEnd
  0
BLOCK
  5
55D
330
552
100
AcDbEntity
  8
0
370
     0
100
AcDbBlockBegin
  2
*D15
 70
     1
 10
0.0
 20
0.0
 30
0.0
  3
*D15
  1

  0
LINE
  5
59A
330
552
100
AcDbEntity
  8
寸法
  6
Continuous
 62
     0
370
    15
100
AcDbLine
 10
2121.668633925985
 20
1556.733874320626
 30
0.0
 11
1935.05478911442
 21
1556.733874320626
 31
0.0
  0
LINE
  5
59B
330
552
100
AcDbEntity
  8
寸法
  6
Continuous
 62
     0
370
    15
100
AcDbLine
 10
2121.668633925985
 20
1571.733874320626
 30
0.0
 11
1935.05478911442
 21
1571.733874320626
 31
0.0
  0
LINE
  5
59C
330
552
100
AcDbEntity
  8
寸法
  6
Continuous
 62
     0
370
    15
100
AcDbLine
 10
1935.05478911442
 20
1571.733874320626
 30
0.0
 11
1935.05478911442
 21
1556.733874320626
 31
0.0
  0
LINE
  5
59D
330
552
100
AcDbEntity
  8
寸法
  6
Continuous
 62
     0
370
    15
100
AcDbLine
 10
1935.05478911442
 20
1556.733874320626
 30
0.0
 11
1935.05478911442
 21
1475.900540987293
 31
0.0
  0
INSERT
  5
59E
330
552
100
AcDbEntity
  8
寸法
  6
Continuous
 62
     0
370
    15
100
AcDbBlockReference
  2
_DotSmall
 10
1935.05478911442
 20
1571.733874320626
 30
0.0
 41
35.0
 42
35.0
 43
35.0
 50
90.0
  0
INSERT
  5
59F
330
552
100
AcDbEntity
  8
寸法
  6
Continuous
 62
     0
370
    15
100
AcDbBlockReference
  2
_DotSmall
 10
1935.05478911442
 20
1556.733874320626
 30
0.0
 41
35.0
 42
35.0
 43
35.0
 50
270.0
  0
MTEXT
  5
5A0
330
552
100
AcDbEntity
  8
寸法
  6
Continuous
 62
     0
370
     0
100
AcDbMText
 10
1916.30478911442
 20
1498.81720765396
 30
0.0
 40
25.0
 41
0.0
 71
     5
 72
     1
  1
15
 11
0.0000000000000001
 21
1.0
 31
0.0
 73
     1
 44
1.0
1001
ACAD
1000
MTEXTBEGIN
1070
    73
1070
     1
1070
    44
1040
1.0
1070
    74
1070
     0
1000
MTEXTEND
  0
POINT
  5
5A1
330
552
100
AcDbEntity
  8
Defpoints
  6
Continuous
 62
     0
370
     0
100
AcDbPoint
 10
2186.668633925985
 20
1556.733874320626
 30
0.0
  0
POINT
  5
5A2
330
552
100
AcDbEntity
  8
Defpoints
  6
Continuous
 62
     0
370
     0
100
AcDbPoint
 10
2186.668633925985
 20
1571.733874320626
 30
0.0
  0
POINT
  5
5A3
330
552
100
AcDbEntity
  8
Defpoints
  6
Continuous
 62
     0
370
     0
100
AcDbPoint
 10
1935.05478911442
 20
1571.733874320626
 30
0.0
  0
ENDBLK
  5
55E
330
552
100
AcDbEntity
  8
0
370
     0
100
AcDbBlockEnd
  0
BLOCK
  5
5E7
330
5DC
100
AcDbEntity
  8
0
370
     0
100
AcDbBlockBegin
  2
*D16
 70
     1
 10
0.0
 20
0.0
 30
0.0
  3
*D16
  1

  0
LINE
  5
605
330
5DC
100
AcDbEntity
  8
寸法
  6
Continuous
 62
     0
370
    15
100
AcDbLine
 10
2109.593629999999
 20
2070.70502551993
 30
0.0
 11
2109.593629999999
 21
1952.682483837736
 31
0.0
  0
LINE
  5
606
330
5DC
100
AcDbEntity
  8
寸法
  6
Continuous
 62
     0
370
    15
100
AcDbLine
 10
2127.593629999999
 20
2070.705025519929
 30
0.0
 11
2127.593629999999
 21
1952.682483837736
 31
0.0
  0
LINE
  5
607
330
5DC
100
AcDbEntity
  8
寸法
  6
Continuous
 62
     0
370
    15
100
AcDbLine
 10
2127.593629999999
 20
1952.682483837736
 30
0.0
 11
2109.593629999999
 21
1952.682483837736
 31
0.0
  0
LINE
  5
608
330
5DC
100
AcDbEntity
  8
寸法
  6
Continuous
 62
     0
370
    15
100
AcDbLine
 10
2109.593629999999
 20
1952.682483837736
 30
0.0
 11
2028.760296666666
 21
1952.682483837736
 31
0.0
  0
INSERT
  5
609
330
5DC
100
AcDbEntity
  8
寸法
  6
Continuous
 62
     0
370
    15
100
AcDbBlockReference
  2
_DotSmall
 10
2127.593629999999
 20
1952.682483837736
 30
0.0
 41
35.0
 42
35.0
 43
35.0
  0
INSERT
  5
60A
330
5DC
100
AcDbEntity
  8
寸法
  6
Continuous
 62
     0
370
    15
100
AcDbBlockReference
  2
_DotSmall
 10
2109.593629999999
 20
1952.682483837736
 30
0.0
 41
35.0
 42
35.0
 43
35.0
 50
180.0
  0
MTEXT
  5
60B
330
5DC
100
AcDbEntity
  8
寸法
  6
Continuous
 62
     0
370
     0
100
AcDbMText
 10
2051.676963333333
 20
1971.432483837736
 30
0.0
 40
25.0
 41
0.0
 71
     5
 72
     1
  1
18
 73
     1
 44
1.0
1001
ACAD
1000
MTEXTBEGIN
1070
    73
1070
     1
1070
    44
1040
1.0
1070
    74
1070
     0
1000
MTEXTEND
  0
POINT
  5
60C
330
5DC
100
AcDbEntity
  8
Defpoints
  6
Continuous
 62
     0
370
     0
100
AcDbPoint
 10
2109.593629999999
 20
2135.70502551993
 30
0.0
  0
POINT
  5
60D
330
5DC
100
AcDbEntity
  8
Defpoints
  6
Continuous
 62
     0
370
     0
100
AcDbPoint
 10
2127.593629999999
 20
2135.705025519929
 30
0.0
  0
POINT
  5
60E
330
5DC
100
AcDbEntity
  8
Defpoints
  6
Continuous
 62
     0
370
     0
100
AcDbPoint
 10
2127.593629999999
 20
1952.682483837736
 30
0.0
  0
ENDBLK
  5
5E8
330
5DC
100
AcDbEntity
  8
0
370
     0
100
AcDbBlockEnd
  0
BLOCK
  5
61B
330
610
100
AcDbEntity
  8
0
370
     0
100
AcDbBlockBegin
  2
*D17
 70
     1
 10
0.0
 20
0.0
 30
0.0
  3
*D17
  1

  0
LINE
  5
631
330
610
100
AcDbEntity
  8
寸法
  6
Continuous
 62
     0
370
    15
100
AcDbLine
 10
2127.593629999999
 20
2070.70502551993
 30
0.0
 11
2127.593629999999
 21
1952.682483837736
 31
0.0
  0
LINE
  5
632
330
610
100
AcDbEntity
  8
寸法
  6
Continuous
 62
     0
370
    15
100
AcDbLine
 10
2154.593629999999
 20
2070.70502551993
 30
0.0
 11
2154.593629999999
 21
1952.682483837736
 31
0.0
  0
LINE
  5
633
330
610
100
AcDbEntity
  8
寸法
  6
Continuous
 62
     0
370
    15
100
AcDbLine
 10
2127.593629999999
 20
1952.682483837736
 30
0.0
 11
2154.593629999999
 21
1952.682483837736
 31
0.0
  0
MTEXT
  5
634
330
610
100
AcDbEntity
  8
寸法
  6
Continuous
 62
     0
370
     0
100
AcDbMText
 10
2155.868770602694
 20
1972.668250246536
 30
0.0
 40
25.0
 41
0.0
 71
     5
 72
     1
  1
27
 73
     1
 44
1.0
1001
ACAD
1000
MTEXTBEGIN
1070
    73
1070
     1
1070
    44
1040
1.0
1070
    74
1070
     0
1000
MTEXTEND
  0
INSERT
  5
635
330
610
100
AcDbEntity
  8
寸法
  6
Continuous
 62
     0
370
    15
100
AcDbBlockReference
  2
_DotSmall
 10
2127.593629999999
 20
1952.682483837736
 30
0.0
 41
35.0
 42
35.0
 43
35.0
 50
180.0
  0
INSERT
  5
636
330
610
100
AcDbEntity
  8
寸法
  6
Continuous
 62
     0
370
    15
100
AcDbBlockReference
  2
_DotSmall
 10
2154.593629999999
 20
1952.682483837736
 30
0.0
 41
35.0
 42
35.0
 43
35.0
  0
POINT
  5
637
330
610
100
AcDbEntity
  8
Defpoints
  6
Continuous
 62
     0
370
     0
100
AcDbPoint
 10
2127.593629999999
 20
2135.70502551993
 30
0.0
  0
POINT
  5
638
330
610
100
AcDbEntity
  8
Defpoints
  6
Continuous
 62
     0
370
     0
100
AcDbPoint
 10
2154.593629999999
 20
2135.70502551993
 30
0.0
  0
POINT
  5
639
330
610
100
AcDbEntity
  8
Defpoints
  6
Continuous
 62
     0
370
     0
100
AcDbPoint
 10
2154.593629999999
 20
1952.682483837736
 30
0.0
  0
ENDBLK
  5
61C
330
610
100
AcDbEntity
  8
0
370
     0
100
AcDbBlockEnd
  0
BLOCK
  5
647
330
63C
100
AcDbEntity
  8
0
370
     0
100
AcDbBlockBegin
  2
*D18
 70
     1
 10
0.0
 20
0.0
 30
0.0
  3
*D18
  1

  0
LINE
  5
655
330
63C
100
AcDbEntity
  8
寸法
  6
Continuous
 62
     0
370
    15
100
AcDbLine
 10
2639.59363
 20
2070.70502551993
 30
0.0
 11
2639.59363
 21
1952.682483837736
 31
0.0
  0
LINE
  5
656
330
63C
100
AcDbEntity
  8
寸法
  6
Continuous
 62
     0
370
    15
100
AcDbLine
 10
2621.59363
 20
2070.705025519929
 30
0.0
 11
2621.59363
 21
1952.682483837736
 31
0.0
  0
LINE
  5
657
330
63C
100
AcDbEntity
  8
寸法
  6
Continuous
 62
     0
370
    15
100
AcDbLine
 10
2621.59363
 20
1952.682483837736
 30
0.0
 11
2639.59363
 21
1952.682483837736
 31
0.0
  0
LINE
  5
658
330
63C
100
AcDbEntity
  8
寸法
  6
Continuous
 62
     0
370
    15
100
AcDbLine
 10
2639.59363
 20
1952.682483837736
 30
0.0
 11
2720.426963333333
 21
1952.682483837736
 31
0.0
  0
INSERT
  5
659
330
63C
100
AcDbEntity
  8
寸法
  6
Continuous
 62
     0
370
    15
100
AcDbBlockReference
  2
_DotSmall
 10
2621.59363
 20
1952.682483837736
 30
0.0
 41
35.0
 42
35.0
 43
35.0
 50
180.0
  0
INSERT
  5
65A
330
63C
100
AcDbEntity
  8
寸法
  6
Continuous
 62
     0
370
    15
100
AcDbBlockReference
  2
_DotSmall
 10
2639.59363
 20
1952.682483837736
 30
0.0
 41
35.0
 42
35.0
 43
35.0
  0
MTEXT
  5
65B
330
63C
100
AcDbEntity
  8
寸法
  6
Continuous
 62
     0
370
     0
100
AcDbMText
 10
2697.510296666666
 20
1971.432483837736
 30
0.0
 40
25.0
 41
0.0
 71
     5
 72
     1
  1
18
 73
     1
 44
1.0
1001
ACAD
1000
MTEXTBEGIN
1070
    73
1070
     1
1070
    44
1040
1.0
1070
    74
1070
     0
1000
MTEXTEND
  0
POINT
  5
65C
330
63C
100
AcDbEntity
  8
Defpoints
  6
Continuous
 62
     0
370
     0
100
AcDbPoint
 10
2639.59363
 20
2135.70502551993
 30
0.0
  0
POINT
  5
65D
330
63C
100
AcDbEntity
  8
Defpoints
  6
Continuous
 62
     0
370
     0
100
AcDbPoint
 10
2621.59363
 20
2135.705025519929
 30
0.0
  0
POINT
  5
65E
330
63C
100
AcDbEntity
  8
Defpoints
  6
Continuous
 62
     0
370
     0
100
AcDbPoint
 10
2621.59363
 20
1952.682483837736
 30
0.0
  0
ENDBLK
  5
648
330
63C
100
AcDbEntity
  8
0
370
     0
100
AcDbBlockEnd
  0
BLOCK
  5
653
330
649
100
AcDbEntity
  8
0
370
     0
100
AcDbBlockBegin
  2
*D19
 70
     1
 10
0.0
 20
0.0
 30
0.0
  3
*D19
  1

  0
LINE
  5
65F
330
649
100
AcDbEntity
  8
寸法
  6
Continuous
 62
     0
370
    15
100
AcDbLine
 10
2621.59363
 20
2070.70502551993
 30
0.0
 11
2621.59363
 21
1952.682483837736
 31
0.0
  0
LINE
  5
660
330
649
100
AcDbEntity
  8
寸法
  6
Continuous
 62
     0
370
    15
100
AcDbLine
 10
2594.59363
 20
2070.70502551993
 30
0.0
 11
2594.59363
 21
1952.682483837736
 31
0.0
  0
LINE
  5
661
330
649
100
AcDbEntity
  8
寸法
  6
Continuous
 62
     0
370
    15
100
AcDbLine
 10
2621.59363
 20
1952.682483837736
 30
0.0
 11
2594.59363
 21
1952.682483837736
 31
0.0
  0
MTEXT
  5
662
330
649
100
AcDbEntity
  8
寸法
  6
Continuous
 62
     0
370
     0
100
AcDbMText
 10
2593.318489397305
 20
1972.668250246536
 30
0.0
 40
25.0
 41
0.0
 71
     5
 72
     1
  1
27
 73
     1
 44
1.0
1001
ACAD
1000
MTEXTBEGIN
1070
    73
1070
     1
1070
    44
1040
1.0
1070
    74
1070
     0
1000
MTEXTEND
  0
INSERT
  5
663
330
649
100
AcDbEntity
  8
寸法
  6
Continuous
 62
     0
370
    15
100
AcDbBlockReference
  2
_DotSmall
 10
2621.59363
 20
1952.682483837736
 30
0.0
 41
35.0
 42
35.0
 43
35.0
  0
INSERT
  5
664
330
649
100
AcDbEntity
  8
寸法
  6
Continuous
 62
     0
370
    15
100
AcDbBlockReference
  2
_DotSmall
 10
2594.59363
 20
1952.682483837736
 30
0.0
 41
35.0
 42
35.0
 43
35.0
 50
180.0
  0
POINT
  5
665
330
649
100
AcDbEntity
  8
Defpoints
  6
Continuous
 62
     0
370
     0
100
AcDbPoint
 10
2621.59363
 20
2135.70502551993
 30
0.0
  0
POINT
  5
666
330
649
100
AcDbEntity
  8
Defpoints
  6
Continuous
 62
     0
370
     0
100
AcDbPoint
 10
2594.59363
 20
2135.70502551993
 30
0.0
  0
POINT
  5
667
330
649
100
AcDbEntity
  8
Defpoints
  6
Continuous
 62
     0
370
     0
100
AcDbPoint
 10
2594.59363
 20
1952.682483837736
 30
0.0
  0
ENDBLK
  5
654
330
649
100
AcDbEntity
  8
0
370
     0
100
AcDbBlockEnd
  0
BLOCK
  5
673
330
669
100
AcDbEntity
  8
0
370
     0
100
AcDbBlockBegin
  2
*D20
 70
     1
 10
0.0
 20
0.0
 30
0.0
  3
*D20
  1

  0
LINE
  5
66A
330
669
100
AcDbEntity
  8
寸法
  6
Continuous
 62
     0
370
    15
100
AcDbLine
 10
2154.593629999999
 20
2005.70502551993
 30
0.0
 11
2154.593629999999
 21
1952.682483837736
 31
0.0
  0
LINE
  5
66B
330
669
100
AcDbEntity
  8
寸法
  6
Continuous
 62
     0
370
    15
100
AcDbLine
 10
2594.59363
 20
2005.70502551993
 30
0.0
 11
2594.59363
 21
1952.682483837736
 31
0.0
  0
LINE
  5
66C
330
669
100
AcDbEntity
  8
寸法
  6
Continuous
 62
     0
370
    15
100
AcDbLine
 10
2154.593629999999
 20
1952.682483837736
 30
0.0
 11
2594.59363
 21
1952.682483837736
 31
0.0
  0
INSERT
  5
66D
330
669
100
AcDbEntity
  8
寸法
  6
Continuous
 62
     0
370
    15
100
AcDbBlockReference
  2
_DotSmall
 10
2154.593629999999
 20
1952.682483837736
 30
0.0
 41
35.0
 42
35.0
 43
35.0
 50
180.0
  0
INSERT
  5
66E
330
669
100
AcDbEntity
  8
寸法
  6
Continuous
 62
     0
370
    15
100
AcDbBlockReference
  2
_DotSmall
 10
2594.59363
 20
1952.682483837736
 30
0.0
 41
35.0
 42
35.0
 43
35.0
  0
MTEXT
  5
66F
330
669
100
AcDbEntity
  8
寸法
  6
Continuous
 62
     0
370
     0
100
AcDbMText
 10
2374.593629999999
 20
1971.432483837736
 30
0.0
 40
25.0
 41
0.0
 71
     5
 72
     1
  1
440
 73
     1
 44
1.0
1001
ACAD
1000
MTEXTBEGIN
1070
    73
1070
     1
1070
    44
1040
1.0
1070
    74
1070
     0
1000
MTEXTEND
  0
POINT
  5
670
330
669
100
AcDbEntity
  8
Defpoints
  6
Continuous
 62
     0
370
     0
100
AcDbPoint
 10
2154.593629999999
 20
2070.70502551993
 30
0.0
  0
POINT
  5
671
330
669
100
AcDbEntity
  8
Defpoints
  6
Continuous
 62
     0
370
     0
100
AcDbPoint
 10
2594.59363
 20
2070.70502551993
 30
0.0
  0
POINT
  5
672
330
669
100
AcDbEntity
  8
Defpoints
  6
Continuous
 62
     0
370
     0
100
AcDbPoint
 10
2594.59363
 20
1952.682483837736
 30
0.0
  0
ENDBLK
  5
674
330
669
100
AcDbEntity
  8
0
370
     0
100
AcDbBlockEnd
  0
ENDSEC
  0
SECTION
  2
ENTITIES
  0
LINE
  5
B2
330
A
100
AcDbEntity
  8
0
100
AcDbLine
 10
1255.0
 20
921.0295695199304
 30
0.0
 11
1529.000000000001
 21
921.0295695199304
 31
0.0
  0
LINE
  5
B3
330
A
100
AcDbEntity
  8
0
100
AcDbLine
 10
1255.0
 20
1119.029569519929
 30
0.0
 11
1255.0
 21
921.0295695199304
 31
0.0
  0
LINE
  5
B4
330
A
100
AcDbEntity
  8
0
100
AcDbLine
 10
1255.0
 20
921.0295695199304
 30
0.0
 11
4035.0
 21
921.0295695199304
 31
0.0
  0
LINE
  5
B5
330
A
100
AcDbEntity
  8
0
100
AcDbLine
 10
1255.0
 20
2839.170335936261
 30
0.0
 11
1255.0
 21
921.0295695199304
 31
0.0
  0
LINE
  5
B6
330
A
100
AcDbEntity
  8
0
100
AcDbLine
 10
4035.0
 20
2839.170335936261
 30
0.0
 11
1255.0
 21
2839.170335936261
 31
0.0
  0
LINE
  5
B7
330
A
100
AcDbEntity
  8
0
100
AcDbLine
 10
4035.0
 20
921.0295695199304
 30
0.0
 11
4035.0
 21
2842.02956951993
 31
0.0
  0
MTEXT
  5
B8
330
A
100
AcDbEntity
  8
0
100
AcDbMText
 10
1310.263288000002
 20
1117.206970767327
 30
0.0
 40
30.0
 41
0.0
 71
     1
 72
     1
  3
{\C7;\l\U+203B\U+5b9f\U+5bf8\U+306b\U+306f\U+88fd\U+9020\U+4e0a\U+306e\U+8aa4\U+5dee\U+304c\U+591a\U+5c11\U+751f\U+305a\U+308b\U+5834\U+5408\U+304c\U+3042\U+308a\U+307e\U+3059\U+3002\U+30b7\U+30f3\U+30af\U+306e\U+7a74\U+3042\U+3051\U+52a0\U+5de5\U+30
  1
6f\U+73fe\U+7269\U+5408\U+308f\U+305b\U+306b\U+3066\U+304a\U+9858\U+3044\U+3057\U+307e\U+3059\U+3002}
  7
ＭＳ ゴシック
 73
     1
 44
0.7891271294271303
1001
ACAD
1000
MTEXTBEGIN
1070
    73
1070
     1
1070
    44
1040
0.7891271294271303
1070
    74
1070
     0
1000
MTEXTEND
  0
LINE
  5
C3
330
A
100
AcDbEntity
  8
実形
100
AcDbLine
 10
2639.59363
 20
2425.70502551993
 30
0.0
 11
2639.59363
 21
2100.707901519932
 31
0.0
  0
LINE
  5
C4
330
A
100
AcDbEntity
  8
実形
100
AcDbLine
 10
2634.593629999999
 20
2425.70502551993
 30
0.0
 11
2634.593629999999
 21
2100.707901519932
 31
0.0
  0
LINE
  5
C5
330
A
100
AcDbEntity
  8
実形
100
AcDbLine
 10
2621.59363
 20
2138.70790151993
 30
0.0
 11
2621.59363
 21
2387.705025519931
 31
0.0
  0
LINE
  5
C6
330
A
100
AcDbEntity
  8
実形
100
AcDbLine
 10
2626.59363
 20
2138.70790151993
 30
0.0
 11
2626.59363
 21
2387.705025519931
 31
0.0
  0
ARC
  5
C7
330
A
100
AcDbEntity
  8
実形
100
AcDbCircle
 10
2591.59363
 20
2138.70790151993
 30
0.0
 40
30.0
100
AcDbArc
 50
270.0
 51
0.0
  0
ARC
  5
C8
330
A
100
AcDbEntity
  8
実形
100
AcDbCircle
 10
2591.59363
 20
2138.70790151993
 30
0.0
 40
35.0
100
AcDbArc
 50
270.0
 51
0.0
  0
LINE
  5
C9
330
A
100
AcDbEntity
  8
実形
100
AcDbLine
 10
2629.59363
 20
2095.707901519932
 30
0.0
 11
2119.59363
 21
2095.707901519932
 31
0.0
  0
ARC
  5
CA
330
A
100
AcDbEntity
  8
実形
100
AcDbCircle
 10
2629.59363
 20
2100.707901519932
 30
0.0
 40
5.0
100
AcDbArc
 50
270.0
 51
0.0
  0
ARC
  5
CB
330
A
100
AcDbEntity
  8
実形
100
AcDbCircle
 10
2629.59363
 20
2100.707901519932
 30
0.0
 40
10.0
100
AcDbArc
 50
270.0
 51
0.0
  0
LINE
  5
CC
330
A
100
AcDbEntity
  8
実形
100
AcDbLine
 10
2157.593629999999
 20
2108.707901519931
 30
0.0
 11
2591.59363
 21
2108.707901519931
 31
0.0
  0
LINE
  5
CD
330
A
100
AcDbEntity
  8
実形
100
AcDbLine
 10
2157.593629999999
 20
2103.707901519931
 30
0.0
 11
2594.600000000001
 21
2103.707901519931
 31
0.0
  0
LINE
  5
CE
330
A
100
AcDbEntity
  8
実形
100
AcDbLine
 10
2594.5
 20
2422.705025519932
 30
0.0
 11
2157.593629999999
 21
2422.705025519932
 31
0.0
  0
LINE
  5
CF
330
A
100
AcDbEntity
  8
実形
100
AcDbLine
 10
2119.59363
 20
2430.70502551993
 30
0.0
 11
2629.59363
 21
2430.70502551993
 31
0.0
  0
LINE
  5
D0
330
A
100
AcDbEntity
  8
実形
100
AcDbLine
 10
2119.59363
 20
2435.70502551993
 30
0.0
 11
2629.59363
 21
2435.70502551993
 31
0.0
  0
LINE
  5
D1
330
A
100
AcDbEntity
  8
実形
100
AcDbLine
 10
2591.59363
 20
2417.705025519931
 30
0.0
 11
2157.593629999999
 21
2417.705025519931
 31
0.0
  0
ARC
  5
D2
330
A
100
AcDbEntity
  8
実形
100
AcDbCircle
 10
2157.593629999999
 20
2387.705025519931
 30
0.0
 40
35.0
100
AcDbArc
 50
90.0
 51
180.0
  0
ARC
  5
D3
330
A
100
AcDbEntity
  8
実形
100
AcDbCircle
 10
2119.59363
 20
2425.70502551993
 30
0.0
 40
5.0
100
AcDbArc
 50
90.0
 51
90.0
  0
ARC
  5
D4
330
A
100
AcDbEntity
  8
実形
100
AcDbCircle
 10
2119.59363
 20
2425.70502551993
 30
0.0
 40
5.0
100
AcDbArc
 50
90.0
 51
180.0
  0
ARC
  5
D5
330
A
100
AcDbEntity
  8
実形
100
AcDbCircle
 10
2119.59363
 20
2425.70502551993
 30
0.0
 40
10.0
100
AcDbArc
 50
90.0
 51
180.0
  0
ARC
  5
D6
330
A
100
AcDbEntity
  8
実形
100
AcDbCircle
 10
2157.593629999999
 20
2387.705025519931
 30
0.0
 40
30.0
100
AcDbArc
 50
90.0
 51
180.0
  0
ARC
  5
D7
330
A
100
AcDbEntity
  8
実形
100
AcDbCircle
 10
2591.59363
 20
2387.705025519931
 30
0.0
 40
35.0
100
AcDbArc
 50
0.0
 51
90.0
  0
ARC
  5
D8
330
A
100
AcDbEntity
  8
実形
100
AcDbCircle
 10
2629.59363
 20
2425.70502551993
 30
0.0
 40
5.0
100
AcDbArc
 50
0.0
 51
90.0
  0
ARC
  5
D9
330
A
100
AcDbEntity
  8
実形
100
AcDbCircle
 10
2629.59363
 20
2425.70502551993
 30
0.0
 40
5.0
100
AcDbArc
 50
90.0
 51
90.0
  0
ARC
  5
DA
330
A
100
AcDbEntity
  8
実形
100
AcDbCircle
 10
2629.59363
 20
2425.70502551993
 30
0.0
 40
10.0
100
AcDbArc
 50
0.0
 51
90.0
  0
ARC
  5
DB
330
A
100
AcDbEntity
  8
実形
100
AcDbCircle
 10
2591.59363
 20
2387.705025519931
 30
0.0
 40
30.0
100
AcDbArc
 50
0.0
 51
90.0
  0
LINE
  5
DC
330
A
100
AcDbEntity
  8
実形
100
AcDbLine
 10
2122.593629999999
 20
2387.705025519931
 30
0.0
 11
2122.593629999999
 21
2138.70790151993
 31
0.0
  0
LINE
  5
DD
330
A
100
AcDbEntity
  8
実形
100
AcDbLine
 10
2114.593629999999
 20
2100.707901519932
 30
0.0
 11
2114.593629999999
 21
2425.70502551993
 31
0.0
  0
LINE
  5
DE
330
A
100
AcDbEntity
  8
実形
100
AcDbLine
 10
2109.593629999999
 20
2100.707901519932
 30
0.0
 11
2109.593629999999
 21
2425.70502551993
 31
0.0
  0
LINE
  5
DF
330
A
100
AcDbEntity
  8
実形
100
AcDbLine
 10
2127.593629999999
 20
2387.705025519931
 30
0.0
 11
2127.593629999999
 21
2138.70790151993
 31
0.0
  0
ARC
  5
E0
330
A
100
AcDbEntity
  8
実形
100
AcDbCircle
 10
2119.59363
 20
2100.707901519932
 30
0.0
 40
5.0
100
AcDbArc
 50
180.0
 51
270.0
  0
ARC
  5
E1
330
A
100
AcDbEntity
  8
実形
100
AcDbCircle
 10
2119.59363
 20
2100.707901519932
 30
0.0
 40
10.0
100
AcDbArc
 50
180.0
 51
270.0
  0
ARC
  5
E2
330
A
100
AcDbEntity
  8
実形
100
AcDbCircle
 10
2157.593629999999
 20
2138.70790151993
 30
0.0
 40
35.0
100
AcDbArc
 50
180.0
 51
270.0
  0
ARC
  5
E3
330
A
100
AcDbEntity
  8
実形
100
AcDbCircle
 10
2157.593629999999
 20
2138.70790151993
 30
0.0
 40
30.0
100
AcDbArc
 50
180.0
 51
270.0
  0
LINE
  5
E4
330
A
100
AcDbEntity
  8
実形
100
AcDbLine
 10
2629.59363
 20
2090.707901519932
 30
0.0
 11
2119.59363
 21
2090.707901519932
 31
0.0
  0
MTEXT
  5
E5
330
A
100
AcDbEntity
  8
実形
100
AcDbMText
 10
3622.5
 20
2755.836313328047
 30
0.0
 40
35.0
 41
0.0
 71
     2
 72
     1
  1
{\C7;\lSUS304}
  7
ＭＳ ゴシック
 73
     1
 44
0.7891271294271309
1001
ACAD
1000
MTEXTBEGIN
1070
    73
1070
     1
1070
    44
1040
0.7891271294271309
1070
    74
1070
     0
1000
MTEXTEND
  0
MTEXT
  5
E6
330
A
100
AcDbEntity
  8
実形
100
AcDbMText
 10
3400.0
 20
2755.836313328047
 30
0.0
 40
35.0
 41
0.0
 71
     2
 72
     1
  1
{\C7;\l\U+5929\U+3000\U+677f}
  7
ＭＳ ゴシック
 73
     1
 44
0.7891271294271309
1001
ACAD
1000
MTEXTBEGIN
1070
    73
1070
     1
1070
    44
1040
0.7891271294271309
1070
    74
1070
     0
1000
MTEXTEND
  0
LINE
  5
E7
330
A
100
AcDbEntity
  8
0
100
AcDbLine
 10
3760.0
 20
2644.17033593626
 30
0.0
 11
3760.0
 21
2839.170335936261
 31
0.0
  0
LINE
  5
E8
330
A
100
AcDbEntity
  8
0
100
AcDbLine
 10
3485.0
 20
2644.17033593626
 30
0.0
 11
3485.0
 21
2839.170335936261
 31
0.0
  0
LINE
  5
E9
330
A
100
AcDbEntity
  8
0
100
AcDbLine
 10
3315.0
 20
2644.17033593626
 30
0.0
 11
3315.0
 21
2839.170335936261
 31
0.0
  0
LINE
  5
EA
330
A
100
AcDbEntity
  8
0
100
AcDbLine
 10
4035.0
 20
2644.17033593626
 30
0.0
 11
3315.0
 21
2644.17033593626
 31
0.0
  0
LINE
  5
EB
330
A
100
AcDbEntity
  8
0
100
AcDbLine
 10
4035.0
 20
2709.17033593626
 30
0.0
 11
3315.0
 21
2709.17033593626
 31
0.0
  0
MTEXT
  5
EC
330
A
100
AcDbEntity
  8
実形
100
AcDbMText
 10
3897.5
 20
2690.836313328047
 30
0.0
 40
35.0
 41
0.0
 71
     2
 72
     1
  1
{\C7;\l0.7\U+ff4d\U+ff4d}
  7
ＭＳ ゴシック
 73
     1
 44
0.7891271294271309
1001
ACAD
1000
MTEXTBEGIN
1070
    73
1070
     1
1070
    44
1040
0.7891271294271309
1070
    74
1070
     0
1000
MTEXTEND
  0
MTEXT
  5
ED
330
A
100
AcDbEntity
  8
実形
100
AcDbMText
 10
3622.5
 20
2690.836313328047
 30
0.0
 40
35.0
 41
0.0
 71
     2
 72
     1
  1
{\C7;\lSUS304}
  7
ＭＳ ゴシック
 73
     1
 44
0.7891271294271309
1001
ACAD
1000
MTEXTBEGIN
1070
    73
1070
     1
1070
    44
1040
0.7891271294271309
1070
    74
1070
     0
1000
MTEXTEND
  0
LINE
  5
EE
330
A
100
AcDbEntity
  8
0
100
AcDbLine
 10
4035.0
 20
2774.170335936261
 30
0.0
 11
3315.0
 21
2774.170335936261
 31
0.0
  0
MTEXT
  5
EF
330
A
100
AcDbEntity
  8
実形
100
AcDbMText
 10
3897.5
 20
2820.836313328047
 30
0.0
 40
35.0
 41
0.0
 71
     2
 72
     1
  1
{\C7;\l\U+7d20\U+6750\U+5bf8\U+6cd5}
  7
ＭＳ ゴシック
 73
     1
 44
0.7891271294271309
1001
ACAD
1000
MTEXTBEGIN
1070
    73
1070
     1
1070
    44
1040
0.7891271294271309
1070
    74
1070
     0
1000
MTEXTEND
  0
MTEXT
  5
F0
330
A
100
AcDbEntity
  8
実形
100
AcDbMText
 10
3622.5
 20
2820.836313328047
 30
0.0
 40
35.0
 41
0.0
 71
     2
 72
     1
  1
{\C7;\l\U+6750\U+8cea}
  7
ＭＳ ゴシック
 73
     1
 44
0.7891271294271309
1001
ACAD
1000
MTEXTBEGIN
1070
    73
1070
     1
1070
    44
1040
0.7891271294271309
1070
    74
1070
     0
1000
MTEXTEND
  0
MTEXT
  5
F1
330
A
100
AcDbEntity
  8
実形
100
AcDbMText
 10
3400.0
 20
2820.836313328047
 30
0.0
 40
35.0
 41
0.0
 71
     2
 72
     1
  1
{\C7;\l\U+90e8\U+54c1\U+540d}
  7
ＭＳ ゴシック
 73
     1
 44
0.7891271294271309
1001
ACAD
1000
MTEXTBEGIN
1070
    73
1070
     1
1070
    44
1040
0.7891271294271309
1070
    74
1070
     0
1000
MTEXTEND
  0
MTEXT
  5
F2
330
A
100
AcDbEntity
  8
実形
100
AcDbMText
 10
3376.78090389425
 20
1034.830078630324
 30
0.0
 40
35.0
 41
0.0
 71
     2
 72
     1
  1
{\C7;\l\U+5c3a\U+5ea6}
  7
ＭＳ ゴシック
 73
     1
 44
0.7891271294271309
1001
ACAD
1000
MTEXTBEGIN
1070
    73
1070
     1
1070
    44
1040
0.7891271294271309
1070
    74
1070
     0
1000
MTEXTEND
  0
MTEXT
  5
F3
330
A
100
AcDbEntity
  8
実形
100
AcDbMText
 10
3376.78090389425
 20
1099.830078630324
 30
0.0
 40
35.0
 41
0.0
 71
     2
 72
     1
  1
{\C7;\l\U+54c1\U+756a}
  7
ＭＳ ゴシック
 73
     1
 44
0.7891271294271309
1001
ACAD
1000
MTEXTBEGIN
1070
    73
1070
     1
1070
    44
1040
0.7891271294271309
1070
    74
1070
     0
1000
MTEXTEND
  0
LINE
  5
F4
330
A
100
AcDbEntity
  8
0
100
AcDbLine
 10
3315.0
 20
986.0295695199305
 30
0.0
 11
4035.0
 21
986.0295695199305
 31
0.0
  0
LINE
  5
F5
330
A
100
AcDbEntity
  8
0
100
AcDbLine
 10
3315.0
 20
1116.02956951993
 30
0.0
 11
4035.0
 21
1116.02956951993
 31
0.0
  0
LINE
  5
F6
330
A
100
AcDbEntity
  8
0
100
AcDbLine
 10
3315.0
 20
1051.02956951993
 30
0.0
 11
4035.0
 21
1051.02956951993
 31
0.0
  0
LINE
  5
F7
330
A
100
AcDbEntity
  8
0
100
AcDbLine
 10
3315.0
 20
921.0295695199304
 30
0.0
 11
3315.0
 21
1116.02956951993
 31
0.0
  0
MTEXT
  5
F8
330
A
100
AcDbEntity
  8
0
100
AcDbMText
 10
3736.780903894249
 20
1109.260041160636
 30
0.0
 40
32.57191201353637
 41
0.0
 71
     2
 72
     1
  1
{\C7;\lHL}{\f\U+ff2d\U+ff33 \U+30b4\U+30b7\U+30c3\U+30af|b0|i0|c0|p0;\C7;\H1.058x;\lm}{\f\U+ff2d\U+ff33 \U+30b4\U+30b7\U+30c3\U+30af|b0|i0|c0|p0;\C7;\H1.075x;\l/m530-345}{\C7;\lS}
  7
Arial
 73
     1
 44
0.7891271294271309
1001
ACAD
1000
MTEXTBEGIN
1070
    73
1070
     1
1070
    44
1040
0.7891271294271309
1070
    74
1070
     0
1000
MTEXTEND
  0
LINE
  5
F9
330
A
100
AcDbEntity
  8
0
100
AcDbLine
 10
3435.0
 20
986.0295695199305
 30
0.0
 11
4035.0
 21
986.0295695199305
 31
0.0
  0
LINE
  5
FA
330
A
100
AcDbEntity
  8
0
100
AcDbLine
 10
3435.0
 20
986.0295695199305
 30
0.0
 11
3435.0
 21
1116.02956951993
 31
0.0
  0
MTEXT
  5
FB
330
A
100
AcDbEntity
  8
0
100
AcDbMText
 10
3736.780903894249
 20
1034.830078630324
 30
0.0
 40
35.0
 41
0.0
 71
     2
 72
     1
  1
{\C7;\l1\U+ff1a10}
  7
ＭＳ ゴシック
 73
     1
 44
0.7891271294271309
1001
ACAD
1000
MTEXTBEGIN
1070
    73
1070
     1
1070
    44
1040
0.7891271294271309
1070
    74
1070
     0
1000
MTEXTEND
  0
LINE
  5
FC
330
A
100
AcDbEntity
  8
CEN
100
AcDbLine
 10
4035.0
 20
986.0295695199305
 30
0.0
 11
4035.0
 21
1051.02956951993
 31
0.0
  0
LINE
  5
FD
330
A
100
AcDbEntity
  8
0
100
AcDbLine
 10
4035.0
 20
1051.02956951993
 30
0.0
 11
4035.0
 21
1116.02956951993
 31
0.0
  0
LINE
  5
FE
330
A
100
AcDbEntity
  8
0
100
AcDbLine
 10
4035.0
 20
921.0295695199304
 30
0.0
 11
4035.0
 21
986.0295695199305
 31
0.0
  0
MTEXT
  5
FF
330
A
100
AcDbEntity
  8
実形
100
AcDbMText
 10
3897.5
 20
2755.836313328047
 30
0.0
 40
35.0
 41
0.0
 71
     2
 72
     1
  1
{\C7;\l1.0\U+ff4d\U+ff4d}
  7
ＭＳ ゴシック
 73
     1
 44
0.7891271294271309
1001
ACAD
1000
MTEXTBEGIN
1070
    73
1070
     1
1070
    44
1040
0.7891271294271309
1070
    74
1070
     0
1000
MTEXTEND
  0
MTEXT
  5
100
330
A
100
AcDbEntity
  8
実形
 62
     7
100
AcDbMText
 10
3387.985073454546
 20
982.4059251705692
 30
0.0
 40
45.27623507186345
 41
0.0
 71
     1
 72
     1
  1
 e{\H0.7183x;\l-KITCHEN }{\H0.2817x;\lU-ARCHITECTURE WORKS}
  7
Arial
 73
     1
 44
0.9751459154820899
1001
ACAD
1000
MTEXTBEGIN
1070
    73
1070
     1
1070
    44
1040
0.9751459154820899
1070
    74
1070
     0
1000
MTEXTEND
  0
MTEXT
  5
101
330
A
100
AcDbEntity
  8
実形
 62
     7
100
AcDbMText
 10
3335.730777157678
 20
2696.556074471589
 30
0.0
 40
35.53655312005861
 41
0.0
 71
     1
 72
     1
  1
\U+30dc\U+30fc\U+30eb
  7
ＭＳ ゴシック
 73
     1
 44
0.785970620909422
1001
ACAD
1000
MTEXTBEGIN
1070
    73
1070
     1
1070
    44
1040
0.785970620909422
1070
    74
1070
     0
1000
MTEXTEND
  0
CIRCLE
  5
112
330
A
100
AcDbEntity
  8
実形
100
AcDbCircle
 10
2304.593629999999
 20
2263.207901519932
 30
0.0
 40
58.0
  0
LINE
  5
133
330
A
100
AcDbEntity
  8
寸法
  6
STYLE_20
370
    15
100
AcDbLine
 10
2304.593629999999
 20
2178.733874320625
 30
0.0
 11
2304.593629999999
 21
2448.733874320625
 31
0.0
  0
LINE
  5
134
330
A
100
AcDbEntity
  8
寸法
  6
STYLE_20
370
    15
100
AcDbLine
 10
2098.718630000001
 20
2263.207901519932
 30
0.0
 11
2663.000000000004
 21
2263.207901519932
 31
0.0
  0
CIRCLE
  5
135
330
A
100
AcDbEntity
  8
実形
100
AcDbCircle
 10
2304.593629999999
 20
2263.207901519932
 30
0.0
 40
44.0000000000009
  0
ARC
  5
136
330
A
100
AcDbEntity
  8
実形
100
AcDbCircle
 10
2374.999999999998
 20
3635.707901519932
 30
0.0
 40
1500.0
100
AcDbArc
 50
265.4610555767966
 51
274.5389444232033
  0
ARC
  5
137
330
A
100
AcDbEntity
  8
実形
100
AcDbCircle
 10
2374.593629999999
 20
890.707901519929
 30
0.0
 40
1500.0
100
AcDbArc
 50
85.46105557679659
 51
94.53894442320343
  0
LINE
  5
138
330
A
100
AcDbEntity
  8
実形
100
AcDbLine
 10
2155.0
 20
2250.06725546483
 30
0.0
 11
2155.0
 21
2276.348547575031
 31
0.0
  0
LINE
  5
139
330
A
100
AcDbEntity
  8
実形
100
AcDbLine
 10
2594.999999999998
 20
2250.06725546483
 30
0.0
 11
2594.999999999998
 21
2276.348547575031
 31
0.0
  0
ARC
  5
13A
330
A
100
AcDbEntity
  8
実形
100
AcDbCircle
 10
2264.999999999998
 20
2250.06725546483
 30
0.0
 40
110.0
100
AcDbArc
 50
180.0
 51
265.4610555767969
  0
ARC
  5
13B
330
A
100
AcDbEntity
  8
実形
100
AcDbCircle
 10
2484.999999999998
 20
2250.06725546483
 30
0.0
 40
110.0000000000004
100
AcDbArc
 50
274.5389444232031
 51
0.0
  0
ARC
  5
13C
330
A
100
AcDbEntity
  8
実形
100
AcDbCircle
 10
2484.999999999998
 20
2276.348547575031
 30
0.0
 40
110.0
100
AcDbArc
 50
0.0
 51
85.46105557679693
  0
ARC
  5
13D
330
A
100
AcDbEntity
  8
実形
100
AcDbCircle
 10
2264.999999999998
 20
2276.348547575031
 30
0.0
 40
110.0000000000004
100
AcDbArc
 50
94.53894442320311
 51
180.0
  0
LINE
  5
13E
330
A
100
AcDbEntity
  8
実形
  6
Continuous
 62
     7
370
     5
100
AcDbLine
 10
2119.59363
 20
2435.70502551993
 30
0.0
 11
2145.0
 21
2435.70502551993
 31
0.0
  0
LINE
  5
140
330
A
100
AcDbEntity
  8
実形
100
AcDbLine
 10
2139.59363
 20
1710.733874320626
 30
0.0
 11
2609.593629999999
 21
1710.733874320626
 31
0.0
  0
LINE
  5
141
330
A
100
AcDbEntity
  8
実形
 62
   211
100
AcDbLine
 10
2139.59363
 20
1710.733874320626
 30
0.0
 11
2609.593629999999
 21
1710.733874320626
 31
0.0
  0
LINE
  5
142
330
A
100
AcDbEntity
  8
実形
100
AcDbLine
 10
2362.593629999999
 20
1556.733874320626
 30
0.0
 11
2362.593629999999
 21
1546.733874320626
 31
0.0
  0
LINE
  5
143
330
A
100
AcDbEntity
  8
実形
100
AcDbLine
 10
2362.593629999999
 20
1546.733874320626
 30
0.0
 11
2246.59363
 21
1546.733874320626
 31
0.0
  0
LINE
  5
144
330
A
100
AcDbEntity
  8
実形
100
AcDbLine
 10
2246.59363
 20
1546.733874320626
 30
0.0
 11
2246.59363
 21
1556.733874320626
 31
0.0
  0
LINE
  5
145
330
A
100
AcDbEntity
  8
実形
100
AcDbLine
 10
2246.59363
 20
1556.733874320626
 30
0.0
 11
2362.593629999999
 21
1556.733874320626
 31
0.0
  0
LINE
  5
146
330
A
100
AcDbEntity
  8
実形
100
AcDbLine
 10
2155.0
 20
1700.733874320626
 30
0.0
 11
2155.0
 21
1595.733874320626
 31
0.0
  0
LINE
  5
147
330
A
100
AcDbEntity
  8
実形
100
AcDbLine
 10
2180.172440722647
 20
1567.62967202889
 30
0.0
 11
2247.000000000001
 21
1556.733874320626
 31
0.0
  0
LINE
  5
148
330
A
100
AcDbEntity
  8
実形
100
AcDbLine
 10
2362.999999999999
 20
1556.733874320626
 30
0.0
 11
2566.93561367714
 21
1569.919366584234
 31
0.0
  0
LINE
  5
149
330
A
100
AcDbEntity
  8
実形
100
AcDbLine
 10
2595.0
 20
1603.856858123989
 30
0.0
 11
2595.0
 21
1700.733874320626
 31
0.0
  0
ARC
  5
14A
330
A
100
AcDbEntity
  8
実形
100
AcDbCircle
 10
2185.0
 20
1597.238702263328
 30
0.0
 40
30.0
100
AcDbArc
 50
180.0
 51
260.7397784688296
  0
ARC
  5
14B
330
A
100
AcDbEntity
  8
実形
100
AcDbCircle
 10
2565.0
 20
1599.856858123989
 30
0.0
 40
29.99999999999941
100
AcDbArc
 50
273.6993194922882
 51
0.0
  0
MTEXT
  5
14C
330
A
100
AcDbEntity
  8
寸法
100
AcDbMText
 10
2479.120998366987
 20
1637.282097670881
 30
0.0
 40
25.0
 41
0.0
 71
     1
 72
     1
  1
{\C7;\l30R}
  7
ＭＳ ゴシック
 73
     1
 44
0.7859706209094221
1001
ACAD
1000
MTEXTBEGIN
1070
    73
1070
     1
1070
    44
1040
0.7859706209094221
1070
    74
1070
     0
1000
MTEXTEND
  0
LINE
  5
152
330
A
100
AcDbEntity
  8
補助
100
AcDbLine
 10
1340.459363
 20
1015.69484891993
 30
0.0
 11
1340.459363
 21
956.0
 31
0.0
  0
LINE
  5
153
330
A
100
AcDbEntity
  8
補助
100
AcDbLine
 10
1359.959363
 20
1046.8
 30
0.0
 11
1359.959363
 21
999.0
 31
0.0
  0
LINE
  5
154
330
A
100
AcDbEntity
  8
補助
100
AcDbLine
 10
1359.959363
 20
999.0
 30
0.0
 11
1359.959363
 21
976.7999999999997
 31
0.0
  0
LINE
  5
155
330
A
100
AcDbEntity
  8
補助
100
AcDbLine
 10
1354.159363
 20
1055.24740271993
 30
0.0
 11
1354.159363
 21
999.0
 31
0.0
  0
LINE
  5
156
330
A
100
AcDbEntity
  8
補助
100
AcDbLine
 10
1354.159363
 20
999.0
 30
0.0
 11
1354.159363
 21
972.0
 31
0.0
  0
LINE
  5
157
330
A
100
AcDbEntity
  8
補助
100
AcDbLine
 10
1364.359363
 20
1055.24740271993
 30
0.0
 11
1364.359363
 21
999.0
 31
0.0
  0
LINE
  5
158
330
A
100
AcDbEntity
  8
補助
100
AcDbLine
 10
1364.359363
 20
999.0
 30
0.0
 11
1364.359363
 21
974.6
 31
0.0
  0
LINE
  5
159
330
A
100
AcDbEntity
  8
補助
100
AcDbLine
 10
1365.759363
 20
1055.24740271993
 30
0.0
 11
1365.759363
 21
999.0
 31
0.0
  0
LINE
  5
15A
330
A
100
AcDbEntity
  8
補助
100
AcDbLine
 10
1365.759363
 20
999.0
 30
0.0
 11
1365.759363
 21
973.3999999999999
 31
0.0
  0
LINE
  5
15B
330
A
100
AcDbEntity
  8
補助
100
AcDbLine
 10
1393.459363
 20
1042.6
 30
0.0
 11
1393.459363
 21
1000.0
 31
0.0
  0
LINE
  5
15C
330
A
100
AcDbEntity
  8
補助
100
AcDbLine
 10
1393.459363
 20
1000.0
 30
0.0
 11
1393.459363
 21
999.0
 31
0.0
  0
LINE
  5
15D
330
A
100
AcDbEntity
  8
補助
100
AcDbLine
 10
1393.459363
 20
999.0
 30
0.0
 11
1393.459363
 21
958.7999999999999
 31
0.0
  0
LINE
  5
15E
330
A
100
AcDbEntity
  8
補助
100
AcDbLine
 10
1345.0
 20
997.6
 30
0.0
 11
1345.0
 21
1066.4
 31
0.0
  0
LINE
  5
15F
330
A
100
AcDbEntity
  8
補助
100
AcDbLine
 10
1338.871863
 20
1042.49711511993
 30
0.0
 11
1372.2
 21
1042.49711511993
 31
0.0
  0
LINE
  5
160
330
A
100
AcDbEntity
  8
補助
100
AcDbLine
 10
1338.871863
 20
1039.79711511993
 30
0.0
 11
1358.6
 21
1039.79711511993
 31
0.0
  0
LINE
  5
161
330
A
100
AcDbEntity
  8
補助
100
AcDbLine
 10
1388.959363
 20
1055.24740271993
 30
0.0
 11
1388.959363
 21
999.0
 31
0.0
  0
LINE
  5
162
330
A
100
AcDbEntity
  8
補助
100
AcDbLine
 10
1388.959363
 20
999.0
 30
0.0
 11
1388.959363
 21
980.2000000000001
 31
0.0
  0
LINE
  5
163
330
A
100
AcDbEntity
  8
実形
100
AcDbLine
 10
2639.59363
 20
1710.733874320626
 30
0.0
 11
2626.59363
 21
1710.733874320626
 31
0.0
  0
LINE
  5
164
330
A
100
AcDbEntity
  8
実形
100
AcDbLine
 10
2626.59363
 20
1710.733874320626
 30
0.0
 11
2139.59363
 21
1710.733874320626
 31
0.0
  0
LINE
  5
165
330
A
100
AcDbEntity
  8
実形
100
AcDbLine
 10
2639.59363
 20
1710.733874320626
 30
0.0
 11
2626.59363
 21
1710.733874320626
 31
0.0
  0
LINE
  5
166
330
A
100
AcDbEntity
  8
実形
100
AcDbLine
 10
2626.59363
 20
1710.733874320626
 30
0.0
 11
2139.59363
 21
1710.733874320626
 31
0.0
  0
LINE
  5
167
330
A
100
AcDbEntity
  8
実形
100
AcDbLine
 10
2626.59363
 20
1700.733874320626
 30
0.0
 11
2122.593629999999
 21
1700.733874320626
 31
0.0
  0
LINE
  5
168
330
A
100
AcDbEntity
  8
実形
100
AcDbLine
 10
2634.593629999999
 20
1715.733874320626
 30
0.0
 11
2114.593629999999
 21
1715.733874320626
 31
0.0
  0
LINE
  5
169
330
A
100
AcDbEntity
  8
実形
100
AcDbLine
 10
2639.59363
 20
1710.733874320626
 30
0.0
 11
2626.59363
 21
1710.733874320626
 31
0.0
  0
LINE
  5
16A
330
A
100
AcDbEntity
  8
実形
100
AcDbLine
 10
2626.59363
 20
1710.733874320626
 30
0.0
 11
2109.593629999999
 21
1710.733874320626
 31
0.0
  0
LINE
  5
16B
330
A
100
AcDbEntity
  8
実形
100
AcDbLine
 10
2124.593629999999
 20
1710.733874320626
 30
0.0
 11
2626.59363
 21
1710.733874320626
 31
0.0
  0
LINE
  5
16C
330
A
100
AcDbEntity
  8
実形
100
AcDbLine
 10
2626.59363
 20
1710.733874320626
 30
0.0
 11
2639.59363
 21
1710.733874320626
 31
0.0
  0
LINE
  5
16D
330
A
100
AcDbEntity
  8
実形
100
AcDbLine
 10
2124.593629999999
 20
1710.733874320626
 30
0.0
 11
2626.59363
 21
1710.733874320626
 31
0.0
  0
LINE
  5
16E
330
A
100
AcDbEntity
  8
実形
100
AcDbLine
 10
2626.59363
 20
1710.733874320626
 30
0.0
 11
2639.59363
 21
1710.733874320626
 31
0.0
  0
LINE
  5
16F
330
A
100
AcDbEntity
  8
実形
100
AcDbLine
 10
2122.593629999999
 20
1700.733874320626
 30
0.0
 11
2122.593629999999
 21
1710.733874320626
 31
0.0
  0
LINE
  5
170
330
A
100
AcDbEntity
  8
実形
100
AcDbLine
 10
2114.593629999999
 20
1715.733874320626
 30
0.0
 11
2109.593629999999
 21
1710.733874320626
 31
0.0
  0
LINE
  5
171
330
A
100
AcDbEntity
  8
実形
100
AcDbLine
 10
2626.59363
 20
1710.733874320626
 30
0.0
 11
2626.59363
 21
1700.733874320626
 31
0.0
  0
LINE
  5
172
330
A
100
AcDbEntity
  8
実形
100
AcDbLine
 10
2634.593629999999
 20
1715.733874320626
 30
0.0
 11
2639.59363
 21
1710.733874320626
 31
0.0
  0
LINE
  5
173
330
A
100
AcDbEntity
  8
実形
100
AcDbLine
 10
2595.0
 20
1700.733874320626
 30
0.0
 11
2595.0
 21
1599.856858123989
 31
0.0
  0
LINE
  5
174
330
A
100
AcDbEntity
  8
0
100
AcDbLine
 10
2580.999999999999
 20
1582.233874320628
 30
0.0
 11
2533.061501000002
 21
1612.716096320626
 31
0.0
  0
INSERT
  5
175
330
A
100
AcDbEntity
  8
0
100
AcDbBlockReference
  2
*U0
 10
2645.0
 20
1881.52956951993
 30
0.0
 41
10.0
 42
10.0
 43
10.0
  0
LINE
  5
176
330
A
100
AcDbEntity
  8
補助
100
AcDbLine
 10
1337.8
 20
984.6
 30
0.0
 11
1359.4
 21
984.6
 31
0.0
  0
LINE
  5
177
330
A
100
AcDbEntity
  8
寸法
  6
STYLE_20
370
    15
100
AcDbLine
 10
2304.593629999999
 20
2178.733874320625
 30
0.0
 11
2304.593629999999
 21
2448.733874320625
 31
0.0
  0
LINE
  5
178
330
A
100
AcDbEntity
  8
寸法
  6
STYLE_20
370
    15
100
AcDbLine
 10
2304.593629999999
 20
1473.259847121322
 30
0.0
 11
2304.593629999999
 21
1640.733874320626
 31
0.0
  0
WIPEOUT
  5
17E
330
A
100
AcDbEntity
  8
寸法
  6
Continuous
 62
     7
 92
      276
310
1401000003000000800000000A0000000000000000D19D401C6CE2F8C884A140000000000000000000000000000000000000000000000000000000000000F03F000000000000F03F000000000000000000000000000000000000000000000000000000000000F03F000000000000000041634462576970656F757420285769
310
70654F7574290000008400000006000000050000000000000000D19D401C6CE2F8C884A1400000000000000000FEFFFFFFFF4F9E401C6CE2F8C884A1400000000000000000FEFFFFFFFF4F9E40AC4F53F908E4A14000000000000000000000000000D19D40AC4F53F908E4A14000000000000000000000000000D19D401C6C
310
E2F8C884A14000000000000000000800000015000000
370
    15
100
AcDbWipeout
 90
        0
 10
1908.25
 20
6011.596828638452
 30
0.0
 11
47.62500336435103
 21
0.0
 31
0.0
 12
0.0
 22
47.62500336435103
 32
0.0
 13
1.0
 23
1.0
340
0
 70
     7
280
     1
281
    50
282
    50
283
     0
360
0
 71
     2
 91
        5
 14
0.1666666195716329
 24
79.64339188523978
 14
0.1666666195716329
 24
78.64339188523977
 14
-0.5
 24
78.64339188523977
 14
-0.5
 24
79.64339188523978
 14
0.1666666195716329
 24
79.64339188523978
  0
DIMENSION
  5
1F6
330
A
100
AcDbEntity
  8
寸法
  6
Continuous
370
     0
100
AcDbDimension
  2
*D3
 10
2109.593629999999
 20
2587.960759095235
 30
0.0
 11
2207.09363
 21
2606.710759095235
 31
0.0
 70
    32
 71
     5
 42
195.0
  3
ISO-25
100
AcDbAlignedDimension
 13
2304.593629999999
 23
2417.705025519931
 33
0.0
 14
2109.593629999999
 24
2417.705025519929
 34
0.0
100
AcDbRotatedDimension
  0
DIMENSION
  5
22E
330
A
100
AcDbEntity
  8
寸法
  6
Continuous
370
     0
100
AcDbDimension
  2
*D4
 10
1976.722314771368
 20
2108.70502551993
 30
0.0
 11
1976.722314771368
 21
2032.791234853265
 31
0.0
 70
   160
 71
     5
 42
17.99712399999862
  3
ISO-25
100
AcDbAlignedDimension
 13
2155.0
 23
2090.707901519932
 33
0.0
 14
2155.0
 24
2108.70502551993
 34
0.0
 50
90.0
100
AcDbRotatedDimension
  0
DIMENSION
  5
26D
330
A
100
AcDbEntity
  8
寸法
  6
Continuous
370
     0
100
AcDbDimension
  2
*D5
 10
1976.722314771368
 20
2135.70502551993
 30
0.0
 11
1953.161932499919
 21
2126.158273152395
 31
0.0
 70
   160
 71
     5
 42
26.99999999999955
  3
ISO-25
100
AcDbAlignedDimension
 13
2155.0
 23
2108.70502551993
 33
0.0
 14
2155.0
 24
2135.70502551993
 34
0.0
 50
90.0
100
AcDbRotatedDimension
1001
ACAD
1000
DSTYLE
1002
{
1070
   279
1070
     2
1002
}
  0
DIMENSION
  5
27B
330
A
100
AcDbEntity
  8
寸法
  6
Continuous
370
     0
100
AcDbDimension
  2
*D6
 10
1976.722314771368
 20
2390.70502551993
 30
0.0
 11
1957.972314771368
 21
2263.20502551993
 31
0.0
 70
    32
 71
     5
 42
255.0
  3
ISO-25
100
AcDbAlignedDimension
 13
2155.0
 23
2135.70502551993
 33
0.0
 14
2155.0
 24
2390.70502551993
 34
0.0
 50
90.0
100
AcDbRotatedDimension
  0
DIMENSION
  5
29B
330
A
100
AcDbEntity
  8
寸法
  6
Continuous
370
     0
100
AcDbDimension
  2
*D7
 10
1976.722314771368
 20
2417.705025519929
 30
0.0
 11
1976.722314771368
 21
2493.618816186595
 31
0.0
 70
   160
 71
     5
 42
17.99712399999862
  3
ISO-25
100
AcDbAlignedDimension
 13
2155.0
 23
2435.702149519928
 33
0.0
 14
2155.0
 24
2417.705025519929
 34
0.0
 50
270.0
100
AcDbRotatedDimension
  0
DIMENSION
  5
29C
330
A
100
AcDbEntity
  8
寸法
  6
Continuous
370
     0
100
AcDbDimension
  2
*D8
 10
1976.722314771368
 20
2390.70502551993
 30
0.0
 11
1953.161932499919
 21
2400.251777887465
 31
0.0
 70
   160
 71
     5
 42
26.99999999999955
  3
ISO-25
100
AcDbAlignedDimension
 13
2155.0
 23
2417.705025519929
 33
0.0
 14
2155.0
 24
2390.70502551993
 34
0.0
 50
270.0
100
AcDbRotatedDimension
1001
ACAD
1000
DSTYLE
1002
{
1070
   279
1070
     2
1002
}
  0
DIMENSION
  5
2F0
330
A
100
AcDbEntity
  8
寸法
  6
Continuous
370
     0
100
AcDbDimension
  2
*D9
 10
1876.577962857116
 20
2435.707901519931
 30
0.0
 11
1857.827962857116
 21
2263.207901519932
 31
0.0
 70
    32
 71
     5
 42
345.0
  3
ISO-25
100
AcDbAlignedDimension
 13
2090.0
 23
2090.707901519932
 33
0.0
 14
2090.0
 24
2435.707901519931
 34
0.0
 50
90.0
100
AcDbRotatedDimension
  0
DIMENSION
  5
2FF
330
A
100
AcDbEntity
  8
寸法
  6
Continuous
370
     0
100
AcDbDimension
  2
*D10
 10
2639.59363
 20
1875.837731440775
 30
0.0
 11
2374.593629999999
 21
1894.587731440775
 31
0.0
 70
    32
 71
     5
 42
530.0
  3
ISO-25
100
AcDbAlignedDimension
 13
2109.593629999999
 23
2135.70502551993
 33
0.0
 14
2639.59363
 24
2135.70502551993
 34
0.0
100
AcDbRotatedDimension
  0
DIMENSION
  5
461
330
A
100
AcDbEntity
  8
寸法
  6
Continuous
370
     0
100
AcDbDimension
  2
*D11
 10
2780.993205881863
 20
2090.707901519932
 30
0.0
 11
2762.243205881863
 21
2176.957901519932
 31
0.0
 70
    32
 71
     5
 42
172.5
  3
ISO-25
100
AcDbAlignedDimension
 13
2594.999999999998
 23
2263.207901519932
 33
0.0
 14
2594.999999999998
 24
2090.707901519932
 34
0.0
 50
90.0
100
AcDbRotatedDimension
  0
DIMENSION
  5
48D
330
A
100
AcDbEntity
  8
寸法
  6
Continuous
370
    15
100
AcDbDimension
  2
*D12
 10
2362.59363
 20
1406.506142263864
 30
0.0
 11
2304.593629999999
 21
1425.256142263864
 31
0.0
 70
    32
 71
     5
 42
115.9999999999995
  3
ISO-25
100
AcDbAlignedDimension
 13
2246.59363
 23
1581.733874320626
 33
0.0
 14
2362.59363
 24
1581.733874320626
 34
0.0
100
AcDbRotatedDimension
  0
DIMENSION
  5
48E
330
A
100
AcDbEntity
  8
寸法
  6
Continuous
370
    15
100
AcDbDimension
  2
*D13
 10
2348.593629999999
 20
1471.427730228707
 30
0.0
 11
2304.593629999999
 21
1490.177730228707
 31
0.0
 70
    32
 71
     5
 42
87.99999999999954
  3
ISO-25
100
AcDbAlignedDimension
 13
2260.59363
 23
1581.733874320626
 33
0.0
 14
2348.593629999999
 24
1581.733874320626
 34
0.0
100
AcDbRotatedDimension
  0
DIMENSION
  5
544
330
A
100
AcDbEntity
  8
寸法
  6
Continuous
370
     0
100
AcDbDimension
  2
*D14
 10
1893.302269765149
 20
1556.733874320626
 30
0.0
 11
1874.552269765148
 21
1633.733874320626
 31
0.0
 70
    32
 71
     5
 42
154.0
  3
ISO-25
100
AcDbAlignedDimension
 13
2124.593629999999
 23
1710.733874320626
 33
0.0
 14
2124.593629999999
 24
1556.733874320626
 34
0.0
 50
90.0
100
AcDbRotatedDimension
  0
DIMENSION
  5
551
330
A
100
AcDbEntity
  8
寸法
  6
Continuous
370
     0
100
AcDbDimension
  2
*D15
 10
1935.05478911442
 20
1571.733874320626
 30
0.0
 11
1935.05478911442
 21
1498.81720765396
 31
0.0
 70
   160
 71
     5
 42
15.0
  3
ISO-25
100
AcDbAlignedDimension
 13
2186.668633925985
 23
1556.733874320626
 33
0.0
 14
2186.668633925985
 24
1571.733874320626
 34
0.0
 50
90.0
100
AcDbRotatedDimension
  0
DIMENSION
  5
5DB
330
A
100
AcDbEntity
  8
寸法
  6
Continuous
370
     0
100
AcDbDimension
  2
*D16
 10
2127.593629999999
 20
1952.682483837736
 30
0.0
 11
2051.676963333333
 21
1952.682483837736
 31
0.0
 70
   160
 71
     5
 42
18.0
  3
ISO-25
100
AcDbAlignedDimension
 13
2109.593629999999
 23
2135.70502551993
 33
0.0
 14
2127.593629999999
 24
2135.705025519929
 34
0.0
100
AcDbRotatedDimension
  0
DIMENSION
  5
60F
330
A
100
AcDbEntity
  8
寸法
  6
Continuous
370
     0
100
AcDbDimension
  2
*D17
 10
2154.593629999999
 20
1952.682483837736
 30
0.0
 11
2155.868770602694
 21
1972.668250246536
 31
0.0
 70
   160
 71
     5
 42
27.0
  3
ISO-25
100
AcDbAlignedDimension
 13
2127.593629999999
 23
2135.70502551993
 33
0.0
 14
2154.593629999999
 24
2135.70502551993
 34
0.0
100
AcDbRotatedDimension
1001
ACAD
1000
DSTYLE
1002
{
1070
   279
1070
     2
1002
}
  0
DIMENSION
  5
63A
330
A
100
AcDbEntity
  8
寸法
  6
Continuous
370
     0
100
AcDbDimension
  2
*D19
 10
2594.59363
 20
1952.682483837736
 30
0.0
 11
2593.318489397305
 21
1972.668250246536
 31
0.0
 70
   160
 71
     5
 42
27.0
  3
ISO-25
100
AcDbAlignedDimension
 13
2621.59363
 23
2135.70502551993
 33
0.0
 14
2594.59363
 24
2135.70502551993
 34
0.0
 50
180.0
100
AcDbRotatedDimension
1001
ACAD
1000
DSTYLE
1002
{
1070
   279
1070
     2
1002
}
  0
DIMENSION
  5
63B
330
A
100
AcDbEntity
  8
寸法
  6
Continuous
370
     0
100
AcDbDimension
  2
*D18
 10
2621.59363
 20
1952.682483837736
 30
0.0
 11
2697.510296666666
 21
1952.682483837736
 31
0.0
 70
   160
 71
     5
 42
18.0
  3
ISO-25
100
AcDbAlignedDimension
 13
2639.59363
 23
2135.70502551993
 33
0.0
 14
2621.59363
 24
2135.705025519929
 34
0.0
 50
180.0
100
AcDbRotatedDimension
  0
DIMENSION
  5
668
330
A
100
AcDbEntity
  8
寸法
  6
Continuous
370
     0
100
AcDbDimension
  2
*D20
 10
2594.59363
 20
1952.682483837736
 30
0.0
 11
2374.593629999999
 21
1971.432483837736
 31
0.0
 70
    32
 71
     5
 42
440.0
  3
ISO-25
100
AcDbAlignedDimension
 13
2154.593629999999
 23
2070.70502551993
 33
0.0
 14
2594.59363
 24
2070.70502551993
 34
0.0
100
AcDbRotatedDimension
  0
ENDSEC
  0
SECTION
  2
OBJECTS
  0
DICTIONARY
  5
19
330
0
100
AcDbDictionary
281
     1
  3
ACAD_COLOR
350
183
  3
ACAD_GROUP
350
1A
  3
ACAD_LAYOUT
350
1E
  3
ACAD_MATERIAL
350
182
  3
ACAD_MLINESTYLE
350
1B
  3
ACAD_PLOTSETTINGS
350
22
  3
ACAD_PLOTSTYLENAME
350
1F
  3
ACAD_WIPEOUT_VARS
350
23
  3
ACDBHEADERROUNDTRIPXREC
350
6A0
  3
AcDbVariableDictionary
350
68C
  3
ASE_INDEX_DICTIONARY
350
676
  3
DWGPROPS
350
69F
  0
DICTIONARY
  5
183
102
{ACAD_REACTORS
330
19
102
}
330
19
100
AcDbDictionary
281
     1
  0
DICTIONARY
  5
1A
102
{ACAD_REACTORS
330
19
102
}
330
19
100
AcDbDictionary
281
     1
  0
DICTIONARY
  5
1E
102
{ACAD_REACTORS
330
19
102
}
330
19
100
AcDbDictionary
281
     1
  3
Layout1
350
21
  3
Model
350
20
  0
DICTIONARY
  5
182
102
{ACAD_REACTORS
330
19
102
}
330
19
100
AcDbDictionary
281
     1
  0
DICTIONARY
  5
1B
102
{ACAD_REACTORS
330
19
102
}
330
19
100
AcDbDictionary
281
     1
  3
Standard
350
1C
  0
DICTIONARY
  5
22
102
{ACAD_REACTORS
330
19
102
}
330
19
100
AcDbDictionary
281
     1
  0
ACDBDICTIONARYWDFLT
  5
1F
102
{ACAD_REACTORS
330
19
102
}
330
19
100
AcDbDictionary
281
     1
  3
Normal
350
1D
100
AcDbDictionaryWithDefault
340
1D
  0
WIPEOUTVARIABLES
  5
23
330
19
100
AcDbWipeoutVariables
 70
     0
  0
DICTIONARY
  5
6A0
102
{ACAD_REACTORS
330
19
102
}
330
19
100
AcDbDictionary
281
     1
  3
COLORDICT
350
6A2
  3
MATERIALDICT
350
6A1
  0
DICTIONARY
  5
68C
102
{ACAD_REACTORS
330
19
102
}
330
19
100
AcDbDictionary
281
     1
  3
DIMASSOC
350
68D
  3
PROJECTNAME
350
68E
  0
DICTIONARY
  5
676
102
{ACAD_REACTORS
330
19
102
}
330
19
100
AcDbDictionary
281
     1
  3
ASEBlockHierarchyIndexRecord
350
678
1001
DCO15
1040
1558325946.625
  0
XRECORD
  5
69F
102
{ACAD_REACTORS
330
19
102
}
330
19
100
AcDbXrecord
280
     1
  1
DWGPROPS COOKIE
  2

  3

  4

  6

  7

  8
山崎　広絵
  9

300
=
301
=
302
=
303
=
304
=
305
=
306
=
307
=
308
=
309
=
 40
0.0645377430555556
 41
2453833.490621192
 42
2454088.478015764
  1

 90
        0
  0
LAYOUT
  5
21
102
{ACAD_XDICTIONARY
360
6A5
102
}
102
{ACAD_REACTORS
330
1E
102
}
330
1E
100
AcDbPlotSettings
  1

  2

  4

  6

 40
0.0
 41
0.0
 42
0.0
 43
0.0
 44
0.0
 45
0.0
 46
0.0
 47
0.0
 48
0.0
 49
0.0
140
0.0
141
0.0
142
1.0
143
1.0
 70
     0
 72
     0
 73
     0
 74
     0
  7

 75
     0
147
1.0
148
0.0
149
0.0
100
AcDbLayout
  1
Layout1
 70
     0
 71
     1
 10
0.0
 20
0.0
 11
12.0
 21
9.0
 12
0.0
 22
0.0
 32
0.0
 14
1.000000000000000E+20
 24
1.000000000000000E+20
 34
1.000000000000000E+20
 15
-1.000000000000000E+20
 25
-1.000000000000000E+20
 35
-1.000000000000000E+20
146
0.0
 13
0.0
 23
0.0
 33
0.0
 16
1.0
 26
0.0
 36
0.0
 17
0.0
 27
1.0
 37
0.0
 76
     0
330
B
  0
LAYOUT
  5
20
102
{ACAD_XDICTIONARY
360
6A3
102
}
102
{ACAD_REACTORS
330
1E
102
}
330
1E
100
AcDbPlotSettings
  1

  2

  4

  6

 40
0.0
 41
0.0
 42
0.0
 43
0.0
 44
0.0
 45
0.0
 46
0.0
 47
0.0
 48
0.0
 49
0.0
140
0.0
141
0.0
142
1.0
143
1.0
 70
  1024
 72
     0
 73
     0
 74
     0
  7

 75
     0
147
1.0
148
0.0
149
0.0
100
AcDbLayout
  1
Model
 70
     0
 71
     0
 10
0.0
 20
0.0
 11
0.0
 21
0.0
 12
0.0
 22
0.0
 32
0.0
 14
0.0
 24
0.0
 34
0.0
 15
0.0
 25
0.0
 35
0.0
146
0.0
 13
0.0
 23
0.0
 33
0.0
 16
0.0
 26
0.0
 36
0.0
 17
0.0
 27
0.0
 37
0.0
 76
     0
330
A
  0
MLINESTYLE
  5
1C
102
{ACAD_REACTORS
330
1B
102
}
330
1B
100
AcDbMlineStyle
  2
STANDARD
 70
     0
  3

 62
     0
 51
90.0
 52
90.0
 71
     2
 49
0.5
 62
   256
  6
BYLAYER
 49
-0.5
 62
   256
  6
BYLAYER
  0
ACDBPLACEHOLDER
  5
1D
102
{ACAD_REACTORS
330
1F
102
}
330
1F
  0
XRECORD
  5
6A2
102
{ACAD_REACTORS
330
6A0
102
}
330
6A0
100
AcDbXrecord
280
     1
340
183
  0
XRECORD
  5
6A1
102
{ACAD_REACTORS
330
6A0
102
}
330
6A0
100
AcDbXrecord
280
     1
340
182
  0
DICTIONARYVAR
  5
68D
102
{ACAD_REACTORS
330
68C
102
}
330
68C
100
DictionaryVariables
280
     0
  1
1
  0
DICTIONARYVAR
  5
68E
102
{ACAD_REACTORS
330
68C
102
}
330
68C
100
DictionaryVariables
280
     0
  1

  0
XRECORD
  5
678
102
{ACAD_REACTORS
330
676
102
}
330
676
100
AcDbXrecord
280
     1
330
175
330
1FB
330
1FC
330
24A
330
24B
330
296
330
297
330
280
330
281
330
2BA
330
2BB
330
2C4
330
2C5
330
2F5
330
2F6
330
304
330
305
330
466
330
467
330
526
330
527
330
52F
330
530
330
549
330
54A
330
59E
330
59F
330
609
330
60A
330
635
330
636
330
659
330
65A
330
663
330
664
330
66D
330
66E
330
33C
330
33D
330
3F2
330
3F3
330
3FC
330
3FD
330
452
330
453
330
45C
330
45D
330
5CC
330
5CD
330
5D5
330
5D6
  0
DICTIONARY
  5
6A5
330
21
100
AcDbDictionary
280
     1
281
     1
  3
ACAD_XREC_ROUNDTRIP
360
6A6
  0
DICTIONARY
  5
6A3
330
20
100
AcDbDictionary
280
     1
281
     1
  3
ACAD_XREC_ROUNDTRIP
360
6A4
  0
XRECORD
  5
6A6
102
{ACAD_REACTORS
330
6A5
102
}
330
6A5
100
AcDbXrecord
280
     1
102
SHADEPLOT
 70
     0
102
SHADEPLOTRESLEVEL
 70
     2
102
SHADEPLOTCUSTOMDPI
 70
   300
  0
XRECORD
  5
6A4
102
{ACAD_REACTORS
330
6A3
102
}
330
6A3
100
AcDbXrecord
280
     1
102
SHADEPLOT
 70
     0
102
SHADEPLOTRESLEVEL
 70
     2
102
SHADEPLOTCUSTOMDPI
 70
   300
  0
ENDSEC
  0
EOF
