  0
SECTION
  2
HEADER
  9
$ACADVER
  1
AC1015
  9
$ACADMAINTVER
 70
    20
  9
$DWGCODEPAGE
  3
ANSI_932
  9
$INSBASE
 10
0.0
 20
0.0
 30
0.0
  9
$EXTMIN
 10
4.0
 20
54.0
 30
0.0
  9
$EXTMAX
 10
2784.000000000002
 20
2024.0
 30
0.0
  9
$LIMMIN
 10
0.0
 20
0.0
  9
$LIMMAX
 10
29700.0
 20
21000.0
  9
$ORTHOMODE
 70
     1
  9
$REGENMODE
 70
     1
  9
$FILLMODE
 70
     1
  9
$QTEXTMODE
 70
     0
  9
$MIRRTEXT
 70
     1
  9
$LTSCALE
 40
4.0
  9
$ATTMODE
 70
     1
  9
$TEXTSIZE
 40
25.0
  9
$TRACEWID
 40
1.0
  9
$TEXTSTYLE
  7
Standard
  9
$CLAYER
  8
補助
  9
$CELTYPE
  6
ByLayer
  9
$CECOLOR
 62
   256
  9
$CELTSCALE
 40
1.0
  9
$DISPSILH
 70
     0
  9
$DIMSCALE
 40
1.0
  9
$DIMASZ
 40
35.0
  9
$DIMEXO
 40
65.0
  9
$DIMDLI
 40
3.75
  9
$DIMRND
 40
0.0
  9
$DIMDLE
 40
0.0
  9
$DIMEXE
 40
0.0
  9
$DIMTP
 40
0.0
  9
$DIMTM
 40
0.0
  9
$DIMTXT
 40
25.0
  9
$DIMCEN
 40
2.5
  9
$DIMTSZ
 40
0.0
  9
$DIMTOL
 70
     0
  9
$DIMLIM
 70
     0
  9
$DIMTIH
 70
     0
  9
$DIMTOH
 70
     0
  9
$DIMSE1
 70
     0
  9
$DIMSE2
 70
     0
  9
$DIMTAD
 70
     1
  9
$DIMZIN
 70
     8
  9
$DIMBLK
  1
DotSmall
  9
$DIMASO
 70
     1
  9
$DIMSHO
 70
     1
  9
$DIMPOST
  1

  9
$DIMAPOST
  1

  9
$DIMALT
 70
     0
  9
$DIMALTD
 70
     3
  9
$DIMALTF
 40
0.03937007874016
  9
$DIMLFAC
 40
1.0
  9
$DIMTOFL
 70
     1
  9
$DIMTVP
 40
0.0
  9
$DIMTIX
 70
     0
  9
$DIMSOXD
 70
     0
  9
$DIMSAH
 70
     0
  9
$DIMBLK1
  1

  9
$DIMBLK2
  1

  9
$DIMSTYLE
  2
ISO-25
  9
$DIMCLRD
 70
     0
  9
$DIMCLRE
 70
     0
  9
$DIMCLRT
 70
     0
  9
$DIMTFAC
 40
1.0
  9
$DIMGAP
 40
6.25
  9
$DIMJUST
 70
     0
  9
$DIMSD1
 70
     0
  9
$DIMSD2
 70
     0
  9
$DIMTOLJ
 70
     0
  9
$DIMTZIN
 70
     8
  9
$DIMALTZ
 70
     0
  9
$DIMALTTZ
 70
     0
  9
$DIMUPT
 70
     0
  9
$DIMDEC
 70
     2
  9
$DIMTDEC
 70
     2
  9
$DIMALTU
 70
     2
  9
$DIMALTTD
 70
     3
  9
$DIMTXSTY
  7
Standard
  9
$DIMAUNIT
 70
     0
  9
$DIMADEC
 70
     0
  9
$DIMALTRND
 40
0.0
  9
$DIMAZIN
 70
     0
  9
$DIMDSEP
 70
    46
  9
$DIMATFIT
 70
     3
  9
$DIMFRAC
 70
     0
  9
$DIMLDRBLK
  1
Open30
  9
$DIMLUNIT
 70
     2
  9
$DIMLWD
 70
    18
  9
$DIMLWE
 70
    18
  9
$DIMTMOVE
 70
     0
  9
$LUNITS
 70
     2
  9
$LUPREC
 70
     2
  9
$SKETCHINC
 40
1.0
  9
$FILLETRAD
 40
30.0
  9
$AUNITS
 70
     0
  9
$AUPREC
 70
     0
  9
$MENU
  1
.
  9
$ELEVATION
 40
0.0
  9
$PELEVATION
 40
0.0
  9
$THICKNESS
 40
0.0
  9
$LIMCHECK
 70
     1
  9
$CHAMFERA
 40
10.0
  9
$CHAMFERB
 40
10.0
  9
$CHAMFERC
 40
20.0
  9
$CHAMFERD
 40
0.0
  9
$SKPOLY
 70
     0
  9
$TDCREATE
 40
2451673.575802199
  9
$TDUCREATE
 40
2451673.200802199
  9
$TDUPDATE
 40
2454088.479786783
  9
$TDUUPDATE
 40
2454088.104786783
  9
$TDINDWG
 40
0.7447121644
  9
$TDUSRTIMER
 40
0.7447112963
  9
$USRTIMER
 70
     1
  9
$ANGBASE
 50
0.0
  9
$ANGDIR
 70
     0
  9
$PDMODE
 70
     3
  9
$PDSIZE
 40
0.0
  9
$PLINEWID
 40
0.0
  9
$SPLFRAME
 70
     0
  9
$SPLINETYPE
 70
     6
  9
$SPLINESEGS
 70
     8
  9
$HANDSEED
  5
1E33
  9
$SURFTAB1
 70
     6
  9
$SURFTAB2
 70
     6
  9
$SURFTYPE
 70
     6
  9
$SURFU
 70
     6
  9
$SURFV
 70
     6
  9
$UCSBASE
  2

  9
$UCSNAME
  2

  9
$UCSORG
 10
0.0
 20
0.0
 30
0.0
  9
$UCSXDIR
 10
1.0
 20
0.0
 30
0.0
  9
$UCSYDIR
 10
0.0
 20
1.0
 30
0.0
  9
$UCSORTHOREF
  2

  9
$UCSORTHOVIEW
 70
     0
  9
$UCSORGTOP
 10
0.0
 20
0.0
 30
0.0
  9
$UCSORGBOTTOM
 10
0.0
 20
0.0
 30
0.0
  9
$UCSORGLEFT
 10
0.0
 20
0.0
 30
0.0
  9
$UCSORGRIGHT
 10
0.0
 20
0.0
 30
0.0
  9
$UCSORGFRONT
 10
0.0
 20
0.0
 30
0.0
  9
$UCSORGBACK
 10
0.0
 20
0.0
 30
0.0
  9
$PUCSBASE
  2

  9
$PUCSNAME
  2

  9
$PUCSORG
 10
0.0
 20
0.0
 30
0.0
  9
$PUCSXDIR
 10
1.0
 20
0.0
 30
0.0
  9
$PUCSYDIR
 10
0.0
 20
1.0
 30
0.0
  9
$PUCSORTHOREF
  2

  9
$PUCSORTHOVIEW
 70
     0
  9
$PUCSORGTOP
 10
0.0
 20
0.0
 30
0.0
  9
$PUCSORGBOTTOM
 10
0.0
 20
0.0
 30
0.0
  9
$PUCSORGLEFT
 10
0.0
 20
0.0
 30
0.0
  9
$PUCSORGRIGHT
 10
0.0
 20
0.0
 30
0.0
  9
$PUCSORGFRONT
 10
0.0
 20
0.0
 30
0.0
  9
$PUCSORGBACK
 10
0.0
 20
0.0
 30
0.0
  9
$USERI1
 70
     0
  9
$USERI2
 70
     0
  9
$USERI3
 70
     0
  9
$USERI4
 70
     0
  9
$USERI5
 70
     0
  9
$USERR1
 40
0.0
  9
$USERR2
 40
0.0
  9
$USERR3
 40
0.0
  9
$USERR4
 40
0.0
  9
$USERR5
 40
0.0
  9
$WORLDVIEW
 70
     1
  9
$SHADEDGE
 70
     3
  9
$SHADEDIF
 70
    70
  9
$TILEMODE
 70
     1
  9
$MAXACTVP
 70
    64
  9
$PINSBASE
 10
0.0
 20
0.0
 30
0.0
  9
$PLIMCHECK
 70
     0
  9
$PEXTMIN
 10
27.8447512626648
 20
20.24591643810271
 30
0.0
  9
$PEXTMAX
 10
250.6027613639831
 20
182.2132479429245
 30
0.0
  9
$PLIMMIN
 10
-3.757080078125
 20
-3.757083177566528
  9
$PLIMMAX
 10
293.2112426757813
 20
206.2162444591522
  9
$UNITMODE
 70
     0
  9
$VISRETAIN
 70
     1
  9
$PLINEGEN
 70
     0
  9
$PSLTSCALE
 70
     1
  9
$TREEDEPTH
 70
  3020
  9
$CMLSTYLE
  2
Standard
  9
$CMLJUST
 70
     0
  9
$CMLSCALE
 40
20.0
  9
$PROXYGRAPHICS
 70
     1
  9
$MEASUREMENT
 70
     1
  9
$CELWEIGHT
370
    -1
  9
$ENDCAPS
280
     0
  9
$JOINSTYLE
280
     0
  9
$LWDISPLAY
290
     0
  9
$INSUNITS
 70
     4
  9
$HYPERLINKBASE
  1

  9
$STYLESHEET
  1

  9
$XEDIT
290
     1
  9
$CEPSNTYPE
380
     0
  9
$PSTYLEMODE
290
     1
  9
$FINGERPRINTGUID
  2
{C8EA1F16-24C9-11D4-9416-CE0A3B32152F}
  9
$VERSIONGUID
  2
{1EC44A32-4B8C-4E1D-8545-BF9B1242D1B5}
  9
$EXTNAMES
290
     1
  9
$PSVPSCALE
 40
0.0
  9
$OLESTARTUP
290
     0
  0
ENDSEC
  0
SECTION
  2
CLASSES
  0
CLASS
  1
ACDBDICTIONARYWDFLT
  2
AcDbDictionaryWithDefault
  3
ObjectDBX Classes
 90
        0
280
     0
281
     0
  0
CLASS
  1
ACDBPLACEHOLDER
  2
AcDbPlaceHolder
  3
ObjectDBX Classes
 90
        0
280
     0
281
     0
  0
CLASS
  1
LAYOUT
  2
AcDbLayout
  3
ObjectDBX Classes
 90
        0
280
     0
281
     0
  0
CLASS
  1
DICTIONARYVAR
  2
AcDbDictionaryVar
  3
ObjectDBX Classes
 90
        0
280
     0
281
     0
  0
ENDSEC
  0
SECTION
  2
TABLES
  0
TABLE
  2
VPORT
  5
8
330
0
100
AcDbSymbolTable
 70
     2
  0
VPORT
  5
1E20
330
8
100
AcDbSymbolTableRecord
100
AcDbViewportTableRecord
  2
*Active
 70
     0
 10
0.0
 20
0.0
 11
1.0
 21
1.0
 12
2445.737388397664
 22
1734.81756244345
 13
0.0
 23
0.0
 14
10.0
 24
10.0
 15
10.0
 25
10.0
 16
0.0
 26
0.0
 36
1.0
 17
0.0
 27
0.0
 37
0.0
 40
3384.363017998462
 41
1.682584269662921
 42
50.0
 43
0.0
 44
0.0
 50
0.0
 51
0.0
 71
     0
 72
   100
 73
     1
 74
     3
 75
     0
 76
     0
 77
     0
 78
     0
281
     0
 65
     1
110
0.0
120
0.0
130
0.0
111
1.0
121
0.0
131
0.0
112
0.0
122
1.0
132
0.0
 79
     0
146
0.0
  0
ENDTAB
  0
TABLE
  2
LTYPE
  5
5
330
0
100
AcDbSymbolTable
 70
    46
  0
LTYPE
  5
14
330
5
100
AcDbSymbolTableRecord
100
AcDbLinetypeTableRecord
  2
ByBlock
 70
     0
  3

 72
    65
 73
     0
 40
0.0
  0
LTYPE
  5
15
330
5
100
AcDbSymbolTableRecord
100
AcDbLinetypeTableRecord
  2
ByLayer
 70
     0
  3

 72
    65
 73
     0
 40
0.0
  0
LTYPE
  5
16
330
5
100
AcDbSymbolTableRecord
100
AcDbLinetypeTableRecord
  2
Continuous
 70
     0
  3
Solid line
 72
    65
 73
     0
 40
0.0
  0
LTYPE
  5
34
330
5
100
AcDbSymbolTableRecord
100
AcDbLinetypeTableRecord
  2
ACAD_ISO02W100
 70
     0
  3
ISO dash __ __ __ __ __ __ __ __ __ __ __ __ __
 72
    65
 73
     2
 40
15.0
 49
12.0
 74
     0
 49
-3.0
 74
     0
  0
LTYPE
  5
35
330
5
100
AcDbSymbolTableRecord
100
AcDbLinetypeTableRecord
  2
ACAD_ISO03W100
 70
     0
  3
ISO dash space __    __    __    __    __    __
 72
    65
 73
     2
 40
30.0
 49
12.0
 74
     0
 49
-18.0
 74
     0
  0
LTYPE
  5
36
330
5
100
AcDbSymbolTableRecord
100
AcDbLinetypeTableRecord
  2
ACAD_ISO04W100
 70
     0
  3
ISO long-dash dot ____ . ____ . ____ . ____ . _
 72
    65
 73
     4
 40
30.0
 49
24.0
 74
     0
 49
-3.0
 74
     0
 49
0.0
 74
     0
 49
-3.0
 74
     0
  0
LTYPE
  5
37
330
5
100
AcDbSymbolTableRecord
100
AcDbLinetypeTableRecord
  2
ACAD_ISO05W100
 70
     0
  3
ISO long-dash double-dot ____ .. ____ .. ____ .
 72
    65
 73
     6
 40
34.0
 49
24.0
 74
     0
 49
-3.0
 74
     0
 49
0.5
 74
     0
 49
-3.0
 74
     0
 49
0.5
 74
     0
 49
-3.0
 74
     0
  0
LTYPE
  5
38
330
5
100
AcDbSymbolTableRecord
100
AcDbLinetypeTableRecord
  2
ACAD_ISO06W100
 70
     0
  3
ISO long-dash triple-dot ____ ... ____ ... ____
 72
    65
 73
     8
 40
37.5
 49
24.0
 74
     0
 49
-3.0
 74
     0
 49
0.5
 74
     0
 49
-3.0
 74
     0
 49
0.5
 74
     0
 49
-3.0
 74
     0
 49
0.5
 74
     0
 49
-3.0
 74
     0
  0
LTYPE
  5
39
330
5
100
AcDbSymbolTableRecord
100
AcDbLinetypeTableRecord
  2
ACAD_ISO07W100
 70
     0
  3
ISO dot . . . . . . . . . . . . . . . . . . . .
 72
    65
 73
     2
 40
3.0
 49
0.0
 74
     0
 49
-3.0
 74
     0
  0
LTYPE
  5
3A
330
5
100
AcDbSymbolTableRecord
100
AcDbLinetypeTableRecord
  2
ACAD_ISO08W100
 70
     0
  3
ISO long-dash short-dash ____ __ ____ __ ____ _
 72
    65
 73
     4
 40
36.0
 49
24.0
 74
     0
 49
-3.0
 74
     0
 49
6.0
 74
     0
 49
-3.0
 74
     0
  0
LTYPE
  5
3B
330
5
100
AcDbSymbolTableRecord
100
AcDbLinetypeTableRecord
  2
ACAD_ISO09W100
 70
     0
  3
ISO long-dash double-short-dash ____ __ __ ____
 72
    65
 73
     6
 40
45.0
 49
24.0
 74
     0
 49
-3.0
 74
     0
 49
6.0
 74
     0
 49
-3.0
 74
     0
 49
6.0
 74
     0
 49
-3.0
 74
     0
  0
LTYPE
  5
3C
330
5
100
AcDbSymbolTableRecord
100
AcDbLinetypeTableRecord
  2
ACAD_ISO10W100
 70
     0
  3
ISO dash dot __ . __ . __ . __ . __ . __ . __ .
 72
    65
 73
     4
 40
18.0
 49
12.0
 74
     0
 49
-3.0
 74
     0
 49
0.0
 74
     0
 49
-3.0
 74
     0
  0
LTYPE
  5
3D
330
5
100
AcDbSymbolTableRecord
100
AcDbLinetypeTableRecord
  2
ACAD_ISO11W100
 70
     0
  3
ISO double-dash dot __ __ . __ __ . __ __ . __ 
 72
    65
 73
     6
 40
33.0
 49
12.0
 74
     0
 49
-3.0
 74
     0
 49
12.0
 74
     0
 49
-3.0
 74
     0
 49
0.0
 74
     0
 49
-3.0
 74
     0
  0
LTYPE
  5
3E
330
5
100
AcDbSymbolTableRecord
100
AcDbLinetypeTableRecord
  2
ACAD_ISO12W100
 70
     0
  3
ISO dash double-dot __ . . __ . . __ . . __ . .
 72
    65
 73
     6
 40
21.0
 49
12.0
 74
     0
 49
-3.0
 74
     0
 49
0.0
 74
     0
 49
-3.0
 74
     0
 49
0.0
 74
     0
 49
-3.0
 74
     0
  0
LTYPE
  5
3F
330
5
100
AcDbSymbolTableRecord
100
AcDbLinetypeTableRecord
  2
ACAD_ISO13W100
 70
     0
  3
ISO double-dash double-dot __ __ . . __ __ . . 
 72
    65
 73
     8
 40
36.0
 49
12.0
 74
     0
 49
-3.0
 74
     0
 49
12.0
 74
     0
 49
-3.0
 74
     0
 49
0.0
 74
     0
 49
-3.0
 74
     0
 49
0.0
 74
     0
 49
-3.0
 74
     0
  0
LTYPE
  5
40
330
5
100
AcDbSymbolTableRecord
100
AcDbLinetypeTableRecord
  2
ACAD_ISO14W100
 70
     0
  3
ISO dash triple-dot __ . . . __ . . . __ . . . 
 72
    65
 73
     8
 40
24.0
 49
12.0
 74
     0
 49
-3.0
 74
     0
 49
0.0
 74
     0
 49
-3.0
 74
     0
 49
0.0
 74
     0
 49
-3.0
 74
     0
 49
0.0
 74
     0
 49
-3.0
 74
     0
  0
LTYPE
  5
41
330
5
100
AcDbSymbolTableRecord
100
AcDbLinetypeTableRecord
  2
ACAD_ISO15W100
 70
     0
  3
ISO double-dash triple-dot __ __ . . . __ __ . 
 72
    65
 73
    10
 40
39.0
 49
12.0
 74
     0
 49
-3.0
 74
     0
 49
12.0
 74
     0
 49
-3.0
 74
     0
 49
0.0
 74
     0
 49
-3.0
 74
     0
 49
0.0
 74
     0
 49
-3.0
 74
     0
 49
0.0
 74
     0
 49
-3.0
 74
     0
  0
LTYPE
  5
42
330
5
100
AcDbSymbolTableRecord
100
AcDbLinetypeTableRecord
  2
BATTING
 70
     0
  3
Batting SSSSSSSSSSSSSSSSSSSSSSSSSSSSSSSSSSSSSSS
 72
    65
 73
     4
 40
10.16254
 49
0.00254
 74
     0
 49
-2.54
 74
     4
 75
   134
340
33
 46
2.54
 50
0.0
 44
-2.54
 45
0.0
 49
-5.08
 74
     4
 75
   134
340
33
 46
2.54
 50
180.0
 44
2.54
 45
0.0
 49
-2.54
 74
     0
  0
LTYPE
  5
43
330
5
100
AcDbSymbolTableRecord
100
AcDbLinetypeTableRecord
  2
BORDER
 70
     0
  3
Border __ __ . __ __ . __ __ . __ __ . __ __ .
 72
    65
 73
     6
 40
44.45
 49
12.7
 74
     0
 49
-6.349999999999998
 74
     0
 49
12.7
 74
     0
 49
-6.349999999999998
 74
     0
 49
0.0
 74
     0
 49
-6.349999999999998
 74
     0
  0
LTYPE
  5
44
330
5
100
AcDbSymbolTableRecord
100
AcDbLinetypeTableRecord
  2
BORDER2
 70
     0
  3
Border (.5x) __.__.__.__.__.__.__.__.__.__.__.
 72
    65
 73
     6
 40
22.225
 49
6.349999999999998
 74
     0
 49
-3.174999999999998
 74
     0
 49
6.349999999999998
 74
     0
 49
-3.174999999999998
 74
     0
 49
0.0
 74
     0
 49
-3.174999999999998
 74
     0
  0
LTYPE
  5
45
330
5
100
AcDbSymbolTableRecord
100
AcDbLinetypeTableRecord
  2
BORDERX2
 70
     0
  3
Border (2x) ____  ____  .  ____  ____  .  ___
 72
    65
 73
     6
 40
88.9
 49
25.4
 74
     0
 49
-12.7
 74
     0
 49
25.4
 74
     0
 49
-12.7
 74
     0
 49
0.0
 74
     0
 49
-12.7
 74
     0
  0
LTYPE
  5
46
330
5
100
AcDbSymbolTableRecord
100
AcDbLinetypeTableRecord
  2
CENTER
 70
     0
  3
Center ____ _ ____ _ ____ _ ____ _ ____ _ ____
 72
    65
 73
     4
 40
50.8
 49
31.75
 74
     0
 49
-6.349999999999998
 74
     0
 49
6.349999999999998
 74
     0
 49
-6.349999999999998
 74
     0
  0
LTYPE
  5
47
330
5
100
AcDbSymbolTableRecord
100
AcDbLinetypeTableRecord
  2
CENTER2
 70
     0
  3
Center (.5x) ___ _ ___ _ ___ _ ___ _ ___ _ ___
 72
    65
 73
     4
 40
28.575
 49
19.05
 74
     0
 49
-3.174999999999998
 74
     0
 49
3.174999999999998
 74
     0
 49
-3.174999999999998
 74
     0
  0
LTYPE
  5
48
330
5
100
AcDbSymbolTableRecord
100
AcDbLinetypeTableRecord
  2
CENTERX2
 70
     0
  3
Center (2x) ________  __  ________  __  _____
 72
    65
 73
     4
 40
101.6
 49
63.5
 74
     0
 49
-12.7
 74
     0
 49
12.7
 74
     0
 49
-12.7
 74
     0
  0
LTYPE
  5
49
330
5
100
AcDbSymbolTableRecord
100
AcDbLinetypeTableRecord
  2
DASHDOT
 70
     0
  3
Dash dot __ . __ . __ . __ . __ . __ . __ . __
 72
    65
 73
     4
 40
25.4
 49
12.7
 74
     0
 49
-6.349999999999998
 74
     0
 49
0.0
 74
     0
 49
-6.349999999999998
 74
     0
  0
LTYPE
  5
4A
330
5
100
AcDbSymbolTableRecord
100
AcDbLinetypeTableRecord
  2
DASHDOT2
 70
     0
  3
Dash dot (.5x) _._._._._._._._._._._._._._._.
 72
    65
 73
     4
 40
12.7
 49
6.349999999999998
 74
     0
 49
-3.174999999999998
 74
     0
 49
0.0
 74
     0
 49
-3.174999999999998
 74
     0
  0
LTYPE
  5
4B
330
5
100
AcDbSymbolTableRecord
100
AcDbLinetypeTableRecord
  2
DASHDOTX2
 70
     0
  3
Dash dot (2x) ____  .  ____  .  ____  .  ___
 72
    65
 73
     4
 40
50.8
 49
25.4
 74
     0
 49
-12.7
 74
     0
 49
0.0
 74
     0
 49
-12.7
 74
     0
  0
LTYPE
  5
4C
330
5
100
AcDbSymbolTableRecord
100
AcDbLinetypeTableRecord
  2
DASHED
 70
     0
  3
Dashed __ __ __ __ __ __ __ __ __ __ __ __ __ _
 72
    65
 73
     2
 40
19.05
 49
12.7
 74
     0
 49
-6.349999999999998
 74
     0
  0
LTYPE
  5
4D
330
5
100
AcDbSymbolTableRecord
100
AcDbLinetypeTableRecord
  2
DASHED2
 70
     0
  3
Dashed (.5x) _ _ _ _ _ _ _ _ _ _ _ _ _ _ _ _ _
 72
    65
 73
     2
 40
9.524999999999996
 49
6.349999999999998
 74
     0
 49
-3.174999999999998
 74
     0
  0
LTYPE
  5
4E
330
5
100
AcDbSymbolTableRecord
100
AcDbLinetypeTableRecord
  2
DASHEDX2
 70
     0
  3
Dashed (2x) ____  ____  ____  ____  ____  ___
 72
    65
 73
     2
 40
38.1
 49
25.4
 74
     0
 49
-12.7
 74
     0
  0
LTYPE
  5
4F
330
5
100
AcDbSymbolTableRecord
100
AcDbLinetypeTableRecord
  2
DIVIDE
 70
     0
  3
Divide ____ . . ____ . . ____ . . ____ . . ____
 72
    65
 73
     6
 40
31.75
 49
12.7
 74
     0
 49
-6.349999999999998
 74
     0
 49
0.0
 74
     0
 49
-6.349999999999998
 74
     0
 49
0.0
 74
     0
 49
-6.349999999999998
 74
     0
  0
LTYPE
  5
50
330
5
100
AcDbSymbolTableRecord
100
AcDbLinetypeTableRecord
  2
DIVIDE2
 70
     0
  3
Divide (.5x) __..__..__..__..__..__..__..__.._
 72
    65
 73
     6
 40
15.875
 49
6.349999999999998
 74
     0
 49
-3.174999999999998
 74
     0
 49
0.0
 74
     0
 49
-3.174999999999998
 74
     0
 49
0.0
 74
     0
 49
-3.174999999999998
 74
     0
  0
LTYPE
  5
51
330
5
100
AcDbSymbolTableRecord
100
AcDbLinetypeTableRecord
  2
DIVIDEX2
 70
     0
  3
Divide (2x) ________  .  .  ________  .  .  _
 72
    65
 73
     6
 40
63.49999999999999
 49
25.4
 74
     0
 49
-12.7
 74
     0
 49
0.0
 74
     0
 49
-12.7
 74
     0
 49
0.0
 74
     0
 49
-12.7
 74
     0
  0
LTYPE
  5
52
330
5
100
AcDbSymbolTableRecord
100
AcDbLinetypeTableRecord
  2
DOT
 70
     0
  3
Dot . . . . . . . . . . . . . . . . . . . . . .
 72
    65
 73
     2
 40
6.349999999999998
 49
0.0
 74
     0
 49
-6.349999999999998
 74
     0
  0
LTYPE
  5
53
330
5
100
AcDbSymbolTableRecord
100
AcDbLinetypeTableRecord
  2
DOT2
 70
     0
  3
Dot (.5x) .....................................
 72
    65
 73
     2
 40
3.174999999999998
 49
0.0
 74
     0
 49
-3.174999999999998
 74
     0
  0
LTYPE
  5
54
330
5
100
AcDbSymbolTableRecord
100
AcDbLinetypeTableRecord
  2
DOTX2
 70
     0
  3
Dot (2x) .  .  .  .  .  .  .  .  .  .  .  .  . 
 72
    65
 73
     2
 40
12.7
 49
0.0
 74
     0
 49
-12.7
 74
     0
  0
LTYPE
  5
55
330
5
100
AcDbSymbolTableRecord
100
AcDbLinetypeTableRecord
  2
FENCELINE1
 70
     0
  3
Fenceline circle ----0-----0----0-----0----0---
 72
    65
 73
     4
 40
36.83
 49
6.349999999999998
 74
     0
 49
-2.54
 74
     4
 75
   133
340
33
 46
2.54
 50
0.0
 44
-2.54
 45
0.0
 49
-2.54
 74
     0
 49
25.4
 74
     0
  0
LTYPE
  5
56
330
5
100
AcDbSymbolTableRecord
100
AcDbLinetypeTableRecord
  2
FENCELINE2
 70
     0
  3
Fenceline square ----[]-----[]----[]-----[]----
 72
    65
 73
     4
 40
36.83
 49
6.349999999999998
 74
     0
 49
-2.54
 74
     4
 75
   132
340
33
 46
2.54
 50
0.0
 44
-2.54
 45
0.0
 49
-2.54
 74
     0
 49
25.4
 74
     0
  0
LTYPE
  5
57
330
5
100
AcDbSymbolTableRecord
100
AcDbLinetypeTableRecord
  2
GAS_LINE
 70
     0
  3
Gas line ----GAS----GAS----GAS----GAS----GAS---
 72
    65
 73
     3
 40
24.13
 49
12.7
 74
     0
 49
-5.08
 74
     2
 75
     0
340
11
 46
2.54
 50
0.0
 44
-2.54
 45
-1.27
  9
GAS
 49
-6.349999999999998
 74
     0
  0
LTYPE
  5
58
330
5
100
AcDbSymbolTableRecord
100
AcDbLinetypeTableRecord
  2
HIDDEN
 70
     0
  3
Hidden __ __ __ __ __ __ __ __ __ __ __ __ __ _
 72
    65
 73
     2
 40
9.524999999999996
 49
6.349999999999998
 74
     0
 49
-3.174999999999998
 74
     0
  0
LTYPE
  5
59
330
5
100
AcDbSymbolTableRecord
100
AcDbLinetypeTableRecord
  2
HIDDEN2
 70
     0
  3
Hidden (.5x) _ _ _ _ _ _ _ _ _ _ _ _ _ _ _ _ _
 72
    65
 73
     2
 40
4.762499999999998
 49
3.174999999999998
 74
     0
 49
-1.587499999999999
 74
     0
  0
LTYPE
  5
5A
330
5
100
AcDbSymbolTableRecord
100
AcDbLinetypeTableRecord
  2
HIDDENX2
 70
     0
  3
Hidden (2x) ____ ____ ____ ____ ____ ____ ____
 72
    65
 73
     2
 40
19.05
 49
12.7
 74
     0
 49
-6.349999999999998
 74
     0
  0
LTYPE
  5
5B
330
5
100
AcDbSymbolTableRecord
100
AcDbLinetypeTableRecord
  2
HOT_WATER_SUPPLY
 70
     0
  3
Hot water supply ---- HW ---- HW ---- HW ----
 72
    65
 73
     3
 40
22.86
 49
12.7
 74
     0
 49
-5.08
 74
     2
 75
     0
340
11
 46
2.54
 50
0.0
 44
-2.54
 45
-1.27
  9
HW
 49
-5.08
 74
     0
  0
LTYPE
  5
5C
330
5
100
AcDbSymbolTableRecord
100
AcDbLinetypeTableRecord
  2
PHANTOM
 70
     0
  3
Phantom ______  __  __  ______  __  __  ______
 72
    65
 73
     6
 40
63.5
 49
31.75
 74
     0
 49
-6.349999999999998
 74
     0
 49
6.349999999999998
 74
     0
 49
-6.349999999999998
 74
     0
 49
6.349999999999998
 74
     0
 49
-6.349999999999998
 74
     0
  0
LTYPE
  5
5D
330
5
100
AcDbSymbolTableRecord
100
AcDbLinetypeTableRecord
  2
PHANTOM2
 70
     0
  3
Phantom (.5x) ___ _ _ ___ _ _ ___ _ _ ___ _ _
 72
    65
 73
     6
 40
31.75
 49
15.875
 74
     0
 49
-3.174999999999998
 74
     0
 49
3.174999999999998
 74
     0
 49
-3.174999999999998
 74
     0
 49
3.174999999999998
 74
     0
 49
-3.174999999999998
 74
     0
  0
LTYPE
  5
5E
330
5
100
AcDbSymbolTableRecord
100
AcDbLinetypeTableRecord
  2
PHANTOMX2
 70
     0
  3
Phantom (2x) ____________    ____    ____   _
 72
    65
 73
     6
 40
127.0
 49
63.5
 74
     0
 49
-12.7
 74
     0
 49
12.7
 74
     0
 49
-12.7
 74
     0
 49
12.7
 74
     0
 49
-12.7
 74
     0
  0
LTYPE
  5
5F
330
5
100
AcDbSymbolTableRecord
100
AcDbLinetypeTableRecord
  2
TRACKS
 70
     0
  3
Tracks -|-|-|-|-|-|-|-|-|-|-|-|-|-|-|-|-|-|-|-|
 72
    65
 73
     2
 40
7.62
 49
3.81
 74
     4
 75
   130
340
33
 46
6.349999999999998
 50
0.0
 44
0.0
 45
0.0
 49
3.81
 74
     0
  0
LTYPE
  5
60
330
5
100
AcDbSymbolTableRecord
100
AcDbLinetypeTableRecord
  2
ZIGZAG
 70
     0
  3
Zig zag /\/\/\/\/\/\/\/\/\/\/\/\/\/\/\/\/\/\/\/
 72
    65
 73
     4
 40
20.32254
 49
0.00254
 74
     0
 49
-5.08
 74
     4
 75
   131
340
33
 46
5.08
 50
0.0
 44
-5.08
 45
0.0
 49
-10.16
 74
     4
 75
   131
340
33
 46
5.08
 50
180.0
 44
5.08
 45
0.0
 49
-5.08
 74
     0
  0
ENDTAB
  0
TABLE
  2
LAYER
  5
2
330
0
100
AcDbSymbolTable
 70
     9
  0
LAYER
  5
10
330
2
100
AcDbSymbolTableRecord
100
AcDbLayerTableRecord
  2
0
 70
     0
 62
     7
  6
Continuous
370
    -3
390
F
  0
LAYER
  5
C3
330
2
100
AcDbSymbolTableRecord
100
AcDbLayerTableRecord
  2
Defpoints
 70
     0
 62
     7
  6
Continuous
290
     0
370
    -3
390
F
  0
LAYER
  5
256
330
2
100
AcDbSymbolTableRecord
100
AcDbLayerTableRecord
  2
センター
 70
     0
 62
     7
  6
CENTER2
370
    18
390
F
  0
LAYER
  5
268
330
2
100
AcDbSymbolTableRecord
100
AcDbLayerTableRecord
  2
実形
 70
     0
 62
     7
  6
Continuous
370
    -3
390
F
  0
LAYER
  5
269
330
2
100
AcDbSymbolTableRecord
100
AcDbLayerTableRecord
  2
補助
 70
     0
 62
    -4
  6
Continuous
290
     0
370
    -3
390
F
  0
LAYER
  5
26A
330
2
100
AcDbSymbolTableRecord
100
AcDbLayerTableRecord
  2
寸法
 70
     0
 62
     7
  6
Continuous
370
    18
390
F
  0
LAYER
  5
26B
330
2
100
AcDbSymbolTableRecord
100
AcDbLayerTableRecord
  2
ハッチング
 70
     0
 62
     7
  6
Continuous
370
    18
390
F
  0
LAYER
  5
26D
330
2
100
AcDbSymbolTableRecord
100
AcDbLayerTableRecord
  2
文字
 70
     0
 62
     7
  6
Continuous
370
    -3
390
F
  0
LAYER
  5
1D2A
330
2
100
AcDbSymbolTableRecord
100
AcDbLayerTableRecord
  2
Cen
 70
     0
 62
     7
  6
CENTER2
370
    15
390
F
  0
ENDTAB
  0
TABLE
  2
STYLE
  5
3
330
0
100
AcDbSymbolTable
 70
     2
  0
STYLE
  5
11
330
3
100
AcDbSymbolTableRecord
100
AcDbTextStyleTableRecord
  2
Standard
 70
     0
 40
0.0
 41
1.0
 50
0.0
 71
     0
 42
25.0
  3
txt.shx
  4
bigfont.shx
  0
STYLE
  5
33
330
3
100
AcDbSymbolTableRecord
100
AcDbTextStyleTableRecord
  2

 70
     1
 40
0.0
 41
1.0
 50
0.0
 71
     0
 42
2.5
  3
ltypeshp.shx
  4

  0
ENDTAB
  0
TABLE
  2
VIEW
  5
6
330
0
100
AcDbSymbolTable
 70
     0
  0
ENDTAB
  0
TABLE
  2
UCS
  5
7
330
0
100
AcDbSymbolTable
 70
     0
  0
ENDTAB
  0
TABLE
  2
APPID
  5
9
330
0
100
AcDbSymbolTable
 70
     2
  0
APPID
  5
12
330
9
100
AcDbSymbolTableRecord
100
AcDbRegAppTableRecord
  2
ACAD
 70
     0
  0
APPID
  5
1DE0
330
9
100
AcDbSymbolTableRecord
100
AcDbRegAppTableRecord
  2
DCO15
 70
     0
  0
ENDTAB
  0
TABLE
  2
DIMSTYLE
  5
A
330
0
100
AcDbSymbolTable
 70
     1
100
AcDbDimStyleTable
 71
     1
340
27
  0
DIMSTYLE
105
27
102
{ACAD_REACTORS
330
12A2
330
12E0
330
12ED
330
12FA
330
1307
330
132F
330
134E
330
1382
330
1391
330
139E
330
13AD
330
13BA
330
13C9
330
1472
330
1560
330
1562
330
1563
330
156E
330
1574
330
17A6
330
17A7
330
17B2
330
17B3
102
}
330
A
100
AcDbSymbolTableRecord
100
AcDbDimStyleTableRecord
  2
ISO-25
 70
     0
 41
35.0
 42
65.0
 43
3.75
 44
0.0
 73
     0
 74
     0
 77
     1
 78
     8
140
25.0
141
2.5
143
0.03937007874016
147
6.25
171
     3
172
     1
271
     2
272
     2
274
     3
283
     0
284
     8
340
11
341
DA
342
D0
371
    15
372
    15
  0
ENDTAB
  0
TABLE
  2
BLOCK_RECORD
  5
1
330
0
100
AcDbSymbolTable
 70
    28
  0
BLOCK_RECORD
  5
1F
330
1
100
AcDbSymbolTableRecord
100
AcDbBlockTableRecord
  2
*Model_Space
340
22
  0
BLOCK_RECORD
  5
1B
330
1
100
AcDbSymbolTableRecord
100
AcDbBlockTableRecord
  2
*Paper_Space
340
1E
  0
BLOCK_RECORD
  5
23
330
1
100
AcDbSymbolTableRecord
100
AcDbBlockTableRecord
  2
*Paper_Space0
340
26
  0
BLOCK_RECORD
  5
D0
330
1
100
AcDbSymbolTableRecord
100
AcDbBlockTableRecord
  2
_DotSmall
340
0
102
{BLKREFS
331
1B79
331
1B7A
331
1B82
331
1B83
331
1B8A
331
1B8B
331
1B93
331
1B94
331
1BA6
331
1BA7
331
1BAF
331
1BB0
331
1BB8
331
1BB9
331
1BC1
331
1BC2
331
1BCA
331
1BCB
331
1C6A
331
1C6B
331
1CA2
331
1CA3
331
1CAB
331
1CAC
331
1CB5
331
1CB6
331
1CBD
331
1CBE
331
1CC6
331
1CC7
331
1CCF
331
1CD0
331
1CD8
331
1CD9
331
1CE2
331
1CE3
331
1CF4
331
1CF5
331
1CFC
331
1CFD
331
1D05
331
1D06
331
1D0E
331
1D0F
331
1D18
331
1D19
102
}
  0
BLOCK_RECORD
  5
D4
330
1
100
AcDbSymbolTableRecord
100
AcDbBlockTableRecord
  2
_Origin2
340
0
  0
BLOCK_RECORD
  5
DA
330
1
100
AcDbSymbolTableRecord
100
AcDbBlockTableRecord
  2
_Open30
340
0
  0
BLOCK_RECORD
  5
12A3
330
1
100
AcDbSymbolTableRecord
100
AcDbBlockTableRecord
  2
*D4
340
0
  0
BLOCK_RECORD
  5
12E1
330
1
100
AcDbSymbolTableRecord
100
AcDbBlockTableRecord
  2
*D5
340
0
  0
BLOCK_RECORD
  5
12EE
330
1
100
AcDbSymbolTableRecord
100
AcDbBlockTableRecord
  2
*D6
340
0
  0
BLOCK_RECORD
  5
12FB
330
1
100
AcDbSymbolTableRecord
100
AcDbBlockTableRecord
  2
*D7
340
0
  0
BLOCK_RECORD
  5
1308
330
1
100
AcDbSymbolTableRecord
100
AcDbBlockTableRecord
  2
*D8
340
0
  0
BLOCK_RECORD
  5
1330
330
1
100
AcDbSymbolTableRecord
100
AcDbBlockTableRecord
  2
*D9
340
0
  0
BLOCK_RECORD
  5
134F
330
1
100
AcDbSymbolTableRecord
100
AcDbBlockTableRecord
  2
*D10
340
0
  0
BLOCK_RECORD
  5
1383
330
1
100
AcDbSymbolTableRecord
100
AcDbBlockTableRecord
  2
*D11
340
0
  0
BLOCK_RECORD
  5
1392
330
1
100
AcDbSymbolTableRecord
100
AcDbBlockTableRecord
  2
*D12
340
0
  0
BLOCK_RECORD
  5
139F
330
1
100
AcDbSymbolTableRecord
100
AcDbBlockTableRecord
  2
*D13
340
0
  0
BLOCK_RECORD
  5
13AE
330
1
100
AcDbSymbolTableRecord
100
AcDbBlockTableRecord
  2
*D14
340
0
  0
BLOCK_RECORD
  5
13BB
330
1
100
AcDbSymbolTableRecord
100
AcDbBlockTableRecord
  2
*D15
340
0
  0
BLOCK_RECORD
  5
13CA
330
1
100
AcDbSymbolTableRecord
100
AcDbBlockTableRecord
  2
*D16
340
0
  0
BLOCK_RECORD
  5
1473
330
1
100
AcDbSymbolTableRecord
100
AcDbBlockTableRecord
  2
*D17
340
0
  0
BLOCK_RECORD
  5
1583
330
1
100
AcDbSymbolTableRecord
100
AcDbBlockTableRecord
  2
*D18
340
0
  0
BLOCK_RECORD
  5
158F
330
1
100
AcDbSymbolTableRecord
100
AcDbBlockTableRecord
  2
*D19
340
0
  0
BLOCK_RECORD
  5
159B
330
1
100
AcDbSymbolTableRecord
100
AcDbBlockTableRecord
  2
*D20
340
0
  0
BLOCK_RECORD
  5
15A7
330
1
100
AcDbSymbolTableRecord
100
AcDbBlockTableRecord
  2
*D21
340
0
  0
BLOCK_RECORD
  5
15B3
330
1
100
AcDbSymbolTableRecord
100
AcDbBlockTableRecord
  2
*D22
340
0
  0
BLOCK_RECORD
  5
17DD
330
1
100
AcDbSymbolTableRecord
100
AcDbBlockTableRecord
  2
*D23
340
0
  0
BLOCK_RECORD
  5
17E9
330
1
100
AcDbSymbolTableRecord
100
AcDbBlockTableRecord
  2
*D24
340
0
  0
BLOCK_RECORD
  5
1800
330
1
100
AcDbSymbolTableRecord
100
AcDbBlockTableRecord
  2
*D25
340
0
  0
BLOCK_RECORD
  5
180C
330
1
100
AcDbSymbolTableRecord
100
AcDbBlockTableRecord
  2
*D26
340
0
  0
BLOCK_RECORD
  5
1DC1
330
1
100
AcDbSymbolTableRecord
100
AcDbBlockTableRecord
  2
A$C71AF25C3
340
0
  0
ENDTAB
  0
ENDSEC
  0
SECTION
  2
BLOCKS
  0
BLOCK
  5
20
330
1F
100
AcDbEntity
  8
0
100
AcDbBlockBegin
  2
*Model_Space
 70
     0
 10
0.0
 20
0.0
 30
0.0
  3
*Model_Space
  1

  0
ENDBLK
  5
21
330
1F
100
AcDbEntity
  8
0
100
AcDbBlockEnd
  0
BLOCK
  5
1C
330
1B
100
AcDbEntity
 67
     1
  8
0
100
AcDbBlockBegin
  2
*Paper_Space
 70
     0
 10
0.0
 20
0.0
 30
0.0
  3
*Paper_Space
  1

  0
ENDBLK
  5
1D
330
1B
100
AcDbEntity
 67
     1
  8
0
100
AcDbBlockEnd
  0
BLOCK
  5
24
330
23
100
AcDbEntity
  8
0
100
AcDbBlockBegin
  2
*Paper_Space0
 70
     0
 10
0.0
 20
0.0
 30
0.0
  3
*Paper_Space0
  1

  0
ENDBLK
  5
25
330
23
100
AcDbEntity
  8
0
100
AcDbBlockEnd
  0
BLOCK
  5
D2
330
D0
100
AcDbEntity
  8
0
100
AcDbBlockBegin
  2
_DotSmall
 70
     0
 10
0.0
 20
0.0
 30
0.0
  3
_DotSmall
  1

  0
LWPOLYLINE
  5
D1
330
D0
100
AcDbEntity
  8
0
 62
     0
100
AcDbPolyline
 90
        2
 70
     1
 43
0.5
 10
-0.0625
 20
0.0
 42
1.0
 10
0.0625
 20
0.0
 42
1.0
  0
ENDBLK
  5
D3
330
D0
100
AcDbEntity
  8
0
100
AcDbBlockEnd
  0
BLOCK
  5
D8
330
D4
100
AcDbEntity
  8
0
100
AcDbBlockBegin
  2
_Origin2
 70
     0
 10
0.0
 20
0.0
 30
0.0
  3
_Origin2
  1

  0
CIRCLE
  5
D5
330
D4
100
AcDbEntity
  8
0
 62
     0
370
    -2
100
AcDbCircle
 10
0.0
 20
0.0
 30
0.0
 40
0.5
  0
CIRCLE
  5
D6
330
D4
100
AcDbEntity
  8
0
 62
     0
370
    -2
100
AcDbCircle
 10
0.0
 20
0.0
 30
0.0
 40
0.25
  0
LINE
  5
D7
330
D4
100
AcDbEntity
  8
0
 62
     0
370
    -2
100
AcDbLine
 10
-0.5
 20
0.0
 30
0.0
 11
-1.0
 21
0.0
 31
0.0
  0
ENDBLK
  5
D9
330
D4
100
AcDbEntity
  8
0
100
AcDbBlockEnd
  0
BLOCK
  5
DE
330
DA
100
AcDbEntity
  8
0
100
AcDbBlockBegin
  2
_Open30
 70
     0
 10
0.0
 20
0.0
 30
0.0
  3
_Open30
  1

  0
LINE
  5
DB
330
DA
100
AcDbEntity
  8
0
 62
     0
370
    -2
100
AcDbLine
 10
-1.0
 20
0.26794919
 30
0.0
 11
0.0
 21
0.0
 31
0.0
  0
LINE
  5
DC
330
DA
100
AcDbEntity
  8
0
 62
     0
370
    -2
100
AcDbLine
 10
0.0
 20
0.0
 30
0.0
 11
-1.0
 21
-0.26794919
 31
0.0
  0
LINE
  5
DD
330
DA
100
AcDbEntity
  8
0
 62
     0
370
    -2
100
AcDbLine
 10
0.0
 20
0.0
 30
0.0
 11
-1.0
 21
0.0
 31
0.0
  0
ENDBLK
  5
DF
330
DA
100
AcDbEntity
  8
0
100
AcDbBlockEnd
  0
BLOCK
  5
12AE
330
12A3
100
AcDbEntity
  8
0
100
AcDbBlockBegin
  2
*D4
 70
     1
 10
0.0
 20
0.0
 30
0.0
  3
*D4
  1

  0
LINE
  5
1BBD
330
12A3
100
AcDbEntity
  8
寸法
 62
     0
370
    18
100
AcDbLine
 10
723.5936297894721
 20
1693.67545567602
 30
0.0
 11
633.9629018630796
 21
1693.67545567602
 31
0.0
  0
LINE
  5
1BBE
330
12A3
100
AcDbEntity
  8
寸法
 62
     0
370
    18
100
AcDbLine
 10
723.5936297894721
 20
1675.675455676019
 30
0.0
 11
633.9629018630796
 21
1675.675455676019
 31
0.0
  0
LINE
  5
1BBF
330
12A3
100
AcDbEntity
  8
寸法
 62
     0
370
    18
100
AcDbLine
 10
633.9629018630796
 20
1693.67545567602
 30
0.0
 11
633.9629018630796
 21
1675.675455676019
 31
0.0
  0
MTEXT
  5
1BC0
330
12A3
100
AcDbEntity
  8
寸法
 62
     0
100
AcDbMText
 10
622.4454173656495
 20
1729.428900627159
 30
0.0
 40
25.0
 41
0.0
 71
     5
 72
     1
  1
18
 11
0.0000000000000001
 21
1.0
 31
0.0
 73
     1
 44
1.0
1001
ACAD
1000
MTEXTBEGIN
1070
    73
1070
     1
1070
    44
1040
1.0
1070
    74
1070
     0
1000
MTEXTEND
  0
INSERT
  5
1BC1
330
12A3
100
AcDbEntity
  8
寸法
 62
     0
370
    18
100
AcDbBlockReference
  2
_DotSmall
 10
633.9629018630796
 20
1693.67545567602
 30
0.0
 41
35.0
 42
35.0
 43
35.0
 50
90.0
  0
INSERT
  5
1BC2
330
12A3
100
AcDbEntity
  8
寸法
 62
     0
370
    18
100
AcDbBlockReference
  2
_DotSmall
 10
633.9629018630796
 20
1675.675455676019
 30
0.0
 41
35.0
 42
35.0
 43
35.0
 50
270.0
  0
POINT
  5
1BC3
330
12A3
100
AcDbEntity
  8
Defpoints
 62
     0
100
AcDbPoint
 10
788.5936297894722
 20
1693.67545567602
 30
0.0
  0
POINT
  5
1BC4
330
12A3
100
AcDbEntity
  8
Defpoints
 62
     0
100
AcDbPoint
 10
788.5936297894722
 20
1675.675455676019
 30
0.0
  0
POINT
  5
1BC5
330
12A3
100
AcDbEntity
  8
Defpoints
 62
     0
100
AcDbPoint
 10
633.9629018630796
 20
1675.675455676019
 30
0.0
  0
ENDBLK
  5
12AF
330
12A3
100
AcDbEntity
  8
0
100
AcDbBlockEnd
  0
BLOCK
  5
12EB
330
12E1
100
AcDbEntity
  8
0
100
AcDbBlockBegin
  2
*D5
 70
     1
 10
0.0
 20
0.0
 30
0.0
  3
*D5
  1

  0
LINE
  5
1BC6
330
12E1
100
AcDbEntity
  8
寸法
 62
     0
370
    18
100
AcDbLine
 10
723.5936297894721
 20
1675.675455676019
 30
0.0
 11
633.9629018630796
 21
1675.675455676019
 31
0.0
  0
LINE
  5
1BC7
330
12E1
100
AcDbEntity
  8
寸法
 62
     0
370
    18
100
AcDbLine
 10
723.5936297894721
 20
1653.67545567602
 30
0.0
 11
633.9629018630796
 21
1653.67545567602
 31
0.0
  0
LINE
  5
1BC8
330
12E1
100
AcDbEntity
  8
寸法
 62
     0
370
    18
100
AcDbLine
 10
633.9629018630796
 20
1675.675455676019
 30
0.0
 11
633.9629018630796
 21
1653.67545567602
 31
0.0
  0
MTEXT
  5
1BC9
330
12E1
100
AcDbEntity
  8
寸法
 62
     0
100
AcDbMText
 10
601.3919132282998
 20
1646.564880774364
 30
0.0
 40
25.0
 41
0.0
 71
     5
 72
     1
  1
22
 11
0.0000000000000001
 21
1.0
 31
0.0
 73
     1
 44
1.0
1001
ACAD
1000
MTEXTBEGIN
1070
    73
1070
     1
1070
    44
1040
1.0
1070
    74
1070
     0
1000
MTEXTEND
  0
INSERT
  5
1BCA
330
12E1
100
AcDbEntity
  8
寸法
 62
     0
370
    18
100
AcDbBlockReference
  2
_DotSmall
 10
633.9629018630796
 20
1675.675455676019
 30
0.0
 41
35.0
 42
35.0
 43
35.0
 50
90.0
  0
INSERT
  5
1BCB
330
12E1
100
AcDbEntity
  8
寸法
 62
     0
370
    18
100
AcDbBlockReference
  2
_DotSmall
 10
633.9629018630796
 20
1653.67545567602
 30
0.0
 41
35.0
 42
35.0
 43
35.0
 50
270.0
  0
POINT
  5
1BCC
330
12E1
100
AcDbEntity
  8
Defpoints
 62
     0
100
AcDbPoint
 10
788.5936297894722
 20
1675.675455676019
 30
0.0
  0
POINT
  5
1BCD
330
12E1
100
AcDbEntity
  8
Defpoints
 62
     0
100
AcDbPoint
 10
788.5936297894722
 20
1653.67545567602
 30
0.0
  0
POINT
  5
1BCE
330
12E1
100
AcDbEntity
  8
Defpoints
 62
     0
100
AcDbPoint
 10
633.9629018630796
 20
1653.67545567602
 30
0.0
  0
ENDBLK
  5
12EC
330
12E1
100
AcDbEntity
  8
0
100
AcDbBlockEnd
  0
BLOCK
  5
12F8
330
12EE
100
AcDbEntity
  8
0
100
AcDbBlockBegin
  2
*D6
 70
     1
 10
0.0
 20
0.0
 30
0.0
  3
*D6
  1

  0
LINE
  5
1B90
330
12EE
100
AcDbEntity
  8
寸法
 62
     0
370
    18
100
AcDbLine
 10
723.5936297894721
 20
1653.67545567602
 30
0.0
 11
633.9629018630797
 21
1653.67545567602
 31
0.0
  0
LINE
  5
1B91
330
12EE
100
AcDbEntity
  8
寸法
 62
     0
370
    18
100
AcDbLine
 10
723.5936297894721
 20
1213.67545567602
 30
0.0
 11
633.9629018630796
 21
1213.67545567602
 31
0.0
  0
LINE
  5
1B92
330
12EE
100
AcDbEntity
  8
寸法
 62
     0
370
    18
100
AcDbLine
 10
633.9629018630797
 20
1653.67545567602
 30
0.0
 11
633.9629018630796
 21
1213.67545567602
 31
0.0
  0
INSERT
  5
1B93
330
12EE
100
AcDbEntity
  8
寸法
 62
     0
370
    18
100
AcDbBlockReference
  2
_DotSmall
 10
633.9629018630797
 20
1653.67545567602
 30
0.0
 41
35.0
 42
35.0
 43
35.0
 50
90.0
  0
INSERT
  5
1B94
330
12EE
100
AcDbEntity
  8
寸法
 62
     0
370
    18
100
AcDbBlockReference
  2
_DotSmall
 10
633.9629018630796
 20
1213.67545567602
 30
0.0
 41
35.0
 42
35.0
 43
35.0
 50
270.0
  0
MTEXT
  5
1B95
330
12EE
100
AcDbEntity
  8
寸法
 62
     0
100
AcDbMText
 10
615.2129018630795
 20
1433.67545567602
 30
0.0
 40
25.0
 41
0.0
 71
     5
 72
     1
  1
440
 11
0.0000000000000001
 21
1.0
 31
0.0
 73
     1
 44
1.0
1001
ACAD
1000
MTEXTBEGIN
1070
    73
1070
     1
1070
    44
1040
1.0
1070
    74
1070
     0
1000
MTEXTEND
  0
POINT
  5
1B96
330
12EE
100
AcDbEntity
  8
Defpoints
 62
     0
100
AcDbPoint
 10
788.5936297894722
 20
1653.67545567602
 30
0.0
  0
POINT
  5
1B97
330
12EE
100
AcDbEntity
  8
Defpoints
 62
     0
100
AcDbPoint
 10
788.5936297894722
 20
1213.67545567602
 30
0.0
  0
POINT
  5
1B98
330
12EE
100
AcDbEntity
  8
Defpoints
 62
     0
100
AcDbPoint
 10
633.9629018630796
 20
1213.67545567602
 30
0.0
  0
ENDBLK
  5
12F9
330
12EE
100
AcDbEntity
  8
0
100
AcDbBlockEnd
  0
BLOCK
  5
1305
330
12FB
100
AcDbEntity
  8
0
100
AcDbBlockBegin
  2
*D7
 70
     1
 10
0.0
 20
0.0
 30
0.0
  3
*D7
  1

  0
LINE
  5
1BB4
330
12FB
100
AcDbEntity
  8
寸法
 62
     0
370
    18
100
AcDbLine
 10
723.5936297894721
 20
1213.67545567602
 30
0.0
 11
633.9629018630796
 21
1213.67545567602
 31
0.0
  0
LINE
  5
1BB5
330
12FB
100
AcDbEntity
  8
寸法
 62
     0
370
    18
100
AcDbLine
 10
723.5936297894721
 20
1191.67545567602
 30
0.0
 11
633.9629018630796
 21
1191.67545567602
 31
0.0
  0
LINE
  5
1BB6
330
12FB
100
AcDbEntity
  8
寸法
 62
     0
370
    18
100
AcDbLine
 10
633.9629018630796
 20
1213.67545567602
 30
0.0
 11
633.9629018630796
 21
1191.67545567602
 31
0.0
  0
MTEXT
  5
1BB7
330
12FB
100
AcDbEntity
  8
寸法
 62
     0
100
AcDbMText
 10
601.3919132282998
 20
1227.64122754838
 30
0.0
 40
25.0
 41
0.0
 71
     5
 72
     1
  1
22
 11
0.0000000000000001
 21
1.0
 31
0.0
 73
     1
 44
1.0
1001
ACAD
1000
MTEXTBEGIN
1070
    73
1070
     1
1070
    44
1040
1.0
1070
    74
1070
     0
1000
MTEXTEND
  0
INSERT
  5
1BB8
330
12FB
100
AcDbEntity
  8
寸法
 62
     0
370
    18
100
AcDbBlockReference
  2
_DotSmall
 10
633.9629018630796
 20
1213.67545567602
 30
0.0
 41
35.0
 42
35.0
 43
35.0
 50
90.0
  0
INSERT
  5
1BB9
330
12FB
100
AcDbEntity
  8
寸法
 62
     0
370
    18
100
AcDbBlockReference
  2
_DotSmall
 10
633.9629018630796
 20
1191.67545567602
 30
0.0
 41
35.0
 42
35.0
 43
35.0
 50
270.0
  0
POINT
  5
1BBA
330
12FB
100
AcDbEntity
  8
Defpoints
 62
     0
100
AcDbPoint
 10
788.5936297894722
 20
1213.67545567602
 30
0.0
  0
POINT
  5
1BBB
330
12FB
100
AcDbEntity
  8
Defpoints
 62
     0
100
AcDbPoint
 10
788.5936297894722
 20
1191.67545567602
 30
0.0
  0
POINT
  5
1BBC
330
12FB
100
AcDbEntity
  8
Defpoints
 62
     0
100
AcDbPoint
 10
633.9629018630796
 20
1191.67545567602
 30
0.0
  0
ENDBLK
  5
1306
330
12FB
100
AcDbEntity
  8
0
100
AcDbBlockEnd
  0
BLOCK
  5
1312
330
1308
100
AcDbEntity
  8
0
100
AcDbBlockBegin
  2
*D8
 70
     1
 10
0.0
 20
0.0
 30
0.0
  3
*D8
  1

  0
LINE
  5
1BAB
330
1308
100
AcDbEntity
  8
寸法
 62
     0
370
    18
100
AcDbLine
 10
723.5936297894721
 20
1191.67545567602
 30
0.0
 11
633.9629018630796
 21
1191.67545567602
 31
0.0
  0
LINE
  5
1BAC
330
1308
100
AcDbEntity
  8
寸法
 62
     0
370
    18
100
AcDbLine
 10
723.5936297894721
 20
1173.67545567602
 30
0.0
 11
633.9629018630796
 21
1173.67545567602
 31
0.0
  0
LINE
  5
1BAD
330
1308
100
AcDbEntity
  8
寸法
 62
     0
370
    18
100
AcDbLine
 10
633.9629018630796
 20
1191.67545567602
 30
0.0
 11
633.9629018630796
 21
1173.67545567602
 31
0.0
  0
MTEXT
  5
1BAE
330
1308
100
AcDbEntity
  8
寸法
 62
     0
100
AcDbMText
 10
615.2129018630794
 20
1137.871871898906
 30
0.0
 40
25.0
 41
0.0
 71
     5
 72
     1
  1
18
 11
0.0000000000000001
 21
1.0
 31
0.0
 73
     1
 44
1.0
1001
ACAD
1000
MTEXTBEGIN
1070
    73
1070
     1
1070
    44
1040
1.0
1070
    74
1070
     0
1000
MTEXTEND
  0
INSERT
  5
1BAF
330
1308
100
AcDbEntity
  8
寸法
 62
     0
370
    18
100
AcDbBlockReference
  2
_DotSmall
 10
633.9629018630796
 20
1191.67545567602
 30
0.0
 41
35.0
 42
35.0
 43
35.0
 50
90.0
  0
INSERT
  5
1BB0
330
1308
100
AcDbEntity
  8
寸法
 62
     0
370
    18
100
AcDbBlockReference
  2
_DotSmall
 10
633.9629018630796
 20
1173.67545567602
 30
0.0
 41
35.0
 42
35.0
 43
35.0
 50
270.0
  0
POINT
  5
1BB1
330
1308
100
AcDbEntity
  8
Defpoints
 62
     0
100
AcDbPoint
 10
788.5936297894722
 20
1191.67545567602
 30
0.0
  0
POINT
  5
1BB2
330
1308
100
AcDbEntity
  8
Defpoints
 62
     0
100
AcDbPoint
 10
788.5936297894722
 20
1173.67545567602
 30
0.0
  0
POINT
  5
1BB3
330
1308
100
AcDbEntity
  8
Defpoints
 62
     0
100
AcDbPoint
 10
633.9629018630796
 20
1173.67545567602
 30
0.0
  0
ENDBLK
  5
1313
330
1308
100
AcDbEntity
  8
0
100
AcDbBlockEnd
  0
BLOCK
  5
133A
330
1330
100
AcDbEntity
  8
0
100
AcDbBlockBegin
  2
*D9
 70
     1
 10
0.0
 20
0.0
 30
0.0
  3
*D9
  1

  0
LINE
  5
1B87
330
1330
100
AcDbEntity
  8
寸法
 62
     0
370
    18
100
AcDbLine
 10
723.5936297894721
 20
1693.67545567602
 30
0.0
 11
560.2509594618124
 21
1693.67545567602
 31
0.0
  0
LINE
  5
1B88
330
1330
100
AcDbEntity
  8
寸法
 62
     0
370
    18
100
AcDbLine
 10
723.5936297894721
 20
1173.67545567602
 30
0.0
 11
560.2509594618123
 21
1173.67545567602
 31
0.0
  0
LINE
  5
1B89
330
1330
100
AcDbEntity
  8
寸法
 62
     0
370
    18
100
AcDbLine
 10
560.2509594618124
 20
1693.67545567602
 30
0.0
 11
560.2509594618123
 21
1173.67545567602
 31
0.0
  0
INSERT
  5
1B8A
330
1330
100
AcDbEntity
  8
寸法
 62
     0
370
    18
100
AcDbBlockReference
  2
_DotSmall
 10
560.2509594618124
 20
1693.67545567602
 30
0.0
 41
35.0
 42
35.0
 43
35.0
 50
90.0
  0
INSERT
  5
1B8B
330
1330
100
AcDbEntity
  8
寸法
 62
     0
370
    18
100
AcDbBlockReference
  2
_DotSmall
 10
560.2509594618123
 20
1173.67545567602
 30
0.0
 41
35.0
 42
35.0
 43
35.0
 50
270.0
  0
MTEXT
  5
1B8C
330
1330
100
AcDbEntity
  8
寸法
 62
     0
100
AcDbMText
 10
541.5009594618121
 20
1433.67545567602
 30
0.0
 40
25.0
 41
0.0
 71
     5
 72
     1
  1
520
 11
0.0000000000000001
 21
1.0
 31
0.0
 73
     1
 44
1.0
1001
ACAD
1000
MTEXTBEGIN
1070
    73
1070
     1
1070
    44
1040
1.0
1070
    74
1070
     0
1000
MTEXTEND
  0
POINT
  5
1B8D
330
1330
100
AcDbEntity
  8
Defpoints
 62
     0
100
AcDbPoint
 10
788.5936297894722
 20
1693.67545567602
 30
0.0
  0
POINT
  5
1B8E
330
1330
100
AcDbEntity
  8
Defpoints
 62
     0
100
AcDbPoint
 10
788.5936297894722
 20
1173.67545567602
 30
0.0
  0
POINT
  5
1B8F
330
1330
100
AcDbEntity
  8
Defpoints
 62
     0
100
AcDbPoint
 10
560.2509594618123
 20
1173.67545567602
 30
0.0
  0
ENDBLK
  5
133B
330
1330
100
AcDbEntity
  8
0
100
AcDbBlockEnd
  0
BLOCK
  5
135A
330
134F
100
AcDbEntity
  8
0
100
AcDbBlockBegin
  2
*D10
 70
     1
 10
0.0
 20
0.0
 30
0.0
  3
*D10
  1

  0
LINE
  5
1BA2
330
134F
100
AcDbEntity
  8
寸法
 62
     0
370
    18
100
AcDbLine
 10
788.5936297894722
 20
1108.67545567602
 30
0.0
 11
788.5936297894722
 21
1062.290944394732
 31
0.0
  0
LINE
  5
1BA3
330
134F
100
AcDbEntity
  8
寸法
 62
     0
370
    18
100
AcDbLine
 10
806.5936297894721
 20
1108.67545567602
 30
0.0
 11
806.5936297894721
 21
1062.290944394732
 31
0.0
  0
LINE
  5
1BA4
330
134F
100
AcDbEntity
  8
寸法
 62
     0
370
    18
100
AcDbLine
 10
788.5936297894722
 20
1062.290944394732
 30
0.0
 11
806.5936297894721
 21
1062.290944394732
 31
0.0
  0
MTEXT
  5
1BA5
330
134F
100
AcDbEntity
  8
寸法
 62
     0
100
AcDbMText
 10
752.8350914612282
 20
1073.70353727191
 30
0.0
 40
25.0
 41
0.0
 71
     5
 72
     1
  1
18
 73
     1
 44
1.0
1001
ACAD
1000
MTEXTBEGIN
1070
    73
1070
     1
1070
    44
1040
1.0
1070
    74
1070
     0
1000
MTEXTEND
  0
INSERT
  5
1BA6
330
134F
100
AcDbEntity
  8
寸法
 62
     0
370
    18
100
AcDbBlockReference
  2
_DotSmall
 10
788.5936297894722
 20
1062.290944394732
 30
0.0
 41
35.0
 42
35.0
 43
35.0
 50
180.0
  0
INSERT
  5
1BA7
330
134F
100
AcDbEntity
  8
寸法
 62
     0
370
    18
100
AcDbBlockReference
  2
_DotSmall
 10
806.5936297894721
 20
1062.290944394732
 30
0.0
 41
35.0
 42
35.0
 43
35.0
  0
POINT
  5
1BA8
330
134F
100
AcDbEntity
  8
Defpoints
 62
     0
100
AcDbPoint
 10
788.5936297894722
 20
1173.67545567602
 30
0.0
  0
POINT
  5
1BA9
330
134F
100
AcDbEntity
  8
Defpoints
 62
     0
100
AcDbPoint
 10
806.5936297894721
 20
1173.67545567602
 30
0.0
  0
POINT
  5
1BAA
330
134F
100
AcDbEntity
  8
Defpoints
 62
     0
100
AcDbPoint
 10
806.5936297894721
 20
1062.290944394732
 30
0.0
  0
ENDBLK
  5
135B
330
134F
100
AcDbEntity
  8
0
100
AcDbBlockEnd
  0
BLOCK
  5
138F
330
1383
100
AcDbEntity
  8
0
100
AcDbBlockBegin
  2
*D11
 70
     1
 10
0.0
 20
0.0
 30
0.0
  3
*D11
  1

  0
LINE
  5
1CB1
330
1383
100
AcDbEntity
  8
寸法
 62
     0
370
    18
100
AcDbLine
 10
1910.593629789472
 20
1108.67545567602
 30
0.0
 11
1910.593629789472
 21
1062.290944394732
 31
0.0
  0
LINE
  5
1CB2
330
1383
100
AcDbEntity
  8
寸法
 62
     0
370
    18
100
AcDbLine
 10
1883.593629789472
 20
1108.67545567602
 30
0.0
 11
1883.593629789472
 21
1062.290944394732
 31
0.0
  0
LINE
  5
1CB3
330
1383
100
AcDbEntity
  8
寸法
 62
     0
370
    18
100
AcDbLine
 10
1910.593629789472
 20
1062.290944394732
 30
0.0
 11
1883.593629789472
 21
1062.290944394732
 31
0.0
  0
MTEXT
  5
1CB4
330
1383
100
AcDbEntity
  8
寸法
 62
     0
100
AcDbMText
 10
1895.82543971259
 20
1034.9007185773
 30
0.0
 40
25.0
 41
0.0
 71
     5
 72
     1
  1
27
 73
     1
 44
1.0
1001
ACAD
1000
MTEXTBEGIN
1070
    73
1070
     1
1070
    44
1040
1.0
1070
    74
1070
     0
1000
MTEXTEND
  0
INSERT
  5
1CB5
330
1383
100
AcDbEntity
  8
寸法
 62
     0
370
    18
100
AcDbBlockReference
  2
_DotSmall
 10
1910.593629789472
 20
1062.290944394732
 30
0.0
 41
35.0
 42
35.0
 43
35.0
  0
INSERT
  5
1CB6
330
1383
100
AcDbEntity
  8
寸法
 62
     0
370
    18
100
AcDbBlockReference
  2
_DotSmall
 10
1883.593629789472
 20
1062.290944394732
 30
0.0
 41
35.0
 42
35.0
 43
35.0
 50
180.0
  0
POINT
  5
1CB7
330
1383
100
AcDbEntity
  8
Defpoints
 62
     0
100
AcDbPoint
 10
1910.593629789472
 20
1173.67545567602
 30
0.0
  0
POINT
  5
1CB8
330
1383
100
AcDbEntity
  8
Defpoints
 62
     0
100
AcDbPoint
 10
1883.593629789472
 20
1173.67545567602
 30
0.0
  0
POINT
  5
1CB9
330
1383
100
AcDbEntity
  8
Defpoints
 62
     0
100
AcDbPoint
 10
1883.593629789472
 20
1062.290944394732
 30
0.0
  0
ENDBLK
  5
1390
330
1383
100
AcDbEntity
  8
0
100
AcDbBlockEnd
  0
BLOCK
  5
139C
330
1392
100
AcDbEntity
  8
0
100
AcDbBlockBegin
  2
*D12
 70
     1
 10
0.0
 20
0.0
 30
0.0
  3
*D12
  1

  0
LINE
  5
1CA8
330
1392
100
AcDbEntity
  8
寸法
 62
     0
370
    18
100
AcDbLine
 10
1883.593629789472
 20
1108.67545567602
 30
0.0
 11
1883.593629789472
 21
1062.290944394732
 31
0.0
  0
LINE
  5
1CA9
330
1392
100
AcDbEntity
  8
寸法
 62
     0
370
    18
100
AcDbLine
 10
1233.593629789472
 20
1108.67545567602
 30
0.0
 11
1233.593629789472
 21
1062.290944394732
 31
0.0
  0
LINE
  5
1CAA
330
1392
100
AcDbEntity
  8
寸法
 62
     0
370
    18
100
AcDbLine
 10
1883.593629789472
 20
1062.290944394732
 30
0.0
 11
1233.593629789472
 21
1062.290944394732
 31
0.0
  0
INSERT
  5
1CAB
330
1392
100
AcDbEntity
  8
寸法
 62
     0
370
    18
100
AcDbBlockReference
  2
_DotSmall
 10
1883.593629789472
 20
1062.290944394732
 30
0.0
 41
35.0
 42
35.0
 43
35.0
  0
INSERT
  5
1CAC
330
1392
100
AcDbEntity
  8
寸法
 62
     0
370
    18
100
AcDbBlockReference
  2
_DotSmall
 10
1233.593629789472
 20
1062.290944394732
 30
0.0
 41
35.0
 42
35.0
 43
35.0
 50
180.0
  0
MTEXT
  5
1CAD
330
1392
100
AcDbEntity
  8
寸法
 62
     0
100
AcDbMText
 10
1558.593629789472
 20
1081.040944394732
 30
0.0
 40
25.0
 41
0.0
 71
     5
 72
     1
  1
650
 73
     1
 44
1.0
1001
ACAD
1000
MTEXTBEGIN
1070
    73
1070
     1
1070
    44
1040
1.0
1070
    74
1070
     0
1000
MTEXTEND
  0
POINT
  5
1CAE
330
1392
100
AcDbEntity
  8
Defpoints
 62
     0
100
AcDbPoint
 10
1883.593629789472
 20
1173.67545567602
 30
0.0
  0
POINT
  5
1CAF
330
1392
100
AcDbEntity
  8
Defpoints
 62
     0
100
AcDbPoint
 10
1233.593629789472
 20
1173.67545567602
 30
0.0
  0
POINT
  5
1CB0
330
1392
100
AcDbEntity
  8
Defpoints
 62
     0
100
AcDbPoint
 10
1233.593629789472
 20
1062.290944394732
 30
0.0
  0
ENDBLK
  5
139D
330
1392
100
AcDbEntity
  8
0
100
AcDbBlockEnd
  0
BLOCK
  5
13AB
330
139F
100
AcDbEntity
  8
0
100
AcDbBlockBegin
  2
*D13
 70
     1
 10
0.0
 20
0.0
 30
0.0
  3
*D13
  1

  0
LINE
  5
1CDE
330
139F
100
AcDbEntity
  8
寸法
 62
     0
370
    18
100
AcDbLine
 10
1233.593629789472
 20
1108.67545567602
 30
0.0
 11
1233.593629789472
 21
1062.290944394732
 31
0.0
  0
LINE
  5
1CDF
330
139F
100
AcDbEntity
  8
寸法
 62
     0
370
    18
100
AcDbLine
 10
1193.593629789472
 20
1108.67545567602
 30
0.0
 11
1193.593629789472
 21
1062.290944394732
 31
0.0
  0
LINE
  5
1CE0
330
139F
100
AcDbEntity
  8
寸法
 62
     0
370
    18
100
AcDbLine
 10
1233.593629789472
 20
1062.290944394732
 30
0.0
 11
1193.593629789472
 21
1062.290944394732
 31
0.0
  0
MTEXT
  5
1CE1
330
139F
100
AcDbEntity
  8
寸法
 62
     0
100
AcDbMText
 10
1215.12662231633
 20
1034.9007185773
 30
0.0
 40
25.0
 41
0.0
 71
     5
 72
     1
  1
40
 73
     1
 44
1.0
1001
ACAD
1000
MTEXTBEGIN
1070
    73
1070
     1
1070
    44
1040
1.0
1070
    74
1070
     0
1000
MTEXTEND
  0
INSERT
  5
1CE2
330
139F
100
AcDbEntity
  8
寸法
 62
     0
370
    18
100
AcDbBlockReference
  2
_DotSmall
 10
1233.593629789472
 20
1062.290944394732
 30
0.0
 41
35.0
 42
35.0
 43
35.0
  0
INSERT
  5
1CE3
330
139F
100
AcDbEntity
  8
寸法
 62
     0
370
    18
100
AcDbBlockReference
  2
_DotSmall
 10
1193.593629789472
 20
1062.290944394732
 30
0.0
 41
35.0
 42
35.0
 43
35.0
 50
180.0
  0
POINT
  5
1CE4
330
139F
100
AcDbEntity
  8
Defpoints
 62
     0
100
AcDbPoint
 10
1233.593629789472
 20
1173.67545567602
 30
0.0
  0
POINT
  5
1CE5
330
139F
100
AcDbEntity
  8
Defpoints
 62
     0
100
AcDbPoint
 10
1193.593629789472
 20
1173.67545567602
 30
0.0
  0
POINT
  5
1CE6
330
139F
100
AcDbEntity
  8
Defpoints
 62
     0
100
AcDbPoint
 10
1193.593629789472
 20
1062.290944394732
 30
0.0
  0
ENDBLK
  5
13AC
330
139F
100
AcDbEntity
  8
0
100
AcDbBlockEnd
  0
BLOCK
  5
13B8
330
13AE
100
AcDbEntity
  8
0
100
AcDbBlockBegin
  2
*D14
 70
     1
 10
0.0
 20
0.0
 30
0.0
  3
*D14
  1

  0
LINE
  5
1CF9
330
13AE
100
AcDbEntity
  8
寸法
 62
     0
370
    18
100
AcDbLine
 10
1193.593629789472
 20
1108.67545567602
 30
0.0
 11
1193.593629789472
 21
1062.290944394732
 31
0.0
  0
LINE
  5
1CFA
330
13AE
100
AcDbEntity
  8
寸法
 62
     0
370
    18
100
AcDbLine
 10
833.5936297894726
 20
1108.67545567602
 30
0.0
 11
833.5936297894726
 21
1062.290944394732
 31
0.0
  0
LINE
  5
1CFB
330
13AE
100
AcDbEntity
  8
寸法
 62
     0
370
    18
100
AcDbLine
 10
1193.593629789472
 20
1062.290944394732
 30
0.0
 11
833.5936297894726
 21
1062.290944394732
 31
0.0
  0
INSERT
  5
1CFC
330
13AE
100
AcDbEntity
  8
寸法
 62
     0
370
    18
100
AcDbBlockReference
  2
_DotSmall
 10
1193.593629789472
 20
1062.290944394732
 30
0.0
 41
35.0
 42
35.0
 43
35.0
  0
INSERT
  5
1CFD
330
13AE
100
AcDbEntity
  8
寸法
 62
     0
370
    18
100
AcDbBlockReference
  2
_DotSmall
 10
833.5936297894726
 20
1062.290944394732
 30
0.0
 41
35.0
 42
35.0
 43
35.0
 50
180.0
  0
MTEXT
  5
1CFE
330
13AE
100
AcDbEntity
  8
寸法
 62
     0
100
AcDbMText
 10
1013.593629789472
 20
1081.040944394732
 30
0.0
 40
25.0
 41
0.0
 71
     5
 72
     1
  1
360
 73
     1
 44
1.0
1001
ACAD
1000
MTEXTBEGIN
1070
    73
1070
     1
1070
    44
1040
1.0
1070
    74
1070
     0
1000
MTEXTEND
  0
POINT
  5
1CFF
330
13AE
100
AcDbEntity
  8
Defpoints
 62
     0
100
AcDbPoint
 10
1193.593629789472
 20
1173.67545567602
 30
0.0
  0
POINT
  5
1D00
330
13AE
100
AcDbEntity
  8
Defpoints
 62
     0
100
AcDbPoint
 10
833.5936297894726
 20
1173.67545567602
 30
0.0
  0
POINT
  5
1D01
330
13AE
100
AcDbEntity
  8
Defpoints
 62
     0
100
AcDbPoint
 10
833.5936297894726
 20
1062.290944394732
 30
0.0
  0
ENDBLK
  5
13B9
330
13AE
100
AcDbEntity
  8
0
100
AcDbBlockEnd
  0
BLOCK
  5
13C7
330
13BB
100
AcDbEntity
  8
0
100
AcDbBlockBegin
  2
*D15
 70
     1
 10
0.0
 20
0.0
 30
0.0
  3
*D15
  1

  0
LINE
  5
1CF0
330
13BB
100
AcDbEntity
  8
寸法
 62
     0
370
    18
100
AcDbLine
 10
833.5936297894726
 20
1108.67545567602
 30
0.0
 11
833.5936297894726
 21
1062.290944394732
 31
0.0
  0
LINE
  5
1CF1
330
13BB
100
AcDbEntity
  8
寸法
 62
     0
370
    18
100
AcDbLine
 10
806.5936297894724
 20
1108.67545567602
 30
0.0
 11
806.5936297894724
 21
1062.290944394732
 31
0.0
  0
LINE
  5
1CF2
330
13BB
100
AcDbEntity
  8
寸法
 62
     0
370
    18
100
AcDbLine
 10
833.5936297894726
 20
1062.290944394732
 30
0.0
 11
806.5936297894724
 21
1062.290944394732
 31
0.0
  0
MTEXT
  5
1CF3
330
13BB
100
AcDbEntity
  8
寸法
 62
     0
100
AcDbMText
 10
819.9558399414282
 20
1034.9007185773
 30
0.0
 40
25.0
 41
0.0
 71
     5
 72
     1
  1
27
 73
     1
 44
1.0
1001
ACAD
1000
MTEXTBEGIN
1070
    73
1070
     1
1070
    44
1040
1.0
1070
    74
1070
     0
1000
MTEXTEND
  0
INSERT
  5
1CF4
330
13BB
100
AcDbEntity
  8
寸法
 62
     0
370
    18
100
AcDbBlockReference
  2
_DotSmall
 10
833.5936297894726
 20
1062.290944394732
 30
0.0
 41
35.0
 42
35.0
 43
35.0
  0
INSERT
  5
1CF5
330
13BB
100
AcDbEntity
  8
寸法
 62
     0
370
    18
100
AcDbBlockReference
  2
_DotSmall
 10
806.5936297894724
 20
1062.290944394732
 30
0.0
 41
35.0
 42
35.0
 43
35.0
 50
180.0
  0
POINT
  5
1CF6
330
13BB
100
AcDbEntity
  8
Defpoints
 62
     0
100
AcDbPoint
 10
833.5936297894726
 20
1173.67545567602
 30
0.0
  0
POINT
  5
1CF7
330
13BB
100
AcDbEntity
  8
Defpoints
 62
     0
100
AcDbPoint
 10
806.5936297894724
 20
1173.67545567602
 30
0.0
  0
POINT
  5
1CF8
330
13BB
100
AcDbEntity
  8
Defpoints
 62
     0
100
AcDbPoint
 10
806.5936297894724
 20
1062.290944394732
 30
0.0
  0
ENDBLK
  5
13C8
330
13BB
100
AcDbEntity
  8
0
100
AcDbBlockEnd
  0
BLOCK
  5
13D6
330
13CA
100
AcDbEntity
  8
0
100
AcDbBlockBegin
  2
*D16
 70
     1
 10
0.0
 20
0.0
 30
0.0
  3
*D16
  1

  0
LINE
  5
1D14
330
13CA
100
AcDbEntity
  8
寸法
 62
     0
370
    18
100
AcDbLine
 10
1910.593629789472
 20
1108.67545567602
 30
0.0
 11
1910.593629789472
 21
1062.290944394732
 31
0.0
  0
LINE
  5
1D15
330
13CA
100
AcDbEntity
  8
寸法
 62
     0
370
    18
100
AcDbLine
 10
1928.593629789472
 20
1108.67545567602
 30
0.0
 11
1928.593629789472
 21
1062.290944394732
 31
0.0
  0
LINE
  5
1D16
330
13CA
100
AcDbEntity
  8
寸法
 62
     0
370
    18
100
AcDbLine
 10
1910.593629789472
 20
1062.290944394732
 30
0.0
 11
1928.593629789472
 21
1062.290944394732
 31
0.0
  0
MTEXT
  5
1D17
330
13CA
100
AcDbEntity
  8
寸法
 62
     0
100
AcDbMText
 10
1963.473923762472
 20
1069.138497208834
 30
0.0
 40
25.0
 41
0.0
 71
     5
 72
     1
  1
18
 73
     1
 44
1.0
1001
ACAD
1000
MTEXTBEGIN
1070
    73
1070
     1
1070
    44
1040
1.0
1070
    74
1070
     0
1000
MTEXTEND
  0
INSERT
  5
1D18
330
13CA
100
AcDbEntity
  8
寸法
 62
     0
370
    18
100
AcDbBlockReference
  2
_DotSmall
 10
1910.593629789472
 20
1062.290944394732
 30
0.0
 41
35.0
 42
35.0
 43
35.0
 50
180.0
  0
INSERT
  5
1D19
330
13CA
100
AcDbEntity
  8
寸法
 62
     0
370
    18
100
AcDbBlockReference
  2
_DotSmall
 10
1928.593629789472
 20
1062.290944394732
 30
0.0
 41
35.0
 42
35.0
 43
35.0
  0
POINT
  5
1D1A
330
13CA
100
AcDbEntity
  8
Defpoints
 62
     0
100
AcDbPoint
 10
1910.593629789472
 20
1173.67545567602
 30
0.0
  0
POINT
  5
1D1B
330
13CA
100
AcDbEntity
  8
Defpoints
 62
     0
100
AcDbPoint
 10
1928.593629789472
 20
1173.67545567602
 30
0.0
  0
POINT
  5
1D1C
330
13CA
100
AcDbEntity
  8
Defpoints
 62
     0
100
AcDbPoint
 10
1928.593629789472
 20
1062.290944394732
 30
0.0
  0
ENDBLK
  5
13D7
330
13CA
100
AcDbEntity
  8
0
100
AcDbBlockEnd
  0
BLOCK
  5
147D
330
1473
100
AcDbEntity
  8
0
100
AcDbBlockBegin
  2
*D17
 70
     1
 10
0.0
 20
0.0
 30
0.0
  3
*D17
  1

  0
LINE
  5
1C9F
330
1473
100
AcDbEntity
  8
寸法
 62
     0
370
    18
100
AcDbLine
 10
1928.593629789472
 20
1108.67545567602
 30
0.0
 11
1928.593629789472
 21
982.4027942544844
 31
0.0
  0
LINE
  5
1CA0
330
1473
100
AcDbEntity
  8
寸法
 62
     0
370
    18
100
AcDbLine
 10
788.5936297894724
 20
1108.67545567602
 30
0.0
 11
788.5936297894724
 21
982.4027942544844
 31
0.0
  0
LINE
  5
1CA1
330
1473
100
AcDbEntity
  8
寸法
 62
     0
370
    18
100
AcDbLine
 10
1928.593629789472
 20
982.4027942544844
 30
0.0
 11
788.5936297894724
 21
982.4027942544844
 31
0.0
  0
INSERT
  5
1CA2
330
1473
100
AcDbEntity
  8
寸法
 62
     0
370
    18
100
AcDbBlockReference
  2
_DotSmall
 10
1928.593629789472
 20
982.4027942544844
 30
0.0
 41
35.0
 42
35.0
 43
35.0
  0
INSERT
  5
1CA3
330
1473
100
AcDbEntity
  8
寸法
 62
     0
370
    18
100
AcDbBlockReference
  2
_DotSmall
 10
788.5936297894724
 20
982.4027942544844
 30
0.0
 41
35.0
 42
35.0
 43
35.0
 50
180.0
  0
MTEXT
  5
1CA4
330
1473
100
AcDbEntity
  8
寸法
 62
     0
100
AcDbMText
 10
1358.593629789472
 20
1001.152794254484
 30
0.0
 40
25.0
 41
0.0
 71
     5
 72
     1
  1
1140
 73
     1
 44
1.0
1001
ACAD
1000
MTEXTBEGIN
1070
    73
1070
     1
1070
    44
1040
1.0
1070
    74
1070
     0
1000
MTEXTEND
  0
POINT
  5
1CA5
330
1473
100
AcDbEntity
  8
Defpoints
 62
     0
100
AcDbPoint
 10
1928.593629789472
 20
1173.67545567602
 30
0.0
  0
POINT
  5
1CA6
330
1473
100
AcDbEntity
  8
Defpoints
 62
     0
100
AcDbPoint
 10
788.5936297894724
 20
1173.67545567602
 30
0.0
  0
POINT
  5
1CA7
330
1473
100
AcDbEntity
  8
Defpoints
 62
     0
100
AcDbPoint
 10
788.5936297894724
 20
982.4027942544844
 30
0.0
  0
ENDBLK
  5
147E
330
1473
100
AcDbEntity
  8
0
100
AcDbBlockEnd
  0
BLOCK
  5
158D
330
1583
100
AcDbEntity
  8
0
100
AcDbBlockBegin
  2
*D18
 70
     1
 10
0.0
 20
0.0
 30
0.0
  3
*D18
  1

  0
LINE
  5
1D02
330
1583
100
AcDbEntity
  8
寸法
 62
     0
370
    15
100
AcDbLine
 10
1383.593629789473
 20
1578.67545567602
 30
0.0
 11
1383.593629789473
 21
1858.935117383602
 31
0.0
  0
LINE
  5
1D03
330
1583
100
AcDbEntity
  8
寸法
 62
     0
370
    15
100
AcDbLine
 10
788.5936297894722
 20
1718.67545567602
 30
0.0
 11
788.5936297894722
 21
1858.935117383602
 31
0.0
  0
LINE
  5
1D04
330
1583
100
AcDbEntity
  8
寸法
 62
     0
370
    18
100
AcDbLine
 10
1383.593629789473
 20
1858.935117383602
 30
0.0
 11
788.5936297894722
 21
1858.935117383602
 31
0.0
  0
INSERT
  5
1D05
330
1583
100
AcDbEntity
  8
寸法
 62
     0
370
    18
100
AcDbBlockReference
  2
_DotSmall
 10
1383.593629789473
 20
1858.935117383602
 30
0.0
 41
35.0
 42
35.0
 43
35.0
  0
INSERT
  5
1D06
330
1583
100
AcDbEntity
  8
寸法
 62
     0
370
    18
100
AcDbBlockReference
  2
_DotSmall
 10
788.5936297894722
 20
1858.935117383602
 30
0.0
 41
35.0
 42
35.0
 43
35.0
 50
180.0
  0
MTEXT
  5
1D07
330
1583
100
AcDbEntity
  8
寸法
 62
     0
100
AcDbMText
 10
1086.093629789472
 20
1877.685117383602
 30
0.0
 40
25.0
 41
0.0
 71
     5
 72
     1
  1
595
 73
     1
 44
1.0
1001
ACAD
1000
MTEXTBEGIN
1070
    73
1070
     1
1070
    44
1040
1.0
1070
    74
1070
     0
1000
MTEXTEND
  0
POINT
  5
1D08
330
1583
100
AcDbEntity
  8
Defpoints
 62
     0
100
AcDbPoint
 10
1383.593629789473
 20
1513.675455676019
 30
0.0
  0
POINT
  5
1D09
330
1583
100
AcDbEntity
  8
Defpoints
 62
     0
100
AcDbPoint
 10
788.5936297894722
 20
1653.67545567602
 30
0.0
  0
POINT
  5
1D0A
330
1583
100
AcDbEntity
  8
Defpoints
 62
     0
100
AcDbPoint
 10
788.5936297894722
 20
1858.935117383602
 30
0.0
  0
ENDBLK
  5
158E
330
1583
100
AcDbEntity
  8
0
100
AcDbBlockEnd
  0
BLOCK
  5
1599
330
158F
100
AcDbEntity
  8
0
100
AcDbBlockBegin
  2
*D19
 70
     1
 10
0.0
 20
0.0
 30
0.0
  3
*D19
  1

  0
LINE
  5
1CC3
330
158F
100
AcDbEntity
  8
寸法
 62
     0
370
    15
100
AcDbLine
 10
1293.093629789473
 20
499.6754556760198
 30
0.0
 11
1293.093629789473
 21
407.0386498060178
 31
0.0
  0
LINE
  5
1CC4
330
158F
100
AcDbEntity
  8
寸法
 62
     0
370
    15
100
AcDbLine
 10
1474.093629789473
 20
499.6754556760197
 30
0.0
 11
1474.093629789473
 21
407.0386498060178
 31
0.0
  0
LINE
  5
1CC5
330
158F
100
AcDbEntity
  8
寸法
 62
     0
370
    18
100
AcDbLine
 10
1293.093629789473
 20
407.0386498060178
 30
0.0
 11
1474.093629789473
 21
407.0386498060178
 31
0.0
  0
INSERT
  5
1CC6
330
158F
100
AcDbEntity
  8
寸法
 62
     0
370
    18
100
AcDbBlockReference
  2
_DotSmall
 10
1293.093629789473
 20
407.0386498060178
 30
0.0
 41
35.0
 42
35.0
 43
35.0
 50
180.0
  0
INSERT
  5
1CC7
330
158F
100
AcDbEntity
  8
寸法
 62
     0
370
    18
100
AcDbBlockReference
  2
_DotSmall
 10
1474.093629789473
 20
407.0386498060178
 30
0.0
 41
35.0
 42
35.0
 43
35.0
  0
MTEXT
  5
1CC8
330
158F
100
AcDbEntity
  8
寸法
 62
     0
100
AcDbMText
 10
1383.593629789473
 20
425.7886498060178
 30
0.0
 40
25.0
 41
0.0
 71
     5
 72
     1
  1
181
 73
     1
 44
1.0
1001
ACAD
1000
MTEXTBEGIN
1070
    73
1070
     1
1070
    44
1040
1.0
1070
    74
1070
     0
1000
MTEXTEND
  0
POINT
  5
1CC9
330
158F
100
AcDbEntity
  8
Defpoints
 62
     0
100
AcDbPoint
 10
1293.093629789473
 20
564.6754556760197
 30
0.0
  0
POINT
  5
1CCA
330
158F
100
AcDbEntity
  8
Defpoints
 62
     0
100
AcDbPoint
 10
1474.093629789473
 20
564.6754556760197
 30
0.0
  0
POINT
  5
1CCB
330
158F
100
AcDbEntity
  8
Defpoints
 62
     0
100
AcDbPoint
 10
1474.093629789473
 20
407.0386498060178
 30
0.0
  0
ENDBLK
  5
159A
330
158F
100
AcDbEntity
  8
0
100
AcDbBlockEnd
  0
BLOCK
  5
15A5
330
159B
100
AcDbEntity
  8
0
100
AcDbBlockBegin
  2
*D20
 70
     1
 10
0.0
 20
0.0
 30
0.0
  3
*D20
  1

  0
LINE
  5
1CBA
330
159B
100
AcDbEntity
  8
寸法
 62
     0
370
    15
100
AcDbLine
 10
1303.593629789473
 20
499.6754556760197
 30
0.0
 11
1303.593629789473
 21
448.2480483749468
 31
0.0
  0
LINE
  5
1CBB
330
159B
100
AcDbEntity
  8
寸法
 62
     0
370
    15
100
AcDbLine
 10
1463.593629789473
 20
499.6754556760197
 30
0.0
 11
1463.593629789473
 21
448.2480483749468
 31
0.0
  0
LINE
  5
1CBC
330
159B
100
AcDbEntity
  8
寸法
 62
     0
370
    18
100
AcDbLine
 10
1303.593629789473
 20
448.2480483749468
 30
0.0
 11
1463.593629789473
 21
448.2480483749468
 31
0.0
  0
INSERT
  5
1CBD
330
159B
100
AcDbEntity
  8
寸法
 62
     0
370
    18
100
AcDbBlockReference
  2
_DotSmall
 10
1303.593629789473
 20
448.2480483749468
 30
0.0
 41
35.0
 42
35.0
 43
35.0
 50
180.0
  0
INSERT
  5
1CBE
330
159B
100
AcDbEntity
  8
寸法
 62
     0
370
    18
100
AcDbBlockReference
  2
_DotSmall
 10
1463.593629789473
 20
448.2480483749468
 30
0.0
 41
35.0
 42
35.0
 43
35.0
  0
MTEXT
  5
1CBF
330
159B
100
AcDbEntity
  8
寸法
 62
     0
100
AcDbMText
 10
1383.593629789473
 20
466.9980483749468
 30
0.0
 40
25.0
 41
0.0
 71
     5
 72
     1
  1
160
 73
     1
 44
1.0
1001
ACAD
1000
MTEXTBEGIN
1070
    73
1070
     1
1070
    44
1040
1.0
1070
    74
1070
     0
1000
MTEXTEND
  0
POINT
  5
1CC0
330
159B
100
AcDbEntity
  8
Defpoints
 62
     0
100
AcDbPoint
 10
1303.593629789473
 20
564.6754556760197
 30
0.0
  0
POINT
  5
1CC1
330
159B
100
AcDbEntity
  8
Defpoints
 62
     0
100
AcDbPoint
 10
1463.593629789473
 20
564.6754556760197
 30
0.0
  0
POINT
  5
1CC2
330
159B
100
AcDbEntity
  8
Defpoints
 62
     0
100
AcDbPoint
 10
1463.593629789473
 20
448.2480483749468
 30
0.0
  0
ENDBLK
  5
15A6
330
159B
100
AcDbEntity
  8
0
100
AcDbBlockEnd
  0
BLOCK
  5
15B1
330
15A7
100
AcDbEntity
  8
0
100
AcDbBlockBegin
  2
*D21
 70
     1
 10
0.0
 20
0.0
 30
0.0
  3
*D21
  1

  0
LINE
  5
1B76
330
15A7
100
AcDbEntity
  8
寸法
 62
     0
370
    15
100
AcDbLine
 10
768.5936297894717
 20
773.6754556760197
 30
0.0
 11
675.9612549668831
 21
773.6754556760197
 31
0.0
  0
LINE
  5
1B77
330
15A7
100
AcDbEntity
  8
寸法
 62
     0
370
    15
100
AcDbLine
 10
768.5936297894717
 20
574.6754556760197
 30
0.0
 11
675.9612549668831
 21
574.6754556760197
 31
0.0
  0
LINE
  5
1B78
330
15A7
100
AcDbEntity
  8
寸法
 62
     0
370
    18
100
AcDbLine
 10
675.9612549668831
 20
773.6754556760197
 30
0.0
 11
675.9612549668831
 21
574.6754556760197
 31
0.0
  0
INSERT
  5
1B79
330
15A7
100
AcDbEntity
  8
寸法
 62
     0
370
    18
100
AcDbBlockReference
  2
_DotSmall
 10
675.9612549668831
 20
773.6754556760197
 30
0.0
 41
35.0
 42
35.0
 43
35.0
 50
90.0
  0
INSERT
  5
1B7A
330
15A7
100
AcDbEntity
  8
寸法
 62
     0
370
    18
100
AcDbBlockReference
  2
_DotSmall
 10
675.9612549668831
 20
574.6754556760197
 30
0.0
 41
35.0
 42
35.0
 43
35.0
 50
270.0
  0
MTEXT
  5
1B7B
330
15A7
100
AcDbEntity
  8
寸法
 62
     0
100
AcDbMText
 10
657.2112549668831
 20
674.1754556760199
 30
0.0
 40
25.0
 41
0.0
 71
     5
 72
     1
  1
199
 11
0.0000000000000001
 21
1.0
 31
0.0
 73
     1
 44
1.0
1001
ACAD
1000
MTEXTBEGIN
1070
    73
1070
     1
1070
    44
1040
1.0
1070
    74
1070
     0
1000
MTEXTEND
  0
POINT
  5
1B7C
330
15A7
100
AcDbEntity
  8
Defpoints
 62
     0
100
AcDbPoint
 10
833.5936297894717
 20
773.6754556760197
 30
0.0
  0
POINT
  5
1B7D
330
15A7
100
AcDbEntity
  8
Defpoints
 62
     0
100
AcDbPoint
 10
833.5936297894717
 20
574.6754556760197
 30
0.0
  0
POINT
  5
1B7E
330
15A7
100
AcDbEntity
  8
Defpoints
 62
     0
100
AcDbPoint
 10
675.9612549668831
 20
574.6754556760197
 30
0.0
  0
ENDBLK
  5
15B2
330
15A7
100
AcDbEntity
  8
0
100
AcDbBlockEnd
  0
BLOCK
  5
15BC
330
15B3
100
AcDbEntity
  8
0
100
AcDbBlockBegin
  2
*D22
 70
     1
 10
0.0
 20
0.0
 30
0.0
  3
*D22
  1

  0
LINE
  5
1B7F
330
15B3
100
AcDbEntity
  8
寸法
 62
     0
370
    15
100
AcDbLine
 10
768.5936297894717
 20
589.6754556760197
 30
0.0
 11
714.7018793017647
 21
589.6754556760197
 31
0.0
  0
LINE
  5
1B80
330
15B3
100
AcDbEntity
  8
寸法
 62
     0
370
    15
100
AcDbLine
 10
768.5936297894717
 20
574.6754556760197
 30
0.0
 11
714.7018793017647
 21
574.6754556760197
 31
0.0
  0
LINE
  5
1B81
330
15B3
100
AcDbEntity
  8
寸法
 62
     0
370
    18
100
AcDbLine
 10
714.7018793017647
 20
589.6754556760197
 30
0.0
 11
714.7018793017647
 21
574.6754556760197
 31
0.0
  0
INSERT
  5
1B82
330
15B3
100
AcDbEntity
  8
寸法
 62
     0
370
    18
100
AcDbBlockReference
  2
_DotSmall
 10
714.7018793017647
 20
589.6754556760197
 30
0.0
 41
35.0
 42
35.0
 43
35.0
 50
90.0
  0
INSERT
  5
1B83
330
15B3
100
AcDbEntity
  8
寸法
 62
     0
370
    18
100
AcDbBlockReference
  2
_DotSmall
 10
714.7018793017647
 20
574.6754556760197
 30
0.0
 41
35.0
 42
35.0
 43
35.0
 50
270.0
  0
POINT
  5
1B84
330
15B3
100
AcDbEntity
  8
Defpoints
 62
     0
100
AcDbPoint
 10
833.5936297894717
 20
589.6754556760197
 30
0.0
  0
POINT
  5
1B85
330
15B3
100
AcDbEntity
  8
Defpoints
 62
     0
100
AcDbPoint
 10
833.5936297894717
 20
574.6754556760197
 30
0.0
  0
POINT
  5
1B86
330
15B3
100
AcDbEntity
  8
Defpoints
 62
     0
100
AcDbPoint
 10
714.7018793017647
 20
574.6754556760197
 30
0.0
  0
ENDBLK
  5
15BD
330
15B3
100
AcDbEntity
  8
0
100
AcDbBlockEnd
  0
BLOCK
  5
17E7
330
17DD
100
AcDbEntity
  8
0
100
AcDbBlockBegin
  2
*D23
 70
     1
 10
0.0
 20
0.0
 30
0.0
  3
*D23
  1

  0
LINE
  5
1CD5
330
17DD
100
AcDbEntity
  8
寸法
 62
     0
370
    15
100
AcDbLine
 10
1141.593629789472
 20
499.6754556760197
 30
0.0
 11
1141.593629789472
 21
407.0386498060178
 31
0.0
  0
LINE
  5
1CD6
330
17DD
100
AcDbEntity
  8
寸法
 62
     0
370
    15
100
AcDbLine
 10
1025.593629789472
 20
499.6754556760197
 30
0.0
 11
1025.593629789472
 21
407.0386498060178
 31
0.0
  0
LINE
  5
1CD7
330
17DD
100
AcDbEntity
  8
寸法
 62
     0
370
    18
100
AcDbLine
 10
1141.593629789472
 20
407.0386498060178
 30
0.0
 11
1025.593629789472
 21
407.0386498060178
 31
0.0
  0
INSERT
  5
1CD8
330
17DD
100
AcDbEntity
  8
寸法
 62
     0
370
    18
100
AcDbBlockReference
  2
_DotSmall
 10
1141.593629789472
 20
407.0386498060178
 30
0.0
 41
35.0
 42
35.0
 43
35.0
  0
INSERT
  5
1CD9
330
17DD
100
AcDbEntity
  8
寸法
 62
     0
370
    18
100
AcDbBlockReference
  2
_DotSmall
 10
1025.593629789472
 20
407.0386498060178
 30
0.0
 41
35.0
 42
35.0
 43
35.0
 50
180.0
  0
MTEXT
  5
1CDA
330
17DD
100
AcDbEntity
  8
寸法
 62
     0
100
AcDbMText
 10
1083.593629789472
 20
425.7886498060178
 30
0.0
 40
25.0
 41
0.0
 71
     5
 72
     1
  1
116
 73
     1
 44
1.0
1001
ACAD
1000
MTEXTBEGIN
1070
    73
1070
     1
1070
    44
1040
1.0
1070
    74
1070
     0
1000
MTEXTEND
  0
POINT
  5
1CDB
330
17DD
100
AcDbEntity
  8
Defpoints
 62
     0
100
AcDbPoint
 10
1141.593629789472
 20
564.6754556760197
 30
0.0
  0
POINT
  5
1CDC
330
17DD
100
AcDbEntity
  8
Defpoints
 62
     0
100
AcDbPoint
 10
1025.593629789472
 20
564.6754556760197
 30
0.0
  0
POINT
  5
1CDD
330
17DD
100
AcDbEntity
  8
Defpoints
 62
     0
100
AcDbPoint
 10
1025.593629789472
 20
407.0386498060178
 30
0.0
  0
ENDBLK
  5
17E8
330
17DD
100
AcDbEntity
  8
0
100
AcDbBlockEnd
  0
BLOCK
  5
17F3
330
17E9
100
AcDbEntity
  8
0
100
AcDbBlockBegin
  2
*D24
 70
     1
 10
0.0
 20
0.0
 30
0.0
  3
*D24
  1

  0
LINE
  5
1CCC
330
17E9
100
AcDbEntity
  8
寸法
 62
     0
370
    15
100
AcDbLine
 10
1127.593629789472
 20
499.6754556760197
 30
0.0
 11
1127.593629789472
 21
448.2480483749468
 31
0.0
  0
LINE
  5
1CCD
330
17E9
100
AcDbEntity
  8
寸法
 62
     0
370
    15
100
AcDbLine
 10
1039.593629789472
 20
499.6754556760197
 30
0.0
 11
1039.593629789472
 21
448.2480483749468
 31
0.0
  0
LINE
  5
1CCE
330
17E9
100
AcDbEntity
  8
寸法
 62
     0
370
    18
100
AcDbLine
 10
1127.593629789472
 20
448.2480483749468
 30
0.0
 11
1039.593629789472
 21
448.2480483749468
 31
0.0
  0
INSERT
  5
1CCF
330
17E9
100
AcDbEntity
  8
寸法
 62
     0
370
    18
100
AcDbBlockReference
  2
_DotSmall
 10
1127.593629789472
 20
448.2480483749468
 30
0.0
 41
35.0
 42
35.0
 43
35.0
  0
INSERT
  5
1CD0
330
17E9
100
AcDbEntity
  8
寸法
 62
     0
370
    18
100
AcDbBlockReference
  2
_DotSmall
 10
1039.593629789472
 20
448.2480483749468
 30
0.0
 41
35.0
 42
35.0
 43
35.0
 50
180.0
  0
MTEXT
  5
1CD1
330
17E9
100
AcDbEntity
  8
寸法
 62
     0
100
AcDbMText
 10
1083.593629789472
 20
466.9980483749468
 30
0.0
 40
25.0
 41
0.0
 71
     5
 72
     1
  1
88
 73
     1
 44
1.0
1001
ACAD
1000
MTEXTBEGIN
1070
    73
1070
     1
1070
    44
1040
1.0
1070
    74
1070
     0
1000
MTEXTEND
  0
POINT
  5
1CD2
330
17E9
100
AcDbEntity
  8
Defpoints
 62
     0
100
AcDbPoint
 10
1127.593629789472
 20
564.6754556760197
 30
0.0
  0
POINT
  5
1CD3
330
17E9
100
AcDbEntity
  8
Defpoints
 62
     0
100
AcDbPoint
 10
1039.593629789472
 20
564.6754556760197
 30
0.0
  0
POINT
  5
1CD4
330
17E9
100
AcDbEntity
  8
Defpoints
 62
     0
100
AcDbPoint
 10
1039.593629789472
 20
448.2480483749468
 30
0.0
  0
ENDBLK
  5
17F4
330
17E9
100
AcDbEntity
  8
0
100
AcDbBlockEnd
  0
BLOCK
  5
180A
330
1800
100
AcDbEntity
  8
0
100
AcDbBlockBegin
  2
*D25
 70
     1
 10
0.0
 20
0.0
 30
0.0
  3
*D25
  1

  0
LINE
  5
1C67
330
1800
100
AcDbEntity
  8
寸法
 62
     0
370
    15
100
AcDbLine
 10
1768.593629789472
 20
1433.67545567602
 30
0.0
 11
2035.330333853885
 21
1433.67545567602
 31
0.0
  0
LINE
  5
1C68
330
1800
100
AcDbEntity
  8
寸法
 62
     0
370
    15
100
AcDbLine
 10
1948.593629789472
 20
1173.67545567602
 30
0.0
 11
2035.330333853885
 21
1173.67545567602
 31
0.0
  0
LINE
  5
1C69
330
1800
100
AcDbEntity
  8
寸法
 62
     0
370
    18
100
AcDbLine
 10
2035.330333853885
 20
1433.67545567602
 30
0.0
 11
2035.330333853885
 21
1173.67545567602
 31
0.0
  0
INSERT
  5
1C6A
330
1800
100
AcDbEntity
  8
寸法
 62
     0
370
    18
100
AcDbBlockReference
  2
_DotSmall
 10
2035.330333853885
 20
1433.67545567602
 30
0.0
 41
35.0
 42
35.0
 43
35.0
 50
90.0
  0
INSERT
  5
1C6B
330
1800
100
AcDbEntity
  8
寸法
 62
     0
370
    18
100
AcDbBlockReference
  2
_DotSmall
 10
2035.330333853885
 20
1173.67545567602
 30
0.0
 41
35.0
 42
35.0
 43
35.0
 50
270.0
  0
MTEXT
  5
1C6C
330
1800
100
AcDbEntity
  8
寸法
 62
     0
100
AcDbMText
 10
2016.580333853885
 20
1303.67545567602
 30
0.0
 40
25.0
 41
0.0
 71
     5
 72
     1
  1
260
 11
0.0000000000000001
 21
1.0
 31
0.0
 73
     1
 44
1.0
1001
ACAD
1000
MTEXTBEGIN
1070
    73
1070
     1
1070
    44
1040
1.0
1070
    74
1070
     0
1000
MTEXTEND
  0
POINT
  5
1C6D
330
1800
100
AcDbEntity
  8
Defpoints
 62
     0
100
AcDbPoint
 10
1703.593629789472
 20
1433.67545567602
 30
0.0
  0
POINT
  5
1C6E
330
1800
100
AcDbEntity
  8
Defpoints
 62
     0
100
AcDbPoint
 10
1883.593629789472
 20
1173.67545567602
 30
0.0
  0
POINT
  5
1C6F
330
1800
100
AcDbEntity
  8
Defpoints
 62
     0
100
AcDbPoint
 10
2035.330333853885
 20
1173.67545567602
 30
0.0
  0
ENDBLK
  5
180B
330
1800
100
AcDbEntity
  8
0
100
AcDbBlockEnd
  0
BLOCK
  5
1816
330
180C
100
AcDbEntity
  8
0
100
AcDbBlockBegin
  2
*D26
 70
     1
 10
0.0
 20
0.0
 30
0.0
  3
*D26
  1

  0
LINE
  5
1D0B
330
180C
100
AcDbEntity
  8
寸法
 62
     0
370
    15
100
AcDbLine
 10
1083.593629789472
 20
1556.67545567602
 30
0.0
 11
1083.593629789472
 21
1791.158547309252
 31
0.0
  0
LINE
  5
1D0C
330
180C
100
AcDbEntity
  8
寸法
 62
     0
370
    15
100
AcDbLine
 10
788.5936297894722
 20
1718.67545567602
 30
0.0
 11
788.5936297894722
 21
1791.158547309252
 31
0.0
  0
LINE
  5
1D0D
330
180C
100
AcDbEntity
  8
寸法
 62
     0
370
    18
100
AcDbLine
 10
1083.593629789472
 20
1791.158547309252
 30
0.0
 11
788.5936297894722
 21
1791.158547309252
 31
0.0
  0
INSERT
  5
1D0E
330
180C
100
AcDbEntity
  8
寸法
 62
     0
370
    18
100
AcDbBlockReference
  2
_DotSmall
 10
1083.593629789472
 20
1791.158547309252
 30
0.0
 41
35.0
 42
35.0
 43
35.0
  0
INSERT
  5
1D0F
330
180C
100
AcDbEntity
  8
寸法
 62
     0
370
    18
100
AcDbBlockReference
  2
_DotSmall
 10
788.5936297894722
 20
1791.158547309252
 30
0.0
 41
35.0
 42
35.0
 43
35.0
 50
180.0
  0
MTEXT
  5
1D10
330
180C
100
AcDbEntity
  8
寸法
 62
     0
100
AcDbMText
 10
936.0936297894724
 20
1809.908547309252
 30
0.0
 40
25.0
 41
0.0
 71
     5
 72
     1
  1
295
 73
     1
 44
1.0
1001
ACAD
1000
MTEXTBEGIN
1070
    73
1070
     1
1070
    44
1040
1.0
1070
    74
1070
     0
1000
MTEXTEND
  0
POINT
  5
1D11
330
180C
100
AcDbEntity
  8
Defpoints
 62
     0
100
AcDbPoint
 10
1083.593629789472
 20
1491.67545567602
 30
0.0
  0
POINT
  5
1D12
330
180C
100
AcDbEntity
  8
Defpoints
 62
     0
100
AcDbPoint
 10
788.5936297894722
 20
1653.67545567602
 30
0.0
  0
POINT
  5
1D13
330
180C
100
AcDbEntity
  8
Defpoints
 62
     0
100
AcDbPoint
 10
788.5936297894722
 20
1791.158547309252
 30
0.0
  0
ENDBLK
  5
1817
330
180C
100
AcDbEntity
  8
0
100
AcDbBlockEnd
  0
BLOCK
  5
1DC3
330
1DC1
100
AcDbEntity
  8
0
100
AcDbBlockBegin
  2
A$C71AF25C3
 70
     0
 10
0.0
 20
0.0
 30
0.0
  3
A$C71AF25C3
  1

  0
MTEXT
  5
1DC2
102
{ACAD_XDICTIONARY
360
1E2F
102
}
330
1DC1
100
AcDbEntity
  8
実形
100
AcDbMText
 10
-21.99856825071947
 20
58.74286213140113
 30
0.0
 40
25.0
 41
612.2988505747128
 71
     1
 72
     5
  1
{\fArial|b0|i0|c0|p32;\H1.8x; e\H0.7778x;-KITCHEN \H0.3428x;U-ARCHITECTURE WORKS}
 73
     1
 44
1.0
1001
ACAD
1000
MTEXTBEGIN
1070
    73
1070
     1
1070
    44
1040
1.0
1070
    74
1070
     0
1000
MTEXTEND
  0
ENDBLK
  5
1DC4
330
1DC1
100
AcDbEntity
  8
0
100
AcDbBlockEnd
  0
ENDSEC
  0
SECTION
  2
ENTITIES
  0
LINE
  5
9C
330
1F
100
AcDbEntity
  8
0
100
AcDbLine
 10
4.0
 20
54.0
 30
0.0
 11
2784.0
 21
54.0
 31
0.0
  0
LINE
  5
9F
330
1F
100
AcDbEntity
  8
0
100
AcDbLine
 10
4.0
 20
1974.0
 30
0.0
 11
4.0
 21
54.0
 31
0.0
  0
LINE
  5
A0
330
1F
100
AcDbEntity
  8
0
100
AcDbLine
 10
2784.0
 20
1974.0
 30
0.0
 11
4.0
 21
1974.0
 31
0.0
  0
LINE
  5
A5
330
1F
100
AcDbEntity
  8
0
100
AcDbLine
 10
2784.0
 20
54.0
 30
0.0
 11
2784.0
 21
1974.0
 31
0.0
  0
TEXT
  5
8C9
330
1F
100
AcDbEntity
  8
0
100
AcDbText
 10
218.2512748396903
 20
140.1557798571466
 30
0.0
 40
30.0
  1
※実寸には製造上の誤差が多少生ずる場合があります。シンクの穴あけ加工は現物合わせにてお願いします。
100
AcDbText
  0
LINE
  5
128A
330
1F
100
AcDbEntity
  8
補助
100
AcDbLine
 10
589.7297531908716
 20
1693.67545567602
 30
0.0
 11
2000.032604124343
 21
1693.67545567602
 31
0.0
  0
LINE
  5
128C
330
1F
100
AcDbEntity
  8
補助
100
AcDbLine
 10
589.7297531908716
 20
1173.67545567602
 30
0.0
 11
2000.032604124343
 21
1173.67545567602
 31
0.0
  0
LINE
  5
128D
330
1F
100
AcDbEntity
  8
補助
100
AcDbLine
 10
589.7297531908716
 20
773.6754556760197
 30
0.0
 11
2000.032604124343
 21
773.6754556760197
 31
0.0
  0
LINE
  5
128F
330
1F
100
AcDbEntity
  8
補助
100
AcDbLine
 10
788.5936297894722
 20
1772.4117417374
 30
0.0
 11
788.5936297894722
 21
390.4813515458975
 31
0.0
  0
LINE
  5
1290
330
1F
100
AcDbEntity
  8
補助
100
AcDbLine
 10
1928.593629789472
 20
1772.4117417374
 30
0.0
 11
1928.593629789472
 21
390.4813515458975
 31
0.0
  0
LINE
  5
1292
330
1F
100
AcDbEntity
  8
補助
100
AcDbLine
 10
589.7297531908716
 20
1675.675455676019
 30
0.0
 11
2000.032604124343
 21
1675.675455676019
 31
0.0
  0
LINE
  5
1293
330
1F
100
AcDbEntity
  8
補助
100
AcDbLine
 10
589.7297531908716
 20
1191.67545567602
 30
0.0
 11
2000.032604124343
 21
1191.67545567602
 31
0.0
  0
LINE
  5
1294
330
1F
100
AcDbEntity
  8
補助
100
AcDbLine
 10
806.5936297894721
 20
1772.4117417374
 30
0.0
 11
806.5936297894721
 21
390.4813515458975
 31
0.0
  0
LINE
  5
1295
330
1F
100
AcDbEntity
  8
補助
100
AcDbLine
 10
1910.593629789472
 20
1772.4117417374
 30
0.0
 11
1910.593629789472
 21
390.4813515458975
 31
0.0
  0
LINE
  5
1296
330
1F
100
AcDbEntity
  8
補助
100
AcDbLine
 10
589.7297531908716
 20
1653.67545567602
 30
0.0
 11
2000.032604124343
 21
1653.67545567602
 31
0.0
  0
LINE
  5
1297
330
1F
100
AcDbEntity
  8
補助
100
AcDbLine
 10
589.7297531908716
 20
1213.67545567602
 30
0.0
 11
2000.032604124343
 21
1213.67545567602
 31
0.0
  0
LINE
  5
1298
330
1F
100
AcDbEntity
  8
補助
100
AcDbLine
 10
833.5936297894722
 20
1772.4117417374
 30
0.0
 11
833.5936297894722
 21
390.4813515458975
 31
0.0
  0
LINE
  5
1299
330
1F
100
AcDbEntity
  8
補助
100
AcDbLine
 10
1883.593629789472
 20
1772.4117417374
 30
0.0
 11
1883.593629789472
 21
390.4813515458975
 31
0.0
  0
LINE
  5
129A
330
1F
100
AcDbEntity
  8
補助
100
AcDbLine
 10
1483.593629789472
 20
1772.4117417374
 30
0.0
 11
1483.593629789472
 21
390.4813515458975
 31
0.0
  0
LINE
  5
129B
330
1F
100
AcDbEntity
  8
補助
100
AcDbLine
 10
1523.593629789472
 20
1772.4117417374
 30
0.0
 11
1523.593629789472
 21
390.4813515458975
 31
0.0
  0
DIMENSION
  5
12A2
330
1F
100
AcDbEntity
  8
寸法
100
AcDbDimension
  2
*D4
 10
633.9629018630796
 20
1675.675455676019
 30
0.0
 11
622.4454173656495
 21
1729.428900627159
 31
0.0
 70
   160
 71
     5
 42
18.0
  3
ISO-25
100
AcDbAlignedDimension
 13
788.5936297894722
 23
1693.67545567602
 33
0.0
 14
788.5936297894722
 24
1675.675455676019
 34
0.0
 50
90.0
100
AcDbRotatedDimension
1001
ACAD
1000
DSTYLE
1002
{
1070
   279
1070
     2
1070
   371
1070
    18
1070
   372
1070
    18
1002
}
  0
DIMENSION
  5
12E0
330
1F
100
AcDbEntity
  8
寸法
100
AcDbDimension
  2
*D5
 10
633.9629018630796
 20
1653.67545567602
 30
0.0
 11
620.1419132282998
 21
1646.564880774364
 31
0.0
 70
   160
 71
     5
 42
22.0
  3
ISO-25
100
AcDbAlignedDimension
 13
788.5936297894722
 23
1675.675455676019
 33
0.0
 14
788.5936297894722
 24
1653.67545567602
 34
0.0
 50
90.0
100
AcDbRotatedDimension
1001
ACAD
1000
DSTYLE
1002
{
1070
   279
1070
     1
1070
   371
1070
    18
1070
   372
1070
    18
1002
}
  0
DIMENSION
  5
12ED
330
1F
100
AcDbEntity
  8
寸法
100
AcDbDimension
  2
*D6
 10
633.9629018630796
 20
1213.67545567602
 30
0.0
 11
615.2129018630795
 21
1433.67545567602
 31
0.0
 70
    32
 71
     5
 42
440.0
  3
ISO-25
100
AcDbAlignedDimension
 13
788.5936297894722
 23
1653.67545567602
 33
0.0
 14
788.5936297894722
 24
1213.67545567602
 34
0.0
 50
90.0
100
AcDbRotatedDimension
1001
ACAD
1000
DSTYLE
1002
{
1070
   279
1070
     1
1070
   371
1070
    18
1070
   372
1070
    18
1002
}
  0
DIMENSION
  5
12FA
330
1F
100
AcDbEntity
  8
寸法
100
AcDbDimension
  2
*D7
 10
633.9629018630796
 20
1191.67545567602
 30
0.0
 11
620.1419132282998
 21
1227.64122754838
 31
0.0
 70
   160
 71
     5
 42
22.0
  3
ISO-25
100
AcDbAlignedDimension
 13
788.5936297894722
 23
1213.67545567602
 33
0.0
 14
788.5936297894722
 24
1191.67545567602
 34
0.0
 50
90.0
100
AcDbRotatedDimension
1001
ACAD
1000
DSTYLE
1002
{
1070
   279
1070
     1
1070
   371
1070
    18
1070
   372
1070
    18
1002
}
  0
DIMENSION
  5
1307
330
1F
100
AcDbEntity
  8
寸法
100
AcDbDimension
  2
*D8
 10
633.9629018630796
 20
1173.67545567602
 30
0.0
 11
633.9629018630794
 21
1137.871871898906
 31
0.0
 70
   160
 71
     5
 42
18.0
  3
ISO-25
100
AcDbAlignedDimension
 13
788.5936297894722
 23
1191.67545567602
 33
0.0
 14
788.5936297894722
 24
1173.67545567602
 34
0.0
 50
90.0
100
AcDbRotatedDimension
1001
ACAD
1000
DSTYLE
1002
{
1070
   279
1070
     1
1070
   371
1070
    18
1070
   372
1070
    18
1002
}
  0
DIMENSION
  5
132F
330
1F
100
AcDbEntity
  8
寸法
100
AcDbDimension
  2
*D9
 10
560.2509594618123
 20
1173.67545567602
 30
0.0
 11
541.5009594618121
 21
1433.67545567602
 31
0.0
 70
    32
 71
     5
 42
520.0
  3
ISO-25
100
AcDbAlignedDimension
 13
788.5936297894722
 23
1693.67545567602
 33
0.0
 14
788.5936297894722
 24
1173.67545567602
 34
0.0
 50
90.0
100
AcDbRotatedDimension
1001
ACAD
1000
DSTYLE
1002
{
1070
   371
1070
    18
1070
   372
1070
    18
1002
}
  0
DIMENSION
  5
134E
330
1F
100
AcDbEntity
  8
寸法
100
AcDbDimension
  2
*D10
 10
806.5936297894721
 20
1062.290944394732
 30
0.0
 11
752.8350914612282
 21
1073.70353727191
 31
0.0
 70
   160
 71
     5
 42
18.0
  3
ISO-25
100
AcDbAlignedDimension
 13
788.5936297894722
 23
1173.67545567602
 33
0.0
 14
806.5936297894721
 24
1173.67545567602
 34
0.0
100
AcDbRotatedDimension
1001
ACAD
1000
DSTYLE
1002
{
1070
   279
1070
     2
1070
   371
1070
    18
1070
   372
1070
    18
1002
}
  0
DIMENSION
  5
1382
330
1F
100
AcDbEntity
  8
寸法
100
AcDbDimension
  2
*D11
 10
1883.593629789472
 20
1062.290944394732
 30
0.0
 11
1895.82543971259
 21
1034.9007185773
 31
0.0
 70
   160
 71
     5
 42
27.0
  3
ISO-25
100
AcDbAlignedDimension
 13
1910.593629789472
 23
1173.67545567602
 33
0.0
 14
1883.593629789472
 24
1173.67545567602
 34
0.0
 50
180.0
100
AcDbRotatedDimension
1001
ACAD
1000
DSTYLE
1002
{
1070
   279
1070
     2
1070
   371
1070
    18
1070
   372
1070
    18
1002
}
  0
DIMENSION
  5
1391
330
1F
100
AcDbEntity
  8
寸法
100
AcDbDimension
  2
*D12
 10
1233.593629789472
 20
1062.290944394732
 30
0.0
 11
1558.593629789472
 21
1081.040944394732
 31
0.0
 70
    32
 71
     5
 42
650.0
  3
ISO-25
100
AcDbAlignedDimension
 13
1883.593629789472
 23
1173.67545567602
 33
0.0
 14
1233.593629789472
 24
1173.67545567602
 34
0.0
 50
180.0
100
AcDbRotatedDimension
1001
ACAD
1000
DSTYLE
1002
{
1070
   279
1070
     1
1070
   371
1070
    18
1070
   372
1070
    18
1002
}
  0
DIMENSION
  5
139E
330
1F
100
AcDbEntity
  8
寸法
100
AcDbDimension
  2
*D13
 10
1193.593629789472
 20
1062.290944394732
 30
0.0
 11
1215.12662231633
 21
1034.9007185773
 31
0.0
 70
   160
 71
     5
 42
40.0
  3
ISO-25
100
AcDbAlignedDimension
 13
1233.593629789472
 23
1173.67545567602
 33
0.0
 14
1193.593629789472
 24
1173.67545567602
 34
0.0
 50
180.0
100
AcDbRotatedDimension
1001
ACAD
1000
DSTYLE
1002
{
1070
   279
1070
     2
1070
   371
1070
    18
1070
   372
1070
    18
1002
}
  0
DIMENSION
  5
13AD
330
1F
100
AcDbEntity
  8
寸法
100
AcDbDimension
  2
*D14
 10
833.5936297894726
 20
1062.290944394732
 30
0.0
 11
1013.593629789472
 21
1081.040944394732
 31
0.0
 70
    32
 71
     5
 42
359.9999999999998
  3
ISO-25
100
AcDbAlignedDimension
 13
1193.593629789472
 23
1173.67545567602
 33
0.0
 14
833.5936297894726
 24
1173.67545567602
 34
0.0
 50
180.0
100
AcDbRotatedDimension
1001
ACAD
1000
DSTYLE
1002
{
1070
   279
1070
     1
1070
   371
1070
    18
1070
   372
1070
    18
1002
}
  0
DIMENSION
  5
13BA
330
1F
100
AcDbEntity
  8
寸法
100
AcDbDimension
  2
*D15
 10
806.5936297894724
 20
1062.290944394732
 30
0.0
 11
819.9558399414282
 21
1034.9007185773
 31
0.0
 70
   160
 71
     5
 42
27.0
  3
ISO-25
100
AcDbAlignedDimension
 13
833.5936297894726
 23
1173.67545567602
 33
0.0
 14
806.5936297894724
 24
1173.67545567602
 34
0.0
 50
180.0
100
AcDbRotatedDimension
1001
ACAD
1000
DSTYLE
1002
{
1070
   279
1070
     2
1070
   371
1070
    18
1070
   372
1070
    18
1002
}
  0
DIMENSION
  5
13C9
330
1F
100
AcDbEntity
  8
寸法
100
AcDbDimension
  2
*D16
 10
1928.593629789472
 20
1062.290944394732
 30
0.0
 11
1963.473923762472
 21
1069.138497208834
 31
0.0
 70
   160
 71
     5
 42
18.0
  3
ISO-25
100
AcDbAlignedDimension
 13
1910.593629789472
 23
1173.67545567602
 33
0.0
 14
1928.593629789472
 24
1173.67545567602
 34
0.0
 50
0.000000000000007
100
AcDbRotatedDimension
1001
ACAD
1000
DSTYLE
1002
{
1070
   279
1070
     2
1070
   371
1070
    18
1070
   372
1070
    18
1002
}
  0
DIMENSION
  5
1472
330
1F
100
AcDbEntity
  8
寸法
100
AcDbDimension
  2
*D17
 10
788.5936297894724
 20
982.4027942544844
 30
0.0
 11
1358.593629789472
 21
1001.152794254484
 31
0.0
 70
    32
 71
     5
 42
1140.0
  3
ISO-25
100
AcDbAlignedDimension
 13
1928.593629789472
 23
1173.67545567602
 33
0.0
 14
788.5936297894724
 24
1173.67545567602
 34
0.0
 50
180.0
100
AcDbRotatedDimension
1001
ACAD
1000
DSTYLE
1002
{
1070
   371
1070
    18
1070
   372
1070
    18
1002
}
  0
LINE
  5
14A3
330
1F
100
AcDbEntity
  8
実形
100
AcDbLine
 10
788.5936297894722
 20
1683.678331949444
 30
0.0
 11
788.5936297894722
 21
1183.678331949444
 31
0.0
  0
LINE
  5
14A4
330
1F
100
AcDbEntity
  8
実形
100
AcDbLine
 10
793.5936297894722
 20
1683.678331949444
 30
0.0
 11
793.5936297894722
 21
1183.678331949444
 31
0.0
  0
LINE
  5
14A5
330
1F
100
AcDbEntity
  8
実形
100
AcDbLine
 10
806.5936297894721
 20
1221.678331949444
 30
0.0
 11
806.5936297894721
 21
1645.678331949444
 31
0.0
  0
LINE
  5
14A6
330
1F
100
AcDbEntity
  8
実形
100
AcDbLine
 10
801.5936297894722
 20
1221.678331949444
 30
0.0
 11
801.5936297894722
 21
1645.678331949444
 31
0.0
  0
ARC
  5
14A7
330
1F
100
AcDbEntity
  8
実形
100
AcDbCircle
 10
836.5936297894721
 20
1221.678331949444
 30
0.0
 40
30.0
100
AcDbArc
 50
180.0
 51
270.0
  0
ARC
  5
14A8
330
1F
100
AcDbEntity
  8
実形
100
AcDbCircle
 10
836.5936297894721
 20
1221.678331949444
 30
0.0
 40
35.0
100
AcDbArc
 50
180.0
 51
270.0
  0
LINE
  5
14A9
330
1F
100
AcDbEntity
  8
実形
100
AcDbLine
 10
798.5936297894721
 20
1178.678331949444
 30
0.0
 11
1918.593629789472
 21
1178.678331949444
 31
0.0
  0
ARC
  5
14AA
330
1F
100
AcDbEntity
  8
実形
100
AcDbCircle
 10
798.5936297894721
 20
1183.678331949444
 30
0.0
 40
5.0
100
AcDbArc
 50
180.0
 51
270.0
  0
ARC
  5
14AB
330
1F
100
AcDbEntity
  8
実形
100
AcDbCircle
 10
798.5936297894721
 20
1183.678331949444
 30
0.0
 40
10.0
100
AcDbArc
 50
180.0
 51
270.0
  0
LINE
  5
14AC
330
1F
100
AcDbEntity
  8
実形
100
AcDbLine
 10
1880.593629789472
 20
1191.678331949444
 30
0.0
 11
836.5936297894721
 21
1191.678331949444
 31
0.0
  0
LINE
  5
14AD
330
1F
100
AcDbEntity
  8
実形
100
AcDbLine
 10
1880.593629789472
 20
1186.678331949444
 30
0.0
 11
836.5936297894721
 21
1186.678331949444
 31
0.0
  0
LINE
  5
14AE
330
1F
100
AcDbEntity
  8
実形
100
AcDbLine
 10
836.5936297894721
 20
1680.678331949444
 30
0.0
 11
1880.593629789472
 21
1680.678331949444
 31
0.0
  0
LINE
  5
14AF
330
1F
100
AcDbEntity
  8
実形
100
AcDbLine
 10
1918.593629789472
 20
1688.678331949444
 30
0.0
 11
798.5936297894721
 21
1688.678331949444
 31
0.0
  0
LINE
  5
14B0
330
1F
100
AcDbEntity
  8
実形
100
AcDbLine
 10
1918.593629789472
 20
1693.678331949444
 30
0.0
 11
798.5936297894721
 21
1693.678331949444
 31
0.0
  0
LINE
  5
14B1
330
1F
100
AcDbEntity
  8
実形
100
AcDbLine
 10
836.5936297894721
 20
1675.678331949444
 30
0.0
 11
1880.593629789472
 21
1675.678331949444
 31
0.0
  0
ARC
  5
14B2
330
1F
100
AcDbEntity
  8
実形
100
AcDbCircle
 10
1880.593629789472
 20
1645.678331949444
 30
0.0
 40
35.0
100
AcDbArc
 50
0.000000000000007
 51
90.0
  0
ARC
  5
14B3
330
1F
100
AcDbEntity
  8
実形
100
AcDbCircle
 10
1918.593629789472
 20
1683.678331949444
 30
0.0
 40
5.0
100
AcDbArc
 50
0.000000000000007
 51
90.0
  0
ARC
  5
14B4
330
1F
100
AcDbEntity
  8
実形
100
AcDbCircle
 10
1918.593629789472
 20
1683.678331949444
 30
0.0
 40
10.0
100
AcDbArc
 50
0.000000000000007
 51
90.0
  0
ARC
  5
14B5
330
1F
100
AcDbEntity
  8
実形
100
AcDbCircle
 10
1880.593629789472
 20
1645.678331949444
 30
0.0
 40
30.0
100
AcDbArc
 50
0.000000000000007
 51
90.0
  0
ARC
  5
14B6
330
1F
100
AcDbEntity
  8
実形
100
AcDbCircle
 10
836.5936297894721
 20
1645.678331949444
 30
0.0
 40
35.0
100
AcDbArc
 50
90.0
 51
180.0
  0
ARC
  5
14B7
330
1F
100
AcDbEntity
  8
実形
100
AcDbCircle
 10
798.5936297894721
 20
1683.678331949444
 30
0.0
 40
5.0
100
AcDbArc
 50
90.0
 51
180.0
  0
ARC
  5
14B8
330
1F
100
AcDbEntity
  8
実形
100
AcDbCircle
 10
798.5936297894721
 20
1683.678331949444
 30
0.0
 40
10.0
100
AcDbArc
 50
90.0
 51
180.0
  0
ARC
  5
14B9
330
1F
100
AcDbEntity
  8
実形
100
AcDbCircle
 10
836.5936297894721
 20
1645.678331949444
 30
0.0
 40
30.0
100
AcDbArc
 50
90.0
 51
180.0
  0
LINE
  5
14BA
330
1F
100
AcDbEntity
  8
実形
100
AcDbLine
 10
1915.593629789472
 20
1645.678331949444
 30
0.0
 11
1915.593629789472
 21
1221.678331949444
 31
0.0
  0
LINE
  5
14BB
330
1F
100
AcDbEntity
  8
実形
100
AcDbLine
 10
1923.593629789472
 20
1183.678331949444
 30
0.0
 11
1923.593629789472
 21
1683.678331949444
 31
0.0
  0
LINE
  5
14BC
330
1F
100
AcDbEntity
  8
実形
100
AcDbLine
 10
1928.593629789472
 20
1183.678331949444
 30
0.0
 11
1928.593629789472
 21
1683.678331949444
 31
0.0
  0
LINE
  5
14BD
330
1F
100
AcDbEntity
  8
実形
100
AcDbLine
 10
1910.593629789472
 20
1645.678331949444
 30
0.0
 11
1910.593629789472
 21
1221.678331949444
 31
0.0
  0
ARC
  5
14BE
330
1F
100
AcDbEntity
  8
実形
100
AcDbCircle
 10
1918.593629789472
 20
1183.678331949444
 30
0.0
 40
5.0
100
AcDbArc
 50
270.0
 51
0.000000000000007
  0
ARC
  5
14BF
330
1F
100
AcDbEntity
  8
実形
100
AcDbCircle
 10
1918.593629789472
 20
1183.678331949444
 30
0.0
 40
10.0
100
AcDbArc
 50
270.0
 51
0.000000000000007
  0
ARC
  5
14C0
330
1F
100
AcDbEntity
  8
実形
100
AcDbCircle
 10
1880.593629789472
 20
1221.678331949444
 30
0.0
 40
35.0
100
AcDbArc
 50
270.0
 51
0.000000000000007
  0
ARC
  5
14C1
330
1F
100
AcDbEntity
  8
実形
100
AcDbCircle
 10
1880.593629789472
 20
1221.678331949444
 30
0.0
 40
30.0
100
AcDbArc
 50
270.0
 51
0.000000000000007
  0
LINE
  5
14C2
330
1F
100
AcDbEntity
  8
実形
100
AcDbLine
 10
798.5936297894721
 20
1173.678331949444
 30
0.0
 11
1918.593629789472
 21
1173.678331949444
 31
0.0
  0
LINE
  5
14C4
330
1F
100
AcDbEntity
  8
補助
100
AcDbLine
 10
798.5936297894721
 20
1693.678331949444
 30
0.0
 11
684.3164122758107
 21
1693.645462697068
 31
0.0
  0
LINE
  5
14C5
330
1F
100
AcDbEntity
  8
補助
100
AcDbLine
 10
788.5936297894722
 20
1683.678331949444
 30
0.0
 11
788.5936297894722
 21
1755.604206163142
 31
0.0
  0
LINE
  5
14C6
330
1F
100
AcDbEntity
  8
補助
100
AcDbLine
 10
1158.593629789472
 20
1772.4117417374
 30
0.0
 11
1158.593629789472
 21
390.4813515458975
 31
0.0
  0
LINE
  5
14C7
330
1F
100
AcDbEntity
  8
補助
100
AcDbLine
 10
1703.593629789472
 20
1772.4117417374
 30
0.0
 11
1703.593629789472
 21
390.4813515458975
 31
0.0
  0
ARC
  5
1547
330
1F
100
AcDbEntity
  8
実形
100
AcDbCircle
 10
1558.593629789473
 20
-446.3245443239801
 30
0.0
 40
2100.0
100
AcDbArc
 50
83.91660636496762
 51
96.08339363503237
  0
ARC
  5
1548
330
1F
100
AcDbEntity
  8
実形
100
AcDbCircle
 10
1558.593629789473
 20
3313.675455676019
 30
0.0
 40
2100.0
100
AcDbArc
 50
263.9166063649676
 51
276.0833936350325
  0
LINE
  5
1549
330
1F
100
AcDbEntity
  8
センター
 48
0.8
370
    15
100
AcDbLine
 10
1233.593629789472
 20
1433.67545567602
 30
0.0
 11
1533.593629789473
 21
1433.67545567602
 31
0.0
  0
CIRCLE
  5
154A
330
1F
100
AcDbEntity
  8
実形
100
AcDbCircle
 10
1383.593629789473
 20
1433.67545567602
 30
0.0
 40
90.5
  0
CIRCLE
  5
154B
330
1F
100
AcDbEntity
  8
実形
100
AcDbCircle
 10
1383.593629789473
 20
1433.67545567602
 30
0.0
 40
80.0
  0
ARC
  5
154D
330
1F
100
AcDbEntity
  8
実形
100
AcDbCircle
 10
2533.593629789473
 20
1433.67545567602
 30
0.0
 40
1300.0
100
AcDbArc
 50
175.2378273157479
 51
184.762172684252
  0
LINE
  5
154E
330
1F
100
AcDbEntity
  8
センター
 48
0.8
370
    15
100
AcDbLine
 10
1383.593629789473
 20
1583.67545567602
 30
0.0
 11
1383.593629789473
 21
1283.675455676019
 31
0.0
  0
ARC
  5
1550
330
1F
100
AcDbEntity
  8
実形
100
AcDbCircle
 10
1347.701644116233
 20
1334.881739701866
 30
0.0
 40
110.0
100
AcDbArc
 50
184.762172684252
 51
263.9166063649676
  0
ARC
  5
1552
330
1F
100
AcDbEntity
  8
実形
100
AcDbCircle
 10
1347.701644116233
 20
1532.469171650173
 30
0.0
 40
110.0
100
AcDbArc
 50
96.08339363503237
 51
175.2378273157479
  0
ARC
  5
1554
330
1F
100
AcDbEntity
  8
実形
100
AcDbCircle
 10
583.5936297894727
 20
1433.67545567602
 30
0.0
 40
1300.0
100
AcDbArc
 50
355.2378273157481
 51
4.762172684252044
  0
ARC
  5
1559
330
1F
100
AcDbEntity
  8
実形
100
AcDbCircle
 10
1769.485615462712
 20
1334.881739701866
 30
0.0
 40
110.0
100
AcDbArc
 50
276.0833936350325
 51
355.2378273157481
  0
ARC
  5
155E
330
1F
100
AcDbEntity
  8
実形
100
AcDbCircle
 10
1769.485615462712
 20
1532.469171650173
 30
0.0
 40
110.0
100
AcDbArc
 50
4.762172684252044
 51
83.91660636496762
  0
DIMENSION
  5
1560
330
1F
100
AcDbEntity
  8
寸法
100
AcDbDimension
  2
*D18
 10
788.5936297894722
 20
1858.935117383602
 30
0.0
 11
1086.093629789472
 21
1877.685117383602
 31
0.0
 70
    32
 71
     5
 42
595.0000000000003
  3
ISO-25
100
AcDbAlignedDimension
 13
1383.593629789473
 23
1513.675455676019
 33
0.0
 14
788.5936297894722
 24
1653.67545567602
 34
0.0
 50
0.000000000000007
100
AcDbRotatedDimension
1001
ACAD
1000
DSTYLE
1002
{
1070
   371
1070
    18
1002
}
  0
LINE
  5
1561
330
1F
100
AcDbEntity
  8
実形
100
AcDbLine
 10
1218.593629789473
 20
773.6754556760197
 30
0.0
 11
1898.593629789473
 21
773.6754556760197
 31
0.0
  0
DIMENSION
  5
1562
330
1F
100
AcDbEntity
  8
寸法
100
AcDbDimension
  2
*D19
 10
1474.093629789473
 20
407.0386498060178
 30
0.0
 11
1383.593629789473
 21
407.0386498060178
 31
0.0
 70
   160
 71
     5
 42
181.0
  3
ISO-25
100
AcDbAlignedDimension
 13
1293.093629789473
 23
564.6754556760197
 33
0.0
 14
1474.093629789473
 24
564.6754556760197
 34
0.0
 50
0.000000000000007
100
AcDbRotatedDimension
1001
ACAD
1000
DSTYLE
1002
{
1070
   371
1070
    18
1002
}
  0
DIMENSION
  5
1563
330
1F
100
AcDbEntity
  8
寸法
100
AcDbDimension
  2
*D20
 10
1463.593629789473
 20
448.2480483749468
 30
0.0
 11
1383.593629789473
 21
466.9980483749468
 31
0.0
 70
    32
 71
     5
 42
160.0
  3
ISO-25
100
AcDbAlignedDimension
 13
1303.593629789473
 23
564.6754556760197
 33
0.0
 14
1463.593629789473
 24
564.6754556760197
 34
0.0
 50
0.000000000000007
100
AcDbRotatedDimension
1001
ACAD
1000
DSTYLE
1002
{
1070
   371
1070
    18
1002
}
  0
LINE
  5
1564
330
1F
100
AcDbEntity
  8
実形
100
AcDbLine
 10
1293.093629789473
 20
564.6754556760197
 30
0.0
 11
1474.093629789473
 21
564.6754556760197
 31
0.0
  0
LINE
  5
1565
330
1F
100
AcDbEntity
  8
実形
100
AcDbLine
 10
1293.093629789473
 20
574.6754556760197
 30
0.0
 11
1463.593629789473
 21
574.6754556760197
 31
0.0
  0
LINE
  5
1566
330
1F
100
AcDbEntity
  8
実形
100
AcDbLine
 10
1218.593629789473
 20
773.6754556760197
 30
0.0
 11
1898.593629789473
 21
773.6754556760197
 31
0.0
  0
ARC
  5
1567
330
1F
100
AcDbEntity
  8
実形
100
AcDbCircle
 10
1263.593629789473
 20
613.0510689351437
 30
0.0
 40
30.0
100
AcDbArc
 50
180.0
 51
255.8505239136565
  0
LINE
  5
1568
330
1F
100
AcDbEntity
  8
センター
 48
0.5
370
    15
100
AcDbLine
 10
1383.593629789473
 20
652.8920795514332
 30
0.0
 11
1383.593629789473
 21
496.476259244133
 31
0.0
  0
LINE
  5
1569
330
1F
100
AcDbEntity
  8
実形
100
AcDbLine
 10
1256.260057029691
 20
583.9612303213427
 30
0.0
 11
1293.093629789473
 21
574.6754556760197
 31
0.0
  0
LINE
  5
156A
330
1F
100
AcDbEntity
  8
実形
100
AcDbLine
 10
1293.093629789473
 20
574.6754556760197
 30
0.0
 11
1293.093629789473
 21
564.6754556760197
 31
0.0
  0
LINE
  5
156B
330
1F
100
AcDbEntity
  8
実形
100
AcDbLine
 10
1233.593629789473
 20
763.6754556760197
 30
0.0
 11
1233.593629789473
 21
613.0510689351437
 31
0.0
  0
ARC
  5
156C
330
1F
100
AcDbEntity
  8
実形
100
AcDbCircle
 10
1853.593629789473
 20
618.5966742242015
 30
0.0
 40
30.0
100
AcDbArc
 50
272.0978085861942
 51
0.000000000000007
  0
LEADER
  5
156D
330
1F
100
AcDbEntity
  8
0
100
AcDbLeader
  3
ISO-25
 40
25.0
 41
16.66666666666666
 76
     2
 10
1867.235979904004
 20
604.424765892053
 30
0.0
 10
1819.297481608954
 20
634.9069876565081
 30
0.0
213
0.0
223
-12.5
233
0.0
1001
ACAD
1000
DSTYLE
1002
{
1070
    41
1040
25.0
1070
   147
1040
6.25
1070
    77
1070
     0
1070
    73
1070
     1
1070
    74
1070
     1
1070
   279
1070
     1
1070
   342
1005
DA
1002
}
  0
DIMENSION
  5
156E
330
1F
100
AcDbEntity
  8
寸法
100
AcDbDimension
  2
*D21
 10
675.9612549668831
 20
574.6754556760197
 30
0.0
 11
657.2112549668831
 21
674.1754556760199
 31
0.0
 70
    32
 71
     5
 42
199.0
  3
ISO-25
100
AcDbAlignedDimension
 13
833.5936297894717
 23
773.6754556760197
 33
0.0
 14
833.5936297894717
 24
574.6754556760197
 34
0.0
 50
90.0
100
AcDbRotatedDimension
1001
ACAD
1000
DSTYLE
1002
{
1070
   371
1070
    18
1002
}
  0
LINE
  5
156F
330
1F
100
AcDbEntity
  8
実形
100
AcDbLine
 10
1854.691794398894
 20
588.6167803869875
 30
0.0
 11
1474.093629789473
 21
574.6754556760197
 31
0.0
  0
LINE
  5
1570
330
1F
100
AcDbEntity
  8
実形
100
AcDbLine
 10
1474.093629789473
 20
564.6754556760197
 30
0.0
 11
1474.093629789473
 21
574.6754556760197
 31
0.0
  0
LINE
  5
1571
330
1F
100
AcDbEntity
  8
実形
100
AcDbLine
 10
1474.093629789473
 20
574.6754556760197
 30
0.0
 11
1474.093629789473
 21
574.6754556760197
 31
0.0
  0
LINE
  5
1572
330
1F
100
AcDbEntity
  8
実形
100
AcDbLine
 10
1463.593629789473
 20
574.6754556760197
 30
0.0
 11
1474.093629789473
 21
574.6754556760197
 31
0.0
  0
TEXT
  5
1573
330
1F
100
AcDbEntity
  8
寸法
370
    18
100
AcDbText
 10
736.2625982880651
 20
515.3695724727852
 30
0.0
 40
25.0
  1
15
 50
90.0
100
AcDbText
  0
DIMENSION
  5
1574
330
1F
100
AcDbEntity
  8
寸法
100
AcDbDimension
  2
*D22
 10
714.7018793017647
 20
574.6754556760197
 30
0.0
 11
714.7018793017645
 21
582.17545567602
 31
0.0
 70
    32
  1
 
 71
     5
 42
15.0
  3
ISO-25
100
AcDbAlignedDimension
 13
833.5936297894717
 23
589.6754556760197
 33
0.0
 14
833.5936297894717
 24
574.6754556760197
 34
0.0
 50
90.0
100
AcDbRotatedDimension
1001
ACAD
1000
DSTYLE
1002
{
1070
   371
1070
    18
1002
}
  0
LINE
  5
1575
330
1F
100
AcDbEntity
  8
実形
100
AcDbLine
 10
1883.593629789473
 20
763.6754556760197
 30
0.0
 11
1883.593629789473
 21
618.5966742242015
 31
0.0
  0
TEXT
  5
1576
330
1F
100
AcDbEntity
  8
寸法
100
AcDbText
 10
908.508305889252
 20
633.9502346370794
 30
0.0
 40
25.0
  1
30R
100
AcDbText
  0
LINE
  5
15F3
330
1F
100
AcDbEntity
  8
補助
100
AcDbLine
 10
1158.593629789472
 20
1213.67545567602
 30
0.0
 11
1158.593629789472
 21
1732.668044716872
 31
0.0
  0
LINE
  5
179B
330
1F
100
AcDbEntity
  8
実形
100
AcDbLine
 10
833.5936297894722
 20
617.4231191367148
 30
0.0
 11
833.5936297894722
 21
763.6754556760197
 31
0.0
  0
LINE
  5
179C
330
1F
100
AcDbEntity
  8
実形
100
AcDbLine
 10
1193.593629789472
 20
763.6754556760197
 30
0.0
 11
1193.593629789472
 21
612.2448228938692
 31
0.0
  0
TEXT
  5
179E
330
1F
100
AcDbEntity
  8
寸法
100
AcDbText
 10
1741.332232108343
 20
637.7931054502233
 30
0.0
 40
25.0
  1
30R
100
AcDbText
  0
LINE
  5
179F
330
1F
100
AcDbEntity
  8
実形
100
AcDbLine
 10
1025.593629789472
 20
574.6754556760197
 30
0.0
 11
861.2569997706851
 21
587.5142548962376
 31
0.0
  0
ARC
  5
17A0
330
1F
100
AcDbEntity
  8
実形
100
AcDbCircle
 10
1163.593629789472
 20
612.2448228938692
 30
0.0
 40
30.0
100
AcDbArc
 50
286.0908163488539
 51
0.000000000000007
  0
LINE
  5
17A1
330
1F
100
AcDbEntity
  8
実形
100
AcDbLine
 10
1025.593629789472
 20
574.6754556760197
 30
0.0
 11
1141.593629789472
 21
574.6754556760197
 31
0.0
  0
LINE
  5
17A2
330
1F
100
AcDbEntity
  8
実形
100
AcDbLine
 10
1025.593629789472
 20
564.6754556760197
 30
0.0
 11
1025.593629789472
 21
574.6754556760197
 31
0.0
  0
LINE
  5
17A3
330
1F
100
AcDbEntity
  8
実形
100
AcDbLine
 10
1141.593629789472
 20
564.6754556760197
 30
0.0
 11
1025.593629789472
 21
564.6754556760197
 31
0.0
  0
LINE
  5
17A4
330
1F
100
AcDbEntity
  8
実形
100
AcDbLine
 10
1141.593629789472
 20
574.6754556760197
 30
0.0
 11
1141.593629789472
 21
564.6754556760197
 31
0.0
  0
LINE
  5
17A5
330
1F
100
AcDbEntity
  8
実形
100
AcDbLine
 10
1171.908449328538
 20
583.4201151584425
 30
0.0
 11
1141.593629789472
 21
574.6754556760197
 31
0.0
  0
DIMENSION
  5
17A6
330
1F
100
AcDbEntity
  8
寸法
100
AcDbDimension
  2
*D23
 10
1025.593629789472
 20
407.0386498060178
 30
0.0
 11
1083.593629789472
 21
407.0386498060178
 31
0.0
 70
   160
 71
     5
 42
116.0
  3
ISO-25
100
AcDbAlignedDimension
 13
1141.593629789472
 23
564.6754556760197
 33
0.0
 14
1025.593629789472
 24
564.6754556760197
 34
0.0
 50
180.0
100
AcDbRotatedDimension
1001
ACAD
1000
DSTYLE
1002
{
1070
   371
1070
    18
1002
}
  0
DIMENSION
  5
17A7
330
1F
100
AcDbEntity
  8
寸法
100
AcDbDimension
  2
*D24
 10
1039.593629789472
 20
448.2480483749468
 30
0.0
 11
1083.593629789472
 21
466.9980483749468
 31
0.0
 70
    32
 71
     5
 42
88.0
  3
ISO-25
100
AcDbAlignedDimension
 13
1127.593629789472
 23
564.6754556760197
 33
0.0
 14
1039.593629789472
 24
564.6754556760197
 34
0.0
 50
180.0
100
AcDbRotatedDimension
1001
ACAD
1000
DSTYLE
1002
{
1070
   371
1070
    18
1002
}
  0
LINE
  5
17A8
330
1F
100
AcDbEntity
  8
センター
 48
0.5
370
    15
100
AcDbLine
 10
1083.593629789472
 20
652.8920795514332
 30
0.0
 11
1083.593629789472
 21
496.476259244133
 31
0.0
  0
ARC
  5
17A9
330
1F
100
AcDbEntity
  8
実形
100
AcDbCircle
 10
863.5936297894721
 20
617.4231191367148
 30
0.0
 40
30.0
100
AcDbArc
 50
180.0
 51
265.532840938606
  0
LEADER
  5
17AA
330
1F
100
AcDbEntity
  8
0
100
AcDbLeader
  3
ISO-25
 40
25.0
 41
16.66666666666666
 76
     2
 10
849.9512796749408
 20
604.424765892053
 30
0.0
 10
897.8897779699911
 20
634.9069876565081
 30
0.0
211
-1.0
221
0.0
231
0.0
210
0.0
220
0.0
230
-1.0
213
0.0
223
-12.5
233
0.0
1001
ACAD
1000
DSTYLE
1002
{
1070
    41
1040
25.0
1070
   147
1040
6.25
1070
    77
1070
     0
1070
    73
1070
     1
1070
    74
1070
     1
1070
   279
1070
     1
1070
   342
1005
DA
1002
}
  0
ARC
  5
17AF
330
1F
100
AcDbEntity
  8
実形
100
AcDbCircle
 10
2133.593629789472
 20
1433.67545567602
 30
0.0
 40
1300.0
100
AcDbArc
 50
174.994765108837
 51
185.005234891163
  0
ARC
  5
17B0
330
1F
100
AcDbEntity
  8
実形
100
AcDbCircle
 10
-106.4063702105277
 20
1433.67545567602
 30
0.0
 40
1300.0
100
AcDbArc
 50
354.9947651088371
 51
5.00523489116296
  0
DIMENSION
  5
17B2
330
1F
100
AcDbEntity
  8
寸法
100
AcDbDimension
  2
*D25
 10
2035.330333853885
 20
1173.67545567602
 30
0.0
 11
2016.580333853885
 21
1303.67545567602
 31
0.0
 70
    32
 71
     5
 42
260.0
  3
ISO-25
100
AcDbAlignedDimension
 13
1703.593629789472
 23
1433.67545567602
 33
0.0
 14
1883.593629789472
 24
1173.67545567602
 34
0.0
 50
90.0
100
AcDbRotatedDimension
1001
ACAD
1000
DSTYLE
1002
{
1070
   371
1070
    18
1002
}
  0
DIMENSION
  5
17B3
330
1F
100
AcDbEntity
  8
寸法
100
AcDbDimension
  2
*D26
 10
788.5936297894722
 20
1791.158547309252
 30
0.0
 11
936.0936297894724
 21
1809.908547309252
 31
0.0
 70
    32
 71
     5
 42
295.0000000000002
  3
ISO-25
100
AcDbAlignedDimension
 13
1083.593629789472
 23
1491.67545567602
 33
0.0
 14
788.5936297894722
 24
1653.67545567602
 34
0.0
 50
180.0
100
AcDbRotatedDimension
1001
ACAD
1000
DSTYLE
1002
{
1070
   371
1070
    18
1002
}
  0
LINE
  5
17B4
330
1F
100
AcDbEntity
  8
センター
 48
0.8
370
    15
100
AcDbLine
 10
1083.593629789472
 20
1583.675455676019
 30
0.0
 11
1083.593629789472
 21
1283.67545567602
 31
0.0
  0
CIRCLE
  5
17B5
330
1F
100
AcDbEntity
  8
実形
100
AcDbCircle
 10
1083.593629789472
 20
1433.67545567602
 30
0.0
 40
58.0
  0
CIRCLE
  5
17B6
330
1F
100
AcDbEntity
  8
実形
100
AcDbCircle
 10
1083.593629789472
 20
1433.67545567602
 30
0.0
 40
44.0
  0
LINE
  5
17BC
330
1F
100
AcDbEntity
  8
実形
100
AcDbLine
 10
818.5936297894722
 20
773.6754556760197
 30
0.0
 11
1208.593629789472
 21
773.6754556760197
 31
0.0
  0
LINE
  5
17BD
330
1F
100
AcDbEntity
  8
実形
100
AcDbLine
 10
1208.593629789472
 20
773.6754556760197
 30
0.0
 11
818.5936297894722
 21
773.6754556760197
 31
0.0
  0
LINE
  5
17BE
330
1F
100
AcDbEntity
  8
実形
100
AcDbLine
 10
1208.593629789472
 20
773.6754556760197
 30
0.0
 11
818.5936297894722
 21
773.6754556760197
 31
0.0
  0
ARC
  5
17C0
330
1F
100
AcDbEntity
  8
実形
100
AcDbCircle
 10
1013.593629789472
 20
1673.67545567602
 30
0.0
 40
460.0
100
AcDbArc
 50
259.2202061986679
 51
280.7797938013321
  0
LINE
  5
17C2
330
1F
100
AcDbEntity
  8
センター
 48
0.8
370
    15
100
AcDbLine
 10
1233.593629789472
 20
1433.67545567602
 30
0.0
 11
933.5936297894729
 21
1433.67545567602
 31
0.0
  0
ARC
  5
17C4
330
1F
100
AcDbEntity
  8
実形
100
AcDbCircle
 10
1079.055839506459
 20
1329.851810330082
 30
0.0
 40
110.0
100
AcDbArc
 50
280.7797938013321
 51
354.9947651088371
  0
ARC
  5
17C8
330
1F
100
AcDbEntity
  8
実形
100
AcDbCircle
 10
948.1314200724852
 20
1329.851810330082
 30
0.0
 40
110.0
100
AcDbArc
 50
185.005234891163
 51
259.2202061986679
  0
ARC
  5
17CB
330
1F
100
AcDbEntity
  8
実形
100
AcDbCircle
 10
1013.593629789472
 20
1193.67545567602
 30
0.0
 40
460.0
100
AcDbArc
 50
79.22020619866799
 51
100.779793801332
  0
ARC
  5
17CE
330
1F
100
AcDbEntity
  8
実形
100
AcDbCircle
 10
1079.055839506459
 20
1537.499101021957
 30
0.0
 40
110.0
100
AcDbArc
 50
5.00523489116296
 51
79.22020619866799
  0
ARC
  5
17D0
330
1F
100
AcDbEntity
  8
実形
100
AcDbCircle
 10
948.1314200724852
 20
1537.499101021957
 30
0.0
 40
110.0
100
AcDbArc
 50
100.779793801332
 51
174.994765108837
  0
LINE
  5
189F
330
1F
100
AcDbEntity
  8
補助
100
AcDbLine
 10
1703.593629789472
 20
1653.67545567602
 30
0.0
 11
1703.593629789472
 21
1173.023945887346
 31
0.0
  0
LINE
  5
1961
330
1F
100
AcDbEntity
  8
補助
100
AcDbLine
 10
589.7297531908716
 20
574.6754556760197
 30
0.0
 11
2000.032604124343
 21
574.6754556760197
 31
0.0
  0
LINE
  5
1C45
330
1F
100
AcDbEntity
  8
実形
100
AcDbLine
 10
801.5936297894722
 20
763.6754556760197
 30
0.0
 11
1915.593629789472
 21
763.6754556760197
 31
0.0
  0
LINE
  5
1C46
330
1F
100
AcDbEntity
  8
実形
100
AcDbLine
 10
793.5936297894722
 20
778.6754556760197
 30
0.0
 11
1923.593629789472
 21
778.6754556760197
 31
0.0
  0
LINE
  5
1C47
330
1F
100
AcDbEntity
  8
実形
100
AcDbLine
 10
788.5936297894722
 20
773.6754556760197
 30
0.0
 11
1928.593629789472
 21
773.6754556760197
 31
0.0
  0
LINE
  5
1C48
330
1F
100
AcDbEntity
  8
実形
100
AcDbLine
 10
1913.593629789472
 20
773.6754556760197
 30
0.0
 11
803.5936297894721
 21
773.6754556760197
 31
0.0
  0
LINE
  5
1C49
330
1F
100
AcDbEntity
  8
実形
100
AcDbLine
 10
1913.593629789472
 20
773.6754556760197
 30
0.0
 11
803.5936297894721
 21
773.6754556760197
 31
0.0
  0
LINE
  5
1C4A
330
1F
100
AcDbEntity
  8
実形
100
AcDbLine
 10
1915.593629789472
 20
763.6754556760197
 30
0.0
 11
1915.593629789472
 21
773.6754556760197
 31
0.0
  0
LINE
  5
1C4B
330
1F
100
AcDbEntity
  8
実形
100
AcDbLine
 10
1923.593629789472
 20
778.6754556760197
 30
0.0
 11
1928.593629789472
 21
773.6754556760197
 31
0.0
  0
LINE
  5
1C4C
330
1F
100
AcDbEntity
  8
実形
100
AcDbLine
 10
801.5936297894722
 20
773.6754556760197
 30
0.0
 11
801.5936297894722
 21
763.6754556760197
 31
0.0
  0
LINE
  5
1C4D
330
1F
100
AcDbEntity
  8
実形
100
AcDbLine
 10
793.5936297894722
 20
778.6754556760197
 30
0.0
 11
788.5936297894722
 21
773.6754556760197
 31
0.0
  0
LINE
  5
1D1D
330
1F
100
AcDbEntity
  8
センター
370
    15
100
AcDbLine
 10
1533.593629789473
 20
1433.67545567602
 30
0.0
 11
1768.593629789472
 21
1433.67545567602
 31
0.0
  0
LINE
  5
1D5D
330
1F
100
AcDbEntity
  8
0
100
AcDbLine
 10
2084.0
 20
184.0
 30
0.0
 11
2784.0
 21
184.0
 31
0.0
  0
LINE
  5
1D5E
330
1F
100
AcDbEntity
  8
0
100
AcDbLine
 10
2084.0
 20
249.0
 30
0.0
 11
2784.0
 21
249.0
 31
0.0
  0
LINE
  5
1D5F
330
1F
100
AcDbEntity
  8
0
100
AcDbLine
 10
2084.0
 20
119.0
 30
0.0
 11
2784.0
 21
119.0
 31
0.0
  0
TEXT
  5
1D60
330
1F
100
AcDbEntity
  8
実形
100
AcDbText
 10
2106.666666666667
 20
199.0
 30
0.0
 40
35.0
  1
品番
 72
     4
 11
2144.0
 21
216.5
 31
0.0
100
AcDbText
  0
TEXT
  5
1D61
330
1F
100
AcDbEntity
  8
実形
100
AcDbText
 10
2106.666666666667
 20
134.0
 30
0.0
 40
35.0
  1
尺度
 72
     4
 11
2144.0
 21
151.5
 31
0.0
100
AcDbText
  0
LINE
  5
1D62
330
1F
100
AcDbEntity
  8
0
100
AcDbLine
 10
2084.0
 20
54.0
 30
0.0
 11
2084.0
 21
249.0
 31
0.0
  0
LINE
  5
1D63
330
1F
100
AcDbEntity
  8
0
100
AcDbLine
 10
2204.0
 20
119.0
 30
0.0
 11
2784.0
 21
119.0
 31
0.0
  0
TEXT
  5
1D65
330
1F
100
AcDbEntity
  8
0
100
AcDbText
 10
2266.5
 20
199.0
 30
0.0
 40
35.0
  1
HLm/m1140-520W
 72
     4
 11
2494.0
 21
216.5
 31
0.0
100
AcDbText
  0
LINE
  5
1D66
330
1F
100
AcDbEntity
  8
0
100
AcDbLine
 10
2204.0
 20
119.0
 30
0.0
 11
2204.0
 21
249.0
 31
0.0
  0
TEXT
  5
1D75
330
1F
100
AcDbEntity
  8
0
100
AcDbText
 10
2440.916666666666
 20
134.0
 30
0.0
 40
35.0
  1
1：10
 72
     4
 11
2494.0
 21
151.5
 31
0.0
100
AcDbText
  0
LINE
  5
1D76
330
1F
100
AcDbEntity
  8
0
100
AcDbLine
 10
2784.0
 20
54.0
 30
0.0
 11
2784.0
 21
119.0
 31
0.0
  0
LINE
  5
1D77
330
1F
100
AcDbEntity
  8
0
100
AcDbLine
 10
2784.0
 20
184.0
 30
0.0
 11
2784.0
 21
249.0
 31
0.0
  0
LINE
  5
1D78
330
1F
100
AcDbEntity
  8
Cen
100
AcDbLine
 10
2784.0
 20
119.0
 30
0.0
 11
2784.0
 21
184.0
 31
0.0
  0
LINE
  5
1D79
330
1F
100
AcDbEntity
  8
実形
100
AcDbLine
 10
2084.0
 20
1974.0
 30
0.0
 11
2784.0
 21
1974.0
 31
0.0
  0
LINE
  5
1D7A
330
1F
100
AcDbEntity
  8
0
100
AcDbLine
 10
2784.0
 20
1844.0
 30
0.0
 11
2084.0
 21
1844.0
 31
0.0
  0
LINE
  5
1D7B
330
1F
100
AcDbEntity
  8
0
100
AcDbLine
 10
2784.0
 20
1909.0
 30
0.0
 11
2084.0
 21
1909.0
 31
0.0
  0
LINE
  5
1D7C
330
1F
100
AcDbEntity
  8
0
100
AcDbLine
 10
2784.0
 20
1779.0
 30
0.0
 11
2084.0
 21
1779.0
 31
0.0
  0
LINE
  5
1D7D
330
1F
100
AcDbEntity
  8
0
100
AcDbLine
 10
2084.0
 20
1779.0
 30
0.0
 11
2084.0
 21
1974.0
 31
0.0
  0
LINE
  5
1D7E
330
1F
100
AcDbEntity
  8
0
100
AcDbLine
 10
2254.0
 20
1779.0
 30
0.0
 11
2254.0
 21
1974.0
 31
0.0
  0
TEXT
  5
1D7F
330
1F
100
AcDbEntity
  8
実形
100
AcDbText
 10
2118.0
 20
1795.499999999999
 30
0.0
 40
30.0
  1
ボール
 72
     4
 11
2169.0
 21
1811.499999999999
 31
0.0
100
AcDbText
  0
TEXT
  5
1D80
330
1F
100
AcDbEntity
  8
実形
100
AcDbText
 10
2137.0
 20
1861.5
 30
0.0
 40
30.0
  1
天板
 72
     4
 11
2169.0
 21
1876.5
 31
0.0
100
AcDbText
  0
TEXT
  5
1D81
330
1F
100
AcDbEntity
  8
実形
100
AcDbText
 10
2120.0
 20
1926.5
 30
0.0
 40
30.0
  1
部品名
 72
     4
 11
2169.0
 21
1941.5
 31
0.0
100
AcDbText
  0
TEXT
  5
1D82
330
1F
100
AcDbEntity
  8
実形
100
AcDbText
 10
2603.5
 20
1926.5
 30
0.0
 40
30.0
  1
素材寸法
 72
     4
 11
2671.5
 21
1941.5
 31
0.0
100
AcDbText
  0
TEXT
  5
1D83
330
1F
100
AcDbEntity
  8
実形
100
AcDbText
 10
2613.0
 20
1861.5
 30
0.0
 40
30.0
  1
1.0ｍｍ
 72
     4
 11
2671.5
 21
1876.5
 31
0.0
100
AcDbText
  0
TEXT
  5
1D84
330
1F
100
AcDbEntity
  8
実形
100
AcDbText
 10
2608.0
 20
1796.499999999999
 30
0.0
 40
30.0
  1
0.7ｍｍ
 72
     4
 11
2671.5
 21
1811.499999999999
 31
0.0
100
AcDbText
  0
LINE
  5
1D85
330
1F
100
AcDbEntity
  8
0
100
AcDbLine
 10
2559.0
 20
1779.0
 30
0.0
 11
2559.0
 21
1974.0
 31
0.0
  0
TEXT
  5
1D86
330
1F
100
AcDbEntity
  8
実形
100
AcDbText
 10
2324.0
 20
1796.5
 30
0.0
 40
30.0
  1
SUS304
 72
     4
 11
2406.5
 21
1811.5
 31
0.0
100
AcDbText
  0
TEXT
  5
1D87
330
1F
100
AcDbEntity
  8
実形
100
AcDbText
 10
2324.0
 20
1861.5
 30
0.0
 40
30.0
  1
SUS304
 72
     4
 11
2406.5
 21
1876.5
 31
0.0
100
AcDbText
  0
TEXT
  5
1D88
330
1F
100
AcDbEntity
  8
実形
100
AcDbText
 10
2374.5
 20
1926.5
 30
0.0
 40
30.0
  1
材質
 72
     4
 11
2406.5
 21
1941.5
 31
0.0
100
AcDbText
  0
LINE
  5
1D89
330
1F
100
AcDbEntity
  8
実形
100
AcDbLine
 10
2784.0
 20
1974.0
 30
0.0
 11
2784.000000000002
 21
1779.0
 31
0.0
  0
LINE
  5
1D8A
330
1F
100
AcDbEntity
  8
0
100
AcDbLine
 10
2784.0
 20
1779.0
 30
0.0
 11
2784.0
 21
1974.0
 31
0.0
  0
LINE
  5
1D8E
330
1F
100
AcDbEntity
  8
補助
100
AcDbLine
 10
2559.0
 20
2024.0
 30
0.0
 11
2254.0
 21
1959.0
 31
0.0
  0
LINE
  5
1D8F
330
1F
100
AcDbEntity
  8
補助
100
AcDbLine
 10
2254.0
 20
1959.0
 30
0.0
 11
2559.0
 21
1894.0
 31
0.0
  0
LINE
  5
1D90
330
1F
100
AcDbEntity
  8
補助
100
AcDbLine
 10
2559.0
 20
1894.0
 30
0.0
 11
2254.0
 21
1829.0
 31
0.0
  0
LINE
  5
1D91
330
1F
100
AcDbEntity
  8
補助
100
AcDbLine
 10
2254.0
 20
1829.0
 30
0.0
 11
2254.0
 21
1894.0
 31
0.0
  0
LINE
  5
1D92
330
1F
100
AcDbEntity
  8
補助
100
AcDbLine
 10
2254.0
 20
1894.0
 30
0.0
 11
2559.0
 21
1829.0
 31
0.0
  0
LINE
  5
1D93
330
1F
100
AcDbEntity
  8
補助
100
AcDbLine
 10
2254.0
 20
2024.0
 30
0.0
 11
2559.0
 21
1959.0
 31
0.0
  0
LINE
  5
1D94
330
1F
100
AcDbEntity
  8
補助
100
AcDbLine
 10
2559.0
 20
1959.0
 30
0.0
 11
2254.0
 21
1894.0
 31
0.0
  0
LINE
  5
1D96
330
1F
100
AcDbEntity
  8
補助
100
AcDbLine
 10
2204.0
 20
199.0
 30
0.0
 11
2784.0
 21
134.0
 31
0.0
  0
LINE
  5
1D97
330
1F
100
AcDbEntity
  8
補助
100
AcDbLine
 10
2784.0
 20
134.0
 30
0.0
 11
2204.0
 21
69.0
 31
0.0
  0
LINE
  5
1D98
330
1F
100
AcDbEntity
  8
補助
100
AcDbLine
 10
2784.0
 20
199.0
 30
0.0
 11
2204.0
 21
134.0
 31
0.0
  0
LINE
  5
1D99
330
1F
100
AcDbEntity
  8
補助
100
AcDbLine
 10
2204.0
 20
134.0
 30
0.0
 11
2784.0
 21
69.0
 31
0.0
  0
MTEXT
  5
1DC7
102
{ACAD_XDICTIONARY
360
1E31
102
}
330
1F
100
AcDbEntity
  8
実形
100
AcDbMText
 10
2224.373857874154
 20
112.7428621314011
 30
0.0
 40
25.0
 41
612.2988505747128
 71
     1
 72
     5
  1
{\fArial|b0|i0|c0|p32;\H1.8x; e\H0.7778x;-KITCHEN \H0.3428x;U-ARCHITECTURE WORKS}
 73
     1
 44
1.0
1001
ACAD
1000
MTEXTBEGIN
1070
    73
1070
     1
1070
    44
1040
1.0
1070
    74
1070
     0
1000
MTEXTEND
  0
VIEWPORT
  5
2E
102
{ACAD_XDICTIONARY
360
1E2B
102
}
330
1B
100
AcDbEntity
 67
     1
  8
0
100
AcDbViewport
 10
144.7270812988281
 20
101.2295806407928
 30
0.0
 40
411.6736216682419
 41
222.1517806396485
 68
     1
 69
     1
 12
144.7270812988281
 22
101.2295806407928
 13
0.0
 23
0.0
 14
10.0
 24
10.0
 15
10.0
 25
10.0
 16
0.0
 26
0.0
 36
1.0
 17
0.0
 27
0.0
 37
0.0
 42
50.0
 43
0.0
 44
0.0
 45
222.1517806396485
 50
0.0
 51
0.0
 72
   100
 90
    32800
  1

281
     0
 71
     1
 74
     0
110
0.0
120
0.0
130
0.0
111
1.0
121
0.0
131
0.0
112
0.0
122
1.0
132
0.0
 79
     0
146
0.0
  0
VIEWPORT
  5
30
102
{ACAD_XDICTIONARY
360
1E2D
102
}
330
1B
100
AcDbEntity
 67
     1
  8
0
100
AcDbViewport
 10
139.2237563133239
 20
101.2295821905136
 30
0.0
 40
222.7580101013184
 41
161.9673315048218
 68
     2
 69
     2
 12
210.0
 22
148.5
 13
0.0
 23
0.0
 14
10.0
 24
10.0
 15
10.0
 25
10.0
 16
0.0
 26
0.0
 36
1.0
 17
0.0
 27
0.0
 37
0.0
 42
50.0
 43
0.0
 44
0.0
 45
309.0686705647124
 50
0.0
 51
0.0
 72
   100
 90
    32864
  1

281
     0
 71
     1
 74
     0
110
0.0
120
0.0
130
0.0
111
1.0
121
0.0
131
0.0
112
0.0
122
1.0
132
0.0
 79
     0
146
0.0
  0
ENDSEC
  0
SECTION
  2
OBJECTS
  0
DICTIONARY
  5
C
330
0
100
AcDbDictionary
281
     1
  3
ACAD_COLOR
350
1D9E
  3
ACAD_GROUP
350
D
  3
ACAD_LAYOUT
350
1A
  3
ACAD_MATERIAL
350
1D9D
  3
ACAD_MLINESTYLE
350
17
  3
ACAD_PLOTSETTINGS
350
19
  3
ACAD_PLOTSTYLENAME
350
E
  3
AcadDim
350
124
  3
ACDBHEADERROUNDTRIPXREC
350
1E22
  3
AcDbVariableDictionary
350
1055
  3
ASE_INDEX_DICTIONARY
350
1DDF
  3
DWGPROPS
350
1E21
  0
DICTIONARY
  5
1E2F
330
1DC2
100
AcDbDictionary
280
     1
281
     1
  3
ACAD_MTEXT_RT
360
1E30
  0
DICTIONARY
  5
1E31
330
1DC7
100
AcDbDictionary
280
     1
281
     1
  3
ACAD_MTEXT_RT
360
1E32
  0
DICTIONARY
  5
1E2B
330
2E
100
AcDbDictionary
280
     1
281
     1
  3
ACAD_XREC_ROUNDTRIP
360
1E2C
  0
DICTIONARY
  5
1E2D
330
30
100
AcDbDictionary
280
     1
281
     1
  3
ACAD_XREC_ROUNDTRIP
360
1E2E
  0
DICTIONARY
  5
1D9E
102
{ACAD_REACTORS
330
C
102
}
330
C
100
AcDbDictionary
281
     1
  0
DICTIONARY
  5
D
102
{ACAD_REACTORS
330
C
102
}
330
C
100
AcDbDictionary
281
     1
  0
DICTIONARY
  5
1A
102
{ACAD_REACTORS
330
C
102
}
330
C
100
AcDbDictionary
281
     1
  3
Model
350
22
  3
ﾚｲｱｳﾄ1
350
1E
  3
ﾚｲｱｳﾄ2
350
26
  0
DICTIONARY
  5
1D9D
102
{ACAD_REACTORS
330
C
102
}
330
C
100
AcDbDictionary
281
     1
  0
DICTIONARY
  5
17
102
{ACAD_REACTORS
330
C
102
}
330
C
100
AcDbDictionary
281
     1
  3
Standard
350
18
  0
DICTIONARY
  5
19
102
{ACAD_REACTORS
330
C
102
}
330
C
100
AcDbDictionary
281
     1
  0
ACDBDICTIONARYWDFLT
  5
E
102
{ACAD_REACTORS
330
C
102
}
330
C
100
AcDbDictionary
281
     1
  3
Normal
350
F
100
AcDbDictionaryWithDefault
340
F
  0
XRECORD
  5
124
102
{ACAD_REACTORS
330
C
102
}
330
C
100
AcDbXrecord
280
     1
 90
   990106
  3

 60
     0
 61
     0
 62
     1
 63
     3
 64
     0
 65
     0
 66
     0
 67
     3
 68
     1
 69
     0
 70
     0
 71
     0
 72
     0
 40
30.0
170
     0
  0
DICTIONARY
  5
1E22
102
{ACAD_REACTORS
330
C
102
}
330
C
100
AcDbDictionary
281
     1
  3
COLORDICT
350
1E24
  3
MATERIALDICT
350
1E23
  0
DICTIONARY
  5
1055
102
{ACAD_REACTORS
330
C
102
}
330
C
100
AcDbDictionary
281
     1
  3
DIMASSOC
350
1E02
  3
PROJECTNAME
350
1E03
  3
SORTENTS
350
1056
  0
DICTIONARY
  5
1DDF
102
{ACAD_REACTORS
330
C
102
}
330
C
100
AcDbDictionary
281
     1
  3
ASEBlockHierarchyIndexRecord
350
1DE1
1001
DCO15
1040
1558326111.139
  0
XRECORD
  5
1E21
102
{ACAD_REACTORS
330
C
102
}
330
C
100
AcDbXrecord
280
     1
  1
DWGPROPS COOKIE
  2

  3

  4

  6

  7

  8
山崎　広絵
  9

300
=
301
=
302
=
303
=
304
=
305
=
306
=
307
=
308
=
309
=
 40
0.7447119907407408
 41
2451673.575802199
 42
2454088.479786783
  1

 90
        0
  0
XRECORD
  5
1E30
102
{ACAD_REACTORS
330
1E2F
102
}
330
1E2F
100
AcDbXrecord
280
     1
 40
239804.0
  1
\pl25;{\fArial|b0|i0|c0|p32;\H1.8x;e\H0.7778x;-KITCHEN \H0.3428x;U-ARCHITECTURE WORKS}
  0
XRECORD
  5
1E32
102
{ACAD_REACTORS
330
1E31
102
}
330
1E31
100
AcDbXrecord
280
     1
 40
239804.0
  1
\pl25;{\fArial|b0|i0|c0|p32;\H1.8x;e\H0.7778x;-KITCHEN \H0.3428x;U-ARCHITECTURE WORKS}
  0
XRECORD
  5
1E2C
102
{ACAD_REACTORS
330
1E2B
102
}
330
1E2B
100
AcDbXrecord
280
     1
102
SHADEPLOT
 70
     0
  0
XRECORD
  5
1E2E
102
{ACAD_REACTORS
330
1E2D
102
}
330
1E2D
100
AcDbXrecord
280
     1
102
SHADEPLOT
 70
     0
  0
LAYOUT
  5
22
102
{ACAD_XDICTIONARY
360
1E27
102
}
102
{ACAD_REACTORS
330
1A
102
}
330
1A
100
AcDbPlotSettings
  1

  2
Adobe PDF
  4
User32767
  6

 40
3.174999952316283
 41
3.174999952316283
 42
3.175003051757812
 43
3.17498779296875
 44
210.0
 45
297.0
 46
0.73
 47
6.2
 48
0.0
 49
0.0
140
0.0
141
0.0
142
1.0
143
10.0
 70
 11956
 72
     1
 73
     1
 74
     1
  7

 75
    20
147
0.1
148
-3.625557436171219
149
-2.563525459925585
100
AcDbLayout
  1
Model
 70
     1
 71
     0
 10
0.0
 20
0.0
 11
12.0
 21
9.0
 12
0.0
 22
0.0
 32
0.0
 14
0.0
 24
0.0
 34
0.0
 15
0.0
 25
0.0
 35
0.0
146
0.0
 13
0.0
 23
0.0
 33
0.0
 16
1.0
 26
0.0
 36
0.0
 17
0.0
 27
1.0
 37
0.0
 76
     0
330
1F
  0
LAYOUT
  5
1E
102
{ACAD_XDICTIONARY
360
1E25
102
}
102
{ACAD_REACTORS
330
1A
102
}
330
1A
100
AcDbPlotSettings
  1

  2
EPSON PM-800C
  4
A4
  6

 40
3.757083177566528
 41
14.7637300491333
 42
3.757080078125
 43
3.757080078125
 44
209.9733276367186
 45
296.9683227539062
 46
0.0
 47
0.0
 48
0.0
 49
0.0
140
0.0
141
0.0
142
1.0
143
1.0
 70
   688
 72
     1
 73
     1
 74
     5
  7

 75
    16
147
1.0
148
0.0
149
0.0
100
AcDbLayout
  1
ﾚｲｱｳﾄ1
 70
     1
 71
     1
 10
-3.757080078125
 20
-3.757083177566528
 11
293.2112426757813
 21
206.2162444591522
 12
0.0
 22
0.0
 32
0.0
 14
27.8447512626648
 24
20.24591643810271
 34
0.0
 15
250.6027613639831
 25
182.2132479429245
 35
0.0
146
0.0
 13
0.0
 23
0.0
 33
0.0
 16
1.0
 26
0.0
 36
0.0
 17
0.0
 27
1.0
 37
0.0
 76
     0
330
1B
331
2E
  0
LAYOUT
  5
26
102
{ACAD_XDICTIONARY
360
1E29
102
}
102
{ACAD_REACTORS
330
1A
102
}
330
1A
100
AcDbPlotSettings
  1

  2
EPSON PM-800C
  4

  6

 40
0.0
 41
0.0
 42
0.0
 43
0.0
 44
0.0
 45
0.0
 46
0.0
 47
0.0
 48
0.0
 49
0.0
140
0.0
141
0.0
142
1.0
143
1.0
 70
   688
 72
     0
 73
     0
 74
     5
  7

 75
    16
147
1.0
148
0.0
149
0.0
100
AcDbLayout
  1
ﾚｲｱｳﾄ2
 70
     1
 71
     2
 10
0.0
 20
0.0
 11
12.0
 21
9.0
 12
0.0
 22
0.0
 32
0.0
 14
0.0
 24
0.0
 34
0.0
 15
0.0
 25
0.0
 35
0.0
146
0.0
 13
0.0
 23
0.0
 33
0.0
 16
1.0
 26
0.0
 36
0.0
 17
0.0
 27
1.0
 37
0.0
 76
     0
330
23
  0
MLINESTYLE
  5
18
102
{ACAD_REACTORS
330
17
102
}
330
17
100
AcDbMlineStyle
  2
STANDARD
 70
     0
  3

 62
   256
 51
90.0
 52
90.0
 71
     2
 49
0.5
 62
   256
  6
BYLAYER
 49
-0.5
 62
   256
  6
BYLAYER
  0
ACDBPLACEHOLDER
  5
F
102
{ACAD_REACTORS
330
E
102
}
330
E
  0
XRECORD
  5
1E24
102
{ACAD_REACTORS
330
1E22
102
}
330
1E22
100
AcDbXrecord
280
     1
340
1D9E
  0
XRECORD
  5
1E23
102
{ACAD_REACTORS
330
1E22
102
}
330
1E22
100
AcDbXrecord
280
     1
340
1D9D
  0
DICTIONARYVAR
  5
1E02
102
{ACAD_REACTORS
330
1055
102
}
330
1055
100
DictionaryVariables
280
     0
  1
1
  0
DICTIONARYVAR
  5
1E03
102
{ACAD_REACTORS
330
1055
102
}
330
1055
100
DictionaryVariables
280
     0
  1

  0
DICTIONARYVAR
  5
1056
102
{ACAD_REACTORS
330
1055
102
}
330
1055
100
DictionaryVariables
280
     0
  1
96
  0
XRECORD
  5
1DE1
102
{ACAD_REACTORS
330
1DDF
102
}
330
1DDF
100
AcDbXrecord
280
     1
330
1BC1
330
1BC2
330
1BCA
330
1BCB
330
1B93
330
1B94
330
1BB8
330
1BB9
330
1BAF
330
1BB0
330
1B8A
330
1B8B
330
1BA6
330
1BA7
330
1CB5
330
1CB6
330
1CAB
330
1CAC
330
1CE2
330
1CE3
330
1CFC
330
1CFD
330
1CF4
330
1CF5
330
1D18
330
1D19
330
1CA2
330
1CA3
330
1D05
330
1D06
330
1CC6
330
1CC7
330
1CBD
330
1CBE
330
1B79
330
1B7A
330
1B82
330
1B83
330
1CD8
330
1CD9
330
1CCF
330
1CD0
330
1C6A
330
1C6B
330
1D0E
330
1D0F
  0
DICTIONARY
  5
1E27
330
22
100
AcDbDictionary
280
     1
281
     1
  3
ACAD_XREC_ROUNDTRIP
360
1E28
  0
DICTIONARY
  5
1E25
330
1E
100
AcDbDictionary
280
     1
281
     1
  3
ACAD_XREC_ROUNDTRIP
360
1E26
  0
DICTIONARY
  5
1E29
330
26
100
AcDbDictionary
280
     1
281
     1
  3
ACAD_XREC_ROUNDTRIP
360
1E2A
  0
XRECORD
  5
1E28
102
{ACAD_REACTORS
330
1E27
102
}
330
1E27
100
AcDbXrecord
280
     1
102
SHADEPLOT
 70
     0
102
SHADEPLOTRESLEVEL
 70
     2
102
SHADEPLOTCUSTOMDPI
 70
   300
  0
XRECORD
  5
1E26
102
{ACAD_REACTORS
330
1E25
102
}
330
1E25
100
AcDbXrecord
280
     1
102
SHADEPLOT
 70
     0
102
SHADEPLOTRESLEVEL
 70
     2
102
SHADEPLOTCUSTOMDPI
 70
   300
  0
XRECORD
  5
1E2A
102
{ACAD_REACTORS
330
1E29
102
}
330
1E29
100
AcDbXrecord
280
     1
102
SHADEPLOT
 70
     0
102
SHADEPLOTRESLEVEL
 70
     2
102
SHADEPLOTCUSTOMDPI
 70
   300
  0
ENDSEC
  0
EOF
