  0
SECTION
  2
HEADER
  9
$ACADVER
  1
AC1015
  9
$ACADMAINTVER
 70
    20
  9
$DWGCODEPAGE
  3
ANSI_932
  9
$INSBASE
 10
0.0
 20
0.0
 30
0.0
  9
$EXTMIN
 10
3.62555743617122
 20
53.83305676961026
 30
-0.0015258207003583
  9
$EXTMAX
 10
2786.187781959525
 20
1974.838283582176
 30
0.0000000349246037
  9
$LIMMIN
 10
0.0
 20
0.0
  9
$LIMMAX
 10
29700.0
 20
21000.0
  9
$ORTHOMODE
 70
     1
  9
$REGENMODE
 70
     1
  9
$FILLMODE
 70
     1
  9
$QTEXTMODE
 70
     0
  9
$MIRRTEXT
 70
     1
  9
$LTSCALE
 40
4.0
  9
$ATTMODE
 70
     1
  9
$TEXTSIZE
 40
25.0
  9
$TRACEWID
 40
1.0
  9
$TEXTSTYLE
  7
Standard
  9
$CLAYER
  8
実形
  9
$CELTYPE
  6
ByLayer
  9
$CECOLOR
 62
   256
  9
$CELTSCALE
 40
1.0
  9
$DISPSILH
 70
     0
  9
$DIMSCALE
 40
1.0
  9
$DIMASZ
 40
35.0
  9
$DIMEXO
 40
65.0
  9
$DIMDLI
 40
3.75
  9
$DIMRND
 40
0.0
  9
$DIMDLE
 40
0.0
  9
$DIMEXE
 40
0.0
  9
$DIMTP
 40
0.0
  9
$DIMTM
 40
0.0
  9
$DIMTXT
 40
25.0
  9
$DIMCEN
 40
2.5
  9
$DIMTSZ
 40
0.0
  9
$DIMTOL
 70
     0
  9
$DIMLIM
 70
     0
  9
$DIMTIH
 70
     0
  9
$DIMTOH
 70
     0
  9
$DIMSE1
 70
     0
  9
$DIMSE2
 70
     0
  9
$DIMTAD
 70
     1
  9
$DIMZIN
 70
     8
  9
$DIMBLK
  1
DotSmall
  9
$DIMASO
 70
     1
  9
$DIMSHO
 70
     1
  9
$DIMPOST
  1

  9
$DIMAPOST
  1

  9
$DIMALT
 70
     0
  9
$DIMALTD
 70
     3
  9
$DIMALTF
 40
0.03937007874016
  9
$DIMLFAC
 40
1.0
  9
$DIMTOFL
 70
     1
  9
$DIMTVP
 40
0.0
  9
$DIMTIX
 70
     0
  9
$DIMSOXD
 70
     0
  9
$DIMSAH
 70
     0
  9
$DIMBLK1
  1

  9
$DIMBLK2
  1

  9
$DIMSTYLE
  2
ISO-25
  9
$DIMCLRD
 70
     0
  9
$DIMCLRE
 70
     0
  9
$DIMCLRT
 70
     0
  9
$DIMTFAC
 40
1.0
  9
$DIMGAP
 40
6.25
  9
$DIMJUST
 70
     0
  9
$DIMSD1
 70
     0
  9
$DIMSD2
 70
     0
  9
$DIMTOLJ
 70
     0
  9
$DIMTZIN
 70
     8
  9
$DIMALTZ
 70
     0
  9
$DIMALTTZ
 70
     0
  9
$DIMUPT
 70
     0
  9
$DIMDEC
 70
     2
  9
$DIMTDEC
 70
     2
  9
$DIMALTU
 70
     2
  9
$DIMALTTD
 70
     3
  9
$DIMTXSTY
  7
Standard
  9
$DIMAUNIT
 70
     0
  9
$DIMADEC
 70
     0
  9
$DIMALTRND
 40
0.0
  9
$DIMAZIN
 70
     0
  9
$DIMDSEP
 70
    46
  9
$DIMATFIT
 70
     3
  9
$DIMFRAC
 70
     0
  9
$DIMLDRBLK
  1
Open30
  9
$DIMLUNIT
 70
     2
  9
$DIMLWD
 70
    18
  9
$DIMLWE
 70
    18
  9
$DIMTMOVE
 70
     0
  9
$LUNITS
 70
     2
  9
$LUPREC
 70
     2
  9
$SKETCHINC
 40
1.0
  9
$FILLETRAD
 40
80.0
  9
$AUNITS
 70
     0
  9
$AUPREC
 70
     0
  9
$MENU
  1
.
  9
$ELEVATION
 40
0.0
  9
$PELEVATION
 40
0.0
  9
$THICKNESS
 40
0.0
  9
$LIMCHECK
 70
     1
  9
$CHAMFERA
 40
10.0
  9
$CHAMFERB
 40
10.0
  9
$CHAMFERC
 40
20.0
  9
$CHAMFERD
 40
0.0
  9
$SKPOLY
 70
     0
  9
$TDCREATE
 40
2451673.575802199
  9
$TDUCREATE
 40
2451673.200802199
  9
$TDUPDATE
 40
2454194.583211620
  9
$TDUUPDATE
 40
2454194.208211621
  9
$TDINDWG
 40
0.6535603935
  9
$TDUSRTIMER
 40
0.6535551736
  9
$USRTIMER
 70
     1
  9
$ANGBASE
 50
0.0
  9
$ANGDIR
 70
     0
  9
$PDMODE
 70
     3
  9
$PDSIZE
 40
0.0
  9
$PLINEWID
 40
0.0
  9
$SPLFRAME
 70
     0
  9
$SPLINETYPE
 70
     6
  9
$SPLINESEGS
 70
     8
  9
$HANDSEED
  5
1F8C
  9
$SURFTAB1
 70
     6
  9
$SURFTAB2
 70
     6
  9
$SURFTYPE
 70
     6
  9
$SURFU
 70
     6
  9
$SURFV
 70
     6
  9
$UCSBASE
  2

  9
$UCSNAME
  2

  9
$UCSORG
 10
0.0
 20
0.0
 30
0.0
  9
$UCSXDIR
 10
1.0
 20
0.0
 30
0.0
  9
$UCSYDIR
 10
0.0
 20
1.0
 30
0.0
  9
$UCSORTHOREF
  2

  9
$UCSORTHOVIEW
 70
     0
  9
$UCSORGTOP
 10
0.0
 20
0.0
 30
0.0
  9
$UCSORGBOTTOM
 10
0.0
 20
0.0
 30
0.0
  9
$UCSORGLEFT
 10
0.0
 20
0.0
 30
0.0
  9
$UCSORGRIGHT
 10
0.0
 20
0.0
 30
0.0
  9
$UCSORGFRONT
 10
0.0
 20
0.0
 30
0.0
  9
$UCSORGBACK
 10
0.0
 20
0.0
 30
0.0
  9
$PUCSBASE
  2

  9
$PUCSNAME
  2

  9
$PUCSORG
 10
0.0
 20
0.0
 30
0.0
  9
$PUCSXDIR
 10
1.0
 20
0.0
 30
0.0
  9
$PUCSYDIR
 10
0.0
 20
1.0
 30
0.0
  9
$PUCSORTHOREF
  2

  9
$PUCSORTHOVIEW
 70
     0
  9
$PUCSORGTOP
 10
0.0
 20
0.0
 30
0.0
  9
$PUCSORGBOTTOM
 10
0.0
 20
0.0
 30
0.0
  9
$PUCSORGLEFT
 10
0.0
 20
0.0
 30
0.0
  9
$PUCSORGRIGHT
 10
0.0
 20
0.0
 30
0.0
  9
$PUCSORGFRONT
 10
0.0
 20
0.0
 30
0.0
  9
$PUCSORGBACK
 10
0.0
 20
0.0
 30
0.0
  9
$USERI1
 70
     0
  9
$USERI2
 70
     0
  9
$USERI3
 70
     0
  9
$USERI4
 70
     0
  9
$USERI5
 70
     0
  9
$USERR1
 40
0.0
  9
$USERR2
 40
0.0
  9
$USERR3
 40
0.0
  9
$USERR4
 40
0.0
  9
$USERR5
 40
0.0
  9
$WORLDVIEW
 70
     1
  9
$SHADEDGE
 70
     3
  9
$SHADEDIF
 70
    70
  9
$TILEMODE
 70
     1
  9
$MAXACTVP
 70
    64
  9
$PINSBASE
 10
0.0
 20
0.0
 30
0.0
  9
$PLIMCHECK
 70
     0
  9
$PEXTMIN
 10
27.8447512626648
 20
20.24591643810271
 30
0.0
  9
$PEXTMAX
 10
250.6027613639831
 20
182.2132479429245
 30
0.0
  9
$PLIMMIN
 10
-3.757080078125
 20
-3.757083177566528
  9
$PLIMMAX
 10
293.2112426757813
 20
206.2162444591522
  9
$UNITMODE
 70
     0
  9
$VISRETAIN
 70
     1
  9
$PLINEGEN
 70
     0
  9
$PSLTSCALE
 70
     1
  9
$TREEDEPTH
 70
  3020
  9
$CMLSTYLE
  2
Standard
  9
$CMLJUST
 70
     0
  9
$CMLSCALE
 40
20.0
  9
$PROXYGRAPHICS
 70
     1
  9
$MEASUREMENT
 70
     1
  9
$CELWEIGHT
370
    -1
  9
$ENDCAPS
280
     0
  9
$JOINSTYLE
280
     0
  9
$LWDISPLAY
290
     0
  9
$INSUNITS
 70
     4
  9
$HYPERLINKBASE
  1

  9
$STYLESHEET
  1

  9
$XEDIT
290
     1
  9
$CEPSNTYPE
380
     0
  9
$PSTYLEMODE
290
     1
  9
$FINGERPRINTGUID
  2
{C8EA1F16-24C9-11D4-9416-CE0A3B32152F}
  9
$VERSIONGUID
  2
{E86D0D4F-7D4B-4FED-B98A-08894CCBD5D3}
  9
$EXTNAMES
290
     1
  9
$PSVPSCALE
 40
0.0
  9
$OLESTARTUP
290
     0
  0
ENDSEC
  0
SECTION
  2
CLASSES
  0
CLASS
  1
ACDBDICTIONARYWDFLT
  2
AcDbDictionaryWithDefault
  3
ObjectDBX Classes
 90
        0
280
     0
281
     0
  0
CLASS
  1
ACDBPLACEHOLDER
  2
AcDbPlaceHolder
  3
ObjectDBX Classes
 90
        0
280
     0
281
     0
  0
CLASS
  1
LAYOUT
  2
AcDbLayout
  3
ObjectDBX Classes
 90
        0
280
     0
281
     0
  0
CLASS
  1
DICTIONARYVAR
  2
AcDbDictionaryVar
  3
ObjectDBX Classes
 90
        0
280
     0
281
     0
  0
CLASS
  1
SORTENTSTABLE
  2
AcDbSortentsTable
  3
ObjectDBX Classes
 90
    32768
280
     0
281
     0
  0
ENDSEC
  0
SECTION
  2
TABLES
  0
TABLE
  2
VPORT
  5
8
330
0
100
AcDbSymbolTable
 70
     3
  0
VPORT
  5
1F7D
330
8
100
AcDbSymbolTableRecord
100
AcDbViewportTableRecord
  2
*Active
 70
     0
 10
0.0
 20
0.0
 11
1.0
 21
1.0
 12
1394.906669697848
 22
1014.335670175893
 13
0.0
 23
0.0
 14
10.0
 24
10.0
 15
10.0
 25
10.0
 16
0.0
 26
0.0
 36
1.0
 17
0.0
 27
0.0
 37
0.0
 40
1937.19347310593
 41
1.673699015471167
 42
50.0
 43
0.0
 44
0.0
 50
0.0
 51
0.0
 71
     0
 72
   100
 73
     1
 74
     3
 75
     0
 76
     0
 77
     0
 78
     0
281
     0
 65
     1
110
0.0
120
0.0
130
0.0
111
1.0
121
0.0
131
0.0
112
0.0
122
1.0
132
0.0
 79
     0
146
0.0
  0
ENDTAB
  0
TABLE
  2
LTYPE
  5
5
330
0
100
AcDbSymbolTable
 70
    46
  0
LTYPE
  5
14
330
5
100
AcDbSymbolTableRecord
100
AcDbLinetypeTableRecord
  2
ByBlock
 70
     0
  3

 72
    65
 73
     0
 40
0.0
  0
LTYPE
  5
15
330
5
100
AcDbSymbolTableRecord
100
AcDbLinetypeTableRecord
  2
ByLayer
 70
     0
  3

 72
    65
 73
     0
 40
0.0
  0
LTYPE
  5
16
330
5
100
AcDbSymbolTableRecord
100
AcDbLinetypeTableRecord
  2
Continuous
 70
     0
  3
Solid line
 72
    65
 73
     0
 40
0.0
  0
LTYPE
  5
34
330
5
100
AcDbSymbolTableRecord
100
AcDbLinetypeTableRecord
  2
ACAD_ISO02W100
 70
     0
  3
ISO dash __ __ __ __ __ __ __ __ __ __ __ __ __
 72
    65
 73
     2
 40
15.0
 49
12.0
 74
     0
 49
-3.0
 74
     0
  0
LTYPE
  5
35
330
5
100
AcDbSymbolTableRecord
100
AcDbLinetypeTableRecord
  2
ACAD_ISO03W100
 70
     0
  3
ISO dash space __    __    __    __    __    __
 72
    65
 73
     2
 40
30.0
 49
12.0
 74
     0
 49
-18.0
 74
     0
  0
LTYPE
  5
36
330
5
100
AcDbSymbolTableRecord
100
AcDbLinetypeTableRecord
  2
ACAD_ISO04W100
 70
     0
  3
ISO long-dash dot ____ . ____ . ____ . ____ . _
 72
    65
 73
     4
 40
30.0
 49
24.0
 74
     0
 49
-3.0
 74
     0
 49
0.0
 74
     0
 49
-3.0
 74
     0
  0
LTYPE
  5
37
330
5
100
AcDbSymbolTableRecord
100
AcDbLinetypeTableRecord
  2
ACAD_ISO05W100
 70
     0
  3
ISO long-dash double-dot ____ .. ____ .. ____ .
 72
    65
 73
     6
 40
34.0
 49
24.0
 74
     0
 49
-3.0
 74
     0
 49
0.5
 74
     0
 49
-3.0
 74
     0
 49
0.5
 74
     0
 49
-3.0
 74
     0
  0
LTYPE
  5
38
330
5
100
AcDbSymbolTableRecord
100
AcDbLinetypeTableRecord
  2
ACAD_ISO06W100
 70
     0
  3
ISO long-dash triple-dot ____ ... ____ ... ____
 72
    65
 73
     8
 40
37.5
 49
24.0
 74
     0
 49
-3.0
 74
     0
 49
0.5
 74
     0
 49
-3.0
 74
     0
 49
0.5
 74
     0
 49
-3.0
 74
     0
 49
0.5
 74
     0
 49
-3.0
 74
     0
  0
LTYPE
  5
39
330
5
100
AcDbSymbolTableRecord
100
AcDbLinetypeTableRecord
  2
ACAD_ISO07W100
 70
     0
  3
ISO dot . . . . . . . . . . . . . . . . . . . .
 72
    65
 73
     2
 40
3.0
 49
0.0
 74
     0
 49
-3.0
 74
     0
  0
LTYPE
  5
3A
330
5
100
AcDbSymbolTableRecord
100
AcDbLinetypeTableRecord
  2
ACAD_ISO08W100
 70
     0
  3
ISO long-dash short-dash ____ __ ____ __ ____ _
 72
    65
 73
     4
 40
36.0
 49
24.0
 74
     0
 49
-3.0
 74
     0
 49
6.0
 74
     0
 49
-3.0
 74
     0
  0
LTYPE
  5
3B
330
5
100
AcDbSymbolTableRecord
100
AcDbLinetypeTableRecord
  2
ACAD_ISO09W100
 70
     0
  3
ISO long-dash double-short-dash ____ __ __ ____
 72
    65
 73
     6
 40
45.0
 49
24.0
 74
     0
 49
-3.0
 74
     0
 49
6.0
 74
     0
 49
-3.0
 74
     0
 49
6.0
 74
     0
 49
-3.0
 74
     0
  0
LTYPE
  5
3C
330
5
100
AcDbSymbolTableRecord
100
AcDbLinetypeTableRecord
  2
ACAD_ISO10W100
 70
     0
  3
ISO dash dot __ . __ . __ . __ . __ . __ . __ .
 72
    65
 73
     4
 40
18.0
 49
12.0
 74
     0
 49
-3.0
 74
     0
 49
0.0
 74
     0
 49
-3.0
 74
     0
  0
LTYPE
  5
3D
330
5
100
AcDbSymbolTableRecord
100
AcDbLinetypeTableRecord
  2
ACAD_ISO11W100
 70
     0
  3
ISO double-dash dot __ __ . __ __ . __ __ . __ 
 72
    65
 73
     6
 40
33.0
 49
12.0
 74
     0
 49
-3.0
 74
     0
 49
12.0
 74
     0
 49
-3.0
 74
     0
 49
0.0
 74
     0
 49
-3.0
 74
     0
  0
LTYPE
  5
3E
330
5
100
AcDbSymbolTableRecord
100
AcDbLinetypeTableRecord
  2
ACAD_ISO12W100
 70
     0
  3
ISO dash double-dot __ . . __ . . __ . . __ . .
 72
    65
 73
     6
 40
21.0
 49
12.0
 74
     0
 49
-3.0
 74
     0
 49
0.0
 74
     0
 49
-3.0
 74
     0
 49
0.0
 74
     0
 49
-3.0
 74
     0
  0
LTYPE
  5
3F
330
5
100
AcDbSymbolTableRecord
100
AcDbLinetypeTableRecord
  2
ACAD_ISO13W100
 70
     0
  3
ISO double-dash double-dot __ __ . . __ __ . . 
 72
    65
 73
     8
 40
36.0
 49
12.0
 74
     0
 49
-3.0
 74
     0
 49
12.0
 74
     0
 49
-3.0
 74
     0
 49
0.0
 74
     0
 49
-3.0
 74
     0
 49
0.0
 74
     0
 49
-3.0
 74
     0
  0
LTYPE
  5
40
330
5
100
AcDbSymbolTableRecord
100
AcDbLinetypeTableRecord
  2
ACAD_ISO14W100
 70
     0
  3
ISO dash triple-dot __ . . . __ . . . __ . . . 
 72
    65
 73
     8
 40
24.0
 49
12.0
 74
     0
 49
-3.0
 74
     0
 49
0.0
 74
     0
 49
-3.0
 74
     0
 49
0.0
 74
     0
 49
-3.0
 74
     0
 49
0.0
 74
     0
 49
-3.0
 74
     0
  0
LTYPE
  5
41
330
5
100
AcDbSymbolTableRecord
100
AcDbLinetypeTableRecord
  2
ACAD_ISO15W100
 70
     0
  3
ISO double-dash triple-dot __ __ . . . __ __ . 
 72
    65
 73
    10
 40
39.0
 49
12.0
 74
     0
 49
-3.0
 74
     0
 49
12.0
 74
     0
 49
-3.0
 74
     0
 49
0.0
 74
     0
 49
-3.0
 74
     0
 49
0.0
 74
     0
 49
-3.0
 74
     0
 49
0.0
 74
     0
 49
-3.0
 74
     0
  0
LTYPE
  5
42
330
5
100
AcDbSymbolTableRecord
100
AcDbLinetypeTableRecord
  2
BATTING
 70
     0
  3
Batting SSSSSSSSSSSSSSSSSSSSSSSSSSSSSSSSSSSSSSS
 72
    65
 73
     4
 40
10.16254
 49
0.00254
 74
     0
 49
-2.54
 74
     4
 75
   134
340
33
 46
2.54
 50
0.0
 44
-2.54
 45
0.0
 49
-5.08
 74
     4
 75
   134
340
33
 46
2.54
 50
180.0
 44
2.54
 45
0.0
 49
-2.54
 74
     0
  0
LTYPE
  5
43
330
5
100
AcDbSymbolTableRecord
100
AcDbLinetypeTableRecord
  2
BORDER
 70
     0
  3
Border __ __ . __ __ . __ __ . __ __ . __ __ .
 72
    65
 73
     6
 40
44.45
 49
12.7
 74
     0
 49
-6.349999999999997
 74
     0
 49
12.7
 74
     0
 49
-6.349999999999997
 74
     0
 49
0.0
 74
     0
 49
-6.349999999999997
 74
     0
  0
LTYPE
  5
44
330
5
100
AcDbSymbolTableRecord
100
AcDbLinetypeTableRecord
  2
BORDER2
 70
     0
  3
Border (.5x) __.__.__.__.__.__.__.__.__.__.__.
 72
    65
 73
     6
 40
22.225
 49
6.349999999999997
 74
     0
 49
-3.174999999999998
 74
     0
 49
6.349999999999997
 74
     0
 49
-3.174999999999998
 74
     0
 49
0.0
 74
     0
 49
-3.174999999999998
 74
     0
  0
LTYPE
  5
45
330
5
100
AcDbSymbolTableRecord
100
AcDbLinetypeTableRecord
  2
BORDERX2
 70
     0
  3
Border (2x) ____  ____  .  ____  ____  .  ___
 72
    65
 73
     6
 40
88.9
 49
25.4
 74
     0
 49
-12.7
 74
     0
 49
25.4
 74
     0
 49
-12.7
 74
     0
 49
0.0
 74
     0
 49
-12.7
 74
     0
  0
LTYPE
  5
46
330
5
100
AcDbSymbolTableRecord
100
AcDbLinetypeTableRecord
  2
CENTER
 70
     0
  3
Center ____ _ ____ _ ____ _ ____ _ ____ _ ____
 72
    65
 73
     4
 40
50.8
 49
31.75
 74
     0
 49
-6.349999999999997
 74
     0
 49
6.349999999999997
 74
     0
 49
-6.349999999999997
 74
     0
  0
LTYPE
  5
47
330
5
100
AcDbSymbolTableRecord
100
AcDbLinetypeTableRecord
  2
CENTER2
 70
     0
  3
Center (.5x) ___ _ ___ _ ___ _ ___ _ ___ _ ___
 72
    65
 73
     4
 40
28.575
 49
19.05
 74
     0
 49
-3.174999999999998
 74
     0
 49
3.174999999999998
 74
     0
 49
-3.174999999999998
 74
     0
  0
LTYPE
  5
48
330
5
100
AcDbSymbolTableRecord
100
AcDbLinetypeTableRecord
  2
CENTERX2
 70
     0
  3
Center (2x) ________  __  ________  __  _____
 72
    65
 73
     4
 40
101.6
 49
63.5
 74
     0
 49
-12.7
 74
     0
 49
12.7
 74
     0
 49
-12.7
 74
     0
  0
LTYPE
  5
49
330
5
100
AcDbSymbolTableRecord
100
AcDbLinetypeTableRecord
  2
DASHDOT
 70
     0
  3
Dash dot __ . __ . __ . __ . __ . __ . __ . __
 72
    65
 73
     4
 40
25.4
 49
12.7
 74
     0
 49
-6.349999999999997
 74
     0
 49
0.0
 74
     0
 49
-6.349999999999997
 74
     0
  0
LTYPE
  5
4A
330
5
100
AcDbSymbolTableRecord
100
AcDbLinetypeTableRecord
  2
DASHDOT2
 70
     0
  3
Dash dot (.5x) _._._._._._._._._._._._._._._.
 72
    65
 73
     4
 40
12.7
 49
6.349999999999997
 74
     0
 49
-3.174999999999998
 74
     0
 49
0.0
 74
     0
 49
-3.174999999999998
 74
     0
  0
LTYPE
  5
4B
330
5
100
AcDbSymbolTableRecord
100
AcDbLinetypeTableRecord
  2
DASHDOTX2
 70
     0
  3
Dash dot (2x) ____  .  ____  .  ____  .  ___
 72
    65
 73
     4
 40
50.8
 49
25.4
 74
     0
 49
-12.7
 74
     0
 49
0.0
 74
     0
 49
-12.7
 74
     0
  0
LTYPE
  5
4C
330
5
100
AcDbSymbolTableRecord
100
AcDbLinetypeTableRecord
  2
DASHED
 70
     0
  3
Dashed __ __ __ __ __ __ __ __ __ __ __ __ __ _
 72
    65
 73
     2
 40
19.05
 49
12.7
 74
     0
 49
-6.349999999999997
 74
     0
  0
LTYPE
  5
4D
330
5
100
AcDbSymbolTableRecord
100
AcDbLinetypeTableRecord
  2
DASHED2
 70
     0
  3
Dashed (.5x) _ _ _ _ _ _ _ _ _ _ _ _ _ _ _ _ _
 72
    65
 73
     2
 40
9.524999999999996
 49
6.349999999999997
 74
     0
 49
-3.174999999999998
 74
     0
  0
LTYPE
  5
4E
330
5
100
AcDbSymbolTableRecord
100
AcDbLinetypeTableRecord
  2
DASHEDX2
 70
     0
  3
Dashed (2x) ____  ____  ____  ____  ____  ___
 72
    65
 73
     2
 40
38.1
 49
25.4
 74
     0
 49
-12.7
 74
     0
  0
LTYPE
  5
4F
330
5
100
AcDbSymbolTableRecord
100
AcDbLinetypeTableRecord
  2
DIVIDE
 70
     0
  3
Divide ____ . . ____ . . ____ . . ____ . . ____
 72
    65
 73
     6
 40
31.75
 49
12.7
 74
     0
 49
-6.349999999999997
 74
     0
 49
0.0
 74
     0
 49
-6.349999999999997
 74
     0
 49
0.0
 74
     0
 49
-6.349999999999997
 74
     0
  0
LTYPE
  5
50
330
5
100
AcDbSymbolTableRecord
100
AcDbLinetypeTableRecord
  2
DIVIDE2
 70
     0
  3
Divide (.5x) __..__..__..__..__..__..__..__.._
 72
    65
 73
     6
 40
15.875
 49
6.349999999999997
 74
     0
 49
-3.174999999999998
 74
     0
 49
0.0
 74
     0
 49
-3.174999999999998
 74
     0
 49
0.0
 74
     0
 49
-3.174999999999998
 74
     0
  0
LTYPE
  5
51
330
5
100
AcDbSymbolTableRecord
100
AcDbLinetypeTableRecord
  2
DIVIDEX2
 70
     0
  3
Divide (2x) ________  .  .  ________  .  .  _
 72
    65
 73
     6
 40
63.49999999999999
 49
25.4
 74
     0
 49
-12.7
 74
     0
 49
0.0
 74
     0
 49
-12.7
 74
     0
 49
0.0
 74
     0
 49
-12.7
 74
     0
  0
LTYPE
  5
52
330
5
100
AcDbSymbolTableRecord
100
AcDbLinetypeTableRecord
  2
DOT
 70
     0
  3
Dot . . . . . . . . . . . . . . . . . . . . . .
 72
    65
 73
     2
 40
6.349999999999997
 49
0.0
 74
     0
 49
-6.349999999999997
 74
     0
  0
LTYPE
  5
53
330
5
100
AcDbSymbolTableRecord
100
AcDbLinetypeTableRecord
  2
DOT2
 70
     0
  3
Dot (.5x) .....................................
 72
    65
 73
     2
 40
3.174999999999998
 49
0.0
 74
     0
 49
-3.174999999999998
 74
     0
  0
LTYPE
  5
54
330
5
100
AcDbSymbolTableRecord
100
AcDbLinetypeTableRecord
  2
DOTX2
 70
     0
  3
Dot (2x) .  .  .  .  .  .  .  .  .  .  .  .  . 
 72
    65
 73
     2
 40
12.7
 49
0.0
 74
     0
 49
-12.7
 74
     0
  0
LTYPE
  5
55
330
5
100
AcDbSymbolTableRecord
100
AcDbLinetypeTableRecord
  2
FENCELINE1
 70
     0
  3
Fenceline circle ----0-----0----0-----0----0---
 72
    65
 73
     4
 40
36.83
 49
6.349999999999997
 74
     0
 49
-2.54
 74
     4
 75
   133
340
33
 46
2.54
 50
0.0
 44
-2.54
 45
0.0
 49
-2.54
 74
     0
 49
25.4
 74
     0
  0
LTYPE
  5
56
330
5
100
AcDbSymbolTableRecord
100
AcDbLinetypeTableRecord
  2
FENCELINE2
 70
     0
  3
Fenceline square ----[]-----[]----[]-----[]----
 72
    65
 73
     4
 40
36.83
 49
6.349999999999997
 74
     0
 49
-2.54
 74
     4
 75
   132
340
33
 46
2.54
 50
0.0
 44
-2.54
 45
0.0
 49
-2.54
 74
     0
 49
25.4
 74
     0
  0
LTYPE
  5
57
330
5
100
AcDbSymbolTableRecord
100
AcDbLinetypeTableRecord
  2
GAS_LINE
 70
     0
  3
Gas line ----GAS----GAS----GAS----GAS----GAS---
 72
    65
 73
     3
 40
24.13
 49
12.7
 74
     0
 49
-5.08
 74
     2
 75
     0
340
11
 46
2.54
 50
0.0
 44
-2.54
 45
-1.27
  9
GAS
 49
-6.349999999999997
 74
     0
  0
LTYPE
  5
58
330
5
100
AcDbSymbolTableRecord
100
AcDbLinetypeTableRecord
  2
HIDDEN
 70
     0
  3
Hidden __ __ __ __ __ __ __ __ __ __ __ __ __ _
 72
    65
 73
     2
 40
9.524999999999996
 49
6.349999999999997
 74
     0
 49
-3.174999999999998
 74
     0
  0
LTYPE
  5
59
330
5
100
AcDbSymbolTableRecord
100
AcDbLinetypeTableRecord
  2
HIDDEN2
 70
     0
  3
Hidden (.5x) _ _ _ _ _ _ _ _ _ _ _ _ _ _ _ _ _
 72
    65
 73
     2
 40
4.762499999999998
 49
3.174999999999998
 74
     0
 49
-1.587499999999999
 74
     0
  0
LTYPE
  5
5A
330
5
100
AcDbSymbolTableRecord
100
AcDbLinetypeTableRecord
  2
HIDDENX2
 70
     0
  3
Hidden (2x) ____ ____ ____ ____ ____ ____ ____
 72
    65
 73
     2
 40
19.05
 49
12.7
 74
     0
 49
-6.349999999999997
 74
     0
  0
LTYPE
  5
5B
330
5
100
AcDbSymbolTableRecord
100
AcDbLinetypeTableRecord
  2
HOT_WATER_SUPPLY
 70
     0
  3
Hot water supply ---- HW ---- HW ---- HW ----
 72
    65
 73
     3
 40
22.86
 49
12.7
 74
     0
 49
-5.08
 74
     2
 75
     0
340
11
 46
2.54
 50
0.0
 44
-2.54
 45
-1.27
  9
HW
 49
-5.08
 74
     0
  0
LTYPE
  5
5C
330
5
100
AcDbSymbolTableRecord
100
AcDbLinetypeTableRecord
  2
PHANTOM
 70
     0
  3
Phantom ______  __  __  ______  __  __  ______
 72
    65
 73
     6
 40
63.5
 49
31.75
 74
     0
 49
-6.349999999999997
 74
     0
 49
6.349999999999997
 74
     0
 49
-6.349999999999997
 74
     0
 49
6.349999999999997
 74
     0
 49
-6.349999999999997
 74
     0
  0
LTYPE
  5
5D
330
5
100
AcDbSymbolTableRecord
100
AcDbLinetypeTableRecord
  2
PHANTOM2
 70
     0
  3
Phantom (.5x) ___ _ _ ___ _ _ ___ _ _ ___ _ _
 72
    65
 73
     6
 40
31.75
 49
15.875
 74
     0
 49
-3.174999999999998
 74
     0
 49
3.174999999999998
 74
     0
 49
-3.174999999999998
 74
     0
 49
3.174999999999998
 74
     0
 49
-3.174999999999998
 74
     0
  0
LTYPE
  5
5E
330
5
100
AcDbSymbolTableRecord
100
AcDbLinetypeTableRecord
  2
PHANTOMX2
 70
     0
  3
Phantom (2x) ____________    ____    ____   _
 72
    65
 73
     6
 40
127.0
 49
63.5
 74
     0
 49
-12.7
 74
     0
 49
12.7
 74
     0
 49
-12.7
 74
     0
 49
12.7
 74
     0
 49
-12.7
 74
     0
  0
LTYPE
  5
5F
330
5
100
AcDbSymbolTableRecord
100
AcDbLinetypeTableRecord
  2
TRACKS
 70
     0
  3
Tracks -|-|-|-|-|-|-|-|-|-|-|-|-|-|-|-|-|-|-|-|
 72
    65
 73
     2
 40
7.62
 49
3.81
 74
     4
 75
   130
340
33
 46
6.349999999999997
 50
0.0
 44
0.0
 45
0.0
 49
3.81
 74
     0
  0
LTYPE
  5
60
330
5
100
AcDbSymbolTableRecord
100
AcDbLinetypeTableRecord
  2
ZIGZAG
 70
     0
  3
Zig zag /\/\/\/\/\/\/\/\/\/\/\/\/\/\/\/\/\/\/\/
 72
    65
 73
     4
 40
20.32254
 49
0.00254
 74
     0
 49
-5.08
 74
     4
 75
   131
340
33
 46
5.08
 50
0.0
 44
-5.08
 45
0.0
 49
-10.16
 74
     4
 75
   131
340
33
 46
5.08
 50
180.0
 44
5.08
 45
0.0
 49
-5.08
 74
     0
  0
ENDTAB
  0
TABLE
  2
LAYER
  5
2
102
{ACAD_XDICTIONARY
360
1EDA
102
}
330
0
100
AcDbSymbolTable
 70
     9
  0
LAYER
  5
10
330
2
100
AcDbSymbolTableRecord
100
AcDbLayerTableRecord
  2
0
 70
     0
 62
     7
  6
Continuous
370
    -3
390
F
  0
LAYER
  5
C3
330
2
100
AcDbSymbolTableRecord
100
AcDbLayerTableRecord
  2
Defpoints
 70
     0
 62
     7
  6
Continuous
290
     0
370
    -3
390
F
  0
LAYER
  5
256
330
2
100
AcDbSymbolTableRecord
100
AcDbLayerTableRecord
  2
センター
 70
     0
 62
     7
  6
CENTER2
370
    18
390
F
  0
LAYER
  5
268
330
2
100
AcDbSymbolTableRecord
100
AcDbLayerTableRecord
  2
実形
 70
     0
 62
     7
  6
Continuous
370
    -3
390
F
  0
LAYER
  5
269
330
2
100
AcDbSymbolTableRecord
100
AcDbLayerTableRecord
  2
補助
 70
     0
 62
    -4
  6
Continuous
290
     0
370
    -3
390
F
  0
LAYER
  5
26A
330
2
100
AcDbSymbolTableRecord
100
AcDbLayerTableRecord
  2
寸法
 70
     0
 62
     7
  6
Continuous
370
    18
390
F
  0
LAYER
  5
26B
330
2
100
AcDbSymbolTableRecord
100
AcDbLayerTableRecord
  2
ハッチング
 70
     0
 62
     7
  6
Continuous
370
    18
390
F
  0
LAYER
  5
26D
330
2
100
AcDbSymbolTableRecord
100
AcDbLayerTableRecord
  2
文字
 70
     0
 62
     7
  6
Continuous
370
    -3
390
F
  0
LAYER
  5
1E51
330
2
100
AcDbSymbolTableRecord
100
AcDbLayerTableRecord
  2
Cen
 70
     0
 62
     7
  6
CENTER2
370
    15
390
F
  0
ENDTAB
  0
TABLE
  2
STYLE
  5
3
330
0
100
AcDbSymbolTable
 70
     2
  0
STYLE
  5
11
330
3
100
AcDbSymbolTableRecord
100
AcDbTextStyleTableRecord
  2
Standard
 70
     0
 40
0.0
 41
1.0
 50
0.0
 71
     0
 42
25.0
  3
txt.shx
  4
bigfont.shx
  0
STYLE
  5
33
330
3
100
AcDbSymbolTableRecord
100
AcDbTextStyleTableRecord
  2

 70
     1
 40
0.0
 41
1.0
 50
0.0
 71
     0
 42
2.5
  3
ltypeshp.shx
  4

  0
ENDTAB
  0
TABLE
  2
VIEW
  5
6
330
0
100
AcDbSymbolTable
 70
     0
  0
ENDTAB
  0
TABLE
  2
UCS
  5
7
330
0
100
AcDbSymbolTable
 70
     0
  0
ENDTAB
  0
TABLE
  2
APPID
  5
9
330
0
100
AcDbSymbolTable
 70
     2
  0
APPID
  5
12
330
9
100
AcDbSymbolTableRecord
100
AcDbRegAppTableRecord
  2
ACAD
 70
     0
  0
APPID
  5
1F0F
330
9
100
AcDbSymbolTableRecord
100
AcDbRegAppTableRecord
  2
DCO15
 70
     0
  0
ENDTAB
  0
TABLE
  2
DIMSTYLE
  5
A
330
0
100
AcDbSymbolTable
 70
     1
100
AcDbDimStyleTable
 71
     1
340
27
  0
DIMSTYLE
105
27
102
{ACAD_REACTORS
330
12A2
330
12E0
330
12ED
330
12FA
330
1307
330
132F
330
134E
330
1382
330
13BA
330
13C9
330
1472
330
1560
330
1562
330
1563
330
156E
330
1574
330
17B2
330
13AD
102
}
330
A
100
AcDbSymbolTableRecord
100
AcDbDimStyleTableRecord
  2
ISO-25
 70
     0
 41
35.0
 42
65.0
 43
3.75
 44
0.0
 73
     0
 74
     0
 77
     1
 78
     8
140
25.0
141
2.5
143
0.03937007874016
147
6.25
171
     3
172
     1
271
     2
272
     2
274
     3
283
     0
284
     8
340
11
341
DA
342
D0
371
    15
372
    15
  0
ENDTAB
  0
TABLE
  2
BLOCK_RECORD
  5
1
330
0
100
AcDbSymbolTable
 70
    22
  0
BLOCK_RECORD
  5
1F
330
1
100
AcDbSymbolTableRecord
100
AcDbBlockTableRecord
  2
*Model_Space
340
22
  0
BLOCK_RECORD
  5
1B
330
1
100
AcDbSymbolTableRecord
100
AcDbBlockTableRecord
  2
*Paper_Space
340
1E
  0
BLOCK_RECORD
  5
23
330
1
100
AcDbSymbolTableRecord
100
AcDbBlockTableRecord
  2
*Paper_Space0
340
26
  0
BLOCK_RECORD
  5
D0
330
1
100
AcDbSymbolTableRecord
100
AcDbBlockTableRecord
  2
_DotSmall
340
0
102
{BLKREFS
331
1C12
331
1C13
331
1D47
331
1D48
331
1D4F
331
1D50
331
1D58
331
1D59
331
1D61
331
1D62
331
1D6A
331
1D6B
331
1D72
331
1D73
331
1D7B
331
1D7C
331
1D85
331
1D86
331
1D8E
331
1D8F
331
1D97
331
1D98
331
1DA0
331
1DA1
331
1DA9
331
1DAA
331
1DB2
331
1DB3
331
1DE9
331
1DEA
331
1DF2
331
1DF3
331
1E3C
331
1E3D
331
1E45
331
1E46
102
}
  0
BLOCK_RECORD
  5
D4
330
1
100
AcDbSymbolTableRecord
100
AcDbBlockTableRecord
  2
_Origin2
340
0
  0
BLOCK_RECORD
  5
DA
330
1
100
AcDbSymbolTableRecord
100
AcDbBlockTableRecord
  2
_Open30
340
0
  0
BLOCK_RECORD
  5
12A3
330
1
100
AcDbSymbolTableRecord
100
AcDbBlockTableRecord
  2
*D4
340
0
  0
BLOCK_RECORD
  5
12E1
330
1
100
AcDbSymbolTableRecord
100
AcDbBlockTableRecord
  2
*D5
340
0
  0
BLOCK_RECORD
  5
12EE
330
1
100
AcDbSymbolTableRecord
100
AcDbBlockTableRecord
  2
*D6
340
0
  0
BLOCK_RECORD
  5
12FB
330
1
100
AcDbSymbolTableRecord
100
AcDbBlockTableRecord
  2
*D7
340
0
  0
BLOCK_RECORD
  5
1308
330
1
100
AcDbSymbolTableRecord
100
AcDbBlockTableRecord
  2
*D8
340
0
  0
BLOCK_RECORD
  5
1330
330
1
100
AcDbSymbolTableRecord
100
AcDbBlockTableRecord
  2
*D9
340
0
  0
BLOCK_RECORD
  5
134F
330
1
100
AcDbSymbolTableRecord
100
AcDbBlockTableRecord
  2
*D10
340
0
  0
BLOCK_RECORD
  5
1383
330
1
100
AcDbSymbolTableRecord
100
AcDbBlockTableRecord
  2
*D11
340
0
  0
BLOCK_RECORD
  5
13AE
330
1
100
AcDbSymbolTableRecord
100
AcDbBlockTableRecord
  2
*D12
340
0
  0
BLOCK_RECORD
  5
13BB
330
1
100
AcDbSymbolTableRecord
100
AcDbBlockTableRecord
  2
*D13
340
0
  0
BLOCK_RECORD
  5
13CA
330
1
100
AcDbSymbolTableRecord
100
AcDbBlockTableRecord
  2
*D14
340
0
  0
BLOCK_RECORD
  5
1473
330
1
100
AcDbSymbolTableRecord
100
AcDbBlockTableRecord
  2
*D15
340
0
  0
BLOCK_RECORD
  5
1583
330
1
100
AcDbSymbolTableRecord
100
AcDbBlockTableRecord
  2
*D16
340
0
  0
BLOCK_RECORD
  5
158F
330
1
100
AcDbSymbolTableRecord
100
AcDbBlockTableRecord
  2
*D17
340
0
  0
BLOCK_RECORD
  5
159B
330
1
100
AcDbSymbolTableRecord
100
AcDbBlockTableRecord
  2
*D18
340
0
  0
BLOCK_RECORD
  5
15A7
330
1
100
AcDbSymbolTableRecord
100
AcDbBlockTableRecord
  2
*D19
340
0
  0
BLOCK_RECORD
  5
15B3
330
1
100
AcDbSymbolTableRecord
100
AcDbBlockTableRecord
  2
*D20
340
0
  0
BLOCK_RECORD
  5
1800
330
1
100
AcDbSymbolTableRecord
100
AcDbBlockTableRecord
  2
*D21
340
0
  0
ENDTAB
  0
ENDSEC
  0
SECTION
  2
BLOCKS
  0
BLOCK
  5
20
330
1F
100
AcDbEntity
  8
0
100
AcDbBlockBegin
  2
*Model_Space
 70
     0
 10
0.0
 20
0.0
 30
0.0
  3
*Model_Space
  1

  0
ENDBLK
  5
21
330
1F
100
AcDbEntity
  8
0
100
AcDbBlockEnd
  0
BLOCK
  5
1C
330
1B
100
AcDbEntity
 67
     1
  8
0
100
AcDbBlockBegin
  2
*Paper_Space
 70
     0
 10
0.0
 20
0.0
 30
0.0
  3
*Paper_Space
  1

  0
ENDBLK
  5
1D
330
1B
100
AcDbEntity
 67
     1
  8
0
100
AcDbBlockEnd
  0
BLOCK
  5
24
330
23
100
AcDbEntity
  8
0
100
AcDbBlockBegin
  2
*Paper_Space0
 70
     0
 10
0.0
 20
0.0
 30
0.0
  3
*Paper_Space0
  1

  0
ENDBLK
  5
25
330
23
100
AcDbEntity
  8
0
100
AcDbBlockEnd
  0
BLOCK
  5
D2
330
D0
100
AcDbEntity
  8
0
100
AcDbBlockBegin
  2
_DotSmall
 70
     0
 10
0.0
 20
0.0
 30
0.0
  3
_DotSmall
  1

  0
LWPOLYLINE
  5
D1
330
D0
100
AcDbEntity
  8
0
 62
     0
100
AcDbPolyline
 90
        2
 70
     1
 43
0.5
 10
-0.0625
 20
0.0
 42
1.0
 10
0.0625
 20
0.0
 42
1.0
  0
ENDBLK
  5
D3
330
D0
100
AcDbEntity
  8
0
100
AcDbBlockEnd
  0
BLOCK
  5
D8
330
D4
100
AcDbEntity
  8
0
100
AcDbBlockBegin
  2
_Origin2
 70
     0
 10
0.0
 20
0.0
 30
0.0
  3
_Origin2
  1

  0
CIRCLE
  5
D5
330
D4
100
AcDbEntity
  8
0
 62
     0
370
    -2
100
AcDbCircle
 10
0.0
 20
0.0
 30
0.0
 40
0.5
  0
CIRCLE
  5
D6
330
D4
100
AcDbEntity
  8
0
 62
     0
370
    -2
100
AcDbCircle
 10
0.0
 20
0.0
 30
0.0
 40
0.25
  0
LINE
  5
D7
330
D4
100
AcDbEntity
  8
0
 62
     0
370
    -2
100
AcDbLine
 10
-0.5
 20
0.0
 30
0.0
 11
-1.0
 21
0.0
 31
0.0
  0
ENDBLK
  5
D9
330
D4
100
AcDbEntity
  8
0
100
AcDbBlockEnd
  0
BLOCK
  5
DE
330
DA
100
AcDbEntity
  8
0
100
AcDbBlockBegin
  2
_Open30
 70
     0
 10
0.0
 20
0.0
 30
0.0
  3
_Open30
  1

  0
LINE
  5
DB
330
DA
100
AcDbEntity
  8
0
 62
     0
370
    -2
100
AcDbLine
 10
-1.0
 20
0.26794919
 30
0.0
 11
0.0
 21
0.0
 31
0.0
  0
LINE
  5
DC
330
DA
100
AcDbEntity
  8
0
 62
     0
370
    -2
100
AcDbLine
 10
0.0
 20
0.0
 30
0.0
 11
-1.0
 21
-0.26794919
 31
0.0
  0
LINE
  5
DD
330
DA
100
AcDbEntity
  8
0
 62
     0
370
    -2
100
AcDbLine
 10
0.0
 20
0.0
 30
0.0
 11
-1.0
 21
0.0
 31
0.0
  0
ENDBLK
  5
DF
330
DA
100
AcDbEntity
  8
0
100
AcDbBlockEnd
  0
BLOCK
  5
12AE
330
12A3
100
AcDbEntity
  8
0
100
AcDbBlockBegin
  2
*D4
 70
     1
 10
0.0
 20
0.0
 30
0.0
  3
*D4
  1

  0
LINE
  5
1DAE
330
12A3
100
AcDbEntity
  8
寸法
 62
     0
370
    18
100
AcDbLine
 10
793.5936297894722
 20
1703.67545567602
 30
0.0
 11
703.9629018630797
 21
1703.67545567602
 31
0.0
  0
LINE
  5
1DAF
330
12A3
100
AcDbEntity
  8
寸法
 62
     0
370
    18
100
AcDbLine
 10
793.5936297894722
 20
1685.67545567602
 30
0.0
 11
703.9629018630797
 21
1685.67545567602
 31
0.0
  0
LINE
  5
1DB0
330
12A3
100
AcDbEntity
  8
寸法
 62
     0
370
    18
100
AcDbLine
 10
703.9629018630797
 20
1703.67545567602
 30
0.0
 11
703.9629018630797
 21
1685.67545567602
 31
0.0
  0
MTEXT
  5
1DB1
330
12A3
100
AcDbEntity
  8
寸法
 62
     0
100
AcDbMText
 10
682.8907399845157
 20
1730.733502835174
 30
0.0
 40
25.0
 41
0.0
 71
     5
 72
     1
  1
18
 11
0.0000000000000001
 21
1.0
 31
0.0
 73
     1
 44
1.0
1001
ACAD
1000
MTEXTBEGIN
1070
    73
1070
     1
1070
    44
1040
1.0
1070
    74
1070
     0
1000
MTEXTEND
  0
INSERT
  5
1DB2
330
12A3
100
AcDbEntity
  8
寸法
 62
     0
370
    18
100
AcDbBlockReference
  2
_DotSmall
 10
703.9629018630797
 20
1703.67545567602
 30
0.0
 41
35.0
 42
35.0
 43
35.0
 50
90.0
  0
INSERT
  5
1DB3
330
12A3
100
AcDbEntity
  8
寸法
 62
     0
370
    18
100
AcDbBlockReference
  2
_DotSmall
 10
703.9629018630797
 20
1685.67545567602
 30
0.0
 41
35.0
 42
35.0
 43
35.0
 50
270.0
  0
POINT
  5
1DB4
330
12A3
100
AcDbEntity
  8
Defpoints
 62
     0
100
AcDbPoint
 10
858.5936297894722
 20
1703.67545567602
 30
0.0
  0
POINT
  5
1DB5
330
12A3
100
AcDbEntity
  8
Defpoints
 62
     0
100
AcDbPoint
 10
858.5936297894722
 20
1685.67545567602
 30
0.0
  0
POINT
  5
1DB6
330
12A3
100
AcDbEntity
  8
Defpoints
 62
     0
100
AcDbPoint
 10
703.9629018630797
 20
1685.67545567602
 30
0.0
  0
ENDBLK
  5
12AF
330
12A3
100
AcDbEntity
  8
0
100
AcDbBlockEnd
  0
BLOCK
  5
12EB
330
12E1
100
AcDbEntity
  8
0
100
AcDbBlockBegin
  2
*D5
 70
     1
 10
0.0
 20
0.0
 30
0.0
  3
*D5
  1

  0
LINE
  5
1DA5
330
12E1
100
AcDbEntity
  8
寸法
 62
     0
370
    18
100
AcDbLine
 10
793.5936297894722
 20
1685.67545567602
 30
0.0
 11
703.9629018630797
 21
1685.67545567602
 31
0.0
  0
LINE
  5
1DA6
330
12E1
100
AcDbEntity
  8
寸法
 62
     0
370
    18
100
AcDbLine
 10
793.5936297894722
 20
1613.67545567602
 30
0.0
 11
703.9629018630797
 21
1613.67545567602
 31
0.0
  0
LINE
  5
1DA7
330
12E1
100
AcDbEntity
  8
寸法
 62
     0
370
    18
100
AcDbLine
 10
703.9629018630797
 20
1685.67545567602
 30
0.0
 11
703.9629018630797
 21
1613.67545567602
 31
0.0
  0
MTEXT
  5
1DA8
330
12E1
100
AcDbEntity
  8
寸法
 62
     0
100
AcDbMText
 10
683.0245007617341
 20
1649.86703319438
 30
0.0
 40
25.0
 41
0.0
 71
     5
 72
     1
  1
72
 11
0.0000000000000001
 21
1.0
 31
0.0
 73
     1
 44
1.0
1001
ACAD
1000
MTEXTBEGIN
1070
    73
1070
     1
1070
    44
1040
1.0
1070
    74
1070
     0
1000
MTEXTEND
  0
INSERT
  5
1DA9
330
12E1
100
AcDbEntity
  8
寸法
 62
     0
370
    18
100
AcDbBlockReference
  2
_DotSmall
 10
703.9629018630797
 20
1685.67545567602
 30
0.0
 41
35.0
 42
35.0
 43
35.0
 50
90.0
  0
INSERT
  5
1DAA
330
12E1
100
AcDbEntity
  8
寸法
 62
     0
370
    18
100
AcDbBlockReference
  2
_DotSmall
 10
703.9629018630797
 20
1613.67545567602
 30
0.0
 41
35.0
 42
35.0
 43
35.0
 50
270.0
  0
POINT
  5
1DAB
330
12E1
100
AcDbEntity
  8
Defpoints
 62
     0
100
AcDbPoint
 10
858.5936297894722
 20
1685.67545567602
 30
0.0
  0
POINT
  5
1DAC
330
12E1
100
AcDbEntity
  8
Defpoints
 62
     0
100
AcDbPoint
 10
858.5936297894722
 20
1613.67545567602
 30
0.0
  0
POINT
  5
1DAD
330
12E1
100
AcDbEntity
  8
Defpoints
 62
     0
100
AcDbPoint
 10
703.9629018630797
 20
1613.67545567602
 30
0.0
  0
ENDBLK
  5
12EC
330
12E1
100
AcDbEntity
  8
0
100
AcDbBlockEnd
  0
BLOCK
  5
12F8
330
12EE
100
AcDbEntity
  8
0
100
AcDbBlockBegin
  2
*D6
 70
     1
 10
0.0
 20
0.0
 30
0.0
  3
*D6
  1

  0
LINE
  5
1D6F
330
12EE
100
AcDbEntity
  8
寸法
 62
     0
370
    18
100
AcDbLine
 10
793.5936297894722
 20
1685.67545567602
 30
0.0
 11
703.9629018630797
 21
1685.67545567602
 31
0.0
  0
LINE
  5
1D70
330
12EE
100
AcDbEntity
  8
寸法
 62
     0
370
    18
100
AcDbLine
 10
793.5936297894722
 20
1191.67545567602
 30
0.0
 11
703.9629018630797
 21
1191.67545567602
 31
0.0
  0
LINE
  5
1D71
330
12EE
100
AcDbEntity
  8
寸法
 62
     0
370
    18
100
AcDbLine
 10
703.9629018630797
 20
1685.67545567602
 30
0.0
 11
703.9629018630797
 21
1191.67545567602
 31
0.0
  0
INSERT
  5
1D72
330
12EE
100
AcDbEntity
  8
寸法
 62
     0
370
    18
100
AcDbBlockReference
  2
_DotSmall
 10
703.9629018630797
 20
1685.67545567602
 30
0.0
 41
35.0
 42
35.0
 43
35.0
 50
90.0
  0
INSERT
  5
1D73
330
12EE
100
AcDbEntity
  8
寸法
 62
     0
370
    18
100
AcDbBlockReference
  2
_DotSmall
 10
703.9629018630797
 20
1191.67545567602
 30
0.0
 41
35.0
 42
35.0
 43
35.0
 50
270.0
  0
MTEXT
  5
1D74
330
12EE
100
AcDbEntity
  8
寸法
 62
     0
100
AcDbMText
 10
685.2129018630795
 20
1438.67545567602
 30
0.0
 40
25.0
 41
0.0
 71
     5
 72
     1
  1
410
 11
0.0000000000000001
 21
1.0
 31
0.0
 73
     1
 44
1.0
1001
ACAD
1000
MTEXTBEGIN
1070
    73
1070
     1
1070
    44
1040
1.0
1070
    74
1070
     0
1000
MTEXTEND
  0
POINT
  5
1D75
330
12EE
100
AcDbEntity
  8
Defpoints
 62
     0
100
AcDbPoint
 10
858.5936297894722
 20
1685.67545567602
 30
0.0
  0
POINT
  5
1D76
330
12EE
100
AcDbEntity
  8
Defpoints
 62
     0
100
AcDbPoint
 10
858.5936297894722
 20
1191.67545567602
 30
0.0
  0
POINT
  5
1D77
330
12EE
100
AcDbEntity
  8
Defpoints
 62
     0
100
AcDbPoint
 10
703.9629018630797
 20
1191.67545567602
 30
0.0
  0
ENDBLK
  5
12F9
330
12EE
100
AcDbEntity
  8
0
100
AcDbBlockEnd
  0
BLOCK
  5
1305
330
12FB
100
AcDbEntity
  8
0
100
AcDbBlockBegin
  2
*D7
 70
     1
 10
0.0
 20
0.0
 30
0.0
  3
*D7
  1

  0
LINE
  5
1D9C
330
12FB
100
AcDbEntity
  8
寸法
 62
     0
370
    18
100
AcDbLine
 10
793.5936297894722
 20
1203.67545567602
 30
0.0
 11
703.9629018630797
 21
1203.67545567602
 31
0.0
  0
LINE
  5
1D9D
330
12FB
100
AcDbEntity
  8
寸法
 62
     0
370
    18
100
AcDbLine
 10
793.5936297894722
 20
1173.67545567602
 30
0.0
 11
703.9629018630797
 21
1173.67545567602
 31
0.0
  0
LINE
  5
1D9E
330
12FB
100
AcDbEntity
  8
寸法
 62
     0
370
    18
100
AcDbLine
 10
703.9629018630797
 20
1203.67545567602
 30
0.0
 11
703.9629018630797
 21
1173.67545567602
 31
0.0
  0
MTEXT
  5
1D9F
330
12FB
100
AcDbEntity
  8
寸法
 62
     0
100
AcDbMText
 10
684.9282320064393
 20
1226.699952865491
 30
0.0
 40
25.0
 41
0.0
 71
     5
 72
     1
  1
12
 11
0.0000000000000001
 21
1.0
 31
0.0
 73
     1
 44
1.0
1001
ACAD
1000
MTEXTBEGIN
1070
    73
1070
     1
1070
    44
1040
1.0
1070
    74
1070
     0
1000
MTEXTEND
  0
INSERT
  5
1DA0
330
12FB
100
AcDbEntity
  8
寸法
 62
     0
370
    18
100
AcDbBlockReference
  2
_DotSmall
 10
703.9629018630797
 20
1203.67545567602
 30
0.0
 41
35.0
 42
35.0
 43
35.0
 50
90.0
  0
INSERT
  5
1DA1
330
12FB
100
AcDbEntity
  8
寸法
 62
     0
370
    18
100
AcDbBlockReference
  2
_DotSmall
 10
703.9629018630797
 20
1173.67545567602
 30
0.0
 41
35.0
 42
35.0
 43
35.0
 50
270.0
  0
POINT
  5
1DA2
330
12FB
100
AcDbEntity
  8
Defpoints
 62
     0
100
AcDbPoint
 10
858.5936297894722
 20
1203.67545567602
 30
0.0
  0
POINT
  5
1DA3
330
12FB
100
AcDbEntity
  8
Defpoints
 62
     0
100
AcDbPoint
 10
858.5936297894722
 20
1173.67545567602
 30
0.0
  0
POINT
  5
1DA4
330
12FB
100
AcDbEntity
  8
Defpoints
 62
     0
100
AcDbPoint
 10
703.9629018630797
 20
1173.67545567602
 30
0.0
  0
ENDBLK
  5
1306
330
12FB
100
AcDbEntity
  8
0
100
AcDbBlockEnd
  0
BLOCK
  5
1312
330
1308
100
AcDbEntity
  8
0
100
AcDbBlockBegin
  2
*D8
 70
     1
 10
0.0
 20
0.0
 30
0.0
  3
*D8
  1

  0
LINE
  5
1D93
330
1308
100
AcDbEntity
  8
寸法
 62
     0
370
    18
100
AcDbLine
 10
793.5936297894722
 20
1191.67545567602
 30
0.0
 11
703.9629018630797
 21
1191.67545567602
 31
0.0
  0
LINE
  5
1D94
330
1308
100
AcDbEntity
  8
寸法
 62
     0
370
    18
100
AcDbLine
 10
793.5936297894722
 20
1173.67545567602
 30
0.0
 11
703.9629018630797
 21
1173.67545567602
 31
0.0
  0
LINE
  5
1D95
330
1308
100
AcDbEntity
  8
寸法
 62
     0
370
    18
100
AcDbLine
 10
703.9629018630797
 20
1191.67545567602
 30
0.0
 11
703.9629018630797
 21
1173.67545567602
 31
0.0
  0
MTEXT
  5
1D96
330
1308
100
AcDbEntity
  8
寸法
 62
     0
100
AcDbMText
 10
688.4198646415296
 20
1143.103833519191
 30
0.0
 40
25.0
 41
0.0
 71
     5
 72
     1
  1
18
 11
0.0000000000000001
 21
1.0
 31
0.0
 73
     1
 44
1.0
1001
ACAD
1000
MTEXTBEGIN
1070
    73
1070
     1
1070
    44
1040
1.0
1070
    74
1070
     0
1000
MTEXTEND
  0
INSERT
  5
1D97
330
1308
100
AcDbEntity
  8
寸法
 62
     0
370
    18
100
AcDbBlockReference
  2
_DotSmall
 10
703.9629018630797
 20
1191.67545567602
 30
0.0
 41
35.0
 42
35.0
 43
35.0
 50
90.0
  0
INSERT
  5
1D98
330
1308
100
AcDbEntity
  8
寸法
 62
     0
370
    18
100
AcDbBlockReference
  2
_DotSmall
 10
703.9629018630797
 20
1173.67545567602
 30
0.0
 41
35.0
 42
35.0
 43
35.0
 50
270.0
  0
POINT
  5
1D99
330
1308
100
AcDbEntity
  8
Defpoints
 62
     0
100
AcDbPoint
 10
858.5936297894722
 20
1191.67545567602
 30
0.0
  0
POINT
  5
1D9A
330
1308
100
AcDbEntity
  8
Defpoints
 62
     0
100
AcDbPoint
 10
858.5936297894722
 20
1173.67545567602
 30
0.0
  0
POINT
  5
1D9B
330
1308
100
AcDbEntity
  8
Defpoints
 62
     0
100
AcDbPoint
 10
703.9629018630797
 20
1173.67545567602
 30
0.0
  0
ENDBLK
  5
1313
330
1308
100
AcDbEntity
  8
0
100
AcDbBlockEnd
  0
BLOCK
  5
133A
330
1330
100
AcDbEntity
  8
0
100
AcDbBlockBegin
  2
*D9
 70
     1
 10
0.0
 20
0.0
 30
0.0
  3
*D9
  1

  0
LINE
  5
1D78
330
1330
100
AcDbEntity
  8
寸法
 62
     0
370
    18
100
AcDbLine
 10
793.5936297894722
 20
1703.67545567602
 30
0.0
 11
630.2509594618124
 21
1703.67545567602
 31
0.0
  0
LINE
  5
1D79
330
1330
100
AcDbEntity
  8
寸法
 62
     0
370
    18
100
AcDbLine
 10
793.5936297894722
 20
1173.67545567602
 30
0.0
 11
630.2509594618122
 21
1173.67545567602
 31
0.0
  0
LINE
  5
1D7A
330
1330
100
AcDbEntity
  8
寸法
 62
     0
370
    18
100
AcDbLine
 10
630.2509594618124
 20
1703.67545567602
 30
0.0
 11
630.2509594618122
 21
1173.67545567602
 31
0.0
  0
INSERT
  5
1D7B
330
1330
100
AcDbEntity
  8
寸法
 62
     0
370
    18
100
AcDbBlockReference
  2
_DotSmall
 10
630.2509594618124
 20
1703.67545567602
 30
0.0
 41
35.0
 42
35.0
 43
35.0
 50
90.0
  0
INSERT
  5
1D7C
330
1330
100
AcDbEntity
  8
寸法
 62
     0
370
    18
100
AcDbBlockReference
  2
_DotSmall
 10
630.2509594618122
 20
1173.67545567602
 30
0.0
 41
35.0
 42
35.0
 43
35.0
 50
270.0
  0
MTEXT
  5
1D7D
330
1330
100
AcDbEntity
  8
寸法
 62
     0
100
AcDbMText
 10
611.5009594618121
 20
1438.67545567602
 30
0.0
 40
25.0
 41
0.0
 71
     5
 72
     1
  1
530
 11
0.0000000000000001
 21
1.0
 31
0.0
 73
     1
 44
1.0
1001
ACAD
1000
MTEXTBEGIN
1070
    73
1070
     1
1070
    44
1040
1.0
1070
    74
1070
     0
1000
MTEXTEND
  0
POINT
  5
1D7E
330
1330
100
AcDbEntity
  8
Defpoints
 62
     0
100
AcDbPoint
 10
858.5936297894722
 20
1703.67545567602
 30
0.0
  0
POINT
  5
1D7F
330
1330
100
AcDbEntity
  8
Defpoints
 62
     0
100
AcDbPoint
 10
858.5936297894722
 20
1173.67545567602
 30
0.0
  0
POINT
  5
1D80
330
1330
100
AcDbEntity
  8
Defpoints
 62
     0
100
AcDbPoint
 10
630.2509594618122
 20
1173.67545567602
 30
0.0
  0
ENDBLK
  5
133B
330
1330
100
AcDbEntity
  8
0
100
AcDbBlockEnd
  0
BLOCK
  5
135A
330
134F
100
AcDbEntity
  8
0
100
AcDbBlockBegin
  2
*D10
 70
     1
 10
0.0
 20
0.0
 30
0.0
  3
*D10
  1

  0
LINE
  5
1D8A
330
134F
100
AcDbEntity
  8
寸法
 62
     0
370
    18
100
AcDbLine
 10
858.5936297894722
 20
1108.67545567602
 30
0.0
 11
858.5936297894722
 21
1062.290944394732
 31
0.0
  0
LINE
  5
1D8B
330
134F
100
AcDbEntity
  8
寸法
 62
     0
370
    18
100
AcDbLine
 10
876.5936297894722
 20
1108.67545567602
 30
0.0
 11
876.5936297894722
 21
1062.290944394732
 31
0.0
  0
LINE
  5
1D8C
330
134F
100
AcDbEntity
  8
寸法
 62
     0
370
    18
100
AcDbLine
 10
858.5936297894722
 20
1062.290944394732
 30
0.0
 11
876.5936297894722
 21
1062.290944394732
 31
0.0
  0
MTEXT
  5
1D8D
330
134F
100
AcDbEntity
  8
寸法
 62
     0
100
AcDbMText
 10
822.8350914612281
 20
1073.70353727191
 30
0.0
 40
25.0
 41
0.0
 71
     5
 72
     1
  1
18
 73
     1
 44
1.0
1001
ACAD
1000
MTEXTBEGIN
1070
    73
1070
     1
1070
    44
1040
1.0
1070
    74
1070
     0
1000
MTEXTEND
  0
INSERT
  5
1D8E
330
134F
100
AcDbEntity
  8
寸法
 62
     0
370
    18
100
AcDbBlockReference
  2
_DotSmall
 10
858.5936297894722
 20
1062.290944394732
 30
0.0
 41
35.0
 42
35.0
 43
35.0
 50
180.0
  0
INSERT
  5
1D8F
330
134F
100
AcDbEntity
  8
寸法
 62
     0
370
    18
100
AcDbBlockReference
  2
_DotSmall
 10
876.5936297894722
 20
1062.290944394732
 30
0.0
 41
35.0
 42
35.0
 43
35.0
  0
POINT
  5
1D90
330
134F
100
AcDbEntity
  8
Defpoints
 62
     0
100
AcDbPoint
 10
858.5936297894722
 20
1173.67545567602
 30
0.0
  0
POINT
  5
1D91
330
134F
100
AcDbEntity
  8
Defpoints
 62
     0
100
AcDbPoint
 10
876.5936297894722
 20
1173.67545567602
 30
0.0
  0
POINT
  5
1D92
330
134F
100
AcDbEntity
  8
Defpoints
 62
     0
100
AcDbPoint
 10
876.5936297894722
 20
1062.290944394732
 30
0.0
  0
ENDBLK
  5
135B
330
134F
100
AcDbEntity
  8
0
100
AcDbBlockEnd
  0
BLOCK
  5
138F
330
1383
100
AcDbEntity
  8
0
100
AcDbBlockBegin
  2
*D11
 70
     1
 10
0.0
 20
0.0
 30
0.0
  3
*D11
  1

  0
LINE
  5
1D81
330
1383
100
AcDbEntity
  8
寸法
 62
     0
370
    18
100
AcDbLine
 10
876.5936297894722
 20
1108.67545567602
 30
0.0
 11
876.5936297894722
 21
1062.290944394732
 31
0.0
  0
LINE
  5
1D82
330
1383
100
AcDbEntity
  8
寸法
 62
     0
370
    18
100
AcDbLine
 10
928.5936297894723
 20
1108.67545567602
 30
0.0
 11
928.5936297894723
 21
1062.290944394732
 31
0.0
  0
LINE
  5
1D83
330
1383
100
AcDbEntity
  8
寸法
 62
     0
370
    18
100
AcDbLine
 10
876.5936297894722
 20
1062.290944394732
 30
0.0
 11
928.5936297894723
 21
1062.290944394732
 31
0.0
  0
MTEXT
  5
1D84
330
1383
100
AcDbEntity
  8
寸法
 62
     0
100
AcDbMText
 10
891.3618198663542
 20
1034.9007185773
 30
0.0
 40
25.0
 41
0.0
 71
     5
 72
     1
  1
52
 73
     1
 44
1.0
1001
ACAD
1000
MTEXTBEGIN
1070
    73
1070
     1
1070
    44
1040
1.0
1070
    74
1070
     0
1000
MTEXTEND
  0
INSERT
  5
1D85
330
1383
100
AcDbEntity
  8
寸法
 62
     0
370
    18
100
AcDbBlockReference
  2
_DotSmall
 10
876.5936297894722
 20
1062.290944394732
 30
0.0
 41
35.0
 42
35.0
 43
35.0
 50
180.0
  0
INSERT
  5
1D86
330
1383
100
AcDbEntity
  8
寸法
 62
     0
370
    18
100
AcDbBlockReference
  2
_DotSmall
 10
928.5936297894723
 20
1062.290944394732
 30
0.0
 41
35.0
 42
35.0
 43
35.0
  0
POINT
  5
1D87
330
1383
100
AcDbEntity
  8
Defpoints
 62
     0
100
AcDbPoint
 10
876.5936297894722
 20
1173.67545567602
 30
0.0
  0
POINT
  5
1D88
330
1383
100
AcDbEntity
  8
Defpoints
 62
     0
100
AcDbPoint
 10
928.5936297894723
 20
1173.67545567602
 30
0.0
  0
POINT
  5
1D89
330
1383
100
AcDbEntity
  8
Defpoints
 62
     0
100
AcDbPoint
 10
928.5936297894723
 20
1062.290944394732
 30
0.0
  0
ENDBLK
  5
1390
330
1383
100
AcDbEntity
  8
0
100
AcDbBlockEnd
  0
BLOCK
  5
13B8
330
13AE
100
AcDbEntity
  8
0
100
AcDbBlockBegin
  2
*D12
 70
     1
 10
0.0
 20
0.0
 30
0.0
  3
*D12
  1

  0
LINE
  5
1D4C
330
13AE
100
AcDbEntity
  8
寸法
 62
     0
370
    18
100
AcDbLine
 10
928.5936297894723
 20
1108.67545567602
 30
0.0
 11
928.5936297894723
 21
1062.290944394732
 31
0.0
  0
LINE
  5
1D4D
330
13AE
100
AcDbEntity
  8
寸法
 62
     0
370
    18
100
AcDbLine
 10
1858.593629789472
 20
1108.67545567602
 30
0.0
 11
1858.593629789472
 21
1062.290944394732
 31
0.0
  0
LINE
  5
1D4E
330
13AE
100
AcDbEntity
  8
寸法
 62
     0
370
    18
100
AcDbLine
 10
928.5936297894723
 20
1062.290944394732
 30
0.0
 11
1858.593629789472
 21
1062.290944394732
 31
0.0
  0
INSERT
  5
1D4F
330
13AE
100
AcDbEntity
  8
寸法
 62
     0
370
    18
100
AcDbBlockReference
  2
_DotSmall
 10
928.5936297894723
 20
1062.290944394732
 30
0.0
 41
35.0
 42
35.0
 43
35.0
 50
180.0
  0
INSERT
  5
1D50
330
13AE
100
AcDbEntity
  8
寸法
 62
     0
370
    18
100
AcDbBlockReference
  2
_DotSmall
 10
1858.593629789472
 20
1062.290944394732
 30
0.0
 41
35.0
 42
35.0
 43
35.0
  0
MTEXT
  5
1D51
330
13AE
100
AcDbEntity
  8
寸法
 62
     0
100
AcDbMText
 10
1393.593629789472
 20
1081.040944394732
 30
0.0
 40
25.0
 41
0.0
 71
     5
 72
     1
  1
930
 73
     1
 44
1.0
1001
ACAD
1000
MTEXTBEGIN
1070
    73
1070
     1
1070
    44
1040
1.0
1070
    74
1070
     0
1000
MTEXTEND
  0
POINT
  5
1D52
330
13AE
100
AcDbEntity
  8
Defpoints
 62
     0
100
AcDbPoint
 10
928.5936297894723
 20
1173.67545567602
 30
0.0
  0
POINT
  5
1D53
330
13AE
100
AcDbEntity
  8
Defpoints
 62
     0
100
AcDbPoint
 10
1858.593629789472
 20
1173.67545567602
 30
0.0
  0
POINT
  5
1D54
330
13AE
100
AcDbEntity
  8
Defpoints
 62
     0
100
AcDbPoint
 10
1858.593629789472
 20
1062.290944394732
 30
0.0
  0
ENDBLK
  5
13B9
330
13AE
100
AcDbEntity
  8
0
100
AcDbBlockEnd
  0
BLOCK
  5
13C7
330
13BB
100
AcDbEntity
  8
0
100
AcDbBlockBegin
  2
*D13
 70
     1
 10
0.0
 20
0.0
 30
0.0
  3
*D13
  1

  0
LINE
  5
1D43
330
13BB
100
AcDbEntity
  8
寸法
 62
     0
370
    18
100
AcDbLine
 10
1858.593629789472
 20
1108.67545567602
 30
0.0
 11
1858.593629789472
 21
1062.290944394732
 31
0.0
  0
LINE
  5
1D44
330
13BB
100
AcDbEntity
  8
寸法
 62
     0
370
    18
100
AcDbLine
 10
1910.593629789472
 20
1108.67545567602
 30
0.0
 11
1910.593629789472
 21
1062.290944394732
 31
0.0
  0
LINE
  5
1D45
330
13BB
100
AcDbEntity
  8
寸法
 62
     0
370
    18
100
AcDbLine
 10
1858.593629789472
 20
1062.290944394732
 30
0.0
 11
1910.593629789472
 21
1062.290944394732
 31
0.0
  0
MTEXT
  5
1D46
330
13BB
100
AcDbEntity
  8
寸法
 62
     0
100
AcDbMText
 10
1897.231419637516
 20
1034.9007185773
 30
0.0
 40
25.0
 41
0.0
 71
     5
 72
     1
  1
52
 73
     1
 44
1.0
1001
ACAD
1000
MTEXTBEGIN
1070
    73
1070
     1
1070
    44
1040
1.0
1070
    74
1070
     0
1000
MTEXTEND
  0
INSERT
  5
1D47
330
13BB
100
AcDbEntity
  8
寸法
 62
     0
370
    18
100
AcDbBlockReference
  2
_DotSmall
 10
1858.593629789472
 20
1062.290944394732
 30
0.0
 41
35.0
 42
35.0
 43
35.0
 50
180.0
  0
INSERT
  5
1D48
330
13BB
100
AcDbEntity
  8
寸法
 62
     0
370
    18
100
AcDbBlockReference
  2
_DotSmall
 10
1910.593629789472
 20
1062.290944394732
 30
0.0
 41
35.0
 42
35.0
 43
35.0
  0
POINT
  5
1D49
330
13BB
100
AcDbEntity
  8
Defpoints
 62
     0
100
AcDbPoint
 10
1858.593629789472
 20
1173.67545567602
 30
0.0
  0
POINT
  5
1D4A
330
13BB
100
AcDbEntity
  8
Defpoints
 62
     0
100
AcDbPoint
 10
1910.593629789472
 20
1173.67545567602
 30
0.0
  0
POINT
  5
1D4B
330
13BB
100
AcDbEntity
  8
Defpoints
 62
     0
100
AcDbPoint
 10
1910.593629789472
 20
1062.290944394732
 30
0.0
  0
ENDBLK
  5
13C8
330
13BB
100
AcDbEntity
  8
0
100
AcDbBlockEnd
  0
BLOCK
  5
13D6
330
13CA
100
AcDbEntity
  8
0
100
AcDbBlockBegin
  2
*D14
 70
     1
 10
0.0
 20
0.0
 30
0.0
  3
*D14
  1

  0
LINE
  5
1C0E
330
13CA
100
AcDbEntity
  8
寸法
 62
     0
370
    18
100
AcDbLine
 10
1910.593629789472
 20
1108.67545567602
 30
0.0
 11
1910.593629789472
 21
1062.290944394732
 31
0.0
  0
LINE
  5
1C0F
330
13CA
100
AcDbEntity
  8
寸法
 62
     0
370
    18
100
AcDbLine
 10
1928.593629789472
 20
1108.67545567602
 30
0.0
 11
1928.593629789472
 21
1062.290944394732
 31
0.0
  0
LINE
  5
1C10
330
13CA
100
AcDbEntity
  8
寸法
 62
     0
370
    18
100
AcDbLine
 10
1910.593629789472
 20
1062.290944394732
 30
0.0
 11
1928.593629789472
 21
1062.290944394732
 31
0.0
  0
MTEXT
  5
1C11
330
13CA
100
AcDbEntity
  8
寸法
 62
     0
100
AcDbMText
 10
1963.473923762472
 20
1069.138497208834
 30
0.0
 40
25.0
 41
0.0
 71
     5
 72
     1
  1
18
 73
     1
 44
1.0
1001
ACAD
1000
MTEXTBEGIN
1070
    73
1070
     1
1070
    44
1040
1.0
1070
    74
1070
     0
1000
MTEXTEND
  0
INSERT
  5
1C12
330
13CA
100
AcDbEntity
  8
寸法
 62
     0
370
    18
100
AcDbBlockReference
  2
_DotSmall
 10
1910.593629789472
 20
1062.290944394732
 30
0.0
 41
35.0
 42
35.0
 43
35.0
 50
180.0
  0
INSERT
  5
1C13
330
13CA
100
AcDbEntity
  8
寸法
 62
     0
370
    18
100
AcDbBlockReference
  2
_DotSmall
 10
1928.593629789472
 20
1062.290944394732
 30
0.0
 41
35.0
 42
35.0
 43
35.0
  0
POINT
  5
1C14
330
13CA
100
AcDbEntity
  8
Defpoints
 62
     0
100
AcDbPoint
 10
1910.593629789472
 20
1173.67545567602
 30
0.0
  0
POINT
  5
1C15
330
13CA
100
AcDbEntity
  8
Defpoints
 62
     0
100
AcDbPoint
 10
1928.593629789472
 20
1173.67545567602
 30
0.0
  0
POINT
  5
1C16
330
13CA
100
AcDbEntity
  8
Defpoints
 62
     0
100
AcDbPoint
 10
1928.593629789472
 20
1062.290944394732
 30
0.0
  0
ENDBLK
  5
13D7
330
13CA
100
AcDbEntity
  8
0
100
AcDbBlockEnd
  0
BLOCK
  5
147D
330
1473
100
AcDbEntity
  8
0
100
AcDbBlockBegin
  2
*D15
 70
     1
 10
0.0
 20
0.0
 30
0.0
  3
*D15
  1

  0
LINE
  5
1D55
330
1473
100
AcDbEntity
  8
寸法
 62
     0
370
    18
100
AcDbLine
 10
858.5936297894722
 20
1108.67545567602
 30
0.0
 11
858.5936297894722
 21
982.4027942544844
 31
0.0
  0
LINE
  5
1D56
330
1473
100
AcDbEntity
  8
寸法
 62
     0
370
    18
100
AcDbLine
 10
1928.593629789472
 20
1108.67545567602
 30
0.0
 11
1928.593629789472
 21
982.4027942544844
 31
0.0
  0
LINE
  5
1D57
330
1473
100
AcDbEntity
  8
寸法
 62
     0
370
    18
100
AcDbLine
 10
858.5936297894722
 20
982.4027942544844
 30
0.0
 11
1928.593629789472
 21
982.4027942544844
 31
0.0
  0
INSERT
  5
1D58
330
1473
100
AcDbEntity
  8
寸法
 62
     0
370
    18
100
AcDbBlockReference
  2
_DotSmall
 10
858.5936297894722
 20
982.4027942544844
 30
0.0
 41
35.0
 42
35.0
 43
35.0
 50
180.0
  0
INSERT
  5
1D59
330
1473
100
AcDbEntity
  8
寸法
 62
     0
370
    18
100
AcDbBlockReference
  2
_DotSmall
 10
1928.593629789472
 20
982.4027942544844
 30
0.0
 41
35.0
 42
35.0
 43
35.0
  0
MTEXT
  5
1D5A
330
1473
100
AcDbEntity
  8
寸法
 62
     0
100
AcDbMText
 10
1393.593629789472
 20
1001.152794254484
 30
0.0
 40
25.0
 41
0.0
 71
     5
 72
     1
  1
1070
 73
     1
 44
1.0
1001
ACAD
1000
MTEXTBEGIN
1070
    73
1070
     1
1070
    44
1040
1.0
1070
    74
1070
     0
1000
MTEXTEND
  0
POINT
  5
1D5B
330
1473
100
AcDbEntity
  8
Defpoints
 62
     0
100
AcDbPoint
 10
858.5936297894722
 20
1173.67545567602
 30
0.0
  0
POINT
  5
1D5C
330
1473
100
AcDbEntity
  8
Defpoints
 62
     0
100
AcDbPoint
 10
1928.593629789472
 20
1173.67545567602
 30
0.0
  0
POINT
  5
1D5D
330
1473
100
AcDbEntity
  8
Defpoints
 62
     0
100
AcDbPoint
 10
1928.593629789472
 20
982.4027942544844
 30
0.0
  0
ENDBLK
  5
147E
330
1473
100
AcDbEntity
  8
0
100
AcDbBlockEnd
  0
BLOCK
  5
158D
330
1583
100
AcDbEntity
  8
0
100
AcDbBlockBegin
  2
*D16
 70
     1
 10
0.0
 20
0.0
 30
0.0
  3
*D16
  1

  0
LINE
  5
1E39
330
1583
100
AcDbEntity
  8
寸法
 62
     0
370
    15
100
AcDbLine
 10
1078.593629789472
 20
1505.218353240059
 30
0.0
 11
1078.593629789472
 21
1815.539080112476
 31
0.0
  0
LINE
  5
1E3A
330
1583
100
AcDbEntity
  8
寸法
 62
     0
370
    15
100
AcDbLine
 10
858.5936297894722
 20
1750.675455676019
 30
0.0
 11
858.5936297894722
 21
1815.539080112476
 31
0.0
  0
LINE
  5
1E3B
330
1583
100
AcDbEntity
  8
寸法
 62
     0
370
    18
100
AcDbLine
 10
1078.593629789472
 20
1815.539080112476
 30
0.0
 11
858.5936297894722
 21
1815.539080112476
 31
0.0
  0
INSERT
  5
1E3C
330
1583
100
AcDbEntity
  8
寸法
 62
     0
370
    18
100
AcDbBlockReference
  2
_DotSmall
 10
1078.593629789472
 20
1815.539080112476
 30
0.0
 41
35.0
 42
35.0
 43
35.0
  0
INSERT
  5
1E3D
330
1583
100
AcDbEntity
  8
寸法
 62
     0
370
    18
100
AcDbBlockReference
  2
_DotSmall
 10
858.5936297894722
 20
1815.539080112476
 30
0.0
 41
35.0
 42
35.0
 43
35.0
 50
180.0
  0
MTEXT
  5
1E3E
330
1583
100
AcDbEntity
  8
寸法
 62
     0
100
AcDbMText
 10
968.5936297894723
 20
1834.289080112476
 30
0.0
 40
25.0
 41
0.0
 71
     5
 72
     1
  1
220
 73
     1
 44
1.0
1001
ACAD
1000
MTEXTBEGIN
1070
    73
1070
     1
1070
    44
1040
1.0
1070
    74
1070
     0
1000
MTEXTEND
  0
POINT
  5
1E3F
330
1583
100
AcDbEntity
  8
Defpoints
 62
     0
100
AcDbPoint
 10
1078.593629789472
 20
1440.218353240059
 30
0.0
  0
POINT
  5
1E40
330
1583
100
AcDbEntity
  8
Defpoints
 62
     0
100
AcDbPoint
 10
858.5936297894722
 20
1685.67545567602
 30
0.0
  0
POINT
  5
1E41
330
1583
100
AcDbEntity
  8
Defpoints
 62
     0
100
AcDbPoint
 10
858.5936297894722
 20
1815.539080112476
 30
0.0
  0
ENDBLK
  5
158E
330
1583
100
AcDbEntity
  8
0
100
AcDbBlockEnd
  0
BLOCK
  5
1599
330
158F
100
AcDbEntity
  8
0
100
AcDbBlockBegin
  2
*D17
 70
     1
 10
0.0
 20
0.0
 30
0.0
  3
*D17
  1

  0
LINE
  5
1DEF
330
158F
100
AcDbEntity
  8
寸法
 62
     0
370
    15
100
AcDbLine
 10
1169.093629789472
 20
499.6754556760198
 30
0.0
 11
1169.093629789472
 21
407.0386498060178
 31
0.0
  0
LINE
  5
1DF0
330
158F
100
AcDbEntity
  8
寸法
 62
     0
370
    15
100
AcDbLine
 10
988.0936297894722
 20
499.6754556760197
 30
0.0
 11
988.0936297894722
 21
407.0386498060178
 31
0.0
  0
LINE
  5
1DF1
330
158F
100
AcDbEntity
  8
寸法
 62
     0
370
    18
100
AcDbLine
 10
1169.093629789472
 20
407.0386498060178
 30
0.0
 11
988.0936297894722
 21
407.0386498060178
 31
0.0
  0
INSERT
  5
1DF2
330
158F
100
AcDbEntity
  8
寸法
 62
     0
370
    18
100
AcDbBlockReference
  2
_DotSmall
 10
1169.093629789472
 20
407.0386498060178
 30
0.0
 41
35.0
 42
35.0
 43
35.0
  0
INSERT
  5
1DF3
330
158F
100
AcDbEntity
  8
寸法
 62
     0
370
    18
100
AcDbBlockReference
  2
_DotSmall
 10
988.0936297894722
 20
407.0386498060178
 30
0.0
 41
35.0
 42
35.0
 43
35.0
 50
180.0
  0
MTEXT
  5
1DF4
330
158F
100
AcDbEntity
  8
寸法
 62
     0
100
AcDbMText
 10
1078.593629789472
 20
425.7886498060178
 30
0.0
 40
25.0
 41
0.0
 71
     5
 72
     1
  1
181
 73
     1
 44
1.0
1001
ACAD
1000
MTEXTBEGIN
1070
    73
1070
     1
1070
    44
1040
1.0
1070
    74
1070
     0
1000
MTEXTEND
  0
POINT
  5
1DF5
330
158F
100
AcDbEntity
  8
Defpoints
 62
     0
100
AcDbPoint
 10
1169.093629789472
 20
564.6754556760197
 30
0.0
  0
POINT
  5
1DF6
330
158F
100
AcDbEntity
  8
Defpoints
 62
     0
100
AcDbPoint
 10
988.0936297894722
 20
564.6754556760197
 30
0.0
  0
POINT
  5
1DF7
330
158F
100
AcDbEntity
  8
Defpoints
 62
     0
100
AcDbPoint
 10
988.0936297894722
 20
407.0386498060178
 30
0.0
  0
ENDBLK
  5
159A
330
158F
100
AcDbEntity
  8
0
100
AcDbBlockEnd
  0
BLOCK
  5
15A5
330
159B
100
AcDbEntity
  8
0
100
AcDbBlockBegin
  2
*D18
 70
     1
 10
0.0
 20
0.0
 30
0.0
  3
*D18
  1

  0
LINE
  5
1DE6
330
159B
100
AcDbEntity
  8
寸法
 62
     0
370
    15
100
AcDbLine
 10
1158.593629789472
 20
499.6754556760197
 30
0.0
 11
1158.593629789472
 21
448.2480483749468
 31
0.0
  0
LINE
  5
1DE7
330
159B
100
AcDbEntity
  8
寸法
 62
     0
370
    15
100
AcDbLine
 10
998.5936297894722
 20
499.6754556760197
 30
0.0
 11
998.5936297894722
 21
448.2480483749468
 31
0.0
  0
LINE
  5
1DE8
330
159B
100
AcDbEntity
  8
寸法
 62
     0
370
    18
100
AcDbLine
 10
1158.593629789472
 20
448.2480483749468
 30
0.0
 11
998.5936297894722
 21
448.2480483749468
 31
0.0
  0
INSERT
  5
1DE9
330
159B
100
AcDbEntity
  8
寸法
 62
     0
370
    18
100
AcDbBlockReference
  2
_DotSmall
 10
1158.593629789472
 20
448.2480483749468
 30
0.0
 41
35.0
 42
35.0
 43
35.0
  0
INSERT
  5
1DEA
330
159B
100
AcDbEntity
  8
寸法
 62
     0
370
    18
100
AcDbBlockReference
  2
_DotSmall
 10
998.5936297894722
 20
448.2480483749468
 30
0.0
 41
35.0
 42
35.0
 43
35.0
 50
180.0
  0
MTEXT
  5
1DEB
330
159B
100
AcDbEntity
  8
寸法
 62
     0
100
AcDbMText
 10
1078.593629789472
 20
466.9980483749468
 30
0.0
 40
25.0
 41
0.0
 71
     5
 72
     1
  1
160
 73
     1
 44
1.0
1001
ACAD
1000
MTEXTBEGIN
1070
    73
1070
     1
1070
    44
1040
1.0
1070
    74
1070
     0
1000
MTEXTEND
  0
POINT
  5
1DEC
330
159B
100
AcDbEntity
  8
Defpoints
 62
     0
100
AcDbPoint
 10
1158.593629789472
 20
564.6754556760197
 30
0.0
  0
POINT
  5
1DED
330
159B
100
AcDbEntity
  8
Defpoints
 62
     0
100
AcDbPoint
 10
998.5936297894722
 20
564.6754556760197
 30
0.0
  0
POINT
  5
1DEE
330
159B
100
AcDbEntity
  8
Defpoints
 62
     0
100
AcDbPoint
 10
998.5936297894722
 20
448.2480483749468
 30
0.0
  0
ENDBLK
  5
15A6
330
159B
100
AcDbEntity
  8
0
100
AcDbBlockEnd
  0
BLOCK
  5
15B1
330
15A7
100
AcDbEntity
  8
0
100
AcDbBlockBegin
  2
*D19
 70
     1
 10
0.0
 20
0.0
 30
0.0
  3
*D19
  1

  0
LINE
  5
1D5E
330
15A7
100
AcDbEntity
  8
寸法
 62
     0
370
    15
100
AcDbLine
 10
838.5936297894717
 20
773.6754556760197
 30
0.0
 11
745.9612549668832
 21
773.6754556760197
 31
0.0
  0
LINE
  5
1D5F
330
15A7
100
AcDbEntity
  8
寸法
 62
     0
370
    15
100
AcDbLine
 10
838.5936297894717
 20
574.6754556760197
 30
0.0
 11
745.9612549668832
 21
574.6754556760197
 31
0.0
  0
LINE
  5
1D60
330
15A7
100
AcDbEntity
  8
寸法
 62
     0
370
    18
100
AcDbLine
 10
745.9612549668832
 20
773.6754556760197
 30
0.0
 11
745.9612549668832
 21
574.6754556760197
 31
0.0
  0
INSERT
  5
1D61
330
15A7
100
AcDbEntity
  8
寸法
 62
     0
370
    18
100
AcDbBlockReference
  2
_DotSmall
 10
745.9612549668832
 20
773.6754556760197
 30
0.0
 41
35.0
 42
35.0
 43
35.0
 50
90.0
  0
INSERT
  5
1D62
330
15A7
100
AcDbEntity
  8
寸法
 62
     0
370
    18
100
AcDbBlockReference
  2
_DotSmall
 10
745.9612549668832
 20
574.6754556760197
 30
0.0
 41
35.0
 42
35.0
 43
35.0
 50
270.0
  0
MTEXT
  5
1D63
330
15A7
100
AcDbEntity
  8
寸法
 62
     0
100
AcDbMText
 10
727.2112549668831
 20
674.1754556760199
 30
0.0
 40
25.0
 41
0.0
 71
     5
 72
     1
  1
199
 11
0.0000000000000001
 21
1.0
 31
0.0
 73
     1
 44
1.0
1001
ACAD
1000
MTEXTBEGIN
1070
    73
1070
     1
1070
    44
1040
1.0
1070
    74
1070
     0
1000
MTEXTEND
  0
POINT
  5
1D64
330
15A7
100
AcDbEntity
  8
Defpoints
 62
     0
100
AcDbPoint
 10
903.5936297894718
 20
773.6754556760197
 30
0.0
  0
POINT
  5
1D65
330
15A7
100
AcDbEntity
  8
Defpoints
 62
     0
100
AcDbPoint
 10
903.5936297894718
 20
574.6754556760197
 30
0.0
  0
POINT
  5
1D66
330
15A7
100
AcDbEntity
  8
Defpoints
 62
     0
100
AcDbPoint
 10
745.9612549668832
 20
574.6754556760197
 30
0.0
  0
ENDBLK
  5
15B2
330
15A7
100
AcDbEntity
  8
0
100
AcDbBlockEnd
  0
BLOCK
  5
15BC
330
15B3
100
AcDbEntity
  8
0
100
AcDbBlockBegin
  2
*D20
 70
     1
 10
0.0
 20
0.0
 30
0.0
  3
*D20
  1

  0
LINE
  5
1D67
330
15B3
100
AcDbEntity
  8
寸法
 62
     0
370
    15
100
AcDbLine
 10
838.5936297894717
 20
589.6754556760197
 30
0.0
 11
784.7018793017647
 21
589.6754556760197
 31
0.0
  0
LINE
  5
1D68
330
15B3
100
AcDbEntity
  8
寸法
 62
     0
370
    15
100
AcDbLine
 10
838.5936297894717
 20
574.6754556760197
 30
0.0
 11
784.7018793017647
 21
574.6754556760197
 31
0.0
  0
LINE
  5
1D69
330
15B3
100
AcDbEntity
  8
寸法
 62
     0
370
    18
100
AcDbLine
 10
784.7018793017647
 20
589.6754556760197
 30
0.0
 11
784.7018793017647
 21
574.6754556760197
 31
0.0
  0
INSERT
  5
1D6A
330
15B3
100
AcDbEntity
  8
寸法
 62
     0
370
    18
100
AcDbBlockReference
  2
_DotSmall
 10
784.7018793017647
 20
589.6754556760197
 30
0.0
 41
35.0
 42
35.0
 43
35.0
 50
90.0
  0
INSERT
  5
1D6B
330
15B3
100
AcDbEntity
  8
寸法
 62
     0
370
    18
100
AcDbBlockReference
  2
_DotSmall
 10
784.7018793017647
 20
574.6754556760197
 30
0.0
 41
35.0
 42
35.0
 43
35.0
 50
270.0
  0
POINT
  5
1D6C
330
15B3
100
AcDbEntity
  8
Defpoints
 62
     0
100
AcDbPoint
 10
903.5936297894718
 20
589.6754556760197
 30
0.0
  0
POINT
  5
1D6D
330
15B3
100
AcDbEntity
  8
Defpoints
 62
     0
100
AcDbPoint
 10
903.5936297894718
 20
574.6754556760197
 30
0.0
  0
POINT
  5
1D6E
330
15B3
100
AcDbEntity
  8
Defpoints
 62
     0
100
AcDbPoint
 10
784.7018793017647
 20
574.6754556760197
 30
0.0
  0
ENDBLK
  5
15BD
330
15B3
100
AcDbEntity
  8
0
100
AcDbBlockEnd
  0
BLOCK
  5
180A
330
1800
100
AcDbEntity
  8
0
100
AcDbBlockBegin
  2
*D21
 70
     1
 10
0.0
 20
0.0
 30
0.0
  3
*D21
  1

  0
LINE
  5
1E42
330
1800
100
AcDbEntity
  8
寸法
 62
     0
370
    15
100
AcDbLine
 10
1200.988613654663
 20
1408.67545567602
 30
0.0
 11
1287.592469354855
 21
1408.67545567602
 31
0.0
  0
LINE
  5
1E43
330
1800
100
AcDbEntity
  8
寸法
 62
     0
370
    15
100
AcDbLine
 10
933.5936297894722
 20
1173.678331949444
 30
0.0
 11
1287.592469354855
 21
1173.678331949444
 31
0.0
  0
LINE
  5
1E44
330
1800
100
AcDbEntity
  8
寸法
 62
     0
370
    18
100
AcDbLine
 10
1287.592469354855
 20
1408.67545567602
 30
0.0
 11
1287.592469354855
 21
1173.678331949444
 31
0.0
  0
INSERT
  5
1E45
330
1800
100
AcDbEntity
  8
寸法
 62
     0
370
    18
100
AcDbBlockReference
  2
_DotSmall
 10
1287.592469354855
 20
1408.67545567602
 30
0.0
 41
35.0
 42
35.0
 43
35.0
 50
90.0
  0
INSERT
  5
1E46
330
1800
100
AcDbEntity
  8
寸法
 62
     0
370
    18
100
AcDbBlockReference
  2
_DotSmall
 10
1287.592469354855
 20
1173.678331949444
 30
0.0
 41
35.0
 42
35.0
 43
35.0
 50
270.0
  0
MTEXT
  5
1E47
330
1800
100
AcDbEntity
  8
寸法
 62
     0
100
AcDbMText
 10
1268.842469354855
 20
1291.176893812732
 30
0.0
 40
25.0
 41
0.0
 71
     5
 72
     1
  1
235
 11
0.0000000000000001
 21
1.0
 31
0.0
 73
     1
 44
1.0
1001
ACAD
1000
MTEXTBEGIN
1070
    73
1070
     1
1070
    44
1040
1.0
1070
    74
1070
     0
1000
MTEXTEND
  0
POINT
  5
1E48
330
1800
100
AcDbEntity
  8
Defpoints
 62
     0
100
AcDbPoint
 10
1135.988613654663
 20
1408.67545567602
 30
0.0
  0
POINT
  5
1E49
330
1800
100
AcDbEntity
  8
Defpoints
 62
     0
100
AcDbPoint
 10
868.5936297894722
 20
1173.678331949444
 30
0.0
  0
POINT
  5
1E4A
330
1800
100
AcDbEntity
  8
Defpoints
 62
     0
100
AcDbPoint
 10
1287.592469354855
 20
1173.678331949444
 30
0.0
  0
ENDBLK
  5
180B
330
1800
100
AcDbEntity
  8
0
100
AcDbBlockEnd
  0
ENDSEC
  0
SECTION
  2
ENTITIES
  0
LINE
  5
9C
330
1F
100
AcDbEntity
  8
0
100
AcDbLine
 10
4.0
 20
54.0
 30
0.0
 11
2784.0
 21
54.0
 31
0.0
  0
LINE
  5
9F
330
1F
100
AcDbEntity
  8
0
100
AcDbLine
 10
4.0
 20
1974.0
 30
0.0
 11
4.0
 21
54.0
 31
0.0
  0
LINE
  5
A0
330
1F
100
AcDbEntity
  8
0
100
AcDbLine
 10
2784.0
 20
1974.0
 30
0.0
 11
4.0
 21
1974.0
 31
0.0
  0
LINE
  5
A5
330
1F
100
AcDbEntity
  8
0
100
AcDbLine
 10
2784.0
 20
54.0
 30
0.0
 11
2784.0
 21
1974.0
 31
0.0
  0
TEXT
  5
8C9
330
1F
100
AcDbEntity
  8
0
100
AcDbText
 10
249.2632881086038
 20
163.4338719187744
 30
0.0
 40
30.0
  1
※実寸には製造上の誤差が多少生ずる場合があります。シンクの穴あけ加工は現物合わせにてお願いします。
100
AcDbText
  0
LINE
  5
128A
330
1F
100
AcDbEntity
  8
補助
100
AcDbLine
 10
659.7297531908716
 20
1703.67545567602
 30
0.0
 11
2017.898314451775
 21
1703.67545567602
 31
0.0
  0
LINE
  5
128C
330
1F
100
AcDbEntity
  8
補助
100
AcDbLine
 10
659.7297531908716
 20
1173.67545567602
 30
0.0
 11
2017.898314451775
 21
1173.67545567602
 31
0.0
  0
LINE
  5
128D
330
1F
100
AcDbEntity
  8
補助
100
AcDbLine
 10
659.7297531908716
 20
773.6754556760197
 30
0.0
 11
2017.898314451775
 21
773.6754556760197
 31
0.0
  0
LINE
  5
128F
330
1F
100
AcDbEntity
  8
補助
100
AcDbLine
 10
858.5936297894722
 20
1782.4117417374
 30
0.0
 11
858.5936297894722
 21
395.7943651104054
 31
0.0
  0
LINE
  5
1290
330
1F
100
AcDbEntity
  8
補助
100
AcDbLine
 10
1928.593629789472
 20
1782.4117417374
 30
0.0
 11
1928.593629789472
 21
395.7943651104054
 31
0.0
  0
LINE
  5
1292
330
1F
100
AcDbEntity
  8
補助
100
AcDbLine
 10
659.7297531908716
 20
1685.67545567602
 30
0.0
 11
2017.898314451775
 21
1685.67545567602
 31
0.0
  0
LINE
  5
1293
330
1F
100
AcDbEntity
  8
補助
100
AcDbLine
 10
659.7297531908716
 20
1191.67545567602
 30
0.0
 11
2017.898314451775
 21
1191.67545567602
 31
0.0
  0
LINE
  5
1294
330
1F
100
AcDbEntity
  8
補助
100
AcDbLine
 10
876.5936297894722
 20
1782.4117417374
 30
0.0
 11
876.5936297894722
 21
395.7943651104054
 31
0.0
  0
LINE
  5
1295
330
1F
100
AcDbEntity
  8
補助
100
AcDbLine
 10
1910.593629789472
 20
1782.4117417374
 30
0.0
 11
1910.593629789472
 21
395.7943651104054
 31
0.0
  0
DIMENSION
  5
12A2
330
1F
100
AcDbEntity
  8
寸法
100
AcDbDimension
  2
*D4
 10
703.9629018630797
 20
1685.67545567602
 30
0.0
 11
682.8907399845157
 21
1730.733502835174
 31
0.0
 70
   160
 71
     5
 42
18.0
  3
ISO-25
100
AcDbAlignedDimension
 13
858.5936297894722
 23
1703.67545567602
 33
0.0
 14
858.5936297894722
 24
1685.67545567602
 34
0.0
 50
90.0
100
AcDbRotatedDimension
1001
ACAD
1000
DSTYLE
1002
{
1070
   279
1070
     2
1070
   371
1070
    18
1070
   372
1070
    18
1002
}
  0
DIMENSION
  5
12E0
330
1F
100
AcDbEntity
  8
寸法
100
AcDbDimension
  2
*D5
 10
703.9629018630797
 20
1613.67545567602
 30
0.0
 11
701.7745007617341
 21
1649.86703319438
 31
0.0
 70
   160
 71
     5
 42
72.0
  3
ISO-25
100
AcDbAlignedDimension
 13
858.5936297894722
 23
1685.67545567602
 33
0.0
 14
858.5936297894722
 24
1613.67545567602
 34
0.0
 50
90.0
100
AcDbRotatedDimension
1001
ACAD
1000
DSTYLE
1002
{
1070
   279
1070
     1
1070
   371
1070
    18
1070
   372
1070
    18
1002
}
  0
DIMENSION
  5
12ED
330
1F
100
AcDbEntity
  8
寸法
100
AcDbDimension
  2
*D6
 10
703.9629018630797
 20
1191.67545567602
 30
0.0
 11
685.2129018630795
 21
1438.67545567602
 31
0.0
 70
    32
  1
410
 71
     5
 42
494.0
  3
ISO-25
100
AcDbAlignedDimension
 13
858.5936297894722
 23
1685.67545567602
 33
0.0
 14
858.5936297894722
 24
1191.67545567602
 34
0.0
 50
90.0
100
AcDbRotatedDimension
1001
ACAD
1000
DSTYLE
1002
{
1070
   279
1070
     1
1070
   371
1070
    18
1070
   372
1070
    18
1002
}
  0
DIMENSION
  5
12FA
330
1F
100
AcDbEntity
  8
寸法
100
AcDbDimension
  2
*D7
 10
703.9629018630797
 20
1173.67545567602
 30
0.0
 11
684.9282320064393
 21
1226.699952865491
 31
0.0
 70
   160
  1
12
 71
     5
 42
30.0
  3
ISO-25
100
AcDbAlignedDimension
 13
858.5936297894722
 23
1203.67545567602
 33
0.0
 14
858.5936297894722
 24
1173.67545567602
 34
0.0
 50
90.0
100
AcDbRotatedDimension
1001
ACAD
1000
DSTYLE
1002
{
1070
   279
1070
     2
1070
   371
1070
    18
1070
   372
1070
    18
1002
}
  0
DIMENSION
  5
1307
330
1F
100
AcDbEntity
  8
寸法
100
AcDbDimension
  2
*D8
 10
703.9629018630797
 20
1173.67545567602
 30
0.0
 11
707.1698646415296
 21
1143.103833519191
 31
0.0
 70
   160
 71
     5
 42
18.0
  3
ISO-25
100
AcDbAlignedDimension
 13
858.5936297894722
 23
1191.67545567602
 33
0.0
 14
858.5936297894722
 24
1173.67545567602
 34
0.0
 50
90.0
100
AcDbRotatedDimension
1001
ACAD
1000
DSTYLE
1002
{
1070
   279
1070
     1
1070
   371
1070
    18
1070
   372
1070
    18
1002
}
  0
DIMENSION
  5
132F
330
1F
100
AcDbEntity
  8
寸法
100
AcDbDimension
  2
*D9
 10
630.2509594618122
 20
1173.67545567602
 30
0.0
 11
611.5009594618121
 21
1438.67545567602
 31
0.0
 70
    32
 71
     5
 42
530.0
  3
ISO-25
100
AcDbAlignedDimension
 13
858.5936297894722
 23
1703.67545567602
 33
0.0
 14
858.5936297894722
 24
1173.67545567602
 34
0.0
 50
90.0
100
AcDbRotatedDimension
1001
ACAD
1000
DSTYLE
1002
{
1070
   371
1070
    18
1070
   372
1070
    18
1002
}
  0
DIMENSION
  5
134E
330
1F
100
AcDbEntity
  8
寸法
100
AcDbDimension
  2
*D10
 10
876.5936297894722
 20
1062.290944394732
 30
0.0
 11
822.8350914612281
 21
1073.70353727191
 31
0.0
 70
   160
 71
     5
 42
18.0
  3
ISO-25
100
AcDbAlignedDimension
 13
858.5936297894722
 23
1173.67545567602
 33
0.0
 14
876.5936297894722
 24
1173.67545567602
 34
0.0
100
AcDbRotatedDimension
1001
ACAD
1000
DSTYLE
1002
{
1070
   279
1070
     2
1070
   371
1070
    18
1070
   372
1070
    18
1002
}
  0
DIMENSION
  5
1382
330
1F
100
AcDbEntity
  8
寸法
100
AcDbDimension
  2
*D11
 10
928.5936297894723
 20
1062.290944394732
 30
0.0
 11
891.3618198663542
 21
1034.9007185773
 31
0.0
 70
   160
 71
     5
 42
52.0
  3
ISO-25
100
AcDbAlignedDimension
 13
876.5936297894722
 23
1173.67545567602
 33
0.0
 14
928.5936297894723
 24
1173.67545567602
 34
0.0
100
AcDbRotatedDimension
1001
ACAD
1000
DSTYLE
1002
{
1070
   279
1070
     2
1070
   371
1070
    18
1070
   372
1070
    18
1002
}
  0
DIMENSION
  5
13AD
330
1F
100
AcDbEntity
  8
寸法
100
AcDbDimension
  2
*D12
 10
1858.593629789472
 20
1062.290944394732
 30
0.0
 11
1393.593629789472
 21
1081.040944394732
 31
0.0
 70
    32
 71
     5
 42
930.0
  3
ISO-25
100
AcDbAlignedDimension
 13
928.5936297894723
 23
1173.67545567602
 33
0.0
 14
1858.593629789472
 24
1173.67545567602
 34
0.0
100
AcDbRotatedDimension
1001
ACAD
1000
DSTYLE
1002
{
1070
   279
1070
     1
1070
   371
1070
    18
1070
   372
1070
    18
1002
}
  0
DIMENSION
  5
13BA
330
1F
100
AcDbEntity
  8
寸法
100
AcDbDimension
  2
*D13
 10
1910.593629789472
 20
1062.290944394732
 30
0.0
 11
1897.231419637516
 21
1034.9007185773
 31
0.0
 70
   160
 71
     5
 42
51.99999999999977
  3
ISO-25
100
AcDbAlignedDimension
 13
1858.593629789472
 23
1173.67545567602
 33
0.0
 14
1910.593629789472
 24
1173.67545567602
 34
0.0
100
AcDbRotatedDimension
1001
ACAD
1000
DSTYLE
1002
{
1070
   279
1070
     2
1070
   371
1070
    18
1070
   372
1070
    18
1002
}
  0
DIMENSION
  5
13C9
330
1F
100
AcDbEntity
  8
寸法
100
AcDbDimension
  2
*D14
 10
1928.593629789472
 20
1062.290944394732
 30
0.0
 11
1963.473923762472
 21
1069.138497208834
 31
0.0
 70
   160
 71
     5
 42
18.0
  3
ISO-25
100
AcDbAlignedDimension
 13
1910.593629789472
 23
1173.67545567602
 33
0.0
 14
1928.593629789472
 24
1173.67545567602
 34
0.0
100
AcDbRotatedDimension
1001
ACAD
1000
DSTYLE
1002
{
1070
   279
1070
     2
1070
   371
1070
    18
1070
   372
1070
    18
1002
}
  0
DIMENSION
  5
1472
330
1F
100
AcDbEntity
  8
寸法
100
AcDbDimension
  2
*D15
 10
1928.593629789472
 20
982.4027942544844
 30
0.0
 11
1393.593629789472
 21
1001.152794254484
 31
0.0
 70
    32
 71
     5
 42
1070.0
  3
ISO-25
100
AcDbAlignedDimension
 13
858.5936297894722
 23
1173.67545567602
 33
0.0
 14
1928.593629789472
 24
1173.67545567602
 34
0.0
100
AcDbRotatedDimension
1001
ACAD
1000
DSTYLE
1002
{
1070
   371
1070
    18
1070
   372
1070
    18
1002
}
  0
LINE
  5
14A3
330
1F
100
AcDbEntity
  8
実形
100
AcDbLine
 10
1928.593629789472
 20
1693.678331949444
 30
0.0
 11
1928.593629789472
 21
1183.678331949444
 31
0.0
  0
LINE
  5
14A4
330
1F
100
AcDbEntity
  8
実形
100
AcDbLine
 10
1923.593629789472
 20
1693.678331949444
 30
0.0
 11
1923.593629789472
 21
1183.678331949444
 31
0.0
  0
LINE
  5
14A5
330
1F
100
AcDbEntity
  8
実形
100
AcDbLine
 10
1910.593629789472
 20
1221.678331949444
 30
0.0
 11
1910.593629789472
 21
1655.678331949444
 31
0.0
  0
LINE
  5
14A6
330
1F
100
AcDbEntity
  8
実形
100
AcDbLine
 10
1915.593629789472
 20
1221.678331949444
 30
0.0
 11
1915.593629789472
 21
1655.678331949444
 31
0.0
  0
ARC
  5
14A7
330
1F
100
AcDbEntity
  8
実形
100
AcDbCircle
 10
1880.593629789472
 20
1221.678331949444
 30
0.0
 40
30.0
100
AcDbArc
 50
270.0
 51
0.0
  0
ARC
  5
14A8
330
1F
100
AcDbEntity
  8
実形
100
AcDbCircle
 10
1880.593629789472
 20
1221.678331949444
 30
0.0
 40
35.0
100
AcDbArc
 50
270.0
 51
0.0
  0
LINE
  5
14A9
330
1F
100
AcDbEntity
  8
実形
100
AcDbLine
 10
1918.593629789472
 20
1178.678331949444
 30
0.0
 11
868.5936297894722
 21
1178.678331949444
 31
0.0
  0
ARC
  5
14AA
330
1F
100
AcDbEntity
  8
実形
100
AcDbCircle
 10
1918.593629789472
 20
1183.678331949444
 30
0.0
 40
5.0
100
AcDbArc
 50
270.0
 51
0.0
  0
ARC
  5
14AB
330
1F
100
AcDbEntity
  8
実形
100
AcDbCircle
 10
1918.593629789472
 20
1183.678331949444
 30
0.0
 40
10.0
100
AcDbArc
 50
270.0
 51
0.0
  0
LINE
  5
14AC
330
1F
100
AcDbEntity
  8
実形
100
AcDbLine
 10
906.5936297894721
 20
1191.678331949444
 30
0.0
 11
1880.593629789472
 21
1191.678331949444
 31
0.0
  0
LINE
  5
14AD
330
1F
100
AcDbEntity
  8
実形
100
AcDbLine
 10
906.5936297894721
 20
1186.678331949444
 30
0.0
 11
1880.593629789472
 21
1186.678331949444
 31
0.0
  0
LINE
  5
14AE
330
1F
100
AcDbEntity
  8
実形
100
AcDbLine
 10
1880.593629789472
 20
1690.678331949444
 30
0.0
 11
906.5936297894721
 21
1690.678331949444
 31
0.0
  0
LINE
  5
14AF
330
1F
100
AcDbEntity
  8
実形
100
AcDbLine
 10
868.5936297894722
 20
1698.678331949444
 30
0.0
 11
1918.593629789472
 21
1698.678331949444
 31
0.0
  0
LINE
  5
14B0
330
1F
100
AcDbEntity
  8
実形
100
AcDbLine
 10
868.5936297894722
 20
1703.678331949444
 30
0.0
 11
1918.593629789472
 21
1703.678331949444
 31
0.0
  0
LINE
  5
14B1
330
1F
100
AcDbEntity
  8
実形
100
AcDbLine
 10
1880.593629789472
 20
1685.678331949445
 30
0.0
 11
906.5936297894721
 21
1685.678331949445
 31
0.0
  0
ARC
  5
14B2
330
1F
100
AcDbEntity
  8
実形
100
AcDbCircle
 10
906.5936297894721
 20
1655.678331949444
 30
0.0
 40
35.0
100
AcDbArc
 50
90.0
 51
180.0
  0
ARC
  5
14B3
330
1F
100
AcDbEntity
  8
実形
100
AcDbCircle
 10
868.5936297894722
 20
1693.678331949444
 30
0.0
 40
5.0
100
AcDbArc
 50
90.0
 51
180.0
  0
ARC
  5
14B4
330
1F
100
AcDbEntity
  8
実形
100
AcDbCircle
 10
868.5936297894722
 20
1693.678331949444
 30
0.0
 40
10.0
100
AcDbArc
 50
90.0
 51
180.0
  0
ARC
  5
14B5
330
1F
100
AcDbEntity
  8
実形
100
AcDbCircle
 10
906.5936297894721
 20
1655.678331949444
 30
0.0
 40
30.0
100
AcDbArc
 50
90.0
 51
180.0
  0
ARC
  5
14B6
330
1F
100
AcDbEntity
  8
実形
100
AcDbCircle
 10
1880.593629789472
 20
1655.678331949444
 30
0.0
 40
35.0
100
AcDbArc
 50
0.0
 51
90.0
  0
ARC
  5
14B7
330
1F
100
AcDbEntity
  8
実形
100
AcDbCircle
 10
1918.593629789472
 20
1693.678331949444
 30
0.0
 40
5.0
100
AcDbArc
 50
0.0
 51
90.0
  0
ARC
  5
14B8
330
1F
100
AcDbEntity
  8
実形
100
AcDbCircle
 10
1918.593629789472
 20
1693.678331949444
 30
0.0
 40
10.0
100
AcDbArc
 50
0.0
 51
90.0
  0
ARC
  5
14B9
330
1F
100
AcDbEntity
  8
実形
100
AcDbCircle
 10
1880.593629789472
 20
1655.678331949444
 30
0.0
 40
30.0
100
AcDbArc
 50
0.0
 51
90.0
  0
LINE
  5
14BA
330
1F
100
AcDbEntity
  8
実形
100
AcDbLine
 10
871.5936297894721
 20
1655.678331949444
 30
0.0
 11
871.5936297894721
 21
1221.678331949444
 31
0.0
  0
LINE
  5
14BB
330
1F
100
AcDbEntity
  8
実形
100
AcDbLine
 10
863.5936297894721
 20
1183.678331949444
 30
0.0
 11
863.5936297894721
 21
1693.678331949444
 31
0.0
  0
LINE
  5
14BC
330
1F
100
AcDbEntity
  8
実形
100
AcDbLine
 10
858.5936297894722
 20
1183.678331949444
 30
0.0
 11
858.5936297894722
 21
1693.678331949444
 31
0.0
  0
LINE
  5
14BD
330
1F
100
AcDbEntity
  8
実形
100
AcDbLine
 10
876.5936297894722
 20
1655.678331949444
 30
0.0
 11
876.5936297894722
 21
1221.678331949444
 31
0.0
  0
ARC
  5
14BE
330
1F
100
AcDbEntity
  8
実形
100
AcDbCircle
 10
868.5936297894722
 20
1183.678331949444
 30
0.0
 40
5.0
100
AcDbArc
 50
180.0
 51
270.0
  0
ARC
  5
14BF
330
1F
100
AcDbEntity
  8
実形
100
AcDbCircle
 10
868.5936297894722
 20
1183.678331949444
 30
0.0
 40
10.0
100
AcDbArc
 50
180.0
 51
270.0
  0
ARC
  5
14C0
330
1F
100
AcDbEntity
  8
実形
100
AcDbCircle
 10
906.5936297894721
 20
1221.678331949444
 30
0.0
 40
35.0
100
AcDbArc
 50
180.0
 51
270.0
  0
ARC
  5
14C1
330
1F
100
AcDbEntity
  8
実形
100
AcDbCircle
 10
906.5936297894721
 20
1221.678331949444
 30
0.0
 40
30.0
100
AcDbArc
 50
180.0
 51
270.0
  0
LINE
  5
14C2
330
1F
100
AcDbEntity
  8
実形
100
AcDbLine
 10
1918.593629789472
 20
1173.678331949444
 30
0.0
 11
868.5936297894722
 21
1173.678331949444
 31
0.0
  0
LINE
  5
14C4
330
1F
100
AcDbEntity
  8
補助
100
AcDbLine
 10
868.5936297894722
 20
1703.678331949444
 30
0.0
 11
754.3164122758106
 21
1703.645462697068
 31
0.0
  0
LINE
  5
14C5
330
1F
100
AcDbEntity
  8
補助
100
AcDbLine
 10
858.5936297894722
 20
1693.678331949444
 30
0.0
 11
858.5936297894722
 21
1765.604206163142
 31
0.0
  0
LINE
  5
1549
330
1F
100
AcDbEntity
  8
センター
 48
0.8
370
    15
100
AcDbLine
 10
1214.132941600926
 20
1408.67545567602
 30
0.0
 11
943.054317978018
 21
1408.67545567602
 31
0.0
  0
CIRCLE
  5
154A
330
1F
100
AcDbEntity
  8
実形
100
AcDbCircle
 10
1078.593629789472
 20
1408.67545567602
 30
0.0
 40
90.5
  0
CIRCLE
  5
154B
330
1F
100
AcDbEntity
  8
実形
100
AcDbCircle
 10
1078.593629789472
 20
1408.67545567602
 30
0.0
 40
80.0
  0
LINE
  5
154E
330
1F
100
AcDbEntity
  8
センター
 48
0.8
370
    15
100
AcDbLine
 10
1078.593629789472
 20
1544.214767487474
 30
0.0
 11
1078.593629789472
 21
1273.136143864565
 31
0.0
  0
DIMENSION
  5
1560
330
1F
100
AcDbEntity
  8
寸法
100
AcDbDimension
  2
*D16
 10
858.5936297894722
 20
1815.539080112476
 30
0.0
 11
968.5936297894723
 21
1834.289080112476
 31
0.0
 70
    32
 71
     5
 42
220.0
  3
ISO-25
100
AcDbAlignedDimension
 13
1078.593629789472
 23
1440.218353240059
 33
0.0
 14
858.5936297894722
 24
1685.67545567602
 34
0.0
 50
180.0
100
AcDbRotatedDimension
1001
ACAD
1000
DSTYLE
1002
{
1070
   371
1070
    18
1002
}
  0
LINE
  5
1561
330
1F
100
AcDbEntity
  8
実形
100
AcDbLine
 10
1498.593629789472
 20
773.6754556760197
 30
0.0
 11
888.5936297894717
 21
773.6754556760197
 31
0.0
  0
DIMENSION
  5
1562
330
1F
100
AcDbEntity
  8
寸法
100
AcDbDimension
  2
*D17
 10
988.0936297894722
 20
407.0386498060178
 30
0.0
 11
1078.593629789472
 21
407.0386498060178
 31
0.0
 70
   160
 71
     5
 42
181.0
  3
ISO-25
100
AcDbAlignedDimension
 13
1169.093629789472
 23
564.6754556760197
 33
0.0
 14
988.0936297894722
 24
564.6754556760197
 34
0.0
 50
180.0
100
AcDbRotatedDimension
1001
ACAD
1000
DSTYLE
1002
{
1070
   371
1070
    18
1002
}
  0
DIMENSION
  5
1563
330
1F
100
AcDbEntity
  8
寸法
100
AcDbDimension
  2
*D18
 10
998.5936297894722
 20
448.2480483749468
 30
0.0
 11
1078.593629789472
 21
466.9980483749468
 31
0.0
 70
    32
 71
     5
 42
160.0
  3
ISO-25
100
AcDbAlignedDimension
 13
1158.593629789472
 23
564.6754556760197
 33
0.0
 14
998.5936297894722
 24
564.6754556760197
 34
0.0
 50
180.0
100
AcDbRotatedDimension
1001
ACAD
1000
DSTYLE
1002
{
1070
   371
1070
    18
1002
}
  0
LINE
  5
1564
330
1F
100
AcDbEntity
  8
実形
100
AcDbLine
 10
1169.093629789472
 20
564.6754556760197
 30
0.0
 11
988.0936297894722
 21
564.6754556760197
 31
0.0
  0
LINE
  5
1565
330
1F
100
AcDbEntity
  8
実形
100
AcDbLine
 10
1169.093629789472
 20
574.6754556760197
 30
0.0
 11
998.5936297894722
 21
574.6754556760197
 31
0.0
  0
LINE
  5
1566
330
1F
100
AcDbEntity
  8
実形
100
AcDbLine
 10
1498.593629789472
 20
773.6754556760197
 30
0.0
 11
888.5936297894717
 21
773.6754556760197
 31
0.0
  0
LINE
  5
1568
330
1F
100
AcDbEntity
  8
センター
 48
0.5
370
    15
100
AcDbLine
 10
1078.593629789472
 20
652.8920795514332
 30
0.0
 11
1078.593629789472
 21
496.476259244133
 31
0.0
  0
LINE
  5
156A
330
1F
100
AcDbEntity
  8
実形
100
AcDbLine
 10
1169.093629789472
 20
574.6754556760197
 30
0.0
 11
1169.093629789472
 21
564.6754556760197
 31
0.0
  0
LEADER
  5
156D
330
1F
100
AcDbEntity
  8
0
100
AcDbLeader
  3
ISO-25
 40
25.0
 41
16.66666666666666
 76
     2
 10
1841.968074564766
 20
609.8743603541687
 30
0.0
 10
1794.029576269716
 20
640.3565821186239
 30
0.0
213
0.0
223
-12.5
233
0.0
1001
ACAD
1000
DSTYLE
1002
{
1070
    41
1040
25.0
1070
   147
1040
6.25
1070
    77
1070
     0
1070
    73
1070
     1
1070
    74
1070
     1
1070
   279
1070
     1
1070
   342
1005
DA
1002
}
  0
DIMENSION
  5
156E
330
1F
100
AcDbEntity
  8
寸法
100
AcDbDimension
  2
*D19
 10
745.9612549668832
 20
574.6754556760197
 30
0.0
 11
727.2112549668831
 21
674.1754556760199
 31
0.0
 70
    32
 71
     5
 42
199.0
  3
ISO-25
100
AcDbAlignedDimension
 13
903.5936297894718
 23
773.6754556760197
 33
0.0
 14
903.5936297894718
 24
574.6754556760197
 34
0.0
 50
90.0
100
AcDbRotatedDimension
1001
ACAD
1000
DSTYLE
1002
{
1070
   371
1070
    18
1002
}
  0
LINE
  5
1570
330
1F
100
AcDbEntity
  8
実形
100
AcDbLine
 10
988.0936297894722
 20
564.6754556760197
 30
0.0
 11
988.0936297894722
 21
574.6754556760197
 31
0.0
  0
LINE
  5
1571
330
1F
100
AcDbEntity
  8
実形
100
AcDbLine
 10
988.0936297894722
 20
574.6754556760197
 30
0.0
 11
988.0936297894722
 21
574.6754556760197
 31
0.0
  0
LINE
  5
1572
330
1F
100
AcDbEntity
  8
実形
100
AcDbLine
 10
998.5936297894722
 20
574.6754556760197
 30
0.0
 11
988.0936297894722
 21
574.6754556760197
 31
0.0
  0
TEXT
  5
1573
330
1F
100
AcDbEntity
  8
寸法
370
    18
100
AcDbText
 10
806.262598288065
 20
515.3695724727851
 30
0.0
 40
25.0
  1
15
 50
90.0
100
AcDbText
  0
DIMENSION
  5
1574
330
1F
100
AcDbEntity
  8
寸法
100
AcDbDimension
  2
*D20
 10
784.7018793017647
 20
574.6754556760197
 30
0.0
 11
784.7018793017645
 21
582.17545567602
 31
0.0
 70
    32
  1
 
 71
     5
 42
15.0
  3
ISO-25
100
AcDbAlignedDimension
 13
903.5936297894718
 23
589.6754556760197
 33
0.0
 14
903.5936297894718
 24
574.6754556760197
 34
0.0
 50
90.0
100
AcDbRotatedDimension
1001
ACAD
1000
DSTYLE
1002
{
1070
   371
1070
    18
1002
}
  0
TEXT
  5
1576
330
1F
100
AcDbEntity
  8
寸法
100
AcDbText
 10
1720.23887989706
 20
639.3998290991945
 30
0.0
 40
25.0
  1
30R
100
AcDbText
  0
DIMENSION
  5
17B2
330
1F
100
AcDbEntity
  8
寸法
100
AcDbDimension
  2
*D21
 10
1287.592469354855
 20
1173.678331949444
 30
0.0
 11
1268.842469354855
 21
1291.176893812732
 31
0.0
 70
    32
 71
     5
 42
234.9971237265754
  3
ISO-25
100
AcDbAlignedDimension
 13
1135.988613654663
 23
1408.67545567602
 33
0.0
 14
868.5936297894722
 24
1173.678331949444
 34
0.0
 50
90.0
100
AcDbRotatedDimension
1001
ACAD
1000
DSTYLE
1002
{
1070
   371
1070
    18
1002
}
  0
LINE
  5
17BC
330
1F
100
AcDbEntity
  8
実形
100
AcDbLine
 10
1898.593629789472
 20
773.6754556760197
 30
0.0
 11
1508.593629789472
 21
773.6754556760197
 31
0.0
  0
LINE
  5
17BD
330
1F
100
AcDbEntity
  8
実形
100
AcDbLine
 10
1508.593629789472
 20
773.6754556760197
 30
0.0
 11
1898.593629789472
 21
773.6754556760197
 31
0.0
  0
LINE
  5
17BE
330
1F
100
AcDbEntity
  8
実形
100
AcDbLine
 10
1508.593629789472
 20
773.6754556760197
 30
0.0
 11
1898.593629789472
 21
773.6754556760197
 31
0.0
  0
LINE
  5
1961
330
1F
100
AcDbEntity
  8
補助
100
AcDbLine
 10
659.7297531908716
 20
574.6754556760197
 30
0.0
 11
2017.898314451775
 21
574.6754556760197
 31
0.0
  0
LINE
  5
1C45
330
1F
100
AcDbEntity
  8
実形
100
AcDbLine
 10
1915.593629789472
 20
763.6754556760197
 30
0.0
 11
871.5936297894721
 21
763.6754556760197
 31
0.0
  0
LINE
  5
1C46
330
1F
100
AcDbEntity
  8
実形
100
AcDbLine
 10
1923.593629789472
 20
778.6754556760197
 30
0.0
 11
863.5936297894721
 21
778.6754556760197
 31
0.0
  0
LINE
  5
1C47
330
1F
100
AcDbEntity
  8
実形
100
AcDbLine
 10
1928.593629789472
 20
773.6754556760197
 30
0.0
 11
858.5936297894722
 21
773.6754556760197
 31
0.0
  0
LINE
  5
1C48
330
1F
100
AcDbEntity
  8
実形
100
AcDbLine
 10
873.5936297894722
 20
773.6754556760197
 30
0.0
 11
1913.593629789472
 21
773.6754556760197
 31
0.0
  0
LINE
  5
1C49
330
1F
100
AcDbEntity
  8
実形
100
AcDbLine
 10
873.5936297894722
 20
773.6754556760197
 30
0.0
 11
1913.593629789472
 21
773.6754556760197
 31
0.0
  0
LINE
  5
1C4A
330
1F
100
AcDbEntity
  8
実形
100
AcDbLine
 10
871.5936297894721
 20
763.6754556760197
 30
0.0
 11
871.5936297894721
 21
773.6754556760197
 31
0.0
  0
LINE
  5
1C4B
330
1F
100
AcDbEntity
  8
実形
100
AcDbLine
 10
863.5936297894721
 20
778.6754556760197
 30
0.0
 11
858.5936297894722
 21
773.6754556760197
 31
0.0
  0
LINE
  5
1C4C
330
1F
100
AcDbEntity
  8
実形
100
AcDbLine
 10
1915.593629789472
 20
773.6754556760197
 30
0.0
 11
1915.593629789472
 21
763.6754556760197
 31
0.0
  0
LINE
  5
1C4D
330
1F
100
AcDbEntity
  8
実形
100
AcDbLine
 10
1923.593629789472
 20
778.6754556760197
 30
0.0
 11
1928.593629789472
 21
773.6754556760197
 31
0.0
  0
LINE
  5
1CA5
330
1F
100
AcDbEntity
  8
補助
100
AcDbLine
 10
659.7297531908716
 20
1613.67545567602
 30
0.0
 11
2017.898314451775
 21
1613.67545567602
 31
0.0
  0
LINE
  5
1CA6
330
1F
100
AcDbEntity
  8
補助
100
AcDbLine
 10
659.7297531908716
 20
1203.67545567602
 30
0.0
 11
2017.898314451775
 21
1203.67545567602
 31
0.0
  0
LINE
  5
1CA7
330
1F
100
AcDbEntity
  8
補助
100
AcDbLine
 10
928.5936297894723
 20
1782.4117417374
 30
0.0
 11
928.5936297894723
 21
395.7943651104054
 31
0.0
  0
LINE
  5
1CA8
330
1F
100
AcDbEntity
  8
補助
100
AcDbLine
 10
1858.593629789472
 20
1782.4117417374
 30
0.0
 11
1858.593629789472
 21
395.7943651104054
 31
0.0
  0
LINE
  5
1DB7
330
1F
100
AcDbEntity
  8
補助
100
AcDbLine
 10
659.7297531908716
 20
1408.67545567602
 30
0.0
 11
2017.898314451775
 21
1408.67545567602
 31
0.0
  0
LINE
  5
1DB8
330
1F
100
AcDbEntity
  8
補助
100
AcDbLine
 10
1078.593629789472
 20
1782.4117417374
 30
0.0
 11
1078.593629789472
 21
395.7943651104054
 31
0.0
  0
LINE
  5
1DF8
330
1F
100
AcDbEntity
  8
補助
100
AcDbLine
 10
659.7297531908716
 20
589.6754556760197
 30
0.0
 11
2017.898314451775
 21
589.6754556760197
 31
0.0
  0
LINE
  5
1DF9
330
1F
100
AcDbEntity
  8
実形
100
AcDbLine
 10
928.5936297894723
 20
763.6754556760197
 30
0.0
 11
928.5936297894719
 21
613.0510689351437
 31
0.0
  0
LINE
  5
1DFA
330
1F
100
AcDbEntity
  8
実形
100
AcDbLine
 10
951.2600570296903
 20
583.9612303213427
 30
0.0
 11
988.0936297894722
 21
574.6754556760197
 31
0.0
  0
LINE
  5
1DFB
330
1F
100
AcDbEntity
  8
実形
100
AcDbLine
 10
1169.093629789472
 20
574.6754556760197
 30
0.0
 11
1829.246122248946
 21
589.0370037353266
 31
0.0
  0
LINE
  5
1DFC
330
1F
100
AcDbEntity
  8
実形
100
AcDbLine
 10
1858.593629789472
 20
619.0299071224667
 30
0.0
 11
1858.593629789472
 21
763.6754556760197
 31
0.0
  0
ARC
  5
1DFD
330
1F
100
AcDbEntity
  8
実形
100
AcDbCircle
 10
1828.593629789472
 20
619.0299071224667
 30
0.0
 40
30.0
100
AcDbArc
 50
271.2462670743365
 51
0.0
  0
ARC
  5
1DFE
330
1F
100
AcDbEntity
  8
実形
100
AcDbCircle
 10
958.5936297894722
 20
613.0510689351437
 30
0.0
 40
30.0
100
AcDbArc
 50
180.0
 51
255.8505239136548
  0
ARC
  5
1E00
330
1F
100
AcDbEntity
  8
実形
100
AcDbCircle
 10
1393.593629789472
 20
6203.67545567602
 30
0.0
 40
5000.0
100
AcDbArc
 50
265.5619678070307
 51
274.4380321929693
  0
ARC
  5
1E01
330
1F
100
AcDbEntity
  8
実形
100
AcDbCircle
 10
1393.593629789472
 20
-3386.324544323981
 30
0.0
 40
5000.0
100
AcDbArc
 50
85.56196780703075
 51
94.43803219296922
  0
ARC
  5
1E03
330
1F
100
AcDbEntity
  8
実形
100
AcDbCircle
 10
2428.593629789472
 20
1408.67545567602
 30
0.0
 40
1500.0
100
AcDbArc
 50
175.5471103985196
 51
184.4528896014804
  0
ARC
  5
1E04
330
1F
100
AcDbEntity
  8
実形
100
AcDbCircle
 10
358.5936297894726
 20
1408.67545567602
 30
0.0
 40
1500.0
100
AcDbArc
 50
355.5471103985196
 51
4.452889601480396
  0
ARC
  5
1E05
330
1F
100
AcDbEntity
  8
実形
100
AcDbCircle
 10
1774.307371548066
 20
1518.923364481055
 30
0.0
 40
80.0
100
AcDbArc
 50
4.452889601480347
 51
85.5619678070308
  0
ARC
  5
1E06
330
1F
100
AcDbEntity
  8
実形
100
AcDbCircle
 10
1012.879888030879
 20
1518.923364481055
 30
0.0
 40
80.0
100
AcDbArc
 50
94.43803219296906
 51
175.5471103985196
  0
ARC
  5
1E07
330
1F
100
AcDbEntity
  8
実形
100
AcDbCircle
 10
1012.879888030879
 20
1298.427546870984
 30
0.0
 40
80.0
100
AcDbArc
 50
184.4528896014801
 51
265.5619678070284
  0
ARC
  5
1E08
330
1F
100
AcDbEntity
  8
実形
100
AcDbCircle
 10
1774.307371548066
 20
1298.427546870984
 30
0.0
 40
80.0
100
AcDbArc
 50
274.4380321929699
 51
355.547110398519
  0
TEXT
  5
1E80
330
1F
100
AcDbEntity
  8
実形
100
AcDbText
 10
2275.25
 20
1859.0
 30
0.0
 40
35.0
  1
SUS304
 72
     4
 11
2371.5
 21
1876.5
 31
0.0
100
AcDbText
  0
TEXT
  5
1E81
330
1F
100
AcDbEntity
  8
実形
100
AcDbText
 10
2090.666666666667
 20
1859.0
 30
0.0
 40
35.0
  1
天　板
 72
     4
 11
2149.0
 21
1876.5
 31
0.0
100
AcDbText
  0
LINE
  5
1E82
330
1F
100
AcDbEntity
  8
0
100
AcDbLine
 10
2509.0
 20
1779.0
 30
0.0
 11
2509.0
 21
1974.0
 31
0.0
  0
LINE
  5
1E83
330
1F
100
AcDbEntity
  8
0
100
AcDbLine
 10
2234.0
 20
1779.0
 30
0.0
 11
2234.0
 21
1974.0
 31
0.0
  0
LINE
  5
1E84
330
1F
100
AcDbEntity
  8
0
100
AcDbLine
 10
2064.0
 20
1779.0
 30
0.0
 11
2064.0
 21
1974.0
 31
0.0
  0
LINE
  5
1E85
330
1F
100
AcDbEntity
  8
0
100
AcDbLine
 10
2784.0
 20
1779.0
 30
0.0
 11
2064.0
 21
1779.0
 31
0.0
  0
LINE
  5
1E86
330
1F
100
AcDbEntity
  8
0
100
AcDbLine
 10
2784.0
 20
1844.0
 30
0.0
 11
2064.0
 21
1844.0
 31
0.0
  0
TEXT
  5
1E87
330
1F
100
AcDbEntity
  8
実形
100
AcDbText
 10
2572.416666666667
 20
1794.0
 30
0.0
 40
35.0
  1
0.7ｍｍ
 72
     4
 11
2646.5
 21
1811.5
 31
0.0
100
AcDbText
  0
TEXT
  5
1E88
330
1F
100
AcDbEntity
  8
実形
100
AcDbText
 10
2275.25
 20
1794.0
 30
0.0
 40
35.0
  1
SUS304
 72
     4
 11
2371.5
 21
1811.5
 31
0.0
100
AcDbText
  0
TEXT
  5
1E89
330
1F
100
AcDbEntity
  8
実形
100
AcDbText
 10
2089.5
 20
1792.833333333333
 30
0.0
 40
35.0
  1
ボール
 72
     4
 11
2149.0
 21
1811.5
 31
0.0
100
AcDbText
  0
LINE
  5
1E8A
330
1F
100
AcDbEntity
  8
0
100
AcDbLine
 10
2784.0
 20
1909.0
 30
0.0
 11
2064.0
 21
1909.0
 31
0.0
  0
TEXT
  5
1E8B
330
1F
100
AcDbEntity
  8
実形
100
AcDbText
 10
2567.166666666667
 20
1924.0
 30
0.0
 40
35.0
  1
素材寸法
 72
     4
 11
2646.5
 21
1941.5
 31
0.0
100
AcDbText
  0
TEXT
  5
1E8C
330
1F
100
AcDbEntity
  8
実形
100
AcDbText
 10
2334.166666666666
 20
1924.0
 30
0.0
 40
35.0
  1
材質
 72
     4
 11
2371.5
 21
1941.5
 31
0.0
100
AcDbText
  0
TEXT
  5
1E8D
330
1F
100
AcDbEntity
  8
実形
100
AcDbText
 10
2091.833333333334
 20
1924.0
 30
0.0
 40
35.0
  1
部品名
 72
     4
 11
2149.0
 21
1941.5
 31
0.0
100
AcDbText
  0
TEXT
  5
1E8E
330
1F
100
AcDbEntity
  8
実形
100
AcDbText
 10
2086.666666666667
 20
134.0
 30
0.0
 40
35.0
  1
尺度
 72
     4
 11
2124.0
 21
151.5
 31
0.0
100
AcDbText
  0
TEXT
  5
1E8F
330
1F
100
AcDbEntity
  8
実形
100
AcDbText
 10
2086.666666666667
 20
199.0
 30
0.0
 40
35.0
  1
品番
 72
     4
 11
2124.0
 21
216.5
 31
0.0
100
AcDbText
  0
LINE
  5
1E90
330
1F
100
AcDbEntity
  8
0
100
AcDbLine
 10
2064.0
 20
119.0
 30
0.0
 11
2784.0
 21
119.0
 31
0.0
  0
LINE
  5
1E91
330
1F
100
AcDbEntity
  8
0
100
AcDbLine
 10
2064.0
 20
249.0
 30
0.0
 11
2784.0
 21
249.0
 31
0.0
  0
LINE
  5
1E92
330
1F
100
AcDbEntity
  8
0
100
AcDbLine
 10
2064.0
 20
184.0
 30
0.0
 11
2784.0
 21
184.0
 31
0.0
  0
LINE
  5
1E93
330
1F
100
AcDbEntity
  8
0
100
AcDbLine
 10
2064.0
 20
54.0
 30
0.0
 11
2064.0
 21
249.0
 31
0.0
  0
TEXT
  5
1E95
330
1F
100
AcDbEntity
  8
0
100
AcDbText
 10
2259.416666666667
 20
199.0
 30
0.0
 40
35.0
  1
HLm/m1070-530S
 72
     4
 11
2484.0
 21
216.5
 31
0.0
100
AcDbText
  0
LINE
  5
1E96
330
1F
100
AcDbEntity
  8
0
100
AcDbLine
 10
2184.0
 20
119.0
 30
0.0
 11
2784.0
 21
119.0
 31
0.0
  0
LINE
  5
1EA5
330
1F
100
AcDbEntity
  8
0
100
AcDbLine
 10
2184.0
 20
119.0
 30
0.0
 11
2184.0
 21
249.0
 31
0.0
  0
TEXT
  5
1EA6
330
1F
100
AcDbEntity
  8
0
100
AcDbText
 10
2430.916666666667
 20
134.0
 30
0.0
 40
35.0
  1
1：10
 72
     4
 11
2484.0
 21
151.5
 31
0.0
100
AcDbText
  0
LINE
  5
1EA7
330
1F
100
AcDbEntity
  8
Cen
100
AcDbLine
 10
2784.0
 20
119.0
 30
0.0
 11
2784.0
 21
184.0
 31
0.0
  0
LINE
  5
1EA8
330
1F
100
AcDbEntity
  8
0
100
AcDbLine
 10
2784.0
 20
184.0
 30
0.0
 11
2784.0
 21
249.0
 31
0.0
  0
LINE
  5
1EA9
330
1F
100
AcDbEntity
  8
0
100
AcDbLine
 10
2784.0
 20
54.0
 30
0.0
 11
2784.0
 21
119.0
 31
0.0
  0
TEXT
  5
1EAA
330
1F
100
AcDbEntity
  8
実形
100
AcDbText
 10
2578.25
 20
1859.0
 30
0.0
 40
35.0
  1
1.0ｍｍ
 72
     4
 11
2646.5
 21
1876.5
 31
0.0
100
AcDbText
  0
MTEXT
  5
1EE7
330
1F
100
AcDbEntity
  8
実形
100
AcDbMText
 10
2169.893337523035
 20
114.0673602451716
 30
0.0
 40
45.0
 41
0.0
 71
     1
 72
     5
  1
{\fArial|b0|i0|c0|p34;e}
 73
     1
 44
1.0
1001
ACAD
1000
MTEXTBEGIN
1070
    73
1070
     1
1070
    44
1040
1.0
1070
    74
1070
     0
1000
MTEXTEND
  0
MTEXT
  5
1EE8
330
1F
100
AcDbEntity
  8
実形
100
AcDbMText
 10
2214.046535204274
 20
104.2599732296757
 30
0.0
 40
35.0
 41
0.0
 71
     1
 72
     5
  1
-{\fArial|b0|i0|c0|p32;KITCHEN}
 73
     1
 44
1.0
1001
ACAD
1000
MTEXTBEGIN
1070
    73
1070
     1
1070
    44
1040
1.0
1070
    74
1070
     0
1000
MTEXTEND
  0
MTEXT
  5
1EE9
330
1F
100
AcDbEntity
  8
実形
100
AcDbMText
 10
2471.606888488641
 20
84.64520603611891
 30
0.0
 40
15.0
 41
0.0
 71
     1
 72
     5
  1
{\fArial|b0|i0|c0|p32;U-ARCHITECTURE WORKS}
 73
     1
 44
1.0
1001
ACAD
1000
MTEXTBEGIN
1070
    73
1070
     1
1070
    44
1040
1.0
1070
    74
1070
     0
1000
MTEXTEND
  0
MTEXT
  5
1EF1
330
1F
100
AcDbEntity
  8
実形
100
AcDbMText
 10
2639.060385081255
 20
107.6136878640636
 30
0.0
 40
15.0
 41
0.0
 71
     1
 72
     5
  1
{\fArial|b0|i0|c0|p32;e-reform.jp}
 73
     1
 44
1.0
1001
ACAD
1000
MTEXTBEGIN
1070
    73
1070
     1
1070
    44
1040
1.0
1070
    74
1070
     0
1000
MTEXTEND
  0
VIEWPORT
  5
2E
102
{ACAD_XDICTIONARY
360
1F88
102
}
330
1B
100
AcDbEntity
 67
     1
  8
0
100
AcDbViewport
 10
144.7270812988281
 20
101.2295806407928
 30
0.0
 40
411.6736216682419
 41
222.1517806396485
 68
     1
 69
     1
 12
144.7270812988281
 22
101.2295806407928
 13
0.0
 23
0.0
 14
10.0
 24
10.0
 15
10.0
 25
10.0
 16
0.0
 26
0.0
 36
1.0
 17
0.0
 27
0.0
 37
0.0
 42
50.0
 43
0.0
 44
0.0
 45
222.1517806396485
 50
0.0
 51
0.0
 72
   100
 90
    32800
  1

281
     0
 71
     1
 74
     0
110
0.0
120
0.0
130
0.0
111
1.0
121
0.0
131
0.0
112
0.0
122
1.0
132
0.0
 79
     0
146
0.0
  0
VIEWPORT
  5
30
102
{ACAD_XDICTIONARY
360
1F8A
102
}
330
1B
100
AcDbEntity
 67
     1
  8
0
100
AcDbViewport
 10
139.2237563133239
 20
101.2295821905136
 30
0.0
 40
222.7580101013184
 41
161.9673315048218
 68
     2
 69
     2
 12
210.0
 22
148.5
 13
0.0
 23
0.0
 14
10.0
 24
10.0
 15
10.0
 25
10.0
 16
0.0
 26
0.0
 36
1.0
 17
0.0
 27
0.0
 37
0.0
 42
50.0
 43
0.0
 44
0.0
 45
309.0686705647124
 50
0.0
 51
0.0
 72
   100
 90
    32864
  1

281
     0
 71
     1
 74
     0
110
0.0
120
0.0
130
0.0
111
1.0
121
0.0
131
0.0
112
0.0
122
1.0
132
0.0
 79
     0
146
0.0
  0
ENDSEC
  0
SECTION
  2
OBJECTS
  0
DICTIONARY
  5
C
330
0
100
AcDbDictionary
281
     1
  3
ACAD_COLOR
350
1EAF
  3
ACAD_GROUP
350
D
  3
ACAD_LAYOUT
350
1A
  3
ACAD_MATERIAL
350
1EAE
  3
ACAD_MLINESTYLE
350
17
  3
ACAD_PLOTSETTINGS
350
19
  3
ACAD_PLOTSTYLENAME
350
E
  3
AcadDim
350
124
  3
ACDBHEADERROUNDTRIPXREC
350
1F7F
  3
AcDbVariableDictionary
350
1055
  3
ASE_INDEX_DICTIONARY
350
1F29
  3
DWGPROPS
350
1F7E
  0
DICTIONARY
  5
1EDA
330
2
100
AcDbDictionary
280
     1
281
     1
  3
ACAD_LAYERSTATES
360
1EDB
  0
DICTIONARY
  5
1F88
330
2E
100
AcDbDictionary
280
     1
281
     1
  3
ACAD_XREC_ROUNDTRIP
360
1F89
  0
DICTIONARY
  5
1F8A
330
30
100
AcDbDictionary
280
     1
281
     1
  3
ACAD_XREC_ROUNDTRIP
360
1F8B
  0
DICTIONARY
  5
1EAF
102
{ACAD_REACTORS
330
C
102
}
330
C
100
AcDbDictionary
281
     1
  0
DICTIONARY
  5
D
102
{ACAD_REACTORS
330
C
102
}
330
C
100
AcDbDictionary
281
     1
  0
DICTIONARY
  5
1A
102
{ACAD_REACTORS
330
C
102
}
330
C
100
AcDbDictionary
281
     1
  3
Model
350
22
  3
ﾚｲｱｳﾄ1
350
1E
  3
ﾚｲｱｳﾄ2
350
26
  0
DICTIONARY
  5
1EAE
102
{ACAD_REACTORS
330
C
102
}
330
C
100
AcDbDictionary
281
     1
  0
DICTIONARY
  5
17
102
{ACAD_REACTORS
330
C
102
}
330
C
100
AcDbDictionary
281
     1
  3
Standard
350
18
  0
DICTIONARY
  5
19
102
{ACAD_REACTORS
330
C
102
}
330
C
100
AcDbDictionary
281
     1
  0
ACDBDICTIONARYWDFLT
  5
E
102
{ACAD_REACTORS
330
C
102
}
330
C
100
AcDbDictionary
281
     1
  3
Normal
350
F
100
AcDbDictionaryWithDefault
340
F
  0
XRECORD
  5
124
102
{ACAD_REACTORS
330
C
102
}
330
C
100
AcDbXrecord
280
     1
 90
   990106
  3

 60
     0
 61
     0
 62
     1
 63
     3
 64
     0
 65
     0
 66
     0
 67
     3
 68
     1
 69
     0
 70
     0
 71
     0
 72
     0
 40
30.0
170
     0
  0
DICTIONARY
  5
1F7F
102
{ACAD_REACTORS
330
C
102
}
330
C
100
AcDbDictionary
281
     1
  3
COLORDICT
350
1F81
  3
MATERIALDICT
350
1F80
  0
DICTIONARY
  5
1055
102
{ACAD_REACTORS
330
C
102
}
330
C
100
AcDbDictionary
281
     1
  3
DIMASSOC
350
1EC0
  3
PROJECTNAME
350
1EC1
  3
SORTENTS
350
1056
  0
DICTIONARY
  5
1F29
102
{ACAD_REACTORS
330
C
102
}
330
C
100
AcDbDictionary
281
     1
  3
ASEBlockHierarchyIndexRecord
350
1F2A
1001
DCO15
1040
1558326098.405
  0
XRECORD
  5
1F7E
102
{ACAD_REACTORS
330
C
102
}
330
C
100
AcDbXrecord
280
     1
  1
DWGPROPS COOKIE
  2

  3

  4

  6

  7

  8
山崎　広絵
  9

300
=
301
=
302
=
303
=
304
=
305
=
306
=
307
=
308
=
309
=
 40
0.6535600347222223
 41
2451673.575802199
 42
2454194.58321162
  1

 90
        0
  0
DICTIONARY
  5
1EDB
102
{ACAD_REACTORS
330
1EDA
102
}
330
1EDA
100
AcDbDictionary
281
     1
  0
XRECORD
  5
1F89
102
{ACAD_REACTORS
330
1F88
102
}
330
1F88
100
AcDbXrecord
280
     1
102
SHADEPLOT
 70
     0
  0
XRECORD
  5
1F8B
102
{ACAD_REACTORS
330
1F8A
102
}
330
1F8A
100
AcDbXrecord
280
     1
102
SHADEPLOT
 70
     0
  0
LAYOUT
  5
22
102
{ACAD_XDICTIONARY
360
1F84
102
}
102
{ACAD_REACTORS
330
1A
102
}
330
1A
100
AcDbPlotSettings
  1

  2
Adobe PDF
  4
User32767
  6

 40
3.174999952316282
 41
3.174999952316282
 42
3.175003051757812
 43
3.17498779296875
 44
210.0
 45
297.0
 46
0.73
 47
6.2
 48
0.0
 49
0.0
140
0.0
141
0.0
142
1.0
143
10.0
 70
 11956
 72
     1
 73
     1
 74
     1
  7

 75
    20
147
0.1
148
-3.625557436171218
149
-2.563525459925585
100
AcDbLayout
  1
Model
 70
     1
 71
     0
 10
0.0
 20
0.0
 11
12.0
 21
9.0
 12
0.0
 22
0.0
 32
0.0
 14
0.0
 24
0.0
 34
0.0
 15
0.0
 25
0.0
 35
0.0
146
0.0
 13
0.0
 23
0.0
 33
0.0
 16
1.0
 26
0.0
 36
0.0
 17
0.0
 27
1.0
 37
0.0
 76
     0
330
1F
  0
LAYOUT
  5
1E
102
{ACAD_XDICTIONARY
360
1F82
102
}
102
{ACAD_REACTORS
330
1A
102
}
330
1A
100
AcDbPlotSettings
  1

  2
EPSON PM-800C
  4
A4
  6

 40
3.757083177566528
 41
14.7637300491333
 42
3.757080078125
 43
3.757080078125
 44
209.9733276367186
 45
296.9683227539062
 46
0.0
 47
0.0
 48
0.0
 49
0.0
140
0.0
141
0.0
142
1.0
143
1.0
 70
   688
 72
     1
 73
     1
 74
     5
  7

 75
    16
147
1.0
148
0.0
149
0.0
100
AcDbLayout
  1
ﾚｲｱｳﾄ1
 70
     1
 71
     1
 10
-3.757080078125
 20
-3.757083177566528
 11
293.2112426757813
 21
206.2162444591522
 12
0.0
 22
0.0
 32
0.0
 14
27.8447512626648
 24
20.24591643810271
 34
0.0
 15
250.6027613639831
 25
182.2132479429245
 35
0.0
146
0.0
 13
0.0
 23
0.0
 33
0.0
 16
1.0
 26
0.0
 36
0.0
 17
0.0
 27
1.0
 37
0.0
 76
     0
330
1B
331
2E
  0
LAYOUT
  5
26
102
{ACAD_XDICTIONARY
360
1F86
102
}
102
{ACAD_REACTORS
330
1A
102
}
330
1A
100
AcDbPlotSettings
  1

  2
EPSON PM-800C
  4

  6

 40
0.0
 41
0.0
 42
0.0
 43
0.0
 44
0.0
 45
0.0
 46
0.0
 47
0.0
 48
0.0
 49
0.0
140
0.0
141
0.0
142
1.0
143
1.0
 70
   688
 72
     0
 73
     0
 74
     5
  7

 75
    16
147
1.0
148
0.0
149
0.0
100
AcDbLayout
  1
ﾚｲｱｳﾄ2
 70
     1
 71
     2
 10
0.0
 20
0.0
 11
12.0
 21
9.0
 12
0.0
 22
0.0
 32
0.0
 14
0.0
 24
0.0
 34
0.0
 15
0.0
 25
0.0
 35
0.0
146
0.0
 13
0.0
 23
0.0
 33
0.0
 16
1.0
 26
0.0
 36
0.0
 17
0.0
 27
1.0
 37
0.0
 76
     0
330
23
  0
MLINESTYLE
  5
18
102
{ACAD_REACTORS
330
17
102
}
330
17
100
AcDbMlineStyle
  2
STANDARD
 70
     0
  3

 62
   256
 51
90.0
 52
90.0
 71
     2
 49
0.5
 62
   256
  6
BYLAYER
 49
-0.5
 62
   256
  6
BYLAYER
  0
ACDBPLACEHOLDER
  5
F
102
{ACAD_REACTORS
330
E
102
}
330
E
  0
XRECORD
  5
1F81
102
{ACAD_REACTORS
330
1F7F
102
}
330
1F7F
100
AcDbXrecord
280
     1
340
1EAF
  0
XRECORD
  5
1F80
102
{ACAD_REACTORS
330
1F7F
102
}
330
1F7F
100
AcDbXrecord
280
     1
340
1EAE
  0
DICTIONARYVAR
  5
1EC0
102
{ACAD_REACTORS
330
1055
102
}
330
1055
100
DictionaryVariables
280
     0
  1
1
  0
DICTIONARYVAR
  5
1EC1
102
{ACAD_REACTORS
330
1055
102
}
330
1055
100
DictionaryVariables
280
     0
  1

  0
DICTIONARYVAR
  5
1056
102
{ACAD_REACTORS
330
1055
102
}
330
1055
100
DictionaryVariables
280
     0
  1
96
  0
XRECORD
  5
1F2A
102
{ACAD_REACTORS
330
1F29
102
}
330
1F29
100
AcDbXrecord
280
     1
330
1DB2
330
1DB3
330
1DA9
330
1DAA
330
1D72
330
1D73
330
1DA0
330
1DA1
330
1D97
330
1D98
330
1D7B
330
1D7C
330
1D8E
330
1D8F
330
1D85
330
1D86
330
1D4F
330
1D50
330
1D47
330
1D48
330
1C12
330
1C13
330
1D58
330
1D59
330
1E3C
330
1E3D
330
1DF2
330
1DF3
330
1DE9
330
1DEA
330
1D61
330
1D62
330
1D6A
330
1D6B
330
1E45
330
1E46
  0
DICTIONARY
  5
1F84
330
22
100
AcDbDictionary
280
     1
281
     1
  3
ACAD_XREC_ROUNDTRIP
360
1F85
  0
DICTIONARY
  5
1F82
330
1E
100
AcDbDictionary
280
     1
281
     1
  3
ACAD_XREC_ROUNDTRIP
360
1F83
  0
DICTIONARY
  5
1F86
330
26
100
AcDbDictionary
280
     1
281
     1
  3
ACAD_XREC_ROUNDTRIP
360
1F87
  0
XRECORD
  5
1F85
102
{ACAD_REACTORS
330
1F84
102
}
330
1F84
100
AcDbXrecord
280
     1
102
SHADEPLOT
 70
     0
102
SHADEPLOTRESLEVEL
 70
     2
102
SHADEPLOTCUSTOMDPI
 70
   300
  0
XRECORD
  5
1F83
102
{ACAD_REACTORS
330
1F82
102
}
330
1F82
100
AcDbXrecord
280
     1
102
SHADEPLOT
 70
     0
102
SHADEPLOTRESLEVEL
 70
     2
102
SHADEPLOTCUSTOMDPI
 70
   300
  0
XRECORD
  5
1F87
102
{ACAD_REACTORS
330
1F86
102
}
330
1F86
100
AcDbXrecord
280
     1
102
SHADEPLOT
 70
     0
102
SHADEPLOTRESLEVEL
 70
     2
102
SHADEPLOTCUSTOMDPI
 70
   300
  0
ENDSEC
  0
EOF
