  0
SECTION
  2
HEADER
  9
$ACADVER
  1
AC1009
  9
$INSBASE
 10
0.0
 20
0.0
 30
0.0
  9
$EXTMIN
 10
12549.19194483337
 20
9218.7892906564521
 30
-0.0015258207003583
  9
$EXTMAX
 10
15330.46787016614
 20
11062.952255805531
 30
0.0000000349246037
  9
$LIMMIN
 10
0.0
 20
0.0
  9
$LIMMAX
 10
0.0
 20
0.0
  9
$ORTHOMODE
 70
     0
  9
$REGENMODE
 70
     1
  9
$FILLMODE
 70
     1
  9
$QTEXTMODE
 70
     0
  9
$MIRRTEXT
 70
     1
  9
$DRAGMODE
 70
     2
  9
$LTSCALE
 40
127.0
  9
$OSMODE
 70
    37
  9
$ATTMODE
 70
     1
  9
$TEXTSIZE
 40
0.0
  9
$TRACEWID
 40
1.0
  9
$TEXTSTYLE
  7
STANDARD
  9
$CLAYER
  8
寸法
  9
$CELTYPE
  6
CONTINUOUS
  9
$CECOLOR
 62
   256
  9
$DIMSCALE
 40
1.0
  9
$DIMASZ
 40
35.0
  9
$DIMEXO
 40
65.0
  9
$DIMDLI
 40
3.75
  9
$DIMRND
 40
0.0
  9
$DIMDLE
 40
0.0
  9
$DIMEXE
 40
0.0
  9
$DIMTP
 40
0.0
  9
$DIMTM
 40
0.0
  9
$DIMTXT
 40
25.0
  9
$DIMCEN
 40
2.5
  9
$DIMTSZ
 40
0.0
  9
$DIMTOL
 70
     0
  9
$DIMLIM
 70
     0
  9
$DIMTIH
 70
     0
  9
$DIMTOH
 70
     0
  9
$DIMSE1
 70
     0
  9
$DIMSE2
 70
     0
  9
$DIMTAD
 70
     1
  9
$DIMZIN
 70
     8
  9
$DIMBLK
  1
DOTSMALL
  9
$DIMASO
 70
     1
  9
$DIMSHO
 70
     1
  9
$DIMPOST
  1

  9
$DIMAPOST
  1

  9
$DIMALT
 70
     0
  9
$DIMALTD
 70
     3
  9
$DIMALTF
 40
0.03937007874016
  9
$DIMLFAC
 40
1.0
  9
$DIMTOFL
 70
     1
  9
$DIMTVP
 40
0.0
  9
$DIMTIX
 70
     0
  9
$DIMSOXD
 70
     0
  9
$DIMSAH
 70
     0
  9
$DIMBLK1
  1

  9
$DIMBLK2
  1

  9
$DIMSTYLE
  2
ISO-25
  9
$DIMCLRD
 70
     0
  9
$DIMCLRE
 70
     0
  9
$DIMCLRT
 70
     0
  9
$DIMTFAC
 40
1.0
  9
$DIMGAP
 40
6.25
  9
$LUNITS
 70
     2
  9
$LUPREC
 70
     4
  9
$SKETCHINC
 40
0.1
  9
$FILLETRAD
 40
0.0
  9
$AUNITS
 70
     0
  9
$AUPREC
 70
     0
  9
$MENU
  1
acad
  9
$ELEVATION
 40
0.0
  9
$PELEVATION
 40
0.0
  9
$THICKNESS
 40
0.0
  9
$LIMCHECK
 70
     0
  9
$BLIPMODE
 70
     0
  9
$CHAMFERA
 40
0.0
  9
$CHAMFERB
 40
0.0
  9
$SKPOLY
 70
     0
  9
$TDCREATE
 40
2453808.7762500001
  9
$TDUPDATE
 40
2454203.5974224079
  9
$TDINDWG
 40
0.0903698264
  9
$TDUSRTIMER
 40
0.0903645718
  9
$USRTIMER
 70
     1
  9
$ANGBASE
 50
0.0
  9
$ANGDIR
 70
     0
  9
$PDMODE
 70
     1
  9
$PDSIZE
 40
-2.0
  9
$PLINEWID
 40
0.0
  9
$COORDS
 70
     0
  9
$SPLFRAME
 70
     0
  9
$SPLINETYPE
 70
     6
  9
$SPLINESEGS
 70
     8
  9
$ATTDIA
 70
     0
  9
$ATTREQ
 70
     1
  9
$HANDLING
 70
     1
  9
$HANDSEED
  5
7D0
  9
$SURFTAB1
 70
     6
  9
$SURFTAB2
 70
     6
  9
$SURFTYPE
 70
     6
  9
$SURFU
 70
     6
  9
$SURFV
 70
     6
  9
$UCSNAME
  2

  9
$UCSORG
 10
0.0
 20
0.0
 30
0.0
  9
$UCSXDIR
 10
1.0
 20
0.0
 30
0.0
  9
$UCSYDIR
 10
0.0
 20
1.0
 30
0.0
  9
$PUCSNAME
  2

  9
$PUCSORG
 10
0.0
 20
0.0
 30
0.0
  9
$PUCSXDIR
 10
1.0
 20
0.0
 30
0.0
  9
$PUCSYDIR
 10
0.0
 20
1.0
 30
0.0
  9
$USERI1
 70
     0
  9
$USERI2
 70
     0
  9
$USERI3
 70
     0
  9
$USERI4
 70
     0
  9
$USERI5
 70
     0
  9
$USERR1
 40
0.0
  9
$USERR2
 40
0.0
  9
$USERR3
 40
0.0
  9
$USERR4
 40
0.0
  9
$USERR5
 40
0.0
  9
$WORLDVIEW
 70
     1
  9
$SHADEDGE
 70
     3
  9
$SHADEDIF
 70
    70
  9
$TILEMODE
 70
     1
  9
$MAXACTVP
 70
    16
  9
$PLIMCHECK
 70
     0
  9
$PEXTMIN
 10
1.0000000000000000E+020
 20
1.0000000000000000E+020
 30
1.0000000000000000E+020
  9
$PEXTMAX
 10
-1.0000000000000000E+020
 20
-1.0000000000000000E+020
 30
-1.0000000000000000E+020
  9
$PLIMMIN
 10
0.0
 20
0.0
  9
$PLIMMAX
 10
12.0
 20
9.0
  9
$UNITMODE
 70
     0
  9
$VISRETAIN
 70
     0
  9
$PLINEGEN
 70
     1
  9
$PSLTSCALE
 70
     0
  0
ENDSEC
  0
SECTION
  2
TABLES
  0
TABLE
  2
VPORT
 70
     4
  0
VPORT
  2
*ACTIVE
 70
     0
 10
0.0
 20
0.0
 11
1.0
 21
1.0
 12
13939.82990749975
 22
10140.87077323099
 13
0.0
 23
0.0
 14
1.0
 24
1.0
 15
0.0
 25
0.0
 16
0.0
 26
0.0
 36
1.0
 17
0.0
 27
0.0
 37
0.0
 40
2126.0987677562889
 41
1.316069057104913
 42
50.0
 43
0.0
 44
0.0
 50
0.0
 51
0.0
 71
     0
 72
   100
 73
     1
 74
     1
 75
     1
 76
     0
 77
     0
 78
     0
  0
ENDTAB
  0
TABLE
  2
LTYPE
 70
    26
  0
LTYPE
  2
CONTINUOUS
 70
     0
  3
Solid line
 72
    65
 73
     0
 40
0.0
  0
LTYPE
  2
STYLE_01
 70
     0
  3

 72
    65
 73
     2
 40
0.4724409448818899
 49
0.3779527559055118
 49
-0.094488188976378
  0
LTYPE
  2
STYLE_02
 70
     0
  3

 72
    65
 73
     2
 40
0.9448818897637794
 49
0.3779527559055118
 49
-0.5669291338582677
  0
LTYPE
  2
STYLE_03
 70
     0
  3

 72
    65
 73
     4
 40
0.9448818897637796
 49
0.7559055118110237
 49
-0.094488188976378
 49
0.0002
 49
-0.0942881889763781
  0
LTYPE
  2
STYLE_04
 70
     0
  3

 72
    65
 73
     6
 40
1.070866141732282
 49
0.7559055118110237
 49
-0.094488188976378
 49
0.015748031496063
 49
-0.094488188976378
 49
0.015748031496063
 49
-0.094488188976378
  0
LTYPE
  2
STYLE_05
 70
     0
  3

 72
    65
 73
     8
 40
1.1811023622047241
 49
0.7559055118110237
 49
-0.094488188976378
 49
0.015748031496063
 49
-0.094488188976378
 49
0.015748031496063
 49
-0.094488188976378
 49
0.015748031496063
 49
-0.094488188976378
  0
LTYPE
  2
STYLE_06
 70
     0
  3

 72
    65
 73
     2
 40
0.0944881889763779
 49
0.0002
 49
-0.0942881889763779
  0
LTYPE
  2
STYLE_07
 70
     0
  3

 72
    65
 73
     4
 40
1.1338582677165341
 49
0.7559055118110237
 49
-0.094488188976378
 49
0.1889763779527558
 49
-0.094488188976378
  0
LTYPE
  2
STYLE_08
 70
     0
  3

 72
    65
 73
     6
 40
1.4173228346456681
 49
0.7559055118110237
 49
-0.094488188976378
 49
0.1889763779527558
 49
-0.094488188976378
 49
0.1889763779527558
 49
-0.094488188976378
  0
LTYPE
  2
STYLE_09
 70
     0
  3

 72
    65
 73
     4
 40
0.5669291338582678
 49
0.3779527559055118
 49
-0.094488188976378
 49
0.0002
 49
-0.0942881889763781
  0
LTYPE
  2
STYLE_10
 70
     0
  3

 72
    65
 73
     6
 40
1.039370078740155
 49
0.3779527559055118
 49
-0.094488188976378
 49
0.3779527559055119
 49
-0.094488188976378
 49
0.0002
 49
-0.0942881889763779
  0
LTYPE
  2
STYLE_11
 70
     0
  3

 72
    65
 73
     6
 40
0.6614173228346461
 49
0.3779527559055118
 49
-0.094488188976378
 49
0.0002
 49
-0.0942881889763781
 49
0.0002
 49
-0.0942881889763779
  0
LTYPE
  2
STYLE_12
 70
     0
  3

 72
    65
 73
     8
 40
1.1338582677165341
 49
0.3779527559055118
 49
-0.094488188976378
 49
0.3779527559055119
 49
-0.094488188976378
 49
0.0002
 49
-0.0942881889763779
 49
0.0002
 49
-0.0942881889763781
  0
LTYPE
  2
STYLE_13
 70
     0
  3

 72
    65
 73
     8
 40
0.7559055118110237
 49
0.3779527559055118
 49
-0.094488188976378
 49
0.0002
 49
-0.0942881889763781
 49
0.0002
 49
-0.0942881889763779
 49
0.0002
 49
-0.0942881889763781
  0
LTYPE
  2
STYLE_14
 70
     0
  3

 72
    65
 73
    10
 40
1.2283464566929121
 49
0.3779527559055118
 49
-0.094488188976378
 49
0.3779527559055119
 49
-0.094488188976378
 49
0.0002
 49
-0.0942881889763779
 49
0.0002
 49
-0.0942881889763781
 49
0.0002
 49
-0.0942881889763781
  0
LTYPE
  2
STYLE_15
 70
     0
  3

 72
    65
 73
     2
 40
0.3200800000000001
 49
0.0002
 49
-0.3198800000000001
  0
LTYPE
  2
STYLE_16
 70
     0
  3

 72
    65
 73
     6
 40
1.399999999999999
 49
0.4
 49
-0.2000000000000001
 49
0.3999999999999999
 49
-0.2
 49
0.0002
 49
-0.1998
  0
LTYPE
  2
STYLE_17
 70
     0
  3

 72
    65
 73
     6
 40
0.7
 49
0.2
 49
-0.1
 49
0.2
 49
-0.1
 49
0.0002
 49
-0.0998
  0
LTYPE
  2
STYLE_18
 70
     0
  3

 72
    65
 73
     6
 40
2.799999999999998
 49
0.8
 49
-0.4
 49
0.8
 49
-0.3999999999999999
 49
0.0002
 49
-0.3997999999999999
  0
LTYPE
  2
STYLE_19
 70
     0
  3

 72
    65
 73
     4
 40
1.599999999999999
 49
1.0
 49
-0.2
 49
0.2
 49
-0.2
  0
LTYPE
  2
STYLE_20
 70
     0
  3

 72
    65
 73
     4
 40
0.9
 49
0.6
 49
-0.1
 49
0.1
 49
-0.1
  0
LTYPE
  2
STYLE_21
 70
     0
  3

 72
    65
 73
     4
 40
3.199999999999998
 49
2.0
 49
-0.3999999999999999
 49
0.3999999999999999
 49
-0.3999999999999999
  0
LTYPE
  2
STYLE_22
 70
     0
  3

 72
    65
 73
     4
 40
0.8
 49
0.4
 49
-0.2000000000000001
 49
0.0002
 49
-0.1998
  0
LTYPE
  2
STYLE_23
 70
     0
  3

 72
    65
 73
     4
 40
0.4
 49
0.2
 49
-0.1
 49
0.0002
 49
-0.0998
  0
LTYPE
  2
STYLE_24
 70
     0
  3

 72
    65
 73
     4
 40
1.599999999999999
 49
0.8
 49
-0.4
 49
0.0002
 49
-0.3997999999999999
  0
LTYPE
  2
CENTER2
 70
     0
  3
Center (.5x) ___ _ ___ _ ___ _ ___ _ ___ _ ___
 72
    65
 73
     4
 40
28.574999999999999
 49
19.050000000000001
 49
-3.174999999999998
 49
3.174999999999998
 49
-3.174999999999998
  0
ENDTAB
  0
TABLE
  2
LAYER
 70
    10
  0
LAYER
  2
0
 70
     0
 62
     7
  6
CONTINUOUS
  0
LAYER
  2
DEFPOINTS
 70
     0
 62
     7
  6
CONTINUOUS
  0
LAYER
  2
一般
 70
     0
 62
     7
  6
CONTINUOUS
  0
LAYER
  2
寸法
 70
     0
 62
     7
  6
CONTINUOUS
  0
LAYER
  2
センタ_
 70
     0
 62
     7
  6
STYLE_20
  0
LAYER
  2
実形
 70
     0
 62
     7
  6
CONTINUOUS
  0
LAYER
  2
補助
 70
     1
 62
     4
  6
CONTINUOUS
  0
LAYER
  2
クィチング
 70
     0
 62
     7
  6
CONTINUOUS
  0
LAYER
  2
文字
 70
     0
 62
     7
  6
CONTINUOUS
  0
LAYER
  2
CEN
 70
     0
 62
     7
  6
STYLE_20
  0
ENDTAB
  0
TABLE
  2
STYLE
 70
     3
  0
STYLE
  2
STANDARD
 70
     0
 40
0.0
 41
1.0
 50
0.0
 71
     0
 42
0.0
  3
txt
  4
BIGFONT.SHX
  0
STYLE
  2
ARIAL
 70
     0
 40
0.0
 41
1.0
 50
0.0
 71
     0
 42
0.0
  3
txt
  4

  0
STYLE
  2
ＭＳ_ゴシック
 70
     0
 40
0.0
 41
1.0
 50
0.0
 71
     0
 42
0.0
  3
txt
  4

  0
ENDTAB
  0
TABLE
  2
VIEW
 70
     0
  0
ENDTAB
  0
TABLE
  2
UCS
 70
     0
  0
ENDTAB
  0
TABLE
  2
APPID
 70
     2
  0
APPID
  2
ACAD
 70
     0
  0
APPID
  2
DCO15
 70
     0
  0
ENDTAB
  0
TABLE
  2
DIMSTYLE
 70
     2
  0
DIMSTYLE
  2
STANDARD
 70
     0
  3

  4

  5

  6

  7

 40
1.0
 41
0.18
 42
0.0625
 43
0.38
 44
0.18
 45
0.0
 46
0.0
 47
0.0
 48
0.0
140
0.18
141
0.09
142
0.0
143
25.399999999999999
144
1.0
145
0.0
146
1.0
147
0.09
 71
     0
 72
     0
 73
     1
 74
     1
 75
     0
 76
     0
 77
     0
 78
     0
170
     0
171
     2
172
     0
173
     0
174
     0
175
     0
176
     0
177
     0
178
     0
  0
DIMSTYLE
  2
ISO-25
 70
     0
  3

  4

  5
DOTSMALL
  6

  7

 40
1.0
 41
35.0
 42
65.0
 43
3.75
 44
0.0
 45
0.0
 46
0.0
 47
0.0
 48
0.0
140
25.0
141
2.5
142
0.0
143
0.03937007874016
144
1.0
145
0.0
146
1.0
147
6.25
 71
     0
 72
     0
 73
     0
 74
     0
 75
     0
 76
     0
 77
     1
 78
     8
170
     0
171
     3
172
     1
173
     0
174
     0
175
     0
176
     0
177
     0
178
     0
  0
ENDTAB
  0
ENDSEC
  0
SECTION
  2
BLOCKS
  0
BLOCK
  8
0
  2
$MODEL_SPACE
 70
     0
 10
0.0
 20
0.0
 30
0.0
  3
$MODEL_SPACE
  1

  0
ENDBLK
  5
E
  8
0
  0
BLOCK
 67
     1
  8
0
  2
$PAPER_SPACE
 70
     0
 10
0.0
 20
0.0
 30
0.0
  3
$PAPER_SPACE
  1

  0
ENDBLK
  5
10
 67
     1
  8
0
  0
BLOCK
  8
0
  2
*U0
 70
     1
 10
0.0
 20
0.0
 30
0.0
  3
*U0
  1

  0
LINE
  5
106
  8
0
 62
     7
 10
210.4660950226162
 20
-385.05855806550358
 30
0.0
 11
227.96807499999889
 21
-404.12564000000071
 31
0.0
  0
LINE
  5
107
  8
0
 62
     7
 10
227.96807499999889
 20
-404.12564000000071
 30
0.0
 11
203.27737754285181
 21
-396.36404379140919
 31
0.0
  0
LINE
  5
108
  8
0
 62
     7
 10
227.96807499999889
 20
-404.12564000000071
 30
0.0
 11
206.8717362827328
 21
-390.71130092845578
 31
0.0
  0
ENDBLK
  5
109
  8
0
  0
BLOCK
  8
0
  2
_DOTSMALL
 70
     0
 10
0.0
 20
0.0
 30
0.0
  3
_DOTSMALL
  1

  0
POLYLINE
  5
1C8
  8
0
 62
     0
 66
     1
 10
0.0
 20
0.0
 30
0.0
 70
     1
 40
0.5
 41
0.5
  0
VERTEX
  5
753
  8
0
 62
     0
 10
-0.0625
 20
0.0
 30
0.0
 42
1.0
  0
VERTEX
  5
754
  8
0
 62
     0
 10
0.0625
 20
0.0
 30
0.0
 42
1.0
  0
SEQEND
  5
755
  8
0
 62
     0
  0
ENDBLK
  5
1C9
  8
0
  0
BLOCK
  8
0
  2
_OPEN30
 70
     0
 10
0.0
 20
0.0
 30
0.0
  3
_OPEN30
  1

  0
LINE
  5
1CC
  8
0
 62
     0
 10
-1.0
 20
0.26794919
 30
0.0
 11
0.0
 21
0.0
 31
0.0
  0
LINE
  5
1CD
  8
0
 62
     0
 10
0.0
 20
0.0
 30
0.0
 11
-1.0
 21
-0.26794919
 31
0.0
  0
LINE
  5
1CE
  8
0
 62
     0
 10
0.0
 20
0.0
 30
0.0
 11
-1.0
 21
0.0
 31
0.0
  0
ENDBLK
  5
1CF
  8
0
  0
BLOCK
  8
0
  2
*D3
 70
     1
 10
0.0
 20
0.0
 30
0.0
  3
*D3
  1

  0
LINE
  5
756
  8
寸法
  6
CONTINUOUS
 62
     0
 10
13464.593629999999
 20
10330.0
 30
0.0
 11
13464.593629999999
 21
10214.019192636621
 31
0.0
  0
LINE
  5
757
  8
寸法
  6
CONTINUOUS
 62
     0
 10
13422.593629999999
 20
10330.0
 30
0.0
 11
13422.593629999999
 21
10214.019192636621
 31
0.0
  0
LINE
  5
758
  8
寸法
  6
CONTINUOUS
 62
     0
 10
13464.593629999999
 20
10214.019192636621
 30
0.0
 11
13422.593629999999
 21
10214.019192636621
 31
0.0
  0
TEXT
  8
寸法
  40
25
  5
7CA
  62
0
  72
0
  71
0
 10
13445.0
 20
10159.3
 30
0.000000
  1
42
  0
INSERT
  5
75A
  8
寸法
  6
CONTINUOUS
 62
     0
  2
_DOTSMALL
 10
13464.593629999999
 20
10214.019192636621
 30
0.0
 41
35.0
 42
35.0
 43
35.0
  0
INSERT
  5
75B
  8
寸法
  6
CONTINUOUS
 62
     0
  2
_DOTSMALL
 10
13422.593629999999
 20
10214.019192636621
 30
0.0
 41
35.0
 42
35.0
 43
35.0
 50
180.0
  0
POINT
  5
75C
  8
DEFPOINTS
  6
CONTINUOUS
 62
     0
 10
13464.593629999999
 20
10395.0
 30
0.0
  0
POINT
  5
75D
  8
DEFPOINTS
  6
CONTINUOUS
 62
     0
 10
13422.593629999999
 20
10395.0
 30
0.0
  0
POINT
  5
75E
  8
DEFPOINTS
  6
CONTINUOUS
 62
     0
 10
13422.593629999999
 20
10214.019192636621
 30
0.0
  0
ENDBLK
  5
358
  8
0
  0
BLOCK
  8
0
  2
*D4
 70
     1
 10
0.0
 20
0.0
 30
0.0
  3
*D4
  1

  0
LINE
  5
47F
  8
寸法
  6
CONTINUOUS
 62
     0
 10
13679.593629999999
 20
10560.403704636619
 30
0.0
 11
13757.0
 21
10560.403704636619
 31
0.0
  0
LINE
  5
480
  8
寸法
  6
CONTINUOUS
 62
     0
 10
13679.593629999999
 20
10325.403704636619
 30
0.0
 11
13757.0
 21
10325.403704636619
 31
0.0
  0
LINE
  5
481
  8
寸法
  6
CONTINUOUS
 62
     0
 10
13757.0
 20
10560.403704636619
 30
0.0
 11
13757.0
 21
10325.403704636619
 31
0.0
  0
INSERT
  5
482
  8
寸法
  6
CONTINUOUS
 62
     0
  2
_DOTSMALL
 10
13757.0
 20
10560.403704636619
 30
0.0
 41
35.0
 42
35.0
 43
35.0
 50
90.0
  0
INSERT
  5
483
  8
寸法
  6
CONTINUOUS
 62
     0
  2
_DOTSMALL
 10
13757.0
 20
10325.403704636619
 30
0.0
 41
35.0
 42
35.0
 43
35.0
 50
270.0
  0
INSERT
  5
484
  8
寸法
  6
CONTINUOUS
  2
*U23
 10
0.0
 20
0.0
 30
0.0
  0
POINT
  5
485
  8
DEFPOINTS
  6
CONTINUOUS
 62
     0
 10
13614.593629999999
 20
10560.403704636619
 30
0.0
  0
POINT
  5
486
  8
DEFPOINTS
  6
CONTINUOUS
 62
     0
 10
13614.593629999999
 20
10325.403704636619
 30
0.0
  0
POINT
  5
487
  8
DEFPOINTS
  6
CONTINUOUS
 62
     0
 10
13757.0
 20
10325.403704636619
 30
0.0
  0
ENDBLK
  5
489
  8
0
  0
BLOCK
  8
0
  2
*D5
 70
     1
 10
0.0
 20
0.0
 30
0.0
  3
*D5
  1

  0
LINE
  5
499
  8
寸法
  6
CONTINUOUS
 62
     0
 10
13357.593629999999
 20
10855.40658063662
 30
0.0
 11
13129.0
 21
10855.40658063662
 31
0.0
  0
LINE
  5
49A
  8
寸法
  6
CONTINUOUS
 62
     0
 10
13357.593629999999
 20
10325.403704636619
 30
0.0
 11
13129.0
 21
10325.403704636619
 31
0.0
  0
LINE
  5
49B
  8
寸法
  6
CONTINUOUS
 62
     0
 10
13129.0
 20
10855.40658063662
 30
0.0
 11
13129.0
 21
10325.403704636619
 31
0.0
  0
INSERT
  5
49C
  8
寸法
  6
CONTINUOUS
 62
     0
  2
_DOTSMALL
 10
13129.0
 20
10855.40658063662
 30
0.0
 41
35.0
 42
35.0
 43
35.0
 50
90.0
  0
INSERT
  5
49D
  8
寸法
  6
CONTINUOUS
 62
     0
  2
_DOTSMALL
 10
13129.0
 20
10325.403704636619
 30
0.0
 41
35.0
 42
35.0
 43
35.0
 50
270.0
  0
INSERT
  5
49E
  8
寸法
  6
CONTINUOUS
  2
*U24
 10
0.0
 20
0.0
 30
0.0
  0
POINT
  5
49F
  8
DEFPOINTS
  6
CONTINUOUS
 62
     0
 10
13422.593629999999
 20
10855.40658063662
 30
0.0
  0
POINT
  5
4A0
  8
DEFPOINTS
  6
CONTINUOUS
 62
     0
 10
13422.593629999999
 20
10325.403704636619
 30
0.0
  0
POINT
  5
4A1
  8
DEFPOINTS
  6
CONTINUOUS
 62
     0
 10
13129.0
 20
10325.403704636619
 30
0.0
  0
ENDBLK
  5
4A3
  8
0
  0
BLOCK
  8
0
  2
*D6
 70
     1
 10
0.0
 20
0.0
 30
0.0
  3
*D6
  1

  0
LINE
  5
767
  8
寸法
  6
CONTINUOUS
 62
     0
 10
13357.593629999999
 20
10855.40658063662
 30
0.0
 11
13203.0
 21
10855.40658063662
 31
0.0
  0
LINE
  5
768
  8
寸法
  6
CONTINUOUS
 62
     0
 10
13357.593629999999
 20
10837.403704636619
 30
0.0
 11
13203.0
 21
10837.403704636619
 31
0.0
  0
LINE
  5
769
  8
寸法
  6
CONTINUOUS
 62
     0
 10
13203.0
 20
10855.40658063662
 30
0.0
 11
13203.0
 21
10837.403704636619
 31
0.0
  0
TEXT
  8
寸法
  40
25
  5
7CB
  62
0
  72
0
  71
0
 10
13184.3
 20
10848.5
 30
0.000000
  1
18
  0
INSERT
  5
76B
  8
寸法
  6
CONTINUOUS
 62
     0
  2
_DOTSMALL
 10
13203.0
 20
10855.40658063662
 30
0.0
 41
35.0
 42
35.0
 43
35.0
 50
90.0
  0
INSERT
  5
76C
  8
寸法
  6
CONTINUOUS
 62
     0
  2
_DOTSMALL
 10
13203.0
 20
10837.403704636619
 30
0.0
 41
35.0
 42
35.0
 43
35.0
 50
270.0
  0
POINT
  5
76D
  8
DEFPOINTS
  6
CONTINUOUS
 62
     0
 10
13422.593629999999
 20
10855.40658063662
 30
0.0
  0
POINT
  5
76E
  8
DEFPOINTS
  6
CONTINUOUS
 62
     0
 10
13422.593629999999
 20
10837.403704636619
 30
0.0
  0
POINT
  5
76F
  8
DEFPOINTS
  6
CONTINUOUS
 62
     0
 10
13203.0
 20
10837.403704636619
 30
0.0
  0
ENDBLK
  5
4B1
  8
0
  0
BLOCK
  8
0
  2
*D7
 70
     1
 10
0.0
 20
0.0
 30
0.0
  3
*D7
  1

  0
LINE
  5
4F1
  8
寸法
  6
CONTINUOUS
 62
     0
 10
13357.593629999999
 20
10837.403704636619
 30
0.0
 11
13203.0
 21
10837.403704636619
 31
0.0
  0
LINE
  5
4F2
  8
寸法
  6
CONTINUOUS
 62
     0
 10
13357.593629999999
 20
10765.403704636619
 30
0.0
 11
13203.0
 21
10765.403704636619
 31
0.0
  0
LINE
  5
4F3
  8
寸法
  6
CONTINUOUS
 62
     0
 10
13203.0
 20
10837.403704636619
 30
0.0
 11
13203.0
 21
10765.403704636619
 31
0.0
  0
INSERT
  5
4F4
  8
寸法
  6
CONTINUOUS
 62
     0
  2
_DOTSMALL
 10
13203.0
 20
10837.403704636619
 30
0.0
 41
35.0
 42
35.0
 43
35.0
 50
90.0
  0
INSERT
  5
4F5
  8
寸法
  6
CONTINUOUS
 62
     0
  2
_DOTSMALL
 10
13203.0
 20
10765.403704636619
 30
0.0
 41
35.0
 42
35.0
 43
35.0
 50
270.0
  0
INSERT
  5
4F6
  8
寸法
  6
CONTINUOUS
  2
*U25
 10
0.0
 20
0.0
 30
0.0
  0
POINT
  5
4F7
  8
DEFPOINTS
  6
CONTINUOUS
 62
     0
 10
13422.593629999999
 20
10837.403704636619
 30
0.0
  0
POINT
  5
4F8
  8
DEFPOINTS
  6
CONTINUOUS
 62
     0
 10
13422.593629999999
 20
10765.403704636619
 30
0.0
  0
POINT
  5
4F9
  8
DEFPOINTS
  6
CONTINUOUS
 62
     0
 10
13203.0
 20
10765.403704636619
 30
0.0
  0
ENDBLK
  5
4FB
  8
0
  0
BLOCK
  8
0
  2
*D8
 70
     1
 10
0.0
 20
0.0
 30
0.0
  3
*D8
  1

  0
LINE
  5
4FE
  8
寸法
  6
CONTINUOUS
 62
     0
 10
13357.593629999999
 20
10765.403704636619
 30
0.0
 11
13203.0
 21
10765.403704636619
 31
0.0
  0
LINE
  5
4FF
  8
寸法
  6
CONTINUOUS
 62
     0
 10
13357.593629999999
 20
10355.403704636619
 30
0.0
 11
13203.0
 21
10355.403704636619
 31
0.0
  0
LINE
  5
500
  8
寸法
  6
CONTINUOUS
 62
     0
 10
13203.0
 20
10765.403704636619
 30
0.0
 11
13203.0
 21
10355.403704636619
 31
0.0
  0
INSERT
  5
501
  8
寸法
  6
CONTINUOUS
 62
     0
  2
_DOTSMALL
 10
13203.0
 20
10765.403704636619
 30
0.0
 41
35.0
 42
35.0
 43
35.0
 50
90.0
  0
INSERT
  5
502
  8
寸法
  6
CONTINUOUS
 62
     0
  2
_DOTSMALL
 10
13203.0
 20
10355.403704636619
 30
0.0
 41
35.0
 42
35.0
 43
35.0
 50
270.0
  0
INSERT
  5
503
  8
寸法
  6
CONTINUOUS
  2
*U26
 10
0.0
 20
0.0
 30
0.0
  0
POINT
  5
504
  8
DEFPOINTS
  6
CONTINUOUS
 62
     0
 10
13422.593629999999
 20
10765.403704636619
 30
0.0
  0
POINT
  5
505
  8
DEFPOINTS
  6
CONTINUOUS
 62
     0
 10
13422.593629999999
 20
10355.403704636619
 30
0.0
  0
POINT
  5
506
  8
DEFPOINTS
  6
CONTINUOUS
 62
     0
 10
13203.0
 20
10355.403704636619
 30
0.0
  0
ENDBLK
  5
508
  8
0
  0
BLOCK
  8
0
  2
*D9
 70
     1
 10
0.0
 20
0.0
 30
0.0
  3
*D9
  1

  0
LINE
  5
778
  8
寸法
  6
CONTINUOUS
 62
     0
 10
13357.578692789861
 20
10355.403704636619
 30
0.0
 11
13203.0
 21
10355.403704636619
 31
0.0
  0
LINE
  5
779
  8
寸法
  6
CONTINUOUS
 62
     0
 10
13357.593629999999
 20
10343.403704636619
 30
0.0
 11
13203.0
 21
10343.403704636619
 31
0.0
  0
LINE
  5
77A
  8
寸法
  6
CONTINUOUS
 62
     0
 10
13203.0
 20
10355.403704636619
 30
0.0
 11
13203.0
 21
10390.403704636619
 31
0.0
  0
LINE
  5
77B
  8
寸法
  6
CONTINUOUS
 62
     0
 10
13203.0
 20
10343.403704636619
 30
0.0
 11
13203.0
 21
10308.403704636619
 31
0.0
  0
TEXT
  8
寸法
  40
25
  5
7CC
  62
0
  72
0
  71
0
 10
13177.3
 20
10317.5
 30
0.000000
  1
12
  0
LINE
  5
77D
  8
寸法
  6
CONTINUOUS
 62
     0
 10
13203.0
 20
10355.403704636619
 30
0.0
 11
13203.0
 21
10343.403704636619
 31
0.0
  0
INSERT
  5
77E
  8
寸法
  6
CONTINUOUS
 62
     0
  2
_DOTSMALL
 10
13203.0
 20
10355.403704636619
 30
0.0
 41
35.0
 42
35.0
 43
35.0
 50
270.0
  0
INSERT
  5
77F
  8
寸法
  6
CONTINUOUS
 62
     0
  2
_DOTSMALL
 10
13203.0
 20
10343.403704636619
 30
0.0
 41
35.0
 42
35.0
 43
35.0
 50
90.0
  0
POINT
  5
780
  8
DEFPOINTS
  6
CONTINUOUS
 62
     0
 10
13422.578692789861
 20
10355.403704636619
 30
0.0
  0
POINT
  5
781
  8
DEFPOINTS
  6
CONTINUOUS
 62
     0
 10
13422.593629999999
 20
10343.403704636619
 30
0.0
  0
POINT
  5
782
  8
DEFPOINTS
  6
CONTINUOUS
 62
     0
 10
13203.0
 20
10343.403704636619
 30
0.0
  0
ENDBLK
  5
517
  8
0
  0
BLOCK
  8
0
  2
*D10
 70
     1
 10
0.0
 20
0.0
 30
0.0
  3
*D10
  1

  0
LINE
  5
783
  8
寸法
  6
CONTINUOUS
 62
     0
 10
13357.593629999999
 20
10343.403704636619
 30
0.0
 11
13203.0
 21
10343.403704636619
 31
0.0
  0
LINE
  5
784
  8
寸法
  6
CONTINUOUS
 62
     0
 10
13357.593629999999
 20
10325.403704636619
 30
0.0
 11
13203.0
 21
10325.403704636619
 31
0.0
  0
LINE
  5
785
  8
寸法
  6
CONTINUOUS
 62
     0
 10
13203.0
 20
10343.403704636619
 30
0.0
 11
13203.0
 21
10325.403704636619
 31
0.0
  0
TEXT
  8
寸法
  40
25
  5
7CD
  62
0
  72
0
  71
0
 10
13184.3
 20
10266.5
 30
0.000000
  1
18
  0
INSERT
  5
787
  8
寸法
  6
CONTINUOUS
 62
     0
  2
_DOTSMALL
 10
13203.0
 20
10343.403704636619
 30
0.0
 41
35.0
 42
35.0
 43
35.0
 50
90.0
  0
INSERT
  5
788
  8
寸法
  6
CONTINUOUS
 62
     0
  2
_DOTSMALL
 10
13203.0
 20
10325.403704636619
 30
0.0
 41
35.0
 42
35.0
 43
35.0
 50
270.0
  0
POINT
  5
789
  8
DEFPOINTS
  6
CONTINUOUS
 62
     0
 10
13422.593629999999
 20
10343.403704636619
 30
0.0
  0
POINT
  5
78A
  8
DEFPOINTS
  6
CONTINUOUS
 62
     0
 10
13422.593629999999
 20
10325.403704636619
 30
0.0
  0
POINT
  5
78B
  8
DEFPOINTS
  6
CONTINUOUS
 62
     0
 10
13203.0
 20
10325.403704636619
 30
0.0
  0
ENDBLK
  5
549
  8
0
  0
BLOCK
  8
0
  2
*D11
 70
     1
 10
0.0
 20
0.0
 30
0.0
  3
*D11
  1

  0
LINE
  5
56D
  8
寸法
  6
CONTINUOUS
 62
     0
 10
13614.593629999999
 20
10902.403704636619
 30
0.0
 11
13614.593629999999
 21
10969.0
 31
0.0
  0
LINE
  5
56E
  8
寸法
  6
CONTINUOUS
 62
     0
 10
13404.593629999999
 20
10902.403704636619
 30
0.0
 11
13404.593629999999
 21
10969.0
 31
0.0
  0
LINE
  5
56F
  8
寸法
  6
CONTINUOUS
 62
     0
 10
13614.593629999999
 20
10969.0
 30
0.0
 11
13404.593629999999
 21
10969.0
 31
0.0
  0
INSERT
  5
570
  8
寸法
  6
CONTINUOUS
 62
     0
  2
_DOTSMALL
 10
13614.593629999999
 20
10969.0
 30
0.0
 41
35.0
 42
35.0
 43
35.0
  0
INSERT
  5
571
  8
寸法
  6
CONTINUOUS
 62
     0
  2
_DOTSMALL
 10
13404.593629999999
 20
10969.0
 30
0.0
 41
35.0
 42
35.0
 43
35.0
 50
180.0
  0
INSERT
  5
572
  8
寸法
  6
CONTINUOUS
  2
*U27
 10
0.0
 20
0.0
 30
0.0
  0
POINT
  5
573
  8
DEFPOINTS
  6
CONTINUOUS
 62
     0
 10
13614.593629999999
 20
10837.403704636619
 30
0.0
  0
POINT
  5
574
  8
DEFPOINTS
  6
CONTINUOUS
 62
     0
 10
13404.593629999999
 20
10837.403704636619
 30
0.0
  0
POINT
  5
575
  8
DEFPOINTS
  6
CONTINUOUS
 62
     0
 10
13404.593629999999
 20
10969.0
 30
0.0
  0
ENDBLK
  5
577
  8
0
  0
BLOCK
  8
0
  2
*D12
 70
     1
 10
0.0
 20
0.0
 30
0.0
  3
*D12
  1

  0
LINE
  5
593
  8
寸法
  6
CONTINUOUS
 62
     0
 10
13534.593629999999
 20
9676.4037046366229
 30
0.0
 11
13534.593629999999
 21
9594.0
 31
0.0
  0
LINE
  5
594
  8
寸法
  6
CONTINUOUS
 62
     0
 10
13694.593629999999
 20
9676.4037046366229
 30
0.0
 11
13694.593629999999
 21
9594.0
 31
0.0
  0
LINE
  5
595
  8
寸法
  6
CONTINUOUS
 62
     0
 10
13534.593629999999
 20
9594.0
 30
0.0
 11
13694.593629999999
 21
9594.0
 31
0.0
  0
INSERT
  5
596
  8
寸法
  6
CONTINUOUS
 62
     0
  2
_DOTSMALL
 10
13534.593629999999
 20
9594.0
 30
0.0
 41
35.0
 42
35.0
 43
35.0
 50
180.0
  0
INSERT
  5
597
  8
寸法
  6
CONTINUOUS
 62
     0
  2
_DOTSMALL
 10
13694.593629999999
 20
9594.0
 30
0.0
 41
35.0
 42
35.0
 43
35.0
  0
INSERT
  5
598
  8
寸法
  6
CONTINUOUS
  2
*U28
 10
0.0
 20
0.0
 30
0.0
  0
POINT
  5
599
  8
DEFPOINTS
  6
CONTINUOUS
 62
     0
 10
13534.593629999999
 20
9741.4037046366248
 30
0.0
  0
POINT
  5
59A
  8
DEFPOINTS
  6
CONTINUOUS
 62
     0
 10
13694.593629999999
 20
9741.4037046366248
 30
0.0
  0
POINT
  5
59B
  8
DEFPOINTS
  6
CONTINUOUS
 62
     0
 10
13694.593629999999
 20
9594.0
 30
0.0
  0
ENDBLK
  5
59D
  8
0
  0
BLOCK
  8
0
  2
*D13
 70
     1
 10
0.0
 20
0.0
 30
0.0
  3
*D13
  1

  0
LINE
  5
5AD
  8
寸法
  6
CONTINUOUS
 62
     0
 10
13524.093629999999
 20
9676.4037046366229
 30
0.0
 11
13524.093629999999
 21
9546.0
 31
0.0
  0
LINE
  5
5AE
  8
寸法
  6
CONTINUOUS
 62
     0
 10
13705.093629999999
 20
9676.4037046366229
 30
0.0
 11
13705.093629999999
 21
9546.0
 31
0.0
  0
LINE
  5
5AF
  8
寸法
  6
CONTINUOUS
 62
     0
 10
13524.093629999999
 20
9546.0
 30
0.0
 11
13705.093629999999
 21
9546.0
 31
0.0
  0
INSERT
  5
5B0
  8
寸法
  6
CONTINUOUS
 62
     0
  2
_DOTSMALL
 10
13524.093629999999
 20
9546.0
 30
0.0
 41
35.0
 42
35.0
 43
35.0
 50
180.0
  0
INSERT
  5
5B1
  8
寸法
  6
CONTINUOUS
 62
     0
  2
_DOTSMALL
 10
13705.093629999999
 20
9546.0
 30
0.0
 41
35.0
 42
35.0
 43
35.0
  0
INSERT
  5
5B2
  8
寸法
  6
CONTINUOUS
  2
*U29
 10
0.0
 20
0.0
 30
0.0
  0
POINT
  5
5B3
  8
DEFPOINTS
  6
CONTINUOUS
 62
     0
 10
13524.093629999999
 20
9741.4037046366248
 30
0.0
  0
POINT
  5
5B4
  8
DEFPOINTS
  6
CONTINUOUS
 62
     0
 10
13705.093629999999
 20
9741.4037046366248
 30
0.0
  0
POINT
  5
5B5
  8
DEFPOINTS
  6
CONTINUOUS
 62
     0
 10
13705.093629999999
 20
9546.0
 30
0.0
  0
ENDBLK
  5
5B7
  8
0
  0
BLOCK
  8
0
  2
*D14
 70
     1
 10
0.0
 20
0.0
 30
0.0
  3
*D14
  1

  0
LINE
  5
5C7
  8
寸法
  6
CONTINUOUS
 62
     0
 10
13399.593629999999
 20
9925.4037046366229
 30
0.0
 11
13268.0
 21
9925.4037046366229
 31
0.0
  0
LINE
  5
5C8
  8
寸法
  6
CONTINUOUS
 62
     0
 10
13399.593629999999
 20
9726.4037046366248
 30
0.0
 11
13268.0
 21
9726.4037046366248
 31
0.0
  0
LINE
  5
5C9
  8
寸法
  6
CONTINUOUS
 62
     0
 10
13268.0
 20
9925.4037046366229
 30
0.0
 11
13268.0
 21
9726.4037046366248
 31
0.0
  0
INSERT
  5
5CA
  8
寸法
  6
CONTINUOUS
 62
     0
  2
_DOTSMALL
 10
13268.0
 20
9925.4037046366229
 30
0.0
 41
35.0
 42
35.0
 43
35.0
 50
90.0
  0
INSERT
  5
5CB
  8
寸法
  6
CONTINUOUS
 62
     0
  2
_DOTSMALL
 10
13268.0
 20
9726.4037046366248
 30
0.0
 41
35.0
 42
35.0
 43
35.0
 50
270.0
  0
INSERT
  5
5CC
  8
寸法
  6
CONTINUOUS
  2
*U30
 10
0.0
 20
0.0
 30
0.0
  0
POINT
  5
5CD
  8
DEFPOINTS
  6
CONTINUOUS
 62
     0
 10
13464.593629999999
 20
9925.4037046366229
 30
0.0
  0
POINT
  5
5CE
  8
DEFPOINTS
  6
CONTINUOUS
 62
     0
 10
13464.593629999999
 20
9726.4037046366248
 30
0.0
  0
POINT
  5
5CF
  8
DEFPOINTS
  6
CONTINUOUS
 62
     0
 10
13268.0
 20
9726.4037046366248
 30
0.0
  0
ENDBLK
  5
5D1
  8
0
  0
BLOCK
  8
0
  2
*D15
 70
     1
 10
0.0
 20
0.0
 30
0.0
  3
*D15
  1

  0
LINE
  5
79C
  8
寸法
  6
CONTINUOUS
 62
     0
 10
13399.593629999999
 20
9741.4037046366248
 30
0.0
 11
13330.701879
 21
9741.4037046366248
 31
0.0
  0
LINE
  5
79D
  8
寸法
  6
CONTINUOUS
 62
     0
 10
13399.593629999999
 20
9726.4037046366248
 30
0.0
 11
13330.701879
 21
9726.4037046366248
 31
0.0
  0
LINE
  5
79E
  8
寸法
  6
CONTINUOUS
 62
     0
 10
13330.701879
 20
9741.4037046366248
 30
0.0
 11
13330.701879
 21
9726.4037046366248
 31
0.0
  0
TEXT
  8
寸法
  40
25
  5
7CE
  62
0
  72
0
  71
0
 10
13296.3
 20
9672.50
 30
0.000000
  1
15
  0
INSERT
  5
7A0
  8
寸法
  6
CONTINUOUS
 62
     0
  2
_DOTSMALL
 10
13330.701879
 20
9741.4037046366248
 30
0.0
 41
35.0
 42
35.0
 43
35.0
 50
90.0
  0
INSERT
  5
7A1
  8
寸法
  6
CONTINUOUS
 62
     0
  2
_DOTSMALL
 10
13330.701879
 20
9726.4037046366248
 30
0.0
 41
35.0
 42
35.0
 43
35.0
 50
270.0
  0
POINT
  5
7A2
  8
DEFPOINTS
  6
CONTINUOUS
 62
     0
 10
13464.593629999999
 20
9741.4037046366248
 30
0.0
  0
POINT
  5
7A3
  8
DEFPOINTS
  6
CONTINUOUS
 62
     0
 10
13464.593629999999
 20
9726.4037046366248
 30
0.0
  0
POINT
  5
7A4
  8
DEFPOINTS
  6
CONTINUOUS
 62
     0
 10
13330.701879
 20
9726.4037046366248
 30
0.0
  0
ENDBLK
  5
5DF
  8
0
  0
BLOCK
  8
0
  2
*D16
 70
     1
 10
0.0
 20
0.0
 30
0.0
  3
*D16
  1

  0
LINE
  5
5FA
  8
寸法
  6
CONTINUOUS
 62
     0
 10
13422.593629999999
 20
10329.0
 30
0.0
 11
13422.593629999999
 21
10214.019192636621
 31
0.0
  0
LINE
  5
5FB
  8
寸法
  6
CONTINUOUS
 62
     0
 10
13404.593629999999
 20
10329.0
 30
0.0
 11
13404.593629999999
 21
10214.019192636621
 31
0.0
  0
LINE
  5
5FC
  8
寸法
  6
CONTINUOUS
 62
     0
 10
13422.593629999999
 20
10214.019192636621
 30
0.0
 11
13404.593629999999
 21
10214.019192636621
 31
0.0
  0
LINE
  5
5FD
  8
寸法
  6
CONTINUOUS
 62
     0
 10
13404.593629999999
 20
10214.019192636621
 30
0.0
 11
13323.76029666666
 21
10214.019192636621
 31
0.0
  0
INSERT
  5
5FE
  8
寸法
  6
CONTINUOUS
 62
     0
  2
_DOTSMALL
 10
13422.593629999999
 20
10214.019192636621
 30
0.0
 41
35.0
 42
35.0
 43
35.0
  0
INSERT
  5
5FF
  8
寸法
  6
CONTINUOUS
 62
     0
  2
_DOTSMALL
 10
13404.593629999999
 20
10214.019192636621
 30
0.0
 41
35.0
 42
35.0
 43
35.0
 50
180.0
  0
INSERT
  5
600
  8
寸法
  6
CONTINUOUS
  2
*U31
 10
0.0
 20
0.0
 30
0.0
  0
POINT
  5
601
  8
DEFPOINTS
  6
CONTINUOUS
 62
     0
 10
13422.593629999999
 20
10394.0
 30
0.0
  0
POINT
  5
602
  8
DEFPOINTS
  6
CONTINUOUS
 62
     0
 10
13404.593629999999
 20
10394.0
 30
0.0
  0
POINT
  5
603
  8
DEFPOINTS
  6
CONTINUOUS
 62
     0
 10
13404.593629999999
 20
10214.019192636621
 30
0.0
  0
ENDBLK
  5
605
  8
0
  0
BLOCK
  8
0
  2
*D17
 70
     1
 10
0.0
 20
0.0
 30
0.0
  3
*D17
  1

  0
LINE
  5
686
  8
寸法
  6
CONTINUOUS
 62
     0
 10
13404.593629999999
 20
10270.40658063662
 30
0.0
 11
13404.593629999999
 21
10143.0
 31
0.0
  0
LINE
  5
687
  8
寸法
  6
CONTINUOUS
 62
     0
 10
14254.593629999999
 20
10270.40658063662
 30
0.0
 11
14254.593629999999
 21
10143.0
 31
0.0
  0
LINE
  5
688
  8
寸法
  6
CONTINUOUS
 62
     0
 10
13404.593629999999
 20
10143.0
 30
0.0
 11
14254.593629999999
 21
10143.0
 31
0.0
  0
INSERT
  5
689
  8
寸法
  6
CONTINUOUS
 62
     0
  2
_DOTSMALL
 10
13404.593629999999
 20
10143.0
 30
0.0
 41
35.0
 42
35.0
 43
35.0
 50
180.0
  0
INSERT
  5
68A
  8
寸法
  6
CONTINUOUS
 62
     0
  2
_DOTSMALL
 10
14254.593629999999
 20
10143.0
 30
0.0
 41
35.0
 42
35.0
 43
35.0
  0
INSERT
  5
68B
  8
寸法
  6
CONTINUOUS
  2
*U32
 10
0.0
 20
0.0
 30
0.0
  0
POINT
  5
68C
  8
DEFPOINTS
  6
CONTINUOUS
 62
     0
 10
13404.593629999999
 20
10335.40658063662
 30
0.0
  0
POINT
  5
68D
  8
DEFPOINTS
  6
CONTINUOUS
 62
     0
 10
14254.593629999999
 20
10335.40658063662
 30
0.0
  0
POINT
  5
68E
  8
DEFPOINTS
  6
CONTINUOUS
 62
     0
 10
14254.593629999999
 20
10143.0
 30
0.0
  0
ENDBLK
  5
690
  8
0
  0
BLOCK
  8
0
  2
*D18
 70
     1
 10
0.0
 20
0.0
 30
0.0
  3
*D18
  1

  0
LINE
  5
6AC
  8
寸法
  6
CONTINUOUS
 62
     0
 10
14236.593629999999
 20
10329.0
 30
0.0
 11
14236.593629999999
 21
10214.019192636621
 31
0.0
  0
LINE
  5
6AD
  8
寸法
  6
CONTINUOUS
 62
     0
 10
14254.593629999999
 20
10329.0
 30
0.0
 11
14254.593629999999
 21
10214.019192636621
 31
0.0
  0
LINE
  5
6AE
  8
寸法
  6
CONTINUOUS
 62
     0
 10
14236.593629999999
 20
10214.019192636621
 30
0.0
 11
14254.593629999999
 21
10214.019192636621
 31
0.0
  0
LINE
  5
6AF
  8
寸法
  6
CONTINUOUS
 62
     0
 10
14254.593629999999
 20
10214.019192636621
 30
0.0
 11
14335.42696333333
 21
10214.019192636621
 31
0.0
  0
INSERT
  5
6B0
  8
寸法
  6
CONTINUOUS
 62
     0
  2
_DOTSMALL
 10
14236.593629999999
 20
10214.019192636621
 30
0.0
 41
35.0
 42
35.0
 43
35.0
 50
180.0
  0
INSERT
  5
6B1
  8
寸法
  6
CONTINUOUS
 62
     0
  2
_DOTSMALL
 10
14254.593629999999
 20
10214.019192636621
 30
0.0
 41
35.0
 42
35.0
 43
35.0
  0
INSERT
  5
6B2
  8
寸法
  6
CONTINUOUS
  2
*U33
 10
0.0
 20
0.0
 30
0.0
  0
POINT
  5
6B3
  8
DEFPOINTS
  6
CONTINUOUS
 62
     0
 10
14236.593629999999
 20
10394.0
 30
0.0
  0
POINT
  5
6B4
  8
DEFPOINTS
  6
CONTINUOUS
 62
     0
 10
14254.593629999999
 20
10394.0
 30
0.0
  0
POINT
  5
6B5
  8
DEFPOINTS
  6
CONTINUOUS
 62
     0
 10
14254.593629999999
 20
10214.019192636621
 30
0.0
  0
ENDBLK
  5
69F
  8
0
  0
BLOCK
  8
0
  2
*D19
 70
     1
 10
0.0
 20
0.0
 30
0.0
  3
*D19
  1

  0
LINE
  5
7AD
  8
寸法
  6
CONTINUOUS
 62
     0
 10
14194.593629999999
 20
10330.0
 30
0.0
 11
14194.593629999999
 21
10214.019192636621
 31
0.0
  0
LINE
  5
7AE
  8
寸法
  6
CONTINUOUS
 62
     0
 10
14236.593629999999
 20
10330.0
 30
0.0
 11
14236.593629999999
 21
10214.019192636621
 31
0.0
  0
LINE
  5
7AF
  8
寸法
  6
CONTINUOUS
 62
     0
 10
14194.593629999999
 20
10214.019192636621
 30
0.0
 11
14236.593629999999
 21
10214.019192636621
 31
0.0
  0
TEXT
  8
寸法
  40
25
  5
7CF
  62
0
  72
0
  71
0
 10
14214.2
 20
10159.3
 30
0.000000
  1
42
  0
INSERT
  5
7B1
  8
寸法
  6
CONTINUOUS
 62
     0
  2
_DOTSMALL
 10
14194.593629999999
 20
10214.019192636621
 30
0.0
 41
35.0
 42
35.0
 43
35.0
 50
180.0
  0
INSERT
  5
7B2
  8
寸法
  6
CONTINUOUS
 62
     0
  2
_DOTSMALL
 10
14236.593629999999
 20
10214.019192636621
 30
0.0
 41
35.0
 42
35.0
 43
35.0
  0
POINT
  5
7B3
  8
DEFPOINTS
  6
CONTINUOUS
 62
     0
 10
14194.593629999999
 20
10395.0
 30
0.0
  0
POINT
  5
7B4
  8
DEFPOINTS
  6
CONTINUOUS
 62
     0
 10
14236.593629999999
 20
10395.0
 30
0.0
  0
POINT
  5
7B5
  8
DEFPOINTS
  6
CONTINUOUS
 62
     0
 10
14236.593629999999
 20
10214.019192636621
 30
0.0
  0
ENDBLK
  5
6AB
  8
0
  0
BLOCK
  8
0
  2
*D20
 70
     1
 10
0.0
 20
0.0
 30
0.0
  3
*D20
  1

  0
LINE
  5
6C1
  8
寸法
  6
CONTINUOUS
 62
     0
 10
13464.593629999999
 20
10260.40658063662
 30
0.0
 11
13464.593629999999
 21
10214.019192636621
 31
0.0
  0
LINE
  5
6C2
  8
寸法
  6
CONTINUOUS
 62
     0
 10
14194.593629999999
 20
10260.40658063662
 30
0.0
 11
14194.593629999999
 21
10214.019192636621
 31
0.0
  0
LINE
  5
6C3
  8
寸法
  6
CONTINUOUS
 62
     0
 10
13464.593629999999
 20
10214.019192636621
 30
0.0
 11
14194.593629999999
 21
10214.019192636621
 31
0.0
  0
INSERT
  5
6C4
  8
寸法
  6
CONTINUOUS
 62
     0
  2
_DOTSMALL
 10
13464.593629999999
 20
10214.019192636621
 30
0.0
 41
35.0
 42
35.0
 43
35.0
 50
180.0
  0
INSERT
  5
6C5
  8
寸法
  6
CONTINUOUS
 62
     0
  2
_DOTSMALL
 10
14194.593629999999
 20
10214.019192636621
 30
0.0
 41
35.0
 42
35.0
 43
35.0
  0
INSERT
  5
6C6
  8
寸法
  6
CONTINUOUS
  2
*U34
 10
0.0
 20
0.0
 30
0.0
  0
POINT
  5
6C7
  8
DEFPOINTS
  6
CONTINUOUS
 62
     0
 10
13464.593629999999
 20
10325.40658063662
 30
0.0
  0
POINT
  5
6C8
  8
DEFPOINTS
  6
CONTINUOUS
 62
     0
 10
14194.593629999999
 20
10325.40658063662
 30
0.0
  0
POINT
  5
6C9
  8
DEFPOINTS
  6
CONTINUOUS
 62
     0
 10
14194.593629999999
 20
10214.019192636621
 30
0.0
  0
ENDBLK
  5
6CB
  8
0
  0
BLOCK
  8
0
  2
*U22
 70
     1
 10
0.0
 20
0.0
 30
0.0
  3
*U22
  1

  0
TEXT
  5
750
  8
寸法
  6
CONTINUOUS
 62
     7
 10
14046.238880000001
 20
9791.1280776366239
 30
0.0
 40
25.0
  1
30R
  7
ＭＳ_ゴシック
  0
ENDBLK
  5
752
  8
0
  0
BLOCK
  8
0
  2
*U23
 70
     1
 10
0.0
 20
0.0
 30
0.0
  3
*U23
  1

  0
TEXT
  5
760
  8
寸法
  6
CONTINUOUS
 62
     0
 10
13750.75
 20
10409.570371303291
 30
0.0
 40
25.0
  1
235
 50
90.0
  0
ENDBLK
  5
762
  8
0
  0
BLOCK
  8
0
  2
*U24
 70
     1
 10
0.0
 20
0.0
 30
0.0
  3
*U24
  1

  0
TEXT
  5
764
  8
寸法
  6
CONTINUOUS
 62
     0
 10
13122.75
 20
10559.15514263662
 30
0.0
 40
25.0
  1
530
 50
90.0
  0
ENDBLK
  5
766
  8
0
  0
BLOCK
  8
0
  2
*U25
 70
     1
 10
0.0
 20
0.0
 30
0.0
  3
*U25
  1

  0
TEXT
  5
771
  8
寸法
  6
CONTINUOUS
 62
     0
 10
13196.75
 20
10780.570371303291
 30
0.0
 40
25.0
  1
72
 50
90.0
  0
ENDBLK
  5
773
  8
0
  0
BLOCK
  8
0
  2
*U26
 70
     1
 10
0.0
 20
0.0
 30
0.0
  3
*U26
  1

  0
TEXT
  5
775
  8
寸法
  6
CONTINUOUS
 62
     0
 10
13196.75
 20
10533.320371303291
 30
0.0
 40
25.0
  1
410
 50
90.0
  0
ENDBLK
  5
777
  8
0
  0
BLOCK
  8
0
  2
*U27
 70
     1
 10
0.0
 20
0.0
 30
0.0
  3
*U27
  1

  0
TEXT
  5
78D
  8
寸法
  6
CONTINUOUS
 62
     0
 10
13482.51029666666
 20
10975.25
 30
0.0
 40
25.0
  1
210
  0
ENDBLK
  5
78F
  8
0
  0
BLOCK
  8
0
  2
*U28
 70
     1
 10
0.0
 20
0.0
 30
0.0
  3
*U28
  1

  0
TEXT
  5
791
  8
寸法
  6
CONTINUOUS
 62
     0
 10
13587.51029666666
 20
9600.25
 30
0.0
 40
25.0
  1
160
  0
ENDBLK
  5
793
  8
0
  0
BLOCK
  8
0
  2
*U29
 70
     1
 10
0.0
 20
0.0
 30
0.0
  3
*U29
  1

  0
TEXT
  5
795
  8
寸法
  6
CONTINUOUS
 62
     0
 10
13589.593629999999
 20
9552.25
 30
0.0
 40
25.0
  1
181
  0
ENDBLK
  5
797
  8
0
  0
BLOCK
  8
0
  2
*U30
 70
     1
 10
0.0
 20
0.0
 30
0.0
  3
*U30
  1

  0
TEXT
  5
799
  8
寸法
  6
CONTINUOUS
 62
     0
 10
13261.75
 20
9796.7370379699641
 30
0.0
 40
25.0
  1
199
 50
90.0
  0
ENDBLK
  5
79B
  8
0
  0
BLOCK
  8
0
  2
*U31
 70
     1
 10
0.0
 20
0.0
 30
0.0
  3
*U31
  1

  0
TEXT
  5
7A6
  8
寸法
  6
CONTINUOUS
 62
     0
 10
13330.01029666666
 20
10220.269192636621
 30
0.0
 40
25.0
  1
18
  0
ENDBLK
  5
7A8
  8
0
  0
BLOCK
  8
0
  2
*U32
 70
     1
 10
0.0
 20
0.0
 30
0.0
  3
*U32
  1

  0
TEXT
  5
7AA
  8
寸法
  6
CONTINUOUS
 62
     0
 10
13798.343629999999
 20
10149.25
 30
0.0
 40
25.0
  1
850
  0
ENDBLK
  5
7AC
  8
0
  0
BLOCK
  8
0
  2
*U33
 70
     1
 10
0.0
 20
0.0
 30
0.0
  3
*U33
  1

  0
TEXT
  5
7B7
  8
寸法
  6
CONTINUOUS
 62
     0
 10
14295.84362999999
 20
10220.269192636621
 30
0.0
 40
25.0
  1
18
  0
ENDBLK
  5
7B9
  8
0
  0
BLOCK
  8
0
  2
*U34
 70
     1
 10
0.0
 20
0.0
 30
0.0
  3
*U34
  1

  0
TEXT
  5
7BB
  8
寸法
  6
CONTINUOUS
 62
     0
 10
13798.343629999999
 20
10220.269192636621
 30
0.0
 40
25.0
  1
730
  0
ENDBLK
  5
7BD
  8
0
  0
BLOCK
  8
0
  2
*U35
 70
     1
 10
0.0
 20
0.0
 30
0.0
  3
*U35
  1

  0
TEXT
  5
7BF
  8
実形
  6
CONTINUOUS
 10
-535.50547373011705
 20
-1957.5256124578359
 30
0.0
 40
45.0
  1
 e
  0
TEXT
  5
7C0
  8
実形
  6
CONTINUOUS
 10
-483.07709719532852
 20
-1957.5256124578359
 30
0.0
 40
35.001000000000012
  1
-KITCHEN 
  0
TEXT
  5
7C1
  8
実形
  6
CONTINUOUS
 10
-238.59535094703381
 20
-1957.5256124578359
 30
0.0
 40
11.9983428
  1
U-ARCHITECTURE WORKS
  0
ENDBLK
  5
7C3
  8
0
  0
BLOCK
  8
0
  2
*U36
 70
     1
 10
0.0
 20
0.0
 30
0.0
  3
*U36
  1

  0
TEXT
  5
7C5
  8
実形
  6
CONTINUOUS
 10
14704.49452626988
 20
9238.0890133840439
 30
0.0
 40
45.0
  1
 e
  0
TEXT
  5
7C6
  8
実形
  6
CONTINUOUS
 10
14756.92290280467
 20
9238.0890133840439
 30
0.0
 40
35.001000000000012
  1
-KITCHEN 
  0
TEXT
  5
7C7
  8
実形
  6
CONTINUOUS
 10
15001.40464905296
 20
9238.0890133840439
 30
0.0
 40
11.9983428
  1
U-ARCHITECTURE WORKS
  0
ENDBLK
  5
7C9
  8
0
  0
ENDSEC
  0
SECTION
  2
ENTITIES
  0
LINE
  5
12B
  8
0
 10
12550.0
 20
9416.8418714313702
 30
0.0
 11
12550.0
 21
9268.8418714313684
 31
0.0
  0
LINE
  5
12C
  8
0
 10
12550.0
 20
9218.8418714313702
 30
0.0
 11
15330.0
 21
9218.8418714313702
 31
0.0
  0
LINE
  5
12D
  8
0
 10
12550.0
 20
11062.614625841879
 30
0.0
 11
12550.0
 21
9268.8418714313684
 31
0.0
  0
LINE
  5
12E
  8
0
 10
15330.0
 20
11062.614625841879
 30
0.0
 11
12550.0
 21
11062.614625841879
 31
0.0
  0
LINE
  5
12F
  8
0
 10
15330.0
 20
9268.8418714313684
 30
0.0
 11
15330.0
 21
11062.614625841879
 31
0.0
  0
LINE
  5
131
  8
補助
 10
13205.729753
 20
10855.403704636619
 30
0.0
 11
14343.898314
 21
10855.403704636619
 31
0.0
  0
LINE
  5
132
  8
補助
 10
13205.729753
 20
10325.403704636619
 30
0.0
 11
14343.898314
 21
10325.403704636619
 31
0.0
  0
LINE
  5
133
  8
補助
 10
13205.729753
 20
9925.4037046366229
 30
0.0
 11
14343.898314
 21
9925.4037046366229
 31
0.0
  0
LINE
  5
134
  8
補助
 10
13404.593629999999
 20
10934.13999063662
 30
0.0
 11
13404.593629999999
 21
9547.5226136366236
 31
0.0
  0
LINE
  5
135
  8
補助
 10
14254.593629999999
 20
10934.13999063662
 30
0.0
 11
14254.593629999999
 21
9547.5226136366236
 31
0.0
  0
LINE
  5
136
  8
補助
 10
13205.729753
 20
10837.403704636619
 30
0.0
 11
14343.898314
 21
10837.403704636619
 31
0.0
  0
LINE
  5
137
  8
補助
 10
13205.729753
 20
10343.403704636619
 30
0.0
 11
14343.898314
 21
10343.403704636619
 31
0.0
  0
LINE
  5
138
  8
補助
 10
13422.593629999999
 20
10934.13999063662
 30
0.0
 11
13422.593629999999
 21
9547.5226136366236
 31
0.0
  0
LINE
  5
139
  8
補助
 10
14236.593629999999
 20
10934.13999063662
 30
0.0
 11
14236.593629999999
 21
9547.5226136366236
 31
0.0
  0
LINE
  5
146
  8
実形
 10
14254.593629999999
 20
10845.40658063662
 30
0.0
 11
14254.593629999999
 21
10335.40658063662
 31
0.0
  0
LINE
  5
147
  8
実形
 10
14249.593629999999
 20
10845.40658063662
 30
0.0
 11
14249.593629999999
 21
10335.40658063662
 31
0.0
  0
LINE
  5
148
  8
実形
 10
14236.593629999999
 20
10373.40658063662
 30
0.0
 11
14236.593629999999
 21
10807.40658063662
 31
0.0
  0
LINE
  5
149
  8
実形
 10
14241.593629999999
 20
10373.40658063662
 30
0.0
 11
14241.593629999999
 21
10807.40658063662
 31
0.0
  0
ARC
  5
14A
  8
実形
 10
14206.593629999999
 20
10373.40658063662
 30
0.0
 40
30.0
 50
270.0
 51
0.0
  0
ARC
  5
14B
  8
実形
 10
14206.593629999999
 20
10373.40658063662
 30
0.0
 40
35.0
 50
270.0
 51
0.0
  0
LINE
  5
14C
  8
実形
 10
14244.593629999999
 20
10330.40658063662
 30
0.0
 11
13414.593629999999
 21
10330.40658063662
 31
0.0
  0
ARC
  5
14D
  8
実形
 10
14244.593629999999
 20
10335.40658063662
 30
0.0
 40
5.0
 50
270.0
 51
0.0
  0
ARC
  5
14E
  8
実形
 10
14244.593629999999
 20
10335.40658063662
 30
0.0
 40
10.0
 50
270.0
 51
0.0
  0
LINE
  5
14F
  8
実形
 10
13452.593629999999
 20
10343.40658063662
 30
0.0
 11
14206.593629999999
 21
10343.40658063662
 31
0.0
  0
LINE
  5
150
  8
実形
 10
13452.593629999999
 20
10338.40658063662
 30
0.0
 11
14206.593629999999
 21
10338.40658063662
 31
0.0
  0
LINE
  5
151
  8
実形
 10
14206.593629999999
 20
10842.40658063662
 30
0.0
 11
13452.593629999999
 21
10842.40658063662
 31
0.0
  0
LINE
  5
152
  8
実形
 10
13414.593629999999
 20
10850.40658063662
 30
0.0
 11
14244.593629999999
 21
10850.40658063662
 31
0.0
  0
LINE
  5
153
  8
実形
 10
13414.593629999999
 20
10855.40658063662
 30
0.0
 11
14244.593629999999
 21
10855.40658063662
 31
0.0
  0
LINE
  5
154
  8
実形
 10
14206.593629999999
 20
10837.40658063662
 30
0.0
 11
13452.593629999999
 21
10837.40658063662
 31
0.0
  0
ARC
  5
155
  8
実形
 10
13452.593629999999
 20
10807.40658063662
 30
0.0
 40
35.0
 50
90.0
 51
180.0
  0
ARC
  5
156
  8
実形
 10
13414.593629999999
 20
10845.40658063662
 30
0.0
 40
5.0
 50
90.0
 51
180.0
  0
ARC
  5
157
  8
実形
 10
13414.593629999999
 20
10845.40658063662
 30
0.0
 40
10.0
 50
90.0
 51
180.0
  0
ARC
  5
158
  8
実形
 10
13452.593629999999
 20
10807.40658063662
 30
0.0
 40
30.0
 50
90.0
 51
180.0
  0
ARC
  5
159
  8
実形
 10
14206.593629999999
 20
10807.40658063662
 30
0.0
 40
35.0
 50
0.0
 51
90.0
  0
ARC
  5
15A
  8
実形
 10
14244.593629999999
 20
10845.40658063662
 30
0.0
 40
5.0
 50
0.0
 51
90.0
  0
ARC
  5
15B
  8
実形
 10
14244.593629999999
 20
10845.40658063662
 30
0.0
 40
10.0
 50
0.0
 51
90.0
  0
ARC
  5
15C
  8
実形
 10
14206.593629999999
 20
10807.40658063662
 30
0.0
 40
30.0
 50
0.0
 51
90.0
  0
LINE
  5
15D
  8
実形
 10
13417.593629999999
 20
10807.40658063662
 30
0.0
 11
13417.593629999999
 21
10373.40658063662
 31
0.0
  0
LINE
  5
15E
  8
実形
 10
13409.593629999999
 20
10335.40658063662
 30
0.0
 11
13409.593629999999
 21
10845.40658063662
 31
0.0
  0
LINE
  5
15F
  8
実形
 10
13404.593629999999
 20
10335.40658063662
 30
0.0
 11
13404.593629999999
 21
10845.40658063662
 31
0.0
  0
LINE
  5
160
  8
実形
 10
13422.593629999999
 20
10807.40658063662
 30
0.0
 11
13422.593629999999
 21
10373.40658063662
 31
0.0
  0
ARC
  5
161
  8
実形
 10
13414.593629999999
 20
10335.40658063662
 30
0.0
 40
5.0
 50
180.0
 51
270.0
  0
ARC
  5
162
  8
実形
 10
13414.593629999999
 20
10335.40658063662
 30
0.0
 40
10.0
 50
180.0
 51
270.0
  0
ARC
  5
163
  8
実形
 10
13452.593629999999
 20
10373.40658063662
 30
0.0
 40
35.0
 50
180.0
 51
270.0
  0
ARC
  5
164
  8
実形
 10
13452.593629999999
 20
10373.40658063662
 30
0.0
 40
30.0
 50
180.0
 51
270.0
  0
LINE
  5
165
  8
実形
 10
14244.593629999999
 20
10325.40658063662
 30
0.0
 11
13414.593629999999
 21
10325.40658063662
 31
0.0
  0
LINE
  5
166
  8
補助
 10
13414.593629999999
 20
10855.40658063662
 30
0.0
 11
13300.316412
 21
10855.373711636619
 31
0.0
  0
LINE
  5
167
  8
補助
 10
13404.593629999999
 20
10845.40658063662
 30
0.0
 11
13404.593629999999
 21
10917.33245463662
 31
0.0
  0
LINE
  5
168
  8
センタ_
 10
13750.132942
 20
10560.403704636619
 30
0.0
 11
13479.054318
 21
10560.403704636619
 31
0.0
  0
LINE
  5
16B
  8
センタ_
 10
13614.593629999999
 20
10695.94301563662
 30
0.0
 11
13614.593629999999
 21
10424.86439263662
 31
0.0
  0
LINE
  5
16D
  8
実形
 10
14044.593629999999
 20
9925.4037046366229
 30
0.0
 11
13434.593629999999
 21
9925.4037046366229
 31
0.0
  0
LINE
  5
170
  8
実形
 10
13705.093629999999
 20
9716.4037046366248
 30
0.0
 11
13524.093629999999
 21
9716.4037046366248
 31
0.0
  0
LINE
  5
171
  8
実形
 10
13705.093629999999
 20
9726.4037046366248
 30
0.0
 11
13534.593629999999
 21
9726.4037046366248
 31
0.0
  0
LINE
  5
172
  8
実形
 10
14044.593629999999
 20
9925.4037046366229
 30
0.0
 11
13434.593629999999
 21
9925.4037046366229
 31
0.0
  0
LINE
  5
173
  8
センタ_
 10
13614.593629999999
 20
9804.6203286366235
 30
0.0
 11
13614.593629999999
 21
9648.2045076366248
 31
0.0
  0
LINE
  5
174
  8
実形
 10
13705.093629999999
 20
9726.4037046366248
 30
0.0
 11
13705.093629999999
 21
9716.4037046366248
 31
0.0
  0
LINE
  5
175
  8
0
 10
14167.968075000001
 20
9761.6026086366237
 30
0.0
 11
14120.029576000001
 21
9792.0848306366242
 31
0.0
  0
INSERT
  5
176
  8
0
  2
*U0
 10
13940.0
 20
10165.72824863662
 30
0.0
  0
LINE
  5
178
  8
実形
 10
13524.093629999999
 20
9716.4037046366248
 30
0.0
 11
13524.093629999999
 21
9726.4037046366248
 31
0.0
  0
LINE
  5
179
  8
実形
 10
13524.093629999999
 20
9726.4037046366248
 30
0.0
 11
13524.09363000978
 21
9726.4037046423728
 31
0.0
  0
LINE
  5
17A
  8
実形
 10
13534.593629999999
 20
9726.4037046366248
 30
0.0
 11
13524.093629999999
 21
9726.4037046366248
 31
0.0
  0
INSERT
  5
17D
  8
寸法
  6
CONTINUOUS
  2
*U22
 10
0.0
 20
0.0
 30
0.0
  0
LINE
  5
17F
  8
実形
 10
14224.593629999999
 20
9925.4037046366229
 30
0.0
 11
14034.593629999999
 21
9925.4037046366229
 31
0.0
  0
LINE
  5
180
  8
実形
 10
14034.593629999999
 20
9925.4037046366229
 30
0.0
 11
14224.593629999999
 21
9925.4037046366229
 31
0.0
  0
LINE
  5
181
  8
実形
 10
14034.593629999999
 20
9925.4037046366229
 30
0.0
 11
14224.593629999999
 21
9925.4037046366229
 31
0.0
  0
LINE
  5
182
  8
補助
 10
13205.729753
 20
9726.4037046366248
 30
0.0
 11
14343.898314
 21
9726.4037046366248
 31
0.0
  0
LINE
  5
183
  8
実形
 10
14241.593629999999
 20
9915.4037046366248
 30
0.0
 11
13417.593629999999
 21
9915.4037046366248
 31
0.0
  0
LINE
  5
184
  8
実形
 10
14249.593629999999
 20
9930.4037046366248
 30
0.0
 11
13409.593629999999
 21
9930.4037046366248
 31
0.0
  0
LINE
  5
185
  8
実形
 10
14254.593629999999
 20
9925.4037046366229
 30
0.0
 11
13404.593629999999
 21
9925.4037046366229
 31
0.0
  0
LINE
  5
186
  8
実形
 10
13419.593629999999
 20
9925.4037046366229
 30
0.0
 11
14239.593629999999
 21
9925.4037046366229
 31
0.0
  0
LINE
  5
187
  8
実形
 10
13419.593629999999
 20
9925.4037046366229
 30
0.0
 11
14239.593629999999
 21
9925.4037046366229
 31
0.0
  0
LINE
  5
188
  8
実形
 10
13417.593629999999
 20
9915.4037046366248
 30
0.0
 11
13417.593629999999
 21
9925.4037046366229
 31
0.0
  0
LINE
  5
189
  8
実形
 10
13409.593629999999
 20
9930.4037046366248
 30
0.0
 11
13404.593629999999
 21
9925.4037046366229
 31
0.0
  0
LINE
  5
18A
  8
実形
 10
14241.593629999999
 20
9925.4037046366229
 30
0.0
 11
14241.593629999999
 21
9915.4037046366248
 31
0.0
  0
LINE
  5
18B
  8
実形
 10
14249.593629999999
 20
9930.4037046366248
 30
0.0
 11
14254.593629999999
 21
9925.4037046366229
 31
0.0
  0
LINE
  5
18C
  8
補助
 10
13205.729753
 20
10765.403704636619
 30
0.0
 11
14343.898314
 21
10765.403704636619
 31
0.0
  0
LINE
  5
18D
  8
補助
 10
13205.729753
 20
10355.403704636619
 30
0.0
 11
14343.898314
 21
10355.403704636619
 31
0.0
  0
LINE
  5
18E
  8
補助
 10
13205.729753
 20
10560.403704636619
 30
0.0
 11
14343.898314
 21
10560.403704636619
 31
0.0
  0
LINE
  5
18F
  8
補助
 10
13614.593629999999
 20
10934.13999063662
 30
0.0
 11
13614.593629999999
 21
9547.5226136366236
 31
0.0
  0
LINE
  5
190
  8
補助
 10
13205.729753
 20
9741.4037046366248
 30
0.0
 11
14343.898314
 21
9741.4037046366248
 31
0.0
  0
LINE
  5
1AC
  8
補助
 10
13464.593629999999
 20
10934.13999063662
 30
0.0
 11
13464.593629999999
 21
9547.5226136366236
 31
0.0
  0
LINE
  5
1AD
  8
補助
 10
14194.593629999999
 20
10934.13999063662
 30
0.0
 11
14194.593629999999
 21
9547.5226136366236
 31
0.0
  0
LINE
  5
1AE
  8
実形
 10
13464.593629999999
 20
9915.4037046366248
 30
0.0
 11
13464.593629999999
 21
9764.7793176366231
 31
0.0
  0
LINE
  5
1AF
  8
実形
 10
13487.260057
 20
9735.6894786366229
 30
0.0
 11
13524.093629999999
 21
9726.4037046366248
 31
0.0
  0
LINE
  5
1B0
  8
実形
 10
13705.093629999999
 20
9726.4037046366248
 30
0.0
 11
14165.476466
 21
9740.5464766366222
 31
0.0
  0
LINE
  5
1B1
  8
実形
 10
14194.593629999999
 20
9770.5334836366237
 30
0.0
 11
14194.593629999999
 21
9915.4037046366248
 31
0.0
  0
ARC
  5
1B2
  8
実形
 10
13494.593629999999
 20
9764.7793176366231
 30
0.0
 40
30.0
 50
180.0
 51
255.85052400000049
  0
ARC
  5
1B3
  8
実形
 10
14164.593629999999
 20
9770.5334836366237
 30
0.0
 40
29.999999999999979
 50
271.68633699999981
 51
0.0
  0
ARC
  5
1B4
  8
実形
 10
13829.593629999999
 20
13955.403704636619
 30
0.0
 40
3600.0
 50
265.43051200000002
 51
274.56948799999998
  0
ARC
  5
1B5
  8
実形
 10
13829.593629999999
 20
7165.4037046366238
 30
0.0
 40
3600.0
 50
85.430511999999979
 51
94.569488000000007
  0
ARC
  5
1B6
  8
実形
 10
14964.593629999999
 20
10560.403704636619
 30
0.0
 40
1499.9999999999991
 50
175.402873
 51
184.597127
  0
ARC
  5
1B7
  8
実形
 10
12694.593629999999
 20
10560.403704636619
 30
0.0
 40
1499.9999999999991
 50
355.40287299999977
 51
4.5971269999999977
  0
ARC
  5
1B8
  8
実形
 10
14110.025347000001
 20
10674.21519163662
 30
0.0
 40
80.000000000000938
 50
4.5971270000006488
 51
85.430511999999354
  0
ARC
  5
1B9
  8
実形
 10
14110.025347000001
 20
10446.59221763662
 30
0.0
 40
79.999999999999318
 50
274.56948800000077
 51
355.4028729999992
  0
ARC
  5
1BA
  8
実形
 10
13549.161913
 20
10446.59221763662
 30
0.0
 40
80.000000000000938
 50
184.59712700000071
 51
265.43051199999928
  0
ARC
  5
1BB
  8
実形
 10
13549.161913
 20
10674.21519163662
 30
0.0
 40
79.999999999999318
 50
94.569488000000746
 51
175.4028729999992
  0
LINE
  5
1BE
  8
0
 10
12550.0
 20
11012.614625841879
 30
0.0
 11
12550.0
 21
9218.8418714313702
 31
0.0
  0
LINE
  5
1EB
  8
0
 10
14610.0
 20
9348.8418714313739
 30
0.0
 11
15330.0
 21
9348.8418714313739
 31
0.0
  0
LINE
  5
1EC
  8
0
 10
14610.0
 20
9413.8418714313702
 30
0.0
 11
15330.0
 21
9413.8418714313702
 31
0.0
  0
LINE
  5
1ED
  8
0
 10
14610.0
 20
9283.8418714313702
 30
0.0
 11
15330.0
 21
9283.8418714313702
 31
0.0
  0
TEXT
  5
1EE
  8
実形
 10
14632.666666666661
 20
9363.8418714313702
 30
0.0
 40
35.0
  1
品番
 72
     4
 11
14670.0
 21
9381.3418714313702
 31
0.0
  0
TEXT
  5
1EF
  8
実形
 10
14632.666666666661
 20
9298.8418714313721
 30
0.0
 40
35.0
  1
尺度
 72
     4
 11
14670.0
 21
9316.3418714313721
 31
0.0
  0
LINE
  5
1F0
  8
0
 10
14610.0
 20
9218.8418714313702
 30
0.0
 11
14610.0
 21
9413.8418714313702
 31
0.0
  0
LINE
  5
1F3
  8
0
 10
14730.0
 20
9283.8418714313702
 30
0.0
 11
15330.0
 21
9283.8418714313702
 31
0.0
  0
TEXT
  5
1F4
  8
0
 10
14814.166666666661
 20
9363.8418714313702
 30
0.0
 40
35.0
  1
HLm/m850-530S
 72
     4
 11
15030.0
 21
9381.3418714313702
 31
0.0
  0
LINE
  5
1F7
  8
0
 10
14730.0
 20
9283.8418714313702
 30
0.0
 11
14730.0
 21
9413.8418714313702
 31
0.0
  0
TEXT
  5
1F8
  8
0
 10
14976.916666666661
 20
9298.8418714313721
 30
0.0
 40
35.0
  1
1：10
 72
     4
 11
15030.0
 21
9316.3418714313721
 31
0.0
  0
LINE
  5
1F9
  8
0
 10
15330.0
 20
9218.8418714313702
 30
0.0
 11
15330.0
 21
9283.8418714313702
 31
0.0
  0
LINE
  5
1FA
  8
0
 10
15330.0
 20
9348.8418714313739
 30
0.0
 11
15330.0
 21
9413.8418714313702
 31
0.0
  0
LINE
  5
1FB
  8
CEN
 10
15330.0
 20
9283.8418714313702
 30
0.0
 11
15330.0
 21
9348.8418714313739
 31
0.0
  0
TEXT
  5
245
  8
0
 10
12699.845180778781
 20
9374.9090839649962
 30
0.0
 40
30.0
  1
※実寸には製造上の誤差が多少生ずる場合があります。シンクの穴あけ加工は現物合わせにてお願いします。
  0
DIMENSION
  5
34B
  8
寸法
  6
CONTINUOUS
  2
*D3
 10
13422.593629999999
 20
10214.019192636621
 30
0.0
 11
13445.0
 21
10173.0
 31
0.0
 70
   128
 13
13464.593629999999
 23
10395.0
 33
0.0
 14
13422.593629999999
 24
10395.0
 34
0.0
1001
ACAD
1000
DSTYLE
1002
{
1070
   287
1070
     4
1070
   279
1070
     1
1002
}
  0
DIMENSION
  5
47D
  8
寸法
  6
CONTINUOUS
  2
*D4
 10
13757.0
 20
10325.403704636619
 30
0.0
 11
13738.25
 21
10442.90370463663
 31
0.0
 70
     0
 13
13614.593629999999
 23
10560.403704636619
 33
0.0
 14
13614.593629999999
 24
10325.403704636619
 34
0.0
 50
90.0
  0
DIMENSION
  5
497
  8
寸法
  6
CONTINUOUS
  2
*D5
 10
13129.0
 20
10325.403704636619
 30
0.0
 11
13110.25
 21
10590.40514263662
 31
0.0
 70
     0
 13
13422.593629999999
 23
10855.40658063662
 33
0.0
 14
13422.593629999999
 24
10325.403704636619
 34
0.0
 50
90.0
  0
DIMENSION
  5
4A4
  8
寸法
  6
CONTINUOUS
  2
*D6
 10
13203.0
 20
10837.403704636619
 30
0.0
 11
13203.0
 21
10881.0
 31
0.0
 70
   128
 13
13422.593629999999
 23
10855.40658063662
 33
0.0
 14
13422.593629999999
 24
10837.403704636619
 34
0.0
 50
90.0
1001
ACAD
1000
DSTYLE
1002
{
1070
   287
1070
     4
1070
   279
1070
     1
1002
}
  0
DIMENSION
  5
4EF
  8
寸法
  6
CONTINUOUS
  2
*D7
 10
13203.0
 20
10765.403704636619
 30
0.0
 11
13184.25
 21
10801.40370463663
 31
0.0
 70
     0
 13
13422.593629999999
 23
10837.403704636619
 33
0.0
 14
13422.593629999999
 24
10765.403704636619
 34
0.0
 50
90.0
  0
DIMENSION
  5
4FC
  8
寸法
  6
CONTINUOUS
  2
*D8
 10
13203.0
 20
10355.403704636619
 30
0.0
 11
13184.25
 21
10560.40370463663
 31
0.0
 70
     0
 13
13422.593629999999
 23
10765.403704636619
 33
0.0
 14
13422.593629999999
 24
10355.403704636619
 34
0.0
 50
90.0
  0
DIMENSION
  5
509
  8
寸法
  6
CONTINUOUS
  2
*D9
 10
13203.0
 20
10343.403704636619
 30
0.0
 11
13196.0
 21
10350.0
 31
0.0
 70
   128
 13
13422.578692789861
 23
10355.403704636619
 33
0.0
 14
13422.593629999999
 24
10343.403704636619
 34
0.0
 50
90.0
1001
ACAD
1000
DSTYLE
1002
{
1070
   287
1070
     4
1070
   279
1070
     1
1002
}
  0
DIMENSION
  5
53C
  8
寸法
  6
CONTINUOUS
  2
*D10
 10
13203.0
 20
10325.403704636619
 30
0.0
 11
13203.0
 21
10299.0
 31
0.0
 70
   128
 13
13422.593629999999
 23
10343.403704636619
 33
0.0
 14
13422.593629999999
 24
10325.403704636619
 34
0.0
 50
90.0
1001
ACAD
1000
DSTYLE
1002
{
1070
   287
1070
     4
1070
   279
1070
     1
1002
}
  0
DIMENSION
  5
56B
  8
寸法
  6
CONTINUOUS
  2
*D11
 10
13404.593629999999
 20
10969.0
 30
0.0
 11
13509.593629999999
 21
10987.75
 31
0.0
 70
     0
 13
13614.593629999999
 23
10837.403704636619
 33
0.0
 14
13404.593629999999
 24
10837.403704636619
 34
0.0
  0
DIMENSION
  5
591
  8
寸法
  6
CONTINUOUS
  2
*D12
 10
13694.593629999999
 20
9594.0
 30
0.0
 11
13614.593629999999
 21
9612.75
 31
0.0
 70
     0
 13
13534.593629999999
 23
9741.4037046366248
 33
0.0
 14
13694.593629999999
 24
9741.4037046366248
 34
0.0
  0
DIMENSION
  5
5AB
  8
寸法
  6
CONTINUOUS
  2
*D13
 10
13705.093629999999
 20
9546.0
 30
0.0
 11
13614.593629999999
 21
9564.7500000000018
 31
0.0
 70
     0
 13
13524.093629999999
 23
9741.4037046366248
 33
0.0
 14
13705.093629999999
 24
9741.4037046366248
 34
0.0
  0
DIMENSION
  5
5C5
  8
寸法
  6
CONTINUOUS
  2
*D14
 10
13268.0
 20
9726.4037046366248
 30
0.0
 11
13249.25
 21
9825.9037046366302
 31
0.0
 70
     0
 13
13464.593629999999
 23
9925.4037046366229
 33
0.0
 14
13464.593629999999
 24
9726.4037046366248
 34
0.0
 50
90.0
  0
DIMENSION
  5
5D2
  8
寸法
  6
CONTINUOUS
  2
*D15
 10
13330.701879
 20
9726.4037046366248
 30
0.0
 11
13315.0
 21
9705.0
 31
0.0
 70
   128
 13
13464.593629999999
 23
9741.4037046366248
 33
0.0
 14
13464.593629999999
 24
9726.4037046366248
 34
0.0
 50
90.0
1001
ACAD
1000
DSTYLE
1002
{
1070
   287
1070
     4
1070
   279
1070
     1
1002
}
  0
DIMENSION
  5
5F8
  8
寸法
  6
CONTINUOUS
  2
*D16
 10
13404.593629999999
 20
10214.019192636621
 30
0.0
 11
13346.67696333333
 21
10232.769192636621
 31
0.0
 70
     0
 13
13422.593629999999
 23
10394.0
 33
0.0
 14
13404.593629999999
 24
10394.0
 34
0.0
  0
DIMENSION
  5
684
  8
寸法
  6
CONTINUOUS
  2
*D17
 10
14254.593629999999
 20
10143.0
 30
0.0
 11
13829.593629999999
 21
10161.75
 31
0.0
 70
     0
 13
13404.593629999999
 23
10335.40658063662
 33
0.0
 14
14254.593629999999
 24
10335.40658063662
 34
0.0
  0
DIMENSION
  5
691
  8
寸法
  6
CONTINUOUS
  2
*D18
 10
14254.593629999999
 20
10214.019192636621
 30
0.0
 11
14312.51029666666
 21
10232.769192636621
 31
0.0
 70
     0
 13
14236.593629999999
 23
10394.0
 33
0.0
 14
14254.593629999999
 24
10394.0
 34
0.0
 50
180.0
  0
DIMENSION
  5
692
  8
寸法
  6
CONTINUOUS
  2
*D19
 10
14236.593629999999
 20
10214.019192636621
 30
0.0
 11
14214.187260000001
 21
10173.0
 31
0.0
 70
   128
 13
14194.593629999999
 23
10395.0
 33
0.0
 14
14236.593629999999
 24
10395.0
 34
0.0
 50
180.0
1001
ACAD
1000
DSTYLE
1002
{
1070
   287
1070
     4
1070
   279
1070
     1
1002
}
  0
DIMENSION
  5
6BF
  8
寸法
  6
CONTINUOUS
  2
*D20
 10
14194.593629999999
 20
10214.019192636621
 30
0.0
 11
13829.593629999999
 21
10232.769192636621
 31
0.0
 70
     0
 13
13464.593629999999
 23
10325.40658063662
 33
0.0
 14
14194.593629999999
 24
10325.40658063662
 34
0.0
  0
CIRCLE
  5
6CD
  8
寸法
  6
CONTINUOUS
 10
13614.593629999999
 20
10560.403704636619
 30
0.0
 40
80.0
  0
CIRCLE
  5
6CE
  8
寸法
  6
CONTINUOUS
 10
13614.593629999999
 20
10560.403704636619
 30
0.0
 40
90.5
  0
INSERT
  5
72C
  8
寸法
  6
CONTINUOUS
  2
*U36
 10
0.0
 20
0.0
 30
0.0
  0
TEXT
  5
72D
  8
実形
 10
14637.83333333333
 20
11012.614625841879
 30
0.0
 40
35.0
  1
部品名
 72
     4
 11
14695.0
 21
11030.114625841879
 31
0.0
  0
TEXT
  5
72E
  8
実形
 10
14880.166666666661
 20
11012.614625841879
 30
0.0
 40
35.0
  1
材質
 72
     4
 11
14917.5
 21
11030.114625841879
 31
0.0
  0
LINE
  5
72F
  8
0
 10
15055.0
 20
10932.614625841879
 30
0.0
 11
15055.0
 21
11062.614625841879
 31
0.0
  0
TEXT
  5
730
  8
実形
 10
14635.5
 20
10946.44795917521
 30
0.0
 40
35.0
  1
ボール
 72
     4
 11
14695.0
 21
10965.114625841879
 31
0.0
  0
LINE
  5
731
  8
0
 10
14780.0
 20
10932.614625841879
 30
0.0
 11
14780.0
 21
11062.614625841879
 31
0.0
  0
TEXT
  5
732
  8
実形
 10
14821.25
 20
10947.614625841879
 30
0.0
 40
35.0
  1
SUS304
 72
     4
 11
14917.5
 21
10965.114625841879
 31
0.0
  0
TEXT
  5
733
  8
実形
 10
15124.25
 20
10947.614625841879
 30
0.0
 40
35.0
  1
1.0ｍｍ
 72
     4
 11
15192.5
 21
10965.114625841879
 31
0.0
  0
TEXT
  5
734
  8
実形
 10
15113.166666666661
 20
11012.614625841879
 30
0.0
 40
35.0
  1
素材寸法
 72
     4
 11
15192.5
 21
11030.114625841879
 31
0.0
  0
LINE
  5
735
  8
0
 10
14610.0
 20
10932.614625841879
 30
0.0
 11
14610.0
 21
11062.614625841879
 31
0.0
  0
LINE
  5
736
  8
0
 10
15330.0
 20
10932.614625841879
 30
0.0
 11
14610.0
 21
10932.614625841879
 31
0.0
  0
LINE
  5
737
  8
0
 10
15330.0
 20
10997.614625841879
 30
0.0
 11
14610.0
 21
10997.614625841879
 31
0.0
  0
ENDSEC
  0
EOF
