  0
SECTION
  2
HEADER
  9
$ACADVER
  1
AC1009
  9
$INSBASE
 10
0.0
 20
0.0
 30
0.0
  9
$EXTMIN
 10
3.6255574361712202
 20
53.152423012832088
 30
-0.0000000349181948
  9
$EXTMAX
 10
2786.1877819595252
 20
2024.5056420384281
 30
0.0000000814935747
  9
$LIMMIN
 10
0.0
 20
0.0
  9
$LIMMAX
 10
29700.0
 20
21000.0
  9
$ORTHOMODE
 70
     1
  9
$REGENMODE
 70
     1
  9
$FILLMODE
 70
     1
  9
$QTEXTMODE
 70
     0
  9
$MIRRTEXT
 70
     1
  9
$DRAGMODE
 70
     2
  9
$LTSCALE
 40
4.0
  9
$OSMODE
 70
    37
  9
$ATTMODE
 70
     1
  9
$TEXTSIZE
 40
25.0
  9
$TRACEWID
 40
1.0
  9
$TEXTSTYLE
  7
STANDARD
  9
$CLAYER
  8
0
  9
$CELTYPE
  6
BYLAYER
  9
$CECOLOR
 62
   256
  9
$DIMSCALE
 40
1.0
  9
$DIMASZ
 40
35.0
  9
$DIMEXO
 40
65.0
  9
$DIMDLI
 40
3.75
  9
$DIMRND
 40
0.0
  9
$DIMDLE
 40
0.0
  9
$DIMEXE
 40
0.0
  9
$DIMTP
 40
0.0
  9
$DIMTM
 40
0.0
  9
$DIMTXT
 40
25.0
  9
$DIMCEN
 40
2.5
  9
$DIMTSZ
 40
0.0
  9
$DIMTOL
 70
     0
  9
$DIMLIM
 70
     0
  9
$DIMTIH
 70
     0
  9
$DIMTOH
 70
     0
  9
$DIMSE1
 70
     0
  9
$DIMSE2
 70
     0
  9
$DIMTAD
 70
     1
  9
$DIMZIN
 70
     8
  9
$DIMBLK
  1
DOTSMALL
  9
$DIMASO
 70
     1
  9
$DIMSHO
 70
     1
  9
$DIMPOST
  1

  9
$DIMAPOST
  1

  9
$DIMALT
 70
     0
  9
$DIMALTD
 70
     3
  9
$DIMALTF
 40
0.03937007874016
  9
$DIMLFAC
 40
1.0
  9
$DIMTOFL
 70
     1
  9
$DIMTVP
 40
0.0
  9
$DIMTIX
 70
     0
  9
$DIMSOXD
 70
     0
  9
$DIMSAH
 70
     0
  9
$DIMBLK1
  1

  9
$DIMBLK2
  1

  9
$DIMSTYLE
  2
ISO-25
  9
$DIMCLRD
 70
     0
  9
$DIMCLRE
 70
     0
  9
$DIMCLRT
 70
     0
  9
$DIMTFAC
 40
1.0
  9
$DIMGAP
 40
6.25
  9
$LUNITS
 70
     2
  9
$LUPREC
 70
     2
  9
$SKETCHINC
 40
1.0
  9
$FILLETRAD
 40
10.0
  9
$AUNITS
 70
     0
  9
$AUPREC
 70
     0
  9
$MENU
  1
.
  9
$ELEVATION
 40
0.0
  9
$PELEVATION
 40
0.0
  9
$THICKNESS
 40
0.0
  9
$LIMCHECK
 70
     1
  9
$BLIPMODE
 70
     0
  9
$CHAMFERA
 40
10.0
  9
$CHAMFERB
 40
10.0
  9
$SKPOLY
 70
     0
  9
$TDCREATE
 40
2451673.5758021991
  9
$TDUPDATE
 40
2454203.584520035
  9
$TDINDWG
 40
0.7997528356
  9
$TDUSRTIMER
 40
0.7997432755
  9
$USRTIMER
 70
     1
  9
$ANGBASE
 50
0.0
  9
$ANGDIR
 70
     0
  9
$PDMODE
 70
     3
  9
$PDSIZE
 40
0.0
  9
$PLINEWID
 40
0.0
  9
$COORDS
 70
     0
  9
$SPLFRAME
 70
     0
  9
$SPLINETYPE
 70
     6
  9
$SPLINESEGS
 70
     8
  9
$ATTDIA
 70
     0
  9
$ATTREQ
 70
     1
  9
$HANDLING
 70
     1
  9
$HANDSEED
  5
1DB4
  9
$SURFTAB1
 70
     6
  9
$SURFTAB2
 70
     6
  9
$SURFTYPE
 70
     6
  9
$SURFU
 70
     6
  9
$SURFV
 70
     6
  9
$UCSNAME
  2

  9
$UCSORG
 10
0.0
 20
0.0
 30
0.0
  9
$UCSXDIR
 10
1.0
 20
0.0
 30
0.0
  9
$UCSYDIR
 10
0.0
 20
1.0
 30
0.0
  9
$PUCSNAME
  2

  9
$PUCSORG
 10
0.0
 20
0.0
 30
0.0
  9
$PUCSXDIR
 10
1.0
 20
0.0
 30
0.0
  9
$PUCSYDIR
 10
0.0
 20
1.0
 30
0.0
  9
$USERI1
 70
     0
  9
$USERI2
 70
     0
  9
$USERI3
 70
     0
  9
$USERI4
 70
     0
  9
$USERI5
 70
     0
  9
$USERR1
 40
0.0
  9
$USERR2
 40
0.0
  9
$USERR3
 40
0.0
  9
$USERR4
 40
0.0
  9
$USERR5
 40
0.0
  9
$WORLDVIEW
 70
     1
  9
$SHADEDGE
 70
     3
  9
$SHADEDIF
 70
    70
  9
$TILEMODE
 70
     1
  9
$MAXACTVP
 70
    64
  9
$PLIMCHECK
 70
     0
  9
$PEXTMIN
 10
27.844751262664801
 20
20.245916438102711
 30
0.0
  9
$PEXTMAX
 10
250.60276136398309
 20
182.2132479429244
 30
0.0
  9
$PLIMMIN
 10
-3.757080078125
 20
-3.757083177566527
  9
$PLIMMAX
 10
293.21124267578131
 20
206.21624445915211
  9
$UNITMODE
 70
     0
  9
$VISRETAIN
 70
     1
  9
$PLINEGEN
 70
     0
  9
$PSLTSCALE
 70
     1
  0
ENDSEC
  0
SECTION
  2
TABLES
  0
TABLE
  2
VPORT
 70
     6
  0
VPORT
  2
*ACTIVE
 70
     0
 10
0.0
 20
0.0
 11
1.0
 21
1.0
 12
1394.906669697848
 22
1039.1693494040189
 13
0.0
 23
0.0
 14
10.0
 24
10.0
 15
10.0
 25
10.0
 16
0.0
 26
0.0
 36
1.0
 17
0.0
 27
0.0
 37
0.0
 40
2127.0820571520521
 41
1.316069057104913
 42
50.0
 43
0.0
 44
0.0
 50
0.0
 51
0.0
 71
     0
 72
   100
 73
     1
 74
     3
 75
     0
 76
     0
 77
     0
 78
     0
  0
ENDTAB
  0
TABLE
  2
LTYPE
 70
    46
  0
LTYPE
  2
CONTINUOUS
 70
     0
  3
Solid line
 72
    65
 73
     0
 40
0.0
  0
LTYPE
  2
ACAD_ISO02W100
 70
     0
  3
ISO dash __ __ __ __ __ __ __ __ __ __ __ __ __
 72
    65
 73
     2
 40
15.0
 49
12.0
 49
-3.0
  0
LTYPE
  2
ACAD_ISO03W100
 70
     0
  3
ISO dash space __    __    __    __    __    __
 72
    65
 73
     2
 40
30.0
 49
12.0
 49
-18.0
  0
LTYPE
  2
ACAD_ISO04W100
 70
     0
  3
ISO long-dash dot ____ . ____ . ____ . ____ . _
 72
    65
 73
     4
 40
30.0
 49
24.0
 49
-3.0
 49
0.0
 49
-3.0
  0
LTYPE
  2
ACAD_ISO05W100
 70
     0
  3
ISO long-dash double-dot ____ .. ____ .. ____ .
 72
    65
 73
     6
 40
34.0
 49
24.0
 49
-3.0
 49
0.5
 49
-3.0
 49
0.5
 49
-3.0
  0
LTYPE
  2
ACAD_ISO06W100
 70
     0
  3
ISO long-dash triple-dot ____ ... ____ ... ____
 72
    65
 73
     8
 40
37.5
 49
24.0
 49
-3.0
 49
0.5
 49
-3.0
 49
0.5
 49
-3.0
 49
0.5
 49
-3.0
  0
LTYPE
  2
ACAD_ISO07W100
 70
     0
  3
ISO dot . . . . . . . . . . . . . . . . . . . .
 72
    65
 73
     2
 40
3.0
 49
0.0
 49
-3.0
  0
LTYPE
  2
ACAD_ISO08W100
 70
     0
  3
ISO long-dash short-dash ____ __ ____ __ ____ _
 72
    65
 73
     4
 40
36.0
 49
24.0
 49
-3.0
 49
6.0
 49
-3.0
  0
LTYPE
  2
ACAD_ISO09W100
 70
     0
  3
ISO long-dash double-short-dash ____ __ __ ____
 72
    65
 73
     6
 40
45.0
 49
24.0
 49
-3.0
 49
6.0
 49
-3.0
 49
6.0
 49
-3.0
  0
LTYPE
  2
ACAD_ISO10W100
 70
     0
  3
ISO dash dot __ . __ . __ . __ . __ . __ . __ .
 72
    65
 73
     4
 40
18.0
 49
12.0
 49
-3.0
 49
0.0
 49
-3.0
  0
LTYPE
  2
ACAD_ISO11W100
 70
     0
  3
ISO double-dash dot __ __ . __ __ . __ __ . __ 
 72
    65
 73
     6
 40
33.0
 49
12.0
 49
-3.0
 49
12.0
 49
-3.0
 49
0.0
 49
-3.0
  0
LTYPE
  2
ACAD_ISO12W100
 70
     0
  3
ISO dash double-dot __ . . __ . . __ . . __ . .
 72
    65
 73
     6
 40
21.0
 49
12.0
 49
-3.0
 49
0.0
 49
-3.0
 49
0.0
 49
-3.0
  0
LTYPE
  2
ACAD_ISO13W100
 70
     0
  3
ISO double-dash double-dot __ __ . . __ __ . . 
 72
    65
 73
     8
 40
36.0
 49
12.0
 49
-3.0
 49
12.0
 49
-3.0
 49
0.0
 49
-3.0
 49
0.0
 49
-3.0
  0
LTYPE
  2
ACAD_ISO14W100
 70
     0
  3
ISO dash triple-dot __ . . . __ . . . __ . . . 
 72
    65
 73
     8
 40
24.0
 49
12.0
 49
-3.0
 49
0.0
 49
-3.0
 49
0.0
 49
-3.0
 49
0.0
 49
-3.0
  0
LTYPE
  2
ACAD_ISO15W100
 70
     0
  3
ISO double-dash triple-dot __ __ . . . __ __ . 
 72
    65
 73
    10
 40
39.0
 49
12.0
 49
-3.0
 49
12.0
 49
-3.0
 49
0.0
 49
-3.0
 49
0.0
 49
-3.0
 49
0.0
 49
-3.0
  0
LTYPE
  2
BATTING
 70
     0
  3
Batting SSSSSSSSSSSSSSSSSSSSSSSSSSSSSSSSSSSSSSS
 72
    65
 73
     4
 40
10.16254
 49
0.00254
 49
-2.54
 49
-5.0800000000000001
 49
-2.54
  0
LTYPE
  2
BORDER
 70
     0
  3
Border __ __ . __ __ . __ __ . __ __ . __ __ .
 72
    65
 73
     6
 40
44.450000000000003
 49
12.699999999999999
 49
-6.349999999999997
 49
12.699999999999999
 49
-6.349999999999997
 49
0.0
 49
-6.349999999999997
  0
LTYPE
  2
BORDER2
 70
     0
  3
Border (.5x) __.__.__.__.__.__.__.__.__.__.__.
 72
    65
 73
     6
 40
22.225000000000001
 49
6.349999999999997
 49
-3.174999999999998
 49
6.349999999999997
 49
-3.174999999999998
 49
0.0
 49
-3.174999999999998
  0
LTYPE
  2
BORDERX2
 70
     0
  3
Border (2x) ____  ____  .  ____  ____  .  ___
 72
    65
 73
     6
 40
88.900000000000006
 49
25.399999999999999
 49
-12.699999999999999
 49
25.399999999999999
 49
-12.699999999999999
 49
0.0
 49
-12.699999999999999
  0
LTYPE
  2
CENTER
 70
     0
  3
Center ____ _ ____ _ ____ _ ____ _ ____ _ ____
 72
    65
 73
     4
 40
50.799999999999997
 49
31.75
 49
-6.349999999999997
 49
6.349999999999997
 49
-6.349999999999997
  0
LTYPE
  2
CENTER2
 70
     0
  3
Center (.5x) ___ _ ___ _ ___ _ ___ _ ___ _ ___
 72
    65
 73
     4
 40
28.574999999999999
 49
19.050000000000001
 49
-3.174999999999998
 49
3.174999999999998
 49
-3.174999999999998
  0
LTYPE
  2
CENTERX2
 70
     0
  3
Center (2x) ________  __  ________  __  _____
 72
    65
 73
     4
 40
101.59999999999999
 49
63.5
 49
-12.699999999999999
 49
12.699999999999999
 49
-12.699999999999999
  0
LTYPE
  2
DASHDOT
 70
     0
  3
Dash dot __ . __ . __ . __ . __ . __ . __ . __
 72
    65
 73
     4
 40
25.399999999999999
 49
12.699999999999999
 49
-6.349999999999997
 49
0.0
 49
-6.349999999999997
  0
LTYPE
  2
DASHDOT2
 70
     0
  3
Dash dot (.5x) _._._._._._._._._._._._._._._.
 72
    65
 73
     4
 40
12.699999999999999
 49
6.349999999999997
 49
-3.174999999999998
 49
0.0
 49
-3.174999999999998
  0
LTYPE
  2
DASHDOTX2
 70
     0
  3
Dash dot (2x) ____  .  ____  .  ____  .  ___
 72
    65
 73
     4
 40
50.799999999999997
 49
25.399999999999999
 49
-12.699999999999999
 49
0.0
 49
-12.699999999999999
  0
LTYPE
  2
DASHED
 70
     0
  3
Dashed __ __ __ __ __ __ __ __ __ __ __ __ __ _
 72
    65
 73
     2
 40
19.050000000000001
 49
12.699999999999999
 49
-6.349999999999997
  0
LTYPE
  2
DASHED2
 70
     0
  3
Dashed (.5x) _ _ _ _ _ _ _ _ _ _ _ _ _ _ _ _ _
 72
    65
 73
     2
 40
9.5249999999999968
 49
6.349999999999997
 49
-3.174999999999998
  0
LTYPE
  2
DASHEDX2
 70
     0
  3
Dashed (2x) ____  ____  ____  ____  ____  ___
 72
    65
 73
     2
 40
38.100000000000001
 49
25.399999999999999
 49
-12.699999999999999
  0
LTYPE
  2
DIVIDE
 70
     0
  3
Divide ____ . . ____ . . ____ . . ____ . . ____
 72
    65
 73
     6
 40
31.75
 49
12.699999999999999
 49
-6.349999999999997
 49
0.0
 49
-6.349999999999997
 49
0.0
 49
-6.349999999999997
  0
LTYPE
  2
DIVIDE2
 70
     0
  3
Divide (.5x) __..__..__..__..__..__..__..__.._
 72
    65
 73
     6
 40
15.875
 49
6.349999999999997
 49
-3.174999999999998
 49
0.0
 49
-3.174999999999998
 49
0.0
 49
-3.174999999999998
  0
LTYPE
  2
DIVIDEX2
 70
     0
  3
Divide (2x) ________  .  .  ________  .  .  _
 72
    65
 73
     6
 40
63.499999999999993
 49
25.399999999999999
 49
-12.699999999999999
 49
0.0
 49
-12.699999999999999
 49
0.0
 49
-12.699999999999999
  0
LTYPE
  2
DOT
 70
     0
  3
Dot . . . . . . . . . . . . . . . . . . . . . .
 72
    65
 73
     2
 40
6.349999999999997
 49
0.0
 49
-6.349999999999997
  0
LTYPE
  2
DOT2
 70
     0
  3
Dot (.5x) .....................................
 72
    65
 73
     2
 40
3.174999999999998
 49
0.0
 49
-3.174999999999998
  0
LTYPE
  2
DOTX2
 70
     0
  3
Dot (2x) .  .  .  .  .  .  .  .  .  .  .  .  . 
 72
    65
 73
     2
 40
12.699999999999999
 49
0.0
 49
-12.699999999999999
  0
LTYPE
  2
FENCELINE1
 70
     0
  3
Fenceline circle ----0-----0----0-----0----0---
 72
    65
 73
     4
 40
36.829999999999998
 49
6.349999999999997
 49
-2.54
 49
-2.54
 49
25.399999999999999
  0
LTYPE
  2
FENCELINE2
 70
     0
  3
Fenceline square ----[]-----[]----[]-----[]----
 72
    65
 73
     4
 40
36.829999999999998
 49
6.349999999999997
 49
-2.54
 49
-2.54
 49
25.399999999999999
  0
LTYPE
  2
GAS_LINE
 70
     0
  3
Gas line ----GAS----GAS----GAS----GAS----GAS---
 72
    65
 73
     3
 40
24.129999999999999
 49
12.699999999999999
 49
-5.0800000000000001
 49
-6.349999999999997
  0
LTYPE
  2
HIDDEN
 70
     0
  3
Hidden __ __ __ __ __ __ __ __ __ __ __ __ __ _
 72
    65
 73
     2
 40
9.5249999999999968
 49
6.349999999999997
 49
-3.174999999999998
  0
LTYPE
  2
HIDDEN2
 70
     0
  3
Hidden (.5x) _ _ _ _ _ _ _ _ _ _ _ _ _ _ _ _ _
 72
    65
 73
     2
 40
4.7624999999999984
 49
3.174999999999998
 49
-1.587499999999999
  0
LTYPE
  2
HIDDENX2
 70
     0
  3
Hidden (2x) ____ ____ ____ ____ ____ ____ ____
 72
    65
 73
     2
 40
19.050000000000001
 49
12.699999999999999
 49
-6.349999999999997
  0
LTYPE
  2
HOT_WATER_SUPPLY
 70
     0
  3
Hot water supply ---- HW ---- HW ---- HW ----
 72
    65
 73
     3
 40
22.859999999999999
 49
12.699999999999999
 49
-5.0800000000000001
 49
-5.0800000000000001
  0
LTYPE
  2
PHANTOM
 70
     0
  3
Phantom ______  __  __  ______  __  __  ______
 72
    65
 73
     6
 40
63.5
 49
31.75
 49
-6.349999999999997
 49
6.349999999999997
 49
-6.349999999999997
 49
6.349999999999997
 49
-6.349999999999997
  0
LTYPE
  2
PHANTOM2
 70
     0
  3
Phantom (.5x) ___ _ _ ___ _ _ ___ _ _ ___ _ _
 72
    65
 73
     6
 40
31.75
 49
15.875
 49
-3.174999999999998
 49
3.174999999999998
 49
-3.174999999999998
 49
3.174999999999998
 49
-3.174999999999998
  0
LTYPE
  2
PHANTOMX2
 70
     0
  3
Phantom (2x) ____________    ____    ____   _
 72
    65
 73
     6
 40
127.0
 49
63.5
 49
-12.699999999999999
 49
12.699999999999999
 49
-12.699999999999999
 49
12.699999999999999
 49
-12.699999999999999
  0
LTYPE
  2
TRACKS
 70
     0
  3
Tracks -|-|-|-|-|-|-|-|-|-|-|-|-|-|-|-|-|-|-|-|
 72
    65
 73
     2
 40
7.6200000000000001
 49
3.8100000000000001
 49
3.8100000000000001
  0
LTYPE
  2
ZIGZAG
 70
     0
  3
Zig zag /\/\/\/\/\/\/\/\/\/\/\/\/\/\/\/\/\/\/\/
 72
    65
 73
     4
 40
20.32254
 49
0.00254
 49
-5.0800000000000001
 49
-10.16
 49
-5.0800000000000001
  0
ENDTAB
  0
TABLE
  2
LAYER
 70
     8
  0
LAYER
  2
0
 70
     0
 62
     7
  6
CONTINUOUS
  0
LAYER
  2
補助
 70
     0
 62
    -4
  6
CONTINUOUS
  0
LAYER
  2
DEFPOINTS
 70
     0
 62
     7
  6
CONTINUOUS
  0
LAYER
  2
センタ_
 70
     0
 62
     7
  6
CENTER2
  0
LAYER
  2
実形
 70
     0
 62
     7
  6
CONTINUOUS
  0
LAYER
  2
寸法
 70
     0
 62
     7
  6
CONTINUOUS
  0
LAYER
  2
ハッチング
 70
     0
 62
     7
  6
CONTINUOUS
  0
LAYER
  2
文字
 70
     0
 62
     7
  6
CONTINUOUS
  0
ENDTAB
  0
TABLE
  2
STYLE
 70
     2
  0
STYLE
  2
STANDARD
 70
     0
 40
0.0
 41
1.0
 50
0.0
 71
     0
 42
25.0
  3
txt.shx
  4
bigfont.shx
  0
STYLE
  2

 70
     1
 40
0.0
 41
1.0
 50
0.0
 71
     0
 42
2.5
  3
ltypeshp.shx
  4

  0
ENDTAB
  0
TABLE
  2
VIEW
 70
     0
  0
ENDTAB
  0
TABLE
  2
UCS
 70
     0
  0
ENDTAB
  0
TABLE
  2
APPID
 70
     2
  0
APPID
  2
ACAD
 70
     0
  0
APPID
  2
DCO15
 70
     0
  0
ENDTAB
  0
TABLE
  2
DIMSTYLE
 70
     1
  0
DIMSTYLE
  2
ISO-25
 70
     0
  3

  4

  5

  6

  7

 40
1.0
 41
35.0
 42
65.0
 43
3.75
 44
0.0
 45
0.0
 46
0.0
 47
0.0
 48
0.0
140
25.0
141
2.5
142
0.0
143
0.03937007874016
144
1.0
145
0.0
146
1.0
147
6.25
 71
     0
 72
     0
 73
     0
 74
     0
 75
     0
 76
     0
 77
     1
 78
     8
170
     0
171
     3
172
     1
173
     0
174
     0
175
     0
176
     0
177
     0
178
     0
  0
ENDTAB
  0
ENDSEC
  0
SECTION
  2
BLOCKS
  0
BLOCK
  8
0
  2
$MODEL_SPACE
 70
     0
 10
0.0
 20
0.0
 30
0.0
  3
$MODEL_SPACE
  1

  0
ENDBLK
  5
1A72
  8
0
  0
BLOCK
 67
     1
  8
0
  2
$PAPER_SPACE
 70
     0
 10
0.0
 20
0.0
 30
0.0
  3
$PAPER_SPACE
  1

  0
ENDBLK
  5
1A6E
 67
     1
  8
0
  0
BLOCK
  8
0
  2
_DOTSMALL
 70
     0
 10
0.0
 20
0.0
 30
0.0
  3
_DOTSMALL
  1

  0
POLYLINE
  5
D1
  8
0
 62
     0
 66
     1
 10
0.0
 20
0.0
 30
0.0
 70
     1
 40
0.5
 41
0.5
  0
VERTEX
  5
1CFE
  8
0
 62
     0
 10
-0.0625
 20
0.0
 30
0.0
 42
1.0
  0
VERTEX
  5
1CFF
  8
0
 62
     0
 10
0.0625
 20
0.0
 30
0.0
 42
1.0
  0
SEQEND
  5
1D00
  8
0
 62
     0
  0
ENDBLK
  5
D3
  8
0
  0
BLOCK
  8
0
  2
_ORIGIN2
 70
     0
 10
0.0
 20
0.0
 30
0.0
  3
_ORIGIN2
  1

  0
CIRCLE
  5
D5
  8
0
 62
     0
 10
0.0
 20
0.0
 30
0.0
 40
0.5
  0
CIRCLE
  5
D6
  8
0
 62
     0
 10
0.0
 20
0.0
 30
0.0
 40
0.25
  0
LINE
  5
D7
  8
0
 62
     0
 10
-0.5
 20
0.0
 30
0.0
 11
-1.0
 21
0.0
 31
0.0
  0
ENDBLK
  5
D9
  8
0
  0
BLOCK
  8
0
  2
_OPEN30
 70
     0
 10
0.0
 20
0.0
 30
0.0
  3
_OPEN30
  1

  0
LINE
  5
DB
  8
0
 62
     0
 10
-1.0
 20
0.26794919
 30
0.0
 11
0.0
 21
0.0
 31
0.0
  0
LINE
  5
DC
  8
0
 62
     0
 10
0.0
 20
0.0
 30
0.0
 11
-1.0
 21
-0.26794919
 31
0.0
  0
LINE
  5
DD
  8
0
 62
     0
 10
0.0
 20
0.0
 30
0.0
 11
-1.0
 21
0.0
 31
0.0
  0
ENDBLK
  5
DF
  8
0
  0
BLOCK
  8
0
  2
*D5
 70
     1
 10
0.0
 20
0.0
 30
0.0
  3
*D5
  1

  0
LINE
  5
186E
  8
寸法
 62
     0
 10
1174.83470092179
 20
1568.3595071541149
 30
0.0
 11
1174.83470092179
 21
1807.6569434059229
 31
0.0
  0
LINE
  5
186F
  8
寸法
 62
     0
 10
1024.83470092179
 20
1658.8267060590019
 30
0.0
 11
1024.83470092179
 21
1807.6569434059229
 31
0.0
  0
LINE
  5
1870
  8
寸法
 62
     0
 10
1174.83470092179
 20
1807.6569434059229
 30
0.0
 11
1024.83470092179
 21
1807.6569434059229
 31
0.0
  0
INSERT
  5
1871
  8
寸法
 62
     0
  2
_DOTSMALL
 10
1174.83470092179
 20
1807.6569434059229
 30
0.0
 41
35.0
 42
35.0
 43
35.0
  0
INSERT
  5
1872
  8
寸法
 62
     0
  2
_DOTSMALL
 10
1024.83470092179
 20
1807.6569434059229
 30
0.0
 41
35.0
 42
35.0
 43
35.0
 50
180.0
  0
INSERT
  5
1873
  8
補助
  2
*U6
 10
0.0
 20
0.0
 30
0.0
  0
POINT
  5
1874
  8
DEFPOINTS
 62
     0
 10
1174.83470092179
 20
1503.359507154114
 30
0.0
  0
POINT
  5
1875
  8
DEFPOINTS
 62
     0
 10
1024.83470092179
 20
1593.8267060590031
 30
0.0
  0
POINT
  5
1876
  8
DEFPOINTS
 62
     0
 10
1024.83470092179
 20
1807.6569434059229
 30
0.0
  0
ENDBLK
  5
367
  8
0
  0
BLOCK
  8
0
  2
*U6
 70
     1
 10
0.0
 20
0.0
 30
0.0
  3
*U6
  1

  0
TEXT
  5
1A3A
  8
寸法
 62
     0
 10
1072.751367588457
 20
1813.9069434059229
 30
0.0
 40
25.0
  1
150
  0
ENDBLK
  5
1A3C
  8
0
  0
BLOCK
  8
0
  2
*D7
 70
     1
 10
0.0
 20
0.0
 30
0.0
  3
*D7
  1

  0
LINE
  5
1897
  8
寸法
 62
     0
 10
1239.83470092179
 20
1503.359507154114
 30
0.0
 11
1437.4377135407719
 21
1503.359507154114
 31
0.0
  0
LINE
  5
1898
  8
寸法
 62
     0
 10
1309.83470092179
 20
1653.359507154114
 30
0.0
 11
1437.4377135407719
 21
1653.359507154114
 31
0.0
  0
LINE
  5
1899
  8
寸法
 62
     0
 10
1437.4377135407719
 20
1503.359507154114
 30
0.0
 11
1437.4377135407719
 21
1653.359507154114
 31
0.0
  0
INSERT
  5
189A
  8
寸法
 62
     0
  2
_DOTSMALL
 10
1437.4377135407719
 20
1503.359507154114
 30
0.0
 41
35.0
 42
35.0
 43
35.0
 50
270.0
  0
INSERT
  5
189B
  8
寸法
 62
     0
  2
_DOTSMALL
 10
1437.4377135407719
 20
1653.359507154114
 30
0.0
 41
35.0
 42
35.0
 43
35.0
 50
90.0
  0
INSERT
  5
189C
  8
補助
  2
*U8
 10
0.0
 20
0.0
 30
0.0
  0
POINT
  5
189D
  8
DEFPOINTS
 62
     0
 10
1174.83470092179
 20
1503.359507154114
 30
0.0
  0
POINT
  5
189E
  8
DEFPOINTS
 62
     0
 10
1244.83470092179
 20
1653.359507154114
 30
0.0
  0
POINT
  5
189F
  8
DEFPOINTS
 62
     0
 10
1437.4377135407719
 20
1653.359507154114
 30
0.0
  0
ENDBLK
  5
374
  8
0
  0
BLOCK
  8
0
  2
*U8
 70
     1
 10
0.0
 20
0.0
 30
0.0
  3
*U8
  1

  0
TEXT
  5
1A3E
  8
寸法
 62
     0
 10
1431.1877135407719
 20
1551.276173820781
 30
0.0
 40
25.0
  1
150
 50
90.0
  0
ENDBLK
  5
1A40
  8
0
  0
BLOCK
  8
0
  2
*D9
 70
     1
 10
0.0
 20
0.0
 30
0.0
  3
*D9
  1

  0
LINE
  5
184F
  8
寸法
 62
     0
 10
947.83470092179016
 20
1715.3595071541149
 30
0.0
 11
866.65938619791734
 21
1715.3595071541149
 31
0.0
  0
LINE
  5
1850
  8
寸法
 62
     0
 10
947.83470092179016
 20
1653.359507154114
 30
0.0
 11
866.65938619791734
 21
1653.359507154114
 31
0.0
  0
LINE
  5
1851
  8
寸法
 62
     0
 10
866.65938619791734
 20
1715.3595071541149
 30
0.0
 11
866.65938619791734
 21
1653.359507154114
 31
0.0
  0
INSERT
  5
1852
  8
寸法
 62
     0
  2
_DOTSMALL
 10
866.65938619791734
 20
1715.3595071541149
 30
0.0
 41
35.0
 42
35.0
 43
35.0
 50
90.0
  0
INSERT
  5
1853
  8
寸法
 62
     0
  2
_DOTSMALL
 10
866.65938619791734
 20
1653.359507154114
 30
0.0
 41
35.0
 42
35.0
 43
35.0
 50
270.0
  0
POINT
  5
1854
  8
DEFPOINTS
 62
     0
 10
1012.83470092179
 20
1715.3595071541149
 30
0.0
  0
POINT
  5
1855
  8
DEFPOINTS
 62
     0
 10
1012.83470092179
 20
1653.359507154114
 30
0.0
  0
POINT
  5
1856
  8
DEFPOINTS
 62
     0
 10
866.65938619791734
 20
1653.359507154114
 30
0.0
  0
ENDBLK
  5
3DB
  8
0
  0
BLOCK
  8
0
  2
*D10
 70
     1
 10
0.0
 20
0.0
 30
0.0
  3
*D10
  1

  0
LINE
  5
19EA
  8
寸法
 62
     0
 10
944.83470092179004
 20
1653.359507154114
 30
0.0
 11
866.65938619791734
 21
1653.359507154114
 31
0.0
  0
LINE
  5
19EB
  8
寸法
 62
     0
 10
944.83470092179004
 20
1353.359507154114
 30
0.0
 11
866.65938619791734
 21
1353.359507154114
 31
0.0
  0
LINE
  5
19EC
  8
寸法
 62
     0
 10
866.65938619791734
 20
1653.359507154114
 30
0.0
 11
866.65938619791734
 21
1353.359507154114
 31
0.0
  0
INSERT
  5
19ED
  8
寸法
 62
     0
  2
_DOTSMALL
 10
866.65938619791734
 20
1653.359507154114
 30
0.0
 41
35.0
 42
35.0
 43
35.0
 50
90.0
  0
INSERT
  5
19EE
  8
寸法
 62
     0
  2
_DOTSMALL
 10
866.65938619791734
 20
1353.359507154114
 30
0.0
 41
35.0
 42
35.0
 43
35.0
 50
270.0
  0
TEXT
  5
1A4F
  8
寸法
 62
     0
 10
847.90899999999988
 20
1470.8599999999999
 30
0.0
 40
25.0
  1
300
  0
POINT
  5
19F0
  8
DEFPOINTS
 62
     0
 10
1009.83470092179
 20
1653.359507154114
 30
0.0
  0
POINT
  5
19F1
  8
DEFPOINTS
 62
     0
 10
1009.83470092179
 20
1353.359507154114
 30
0.0
  0
POINT
  5
19F2
  8
DEFPOINTS
 62
     0
 10
866.65938619791734
 20
1353.359507154114
 30
0.0
  0
ENDBLK
  5
3E8
  8
0
  0
BLOCK
  8
0
  2
*D11
 70
     1
 10
0.0
 20
0.0
 30
0.0
  3
*D11
  1

  0
LINE
  5
19F3
  8
寸法
 62
     0
 10
947.83470092179016
 20
1353.359507154114
 30
0.0
 11
866.65938619791734
 21
1353.359507154114
 31
0.0
  0
LINE
  5
19F4
  8
寸法
 62
     0
 10
947.83470092179016
 20
1341.3595071541149
 30
0.0
 11
866.65938619791734
 21
1341.3595071541149
 31
0.0
  0
POINT
  5
19F5
  8
DEFPOINTS
 62
     0
 10
1012.83470092179
 20
1353.359507154114
 30
0.0
  0
POINT
  5
19F6
  8
DEFPOINTS
 62
     0
 10
1012.83470092179
 20
1341.3595071541149
 30
0.0
  0
POINT
  5
19F7
  8
DEFPOINTS
 62
     0
 10
866.65938619791734
 20
1341.3595071541149
 30
0.0
  0
ENDBLK
  5
3F5
  8
0
  0
BLOCK
  8
0
  2
*D12
 70
     1
 10
0.0
 20
0.0
 30
0.0
  3
*D12
  1

  0
LINE
  5
183E
  8
寸法
 62
     0
 10
947.83470092179016
 20
1733.3595071541149
 30
0.0
 11
797.81948787323245
 21
1733.3595071541149
 31
0.0
  0
LINE
  5
183F
  8
寸法
 62
     0
 10
947.83470092179016
 20
1323.3595071541149
 30
0.0
 11
797.81948787323245
 21
1323.3595071541149
 31
0.0
  0
LINE
  5
1840
  8
寸法
 62
     0
 10
797.81948787323245
 20
1733.3595071541149
 30
0.0
 11
797.81948787323245
 21
1323.3595071541149
 31
0.0
  0
INSERT
  5
1841
  8
寸法
 62
     0
  2
_DOTSMALL
 10
797.81948787323245
 20
1733.3595071541149
 30
0.0
 41
35.0
 42
35.0
 43
35.0
 50
90.0
  0
INSERT
  5
1842
  8
寸法
 62
     0
  2
_DOTSMALL
 10
797.81948787323245
 20
1323.3595071541149
 30
0.0
 41
35.0
 42
35.0
 43
35.0
 50
270.0
  0
INSERT
  5
1843
  8
補助
  2
*U13
 10
0.0
 20
0.0
 30
0.0
  0
POINT
  5
1844
  8
DEFPOINTS
 62
     0
 10
1012.83470092179
 20
1733.3595071541149
 30
0.0
  0
POINT
  5
1845
  8
DEFPOINTS
 62
     0
 10
1012.83470092179
 20
1323.3595071541149
 30
0.0
  0
POINT
  5
1846
  8
DEFPOINTS
 62
     0
 10
797.81948787323245
 20
1323.3595071541149
 30
0.0
  0
ENDBLK
  5
402
  8
0
  0
BLOCK
  8
0
  2
*U13
 70
     1
 10
0.0
 20
0.0
 30
0.0
  3
*U13
  1

  0
TEXT
  5
1A36
  8
寸法
 62
     0
 10
791.56948787323245
 20
1501.276173820781
 30
0.0
 40
25.0
  1
410
 50
90.0
  0
ENDBLK
  5
1A38
  8
0
  0
BLOCK
  8
0
  2
*D14
 70
     1
 10
0.0
 20
0.0
 30
0.0
  3
*D14
  1

  0
LINE
  5
1734
  8
寸法
 62
     0
 10
1012.83470092179
 20
1273.3595071541149
 30
0.0
 11
1012.83470092179
 21
1190.42738938406
 31
0.0
  0
LINE
  5
1735
  8
寸法
 62
     0
 10
1024.83470092179
 20
1273.3595071541149
 30
0.0
 11
1024.83470092179
 21
1190.42738938406
 31
0.0
  0
LINE
  5
1736
  8
寸法
 62
     0
 10
1024.83470092179
 20
1190.42738938406
 30
0.0
 11
1107.33470092179
 21
1190.42738938406
 31
0.0
  0
LINE
  5
1737
  8
寸法
 62
     0
 10
1024.83470092179
 20
1190.42738938406
 30
0.0
 11
1107.33470092179
 21
1190.42738938406
 31
0.0
  0
LINE
  5
1738
  8
寸法
 62
     0
 10
1012.83470092179
 20
1190.42738938406
 30
0.0
 11
1024.83470092179
 21
1190.42738938406
 31
0.0
  0
INSERT
  5
1739
  8
寸法
 62
     0
  2
_DOTSMALL
 10
1024.83470092179
 20
1190.42738938406
 30
0.0
 41
35.0
 42
35.0
 43
35.0
 50
180.0
  0
POINT
  5
173A
  8
DEFPOINTS
 62
     0
 10
1012.83470092179
 20
1338.3595071541149
 30
0.0
  0
POINT
  5
173B
  8
DEFPOINTS
 62
     0
 10
1024.83470092179
 20
1338.3595071541149
 30
0.0
  0
POINT
  5
173C
  8
DEFPOINTS
 62
     0
 10
1024.83470092179
 20
1190.42738938406
 30
0.0
  0
ENDBLK
  5
44A
  8
0
  0
BLOCK
  8
0
  2
*D15
 70
     1
 10
0.0
 20
0.0
 30
0.0
  3
*D15
  1

  0
LINE
  5
19F8
  8
寸法
 62
     0
 10
1024.83470092179
 20
1273.3595071541149
 30
0.0
 11
1024.83470092179
 21
1190.42738938406
 31
0.0
  0
LINE
  5
19F9
  8
寸法
 62
     0
 10
1324.83470092179
 20
1273.3595071541149
 30
0.0
 11
1324.83470092179
 21
1190.42738938406
 31
0.0
  0
LINE
  5
19FA
  8
寸法
 62
     0
 10
1024.83470092179
 20
1190.42738938406
 30
0.0
 11
1324.83470092179
 21
1190.42738938406
 31
0.0
  0
INSERT
  5
19FB
  8
寸法
 62
     0
  2
_DOTSMALL
 10
1024.83470092179
 20
1190.42738938406
 30
0.0
 41
35.0
 42
35.0
 43
35.0
 50
180.0
  0
INSERT
  5
19FC
  8
寸法
 62
     0
  2
_DOTSMALL
 10
1324.83470092179
 20
1190.42738938406
 30
0.0
 41
35.0
 42
35.0
 43
35.0
  0
TEXT
  5
1A50
  8
寸法
 62
     0
 10
1174.8299999999999
 20
1176.6800000000001
 30
0.0
 40
25.0
  1
300
  0
POINT
  5
19FE
  8
DEFPOINTS
 62
     0
 10
1024.83470092179
 20
1338.3595071541149
 30
0.0
  0
POINT
  5
19FF
  8
DEFPOINTS
 62
     0
 10
1324.83470092179
 20
1338.3595071541149
 30
0.0
  0
POINT
  5
1A00
  8
DEFPOINTS
 62
     0
 10
1324.83470092179
 20
1190.42738938406
 30
0.0
  0
ENDBLK
  5
457
  8
0
  0
BLOCK
  8
0
  2
*D16
 70
     1
 10
0.0
 20
0.0
 30
0.0
  3
*D16
  1

  0
LINE
  5
1A01
  8
寸法
 62
     0
 10
1324.83470092179
 20
1273.3595071541149
 30
0.0
 11
1324.83470092179
 21
1190.42738938406
 31
0.0
  0
LINE
  5
1A02
  8
寸法
 62
     0
 10
1336.83470092179
 20
1273.3595071541149
 30
0.0
 11
1336.83470092179
 21
1190.42738938406
 31
0.0
  0
LINE
  5
1A03
  8
寸法
 62
     0
 10
1371.83470092179
 20
1190.42738938406
 30
0.0
 11
1336.83470092179
 21
1190.42738938406
 31
0.0
  0
LINE
  5
1A04
  8
寸法
 62
     0
 10
1336.83470092179
 20
1190.42738938406
 30
0.0
 11
1324.58470092179
 21
1190.42738938406
 31
0.0
  0
INSERT
  5
1A05
  8
寸法
 62
     0
  2
_DOTSMALL
 10
1336.83470092179
 20
1190.42738938406
 30
0.0
 41
35.0
 42
35.0
 43
35.0
 50
180.0
  0
POINT
  5
1A06
  8
DEFPOINTS
 62
     0
 10
1324.83470092179
 20
1338.3595071541149
 30
0.0
  0
POINT
  5
1A07
  8
DEFPOINTS
 62
     0
 10
1336.83470092179
 20
1338.3595071541149
 30
0.0
  0
POINT
  5
1A08
  8
DEFPOINTS
 62
     0
 10
1336.83470092179
 20
1190.42738938406
 30
0.0
  0
ENDBLK
  5
466
  8
0
  0
BLOCK
  8
0
  2
*D17
 70
     1
 10
0.0
 20
0.0
 30
0.0
  3
*D17
  1

  0
LINE
  5
1657
  8
寸法
 62
     0
 10
994.83470092179004
 20
1273.3595071541149
 30
0.0
 11
994.83470092179004
 21
1112.63547922819
 31
0.0
  0
LINE
  5
1658
  8
寸法
 62
     0
 10
1354.83470092179
 20
1273.3595071541149
 30
0.0
 11
1354.83470092179
 21
1112.63547922819
 31
0.0
  0
LINE
  5
1659
  8
寸法
 62
     0
 10
994.83470092179004
 20
1112.63547922819
 30
0.0
 11
1354.83470092179
 21
1112.63547922819
 31
0.0
  0
INSERT
  5
165A
  8
寸法
 62
     0
  2
_DOTSMALL
 10
994.83470092179004
 20
1112.63547922819
 30
0.0
 41
35.0
 42
35.0
 43
35.0
 50
180.0
  0
INSERT
  5
165B
  8
寸法
 62
     0
  2
_DOTSMALL
 10
1354.83470092179
 20
1112.63547922819
 30
0.0
 41
35.0
 42
35.0
 43
35.0
  0
INSERT
  5
165C
  8
補助
  2
*U18
 10
0.0
 20
0.0
 30
0.0
  0
POINT
  5
165D
  8
DEFPOINTS
 62
     0
 10
994.83470092179004
 20
1338.3595071541149
 30
0.0
  0
POINT
  5
165E
  8
DEFPOINTS
 62
     0
 10
1354.83470092179
 20
1338.3595071541149
 30
0.0
  0
POINT
  5
165F
  8
DEFPOINTS
 62
     0
 10
1354.83470092179
 20
1112.63547922819
 30
0.0
  0
ENDBLK
  5
4AF
  8
0
  0
BLOCK
  8
0
  2
*U18
 70
     1
 10
0.0
 20
0.0
 30
0.0
  3
*U18
  1

  0
TEXT
  5
1A32
  8
寸法
 62
     0
 10
1143.58470092179
 20
1118.8854792281909
 30
0.0
 40
25.0
  1
360
  0
ENDBLK
  5
1A34
  8
0
  0
BLOCK
  8
0
  2
*D19
 70
     1
 10
0.0
 20
0.0
 30
0.0
  3
*D19
  1

  0
LINE
  5
15B1
  8
寸法
 62
     0
 10
1389.83470092179
 20
763.35950715411457
 30
0.0
 11
1443.7264514094979
 21
763.35950715411457
 31
0.0
  0
LINE
  5
15B2
  8
寸法
 62
     0
 10
1389.83470092179
 20
748.35950715411445
 30
0.0
 11
1443.7264514094979
 21
748.35950715411445
 31
0.0
  0
LINE
  5
15B3
  8
寸法
 62
     0
 10
1443.7264514094979
 20
763.35950715411457
 30
0.0
 11
1443.7264514094979
 21
748.35950715411445
 31
0.0
  0
INSERT
  5
15B4
  8
寸法
 62
     0
  2
_DOTSMALL
 10
1443.7264514094979
 20
763.35950715411457
 30
0.0
 41
35.0
 42
35.0
 43
35.0
 50
90.0
  0
INSERT
  5
15B5
  8
寸法
 62
     0
  2
_DOTSMALL
 10
1443.7264514094979
 20
748.35950715411445
 30
0.0
 41
35.0
 42
35.0
 43
35.0
 50
270.0
  0
POINT
  5
15B6
  8
DEFPOINTS
 62
     0
 10
1324.83470092179
 20
763.35950715411457
 30
0.0
  0
POINT
  5
15B7
  8
DEFPOINTS
 62
     0
 10
1324.83470092179
 20
748.35950715411445
 30
0.0
  0
POINT
  5
15B8
  8
DEFPOINTS
 62
     0
 10
1443.7264514094979
 20
748.35950715411445
 30
0.0
  0
ENDBLK
  5
4CB
  8
0
  0
BLOCK
  8
0
  2
*D20
 70
     1
 10
0.0
 20
0.0
 30
0.0
  3
*D20
  1

  0
LINE
  5
18A3
  8
寸法
 62
     0
 10
1389.83470092179
 20
903.35950715411423
 30
0.0
 11
1482.467075744378
 21
903.35950715411423
 31
0.0
  0
LINE
  5
18A4
  8
寸法
 62
     0
 10
1389.83470092179
 20
748.35950715411445
 30
0.0
 11
1482.467075744378
 21
748.35950715411445
 31
0.0
  0
LINE
  5
18A5
  8
寸法
 62
     0
 10
1482.467075744378
 20
903.35950715411423
 30
0.0
 11
1482.467075744378
 21
748.35950715411445
 31
0.0
  0
INSERT
  5
18A6
  8
寸法
 62
     0
  2
_DOTSMALL
 10
1482.467075744378
 20
903.35950715411423
 30
0.0
 41
35.0
 42
35.0
 43
35.0
 50
90.0
  0
INSERT
  5
18A7
  8
寸法
 62
     0
  2
_DOTSMALL
 10
1482.467075744378
 20
748.35950715411445
 30
0.0
 41
35.0
 42
35.0
 43
35.0
 50
270.0
  0
INSERT
  5
18A8
  8
補助
  2
*U21
 10
0.0
 20
0.0
 30
0.0
  0
POINT
  5
18A9
  8
DEFPOINTS
 62
     0
 10
1324.83470092179
 20
903.35950715411423
 30
0.0
  0
POINT
  5
18AA
  8
DEFPOINTS
 62
     0
 10
1324.83470092179
 20
748.35950715411445
 30
0.0
  0
POINT
  5
18AB
  8
DEFPOINTS
 62
     0
 10
1482.467075744378
 20
748.35950715411445
 30
0.0
  0
ENDBLK
  5
4D8
  8
0
  0
BLOCK
  8
0
  2
*U21
 70
     1
 10
0.0
 20
0.0
 30
0.0
  3
*U21
  1

  0
TEXT
  5
1A42
  8
寸法
 62
     0
 10
1476.2170757443789
 20
796.69284048744862
 30
0.0
 40
25.0
  1
155
 50
90.0
  0
ENDBLK
  5
1A44
  8
0
  0
BLOCK
  8
0
  2
*D22
 70
     1
 10
0.0
 20
0.0
 30
0.0
  3
*D22
  1

  0
LINE
  5
15A8
  8
寸法
 62
     0
 10
1130.83470092179
 20
673.35950715411479
 30
0.0
 11
1130.83470092179
 21
621.93209985304202
 31
0.0
  0
LINE
  5
15A9
  8
寸法
 62
     0
 10
1218.83470092179
 20
673.35950715411479
 30
0.0
 11
1218.83470092179
 21
621.93209985304202
 31
0.0
  0
LINE
  5
15AA
  8
寸法
 62
     0
 10
1130.83470092179
 20
621.93209985304202
 30
0.0
 11
1218.83470092179
 21
621.93209985304202
 31
0.0
  0
INSERT
  5
15AB
  8
寸法
 62
     0
  2
_DOTSMALL
 10
1130.83470092179
 20
621.93209985304202
 30
0.0
 41
35.0
 42
35.0
 43
35.0
 50
180.0
  0
INSERT
  5
15AC
  8
寸法
 62
     0
  2
_DOTSMALL
 10
1218.83470092179
 20
621.93209985304202
 30
0.0
 41
35.0
 42
35.0
 43
35.0
  0
INSERT
  5
15AD
  8
補助
  2
*U23
 10
0.0
 20
0.0
 30
0.0
  0
POINT
  5
15AE
  8
DEFPOINTS
 62
     0
 10
1130.83470092179
 20
738.35950715411457
 30
0.0
  0
POINT
  5
15AF
  8
DEFPOINTS
 62
     0
 10
1218.83470092179
 20
738.35950715411457
 30
0.0
  0
POINT
  5
15B0
  8
DEFPOINTS
 62
     0
 10
1218.83470092179
 20
621.93209985304202
 30
0.0
  0
ENDBLK
  5
504
  8
0
  0
BLOCK
  8
0
  2
*U23
 70
     1
 10
0.0
 20
0.0
 30
0.0
  3
*U23
  1

  0
TEXT
  5
1A2E
  8
寸法
 62
     0
 10
1154.001367588457
 20
628.18209985304202
 30
0.0
 40
25.0
  1
88
  0
ENDBLK
  5
1A30
  8
0
  0
BLOCK
  8
0
  2
*D24
 70
     1
 10
0.0
 20
0.0
 30
0.0
  3
*D24
  1

  0
LINE
  5
159F
  8
寸法
 62
     0
 10
1116.83470092179
 20
673.35950715411479
 30
0.0
 11
1116.83470092179
 21
561.97270128411299
 31
0.0
  0
LINE
  5
15A0
  8
寸法
 62
     0
 10
1232.83470092179
 20
673.35950715411479
 30
0.0
 11
1232.83470092179
 21
561.97270128411299
 31
0.0
  0
LINE
  5
15A1
  8
寸法
 62
     0
 10
1116.83470092179
 20
561.97270128411299
 30
0.0
 11
1232.83470092179
 21
561.97270128411299
 31
0.0
  0
INSERT
  5
15A2
  8
寸法
 62
     0
  2
_DOTSMALL
 10
1116.83470092179
 20
561.97270128411299
 30
0.0
 41
35.0
 42
35.0
 43
35.0
 50
180.0
  0
INSERT
  5
15A3
  8
寸法
 62
     0
  2
_DOTSMALL
 10
1232.83470092179
 20
561.97270128411299
 30
0.0
 41
35.0
 42
35.0
 43
35.0
  0
INSERT
  5
15A4
  8
補助
  2
*U25
 10
0.0
 20
0.0
 30
0.0
  0
POINT
  5
15A5
  8
DEFPOINTS
 62
     0
 10
1116.83470092179
 20
738.35950715411457
 30
0.0
  0
POINT
  5
15A6
  8
DEFPOINTS
 62
     0
 10
1232.83470092179
 20
738.35950715411457
 30
0.0
  0
POINT
  5
15A7
  8
DEFPOINTS
 62
     0
 10
1232.83470092179
 20
561.97270128411299
 30
0.0
  0
ENDBLK
  5
511
  8
0
  0
BLOCK
  8
0
  2
*U25
 70
     1
 10
0.0
 20
0.0
 30
0.0
  3
*U25
  1

  0
TEXT
  5
1A2A
  8
寸法
 62
     0
 10
1149.83470092179
 20
568.22270128411299
 30
0.0
 40
25.0
  1
116
  0
ENDBLK
  5
1A2C
  8
0
  0
BLOCK
  8
0
  2
*D26
 70
     1
 10
0.0
 20
0.0
 30
0.0
  3
*D26
  1

  0
LINE
  5
15E5
  8
寸法
 62
     0
 10
1939.83470092179
 20
1288.3595071541149
 30
0.0
 11
1939.83470092179
 21
1190.42738938406
 31
0.0
  0
LINE
  5
15E6
  8
寸法
 62
     0
 10
1924.83470092179
 20
1288.3595071541149
 30
0.0
 11
1924.83470092179
 21
1190.42738938406
 31
0.0
  0
LINE
  5
15E7
  8
寸法
 62
     0
 10
1939.83470092179
 20
1190.42738938406
 30
0.0
 11
1924.83470092179
 21
1190.42738938406
 31
0.0
  0
INSERT
  5
15E8
  8
寸法
 62
     0
  2
_DOTSMALL
 10
1939.83470092179
 20
1190.42738938406
 30
0.0
 41
35.0
 42
35.0
 43
35.0
  0
INSERT
  5
15E9
  8
寸法
 62
     0
  2
_DOTSMALL
 10
1924.83470092179
 20
1190.42738938406
 30
0.0
 41
35.0
 42
35.0
 43
35.0
 50
180.0
  0
POINT
  5
15EA
  8
DEFPOINTS
 62
     0
 10
1939.83470092179
 20
1353.359507154114
 30
0.0
  0
POINT
  5
15EB
  8
DEFPOINTS
 62
     0
 10
1924.83470092179
 20
1353.359507154114
 30
0.0
  0
POINT
  5
15EC
  8
DEFPOINTS
 62
     0
 10
1924.83470092179
 20
1190.42738938406
 30
0.0
  0
ENDBLK
  5
53F
  8
0
  0
BLOCK
  8
0
  2
*D27
 70
     1
 10
0.0
 20
0.0
 30
0.0
  3
*D27
  1

  0
LINE
  5
18C2
  8
寸法
 62
     0
 10
1939.83470092179
 20
1273.3595071541149
 30
0.0
 11
1939.83470092179
 21
1110.44797922819
 31
0.0
  0
LINE
  5
18C3
  8
寸法
 62
     0
 10
1784.834700921791
 20
1276.359507154114
 30
0.0
 11
1784.834700921791
 21
1110.44797922819
 31
0.0
  0
LINE
  5
18C4
  8
寸法
 62
     0
 10
1939.83470092179
 20
1110.44797922819
 30
0.0
 11
1784.834700921791
 21
1110.44797922819
 31
0.0
  0
INSERT
  5
18C5
  8
寸法
 62
     0
  2
_DOTSMALL
 10
1939.83470092179
 20
1110.44797922819
 30
0.0
 41
35.0
 42
35.0
 43
35.0
  0
INSERT
  5
18C6
  8
寸法
 62
     0
  2
_DOTSMALL
 10
1784.834700921791
 20
1110.44797922819
 30
0.0
 41
35.0
 42
35.0
 43
35.0
 50
180.0
  0
INSERT
  5
18C7
  8
補助
  2
*U28
 10
0.0
 20
0.0
 30
0.0
  0
POINT
  5
18C8
  8
DEFPOINTS
 62
     0
 10
1939.83470092179
 20
1338.3595071541149
 30
0.0
  0
POINT
  5
18C9
  8
DEFPOINTS
 62
     0
 10
1784.834700921791
 20
1341.3595071541149
 30
0.0
  0
POINT
  5
18CA
  8
DEFPOINTS
 62
     0
 10
1784.834700921791
 20
1110.44797922819
 30
0.0
  0
ENDBLK
  5
554
  8
0
  0
BLOCK
  8
0
  2
*U28
 70
     1
 10
0.0
 20
0.0
 30
0.0
  3
*U28
  1

  0
TEXT
  5
1A46
  8
寸法
 62
     0
 10
1833.1680342551231
 20
1116.6979792281909
 30
0.0
 40
25.0
  1
155
  0
ENDBLK
  5
1A48
  8
0
  0
BLOCK
  8
0
  2
*D29
 70
     1
 10
0.0
 20
0.0
 30
0.0
  3
*D29
  1

  0
LINE
  5
14B3
  8
寸法
 62
     0
 10
2014.83470092179
 20
1547.3595071541149
 30
0.0
 11
2060.140845013711
 21
1547.3595071541149
 31
0.0
  0
LINE
  5
14B4
  8
寸法
 62
     0
 10
2014.83470092179
 20
1459.3595071541149
 30
0.0
 11
2060.140845013711
 21
1459.3595071541149
 31
0.0
  0
LINE
  5
14B5
  8
寸法
 62
     0
 10
2060.140845013711
 20
1547.3595071541149
 30
0.0
 11
2060.140845013711
 21
1459.3595071541149
 31
0.0
  0
INSERT
  5
14B6
  8
寸法
 62
     0
  2
_DOTSMALL
 10
2060.140845013711
 20
1547.3595071541149
 30
0.0
 41
35.0
 42
35.0
 43
35.0
 50
90.0
  0
INSERT
  5
14B7
  8
寸法
 62
     0
  2
_DOTSMALL
 10
2060.140845013711
 20
1459.3595071541149
 30
0.0
 41
35.0
 42
35.0
 43
35.0
 50
270.0
  0
INSERT
  5
14B8
  8
補助
  2
*U30
 10
0.0
 20
0.0
 30
0.0
  0
POINT
  5
14B9
  8
DEFPOINTS
 62
     0
 10
1949.83470092179
 20
1547.3595071541149
 30
0.0
  0
POINT
  5
14BA
  8
DEFPOINTS
 62
     0
 10
1949.83470092179
 20
1459.3595071541149
 30
0.0
  0
POINT
  5
14BB
  8
DEFPOINTS
 62
     0
 10
2060.140845013711
 20
1459.3595071541149
 30
0.0
  0
ENDBLK
  5
575
  8
0
  0
BLOCK
  8
0
  2
*U30
 70
     1
 10
0.0
 20
0.0
 30
0.0
  3
*U30
  1

  0
TEXT
  5
1A22
  8
寸法
 62
     0
 10
2053.8908450137101
 20
1482.526173820781
 30
0.0
 40
25.0
  1
88
 50
90.0
  0
ENDBLK
  5
1A24
  8
0
  0
BLOCK
  8
0
  2
*D31
 70
     1
 10
0.0
 20
0.0
 30
0.0
  3
*D31
  1

  0
LINE
  5
14BC
  8
寸法
 62
     0
 10
2014.83470092179
 20
1561.359507154114
 30
0.0
 11
2125.0624329785519
 21
1561.359507154114
 31
0.0
  0
LINE
  5
14BD
  8
寸法
 62
     0
 10
2014.83470092179
 20
1445.359507154114
 30
0.0
 11
2125.0624329785519
 21
1445.359507154114
 31
0.0
  0
LINE
  5
14BE
  8
寸法
 62
     0
 10
2125.0624329785519
 20
1561.359507154114
 30
0.0
 11
2125.0624329785519
 21
1445.359507154114
 31
0.0
  0
INSERT
  5
14BF
  8
寸法
 62
     0
  2
_DOTSMALL
 10
2125.0624329785519
 20
1561.359507154114
 30
0.0
 41
35.0
 42
35.0
 43
35.0
 50
90.0
  0
INSERT
  5
14C0
  8
寸法
 62
     0
  2
_DOTSMALL
 10
2125.0624329785519
 20
1445.359507154114
 30
0.0
 41
35.0
 42
35.0
 43
35.0
 50
270.0
  0
INSERT
  5
14C1
  8
補助
  2
*U32
 10
0.0
 20
0.0
 30
0.0
  0
POINT
  5
14C2
  8
DEFPOINTS
 62
     0
 10
1949.83470092179
 20
1561.359507154114
 30
0.0
  0
POINT
  5
14C3
  8
DEFPOINTS
 62
     0
 10
1949.83470092179
 20
1445.359507154114
 30
0.0
  0
POINT
  5
14C4
  8
DEFPOINTS
 62
     0
 10
2125.0624329785519
 20
1445.359507154114
 30
0.0
  0
ENDBLK
  5
58B
  8
0
  0
BLOCK
  8
0
  2
*U32
 70
     1
 10
0.0
 20
0.0
 30
0.0
  3
*U32
  1

  0
TEXT
  5
1A26
  8
寸法
 62
     0
 10
2118.8124329785519
 20
1478.359507154114
 30
0.0
 40
25.0
  1
116
 50
90.0
  0
ENDBLK
  5
1A28
  8
0
  0
BLOCK
  8
0
  2
*D33
 70
     1
 10
0.0
 20
0.0
 30
0.0
  3
*D33
  1

  0
LINE
  5
172A
  8
実形
 62
     0
 10
1336.83470092179
 20
1273.3595071541149
 30
0.0
 11
1336.83470092179
 21
1190.42738938406
 31
0.0
  0
LINE
  5
172B
  8
実形
 62
     0
 10
1354.83470092179
 20
1273.3595071541149
 30
0.0
 11
1354.83470092179
 21
1190.42738938406
 31
0.0
  0
LINE
  5
172C
  8
実形
 62
     0
 10
1354.83470092179
 20
1190.42738938406
 30
0.0
 11
1336.83470092179
 21
1190.42738938406
 31
0.0
  0
LINE
  5
172D
  8
実形
 62
     0
 10
1336.83470092179
 20
1190.42738938406
 30
0.0
 11
1101.08470092179
 21
1190.42738938406
 31
0.0
  0
INSERT
  5
172E
  8
実形
 62
     0
  2
_DOTSMALL
 10
1354.83470092179
 20
1190.42738938406
 30
0.0
 41
35.0
 42
35.0
 43
35.0
  0
INSERT
  5
172F
  8
実形
 62
     0
  2
_DOTSMALL
 10
1336.83470092179
 20
1190.42738938406
 30
0.0
 41
35.0
 42
35.0
 43
35.0
 50
180.0
  0
POINT
  5
1730
  8
DEFPOINTS
 62
     0
 10
1336.83470092179
 20
1338.3595071541149
 30
0.0
  0
POINT
  5
1731
  8
DEFPOINTS
 62
     0
 10
1354.83470092179
 20
1338.3595071541149
 30
0.0
  0
POINT
  5
1732
  8
DEFPOINTS
 62
     0
 10
1354.83470092179
 20
1190.42738938406
 30
0.0
  0
ENDBLK
  5
166D
  8
0
  0
BLOCK
  8
0
  2
*D34
 70
     1
 10
0.0
 20
0.0
 30
0.0
  3
*D34
  1

  0
LINE
  5
1786
  8
実形
 62
     0
 10
1012.83470092179
 20
1273.3595071541149
 30
0.0
 11
1012.83470092179
 21
1190.42738938406
 31
0.0
  0
LINE
  5
1787
  8
実形
 62
     0
 10
994.83470092179004
 20
1273.3595071541149
 30
0.0
 11
994.83470092179004
 21
1190.42738938406
 31
0.0
  0
LINE
  5
1788
  8
実形
 62
     0
 10
994.83470092179004
 20
1190.42738938406
 30
0.0
 11
1012.83470092179
 21
1190.42738938406
 31
0.0
  0
LINE
  5
1789
  8
実形
 62
     0
 10
1012.83470092179
 20
1190.42738938406
 30
0.0
 11
1113.58470092179
 21
1190.42738938406
 31
0.0
  0
INSERT
  5
178A
  8
実形
 62
     0
  2
_DOTSMALL
 10
994.83470092179004
 20
1190.42738938406
 30
0.0
 41
35.0
 42
35.0
 43
35.0
 50
180.0
  0
INSERT
  5
178B
  8
実形
 62
     0
  2
_DOTSMALL
 10
1012.83470092179
 20
1190.42738938406
 30
0.0
 41
35.0
 42
35.0
 43
35.0
  0
POINT
  5
178C
  8
DEFPOINTS
 62
     0
 10
1012.83470092179
 20
1338.3595071541149
 30
0.0
  0
POINT
  5
178D
  8
DEFPOINTS
 62
     0
 10
994.83470092179004
 20
1338.3595071541149
 30
0.0
  0
POINT
  5
178E
  8
DEFPOINTS
 62
     0
 10
994.83470092179004
 20
1190.42738938406
 30
0.0
  0
ENDBLK
  5
174A
  8
0
  0
BLOCK
  8
0
  2
*D35
 70
     1
 10
0.0
 20
0.0
 30
0.0
  3
*D35
  1

  0
LINE
  5
17DB
  8
実形
 62
     0
 10
947.83470092179016
 20
1341.3595071541149
 30
0.0
 11
866.65938619791734
 21
1341.3595071541149
 31
0.0
  0
LINE
  5
17DC
  8
実形
 62
     0
 10
947.83470092179016
 20
1323.3595071541149
 30
0.0
 11
866.65938619791734
 21
1323.3595071541149
 31
0.0
  0
LINE
  5
17DD
  8
実形
 62
     0
 10
866.65938619791734
 20
1323.3595071541149
 30
0.0
 11
866.65938619791734
 21
1341.3595071541149
 31
0.0
  0
LINE
  5
17DE
  8
実形
 62
     0
 10
866.65938619791734
 20
1341.3595071541149
 30
0.0
 11
866.65938619791734
 21
1405.526173820781
 31
0.0
  0
INSERT
  5
17DF
  8
実形
 62
     0
  2
_DOTSMALL
 10
866.65938619791734
 20
1323.3595071541149
 30
0.0
 41
35.0
 42
35.0
 43
35.0
 50
270.0
  0
INSERT
  5
17E0
  8
実形
 62
     0
  2
_DOTSMALL
 10
866.65938619791734
 20
1341.3595071541149
 30
0.0
 41
35.0
 42
35.0
 43
35.0
 50
90.0
  0
POINT
  5
17E1
  8
DEFPOINTS
 62
     0
 10
1012.83470092179
 20
1341.3595071541149
 30
0.0
  0
POINT
  5
17E2
  8
DEFPOINTS
 62
     0
 10
1012.83470092179
 20
1323.3595071541149
 30
0.0
  0
POINT
  5
17E3
  8
DEFPOINTS
 62
     0
 10
866.65938619791734
 20
1323.3595071541149
 30
0.0
  0
ENDBLK
  5
17BB
  8
0
  0
BLOCK
  8
0
  2
*D36
 70
     1
 10
0.0
 20
0.0
 30
0.0
  3
*D36
  1

  0
LINE
  5
1865
  8
実形
 62
     0
 10
947.83470092179016
 20
1733.3595071541149
 30
0.0
 11
866.65938619791734
 21
1733.3595071541149
 31
0.0
  0
LINE
  5
1866
  8
実形
 62
     0
 10
947.83470092179016
 20
1715.3595071541149
 30
0.0
 11
866.65938619791734
 21
1715.3595071541149
 31
0.0
  0
LINE
  5
1867
  8
実形
 62
     0
 10
866.65938619791734
 20
1733.3595071541149
 30
0.0
 11
866.65938619791734
 21
1715.3595071541149
 31
0.0
  0
INSERT
  5
1868
  8
実形
 62
     0
  2
_DOTSMALL
 10
866.65938619791734
 20
1733.3595071541149
 30
0.0
 41
35.0
 42
35.0
 43
35.0
 50
90.0
  0
INSERT
  5
1869
  8
実形
 62
     0
  2
_DOTSMALL
 10
866.65938619791734
 20
1715.3595071541149
 30
0.0
 41
35.0
 42
35.0
 43
35.0
 50
270.0
  0
POINT
  5
186A
  8
DEFPOINTS
 62
     0
 10
1012.83470092179
 20
1733.3595071541149
 30
0.0
  0
POINT
  5
186B
  8
DEFPOINTS
 62
     0
 10
1012.83470092179
 20
1715.3595071541149
 30
0.0
  0
POINT
  5
186C
  8
DEFPOINTS
 62
     0
 10
866.65938619791734
 20
1715.3595071541149
 30
0.0
  0
ENDBLK
  5
1864
  8
0
  0
BLOCK
  8
0
  2
*U37
 70
     1
 10
0.0
 20
0.0
 30
0.0
  3
*U37
  1

  0
INSERT
  5
1A0A
  8
0
  2
_OPEN30
 10
1304.8653368800581
 20
1379.41800558606
 30
0.0
 41
25.0
 42
25.0
 43
25.0
 50
315.02432156572121
  0
POLYLINE
  5
1A0B
  8
0
 66
     1
 10
0.0
 20
0.0
 30
0.0
  0
VERTEX
  5
1D88
  8
0
 10
1287.180164924609
 20
1397.0881695045471
 30
0.0
  0
VERTEX
  5
1D89
  8
0
 10
1269.3440962575251
 20
1414.909102080306
 30
0.0
  0
SEQEND
  5
1D8A
  8
0
  0
ENDBLK
  5
1A10
  8
0
  0
BLOCK
  8
0
  2
*U38
 70
     1
 10
0.0
 20
0.0
 30
0.0
  3
*U38
  1

  0
INSERT
  5
1A12
  8
0
  2
_OPEN30
 10
1315.6803793801389
 20
776.97261461086396
 30
0.0
 41
25.0
 42
25.0
 43
25.0
 50
322.05800301568212
  0
POLYLINE
  5
1A13
  8
0
 66
     1
 10
0.0
 20
0.0
 30
0.0
  0
VERTEX
  5
1D8B
  8
0
 10
1295.964539113585
 20
792.34420016941135
 30
0.0
  0
VERTEX
  5
1D8C
  8
0
 10
1271.317498514333
 20
811.56042875587923
 30
0.0
  0
SEQEND
  5
1D8D
  8
0
  0
ENDBLK
  5
1A18
  8
0
  0
BLOCK
  8
0
  2
*U39
 70
     1
 10
0.0
 20
0.0
 30
0.0
  3
*U39
  1

  0
INSERT
  5
1A1A
  8
0
  2
_OPEN30
 10
1915.508275780413
 20
1368.2114803830659
 30
0.0
 41
25.0
 42
25.0
 43
25.0
 50
301.77629543810087
  0
POLYLINE
  5
1A1B
  8
0
 66
     1
 10
0.0
 20
0.0
 30
0.0
  0
VERTEX
  5
1D8E
  8
0
 10
1902.3431725167011
 20
1389.4642462279101
 30
0.0
  0
VERTEX
  5
1D8F
  8
0
 10
1888.4494719197401
 20
1411.8932055448829
 30
0.0
  0
SEQEND
  5
1D90
  8
0
  0
ENDBLK
  5
1A20
  8
0
  0
BLOCK
  8
0
  2
*U40
 70
     1
 10
0.0
 20
0.0
 30
0.0
  3
*U40
  1

  0
TEXT
  5
1A4A
  8
実形
 10
2240.034002054635
 20
67.742861196597914
 30
0.0
 40
45.0
  1
 e
  0
TEXT
  5
1A4B
  8
実形
 10
2292.4623785894241
 20
67.742861196597914
 30
0.0
 40
35.001000000000012
  1
-KITCHEN 
  0
TEXT
  5
1A4C
  8
実形
 10
2536.9441248377188
 20
67.742861196597914
 30
0.0
 40
11.9983428
  1
U-ARCHITECTURE WORKS
  0
ENDBLK
  5
1A4E
  8
0
  0
BLOCK
  8
0
  2
*D41
 70
     1
 10
0.0
 20
0.0
 30
0.0
  3
*D41
  1

  0
LINE
  5
1D2D
  8
寸法
 62
     0
 10
1024.83470092179
 20
1273.3595071541149
 30
0.0
 11
1024.83470092179
 21
1190.42738938406
 31
0.0
  0
LINE
  5
1D2E
  8
寸法
 62
     0
 10
1324.83470092179
 20
1273.3595071541149
 30
0.0
 11
1324.83470092179
 21
1190.42738938406
 31
0.0
  0
LINE
  5
1D2F
  8
寸法
 62
     0
 10
1024.83470092179
 20
1190.42738938406
 30
0.0
 11
1324.83470092179
 21
1190.42738938406
 31
0.0
  0
INSERT
  5
1D30
  8
寸法
 62
     0
  2
_DOTSMALL
 10
1024.83470092179
 20
1190.42738938406
 30
0.0
 41
35.0
 42
35.0
 43
35.0
 50
180.0
  0
INSERT
  5
1D31
  8
寸法
 62
     0
  2
_DOTSMALL
 10
1324.83470092179
 20
1190.42738938406
 30
0.0
 41
35.0
 42
35.0
 43
35.0
  0
TEXT
  8
寸法
  40
25
  5
1DA8
  62
0
  72
0
  71
0
 10
1124.83
 20
1164.93
 30
0.000000
  1
300
  0
POINT
  5
1D33
  8
DEFPOINTS
 62
     0
 10
1024.83470092179
 20
1338.3595071541149
 30
0.0
  0
POINT
  5
1D34
  8
DEFPOINTS
 62
     0
 10
1324.83470092179
 20
1338.3595071541149
 30
0.0
  0
POINT
  5
1D35
  8
DEFPOINTS
 62
     0
 10
1324.83470092179
 20
1190.42738938406
 30
0.0
  0
ENDBLK
  5
1B11
  8
0
  0
BLOCK
  8
0
  2
*D42
 70
     1
 10
0.0
 20
0.0
 30
0.0
  3
*D42
  1

  0
LINE
  5
1D13
  8
寸法
 62
     0
 10
944.83470092179004
 20
1653.359507154114
 30
0.0
 11
866.65938619791734
 21
1653.359507154114
 31
0.0
  0
LINE
  5
1D14
  8
寸法
 62
     0
 10
944.83470092179004
 20
1353.359507154114
 30
0.0
 11
866.65938619791734
 21
1353.359507154114
 31
0.0
  0
LINE
  5
1D15
  8
寸法
 62
     0
 10
866.65938619791734
 20
1653.359507154114
 30
0.0
 11
866.65938619791734
 21
1353.359507154114
 31
0.0
  0
INSERT
  5
1D16
  8
寸法
 62
     0
  2
_DOTSMALL
 10
866.65938619791734
 20
1653.359507154114
 30
0.0
 41
35.0
 42
35.0
 43
35.0
 50
90.0
  0
INSERT
  5
1D17
  8
寸法
 62
     0
  2
_DOTSMALL
 10
866.65938619791734
 20
1353.359507154114
 30
0.0
 41
35.0
 42
35.0
 43
35.0
 50
270.0
  0
TEXT
  8
寸法
  40
25
  5
1DA9
  62
0
  72
0
  71
0
 10
797.909
 20
1459.11
 30
0.000000
  1
300
  0
POINT
  5
1D19
  8
DEFPOINTS
 62
     0
 10
1009.83470092179
 20
1653.359507154114
 30
0.0
  0
POINT
  5
1D1A
  8
DEFPOINTS
 62
     0
 10
1009.83470092179
 20
1353.359507154114
 30
0.0
  0
POINT
  5
1D1B
  8
DEFPOINTS
 62
     0
 10
866.65938619791734
 20
1353.359507154114
 30
0.0
  0
ENDBLK
  5
1B1D
  8
0
  0
BLOCK
  8
0
  2
*D43
 70
     1
 10
0.0
 20
0.0
 30
0.0
  3
*D43
  1

  0
LINE
  5
1D01
  8
寸法
 62
     0
 10
1174.83470092179
 20
1568.3595071541149
 30
0.0
 11
1174.83470092179
 21
1807.6569434059229
 31
0.0
  0
LINE
  5
1D02
  8
寸法
 62
     0
 10
1024.83470092179
 20
1658.8267060590031
 30
0.0
 11
1024.83470092179
 21
1807.6569434059229
 31
0.0
  0
LINE
  5
1D03
  8
寸法
 62
     0
 10
1174.83470092179
 20
1807.6569434059229
 30
0.0
 11
1024.83470092179
 21
1807.6569434059229
 31
0.0
  0
INSERT
  5
1D04
  8
寸法
 62
     0
  2
_DOTSMALL
 10
1174.83470092179
 20
1807.6569434059229
 30
0.0
 41
35.0
 42
35.0
 43
35.0
  0
INSERT
  5
1D05
  8
寸法
 62
     0
  2
_DOTSMALL
 10
1024.83470092179
 20
1807.6569434059229
 30
0.0
 41
35.0
 42
35.0
 43
35.0
 50
180.0
  0
TEXT
  8
寸法
  40
25
  5
1DAA
  72
0
  71
0
 10
1049.83
 20
1782.16
 30
0.000000
  1
150
  0
POINT
  5
1D07
  8
DEFPOINTS
 62
     0
 10
1174.83470092179
 20
1503.359507154114
 30
0.0
  0
POINT
  5
1D08
  8
DEFPOINTS
 62
     0
 10
1024.83470092179
 20
1593.8267060590031
 30
0.0
  0
POINT
  5
1D09
  8
DEFPOINTS
 62
     0
 10
1024.83470092179
 20
1807.6569434059229
 30
0.0
  0
ENDBLK
  5
1B29
  8
0
  0
BLOCK
  8
0
  2
*D44
 70
     1
 10
0.0
 20
0.0
 30
0.0
  3
*D44
  1

  0
LINE
  5
1D24
  8
寸法
 62
     0
 10
947.83470092179004
 20
1733.3595071541149
 30
0.0
 11
797.81948787323245
 21
1733.3595071541149
 31
0.0
  0
LINE
  5
1D25
  8
寸法
 62
     0
 10
947.83470092179004
 20
1323.3595071541149
 30
0.0
 11
797.81948787323245
 21
1323.3595071541149
 31
0.0
  0
LINE
  5
1D26
  8
寸法
 62
     0
 10
797.81948787323245
 20
1733.3595071541149
 30
0.0
 11
797.81948787323245
 21
1323.3595071541149
 31
0.0
  0
INSERT
  5
1D27
  8
寸法
 62
     0
  2
_DOTSMALL
 10
797.81948787323245
 20
1733.3595071541149
 30
0.0
 41
35.0
 42
35.0
 43
35.0
 50
90.0
  0
INSERT
  5
1D28
  8
寸法
 62
     0
  2
_DOTSMALL
 10
797.81948787323245
 20
1323.3595071541149
 30
0.0
 41
35.0
 42
35.0
 43
35.0
 50
270.0
  0
TEXT
  8
寸法
  40
25
  5
1DAB
  72
0
  71
0
 10
729.069
 20
1484.11
 30
0.000000
  1
410
  0
POINT
  5
1D2A
  8
DEFPOINTS
 62
     0
 10
1012.83470092179
 20
1733.3595071541149
 30
0.0
  0
POINT
  5
1D2B
  8
DEFPOINTS
 62
     0
 10
1012.83470092179
 20
1323.3595071541149
 30
0.0
  0
POINT
  5
1D2C
  8
DEFPOINTS
 62
     0
 10
797.81948787323245
 20
1323.3595071541149
 30
0.0
  0
ENDBLK
  5
1B35
  8
0
  0
BLOCK
  8
0
  2
*D45
 70
     1
 10
0.0
 20
0.0
 30
0.0
  3
*D45
  1

  0
LINE
  5
1D0A
  8
寸法
 62
     0
 10
1239.83470092179
 20
1503.359507154114
 30
0.0
 11
1437.4377135407719
 21
1503.359507154114
 31
0.0
  0
LINE
  5
1D0B
  8
寸法
 62
     0
 10
1309.83470092179
 20
1653.359507154114
 30
0.0
 11
1437.4377135407719
 21
1653.359507154114
 31
0.0
  0
LINE
  5
1D0C
  8
寸法
 62
     0
 10
1437.4377135407719
 20
1503.359507154114
 30
0.0
 11
1437.4377135407719
 21
1653.359507154114
 31
0.0
  0
INSERT
  5
1D0D
  8
寸法
 62
     0
  2
_DOTSMALL
 10
1437.4377135407719
 20
1503.359507154114
 30
0.0
 41
35.0
 42
35.0
 43
35.0
 50
270.0
  0
INSERT
  5
1D0E
  8
寸法
 62
     0
  2
_DOTSMALL
 10
1437.4377135407719
 20
1653.359507154114
 30
0.0
 41
35.0
 42
35.0
 43
35.0
 50
90.0
  0
TEXT
  8
寸法
  40
25
  5
1DAC
  72
0
  71
0
 10
1368.69
 20
1534.11
 30
0.000000
  1
150
  0
POINT
  5
1D10
  8
DEFPOINTS
 62
     0
 10
1174.83470092179
 20
1503.359507154114
 30
0.0
  0
POINT
  5
1D11
  8
DEFPOINTS
 62
     0
 10
1244.83470092179
 20
1653.359507154114
 30
0.0
  0
POINT
  5
1D12
  8
DEFPOINTS
 62
     0
 10
1437.4377135407719
 20
1653.359507154114
 30
0.0
  0
ENDBLK
  5
1B41
  8
0
  0
BLOCK
  8
0
  2
*D46
 70
     1
 10
0.0
 20
0.0
 30
0.0
  3
*D46
  1

  0
LINE
  5
1D77
  8
寸法
 62
     0
 10
2014.83470092179
 20
1561.359507154114
 30
0.0
 11
2125.0624329785519
 21
1561.359507154114
 31
0.0
  0
LINE
  5
1D78
  8
寸法
 62
     0
 10
2014.83470092179
 20
1445.359507154114
 30
0.0
 11
2125.0624329785519
 21
1445.359507154114
 31
0.0
  0
LINE
  5
1D79
  8
寸法
 62
     0
 10
2125.0624329785519
 20
1561.359507154114
 30
0.0
 11
2125.0624329785519
 21
1445.359507154114
 31
0.0
  0
INSERT
  5
1D7A
  8
寸法
 62
     0
  2
_DOTSMALL
 10
2125.0624329785519
 20
1561.359507154114
 30
0.0
 41
35.0
 42
35.0
 43
35.0
 50
90.0
  0
INSERT
  5
1D7B
  8
寸法
 62
     0
  2
_DOTSMALL
 10
2125.0624329785519
 20
1445.359507154114
 30
0.0
 41
35.0
 42
35.0
 43
35.0
 50
270.0
  0
TEXT
  8
寸法
  40
25
  5
1DAD
  72
0
  71
0
 10
2056.31
 20
1459.11
 30
0.000000
  1
116
  0
POINT
  5
1D7D
  8
DEFPOINTS
 62
     0
 10
1949.83470092179
 20
1561.359507154114
 30
0.0
  0
POINT
  5
1D7E
  8
DEFPOINTS
 62
     0
 10
1949.83470092179
 20
1445.359507154114
 30
0.0
  0
POINT
  5
1D7F
  8
DEFPOINTS
 62
     0
 10
2125.0624329785519
 20
1445.359507154114
 30
0.0
  0
ENDBLK
  5
1B4D
  8
0
  0
BLOCK
  8
0
  2
*D47
 70
     1
 10
0.0
 20
0.0
 30
0.0
  3
*D47
  1

  0
LINE
  5
1D6E
  8
寸法
 62
     0
 10
2014.83470092179
 20
1547.3595071541149
 30
0.0
 11
2060.140845013711
 21
1547.3595071541149
 31
0.0
  0
LINE
  5
1D6F
  8
寸法
 62
     0
 10
2014.83470092179
 20
1459.3595071541149
 30
0.0
 11
2060.140845013711
 21
1459.3595071541149
 31
0.0
  0
LINE
  5
1D70
  8
寸法
 62
     0
 10
2060.140845013711
 20
1547.3595071541149
 30
0.0
 11
2060.140845013711
 21
1459.3595071541149
 31
0.0
  0
INSERT
  5
1D71
  8
寸法
 62
     0
  2
_DOTSMALL
 10
2060.140845013711
 20
1547.3595071541149
 30
0.0
 41
35.0
 42
35.0
 43
35.0
 50
90.0
  0
INSERT
  5
1D72
  8
寸法
 62
     0
  2
_DOTSMALL
 10
2060.140845013711
 20
1459.3595071541149
 30
0.0
 41
35.0
 42
35.0
 43
35.0
 50
270.0
  0
TEXT
  8
寸法
  40
25
  5
1DAE
  72
0
  71
0
 10
1991.39
 20
1459.11
 30
0.000000
  1
88
  0
POINT
  5
1D74
  8
DEFPOINTS
 62
     0
 10
1949.83470092179
 20
1547.3595071541149
 30
0.0
  0
POINT
  5
1D75
  8
DEFPOINTS
 62
     0
 10
1949.83470092179
 20
1459.3595071541149
 30
0.0
  0
POINT
  5
1D76
  8
DEFPOINTS
 62
     0
 10
2060.140845013711
 20
1459.3595071541149
 30
0.0
  0
ENDBLK
  5
1B59
  8
0
  0
BLOCK
  8
0
  2
*D48
 70
     1
 10
0.0
 20
0.0
 30
0.0
  3
*D48
  1

  0
LINE
  5
1D65
  8
寸法
 62
     0
 10
1939.83470092179
 20
1273.3595071541149
 30
0.0
 11
1939.83470092179
 21
1110.44797922819
 31
0.0
  0
LINE
  5
1D66
  8
寸法
 62
     0
 10
1784.834700921791
 20
1276.359507154114
 30
0.0
 11
1784.834700921791
 21
1110.44797922819
 31
0.0
  0
LINE
  5
1D67
  8
寸法
 62
     0
 10
1939.83470092179
 20
1110.44797922819
 30
0.0
 11
1784.834700921791
 21
1110.44797922819
 31
0.0
  0
INSERT
  5
1D68
  8
寸法
 62
     0
  2
_DOTSMALL
 10
1939.83470092179
 20
1110.44797922819
 30
0.0
 41
35.0
 42
35.0
 43
35.0
  0
INSERT
  5
1D69
  8
寸法
 62
     0
  2
_DOTSMALL
 10
1784.834700921791
 20
1110.44797922819
 30
0.0
 41
35.0
 42
35.0
 43
35.0
 50
180.0
  0
TEXT
  8
寸法
  40
25
  5
1DAF
  72
0
  71
0
 10
1812.33
 20
1084.95
 30
0.000000
  1
155
  0
POINT
  5
1D6B
  8
DEFPOINTS
 62
     0
 10
1939.83470092179
 20
1338.3595071541149
 30
0.0
  0
POINT
  5
1D6C
  8
DEFPOINTS
 62
     0
 10
1784.834700921791
 20
1341.3595071541149
 30
0.0
  0
POINT
  5
1D6D
  8
DEFPOINTS
 62
     0
 10
1784.834700921791
 20
1110.44797922819
 30
0.0
  0
ENDBLK
  5
1B65
  8
0
  0
BLOCK
  8
0
  2
*D49
 70
     1
 10
0.0
 20
0.0
 30
0.0
  3
*D49
  1

  0
LINE
  5
1D41
  8
寸法
 62
     0
 10
994.83470092179004
 20
1273.3595071541149
 30
0.0
 11
994.83470092179004
 21
1112.63547922819
 31
0.0
  0
LINE
  5
1D42
  8
寸法
 62
     0
 10
1354.83470092179
 20
1273.3595071541149
 30
0.0
 11
1354.83470092179
 21
1112.63547922819
 31
0.0
  0
LINE
  5
1D43
  8
寸法
 62
     0
 10
994.83470092179004
 20
1112.63547922819
 30
0.0
 11
1354.83470092179
 21
1112.63547922819
 31
0.0
  0
INSERT
  5
1D44
  8
寸法
 62
     0
  2
_DOTSMALL
 10
994.83470092179004
 20
1112.63547922819
 30
0.0
 41
35.0
 42
35.0
 43
35.0
 50
180.0
  0
INSERT
  5
1D45
  8
寸法
 62
     0
  2
_DOTSMALL
 10
1354.83470092179
 20
1112.63547922819
 30
0.0
 41
35.0
 42
35.0
 43
35.0
  0
TEXT
  8
寸法
  40
25
  5
1DB0
  72
0
  71
0
 10
1124.83
 20
1087.14
 30
0.000000
  1
360
  0
POINT
  5
1D47
  8
DEFPOINTS
 62
     0
 10
994.83470092179004
 20
1338.3595071541149
 30
0.0
  0
POINT
  5
1D48
  8
DEFPOINTS
 62
     0
 10
1354.83470092179
 20
1338.3595071541149
 30
0.0
  0
POINT
  5
1D49
  8
DEFPOINTS
 62
     0
 10
1354.83470092179
 20
1112.63547922819
 30
0.0
  0
ENDBLK
  5
1B71
  8
0
  0
BLOCK
  8
0
  2
*D50
 70
     1
 10
0.0
 20
0.0
 30
0.0
  3
*D50
  1

  0
LINE
  5
1D4A
  8
寸法
 62
     0
 10
1389.83470092179
 20
903.35950715411423
 30
0.0
 11
1482.467075744378
 21
903.35950715411423
 31
0.0
  0
LINE
  5
1D4B
  8
寸法
 62
     0
 10
1389.83470092179
 20
748.35950715411445
 30
0.0
 11
1482.467075744378
 21
748.35950715411445
 31
0.0
  0
LINE
  5
1D4C
  8
寸法
 62
     0
 10
1482.467075744378
 20
903.35950715411423
 30
0.0
 11
1482.467075744378
 21
748.35950715411445
 31
0.0
  0
INSERT
  5
1D4D
  8
寸法
 62
     0
  2
_DOTSMALL
 10
1482.467075744378
 20
903.35950715411423
 30
0.0
 41
35.0
 42
35.0
 43
35.0
 50
90.0
  0
INSERT
  5
1D4E
  8
寸法
 62
     0
  2
_DOTSMALL
 10
1482.467075744378
 20
748.35950715411445
 30
0.0
 41
35.0
 42
35.0
 43
35.0
 50
270.0
  0
TEXT
  8
寸法
  40
25
  5
1DB1
  72
0
  71
0
 10
1413.72
 20
781.610
 30
0.000000
  1
155
  0
POINT
  5
1D50
  8
DEFPOINTS
 62
     0
 10
1324.83470092179
 20
903.35950715411423
 30
0.0
  0
POINT
  5
1D51
  8
DEFPOINTS
 62
     0
 10
1324.83470092179
 20
748.35950715411445
 30
0.0
  0
POINT
  5
1D52
  8
DEFPOINTS
 62
     0
 10
1482.467075744378
 20
748.35950715411445
 30
0.0
  0
ENDBLK
  5
1B7D
  8
0
  0
BLOCK
  8
0
  2
*D51
 70
     1
 10
0.0
 20
0.0
 30
0.0
  3
*D51
  1

  0
LINE
  5
1D53
  8
寸法
 62
     0
 10
1130.83470092179
 20
673.35950715411445
 30
0.0
 11
1130.83470092179
 21
621.93209985304202
 31
0.0
  0
LINE
  5
1D54
  8
寸法
 62
     0
 10
1218.83470092179
 20
673.35950715411445
 30
0.0
 11
1218.83470092179
 21
621.93209985304202
 31
0.0
  0
LINE
  5
1D55
  8
寸法
 62
     0
 10
1130.83470092179
 20
621.93209985304202
 30
0.0
 11
1218.83470092179
 21
621.93209985304202
 31
0.0
  0
INSERT
  5
1D56
  8
寸法
 62
     0
  2
_DOTSMALL
 10
1130.83470092179
 20
621.93209985304202
 30
0.0
 41
35.0
 42
35.0
 43
35.0
 50
180.0
  0
INSERT
  5
1D57
  8
寸法
 62
     0
  2
_DOTSMALL
 10
1218.83470092179
 20
621.93209985304202
 30
0.0
 41
35.0
 42
35.0
 43
35.0
  0
TEXT
  8
寸法
  40
25
  5
1DB2
  72
0
  71
0
 10
1124.83
 20
596.432
 30
0.000000
  1
88
  0
POINT
  5
1D59
  8
DEFPOINTS
 62
     0
 10
1130.83470092179
 20
738.35950715411457
 30
0.0
  0
POINT
  5
1D5A
  8
DEFPOINTS
 62
     0
 10
1218.83470092179
 20
738.35950715411457
 30
0.0
  0
POINT
  5
1D5B
  8
DEFPOINTS
 62
     0
 10
1218.83470092179
 20
621.93209985304202
 30
0.0
  0
ENDBLK
  5
1B89
  8
0
  0
BLOCK
  8
0
  2
*D52
 70
     1
 10
0.0
 20
0.0
 30
0.0
  3
*D52
  1

  0
LINE
  5
1D5C
  8
寸法
 62
     0
 10
1116.83470092179
 20
673.35950715411445
 30
0.0
 11
1116.83470092179
 21
561.97270128411299
 31
0.0
  0
LINE
  5
1D5D
  8
寸法
 62
     0
 10
1232.83470092179
 20
673.35950715411445
 30
0.0
 11
1232.83470092179
 21
561.97270128411299
 31
0.0
  0
LINE
  5
1D5E
  8
寸法
 62
     0
 10
1116.83470092179
 20
561.97270128411299
 30
0.0
 11
1232.83470092179
 21
561.97270128411299
 31
0.0
  0
INSERT
  5
1D5F
  8
寸法
 62
     0
  2
_DOTSMALL
 10
1116.83470092179
 20
561.97270128411299
 30
0.0
 41
35.0
 42
35.0
 43
35.0
 50
180.0
  0
INSERT
  5
1D60
  8
寸法
 62
     0
  2
_DOTSMALL
 10
1232.83470092179
 20
561.97270128411299
 30
0.0
 41
35.0
 42
35.0
 43
35.0
  0
TEXT
  8
寸法
  40
25
  5
1DB3
  72
0
  71
0
 10
1124.83
 20
536.473
 30
0.000000
  1
116
  0
POINT
  5
1D62
  8
DEFPOINTS
 62
     0
 10
1116.83470092179
 20
738.35950715411457
 30
0.0
  0
POINT
  5
1D63
  8
DEFPOINTS
 62
     0
 10
1232.83470092179
 20
738.35950715411457
 30
0.0
  0
POINT
  5
1D64
  8
DEFPOINTS
 62
     0
 10
1232.83470092179
 20
561.97270128411299
 30
0.0
  0
ENDBLK
  5
1B95
  8
0
  0
BLOCK
  8
0
  2
_DOT
 70
     0
 10
0.0
 20
0.0
 30
0.0
  3
_DOT
  1

  0
POLYLINE
  5
1B97
  8
0
  6
BYBLOCK
 62
     0
 66
     1
 10
0.0
 20
0.0
 30
0.0
 70
     1
 40
0.5
 41
0.5
  0
VERTEX
  5
1D99
  8
0
  6
BYBLOCK
 62
     0
 10
-0.25
 20
0.0
 30
0.0
 42
1.0
  0
VERTEX
  5
1D9A
  8
0
  6
BYBLOCK
 62
     0
 10
0.25
 20
0.0
 30
0.0
 42
1.0
  0
SEQEND
  5
1D9B
  8
0
  6
BYBLOCK
 62
     0
  0
LINE
  5
1B98
  8
0
  6
BYBLOCK
 62
     0
 10
-0.5
 20
0.0
 30
0.0
 11
-1.0
 21
0.0
 31
0.0
  0
ENDBLK
  5
1B9A
  8
0
  0
BLOCK
  8
0
  2
*D54
 70
     1
 10
0.0
 20
0.0
 30
0.0
  3
*D54
  1

  0
LINE
  5
1D80
  8
実形
 62
     0
 10
1336.83470092179
 20
1273.3595071541149
 30
0.0
 11
1336.83470092179
 21
1190.42738938406
 31
0.0
  0
LINE
  5
1D81
  8
実形
 62
     0
 10
1354.83470092179
 20
1273.3595071541149
 30
0.0
 11
1354.83470092179
 21
1190.42738938406
 31
0.0
  0
LINE
  5
1D82
  8
実形
 62
     0
 10
1336.83470092179
 20
1190.42738938406
 30
0.0
 11
1354.83470092179
 21
1190.42738938406
 31
0.0
  0
INSERT
  5
1D83
  8
実形
 62
     0
  2
_DOTSMALL
 10
1336.83470092179
 20
1190.42738938406
 30
0.0
 41
35.0
 42
35.0
 43
35.0
 50
180.0
  0
INSERT
  5
1D84
  8
実形
 62
     0
  2
_DOTSMALL
 10
1354.83470092179
 20
1190.42738938406
 30
0.0
 41
35.0
 42
35.0
 43
35.0
  0
POINT
  5
1D85
  8
DEFPOINTS
 62
     0
 10
1336.83470092179
 20
1338.3595071541149
 30
0.0
  0
POINT
  5
1D86
  8
DEFPOINTS
 62
     0
 10
1354.83470092179
 20
1338.3595071541149
 30
0.0
  0
POINT
  5
1D87
  8
DEFPOINTS
 62
     0
 10
1354.83470092179
 20
1190.42738938406
 30
0.0
  0
ENDBLK
  5
1BC2
  8
0
  0
BLOCK
  8
0
  2
_DOTBLANK
 70
     0
 10
0.0
 20
0.0
 30
0.0
  3
_DOTBLANK
  1

  0
CIRCLE
  5
1C87
  8
0
  6
BYBLOCK
 62
     0
 10
0.0
 20
0.0
 30
0.0
 40
0.5
  0
LINE
  5
1C88
  8
0
  6
BYBLOCK
 62
     0
 10
-0.5
 20
0.0
 30
0.0
 11
-1.0
 21
0.0
 31
0.0
  0
ENDBLK
  5
1C8A
  8
0
  0
BLOCK
  8
0
  2
*D57
 70
     1
 10
0.0
 20
0.0
 30
0.0
  3
*D57
  1

  0
LINE
  5
1D1D
  8
寸法
 62
     0
 10
947.83470092179004
 20
1353.359507154114
 30
0.0
 11
866.65938619791734
 21
1353.359507154114
 31
0.0
  0
LINE
  5
1D1E
  8
寸法
 62
     0
 10
947.83470092179004
 20
1341.3595071541149
 30
0.0
 11
866.65938619791734
 21
1341.3595071541149
 31
0.0
  0
POINT
  5
1D1F
  8
DEFPOINTS
 62
     0
 10
1012.83470092179
 20
1353.359507154114
 30
0.0
  0
POINT
  5
1D20
  8
DEFPOINTS
 62
     0
 10
1012.83470092179
 20
1341.3595071541149
 30
0.0
  0
POINT
  5
1D21
  8
DEFPOINTS
 62
     0
 10
866.65938619791734
 20
1341.3595071541149
 30
0.0
  0
ENDBLK
  5
1D23
  8
0
  0
BLOCK
  8
0
  2
*D58
 70
     1
 10
0.0
 20
0.0
 30
0.0
  3
*D58
  1

  0
LINE
  5
1D37
  8
寸法
 62
     0
 10
1324.83470092179
 20
1273.3595071541149
 30
0.0
 11
1324.83470092179
 21
1190.42738938406
 31
0.0
  0
LINE
  5
1D38
  8
寸法
 62
     0
 10
1336.83470092179
 20
1273.3595071541149
 30
0.0
 11
1336.83470092179
 21
1190.42738938406
 31
0.0
  0
LINE
  5
1D39
  8
寸法
 62
     0
 10
1406.83470092179
 20
1190.42738938406
 30
0.0
 11
1371.83470092179
 21
1190.42738938406
 31
0.0
  0
LINE
  5
1D3A
  8
寸法
 62
     0
 10
1336.83470092179
 20
1190.42738938406
 30
0.0
 11
1324.58470092179
 21
1190.42738938406
 31
0.0
  0
SOLID
  5
1D3B
  8
寸法
 62
     0
 10
1371.83470092179
 20
1196.260722717393
 30
0.0
 11
1371.83470092179
 21
1184.594056050727
 31
0.0
 12
1336.83470092179
 22
1190.42738938406
 32
0.0
 13
1336.83470092179
 23
1190.42738938406
 33
0.0
  0
POINT
  5
1D3C
  8
DEFPOINTS
 62
     0
 10
1324.83470092179
 20
1338.3595071541149
 30
0.0
  0
POINT
  5
1D3D
  8
DEFPOINTS
 62
     0
 10
1336.83470092179
 20
1338.3595071541149
 30
0.0
  0
POINT
  5
1D3E
  8
DEFPOINTS
 62
     0
 10
1336.83470092179
 20
1190.42738938406
 30
0.0
  0
ENDBLK
  5
1D40
  8
0
  0
BLOCK
  8
0
  2
*U59
 70
     1
 10
0.0
 20
0.0
 30
0.0
  3
*U59
  1

  0
TEXT
  5
1D9D
  8
実形
 10
-535.50547373011705
 20
12.474387542163599
 30
0.0
 40
45.0
  1
 e
  0
TEXT
  5
1D9E
  8
実形
 10
-483.07709719532852
 20
12.474387542163599
 30
0.0
 40
35.001000000000012
  1
-KITCHEN 
  0
TEXT
  5
1D9F
  8
実形
 10
-238.59535094703381
 20
12.474387542163599
 30
0.0
 40
11.9983428
  1
U-ARCHITECTURE WORKS
  0
ENDBLK
  5
1DA1
  8
0
  0
BLOCK
  8
0
  2
*U60
 70
     1
 10
0.0
 20
0.0
 30
0.0
  3
*U60
  1

  0
TEXT
  5
1DA3
  8
実形
 10
2248.494526269883
 20
66.474387542163583
 30
0.0
 40
45.0
  1
 e
  0
TEXT
  5
1DA4
  8
実形
 10
2300.9229028046711
 20
66.474387542163583
 30
0.0
 40
35.001000000000012
  1
-KITCHEN 
  0
TEXT
  5
1DA5
  8
実形
 10
2545.4046490529659
 20
66.474387542163583
 30
0.0
 40
11.9983428
  1
U-ARCHITECTURE WORKS
  0
ENDBLK
  5
1DA7
  8
0
  0
ENDSEC
  0
SECTION
  2
ENTITIES
  0
LINE
  5
73
  8
0
 10
4.0
 20
54.0
 30
0.0
 11
278.0
 21
54.0
 31
0.0
  0
LINE
  5
76
  8
0
 10
4.0
 20
252.0
 30
0.0
 11
4.0
 21
54.0
 31
0.0
  0
LINE
  5
9C
  8
0
 10
4.0
 20
54.0
 30
0.0
 11
2784.0
 21
54.0
 31
0.0
  0
LINE
  5
9F
  8
0
 10
4.0
 20
2024.0
 30
0.0
 11
4.0
 21
54.0
 31
0.0
  0
LINE
  5
A0
  8
0
 10
2784.0
 20
2024.0
 30
0.0
 11
4.0
 21
2024.0
 31
0.0
  0
LINE
  5
A5
  8
0
 10
2784.0
 20
54.0
 30
0.0
 11
2784.0
 21
2024.0
 31
0.0
  0
TEXT
  5
2C9
  8
0
 10
2269.333333333333
 20
199.0
 30
0.0
 40
35.0
  1
A1m/m 360-410S
 72
     4
 11
2484.0
 21
216.5
 31
0.0
  0
LINE
  5
2E6
  8
実形
 10
1009.83470092179
 20
898.35950715411445
 30
0.0
 11
1339.83470092179
 21
898.35950715411445
 31
0.0
  0
CIRCLE
  5
2EB
  8
実形
 10
1174.83470092179
 20
1503.359507154114
 30
0.0
 40
44.0
  0
CIRCLE
  5
2EE
  8
実形
 10
1174.83470092179
 20
1503.359507154114
 30
0.0
 40
58.0
  0
LINE
  5
2FE
  8
実形
 10
1789.83470092179
 20
1718.3595071541149
 30
0.0
 11
1789.83470092179
 21
1338.3595071541149
 31
0.0
  0
LINE
  5
33A
  8
センタ_
 10
1089.6200000654021
 20
1503.359507154114
 30
0.0
 11
1260.049401778178
 21
1503.359507154114
 31
0.0
  0
LINE
  5
33B
  8
センタ_
 10
1174.83470092179
 20
1588.5742080105031
 30
0.0
 11
1174.83470092179
 21
1418.1448062977261
 31
0.0
  0
LINE
  5
33C
  8
センタ_
 10
1174.83470092179
 20
826.57613102952837
 30
0.0
 11
1174.83470092179
 21
670.16031072222813
 31
0.0
  0
LINE
  5
33D
  8
センタ_
 10
1863.298912242833
 20
1503.359507154114
 30
0.0
 11
1972.209864499895
 21
1503.359507154114
 31
0.0
  0
DIMENSION
  5
35B
  8
寸法
  2
*D43
 10
1024.83470092179
 20
1807.6569434059229
 30
0.0
 11
1099.83470092179
 21
1826.4069434059229
 31
0.0
 70
     0
 13
1174.83470092179
 23
1503.359507154114
 33
0.0
 14
1024.83470092179
 24
1593.8267060590031
 34
0.0
1001
ACAD
1000
DSTYLE
1002
{
1070
     7
1000
DOTSMALL
1070
   173
1070
     1
1070
     6
1000
DOTSMALL
1070
   178
1070
   256
1070
   371
1070
    18
1002
}
  0
DIMENSION
  5
368
  8
寸法
  2
*D45
 10
1437.4377135407719
 20
1653.359507154114
 30
0.0
 11
1418.6877135407719
 21
1578.3595071541149
 31
0.0
 70
     0
 13
1174.83470092179
 23
1503.359507154114
 33
0.0
 14
1244.83470092179
 24
1653.359507154114
 34
0.0
 50
90.0
1001
ACAD
1000
DSTYLE
1002
{
1070
     6
1000
DOTSMALL
1070
   173
1070
     1
1070
     7
1000
DOTSMALL
1070
   178
1070
   256
1070
   371
1070
    18
1002
}
  0
TEXT
  5
398
  8
寸法
 10
1190.408005985232
 20
1412.9373742360051
 30
0.0
 40
25.0
  1
55R
  0
TEXT
  5
3AF
  8
寸法
 10
1194.354810498847
 20
809.58870561475669
 30
0.0
 40
25.0
  1
25R
  0
TEXT
  5
3B1
  8
寸法
 10
1823.558837892989
 20
1418.3933409996671
 30
0.0
 40
25.0
  1
25R
  0
DIMENSION
  5
3CE
  8
寸法
  2
*D9
 10
866.65938619791734
 20
1653.359507154114
 30
0.0
 11
866.65938619791689
 21
1684.3595071541149
 31
0.0
  1
 
 13
1012.83470092179
 23
1715.3595071541149
 33
0.0
 14
1012.83470092179
 24
1653.359507154114
 34
0.0
 50
90.0
1001
ACAD
1000
DSTYLE
1002
{
1070
   371
1070
    18
1002
}
  0
DIMENSION
  5
3DC
  8
寸法
  2
*D42
 10
866.65938619791734
 20
1353.359507154114
 30
0.0
 11
847.90938619791689
 21
1503.3595071541149
 31
0.0
 70
     0
 13
1009.83470092179
 23
1653.359507154114
 33
0.0
 14
1009.83470092179
 24
1353.359507154114
 34
0.0
 50
90.0
1001
ACAD
1000
DSTYLE
1002
{
1070
   287
1070
     4
1070
     6
1000
DOTSMALL
1070
   173
1070
     1
1070
     7
1000
DOTSMALL
1070
    77
1070
     3
1070
   279
1070
     1
1070
   281
1070
     0
1070
   287
1070
     4
1070
   371
1070
    18
1002
}
  0
DIMENSION
  5
3E9
  8
寸法
  2
*D57
 10
866.65938619791734
 20
1341.3595071541149
 30
0.0
 11
866.65938619791734
 21
1449.6578719352819
 31
0.0
 70
   128
  1
 
 13
1012.83470092179
 23
1353.359507154114
 33
0.0
 14
1012.83470092179
 24
1341.3595071541149
 34
0.0
 50
90.0
1001
ACAD
1000
DSTYLE
1002
{
1070
   287
1070
     4
1070
   287
1070
     4
1070
   282
1070
     1
1070
   281
1070
     1
1070
   371
1070
    18
1070
   279
1070
     1
1002
}
  0
DIMENSION
  5
3F6
  8
寸法
  2
*D44
 10
797.81948787323245
 20
1323.3595071541149
 30
0.0
 11
779.06948787323233
 21
1528.3595071541149
 31
0.0
 70
     0
 13
1012.83470092179
 23
1733.3595071541149
 33
0.0
 14
1012.83470092179
 24
1323.3595071541149
 34
0.0
 50
90.0
1001
ACAD
1000
DSTYLE
1002
{
1070
     6
1000
DOTSMALL
1070
   173
1070
     1
1070
     7
1000
DOTSMALL
1070
   178
1070
   256
1070
   371
1070
    18
1002
}
  0
TEXT
  5
43C
  8
寸法
 10
856.686632222556
 20
1669.739223053371
 30
0.0
 40
25.0
  1
62
 50
90.0
  0
DIMENSION
  5
43D
  8
寸法
  2
*D14
 10
1024.83470092179
 20
1190.42738938406
 30
0.0
 11
1101.08470092179
 21
1190.42738938406
 31
0.0
 70
   128
  1
 
 13
1012.83470092179
 23
1338.3595071541149
 33
0.0
 14
1024.83470092179
 24
1338.3595071541149
 34
0.0
1001
ACAD
1000
DSTYLE
1002
{
1070
   281
1070
     1
1070
   371
1070
    18
1002
}
  0
DIMENSION
  5
44B
  8
寸法
  2
*D41
 10
1324.83470092179
 20
1190.42738938406
 30
0.0
 11
1174.83470092179
 21
1209.17738938406
 31
0.0
 70
     0
 13
1024.83470092179
 23
1338.3595071541149
 33
0.0
 14
1324.83470092179
 24
1338.3595071541149
 34
0.0
1001
ACAD
1000
DSTYLE
1002
{
1070
   287
1070
     4
1070
     6
1000
DOTSMALL
1070
   173
1070
     1
1070
     7
1000
DOTSMALL
1070
    77
1070
     3
1070
   279
1070
     1
1070
   287
1070
     4
1070
   371
1070
    18
1002
}
  0
DIMENSION
  5
458
  8
寸法
  2
*D58
 10
1336.83470092179
 20
1190.42738938406
 30
0.0
 11
1330.83470092179
 21
1190.42738938406
 31
0.0
 70
     0
  1
 
 13
1324.83470092179
 23
1338.3595071541149
 33
0.0
 14
1336.83470092179
 24
1338.3595071541149
 34
0.0
1001
ACAD
1000
DSTYLE
1002
{
1070
   287
1070
     4
1070
   287
1070
     4
1070
   281
1070
     1
1070
   371
1070
    18
1070
   279
1070
     1
1002
}
  0
TEXT
  5
494
  8
寸法
 10
943.21624879872797
 20
1196.0968923372759
 30
0.0
 40
25.0
  1
18
  0
TEXT
  5
495
  8
寸法
 10
1277.6095456875209
 20
1198.299520838226
 30
0.0
 40
25.0
  1
12
  0
DIMENSION
  5
4A3
  8
寸法
  2
*D49
 10
1354.83470092179
 20
1112.63547922819
 30
0.0
 11
1174.83470092179
 21
1131.38547922819
 31
0.0
 70
     0
 13
994.83470092179004
 23
1338.3595071541149
 33
0.0
 14
1354.83470092179
 24
1338.3595071541149
 34
0.0
1001
ACAD
1000
DSTYLE
1002
{
1070
     7
1000
DOTSMALL
1070
   173
1070
     1
1070
     6
1000
DOTSMALL
1070
   178
1070
   256
1070
   371
1070
    18
1002
}
  0
DIMENSION
  5
4BE
  8
寸法
  2
*D19
 10
1443.7264514094979
 20
748.35950715411445
 30
0.0
 11
1443.726451409497
 21
755.85950715411502
 31
0.0
  1
 
 13
1324.83470092179
 23
763.35950715411457
 33
0.0
 14
1324.83470092179
 24
748.35950715411445
 34
0.0
 50
90.0
1001
ACAD
1000
DSTYLE
1002
{
1070
   371
1070
    18
1002
}
  0
DIMENSION
  5
4CC
  8
寸法
  2
*D50
 10
1482.467075744378
 20
748.35950715411445
 30
0.0
 11
1463.717075744378
 21
825.85950715411468
 31
0.0
 70
     0
 13
1324.83470092179
 23
903.35950715411423
 33
0.0
 14
1324.83470092179
 24
748.35950715411445
 34
0.0
 50
90.0
1001
ACAD
1000
DSTYLE
1002
{
1070
     6
1000
DOTSMALL
1070
   173
1070
     1
1070
     7
1000
DOTSMALL
1070
   178
1070
   256
1070
   371
1070
    18
1002
}
  0
TEXT
  5
4F7
  8
寸法
 10
1446.7801531215021
 20
689.05362395088036
 30
0.0
 40
25.0
  1
15
 50
90.0
  0
DIMENSION
  5
4F8
  8
寸法
  2
*D51
 10
1218.83470092179
 20
621.93209985304202
 30
0.0
 11
1174.83470092179
 21
640.68209985304202
 31
0.0
 70
     0
 13
1130.83470092179
 23
738.35950715411457
 33
0.0
 14
1218.83470092179
 24
738.35950715411457
 34
0.0
1001
ACAD
1000
DSTYLE
1002
{
1070
     6
1000
DOTSMALL
1070
   173
1070
     1
1070
     7
1000
DOTSMALL
1070
   178
1070
   256
1070
   371
1070
    18
1002
}
  0
DIMENSION
  5
505
  8
寸法
  2
*D52
 10
1232.83470092179
 20
561.97270128411299
 30
0.0
 11
1174.83470092179
 21
580.72270128411299
 31
0.0
 70
     0
 13
1116.83470092179
 23
738.35950715411457
 33
0.0
 14
1232.83470092179
 24
738.35950715411457
 34
0.0
1001
ACAD
1000
DSTYLE
1002
{
1070
     6
1000
DOTSMALL
1070
   173
1070
     1
1070
     7
1000
DOTSMALL
1070
   178
1070
   256
1070
   371
1070
    18
1002
}
  0
DIMENSION
  5
532
  8
寸法
  2
*D26
 10
1924.83470092179
 20
1190.42738938406
 30
0.0
 11
1932.33470092179
 21
1190.42738938406
 31
0.0
  1
 
 13
1939.83470092179
 23
1353.359507154114
 33
0.0
 14
1924.83470092179
 24
1353.359507154114
 34
0.0
1001
ACAD
1000
DSTYLE
1002
{
1070
   371
1070
    18
1002
}
  0
DIMENSION
  5
548
  8
寸法
  2
*D48
 10
1784.834700921791
 20
1110.44797922819
 30
0.0
 11
1862.33470092179
 21
1129.19797922819
 31
0.0
 70
     0
 13
1939.83470092179
 23
1338.3595071541149
 33
0.0
 14
1784.834700921791
 24
1341.3595071541149
 34
0.0
1001
ACAD
1000
DSTYLE
1002
{
1070
     6
1000
DOTSMALL
1070
   173
1070
     1
1070
     7
1000
DOTSMALL
1070
   178
1070
   256
1070
   371
1070
    18
1002
}
  0
TEXT
  5
555
  8
寸法
 10
1966.820984898055
 20
1192.7153870184561
 30
0.0
 40
25.0
  1
15
  0
DIMENSION
  5
569
  8
寸法
  2
*D47
 10
2060.140845013711
 20
1459.3595071541149
 30
0.0
 11
2041.390845013711
 21
1503.3595071541149
 31
0.0
 70
     0
 13
1949.83470092179
 23
1547.3595071541149
 33
0.0
 14
1949.83470092179
 24
1459.3595071541149
 34
0.0
 50
90.0
1001
ACAD
1000
DSTYLE
1002
{
1070
     6
1000
DOTSMALL
1070
   173
1070
     1
1070
     7
1000
DOTSMALL
1070
   178
1070
   256
1070
   371
1070
    18
1002
}
  0
DIMENSION
  5
57F
  8
寸法
  2
*D46
 10
2125.0624329785519
 20
1445.359507154114
 30
0.0
 11
2106.3124329785519
 21
1503.3595071541149
 31
0.0
 70
     0
 13
1949.83470092179
 23
1561.359507154114
 33
0.0
 14
1949.83470092179
 24
1445.359507154114
 34
0.0
 50
90.0
1001
ACAD
1000
DSTYLE
1002
{
1070
     6
1000
DOTSMALL
1070
   173
1070
     1
1070
     7
1000
DOTSMALL
1070
   178
1070
   256
1070
   371
1070
    18
1002
}
  0
INSERT
  5
7D1
  8
補助
  2
*U37
 10
0.0
 20
0.0
 30
0.0
1001
ACAD
1000
DSTYLE
1002
{
1070
    41
1040
25.0
1070
   147
1040
6.25
1070
    77
1070
     0
1070
    73
1070
     1
1070
    74
1070
     1
1070
   279
1070
     1
1070
   342
1005
DA
1002
}
  0
INSERT
  5
7D2
  8
補助
  2
*U38
 10
0.0
 20
0.0
 30
0.0
1001
ACAD
1000
DSTYLE
1002
{
1070
    41
1040
25.0
1070
   147
1040
6.25
1070
    77
1070
     0
1070
    73
1070
     1
1070
    74
1070
     1
1070
   279
1070
     1
1070
   342
1005
DA
1002
}
  0
INSERT
  5
7D3
  8
補助
  2
*U39
 10
0.0
 20
0.0
 30
0.0
1001
ACAD
1000
DSTYLE
1002
{
1070
    41
1040
25.0
1070
   147
1040
6.25
1070
    77
1070
     0
1070
    73
1070
     1
1070
    74
1070
     1
1070
   279
1070
     1
1070
   342
1005
DA
1002
}
  0
TEXT
  5
8C9
  8
0
 10
249.2632881086038
 20
133.52862940911919
 30
0.0
 40
30.0
  1
※実寸には製造上の誤差が多少生ずる場合があります。シンクの穴あけ加工は現物合わせにてお願いします。
  0
LINE
  5
F27
  8
実形
 10
1009.83470092179
 20
898.35950715411445
 30
0.0
 11
1339.83470092179
 21
898.35950715411445
 31
0.0
  0
LINE
  5
1238
  8
実形
 10
1354.83470092179
 20
898.35950715411445
 30
0.0
 11
994.83470092179004
 21
898.35950715411445
 31
0.0
  0
LINE
  5
123B
  8
実形
 10
1116.83470092179
 20
748.35950715411445
 30
0.0
 11
1116.83470092179
 21
738.35950715411457
 31
0.0
  0
LINE
  5
123C
  8
実形
 10
1116.83470092179
 20
738.35950715411457
 30
0.0
 11
1232.83470092179
 21
738.35950715411457
 31
0.0
  0
LINE
  5
123D
  8
実形
 10
1232.83470092179
 20
738.35950715411457
 30
0.0
 11
1232.83470092179
 21
748.35950715411445
 31
0.0
  0
LINE
  5
123E
  8
実形
 10
1232.83470092179
 20
748.35950715411445
 30
0.0
 11
1116.83470092179
 21
748.35950715411445
 31
0.0
  0
LINE
  5
12A9
  8
実形
 10
1789.83470092179
 20
1718.3595071541149
 30
0.0
 11
1789.83470092179
 21
1338.3595071541149
 31
0.0
  0
LINE
  5
12AC
  8
実形
 10
1939.83470092179
 20
1445.359507154114
 30
0.0
 11
1949.83470092179
 21
1445.359507154114
 31
0.0
  0
LINE
  5
12AD
  8
実形
 10
1949.83470092179
 20
1445.359507154114
 30
0.0
 11
1949.83470092179
 21
1561.359507154114
 31
0.0
  0
LINE
  5
12AE
  8
実形
 10
1949.83470092179
 20
1561.359507154114
 30
0.0
 11
1939.83470092179
 21
1561.359507154114
 31
0.0
  0
LINE
  5
12AF
  8
実形
 10
1939.83470092179
 20
1561.359507154114
 30
0.0
 11
1939.83470092179
 21
1445.359507154114
 31
0.0
  0
LINE
  5
15ED
  8
実形
 10
1024.83470092179
 20
1598.3595071541149
 30
0.0
 11
1024.83470092179
 21
1408.3595071541149
 31
0.0
  0
LINE
  5
15EE
  8
実形
 10
1079.83470092179
 20
1353.359507154114
 30
0.0
 11
1269.834700921791
 21
1353.359507154114
 31
0.0
  0
LINE
  5
15EF
  8
実形
 10
1324.834700921791
 20
1408.3595071541149
 30
0.0
 11
1324.83470092179
 21
1598.3595071541149
 31
0.0
  0
LINE
  5
15F0
  8
実形
 10
1269.83470092179
 20
1653.359507154114
 30
0.0
 11
1079.83470092179
 21
1653.359507154114
 31
0.0
  0
LINE
  5
15F5
  8
実形
 10
1324.83470092179
 20
888.35950715411457
 30
0.0
 11
1324.83470092179
 21
784.613530439697
 31
0.0
  0
LINE
  5
15F6
  8
実形
 10
1303.8576669862521
 20
759.93933857766831
 30
0.0
 11
1232.83470092179
 21
748.35950715411445
 31
0.0
  0
LINE
  5
15F7
  8
実形
 10
1116.83470092179
 20
748.35950715411445
 30
0.0
 11
1045.8117348573289
 21
759.93933857766865
 31
0.0
  0
LINE
  5
15F8
  8
実形
 10
1024.83470092179
 20
784.61353043969712
 30
0.0
 11
1024.83470092179
 21
888.35950715411457
 31
0.0
  0
LINE
  5
15F9
  8
実形
 10
1799.83470092179
 20
1353.359507154114
 30
0.0
 11
1903.5806776362081
 21
1353.359507154114
 31
0.0
  0
LINE
  5
15FA
  8
実形
 10
1928.254869498237
 20
1374.336541089654
 30
0.0
 11
1939.83470092179
 21
1445.359507154114
 31
0.0
  0
LINE
  5
15FB
  8
実形
 10
1799.83470092179
 20
1653.359507154114
 30
0.0
 11
1903.5806776362081
 21
1653.359507154114
 31
0.0
  0
LINE
  5
15FC
  8
実形
 10
1928.254869498237
 20
1632.382473218576
 30
0.0
 11
1939.83470092179
 21
1561.359507154114
 31
0.0
  0
ARC
  5
15FD
  8
実形
 10
1049.83470092179
 20
784.61353043969712
 30
0.0
 40
25.0
 50
180.0
 51
260.7397784688286
  0
ARC
  5
15FE
  8
実形
 10
1299.83470092179
 20
784.613530439697
 30
0.0
 40
25.0
 50
279.26022153117151
 51
0.0
  0
ARC
  5
15FF
  8
実形
 10
1903.5806776362081
 20
1628.359507154114
 30
0.0
 40
25.0
 50
9.2602215311714744
 51
90.0
  0
ARC
  5
1600
  8
実形
 10
1903.5806776362081
 20
1378.3595071541149
 30
0.0
 40
25.0
 50
270.0
 51
350.73977846882872
  0
ARC
  5
1601
  8
実形
 10
1269.834700921791
 20
1408.3595071541149
 30
0.0
 40
55.0
 50
270.0
 51
0.0
  0
ARC
  5
1602
  8
実形
 10
1269.83470092179
 20
1598.3595071541149
 30
0.0
 40
55.0
 50
0.0000000000000509
 51
90.0
  0
ARC
  5
1603
  8
実形
 10
1079.83470092179
 20
1598.3595071541149
 30
0.0
 40
55.0
 50
90.0
 51
180.0
  0
ARC
  5
1604
  8
実形
 10
1079.83470092179
 20
1408.3595071541149
 30
0.0
 40
55.0
 50
180.0
 51
270.0
  0
DIMENSION
  5
1660
  8
実形
  2
*D54
 10
1354.83470092179
 20
1190.42738938406
 30
0.0
 11
1107.33470092179
 21
1190.42738938406
 31
0.0
 70
   128
  1
 
 13
1336.83470092179
 23
1338.3595071541149
 33
0.0
 14
1354.83470092179
 24
1338.3595071541149
 34
0.0
1001
ACAD
1000
DSTYLE
1002
{
1070
     6
1000
DOTSMALL
1070
   173
1070
     1
1070
     7
1000
DOTSMALL
1070
   282
1070
     0
1070
   281
1070
     0
1070
    75
1070
     0
1070
    76
1070
     0
1070
   371
1070
    18
1070
   372
1070
    18
1002
}
  0
TEXT
  5
1733
  8
寸法
 10
1381.617877874673
 20
1191.666323184663
 30
0.0
 40
25.0
  1
18
  0
DIMENSION
  5
173D
  8
実形
  2
*D34
 10
994.83470092179004
 20
1190.42738938406
 30
0.0
 11
1107.33470092179
 21
1190.42738938406
 31
0.0
 70
   128
  1
 
 13
1012.83470092179
 23
1338.3595071541149
 33
0.0
 14
994.83470092179004
 24
1338.3595071541149
 34
0.0
1001
ACAD
1000
DSTYLE
1002
{
1070
   282
1070
     0
1070
   281
1070
     0
1070
   371
1070
    18
1070
   372
1070
    18
1002
}
  0
TEXT
  5
178F
  8
寸法
 10
1036.398725982823
 20
1198.299520838226
 30
0.0
 40
25.0
  1
12
  0
DIMENSION
  5
17AE
  8
実形
  2
*D35
 10
866.65938619791734
 20
1323.3595071541149
 30
0.0
 11
866.65938619791734
 21
1399.2761738207821
 31
0.0
 70
   128
  1
 
 13
1012.83470092179
 23
1341.3595071541149
 33
0.0
 14
1012.83470092179
 24
1323.3595071541149
 34
0.0
 50
90.0
1001
ACAD
1000
DSTYLE
1002
{
1070
   371
1070
    18
1070
   372
1070
    18
1002
}
  0
TEXT
  5
1829
  8
寸法
 10
861.55763195238421
 20
1274.252468672438
 30
0.0
 40
25.0
  1
18
 50
90.0
  0
TEXT
  5
182A
  8
寸法
 10
859.35500345143475
 20
1367.434945856533
 30
0.0
 40
25.0
  1
12
 50
90.0
  0
DIMENSION
  5
1857
  8
実形
  2
*D36
 10
866.65938619791734
 20
1715.3595071541149
 30
0.0
 11
866.65938619791689
 21
1724.3595071541149
 31
0.0
  1
 
 13
1012.83470092179
 23
1733.3595071541149
 33
0.0
 14
1012.83470092179
 24
1715.3595071541149
 34
0.0
 50
90.0
1001
ACAD
1000
DSTYLE
1002
{
1070
   371
1070
    18
1070
   372
1070
    18
1002
}
  0
TEXT
  5
186D
  8
寸法
 10
854.84329056520437
 20
1742.489358237563
 30
0.0
 40
25.0
  1
18
 50
90.0
  0
LINE
  5
1877
  8
実形
 10
1012.83470092179
 20
1685.3595071541149
 30
0.0
 11
1012.83470092179
 21
1371.3595071541149
 31
0.0
  0
LINE
  5
1878
  8
実形
 10
1042.83470092179
 20
1341.3595071541149
 30
0.0
 11
1306.83470092179
 21
1341.3595071541149
 31
0.0
  0
LINE
  5
1879
  8
実形
 10
1336.83470092179
 20
1371.3595071541149
 30
0.0
 11
1336.83470092179
 21
1685.3595071541149
 31
0.0
  0
LINE
  5
187A
  8
実形
 10
1306.83470092179
 20
1715.3595071541149
 30
0.0
 11
1042.83470092179
 21
1715.3595071541149
 31
0.0
  0
LINE
  5
187B
  8
実形
 10
1004.83470092179
 20
1733.3595071541149
 30
0.0
 11
1344.83470092179
 21
1733.3595071541149
 31
0.0
  0
LINE
  5
187C
  8
実形
 10
1354.83470092179
 20
1723.359507154114
 30
0.0
 11
1354.83470092179
 21
1333.3595071541149
 31
0.0
  0
LINE
  5
187D
  8
実形
 10
1344.83470092179
 20
1323.3595071541149
 30
0.0
 11
1004.83470092179
 21
1323.3595071541149
 31
0.0
  0
LINE
  5
187E
  8
実形
 10
994.83470092179004
 20
1333.3595071541149
 30
0.0
 11
994.83470092179004
 21
1723.359507154114
 31
0.0
  0
ARC
  5
187F
  8
実形
 10
1306.83470092179
 20
1371.3595071541149
 30
0.0
 40
30.0
 50
270.0
 51
0.0
  0
ARC
  5
1880
  8
実形
 10
1306.83470092179
 20
1685.3595071541149
 30
0.0
 40
30.0
 50
0.0
 51
90.0
  0
ARC
  5
1881
  8
実形
 10
1042.83470092179
 20
1685.3595071541149
 30
0.0
 40
30.0
 50
90.000000000000057
 51
180.0
  0
ARC
  5
1882
  8
実形
 10
1042.83470092179
 20
1371.3595071541149
 30
0.0
 40
30.0
 50
180.0
 51
270.00000000000011
  0
ARC
  5
1883
  8
実形
 10
1004.83470092179
 20
1333.3595071541149
 30
0.0
 40
10.0
 50
180.0
 51
270.0
  0
ARC
  5
1884
  8
実形
 10
1004.83470092179
 20
1723.359507154114
 30
0.0
 40
10.0
 50
90.0
 51
180.0
  0
ARC
  5
1885
  8
実形
 10
1344.83470092179
 20
1723.359507154114
 30
0.0
 40
10.0
 50
0.0
 51
90.0
  0
ARC
  5
1886
  8
実形
 10
1344.83470092179
 20
1333.3595071541149
 30
0.0
 40
10.0
 50
270.0
 51
0.0
  0
LINE
  5
1887
  8
実形
 10
1004.83470092179
 20
1728.359507154114
 30
0.0
 11
1344.83470092179
 21
1728.359507154114
 31
0.0
  0
ARC
  5
1888
  8
実形
 10
1344.83470092179
 20
1723.359507154114
 30
0.0
 40
5.0
 50
0.0
 51
90.0
  0
LINE
  5
1889
  8
実形
 10
1349.83470092179
 20
1723.359507154114
 30
0.0
 11
1349.83470092179
 21
1333.3595071541149
 31
0.0
  0
ARC
  5
188A
  8
実形
 10
1344.83470092179
 20
1333.3595071541149
 30
0.0
 40
5.0
 50
270.0
 51
0.0
  0
LINE
  5
188B
  8
実形
 10
1344.83470092179
 20
1328.359507154114
 30
0.0
 11
1004.83470092179
 21
1328.359507154114
 31
0.0
  0
ARC
  5
188C
  8
実形
 10
1004.83470092179
 20
1333.3595071541149
 30
0.0
 40
5.0
 50
180.0
 51
270.0
  0
LINE
  5
188D
  8
実形
 10
999.83470092179027
 20
1333.3595071541149
 30
0.0
 11
999.83470092179027
 21
1723.359507154114
 31
0.0
  0
ARC
  5
188E
  8
実形
 10
1004.83470092179
 20
1723.359507154114
 30
0.0
 40
5.0
 50
90.0
 51
180.0
  0
LINE
  5
188F
  8
実形
 10
1306.83470092179
 20
1720.3595071541149
 30
0.0
 11
1042.83470092179
 21
1720.3595071541149
 31
0.0
  0
ARC
  5
1890
  8
実形
 10
1306.83470092179
 20
1685.3595071541149
 30
0.0
 40
35.0
 50
0.0
 51
90.0
  0
LINE
  5
1891
  8
実形
 10
1341.83470092179
 20
1371.3595071541149
 30
0.0
 11
1341.83470092179
 21
1685.3595071541149
 31
0.0
  0
ARC
  5
1892
  8
実形
 10
1306.83470092179
 20
1371.3595071541149
 30
0.0
 40
35.0
 50
270.0
 51
0.0
  0
LINE
  5
1893
  8
実形
 10
1042.83470092179
 20
1336.3595071541149
 30
0.0
 11
1306.83470092179
 21
1336.3595071541149
 31
0.0
  0
ARC
  5
1894
  8
実形
 10
1042.83470092179
 20
1371.3595071541149
 30
0.0
 40
35.0
 50
180.0
 51
270.00000000000011
  0
LINE
  5
1895
  8
実形
 10
1007.83470092179
 20
1685.3595071541149
 30
0.0
 11
1007.83470092179
 21
1371.3595071541149
 31
0.0
  0
ARC
  5
1896
  8
実形
 10
1042.83470092179
 20
1685.3595071541149
 30
0.0
 40
35.0
 50
90.000000000000057
 51
180.0
  0
LINE
  5
18A0
  8
実形
 10
1349.83470092179
 20
903.35950715411423
 30
0.0
 11
999.83470092179027
 21
903.35950715411423
 31
0.0
  0
LINE
  5
18A1
  8
実形
 10
999.83470092179027
 20
903.35950715411423
 30
0.0
 11
994.83470092179004
 21
898.35950715411445
 31
0.0
  0
LINE
  5
18A2
  8
実形
 10
1349.83470092179
 20
903.35950715411423
 30
0.0
 11
1354.83470092179
 21
898.35950715411445
 31
0.0
  0
LINE
  5
18B3
  8
実形
 10
1341.83470092179
 20
898.35950715411445
 30
0.0
 11
1341.83470092179
 21
888.35950715411457
 31
0.0
  0
LINE
  5
18B4
  8
実形
 10
1341.83470092179
 20
888.35950715411457
 30
0.0
 11
1007.83470092179
 21
888.35950715411457
 31
0.0
  0
LINE
  5
18B5
  8
実形
 10
1007.83470092179
 20
888.35950715411457
 30
0.0
 11
1007.83470092179
 21
898.35950715411445
 31
0.0
  0
LINE
  5
18B7
  8
実形
 10
1799.83470092179
 20
1720.3595071541149
 30
0.0
 11
1799.83470092179
 21
1336.3595071541149
 31
0.0
  0
LINE
  5
18B8
  8
実形
 10
1784.834700921791
 20
1728.359507154114
 30
0.0
 11
1784.834700921791
 21
1328.359507154114
 31
0.0
  0
LINE
  5
18B9
  8
実形
 10
1789.83470092179
 20
1733.3595071541149
 30
0.0
 11
1789.83470092179
 21
1323.3595071541149
 31
0.0
  0
LINE
  5
18BA
  8
実形
 10
1789.83470092179
 20
1338.3595071541149
 30
0.0
 11
1789.83470092179
 21
1718.3595071541149
 31
0.0
  0
LINE
  5
18BB
  8
実形
 10
1789.83470092179
 20
1338.3595071541149
 30
0.0
 11
1789.83470092179
 21
1718.3595071541149
 31
0.0
  0
LINE
  5
18BC
  8
実形
 10
1799.83470092179
 20
1336.3595071541149
 30
0.0
 11
1789.83470092179
 21
1336.3595071541149
 31
0.0
  0
LINE
  5
18BD
  8
実形
 10
1784.834700921791
 20
1328.359507154114
 30
0.0
 11
1789.83470092179
 21
1323.3595071541149
 31
0.0
  0
LINE
  5
18BE
  8
実形
 10
1789.83470092179
 20
1720.3595071541149
 30
0.0
 11
1799.83470092179
 21
1720.3595071541149
 31
0.0
  0
LINE
  5
18BF
  8
実形
 10
1784.834700921791
 20
1728.359507154114
 30
0.0
 11
1789.83470092179
 21
1733.3595071541149
 31
0.0
  0
LINE
  5
199D
  8
0
 10
2784.0
 20
1959.0
 30
0.0
 11
2064.0
 21
1959.0
 31
0.0
  0
LINE
  5
199E
  8
0
 10
2784.0
 20
1894.0
 30
0.0
 11
2064.0
 21
1894.0
 31
0.0
  0
LINE
  5
199F
  8
0
 10
2064.0
 20
1894.0
 30
0.0
 11
2064.0
 21
2024.0
 31
0.0
  0
TEXT
  5
19A0
  8
実形
 10
2567.166666666667
 20
1974.0
 30
0.0
 40
35.0
  1
素材寸法
 72
     4
 11
2646.5
 21
1991.5
 31
0.0
  0
TEXT
  5
19A1
  8
実形
 10
2578.25
 20
1909.0
 30
0.0
 40
35.0
  1
1.0ｍｍ
 72
     4
 11
2646.5
 21
1926.5
 31
0.0
  0
TEXT
  5
19A2
  8
実形
 10
2275.25
 20
1909.0
 30
0.0
 40
35.0
  1
SUS304
 72
     4
 11
2371.5
 21
1926.5
 31
0.0
  0
LINE
  5
19A3
  8
0
 10
2234.0
 20
1894.0
 30
0.0
 11
2234.0
 21
2024.0
 31
0.0
  0
TEXT
  5
19A4
  8
実形
 10
2089.5
 20
1907.833333333333
 30
0.0
 40
35.0
  1
ボール
 72
     4
 11
2149.0
 21
1926.5
 31
0.0
  0
LINE
  5
19A5
  8
0
 10
2509.0
 20
1894.0
 30
0.0
 11
2509.0
 21
2024.0
 31
0.0
  0
TEXT
  5
19A6
  8
実形
 10
2334.1666666666661
 20
1974.0
 30
0.0
 40
35.0
  1
材質
 72
     4
 11
2371.5
 21
1991.5
 31
0.0
  0
TEXT
  5
19A7
  8
実形
 10
2091.8333333333339
 20
1974.0
 30
0.0
 40
35.0
  1
部品名
 72
     4
 11
2149.0
 21
1991.5
 31
0.0
  0
LINE
  5
19A8
  8
0
 10
2184.0
 20
119.0
 30
0.0
 11
2784.0
 21
119.0
 31
0.0
  0
LINE
  5
19A9
  8
0
 10
2184.0
 20
249.0
 30
0.0
 11
2784.0
 21
249.0
 31
0.0
  0
LINE
  5
19AA
  8
0
 10
2184.0
 20
184.0
 30
0.0
 11
2784.0
 21
184.0
 31
0.0
  0
LINE
  5
19AB
  8
0
 10
2184.0
 20
119.0
 30
0.0
 11
2784.0
 21
119.0
 31
0.0
  0
LINE
  5
19AC
  8
文字
 10
2184.0
 20
184.0
 30
0.0
 11
2184.0
 21
249.0
 31
0.0
  0
LINE
  5
19AD
  8
0
 10
2184.0
 20
54.0
 30
0.0
 11
2184.0
 21
249.0
 31
0.0
  0
TEXT
  5
19AE
  8
0
 10
2408.7916286771119
 20
133.63928646029899
 30
0.0
 40
35.0
  1
1：10
 72
     4
 11
2461.8749620104459
 21
151.13928646029899
 31
0.0
  0
TEXT
  5
19AF
  8
0
 10
2408.7916286771119
 20
133.63928646029899
 30
0.0
 40
35.0
  1
1：10
 72
     4
 11
2461.8749620104459
 21
151.13928646029899
 31
0.0
  0
LINE
  5
19B0
  8
0
 10
2784.0
 20
54.0
 30
0.0
 11
2784.0
 21
119.0
 31
0.0
  0
INSERT
  5
1CE2
  8
0
  2
*U60
 10
0.0
 20
0.0
 30
0.0
  0
VIEWPORT
  5
2E
 67
     1
  8
0
 10
144.7270812988281
 20
101.2295806407928
 30
0.0
 40
411.67362166824182
 41
222.15178063964851
 68
     1
 69
     1
1001
ACAD
1000
MVIEW
1002
{
1070
    16
1010
0.0
1020
0.0
1030
0.0
1010
0.0
1020
0.0
1030
1.0
1040
0.0
1040
222.15178063964851
1040
144.7270812988281
1040
101.2295806407928
1040
50.0
1040
0.0
1040
0.0
1070
     0
1070
   100
1070
     1
1070
     1
1070
     0
1070
     0
1070
     0
1070
     0
1040
0.0
1040
0.0
1040
0.0
1040
10.0
1040
10.0
1040
10.0
1040
10.0
1070
     0
1002
{
1002
}
1002
}
  0
VIEWPORT
  5
30
 67
     1
  8
0
 10
139.22375631332389
 20
101.2295821905136
 30
0.0
 40
222.7580101013184
 41
161.9673315048218
 68
     2
 69
     2
1001
ACAD
1000
MVIEW
1002
{
1070
    16
1010
0.0
1020
0.0
1030
0.0
1010
0.0
1020
0.0
1030
1.0
1040
0.0
1040
309.06867056471242
1040
210.0
1040
148.5
1040
50.0
1040
0.0
1040
0.0
1070
     0
1070
   100
1070
     1
1070
     3
1070
     0
1070
     0
1070
     0
1070
     0
1040
0.0
1040
0.0
1040
0.0
1040
10.0
1040
10.0
1040
10.0
1040
10.0
1070
     0
1002
{
1002
}
1002
}
  0
ENDSEC
  0
EOF
