  0
SECTION
  2
HEADER
  9
$ACADVER
  1
AC1009
  9
$INSBASE
 10
0.0
 20
0.0
 30
0.0
  9
$EXTMIN
 10
3.6255574361712202
 20
53.833056769610259
 30
-0.0000000349181948
  9
$EXTMAX
 10
2786.1877819595252
 20
2024.5056420384281
 30
0.0000000814935746
  9
$LIMMIN
 10
0.0
 20
0.0
  9
$LIMMAX
 10
29700.0
 20
21000.0
  9
$ORTHOMODE
 70
     1
  9
$REGENMODE
 70
     1
  9
$FILLMODE
 70
     1
  9
$QTEXTMODE
 70
     0
  9
$MIRRTEXT
 70
     1
  9
$DRAGMODE
 70
     2
  9
$LTSCALE
 40
4.0
  9
$OSMODE
 70
    37
  9
$ATTMODE
 70
     1
  9
$TEXTSIZE
 40
25.0
  9
$TRACEWID
 40
1.0
  9
$TEXTSTYLE
  7
STANDARD
  9
$CLAYER
  8
寸法
  9
$CELTYPE
  6
BYLAYER
  9
$CECOLOR
 62
   256
  9
$DIMSCALE
 40
1.0
  9
$DIMASZ
 40
35.0
  9
$DIMEXO
 40
65.0
  9
$DIMDLI
 40
3.75
  9
$DIMRND
 40
0.0
  9
$DIMDLE
 40
0.0
  9
$DIMEXE
 40
0.0
  9
$DIMTP
 40
0.0
  9
$DIMTM
 40
0.0
  9
$DIMTXT
 40
25.0
  9
$DIMCEN
 40
2.5
  9
$DIMTSZ
 40
0.0
  9
$DIMTOL
 70
     0
  9
$DIMLIM
 70
     0
  9
$DIMTIH
 70
     0
  9
$DIMTOH
 70
     0
  9
$DIMSE1
 70
     0
  9
$DIMSE2
 70
     0
  9
$DIMTAD
 70
     1
  9
$DIMZIN
 70
     8
  9
$DIMBLK
  1
DOTSMALL
  9
$DIMASO
 70
     1
  9
$DIMSHO
 70
     1
  9
$DIMPOST
  1

  9
$DIMAPOST
  1

  9
$DIMALT
 70
     0
  9
$DIMALTD
 70
     3
  9
$DIMALTF
 40
0.03937007874016
  9
$DIMLFAC
 40
1.0
  9
$DIMTOFL
 70
     1
  9
$DIMTVP
 40
0.0
  9
$DIMTIX
 70
     0
  9
$DIMSOXD
 70
     0
  9
$DIMSAH
 70
     0
  9
$DIMBLK1
  1

  9
$DIMBLK2
  1

  9
$DIMSTYLE
  2
ISO-25
  9
$DIMCLRD
 70
     0
  9
$DIMCLRE
 70
     0
  9
$DIMCLRT
 70
     0
  9
$DIMTFAC
 40
1.0
  9
$DIMGAP
 40
6.25
  9
$LUNITS
 70
     2
  9
$LUPREC
 70
     2
  9
$SKETCHINC
 40
1.0
  9
$FILLETRAD
 40
30.0
  9
$AUNITS
 70
     0
  9
$AUPREC
 70
     0
  9
$MENU
  1
.
  9
$ELEVATION
 40
0.0
  9
$PELEVATION
 40
0.0
  9
$THICKNESS
 40
0.0
  9
$LIMCHECK
 70
     1
  9
$BLIPMODE
 70
     0
  9
$CHAMFERA
 40
10.0
  9
$CHAMFERB
 40
10.0
  9
$SKPOLY
 70
     0
  9
$TDCREATE
 40
2451673.5758021991
  9
$TDUPDATE
 40
2454203.5946525931
  9
$TDINDWG
 40
0.7633261690000001
  9
$TDUSRTIMER
 40
0.7633173495
  9
$USRTIMER
 70
     1
  9
$ANGBASE
 50
0.0
  9
$ANGDIR
 70
     0
  9
$PDMODE
 70
     3
  9
$PDSIZE
 40
0.0
  9
$PLINEWID
 40
0.0
  9
$COORDS
 70
     0
  9
$SPLFRAME
 70
     0
  9
$SPLINETYPE
 70
     6
  9
$SPLINESEGS
 70
     8
  9
$ATTDIA
 70
     0
  9
$ATTREQ
 70
     1
  9
$HANDLING
 70
     1
  9
$HANDSEED
  5
2052
  9
$SURFTAB1
 70
     6
  9
$SURFTAB2
 70
     6
  9
$SURFTYPE
 70
     6
  9
$SURFU
 70
     6
  9
$SURFV
 70
     6
  9
$UCSNAME
  2

  9
$UCSORG
 10
0.0
 20
0.0
 30
0.0
  9
$UCSXDIR
 10
1.0
 20
0.0
 30
0.0
  9
$UCSYDIR
 10
0.0
 20
1.0
 30
0.0
  9
$PUCSNAME
  2

  9
$PUCSORG
 10
0.0
 20
0.0
 30
0.0
  9
$PUCSXDIR
 10
1.0
 20
0.0
 30
0.0
  9
$PUCSYDIR
 10
0.0
 20
1.0
 30
0.0
  9
$USERI1
 70
     0
  9
$USERI2
 70
     0
  9
$USERI3
 70
     0
  9
$USERI4
 70
     0
  9
$USERI5
 70
     0
  9
$USERR1
 40
0.0
  9
$USERR2
 40
0.0
  9
$USERR3
 40
0.0
  9
$USERR4
 40
0.0
  9
$USERR5
 40
0.0
  9
$WORLDVIEW
 70
     1
  9
$SHADEDGE
 70
     3
  9
$SHADEDIF
 70
    70
  9
$TILEMODE
 70
     1
  9
$MAXACTVP
 70
    64
  9
$PLIMCHECK
 70
     0
  9
$PEXTMIN
 10
27.844751262664801
 20
20.245916438102711
 30
0.0
  9
$PEXTMAX
 10
250.60276136398309
 20
182.21324794292451
 30
0.0
  9
$PLIMMIN
 10
-3.757080078125
 20
-3.7570831775665279
  9
$PLIMMAX
 10
293.21124267578131
 20
206.21624445915219
  9
$UNITMODE
 70
     0
  9
$VISRETAIN
 70
     1
  9
$PLINEGEN
 70
     0
  9
$PSLTSCALE
 70
     1
  0
ENDSEC
  0
SECTION
  2
TABLES
  0
TABLE
  2
VPORT
 70
     4
  0
VPORT
  2
*ACTIVE
 70
     0
 10
0.0
 20
0.0
 11
1.0
 21
1.0
 12
1394.906669697848
 22
1039.1693494040189
 13
0.0
 23
0.0
 14
10.0
 24
10.0
 15
10.0
 25
10.0
 16
0.0
 26
0.0
 36
1.0
 17
0.0
 27
0.0
 37
0.0
 40
2127.0820571520521
 41
1.316069057104913
 42
50.0
 43
0.0
 44
0.0
 50
0.0
 51
0.0
 71
     0
 72
   100
 73
     1
 74
     3
 75
     0
 76
     0
 77
     0
 78
     0
  0
ENDTAB
  0
TABLE
  2
LTYPE
 70
    46
  0
LTYPE
  2
CONTINUOUS
 70
     0
  3
Solid line
 72
    65
 73
     0
 40
0.0
  0
LTYPE
  2
ACAD_ISO02W100
 70
     0
  3
ISO dash __ __ __ __ __ __ __ __ __ __ __ __ __
 72
    65
 73
     2
 40
15.0
 49
12.0
 49
-3.0
  0
LTYPE
  2
ACAD_ISO03W100
 70
     0
  3
ISO dash space __    __    __    __    __    __
 72
    65
 73
     2
 40
30.0
 49
12.0
 49
-18.0
  0
LTYPE
  2
ACAD_ISO04W100
 70
     0
  3
ISO long-dash dot ____ . ____ . ____ . ____ . _
 72
    65
 73
     4
 40
30.0
 49
24.0
 49
-3.0
 49
0.0
 49
-3.0
  0
LTYPE
  2
ACAD_ISO05W100
 70
     0
  3
ISO long-dash double-dot ____ .. ____ .. ____ .
 72
    65
 73
     6
 40
34.0
 49
24.0
 49
-3.0
 49
0.5
 49
-3.0
 49
0.5
 49
-3.0
  0
LTYPE
  2
ACAD_ISO06W100
 70
     0
  3
ISO long-dash triple-dot ____ ... ____ ... ____
 72
    65
 73
     8
 40
37.5
 49
24.0
 49
-3.0
 49
0.5
 49
-3.0
 49
0.5
 49
-3.0
 49
0.5
 49
-3.0
  0
LTYPE
  2
ACAD_ISO07W100
 70
     0
  3
ISO dot . . . . . . . . . . . . . . . . . . . .
 72
    65
 73
     2
 40
3.0
 49
0.0
 49
-3.0
  0
LTYPE
  2
ACAD_ISO08W100
 70
     0
  3
ISO long-dash short-dash ____ __ ____ __ ____ _
 72
    65
 73
     4
 40
36.0
 49
24.0
 49
-3.0
 49
6.0
 49
-3.0
  0
LTYPE
  2
ACAD_ISO09W100
 70
     0
  3
ISO long-dash double-short-dash ____ __ __ ____
 72
    65
 73
     6
 40
45.0
 49
24.0
 49
-3.0
 49
6.0
 49
-3.0
 49
6.0
 49
-3.0
  0
LTYPE
  2
ACAD_ISO10W100
 70
     0
  3
ISO dash dot __ . __ . __ . __ . __ . __ . __ .
 72
    65
 73
     4
 40
18.0
 49
12.0
 49
-3.0
 49
0.0
 49
-3.0
  0
LTYPE
  2
ACAD_ISO11W100
 70
     0
  3
ISO double-dash dot __ __ . __ __ . __ __ . __ 
 72
    65
 73
     6
 40
33.0
 49
12.0
 49
-3.0
 49
12.0
 49
-3.0
 49
0.0
 49
-3.0
  0
LTYPE
  2
ACAD_ISO12W100
 70
     0
  3
ISO dash double-dot __ . . __ . . __ . . __ . .
 72
    65
 73
     6
 40
21.0
 49
12.0
 49
-3.0
 49
0.0
 49
-3.0
 49
0.0
 49
-3.0
  0
LTYPE
  2
ACAD_ISO13W100
 70
     0
  3
ISO double-dash double-dot __ __ . . __ __ . . 
 72
    65
 73
     8
 40
36.0
 49
12.0
 49
-3.0
 49
12.0
 49
-3.0
 49
0.0
 49
-3.0
 49
0.0
 49
-3.0
  0
LTYPE
  2
ACAD_ISO14W100
 70
     0
  3
ISO dash triple-dot __ . . . __ . . . __ . . . 
 72
    65
 73
     8
 40
24.0
 49
12.0
 49
-3.0
 49
0.0
 49
-3.0
 49
0.0
 49
-3.0
 49
0.0
 49
-3.0
  0
LTYPE
  2
ACAD_ISO15W100
 70
     0
  3
ISO double-dash triple-dot __ __ . . . __ __ . 
 72
    65
 73
    10
 40
39.0
 49
12.0
 49
-3.0
 49
12.0
 49
-3.0
 49
0.0
 49
-3.0
 49
0.0
 49
-3.0
 49
0.0
 49
-3.0
  0
LTYPE
  2
BATTING
 70
     0
  3
Batting SSSSSSSSSSSSSSSSSSSSSSSSSSSSSSSSSSSSSSS
 72
    65
 73
     4
 40
10.16254
 49
0.00254
 49
-2.54
 49
-5.0800000000000001
 49
-2.54
  0
LTYPE
  2
BORDER
 70
     0
  3
Border __ __ . __ __ . __ __ . __ __ . __ __ .
 72
    65
 73
     6
 40
44.450000000000003
 49
12.699999999999999
 49
-6.349999999999997
 49
12.699999999999999
 49
-6.349999999999997
 49
0.0
 49
-6.349999999999997
  0
LTYPE
  2
BORDER2
 70
     0
  3
Border (.5x) __.__.__.__.__.__.__.__.__.__.__.
 72
    65
 73
     6
 40
22.225000000000001
 49
6.349999999999997
 49
-3.174999999999998
 49
6.349999999999997
 49
-3.174999999999998
 49
0.0
 49
-3.174999999999998
  0
LTYPE
  2
BORDERX2
 70
     0
  3
Border (2x) ____  ____  .  ____  ____  .  ___
 72
    65
 73
     6
 40
88.900000000000006
 49
25.399999999999999
 49
-12.699999999999999
 49
25.399999999999999
 49
-12.699999999999999
 49
0.0
 49
-12.699999999999999
  0
LTYPE
  2
CENTER
 70
     0
  3
Center ____ _ ____ _ ____ _ ____ _ ____ _ ____
 72
    65
 73
     4
 40
50.799999999999997
 49
31.75
 49
-6.349999999999997
 49
6.349999999999997
 49
-6.349999999999997
  0
LTYPE
  2
CENTER2
 70
     0
  3
Center (.5x) ___ _ ___ _ ___ _ ___ _ ___ _ ___
 72
    65
 73
     4
 40
28.574999999999999
 49
19.050000000000001
 49
-3.174999999999998
 49
3.174999999999998
 49
-3.174999999999998
  0
LTYPE
  2
CENTERX2
 70
     0
  3
Center (2x) ________  __  ________  __  _____
 72
    65
 73
     4
 40
101.59999999999999
 49
63.5
 49
-12.699999999999999
 49
12.699999999999999
 49
-12.699999999999999
  0
LTYPE
  2
DASHDOT
 70
     0
  3
Dash dot __ . __ . __ . __ . __ . __ . __ . __
 72
    65
 73
     4
 40
25.399999999999999
 49
12.699999999999999
 49
-6.349999999999997
 49
0.0
 49
-6.349999999999997
  0
LTYPE
  2
DASHDOT2
 70
     0
  3
Dash dot (.5x) _._._._._._._._._._._._._._._.
 72
    65
 73
     4
 40
12.699999999999999
 49
6.349999999999997
 49
-3.174999999999998
 49
0.0
 49
-3.174999999999998
  0
LTYPE
  2
DASHDOTX2
 70
     0
  3
Dash dot (2x) ____  .  ____  .  ____  .  ___
 72
    65
 73
     4
 40
50.799999999999997
 49
25.399999999999999
 49
-12.699999999999999
 49
0.0
 49
-12.699999999999999
  0
LTYPE
  2
DASHED
 70
     0
  3
Dashed __ __ __ __ __ __ __ __ __ __ __ __ __ _
 72
    65
 73
     2
 40
19.050000000000001
 49
12.699999999999999
 49
-6.349999999999997
  0
LTYPE
  2
DASHED2
 70
     0
  3
Dashed (.5x) _ _ _ _ _ _ _ _ _ _ _ _ _ _ _ _ _
 72
    65
 73
     2
 40
9.5249999999999968
 49
6.349999999999997
 49
-3.174999999999998
  0
LTYPE
  2
DASHEDX2
 70
     0
  3
Dashed (2x) ____  ____  ____  ____  ____  ___
 72
    65
 73
     2
 40
38.100000000000001
 49
25.399999999999999
 49
-12.699999999999999
  0
LTYPE
  2
DIVIDE
 70
     0
  3
Divide ____ . . ____ . . ____ . . ____ . . ____
 72
    65
 73
     6
 40
31.75
 49
12.699999999999999
 49
-6.349999999999997
 49
0.0
 49
-6.349999999999997
 49
0.0
 49
-6.349999999999997
  0
LTYPE
  2
DIVIDE2
 70
     0
  3
Divide (.5x) __..__..__..__..__..__..__..__.._
 72
    65
 73
     6
 40
15.875
 49
6.349999999999997
 49
-3.174999999999998
 49
0.0
 49
-3.174999999999998
 49
0.0
 49
-3.174999999999998
  0
LTYPE
  2
DIVIDEX2
 70
     0
  3
Divide (2x) ________  .  .  ________  .  .  _
 72
    65
 73
     6
 40
63.499999999999993
 49
25.399999999999999
 49
-12.699999999999999
 49
0.0
 49
-12.699999999999999
 49
0.0
 49
-12.699999999999999
  0
LTYPE
  2
DOT
 70
     0
  3
Dot . . . . . . . . . . . . . . . . . . . . . .
 72
    65
 73
     2
 40
6.349999999999997
 49
0.0
 49
-6.349999999999997
  0
LTYPE
  2
DOT2
 70
     0
  3
Dot (.5x) .....................................
 72
    65
 73
     2
 40
3.174999999999998
 49
0.0
 49
-3.174999999999998
  0
LTYPE
  2
DOTX2
 70
     0
  3
Dot (2x) .  .  .  .  .  .  .  .  .  .  .  .  . 
 72
    65
 73
     2
 40
12.699999999999999
 49
0.0
 49
-12.699999999999999
  0
LTYPE
  2
FENCELINE1
 70
     0
  3
Fenceline circle ----0-----0----0-----0----0---
 72
    65
 73
     4
 40
36.829999999999998
 49
6.349999999999997
 49
-2.54
 49
-2.54
 49
25.399999999999999
  0
LTYPE
  2
FENCELINE2
 70
     0
  3
Fenceline square ----[]-----[]----[]-----[]----
 72
    65
 73
     4
 40
36.829999999999998
 49
6.349999999999997
 49
-2.54
 49
-2.54
 49
25.399999999999999
  0
LTYPE
  2
GAS_LINE
 70
     0
  3
Gas line ----GAS----GAS----GAS----GAS----GAS---
 72
    65
 73
     3
 40
24.129999999999999
 49
12.699999999999999
 49
-5.0800000000000001
 49
-6.349999999999997
  0
LTYPE
  2
HIDDEN
 70
     0
  3
Hidden __ __ __ __ __ __ __ __ __ __ __ __ __ _
 72
    65
 73
     2
 40
9.5249999999999968
 49
6.349999999999997
 49
-3.174999999999998
  0
LTYPE
  2
HIDDEN2
 70
     0
  3
Hidden (.5x) _ _ _ _ _ _ _ _ _ _ _ _ _ _ _ _ _
 72
    65
 73
     2
 40
4.7624999999999984
 49
3.174999999999998
 49
-1.587499999999999
  0
LTYPE
  2
HIDDENX2
 70
     0
  3
Hidden (2x) ____ ____ ____ ____ ____ ____ ____
 72
    65
 73
     2
 40
19.050000000000001
 49
12.699999999999999
 49
-6.349999999999997
  0
LTYPE
  2
HOT_WATER_SUPPLY
 70
     0
  3
Hot water supply ---- HW ---- HW ---- HW ----
 72
    65
 73
     3
 40
22.859999999999999
 49
12.699999999999999
 49
-5.0800000000000001
 49
-5.0800000000000001
  0
LTYPE
  2
PHANTOM
 70
     0
  3
Phantom ______  __  __  ______  __  __  ______
 72
    65
 73
     6
 40
63.5
 49
31.75
 49
-6.349999999999997
 49
6.349999999999997
 49
-6.349999999999997
 49
6.349999999999997
 49
-6.349999999999997
  0
LTYPE
  2
PHANTOM2
 70
     0
  3
Phantom (.5x) ___ _ _ ___ _ _ ___ _ _ ___ _ _
 72
    65
 73
     6
 40
31.75
 49
15.875
 49
-3.174999999999998
 49
3.174999999999998
 49
-3.174999999999998
 49
3.174999999999998
 49
-3.174999999999998
  0
LTYPE
  2
PHANTOMX2
 70
     0
  3
Phantom (2x) ____________    ____    ____   _
 72
    65
 73
     6
 40
127.0
 49
63.5
 49
-12.699999999999999
 49
12.699999999999999
 49
-12.699999999999999
 49
12.699999999999999
 49
-12.699999999999999
  0
LTYPE
  2
TRACKS
 70
     0
  3
Tracks -|-|-|-|-|-|-|-|-|-|-|-|-|-|-|-|-|-|-|-|
 72
    65
 73
     2
 40
7.6200000000000001
 49
3.8100000000000001
 49
3.8100000000000001
  0
LTYPE
  2
ZIGZAG
 70
     0
  3
Zig zag /\/\/\/\/\/\/\/\/\/\/\/\/\/\/\/\/\/\/\/
 72
    65
 73
     4
 40
20.32254
 49
0.00254
 49
-5.0800000000000001
 49
-10.16
 49
-5.0800000000000001
  0
ENDTAB
  0
TABLE
  2
LAYER
 70
    10
  0
LAYER
  2
0
 70
     0
 62
     7
  6
CONTINUOUS
  0
LAYER
  2
DEFPOINTS
 70
     0
 62
     7
  6
CONTINUOUS
  0
LAYER
  2
センタ_
 70
     0
 62
     7
  6
CENTER2
  0
LAYER
  2
実形
 70
     0
 62
     7
  6
CONTINUOUS
  0
LAYER
  2
補助
 70
     0
 62
    -4
  6
CONTINUOUS
  0
LAYER
  2
寸法
 70
     0
 62
     7
  6
CONTINUOUS
  0
LAYER
  2
ハッチング
 70
     0
 62
     7
  6
CONTINUOUS
  0
LAYER
  2
文字
 70
     0
 62
     7
  6
CONTINUOUS
  0
LAYER
  2
CEN
 70
     0
 62
     7
  6
CENTER2
  0
LAYER
  2
一般
 70
     0
 62
     7
  6
CONTINUOUS
  0
ENDTAB
  0
TABLE
  2
STYLE
 70
     3
  0
STYLE
  2
STANDARD
 70
     0
 40
0.0
 41
1.0
 50
0.0
 71
     0
 42
25.0
  3
txt.shx
  4
bigfont.shx
  0
STYLE
  2

 70
     1
 40
0.0
 41
1.0
 50
0.0
 71
     0
 42
2.5
  3
ltypeshp.shx
  4

  0
STYLE
  2
ＭＳ_ゴシック
 70
     0
 40
0.0
 41
1.0
 50
0.0
 71
     0
 42
0.0
  3
txt
  4

  0
ENDTAB
  0
TABLE
  2
VIEW
 70
     0
  0
ENDTAB
  0
TABLE
  2
UCS
 70
     0
  0
ENDTAB
  0
TABLE
  2
APPID
 70
     2
  0
APPID
  2
ACAD
 70
     0
  0
APPID
  2
DCO15
 70
     0
  0
ENDTAB
  0
TABLE
  2
DIMSTYLE
 70
     2
  0
DIMSTYLE
  2
ISO-25
 70
     0
  3

  4

  5
DOTSMALL
  6

  7

 40
1.0
 41
35.0
 42
65.0
 43
3.75
 44
0.0
 45
0.0
 46
0.0
 47
0.0
 48
0.0
140
25.0
141
2.5
142
0.0
143
0.03937007874016
144
1.0
145
0.0
146
1.0
147
6.25
 71
     0
 72
     0
 73
     0
 74
     0
 75
     0
 76
     0
 77
     1
 78
     8
170
     0
171
     3
172
     1
173
     0
174
     0
175
     0
176
     0
177
     0
178
     0
  0
DIMSTYLE
  2
ARCH
 70
     0
  3
<>
  4
[]
  5
VW_SLASH
  6

  7

 40
1.0
 41
2.244824218749998
 42
1.587499999999999
 43
10.16
 44
3.174999999999998
 45
0.0
 46
1.587499999999999
 47
0.0
 48
0.0
140
2.5
141
0.0
142
0.0
143
0.0393700787401575
144
1.0
145
0.0
146
0.8
147
1.587499999999999
 71
     0
 72
     0
 73
     0
 74
     0
 75
     0
 76
     0
 77
     1
 78
    11
170
     0
171
     3
172
     1
173
     0
174
     1
175
     0
176
     0
177
     0
178
     0
  0
ENDTAB
  0
ENDSEC
  0
SECTION
  2
BLOCKS
  0
BLOCK
  8
0
  2
$MODEL_SPACE
 70
     0
 10
0.0
 20
0.0
 30
0.0
  3
$MODEL_SPACE
  1

  0
ENDBLK
  5
21
  8
0
  0
BLOCK
 67
     1
  8
0
  2
$PAPER_SPACE
 70
     0
 10
0.0
 20
0.0
 30
0.0
  3
$PAPER_SPACE
  1

  0
ENDBLK
  5
1D
 67
     1
  8
0
  0
BLOCK
  8
0
  2
_DOTSMALL
 70
     0
 10
0.0
 20
0.0
 30
0.0
  3
_DOTSMALL
  1

  0
POLYLINE
  5
D1
  8
0
 62
     0
 66
     1
 10
0.0
 20
0.0
 30
0.0
 70
     1
 40
0.5
 41
0.5
  0
VERTEX
  5
1F83
  8
0
 62
     0
 10
-0.0625
 20
0.0
 30
0.0
 42
1.0
  0
VERTEX
  5
1F84
  8
0
 62
     0
 10
0.0625
 20
0.0
 30
0.0
 42
1.0
  0
SEQEND
  5
1F85
  8
0
 62
     0
  0
ENDBLK
  5
D3
  8
0
  0
BLOCK
  8
0
  2
_ORIGIN2
 70
     0
 10
0.0
 20
0.0
 30
0.0
  3
_ORIGIN2
  1

  0
CIRCLE
  5
D5
  8
0
 62
     0
 10
0.0
 20
0.0
 30
0.0
 40
0.5
  0
CIRCLE
  5
D6
  8
0
 62
     0
 10
0.0
 20
0.0
 30
0.0
 40
0.25
  0
LINE
  5
D7
  8
0
 62
     0
 10
-0.5
 20
0.0
 30
0.0
 11
-1.0
 21
0.0
 31
0.0
  0
ENDBLK
  5
D9
  8
0
  0
BLOCK
  8
0
  2
_OPEN30
 70
     0
 10
0.0
 20
0.0
 30
0.0
  3
_OPEN30
  1

  0
LINE
  5
DB
  8
0
 62
     0
 10
-1.0
 20
0.26794919
 30
0.0
 11
0.0
 21
0.0
 31
0.0
  0
LINE
  5
DC
  8
0
 62
     0
 10
0.0
 20
0.0
 30
0.0
 11
-1.0
 21
-0.26794919
 31
0.0
  0
LINE
  5
DD
  8
0
 62
     0
 10
0.0
 20
0.0
 30
0.0
 11
-1.0
 21
0.0
 31
0.0
  0
ENDBLK
  5
DF
  8
0
  0
BLOCK
  8
0
  2
*D4
 70
     1
 10
0.0
 20
0.0
 30
0.0
  3
*D4
  1

  0
LINE
  5
1F86
  8
寸法
 62
     0
 10
723.59362978947206
 20
1693.67545567602
 30
0.0
 11
633.96290186307965
 21
1693.67545567602
 31
0.0
  0
LINE
  5
1F87
  8
寸法
 62
     0
 10
723.59362978947206
 20
1675.6754556760191
 30
0.0
 11
633.96290186307965
 21
1675.6754556760191
 31
0.0
  0
LINE
  5
1F88
  8
寸法
 62
     0
 10
633.96290186307965
 20
1693.67545567602
 30
0.0
 11
633.96290186307965
 21
1675.6754556760191
 31
0.0
  0
TEXT
  8
寸法
  40
25
  5
2046
  62
0
  72
0
  71
0
 10
622.445
 20
1696.93
 30
0.000000
  1
18
  0
INSERT
  5
1F8A
  8
寸法
 62
     0
  2
_DOTSMALL
 10
633.96290186307965
 20
1693.67545567602
 30
0.0
 41
35.0
 42
35.0
 43
35.0
 50
90.0
  0
INSERT
  5
1F8B
  8
寸法
 62
     0
  2
_DOTSMALL
 10
633.96290186307965
 20
1675.6754556760191
 30
0.0
 41
35.0
 42
35.0
 43
35.0
 50
270.0
  0
POINT
  5
1F8C
  8
DEFPOINTS
 62
     0
 10
788.59362978947217
 20
1693.67545567602
 30
0.0
  0
POINT
  5
1F8D
  8
DEFPOINTS
 62
     0
 10
788.59362978947217
 20
1675.6754556760191
 30
0.0
  0
POINT
  5
1F8E
  8
DEFPOINTS
 62
     0
 10
633.96290186307965
 20
1675.6754556760191
 30
0.0
  0
ENDBLK
  5
12AF
  8
0
  0
BLOCK
  8
0
  2
*D5
 70
     1
 10
0.0
 20
0.0
 30
0.0
  3
*D5
  1

  0
LINE
  5
1F8F
  8
寸法
 62
     0
 10
723.59362978947206
 20
1675.6754556760191
 30
0.0
 11
633.96290186307965
 21
1675.6754556760191
 31
0.0
  0
LINE
  5
1F90
  8
寸法
 62
     0
 10
723.59362978947206
 20
1653.67545567602
 30
0.0
 11
633.96290186307965
 21
1653.67545567602
 31
0.0
  0
LINE
  5
1F91
  8
寸法
 62
     0
 10
633.96290186307965
 20
1675.6754556760191
 30
0.0
 11
633.96290186307965
 21
1653.67545567602
 31
0.0
  0
TEXT
  8
寸法
  40
25
  5
2047
  62
0
  72
0
  71
0
 10
601.392
 20
1614.06
 30
0.000000
  1
22
  0
INSERT
  5
1F93
  8
寸法
 62
     0
  2
_DOTSMALL
 10
633.96290186307965
 20
1675.6754556760191
 30
0.0
 41
35.0
 42
35.0
 43
35.0
 50
90.0
  0
INSERT
  5
1F94
  8
寸法
 62
     0
  2
_DOTSMALL
 10
633.96290186307965
 20
1653.67545567602
 30
0.0
 41
35.0
 42
35.0
 43
35.0
 50
270.0
  0
POINT
  5
1F95
  8
DEFPOINTS
 62
     0
 10
788.59362978947217
 20
1675.6754556760191
 30
0.0
  0
POINT
  5
1F96
  8
DEFPOINTS
 62
     0
 10
788.59362978947217
 20
1653.67545567602
 30
0.0
  0
POINT
  5
1F97
  8
DEFPOINTS
 62
     0
 10
633.96290186307965
 20
1653.67545567602
 30
0.0
  0
ENDBLK
  5
12EC
  8
0
  0
BLOCK
  8
0
  2
*D6
 70
     1
 10
0.0
 20
0.0
 30
0.0
  3
*D6
  1

  0
LINE
  5
1F98
  8
寸法
 62
     0
 10
723.59362978947206
 20
1653.67545567602
 30
0.0
 11
633.96290186307965
 21
1653.67545567602
 31
0.0
  0
LINE
  5
1F99
  8
寸法
 62
     0
 10
723.59362978947206
 20
1213.67545567602
 30
0.0
 11
633.96290186307965
 21
1213.67545567602
 31
0.0
  0
LINE
  5
1F9A
  8
寸法
 62
     0
 10
633.96290186307965
 20
1653.67545567602
 30
0.0
 11
633.96290186307965
 21
1213.67545567602
 31
0.0
  0
INSERT
  5
1F9B
  8
寸法
 62
     0
  2
_DOTSMALL
 10
633.96290186307965
 20
1653.67545567602
 30
0.0
 41
35.0
 42
35.0
 43
35.0
 50
90.0
  0
INSERT
  5
1F9C
  8
寸法
 62
     0
  2
_DOTSMALL
 10
633.96290186307965
 20
1213.67545567602
 30
0.0
 41
35.0
 42
35.0
 43
35.0
 50
270.0
  0
TEXT
  8
寸法
  40
25
  5
2048
  62
0
  72
0
  71
0
 10
615.213
 20
1401.18
 30
0.000000
  1
440
  0
POINT
  5
1F9E
  8
DEFPOINTS
 62
     0
 10
788.59362978947217
 20
1653.67545567602
 30
0.0
  0
POINT
  5
1F9F
  8
DEFPOINTS
 62
     0
 10
788.59362978947217
 20
1213.67545567602
 30
0.0
  0
POINT
  5
1FA0
  8
DEFPOINTS
 62
     0
 10
633.96290186307965
 20
1213.67545567602
 30
0.0
  0
ENDBLK
  5
12F9
  8
0
  0
BLOCK
  8
0
  2
*D7
 70
     1
 10
0.0
 20
0.0
 30
0.0
  3
*D7
  1

  0
LINE
  5
1FA1
  8
寸法
 62
     0
 10
723.59362978947206
 20
1213.67545567602
 30
0.0
 11
633.96290186307965
 21
1213.67545567602
 31
0.0
  0
LINE
  5
1FA2
  8
寸法
 62
     0
 10
723.59362978947206
 20
1191.67545567602
 30
0.0
 11
633.96290186307965
 21
1191.67545567602
 31
0.0
  0
LINE
  5
1FA3
  8
寸法
 62
     0
 10
633.96290186307965
 20
1213.67545567602
 30
0.0
 11
633.96290186307965
 21
1191.67545567602
 31
0.0
  0
TEXT
  8
寸法
  40
25
  5
2049
  62
0
  72
0
  71
0
 10
601.392
 20
1195.14
 30
0.000000
  1
22
  0
INSERT
  5
1FA5
  8
寸法
 62
     0
  2
_DOTSMALL
 10
633.96290186307965
 20
1213.67545567602
 30
0.0
 41
35.0
 42
35.0
 43
35.0
 50
90.0
  0
INSERT
  5
1FA6
  8
寸法
 62
     0
  2
_DOTSMALL
 10
633.96290186307965
 20
1191.67545567602
 30
0.0
 41
35.0
 42
35.0
 43
35.0
 50
270.0
  0
POINT
  5
1FA7
  8
DEFPOINTS
 62
     0
 10
788.59362978947217
 20
1213.67545567602
 30
0.0
  0
POINT
  5
1FA8
  8
DEFPOINTS
 62
     0
 10
788.59362978947217
 20
1191.67545567602
 30
0.0
  0
POINT
  5
1FA9
  8
DEFPOINTS
 62
     0
 10
633.96290186307965
 20
1191.67545567602
 30
0.0
  0
ENDBLK
  5
1306
  8
0
  0
BLOCK
  8
0
  2
*D8
 70
     1
 10
0.0
 20
0.0
 30
0.0
  3
*D8
  1

  0
LINE
  5
1FAA
  8
寸法
 62
     0
 10
723.59362978947206
 20
1191.67545567602
 30
0.0
 11
633.96290186307965
 21
1191.67545567602
 31
0.0
  0
LINE
  5
1FAB
  8
寸法
 62
     0
 10
723.59362978947206
 20
1173.67545567602
 30
0.0
 11
633.96290186307965
 21
1173.67545567602
 31
0.0
  0
LINE
  5
1FAC
  8
寸法
 62
     0
 10
633.96290186307965
 20
1191.67545567602
 30
0.0
 11
633.96290186307965
 21
1173.67545567602
 31
0.0
  0
TEXT
  8
寸法
  40
25
  5
204A
  62
0
  72
0
  71
0
 10
615.213
 20
1105.37
 30
0.000000
  1
18
  0
INSERT
  5
1FAE
  8
寸法
 62
     0
  2
_DOTSMALL
 10
633.96290186307965
 20
1191.67545567602
 30
0.0
 41
35.0
 42
35.0
 43
35.0
 50
90.0
  0
INSERT
  5
1FAF
  8
寸法
 62
     0
  2
_DOTSMALL
 10
633.96290186307965
 20
1173.67545567602
 30
0.0
 41
35.0
 42
35.0
 43
35.0
 50
270.0
  0
POINT
  5
1FB0
  8
DEFPOINTS
 62
     0
 10
788.59362978947217
 20
1191.67545567602
 30
0.0
  0
POINT
  5
1FB1
  8
DEFPOINTS
 62
     0
 10
788.59362978947217
 20
1173.67545567602
 30
0.0
  0
POINT
  5
1FB2
  8
DEFPOINTS
 62
     0
 10
633.96290186307965
 20
1173.67545567602
 30
0.0
  0
ENDBLK
  5
1313
  8
0
  0
BLOCK
  8
0
  2
*D9
 70
     1
 10
0.0
 20
0.0
 30
0.0
  3
*D9
  1

  0
LINE
  5
1B87
  8
寸法
 62
     0
 10
723.59362978947206
 20
1693.67545567602
 30
0.0
 11
560.25095946181239
 21
1693.67545567602
 31
0.0
  0
LINE
  5
1B88
  8
寸法
 62
     0
 10
723.59362978947206
 20
1173.67545567602
 30
0.0
 11
560.25095946181227
 21
1173.67545567602
 31
0.0
  0
LINE
  5
1B89
  8
寸法
 62
     0
 10
560.25095946181239
 20
1693.67545567602
 30
0.0
 11
560.25095946181227
 21
1173.67545567602
 31
0.0
  0
INSERT
  5
1B8A
  8
寸法
 62
     0
  2
_DOTSMALL
 10
560.25095946181239
 20
1693.67545567602
 30
0.0
 41
35.0
 42
35.0
 43
35.0
 50
90.0
  0
INSERT
  5
1B8B
  8
寸法
 62
     0
  2
_DOTSMALL
 10
560.25095946181227
 20
1173.67545567602
 30
0.0
 41
35.0
 42
35.0
 43
35.0
 50
270.0
  0
INSERT
  5
1B8C
  8
寸法
  2
*U38
 10
0.0
 20
0.0
 30
0.0
  0
POINT
  5
1B8D
  8
DEFPOINTS
 62
     0
 10
788.59362978947217
 20
1693.67545567602
 30
0.0
  0
POINT
  5
1B8E
  8
DEFPOINTS
 62
     0
 10
788.59362978947217
 20
1173.67545567602
 30
0.0
  0
POINT
  5
1B8F
  8
DEFPOINTS
 62
     0
 10
560.25095946181227
 20
1173.67545567602
 30
0.0
  0
ENDBLK
  5
133B
  8
0
  0
BLOCK
  8
0
  2
*D10
 70
     1
 10
0.0
 20
0.0
 30
0.0
  3
*D10
  1

  0
LINE
  5
1FB3
  8
寸法
 62
     0
 10
788.59362978947217
 20
1108.67545567602
 30
0.0
 11
788.59362978947217
 21
1062.2909443947319
 31
0.0
  0
LINE
  5
1FB4
  8
寸法
 62
     0
 10
806.59362978947206
 20
1108.67545567602
 30
0.0
 11
806.59362978947206
 21
1062.2909443947319
 31
0.0
  0
LINE
  5
1FB5
  8
寸法
 62
     0
 10
788.59362978947217
 20
1062.2909443947319
 30
0.0
 11
806.59362978947206
 21
1062.2909443947319
 31
0.0
  0
TEXT
  8
寸法
  40
25
  5
204B
  62
0
  72
0
  71
0
 10
752.835
 20
1041.20
 30
0.000000
  1
18
  0
INSERT
  5
1FB7
  8
寸法
 62
     0
  2
_DOTSMALL
 10
788.59362978947217
 20
1062.2909443947319
 30
0.0
 41
35.0
 42
35.0
 43
35.0
 50
180.0
  0
INSERT
  5
1FB8
  8
寸法
 62
     0
  2
_DOTSMALL
 10
806.59362978947206
 20
1062.2909443947319
 30
0.0
 41
35.0
 42
35.0
 43
35.0
  0
POINT
  5
1FB9
  8
DEFPOINTS
 62
     0
 10
788.59362978947217
 20
1173.67545567602
 30
0.0
  0
POINT
  5
1FBA
  8
DEFPOINTS
 62
     0
 10
806.59362978947206
 20
1173.67545567602
 30
0.0
  0
POINT
  5
1FBB
  8
DEFPOINTS
 62
     0
 10
806.59362978947206
 20
1062.2909443947319
 30
0.0
  0
ENDBLK
  5
135B
  8
0
  0
BLOCK
  8
0
  2
*D11
 70
     1
 10
0.0
 20
0.0
 30
0.0
  3
*D11
  1

  0
LINE
  5
1FBC
  8
寸法
 62
     0
 10
1910.5936297894721
 20
1108.67545567602
 30
0.0
 11
1910.5936297894721
 21
1062.2909443947319
 31
0.0
  0
LINE
  5
1FBD
  8
寸法
 62
     0
 10
1883.5936297894721
 20
1108.67545567602
 30
0.0
 11
1883.5936297894721
 21
1062.2909443947319
 31
0.0
  0
LINE
  5
1FBE
  8
寸法
 62
     0
 10
1910.5936297894721
 20
1062.2909443947319
 30
0.0
 11
1883.5936297894721
 21
1062.2909443947319
 31
0.0
  0
TEXT
  8
寸法
  40
25
  5
204C
  62
0
  72
0
  71
0
 10
1895.83
 20
1002.40
 30
0.000000
  1
27
  0
INSERT
  5
1FC0
  8
寸法
 62
     0
  2
_DOTSMALL
 10
1910.5936297894721
 20
1062.2909443947319
 30
0.0
 41
35.0
 42
35.0
 43
35.0
  0
INSERT
  5
1FC1
  8
寸法
 62
     0
  2
_DOTSMALL
 10
1883.5936297894721
 20
1062.2909443947319
 30
0.0
 41
35.0
 42
35.0
 43
35.0
 50
180.0
  0
POINT
  5
1FC2
  8
DEFPOINTS
 62
     0
 10
1910.5936297894721
 20
1173.67545567602
 30
0.0
  0
POINT
  5
1FC3
  8
DEFPOINTS
 62
     0
 10
1883.5936297894721
 20
1173.67545567602
 30
0.0
  0
POINT
  5
1FC4
  8
DEFPOINTS
 62
     0
 10
1883.5936297894721
 20
1062.2909443947319
 30
0.0
  0
ENDBLK
  5
1390
  8
0
  0
BLOCK
  8
0
  2
*D12
 70
     1
 10
0.0
 20
0.0
 30
0.0
  3
*D12
  1

  0
LINE
  5
1FC5
  8
寸法
 62
     0
 10
1883.5936297894721
 20
1108.67545567602
 30
0.0
 11
1883.5936297894721
 21
1062.2909443947319
 31
0.0
  0
LINE
  5
1FC6
  8
寸法
 62
     0
 10
1233.5936297894721
 20
1108.67545567602
 30
0.0
 11
1233.5936297894721
 21
1062.2909443947319
 31
0.0
  0
LINE
  5
1FC7
  8
寸法
 62
     0
 10
1883.5936297894721
 20
1062.2909443947319
 30
0.0
 11
1233.5936297894721
 21
1062.2909443947319
 31
0.0
  0
INSERT
  5
1FC8
  8
寸法
 62
     0
  2
_DOTSMALL
 10
1883.5936297894721
 20
1062.2909443947319
 30
0.0
 41
35.0
 42
35.0
 43
35.0
  0
INSERT
  5
1FC9
  8
寸法
 62
     0
  2
_DOTSMALL
 10
1233.5936297894721
 20
1062.2909443947319
 30
0.0
 41
35.0
 42
35.0
 43
35.0
 50
180.0
  0
TEXT
  8
寸法
  40
25
  5
204D
  62
0
  72
0
  71
0
 10
1558.59
 20
1048.54
 30
0.000000
  1
650
  0
POINT
  5
1FCB
  8
DEFPOINTS
 62
     0
 10
1883.5936297894721
 20
1173.67545567602
 30
0.0
  0
POINT
  5
1FCC
  8
DEFPOINTS
 62
     0
 10
1233.5936297894721
 20
1173.67545567602
 30
0.0
  0
POINT
  5
1FCD
  8
DEFPOINTS
 62
     0
 10
1233.5936297894721
 20
1062.2909443947319
 30
0.0
  0
ENDBLK
  5
139D
  8
0
  0
BLOCK
  8
0
  2
*D13
 70
     1
 10
0.0
 20
0.0
 30
0.0
  3
*D13
  1

  0
LINE
  5
1FCE
  8
寸法
 62
     0
 10
1233.5936297894721
 20
1108.67545567602
 30
0.0
 11
1233.5936297894721
 21
1062.2909443947319
 31
0.0
  0
LINE
  5
1FCF
  8
寸法
 62
     0
 10
1193.5936297894721
 20
1108.67545567602
 30
0.0
 11
1193.5936297894721
 21
1062.2909443947319
 31
0.0
  0
LINE
  5
1FD0
  8
寸法
 62
     0
 10
1233.5936297894721
 20
1062.2909443947319
 30
0.0
 11
1193.5936297894721
 21
1062.2909443947319
 31
0.0
  0
TEXT
  8
寸法
  40
25
  5
204E
  62
0
  72
0
  71
0
 10
1215.13
 20
1002.40
 30
0.000000
  1
40
  0
INSERT
  5
1FD2
  8
寸法
 62
     0
  2
_DOTSMALL
 10
1233.5936297894721
 20
1062.2909443947319
 30
0.0
 41
35.0
 42
35.0
 43
35.0
  0
INSERT
  5
1FD3
  8
寸法
 62
     0
  2
_DOTSMALL
 10
1193.5936297894721
 20
1062.2909443947319
 30
0.0
 41
35.0
 42
35.0
 43
35.0
 50
180.0
  0
POINT
  5
1FD4
  8
DEFPOINTS
 62
     0
 10
1233.5936297894721
 20
1173.67545567602
 30
0.0
  0
POINT
  5
1FD5
  8
DEFPOINTS
 62
     0
 10
1193.5936297894721
 20
1173.67545567602
 30
0.0
  0
POINT
  5
1FD6
  8
DEFPOINTS
 62
     0
 10
1193.5936297894721
 20
1062.2909443947319
 30
0.0
  0
ENDBLK
  5
13AC
  8
0
  0
BLOCK
  8
0
  2
*D14
 70
     1
 10
0.0
 20
0.0
 30
0.0
  3
*D14
  1

  0
LINE
  5
1FD7
  8
寸法
 62
     0
 10
1193.5936297894721
 20
1108.67545567602
 30
0.0
 11
1193.5936297894721
 21
1062.2909443947319
 31
0.0
  0
LINE
  5
1FD8
  8
寸法
 62
     0
 10
833.59362978947263
 20
1108.67545567602
 30
0.0
 11
833.59362978947263
 21
1062.2909443947319
 31
0.0
  0
LINE
  5
1FD9
  8
寸法
 62
     0
 10
1193.5936297894721
 20
1062.2909443947319
 30
0.0
 11
833.59362978947263
 21
1062.2909443947319
 31
0.0
  0
INSERT
  5
1FDA
  8
寸法
 62
     0
  2
_DOTSMALL
 10
1193.5936297894721
 20
1062.2909443947319
 30
0.0
 41
35.0
 42
35.0
 43
35.0
  0
INSERT
  5
1FDB
  8
寸法
 62
     0
  2
_DOTSMALL
 10
833.59362978947263
 20
1062.2909443947319
 30
0.0
 41
35.0
 42
35.0
 43
35.0
 50
180.0
  0
TEXT
  8
寸法
  40
25
  5
204F
  62
0
  72
0
  71
0
 10
1013.59
 20
1048.54
 30
0.000000
  1
360
  0
POINT
  5
1FDD
  8
DEFPOINTS
 62
     0
 10
1193.5936297894721
 20
1173.67545567602
 30
0.0
  0
POINT
  5
1FDE
  8
DEFPOINTS
 62
     0
 10
833.59362978947263
 20
1173.67545567602
 30
0.0
  0
POINT
  5
1FDF
  8
DEFPOINTS
 62
     0
 10
833.59362978947263
 20
1062.2909443947319
 30
0.0
  0
ENDBLK
  5
13B9
  8
0
  0
BLOCK
  8
0
  2
*D15
 70
     1
 10
0.0
 20
0.0
 30
0.0
  3
*D15
  1

  0
LINE
  5
1FE0
  8
寸法
 62
     0
 10
833.59362978947263
 20
1108.67545567602
 30
0.0
 11
833.59362978947263
 21
1062.2909443947319
 31
0.0
  0
LINE
  5
1FE1
  8
寸法
 62
     0
 10
806.5936297894724
 20
1108.67545567602
 30
0.0
 11
806.5936297894724
 21
1062.2909443947319
 31
0.0
  0
LINE
  5
1FE2
  8
寸法
 62
     0
 10
833.59362978947263
 20
1062.2909443947319
 30
0.0
 11
806.5936297894724
 21
1062.2909443947319
 31
0.0
  0
TEXT
  8
寸法
  40
25
  5
2050
  62
0
  72
0
  71
0
 10
819.956
 20
1002.40
 30
0.000000
  1
27
  0
INSERT
  5
1FE4
  8
寸法
 62
     0
  2
_DOTSMALL
 10
833.59362978947263
 20
1062.2909443947319
 30
0.0
 41
35.0
 42
35.0
 43
35.0
  0
INSERT
  5
1FE5
  8
寸法
 62
     0
  2
_DOTSMALL
 10
806.5936297894724
 20
1062.2909443947319
 30
0.0
 41
35.0
 42
35.0
 43
35.0
 50
180.0
  0
POINT
  5
1FE6
  8
DEFPOINTS
 62
     0
 10
833.59362978947263
 20
1173.67545567602
 30
0.0
  0
POINT
  5
1FE7
  8
DEFPOINTS
 62
     0
 10
806.5936297894724
 20
1173.67545567602
 30
0.0
  0
POINT
  5
1FE8
  8
DEFPOINTS
 62
     0
 10
806.5936297894724
 20
1062.2909443947319
 30
0.0
  0
ENDBLK
  5
13C8
  8
0
  0
BLOCK
  8
0
  2
*D16
 70
     1
 10
0.0
 20
0.0
 30
0.0
  3
*D16
  1

  0
LINE
  5
1FE9
  8
寸法
 62
     0
 10
1910.5936297894721
 20
1108.67545567602
 30
0.0
 11
1910.5936297894721
 21
1062.2909443947319
 31
0.0
  0
LINE
  5
1FEA
  8
寸法
 62
     0
 10
1928.5936297894721
 20
1108.67545567602
 30
0.0
 11
1928.5936297894721
 21
1062.2909443947319
 31
0.0
  0
LINE
  5
1FEB
  8
寸法
 62
     0
 10
1910.5936297894721
 20
1062.2909443947319
 30
0.0
 11
1928.5936297894721
 21
1062.2909443947319
 31
0.0
  0
TEXT
  8
寸法
  40
25
  5
2051
  62
0
  72
0
  71
0
 10
1963.47
 20
1036.64
 30
0.000000
  1
18
  0
INSERT
  5
1FED
  8
寸法
 62
     0
  2
_DOTSMALL
 10
1910.5936297894721
 20
1062.2909443947319
 30
0.0
 41
35.0
 42
35.0
 43
35.0
 50
180.0
  0
INSERT
  5
1FEE
  8
寸法
 62
     0
  2
_DOTSMALL
 10
1928.5936297894721
 20
1062.2909443947319
 30
0.0
 41
35.0
 42
35.0
 43
35.0
  0
POINT
  5
1FEF
  8
DEFPOINTS
 62
     0
 10
1910.5936297894721
 20
1173.67545567602
 30
0.0
  0
POINT
  5
1FF0
  8
DEFPOINTS
 62
     0
 10
1928.5936297894721
 20
1173.67545567602
 30
0.0
  0
POINT
  5
1FF1
  8
DEFPOINTS
 62
     0
 10
1928.5936297894721
 20
1062.2909443947319
 30
0.0
  0
ENDBLK
  5
13D7
  8
0
  0
BLOCK
  8
0
  2
*D17
 70
     1
 10
0.0
 20
0.0
 30
0.0
  3
*D17
  1

  0
LINE
  5
1C9F
  8
寸法
 62
     0
 10
1928.5936297894721
 20
1108.67545567602
 30
0.0
 11
1928.5936297894721
 21
982.40279425448443
 31
0.0
  0
LINE
  5
1CA0
  8
寸法
 62
     0
 10
788.5936297894724
 20
1108.67545567602
 30
0.0
 11
788.5936297894724
 21
982.40279425448443
 31
0.0
  0
LINE
  5
1CA1
  8
寸法
 62
     0
 10
1928.5936297894721
 20
982.40279425448443
 30
0.0
 11
788.5936297894724
 21
982.40279425448443
 31
0.0
  0
INSERT
  5
1CA2
  8
寸法
 62
     0
  2
_DOTSMALL
 10
1928.5936297894721
 20
982.40279425448443
 30
0.0
 41
35.0
 42
35.0
 43
35.0
  0
INSERT
  5
1CA3
  8
寸法
 62
     0
  2
_DOTSMALL
 10
788.5936297894724
 20
982.40279425448443
 30
0.0
 41
35.0
 42
35.0
 43
35.0
 50
180.0
  0
INSERT
  5
1CA4
  8
寸法
  2
*U40
 10
0.0
 20
0.0
 30
0.0
  0
POINT
  5
1CA5
  8
DEFPOINTS
 62
     0
 10
1928.5936297894721
 20
1173.67545567602
 30
0.0
  0
POINT
  5
1CA6
  8
DEFPOINTS
 62
     0
 10
788.5936297894724
 20
1173.67545567602
 30
0.0
  0
POINT
  5
1CA7
  8
DEFPOINTS
 62
     0
 10
788.5936297894724
 20
982.40279425448443
 30
0.0
  0
ENDBLK
  5
147E
  8
0
  0
BLOCK
  8
0
  2
*D18
 70
     1
 10
0.0
 20
0.0
 30
0.0
  3
*D18
  1

  0
LINE
  5
1D02
  8
寸法
 62
     0
 10
1383.593629789473
 20
1578.67545567602
 30
0.0
 11
1383.593629789473
 21
1858.9351173836019
 31
0.0
  0
LINE
  5
1D03
  8
寸法
 62
     0
 10
788.59362978947217
 20
1718.67545567602
 30
0.0
 11
788.59362978947217
 21
1858.9351173836019
 31
0.0
  0
LINE
  5
1D04
  8
寸法
 62
     0
 10
1383.593629789473
 20
1858.9351173836019
 30
0.0
 11
788.59362978947217
 21
1858.9351173836019
 31
0.0
  0
INSERT
  5
1D05
  8
寸法
 62
     0
  2
_DOTSMALL
 10
1383.593629789473
 20
1858.9351173836019
 30
0.0
 41
35.0
 42
35.0
 43
35.0
  0
INSERT
  5
1D06
  8
寸法
 62
     0
  2
_DOTSMALL
 10
788.59362978947217
 20
1858.9351173836019
 30
0.0
 41
35.0
 42
35.0
 43
35.0
 50
180.0
  0
INSERT
  5
1D07
  8
寸法
  2
*U45
 10
0.0
 20
0.0
 30
0.0
  0
POINT
  5
1D08
  8
DEFPOINTS
 62
     0
 10
1383.593629789473
 20
1513.6754556760191
 30
0.0
  0
POINT
  5
1D09
  8
DEFPOINTS
 62
     0
 10
788.59362978947217
 20
1653.67545567602
 30
0.0
  0
POINT
  5
1D0A
  8
DEFPOINTS
 62
     0
 10
788.59362978947217
 20
1858.9351173836019
 30
0.0
  0
ENDBLK
  5
158E
  8
0
  0
BLOCK
  8
0
  2
*D19
 70
     1
 10
0.0
 20
0.0
 30
0.0
  3
*D19
  1

  0
LINE
  5
1CC3
  8
寸法
 62
     0
 10
1293.093629789473
 20
499.67545567601979
 30
0.0
 11
1293.093629789473
 21
407.03864980601782
 31
0.0
  0
LINE
  5
1CC4
  8
寸法
 62
     0
 10
1474.093629789473
 20
499.67545567601968
 30
0.0
 11
1474.093629789473
 21
407.03864980601782
 31
0.0
  0
LINE
  5
1CC5
  8
寸法
 62
     0
 10
1293.093629789473
 20
407.03864980601782
 30
0.0
 11
1474.093629789473
 21
407.03864980601782
 31
0.0
  0
INSERT
  5
1CC6
  8
寸法
 62
     0
  2
_DOTSMALL
 10
1293.093629789473
 20
407.03864980601782
 30
0.0
 41
35.0
 42
35.0
 43
35.0
 50
180.0
  0
INSERT
  5
1CC7
  8
寸法
 62
     0
  2
_DOTSMALL
 10
1474.093629789473
 20
407.03864980601782
 30
0.0
 41
35.0
 42
35.0
 43
35.0
  0
INSERT
  5
1CC8
  8
寸法
  2
*U42
 10
0.0
 20
0.0
 30
0.0
  0
POINT
  5
1CC9
  8
DEFPOINTS
 62
     0
 10
1293.093629789473
 20
564.67545567601974
 30
0.0
  0
POINT
  5
1CCA
  8
DEFPOINTS
 62
     0
 10
1474.093629789473
 20
564.67545567601974
 30
0.0
  0
POINT
  5
1CCB
  8
DEFPOINTS
 62
     0
 10
1474.093629789473
 20
407.03864980601782
 30
0.0
  0
ENDBLK
  5
159A
  8
0
  0
BLOCK
  8
0
  2
*D20
 70
     1
 10
0.0
 20
0.0
 30
0.0
  3
*D20
  1

  0
LINE
  5
1CBA
  8
寸法
 62
     0
 10
1303.593629789473
 20
499.67545567601968
 30
0.0
 11
1303.593629789473
 21
448.24804837494679
 31
0.0
  0
LINE
  5
1CBB
  8
寸法
 62
     0
 10
1463.593629789473
 20
499.67545567601968
 30
0.0
 11
1463.593629789473
 21
448.24804837494679
 31
0.0
  0
LINE
  5
1CBC
  8
寸法
 62
     0
 10
1303.593629789473
 20
448.24804837494679
 30
0.0
 11
1463.593629789473
 21
448.24804837494679
 31
0.0
  0
INSERT
  5
1CBD
  8
寸法
 62
     0
  2
_DOTSMALL
 10
1303.593629789473
 20
448.24804837494679
 30
0.0
 41
35.0
 42
35.0
 43
35.0
 50
180.0
  0
INSERT
  5
1CBE
  8
寸法
 62
     0
  2
_DOTSMALL
 10
1463.593629789473
 20
448.24804837494679
 30
0.0
 41
35.0
 42
35.0
 43
35.0
  0
INSERT
  5
1CBF
  8
寸法
  2
*U41
 10
0.0
 20
0.0
 30
0.0
  0
POINT
  5
1CC0
  8
DEFPOINTS
 62
     0
 10
1303.593629789473
 20
564.67545567601974
 30
0.0
  0
POINT
  5
1CC1
  8
DEFPOINTS
 62
     0
 10
1463.593629789473
 20
564.67545567601974
 30
0.0
  0
POINT
  5
1CC2
  8
DEFPOINTS
 62
     0
 10
1463.593629789473
 20
448.24804837494679
 30
0.0
  0
ENDBLK
  5
15A6
  8
0
  0
BLOCK
  8
0
  2
*D21
 70
     1
 10
0.0
 20
0.0
 30
0.0
  3
*D21
  1

  0
LINE
  5
1B76
  8
寸法
 62
     0
 10
768.59362978947172
 20
773.67545567601974
 30
0.0
 11
675.96125496688308
 21
773.67545567601974
 31
0.0
  0
LINE
  5
1B77
  8
寸法
 62
     0
 10
768.59362978947172
 20
574.67545567601974
 30
0.0
 11
675.96125496688308
 21
574.67545567601974
 31
0.0
  0
LINE
  5
1B78
  8
寸法
 62
     0
 10
675.96125496688308
 20
773.67545567601974
 30
0.0
 11
675.96125496688308
 21
574.67545567601974
 31
0.0
  0
INSERT
  5
1B79
  8
寸法
 62
     0
  2
_DOTSMALL
 10
675.96125496688308
 20
773.67545567601974
 30
0.0
 41
35.0
 42
35.0
 43
35.0
 50
90.0
  0
INSERT
  5
1B7A
  8
寸法
 62
     0
  2
_DOTSMALL
 10
675.96125496688308
 20
574.67545567601974
 30
0.0
 41
35.0
 42
35.0
 43
35.0
 50
270.0
  0
INSERT
  5
1B7B
  8
寸法
  2
*U37
 10
0.0
 20
0.0
 30
0.0
  0
POINT
  5
1B7C
  8
DEFPOINTS
 62
     0
 10
833.59362978947172
 20
773.67545567601974
 30
0.0
  0
POINT
  5
1B7D
  8
DEFPOINTS
 62
     0
 10
833.59362978947172
 20
574.67545567601974
 30
0.0
  0
POINT
  5
1B7E
  8
DEFPOINTS
 62
     0
 10
675.96125496688308
 20
574.67545567601974
 30
0.0
  0
ENDBLK
  5
15B2
  8
0
  0
BLOCK
  8
0
  2
*D22
 70
     1
 10
0.0
 20
0.0
 30
0.0
  3
*D22
  1

  0
LINE
  5
1B7F
  8
寸法
 62
     0
 10
768.59362978947172
 20
589.67545567601974
 30
0.0
 11
714.70187930176473
 21
589.67545567601974
 31
0.0
  0
LINE
  5
1B80
  8
寸法
 62
     0
 10
768.59362978947172
 20
574.67545567601974
 30
0.0
 11
714.70187930176473
 21
574.67545567601974
 31
0.0
  0
LINE
  5
1B81
  8
寸法
 62
     0
 10
714.70187930176473
 20
589.67545567601974
 30
0.0
 11
714.70187930176473
 21
574.67545567601974
 31
0.0
  0
INSERT
  5
1B82
  8
寸法
 62
     0
  2
_DOTSMALL
 10
714.70187930176473
 20
589.67545567601974
 30
0.0
 41
35.0
 42
35.0
 43
35.0
 50
90.0
  0
INSERT
  5
1B83
  8
寸法
 62
     0
  2
_DOTSMALL
 10
714.70187930176473
 20
574.67545567601974
 30
0.0
 41
35.0
 42
35.0
 43
35.0
 50
270.0
  0
POINT
  5
1B84
  8
DEFPOINTS
 62
     0
 10
833.59362978947172
 20
589.67545567601974
 30
0.0
  0
POINT
  5
1B85
  8
DEFPOINTS
 62
     0
 10
833.59362978947172
 20
574.67545567601974
 30
0.0
  0
POINT
  5
1B86
  8
DEFPOINTS
 62
     0
 10
714.70187930176473
 20
574.67545567601974
 30
0.0
  0
ENDBLK
  5
15BD
  8
0
  0
BLOCK
  8
0
  2
*D23
 70
     1
 10
0.0
 20
0.0
 30
0.0
  3
*D23
  1

  0
LINE
  5
1CD5
  8
寸法
 62
     0
 10
1141.5936297894721
 20
499.67545567601968
 30
0.0
 11
1141.5936297894721
 21
407.03864980601782
 31
0.0
  0
LINE
  5
1CD6
  8
寸法
 62
     0
 10
1025.5936297894721
 20
499.67545567601968
 30
0.0
 11
1025.5936297894721
 21
407.03864980601782
 31
0.0
  0
LINE
  5
1CD7
  8
寸法
 62
     0
 10
1141.5936297894721
 20
407.03864980601782
 30
0.0
 11
1025.5936297894721
 21
407.03864980601782
 31
0.0
  0
INSERT
  5
1CD8
  8
寸法
 62
     0
  2
_DOTSMALL
 10
1141.5936297894721
 20
407.03864980601782
 30
0.0
 41
35.0
 42
35.0
 43
35.0
  0
INSERT
  5
1CD9
  8
寸法
 62
     0
  2
_DOTSMALL
 10
1025.5936297894721
 20
407.03864980601782
 30
0.0
 41
35.0
 42
35.0
 43
35.0
 50
180.0
  0
INSERT
  5
1CDA
  8
寸法
  2
*U44
 10
0.0
 20
0.0
 30
0.0
  0
POINT
  5
1CDB
  8
DEFPOINTS
 62
     0
 10
1141.5936297894721
 20
564.67545567601974
 30
0.0
  0
POINT
  5
1CDC
  8
DEFPOINTS
 62
     0
 10
1025.5936297894721
 20
564.67545567601974
 30
0.0
  0
POINT
  5
1CDD
  8
DEFPOINTS
 62
     0
 10
1025.5936297894721
 20
407.03864980601782
 30
0.0
  0
ENDBLK
  5
17E8
  8
0
  0
BLOCK
  8
0
  2
*D24
 70
     1
 10
0.0
 20
0.0
 30
0.0
  3
*D24
  1

  0
LINE
  5
1CCC
  8
寸法
 62
     0
 10
1127.5936297894721
 20
499.67545567601968
 30
0.0
 11
1127.5936297894721
 21
448.24804837494679
 31
0.0
  0
LINE
  5
1CCD
  8
寸法
 62
     0
 10
1039.5936297894721
 20
499.67545567601968
 30
0.0
 11
1039.5936297894721
 21
448.24804837494679
 31
0.0
  0
LINE
  5
1CCE
  8
寸法
 62
     0
 10
1127.5936297894721
 20
448.24804837494679
 30
0.0
 11
1039.5936297894721
 21
448.24804837494679
 31
0.0
  0
INSERT
  5
1CCF
  8
寸法
 62
     0
  2
_DOTSMALL
 10
1127.5936297894721
 20
448.24804837494679
 30
0.0
 41
35.0
 42
35.0
 43
35.0
  0
INSERT
  5
1CD0
  8
寸法
 62
     0
  2
_DOTSMALL
 10
1039.5936297894721
 20
448.24804837494679
 30
0.0
 41
35.0
 42
35.0
 43
35.0
 50
180.0
  0
INSERT
  5
1CD1
  8
寸法
  2
*U43
 10
0.0
 20
0.0
 30
0.0
  0
POINT
  5
1CD2
  8
DEFPOINTS
 62
     0
 10
1127.5936297894721
 20
564.67545567601974
 30
0.0
  0
POINT
  5
1CD3
  8
DEFPOINTS
 62
     0
 10
1039.5936297894721
 20
564.67545567601974
 30
0.0
  0
POINT
  5
1CD4
  8
DEFPOINTS
 62
     0
 10
1039.5936297894721
 20
448.24804837494679
 30
0.0
  0
ENDBLK
  5
17F4
  8
0
  0
BLOCK
  8
0
  2
*D25
 70
     1
 10
0.0
 20
0.0
 30
0.0
  3
*D25
  1

  0
LINE
  5
1C67
  8
寸法
 62
     0
 10
1768.5936297894721
 20
1433.67545567602
 30
0.0
 11
2035.3303338538849
 21
1433.67545567602
 31
0.0
  0
LINE
  5
1C68
  8
寸法
 62
     0
 10
1948.5936297894721
 20
1173.67545567602
 30
0.0
 11
2035.3303338538849
 21
1173.67545567602
 31
0.0
  0
LINE
  5
1C69
  8
寸法
 62
     0
 10
2035.3303338538849
 20
1433.67545567602
 30
0.0
 11
2035.3303338538849
 21
1173.67545567602
 31
0.0
  0
INSERT
  5
1C6A
  8
寸法
 62
     0
  2
_DOTSMALL
 10
2035.3303338538849
 20
1433.67545567602
 30
0.0
 41
35.0
 42
35.0
 43
35.0
 50
90.0
  0
INSERT
  5
1C6B
  8
寸法
 62
     0
  2
_DOTSMALL
 10
2035.3303338538849
 20
1173.67545567602
 30
0.0
 41
35.0
 42
35.0
 43
35.0
 50
270.0
  0
INSERT
  5
1C6C
  8
寸法
  2
*U39
 10
0.0
 20
0.0
 30
0.0
  0
POINT
  5
1C6D
  8
DEFPOINTS
 62
     0
 10
1703.5936297894721
 20
1433.67545567602
 30
0.0
  0
POINT
  5
1C6E
  8
DEFPOINTS
 62
     0
 10
1883.5936297894721
 20
1173.67545567602
 30
0.0
  0
POINT
  5
1C6F
  8
DEFPOINTS
 62
     0
 10
2035.3303338538849
 20
1173.67545567602
 30
0.0
  0
ENDBLK
  5
180B
  8
0
  0
BLOCK
  8
0
  2
*D26
 70
     1
 10
0.0
 20
0.0
 30
0.0
  3
*D26
  1

  0
LINE
  5
1D0B
  8
寸法
 62
     0
 10
1083.5936297894721
 20
1556.67545567602
 30
0.0
 11
1083.5936297894721
 21
1791.1585473092521
 31
0.0
  0
LINE
  5
1D0C
  8
寸法
 62
     0
 10
788.59362978947217
 20
1718.67545567602
 30
0.0
 11
788.59362978947217
 21
1791.1585473092521
 31
0.0
  0
LINE
  5
1D0D
  8
寸法
 62
     0
 10
1083.5936297894721
 20
1791.1585473092521
 30
0.0
 11
788.59362978947217
 21
1791.1585473092521
 31
0.0
  0
INSERT
  5
1D0E
  8
寸法
 62
     0
  2
_DOTSMALL
 10
1083.5936297894721
 20
1791.1585473092521
 30
0.0
 41
35.0
 42
35.0
 43
35.0
  0
INSERT
  5
1D0F
  8
寸法
 62
     0
  2
_DOTSMALL
 10
788.59362978947217
 20
1791.1585473092521
 30
0.0
 41
35.0
 42
35.0
 43
35.0
 50
180.0
  0
INSERT
  5
1D10
  8
寸法
  2
*U46
 10
0.0
 20
0.0
 30
0.0
  0
POINT
  5
1D11
  8
DEFPOINTS
 62
     0
 10
1083.5936297894721
 20
1491.67545567602
 30
0.0
  0
POINT
  5
1D12
  8
DEFPOINTS
 62
     0
 10
788.59362978947217
 20
1653.67545567602
 30
0.0
  0
POINT
  5
1D13
  8
DEFPOINTS
 62
     0
 10
788.59362978947217
 20
1791.1585473092521
 30
0.0
  0
ENDBLK
  5
1817
  8
0
  0
BLOCK
  8
0
  2
A$C71AF25C3
 70
     0
 10
0.0
 20
0.0
 30
0.0
  3
A$C71AF25C3
  1

  0
INSERT
  5
1DC2
  8
寸法
  2
*U47
 10
0.0
 20
0.0
 30
0.0
  0
ENDBLK
  5
1DC4
  8
0
  0
BLOCK
  8
0
  6
BYBLOCK
 62
     0
  2
VW_SLASH
 70
     0
 10
0.0
 20
0.0
 30
0.0
  3
VW_SLASH
  1

  0
LINE
  5
1E16
  8
0
  6
BYBLOCK
 62
     0
 10
0.0
 20
0.0
 30
0.0
 11
-1.0
 21
0.0
 31
0.0
  0
LINE
  5
1E17
  8
0
  6
BYBLOCK
 62
     0
 10
0.4998775379892014
 20
0.4998775379892014
 30
0.0
 11
-0.4998775379892014
 21
-0.4998775379892014
 31
0.0
  0
ENDBLK
  5
1E18
  8
0
  0
BLOCK
  8
0
  6
BYBLOCK
 62
     0
  2
VW_FILLEDARROW
 70
     0
 10
0.0
 20
0.0
 30
0.0
  3
VW_FILLEDARROW
  1

  0
SOLID
  5
1E1B
  8
0
 62
     0
 10
0.0
 20
0.0
 30
0.0
 11
1.4138671875
 21
0.3788445710954878
 31
0.0
 12
1.4138671875
 22
-0.3788445710954878
 32
0.0
 13
1.4138671875
 23
-0.3788445710954878
 33
0.0
  0
ENDBLK
  5
1E1C
  8
0
  0
BLOCK
  8
0
  2
*D30
 70
     1
 10
0.0
 20
0.0
 30
0.0
  3
*D30
  1

  0
LINE
  5
1EA9
  8
補助
 62
     0
 10
786.40612978947206
 20
997.29094439473215
 30
0.0
 11
786.40612978947206
 21
955.94794471454225
 31
0.0
  0
LINE
  5
1EAA
  8
補助
 62
     0
 10
1930.7811297894721
 20
997.29094439473215
 30
0.0
 11
1930.7811297894721
 21
955.94794471454225
 31
0.0
  0
LINE
  5
1EAB
  8
補助
 62
     0
 10
786.40612978947206
 20
955.94794471454225
 30
0.0
 11
1930.7811297894721
 21
955.94794471454225
 31
0.0
  0
INSERT
  5
1EAC
  8
補助
 62
     0
  2
_DOTSMALL
 10
786.40612978947206
 20
955.94794471454225
 30
0.0
 41
35.0
 42
35.0
 43
35.0
 50
180.0
  0
INSERT
  5
1EAD
  8
補助
 62
     0
  2
_DOTSMALL
 10
1930.7811297894721
 20
955.94794471454225
 30
0.0
 41
35.0
 42
35.0
 43
35.0
  0
INSERT
  5
1EAE
  8
寸法
  2
*U49
 10
0.0
 20
0.0
 30
0.0
  0
POINT
  5
1EAF
  8
DEFPOINTS
 62
     0
 10
786.40612978947206
 20
1062.2909443947319
 30
0.0
  0
POINT
  5
1EB0
  8
DEFPOINTS
 62
     0
 10
1930.7811297894721
 20
1062.2909443947319
 30
0.0
  0
POINT
  5
1EB1
  8
DEFPOINTS
 62
     0
 10
1930.7811297894721
 20
955.94794471454225
 30
0.0
  0
ENDBLK
  5
1EB3
  8
0
  0
BLOCK
  8
0
  2
*D31
 70
     1
 10
0.0
 20
0.0
 30
0.0
  3
*D31
  1

  0
LINE
  5
1EB6
  8
補助
 62
     0
 10
788.59362978947217
 20
997.29094439473215
 30
0.0
 11
788.59362978947217
 21
981.33753940242605
 31
0.0
  0
LINE
  5
1EB7
  8
補助
 62
     0
 10
1930.7811297894721
 20
997.29094439473215
 30
0.0
 11
1930.7811297894721
 21
981.33753940242605
 31
0.0
  0
LINE
  5
1EB8
  8
補助
 62
     0
 10
788.59362978947217
 20
981.33753940242605
 30
0.0
 11
1930.7811297894721
 21
981.33753940242605
 31
0.0
  0
INSERT
  5
1EB9
  8
補助
 62
     0
  2
_DOTSMALL
 10
788.59362978947217
 20
981.33753940242605
 30
0.0
 41
35.0
 42
35.0
 43
35.0
 50
180.0
  0
INSERT
  5
1EBA
  8
補助
 62
     0
  2
_DOTSMALL
 10
1930.7811297894721
 20
981.33753940242605
 30
0.0
 41
35.0
 42
35.0
 43
35.0
  0
INSERT
  5
1EBB
  8
寸法
  2
*U50
 10
0.0
 20
0.0
 30
0.0
  0
POINT
  5
1EBC
  8
DEFPOINTS
 62
     0
 10
788.59362978947217
 20
1062.2909443947319
 30
0.0
  0
POINT
  5
1EBD
  8
DEFPOINTS
 62
     0
 10
1930.7811297894721
 20
1062.2909443947319
 30
0.0
  0
POINT
  5
1EBE
  8
DEFPOINTS
 62
     0
 10
1930.7811297894721
 20
981.33753940242605
 30
0.0
  0
ENDBLK
  5
1EC0
  8
0
  0
BLOCK
  8
0
  2
*D32
 70
     1
 10
0.0
 20
0.0
 30
0.0
  3
*D32
  1

  0
LINE
  5
1F20
  8
寸法
 62
     0
 10
789.50747466071334
 20
1142.9923797644151
 30
0.0
 11
789.50747466071334
 21
995.9440773114037
 31
0.0
  0
LINE
  5
1F21
  8
寸法
 62
     0
 10
1927.816688309576
 20
1142.9923797644151
 30
0.0
 11
1927.816688309576
 21
995.9440773114037
 31
0.0
  0
LINE
  5
1F22
  8
寸法
 62
     0
 10
789.50747466071334
 20
995.9440773114037
 30
0.0
 11
1098.54774183363
 21
995.9440773114037
 31
0.0
  0
LINE
  5
1F23
  8
寸法
 62
     0
 10
1927.816688309576
 20
995.9440773114037
 30
0.0
 11
1236.04774183363
 21
995.9440773114037
 31
0.0
  0
INSERT
  5
1F24
  8
寸法
  2
*U51
 10
0.0
 20
0.0
 30
0.0
  0
INSERT
  5
1F25
  8
寸法
 62
     0
  2
_DOTSMALL
 10
789.50747466071334
 20
995.9440773114037
 30
0.0
 41
35.0
 42
35.0
 43
35.0
 50
180.0
  0
INSERT
  5
1F26
  8
寸法
 62
     0
  2
_DOTSMALL
 10
1927.816688309576
 20
995.9440773114037
 30
0.0
 41
35.0
 42
35.0
 43
35.0
  0
POINT
  5
1F27
  8
DEFPOINTS
 62
     0
 10
789.50747466071334
 20
1207.9923797644151
 30
0.0
  0
POINT
  5
1F28
  8
DEFPOINTS
 62
     0
 10
1927.816688309576
 20
1207.9923797644151
 30
0.0
  0
POINT
  5
1F29
  8
DEFPOINTS
 62
     0
 10
1927.816688309576
 20
995.9440773114037
 30
0.0
  0
ENDBLK
  5
1EE7
  8
0
  0
BLOCK
  8
0
  2
*D33
 70
     1
 10
0.0
 20
0.0
 30
0.0
  3
*D33
  1

  0
LINE
  5
1F37
  8
寸法
 62
     0
 10
788.59362978947217
 20
999.47844439473215
 30
0.0
 11
788.59362978947217
 21
980.89673094180762
 31
0.0
  0
LINE
  5
1F38
  8
寸法
 62
     0
 10
1928.5936297894721
 20
999.47844439473215
 30
0.0
 11
1928.5936297894721
 21
980.89673094180762
 31
0.0
  0
LINE
  5
1F39
  8
寸法
 62
     0
 10
788.59362978947217
 20
980.89673094180762
 30
0.0
 11
1928.5936297894721
 21
980.89673094180762
 31
0.0
  0
INSERT
  5
1F3A
  8
寸法
 62
     0
  2
_DOTSMALL
 10
788.59362978947217
 20
980.89673094180762
 30
0.0
 41
35.0
 42
35.0
 43
35.0
 50
180.0
  0
INSERT
  5
1F3B
  8
寸法
 62
     0
  2
_DOTSMALL
 10
1928.5936297894721
 20
980.89673094180762
 30
0.0
 41
35.0
 42
35.0
 43
35.0
  0
INSERT
  5
1F3C
  8
寸法
  2
*U52
 10
0.0
 20
0.0
 30
0.0
  0
POINT
  5
1F3D
  8
DEFPOINTS
 62
     0
 10
788.59362978947217
 20
1064.4784443947319
 30
0.0
  0
POINT
  5
1F3E
  8
DEFPOINTS
 62
     0
 10
1928.5936297894721
 20
1064.4784443947319
 30
0.0
  0
POINT
  5
1F3F
  8
DEFPOINTS
 62
     0
 10
1928.5936297894721
 20
980.89673094180762
 30
0.0
  0
ENDBLK
  5
1F41
  8
0
  0
BLOCK
  8
0
  2
*U35
 70
     1
 10
0.0
 20
0.0
 30
0.0
  3
*U35
  1

  0
INSERT
  5
1FF3
  8
0
  2
_OPEN30
 10
1867.2359799040039
 20
604.42476589205296
 30
0.0
 41
25.0
 42
25.0
 43
25.0
 50
327.54931019131652
  0
POLYLINE
  5
1FF4
  8
0
 66
     1
 10
0.0
 20
0.0
 30
0.0
  0
VERTEX
  5
1FF5
  8
0
 10
1846.139641229121
 20
617.83910503025288
 30
0.0
  0
VERTEX
  5
1FF6
  8
0
 10
1819.2974816089541
 20
634.90698765650814
 30
0.0
  0
SEQEND
  5
1FF7
  8
0
  0
ENDBLK
  5
1FF9
  8
0
  0
BLOCK
  8
0
  2
*U36
 70
     1
 10
0.0
 20
0.0
 30
0.0
  3
*U36
  1

  0
INSERT
  5
1FFB
  8
0
  2
_OPEN30
 10
-849.95127967494079
 20
604.42476589205296
 30
0.0
 41
25.0
 42
25.0
 43
25.0
 50
327.54931019131658
210
0.0
220
0.0
230
-1.0
  0
POLYLINE
  5
1FFC
  8
0
 66
     1
 10
0.0
 20
0.0
 30
0.0
210
0.0
220
0.0
230
-1.0
  0
VERTEX
  5
1FFD
  8
0
 10
-871.04761834982355
 20
617.83910503025288
 30
0.0
  0
VERTEX
  5
1FFE
  8
0
 10
-897.88977796999109
 20
634.90698765650814
 30
0.0
  0
SEQEND
  5
1FFF
  8
0
  0
ENDBLK
  5
2001
  8
0
  0
BLOCK
  8
0
  2
*U37
 70
     1
 10
0.0
 20
0.0
 30
0.0
  3
*U37
  1

  0
TEXT
  5
2003
  8
寸法
 62
     0
 10
669.71125496688308
 20
645.00878900935322
 30
0.0
 40
25.0
  1
199
 50
90.0
  0
ENDBLK
  5
2005
  8
0
  0
BLOCK
  8
0
  2
*U38
 70
     1
 10
0.0
 20
0.0
 30
0.0
  3
*U38
  1

  0
TEXT
  5
2007
  8
寸法
 62
     0
 10
554.00095946181204
 20
1402.42545567602
 30
0.0
 40
25.0
  1
520
 50
90.0
  0
ENDBLK
  5
2009
  8
0
  0
BLOCK
  8
0
  2
*U39
 70
     1
 10
0.0
 20
0.0
 30
0.0
  3
*U39
  1

  0
TEXT
  5
200B
  8
寸法
 62
     0
 10
2029.0803338538849
 20
1272.42545567602
 30
0.0
 40
25.0
  1
260
 50
90.0
  0
ENDBLK
  5
200D
  8
0
  0
BLOCK
  8
0
  2
*U40
 70
     1
 10
0.0
 20
0.0
 30
0.0
  3
*U40
  1

  0
TEXT
  5
200F
  8
寸法
 62
     0
 10
1323.1769631228051
 20
988.65279425448387
 30
0.0
 40
25.0
  1
1140
  0
ENDBLK
  5
2011
  8
0
  0
BLOCK
  8
0
  2
*U41
 70
     1
 10
0.0
 20
0.0
 30
0.0
  3
*U41
  1

  0
TEXT
  5
2013
  8
寸法
 62
     0
 10
1356.510296456139
 20
454.49804837494679
 30
0.0
 40
25.0
  1
160
  0
ENDBLK
  5
2015
  8
0
  0
BLOCK
  8
0
  2
*U42
 70
     1
 10
0.0
 20
0.0
 30
0.0
  3
*U42
  1

  0
TEXT
  5
2017
  8
寸法
 62
     0
 10
1358.593629789473
 20
413.28864980601782
 30
0.0
 40
25.0
  1
181
  0
ENDBLK
  5
2019
  8
0
  0
BLOCK
  8
0
  2
*U43
 70
     1
 10
0.0
 20
0.0
 30
0.0
  3
*U43
  1

  0
TEXT
  5
201B
  8
寸法
 62
     0
 10
1062.760296456139
 20
454.49804837494679
 30
0.0
 40
25.0
  1
88
  0
ENDBLK
  5
201D
  8
0
  0
BLOCK
  8
0
  2
*U44
 70
     1
 10
0.0
 20
0.0
 30
0.0
  3
*U44
  1

  0
TEXT
  5
201F
  8
寸法
 62
     0
 10
1058.5936297894721
 20
413.28864980601782
 30
0.0
 40
25.0
  1
116
  0
ENDBLK
  5
2021
  8
0
  0
BLOCK
  8
0
  2
*U45
 70
     1
 10
0.0
 20
0.0
 30
0.0
  3
*U45
  1

  0
TEXT
  5
2023
  8
寸法
 62
     0
 10
1052.760296456139
 20
1865.185117383601
 30
0.0
 40
25.0
  1
595
  0
ENDBLK
  5
2025
  8
0
  0
BLOCK
  8
0
  2
*U46
 70
     1
 10
0.0
 20
0.0
 30
0.0
  3
*U46
  1

  0
TEXT
  5
2027
  8
寸法
 62
     0
 10
902.76029645613903
 20
1797.4085473092521
 30
0.0
 40
25.0
  1
295
  0
ENDBLK
  5
2029
  8
0
  0
BLOCK
  8
0
  2
*U47
 70
     1
 10
0.0
 20
0.0
 30
0.0
  3
*U47
  1

  0
TEXT
  5
202B
  8
実形
 10
-21.998568250719469
 20
13.74286213140112
 30
0.0
 40
45.0
  1
 e
  0
TEXT
  5
202C
  8
実形
 10
30.429808284069068
 20
13.74286213140112
 30
0.0
 40
35.001000000000012
  1
-KITCHEN 
  0
TEXT
  5
202D
  8
実形
 10
274.91155453236371
 20
13.74286213140112
 30
0.0
 40
11.9983428
  1
U-ARCHITECTURE WORKS
  0
ENDBLK
  5
202F
  8
0
  0
BLOCK
  8
0
  2
*U48
 70
     1
 10
0.0
 20
0.0
 30
0.0
  3
*U48
  1

  0
TEXT
  5
2031
  8
実形
 10
2224.3738578741541
 20
67.742862131401097
 30
0.0
 40
45.0
  1
 e
  0
TEXT
  5
2032
  8
実形
 10
2276.8022344089431
 20
67.742862131401097
 30
0.0
 40
35.001000000000012
  1
-KITCHEN 
  0
TEXT
  5
2033
  8
実形
 10
2521.2839806572379
 20
67.742862131401097
 30
0.0
 40
11.9983428
  1
U-ARCHITECTURE WORKS
  0
ENDBLK
  5
2035
  8
0
  0
BLOCK
  8
0
  2
*U49
 70
     1
 10
0.0
 20
0.0
 30
0.0
  3
*U49
  1

  0
TEXT
  5
2037
  8
補助
 62
     0
 10
1291.9269631228051
 20
962.19794471454225
 30
0.0
 40
25.0
  1
1144.38
  0
ENDBLK
  5
2039
  8
0
  0
BLOCK
  8
0
  2
*U50
 70
     1
 10
0.0
 20
0.0
 30
0.0
  3
*U50
  1

  0
TEXT
  5
203B
  8
補助
 62
     0
 10
1297.1873797894721
 20
987.58753940242605
 30
0.0
 40
25.0
  1
1142.19
  0
ENDBLK
  5
203D
  8
0
  0
BLOCK
  8
0
  2
*U51
 70
     1
 10
0.0
 20
0.0
 30
0.0
  3
*U51
  1

  0
TEXT
  5
203F
  8
寸法
 62
     0
 10
1104.79774183363
 20
1001.720560754387
 30
0.0
 40
25.0
  1
1138.31
  0
ENDBLK
  5
2041
  8
0
  0
BLOCK
  8
0
  2
*U52
 70
     1
 10
0.0
 20
0.0
 30
0.0
  3
*U52
  1

  0
TEXT
  5
2043
  8
寸法
 62
     0
 10
1323.1769631228051
 20
987.14673094180762
 30
0.0
 40
25.0
  1
1140
  0
ENDBLK
  5
2045
  8
0
  0
ENDSEC
  0
SECTION
  2
ENTITIES
  0
LINE
  5
9C
  8
0
 10
4.0
 20
54.0
 30
0.0
 11
2784.0
 21
54.0
 31
0.0
  0
LINE
  5
9F
  8
0
 10
4.0
 20
1974.0
 30
0.0
 11
4.0
 21
54.0
 31
0.0
  0
LINE
  5
A0
  8
0
 10
2784.0
 20
1974.0
 30
0.0
 11
4.0
 21
1974.0
 31
0.0
  0
LINE
  5
A5
  8
0
 10
2784.0
 20
54.0
 30
0.0
 11
2784.0
 21
1974.0
 31
0.0
  0
TEXT
  5
8C9
  8
0
 10
218.2512748396903
 20
140.1557798571466
 30
0.0
 40
30.0
  1
※実寸には製造上の誤差が多少生ずる場合があります。シンクの穴あけ加工は現物合わせにてお願いします。
  0
LINE
  5
128A
  8
補助
 10
589.72975319087163
 20
1693.67545567602
 30
0.0
 11
2000.0326041243429
 21
1693.67545567602
 31
0.0
  0
LINE
  5
128C
  8
補助
 10
589.72975319087163
 20
1173.67545567602
 30
0.0
 11
2000.0326041243429
 21
1173.67545567602
 31
0.0
  0
LINE
  5
128D
  8
補助
 10
589.72975319087163
 20
773.67545567601974
 30
0.0
 11
2000.0326041243429
 21
773.67545567601974
 31
0.0
  0
LINE
  5
128F
  8
補助
 10
788.59362978947217
 20
1772.4117417374
 30
0.0
 11
788.59362978947217
 21
390.4813515458975
 31
0.0
  0
LINE
  5
1290
  8
補助
 10
1928.5936297894721
 20
1772.4117417374
 30
0.0
 11
1928.5936297894721
 21
390.4813515458975
 31
0.0
  0
LINE
  5
1292
  8
補助
 10
589.72975319087163
 20
1675.6754556760191
 30
0.0
 11
2000.0326041243429
 21
1675.6754556760191
 31
0.0
  0
LINE
  5
1293
  8
補助
 10
589.72975319087163
 20
1191.67545567602
 30
0.0
 11
2000.0326041243429
 21
1191.67545567602
 31
0.0
  0
LINE
  5
1294
  8
補助
 10
806.59362978947206
 20
1772.4117417374
 30
0.0
 11
806.59362978947206
 21
390.4813515458975
 31
0.0
  0
LINE
  5
1295
  8
補助
 10
1910.5936297894721
 20
1772.4117417374
 30
0.0
 11
1910.5936297894721
 21
390.4813515458975
 31
0.0
  0
LINE
  5
1296
  8
補助
 10
589.72975319087163
 20
1653.67545567602
 30
0.0
 11
2000.0326041243429
 21
1653.67545567602
 31
0.0
  0
LINE
  5
1297
  8
補助
 10
589.72975319087163
 20
1213.67545567602
 30
0.0
 11
2000.0326041243429
 21
1213.67545567602
 31
0.0
  0
LINE
  5
1298
  8
補助
 10
833.59362978947217
 20
1772.4117417374
 30
0.0
 11
833.59362978947217
 21
390.4813515458975
 31
0.0
  0
LINE
  5
1299
  8
補助
 10
1883.5936297894721
 20
1772.4117417374
 30
0.0
 11
1883.5936297894721
 21
390.4813515458975
 31
0.0
  0
LINE
  5
129A
  8
補助
 10
1483.5936297894721
 20
1772.4117417374
 30
0.0
 11
1483.5936297894721
 21
390.4813515458975
 31
0.0
  0
LINE
  5
129B
  8
補助
 10
1523.5936297894721
 20
1772.4117417374
 30
0.0
 11
1523.5936297894721
 21
390.4813515458975
 31
0.0
  0
DIMENSION
  5
12A2
  8
寸法
  2
*D4
 10
633.96290186307965
 20
1675.6754556760191
 30
0.0
 11
622.44541736564952
 21
1729.428900627159
 31
0.0
 70
   128
 13
788.59362978947217
 23
1693.67545567602
 33
0.0
 14
788.59362978947217
 24
1675.6754556760191
 34
0.0
 50
90.0
1001
ACAD
1000
DSTYLE
1002
{
1070
   287
1070
     5
1070
   279
1070
     2
1070
   371
1070
    18
1070
   372
1070
    18
1002
}
  0
DIMENSION
  5
12E0
  8
寸法
  2
*D5
 10
633.96290186307965
 20
1653.67545567602
 30
0.0
 11
620.1419132282997
 21
1646.5648807743639
 31
0.0
 70
   128
 13
788.59362978947217
 23
1675.6754556760191
 33
0.0
 14
788.59362978947217
 24
1653.67545567602
 34
0.0
 50
90.0
1001
ACAD
1000
DSTYLE
1002
{
1070
   287
1070
     4
1070
   279
1070
     1
1070
   371
1070
    18
1070
   372
1070
    18
1002
}
  0
DIMENSION
  5
12ED
  8
寸法
  2
*D6
 10
633.96290186307965
 20
1213.67545567602
 30
0.0
 11
615.21290186307954
 21
1433.67545567602
 31
0.0
 70
     0
 13
788.59362978947217
 23
1653.67545567602
 33
0.0
 14
788.59362978947217
 24
1213.67545567602
 34
0.0
 50
90.0
1001
ACAD
1000
DSTYLE
1002
{
1070
   287
1070
     4
1070
   279
1070
     1
1070
   371
1070
    18
1070
   372
1070
    18
1002
}
  0
DIMENSION
  5
12FA
  8
寸法
  2
*D7
 10
633.96290186307965
 20
1191.67545567602
 30
0.0
 11
620.1419132282997
 21
1227.6412275483799
 31
0.0
 70
   128
 13
788.59362978947217
 23
1213.67545567602
 33
0.0
 14
788.59362978947217
 24
1191.67545567602
 34
0.0
 50
90.0
1001
ACAD
1000
DSTYLE
1002
{
1070
   287
1070
     4
1070
   279
1070
     1
1070
   371
1070
    18
1070
   372
1070
    18
1002
}
  0
DIMENSION
  5
1307
  8
寸法
  2
*D8
 10
633.96290186307965
 20
1173.67545567602
 30
0.0
 11
633.96290186307942
 21
1137.871871898906
 31
0.0
 70
   128
 13
788.59362978947217
 23
1191.67545567602
 33
0.0
 14
788.59362978947217
 24
1173.67545567602
 34
0.0
 50
90.0
1001
ACAD
1000
DSTYLE
1002
{
1070
   287
1070
     4
1070
   279
1070
     1
1070
   371
1070
    18
1070
   372
1070
    18
1002
}
  0
DIMENSION
  5
132F
  8
寸法
  2
*D9
 10
560.25095946181227
 20
1173.67545567602
 30
0.0
 11
541.50095946181204
 21
1433.67545567602
 31
0.0
 70
     0
 13
788.59362978947217
 23
1693.67545567602
 33
0.0
 14
788.59362978947217
 24
1173.67545567602
 34
0.0
 50
90.0
1001
ACAD
1000
DSTYLE
1002
{
1070
   371
1070
    18
1070
   372
1070
    18
1002
}
  0
DIMENSION
  5
134E
  8
寸法
  2
*D10
 10
806.59362978947206
 20
1062.2909443947319
 30
0.0
 11
752.83509146122822
 21
1073.7035372719099
 31
0.0
 70
   128
 13
788.59362978947217
 23
1173.67545567602
 33
0.0
 14
806.59362978947206
 24
1173.67545567602
 34
0.0
1001
ACAD
1000
DSTYLE
1002
{
1070
   287
1070
     5
1070
   279
1070
     2
1070
   371
1070
    18
1070
   372
1070
    18
1002
}
  0
DIMENSION
  5
1382
  8
寸法
  2
*D11
 10
1883.5936297894721
 20
1062.2909443947319
 30
0.0
 11
1895.82543971259
 21
1034.9007185773
 31
0.0
 70
   128
 13
1910.5936297894721
 23
1173.67545567602
 33
0.0
 14
1883.5936297894721
 24
1173.67545567602
 34
0.0
 50
180.0
1001
ACAD
1000
DSTYLE
1002
{
1070
   287
1070
     5
1070
   279
1070
     2
1070
   371
1070
    18
1070
   372
1070
    18
1002
}
  0
DIMENSION
  5
1391
  8
寸法
  2
*D12
 10
1233.5936297894721
 20
1062.2909443947319
 30
0.0
 11
1558.5936297894721
 21
1081.0409443947319
 31
0.0
 70
     0
 13
1883.5936297894721
 23
1173.67545567602
 33
0.0
 14
1233.5936297894721
 24
1173.67545567602
 34
0.0
 50
180.0
1001
ACAD
1000
DSTYLE
1002
{
1070
   287
1070
     4
1070
   279
1070
     1
1070
   371
1070
    18
1070
   372
1070
    18
1002
}
  0
DIMENSION
  5
139E
  8
寸法
  2
*D13
 10
1193.5936297894721
 20
1062.2909443947319
 30
0.0
 11
1215.12662231633
 21
1034.9007185773
 31
0.0
 70
   128
 13
1233.5936297894721
 23
1173.67545567602
 33
0.0
 14
1193.5936297894721
 24
1173.67545567602
 34
0.0
 50
180.0
1001
ACAD
1000
DSTYLE
1002
{
1070
   287
1070
     5
1070
   279
1070
     2
1070
   371
1070
    18
1070
   372
1070
    18
1002
}
  0
DIMENSION
  5
13AD
  8
寸法
  2
*D14
 10
833.59362978947263
 20
1062.2909443947319
 30
0.0
 11
1013.5936297894719
 21
1081.0409443947319
 31
0.0
 70
     0
 13
1193.5936297894721
 23
1173.67545567602
 33
0.0
 14
833.59362978947263
 24
1173.67545567602
 34
0.0
 50
180.0
1001
ACAD
1000
DSTYLE
1002
{
1070
   287
1070
     4
1070
   279
1070
     1
1070
   371
1070
    18
1070
   372
1070
    18
1002
}
  0
DIMENSION
  5
13BA
  8
寸法
  2
*D15
 10
806.5936297894724
 20
1062.2909443947319
 30
0.0
 11
819.95583994142817
 21
1034.9007185773
 31
0.0
 70
   128
 13
833.59362978947263
 23
1173.67545567602
 33
0.0
 14
806.5936297894724
 24
1173.67545567602
 34
0.0
 50
180.0
1001
ACAD
1000
DSTYLE
1002
{
1070
   287
1070
     5
1070
   279
1070
     2
1070
   371
1070
    18
1070
   372
1070
    18
1002
}
  0
DIMENSION
  5
13C9
  8
寸法
  2
*D16
 10
1928.5936297894721
 20
1062.2909443947319
 30
0.0
 11
1963.4739237624719
 21
1069.138497208834
 31
0.0
 70
   128
 13
1910.5936297894721
 23
1173.67545567602
 33
0.0
 14
1928.5936297894721
 24
1173.67545567602
 34
0.0
 50
0.000000000000007
1001
ACAD
1000
DSTYLE
1002
{
1070
   287
1070
     5
1070
   279
1070
     2
1070
   371
1070
    18
1070
   372
1070
    18
1002
}
  0
LINE
  5
14A3
  8
実形
 10
788.59362978947217
 20
1683.6783319494441
 30
0.0
 11
788.59362978947217
 21
1183.6783319494441
 31
0.0
  0
LINE
  5
14A4
  8
実形
 10
793.59362978947217
 20
1683.6783319494441
 30
0.0
 11
793.59362978947217
 21
1183.6783319494441
 31
0.0
  0
LINE
  5
14A5
  8
実形
 10
806.59362978947206
 20
1221.6783319494441
 30
0.0
 11
806.59362978947206
 21
1645.6783319494441
 31
0.0
  0
LINE
  5
14A6
  8
実形
 10
801.59362978947217
 20
1221.6783319494441
 30
0.0
 11
801.59362978947217
 21
1645.6783319494441
 31
0.0
  0
ARC
  5
14A7
  8
実形
 10
836.59362978947206
 20
1221.6783319494441
 30
0.0
 40
30.0
 50
180.0
 51
270.0
  0
ARC
  5
14A8
  8
実形
 10
836.59362978947206
 20
1221.6783319494441
 30
0.0
 40
35.0
 50
180.0
 51
270.0
  0
LINE
  5
14A9
  8
実形
 10
798.59362978947206
 20
1178.6783319494441
 30
0.0
 11
1918.5936297894721
 21
1178.6783319494441
 31
0.0
  0
ARC
  5
14AA
  8
実形
 10
798.59362978947206
 20
1183.6783319494441
 30
0.0
 40
5.0
 50
180.0
 51
270.0
  0
ARC
  5
14AB
  8
実形
 10
798.59362978947206
 20
1183.6783319494441
 30
0.0
 40
10.0
 50
180.0
 51
270.0
  0
LINE
  5
14AC
  8
実形
 10
1880.5936297894721
 20
1191.6783319494441
 30
0.0
 11
836.59362978947206
 21
1191.6783319494441
 31
0.0
  0
LINE
  5
14AD
  8
実形
 10
1880.5936297894721
 20
1186.6783319494441
 30
0.0
 11
836.59362978947206
 21
1186.6783319494441
 31
0.0
  0
LINE
  5
14AE
  8
実形
 10
836.59362978947206
 20
1680.6783319494441
 30
0.0
 11
1880.5936297894721
 21
1680.6783319494441
 31
0.0
  0
LINE
  5
14AF
  8
実形
 10
1918.5936297894721
 20
1688.6783319494441
 30
0.0
 11
798.59362978947206
 21
1688.6783319494441
 31
0.0
  0
LINE
  5
14B0
  8
実形
 10
1918.5936297894721
 20
1693.6783319494441
 30
0.0
 11
798.59362978947206
 21
1693.6783319494441
 31
0.0
  0
LINE
  5
14B1
  8
実形
 10
836.59362978947206
 20
1675.6783319494441
 30
0.0
 11
1880.5936297894721
 21
1675.6783319494441
 31
0.0
  0
ARC
  5
14B2
  8
実形
 10
1880.5936297894721
 20
1645.6783319494441
 30
0.0
 40
35.0
 50
0.000000000000007
 51
90.0
  0
ARC
  5
14B3
  8
実形
 10
1918.5936297894721
 20
1683.6783319494441
 30
0.0
 40
5.0
 50
0.000000000000007
 51
90.0
  0
ARC
  5
14B4
  8
実形
 10
1918.5936297894721
 20
1683.6783319494441
 30
0.0
 40
10.0
 50
0.000000000000007
 51
90.0
  0
ARC
  5
14B5
  8
実形
 10
1880.5936297894721
 20
1645.6783319494441
 30
0.0
 40
30.0
 50
0.000000000000007
 51
90.0
  0
ARC
  5
14B6
  8
実形
 10
836.59362978947206
 20
1645.6783319494441
 30
0.0
 40
35.0
 50
90.0
 51
180.0
  0
ARC
  5
14B7
  8
実形
 10
798.59362978947206
 20
1683.6783319494441
 30
0.0
 40
5.0
 50
90.0
 51
180.0
  0
ARC
  5
14B8
  8
実形
 10
798.59362978947206
 20
1683.6783319494441
 30
0.0
 40
10.0
 50
90.0
 51
180.0
  0
ARC
  5
14B9
  8
実形
 10
836.59362978947206
 20
1645.6783319494441
 30
0.0
 40
30.0
 50
90.0
 51
180.0
  0
LINE
  5
14BA
  8
実形
 10
1915.5936297894721
 20
1645.6783319494441
 30
0.0
 11
1915.5936297894721
 21
1221.6783319494441
 31
0.0
  0
LINE
  5
14BB
  8
実形
 10
1923.5936297894721
 20
1183.6783319494441
 30
0.0
 11
1923.5936297894721
 21
1683.6783319494441
 31
0.0
  0
LINE
  5
14BC
  8
実形
 10
1928.5936297894721
 20
1183.6783319494441
 30
0.0
 11
1928.5936297894721
 21
1683.6783319494441
 31
0.0
  0
LINE
  5
14BD
  8
実形
 10
1910.5936297894721
 20
1645.6783319494441
 30
0.0
 11
1910.5936297894721
 21
1221.6783319494441
 31
0.0
  0
ARC
  5
14BE
  8
実形
 10
1918.5936297894721
 20
1183.6783319494441
 30
0.0
 40
5.0
 50
270.0
 51
0.000000000000007
  0
ARC
  5
14BF
  8
実形
 10
1918.5936297894721
 20
1183.6783319494441
 30
0.0
 40
10.0
 50
270.0
 51
0.000000000000007
  0
ARC
  5
14C0
  8
実形
 10
1880.5936297894721
 20
1221.6783319494441
 30
0.0
 40
35.0
 50
270.0
 51
0.000000000000007
  0
ARC
  5
14C1
  8
実形
 10
1880.5936297894721
 20
1221.6783319494441
 30
0.0
 40
30.0
 50
270.0
 51
0.000000000000007
  0
LINE
  5
14C2
  8
実形
 10
798.59362978947206
 20
1173.6783319494441
 30
0.0
 11
1918.5936297894721
 21
1173.6783319494441
 31
0.0
  0
LINE
  5
14C4
  8
補助
 10
798.59362978947206
 20
1693.6783319494441
 30
0.0
 11
684.31641227581065
 21
1693.6454626970681
 31
0.0
  0
LINE
  5
14C5
  8
補助
 10
788.59362978947217
 20
1683.6783319494441
 30
0.0
 11
788.59362978947217
 21
1755.604206163142
 31
0.0
  0
LINE
  5
14C6
  8
補助
 10
1158.5936297894721
 20
1772.4117417374
 30
0.0
 11
1158.5936297894721
 21
390.4813515458975
 31
0.0
  0
LINE
  5
14C7
  8
補助
 10
1703.5936297894721
 20
1772.4117417374
 30
0.0
 11
1703.5936297894721
 21
390.4813515458975
 31
0.0
  0
ARC
  5
1547
  8
実形
 10
1558.593629789473
 20
-446.32454432397998
 30
0.0
 40
2100.0
 50
83.91660636496762
 51
96.083393635032365
  0
ARC
  5
1548
  8
実形
 10
1558.593629789473
 20
3313.6754556760188
 30
0.0
 40
2100.0
 50
263.91660636496761
 51
276.08339363503251
  0
LINE
  5
1549
  8
センタ_
 10
1233.5936297894721
 20
1433.67545567602
 30
0.0
 11
1533.593629789473
 21
1433.67545567602
 31
0.0
  0
CIRCLE
  5
154A
  8
実形
 10
1383.593629789473
 20
1433.67545567602
 30
0.0
 40
90.5
  0
CIRCLE
  5
154B
  8
実形
 10
1383.593629789473
 20
1433.67545567602
 30
0.0
 40
80.0
  0
ARC
  5
154D
  8
実形
 10
2533.5936297894732
 20
1433.67545567602
 30
0.0
 40
1300.0
 50
175.23782731574789
 51
184.76217268425199
  0
LINE
  5
154E
  8
センタ_
 10
1383.593629789473
 20
1583.67545567602
 30
0.0
 11
1383.593629789473
 21
1283.6754556760191
 31
0.0
  0
ARC
  5
1550
  8
実形
 10
1347.701644116233
 20
1334.8817397018661
 30
0.0
 40
110.0
 50
184.76217268425199
 51
263.91660636496761
  0
ARC
  5
1552
  8
実形
 10
1347.701644116233
 20
1532.4691716501729
 30
0.0
 40
110.0
 50
96.083393635032365
 51
175.23782731574789
  0
ARC
  5
1554
  8
実形
 10
583.59362978947274
 20
1433.67545567602
 30
0.0
 40
1300.0
 50
355.23782731574812
 51
4.762172684252044
  0
ARC
  5
1559
  8
実形
 10
1769.4856154627121
 20
1334.8817397018661
 30
0.0
 40
110.0
 50
276.08339363503251
 51
355.23782731574812
  0
ARC
  5
155E
  8
実形
 10
1769.4856154627121
 20
1532.4691716501729
 30
0.0
 40
110.0
 50
4.762172684252044
 51
83.91660636496762
  0
DIMENSION
  5
1560
  8
寸法
  2
*D18
 10
788.59362978947217
 20
1858.9351173836019
 30
0.0
 11
1086.0936297894721
 21
1877.6851173836019
 31
0.0
 70
     0
 13
1383.593629789473
 23
1513.6754556760191
 33
0.0
 14
788.59362978947217
 24
1653.67545567602
 34
0.0
 50
0.000000000000007
1001
ACAD
1000
DSTYLE
1002
{
1070
   371
1070
    18
1002
}
  0
LINE
  5
1561
  8
実形
 10
1218.593629789473
 20
773.67545567601974
 30
0.0
 11
1898.593629789473
 21
773.67545567601974
 31
0.0
  0
DIMENSION
  5
1562
  8
寸法
  2
*D19
 10
1474.093629789473
 20
407.03864980601782
 30
0.0
 11
1383.593629789473
 21
407.03864980601782
 31
0.0
 70
   128
 13
1293.093629789473
 23
564.67545567601974
 33
0.0
 14
1474.093629789473
 24
564.67545567601974
 34
0.0
 50
0.000000000000007
1001
ACAD
1000
DSTYLE
1002
{
1070
   371
1070
    18
1002
}
  0
DIMENSION
  5
1563
  8
寸法
  2
*D20
 10
1463.593629789473
 20
448.24804837494679
 30
0.0
 11
1383.593629789473
 21
466.99804837494679
 31
0.0
 70
     0
 13
1303.593629789473
 23
564.67545567601974
 33
0.0
 14
1463.593629789473
 24
564.67545567601974
 34
0.0
 50
0.000000000000007
1001
ACAD
1000
DSTYLE
1002
{
1070
   371
1070
    18
1002
}
  0
LINE
  5
1564
  8
実形
 10
1293.093629789473
 20
564.67545567601974
 30
0.0
 11
1474.093629789473
 21
564.67545567601974
 31
0.0
  0
LINE
  5
1565
  8
実形
 10
1293.093629789473
 20
574.67545567601974
 30
0.0
 11
1463.593629789473
 21
574.67545567601974
 31
0.0
  0
LINE
  5
1566
  8
実形
 10
1218.593629789473
 20
773.67545567601974
 30
0.0
 11
1898.593629789473
 21
773.67545567601974
 31
0.0
  0
ARC
  5
1567
  8
実形
 10
1263.593629789473
 20
613.05106893514369
 30
0.0
 40
30.0
 50
180.0
 51
255.8505239136565
  0
LINE
  5
1568
  8
センタ_
 10
1383.593629789473
 20
652.8920795514332
 30
0.0
 11
1383.593629789473
 21
496.47625924413302
 31
0.0
  0
LINE
  5
1569
  8
実形
 10
1256.2600570296911
 20
583.96123032134267
 30
0.0
 11
1293.093629789473
 21
574.67545567601974
 31
0.0
  0
LINE
  5
156A
  8
実形
 10
1293.093629789473
 20
574.67545567601974
 30
0.0
 11
1293.093629789473
 21
564.67545567601974
 31
0.0
  0
LINE
  5
156B
  8
実形
 10
1233.593629789473
 20
763.67545567601974
 30
0.0
 11
1233.593629789473
 21
613.05106893514369
 31
0.0
  0
ARC
  5
156C
  8
実形
 10
1853.593629789473
 20
618.59667422420148
 30
0.0
 40
30.0
 50
272.09780858619422
 51
0.000000000000007
  0
INSERT
  5
156D
  8
寸法
  2
*U35
 10
0.0
 20
0.0
 30
0.0
1001
ACAD
1000
DSTYLE
1002
{
1070
    41
1040
25.0
1070
   147
1040
6.25
1070
    77
1070
     0
1070
    73
1070
     1
1070
    74
1070
     1
1070
   279
1070
     1
1070
   342
1005
DA
1002
}
  0
DIMENSION
  5
156E
  8
寸法
  2
*D21
 10
675.96125496688308
 20
574.67545567601974
 30
0.0
 11
657.21125496688308
 21
674.17545567601985
 31
0.0
 70
     0
 13
833.59362978947172
 23
773.67545567601974
 33
0.0
 14
833.59362978947172
 24
574.67545567601974
 34
0.0
 50
90.0
1001
ACAD
1000
DSTYLE
1002
{
1070
   371
1070
    18
1002
}
  0
LINE
  5
156F
  8
実形
 10
1854.691794398894
 20
588.61678038698744
 30
0.0
 11
1474.093629789473
 21
574.67545567601974
 31
0.0
  0
LINE
  5
1570
  8
実形
 10
1474.093629789473
 20
564.67545567601974
 30
0.0
 11
1474.093629789473
 21
574.67545567601974
 31
0.0
  0
LINE
  5
1571
  8
実形
 10
1474.093629789473
 20
574.67545567601974
 30
0.0
 11
1474.093629789473
 21
574.67545567601974
 31
0.0
  0
LINE
  5
1572
  8
実形
 10
1463.593629789473
 20
574.67545567601974
 30
0.0
 11
1474.093629789473
 21
574.67545567601974
 31
0.0
  0
TEXT
  5
1573
  8
寸法
 10
736.26259828806508
 20
515.36957247278497
 30
0.0
 40
25.0
  1
15
 50
90.0
  0
DIMENSION
  5
1574
  8
寸法
  2
*D22
 10
714.70187930176473
 20
574.67545567601974
 30
0.0
 11
714.70187930176451
 21
582.17545567601996
 31
0.0
 70
     0
  1
 
 13
833.59362978947172
 23
589.67545567601974
 33
0.0
 14
833.59362978947172
 24
574.67545567601974
 34
0.0
 50
90.0
1001
ACAD
1000
DSTYLE
1002
{
1070
   371
1070
    18
1002
}
  0
LINE
  5
1575
  8
実形
 10
1883.593629789473
 20
763.67545567601974
 30
0.0
 11
1883.593629789473
 21
618.59667422420148
 31
0.0
  0
TEXT
  5
1576
  8
寸法
 10
908.50830588925203
 20
633.95023463707923
 30
0.0
 40
25.0
  1
30R
  0
LINE
  5
15F3
  8
補助
 10
1158.5936297894721
 20
1213.67545567602
 30
0.0
 11
1158.5936297894721
 21
1732.6680447168719
 31
0.0
  0
LINE
  5
179B
  8
実形
 10
833.59362978947217
 20
617.42311913671483
 30
0.0
 11
833.59362978947217
 21
763.67545567601974
 31
0.0
  0
LINE
  5
179C
  8
実形
 10
1193.5936297894721
 20
763.67545567601974
 30
0.0
 11
1193.5936297894721
 21
612.24482289386924
 31
0.0
  0
TEXT
  5
179E
  8
寸法
 10
1741.3322321083431
 20
637.79310545022327
 30
0.0
 40
25.0
  1
30R
  0
LINE
  5
179F
  8
実形
 10
1025.5936297894721
 20
574.67545567601974
 30
0.0
 11
861.25699977068507
 21
587.51425489623762
 31
0.0
  0
ARC
  5
17A0
  8
実形
 10
1163.5936297894721
 20
612.24482289386924
 30
0.0
 40
30.0
 50
286.09081634885388
 51
0.000000000000007
  0
LINE
  5
17A1
  8
実形
 10
1025.5936297894721
 20
574.67545567601974
 30
0.0
 11
1141.5936297894721
 21
574.67545567601974
 31
0.0
  0
LINE
  5
17A2
  8
実形
 10
1025.5936297894721
 20
564.67545567601974
 30
0.0
 11
1025.5936297894721
 21
574.67545567601974
 31
0.0
  0
LINE
  5
17A3
  8
実形
 10
1141.5936297894721
 20
564.67545567601974
 30
0.0
 11
1025.5936297894721
 21
564.67545567601974
 31
0.0
  0
LINE
  5
17A4
  8
実形
 10
1141.5936297894721
 20
574.67545567601974
 30
0.0
 11
1141.5936297894721
 21
564.67545567601974
 31
0.0
  0
LINE
  5
17A5
  8
実形
 10
1171.9084493285379
 20
583.42011515844251
 30
0.0
 11
1141.5936297894721
 21
574.67545567601974
 31
0.0
  0
DIMENSION
  5
17A6
  8
寸法
  2
*D23
 10
1025.5936297894721
 20
407.03864980601782
 30
0.0
 11
1083.5936297894721
 21
407.03864980601782
 31
0.0
 70
   128
 13
1141.5936297894721
 23
564.67545567601974
 33
0.0
 14
1025.5936297894721
 24
564.67545567601974
 34
0.0
 50
180.0
1001
ACAD
1000
DSTYLE
1002
{
1070
   371
1070
    18
1002
}
  0
DIMENSION
  5
17A7
  8
寸法
  2
*D24
 10
1039.5936297894721
 20
448.24804837494679
 30
0.0
 11
1083.5936297894721
 21
466.99804837494679
 31
0.0
 70
     0
 13
1127.5936297894721
 23
564.67545567601974
 33
0.0
 14
1039.5936297894721
 24
564.67545567601974
 34
0.0
 50
180.0
1001
ACAD
1000
DSTYLE
1002
{
1070
   371
1070
    18
1002
}
  0
LINE
  5
17A8
  8
センタ_
 10
1083.5936297894721
 20
652.8920795514332
 30
0.0
 11
1083.5936297894721
 21
496.47625924413302
 31
0.0
  0
ARC
  5
17A9
  8
実形
 10
863.59362978947206
 20
617.42311913671483
 30
0.0
 40
30.0
 50
180.0
 51
265.532840938606
  0
INSERT
  5
17AA
  8
寸法
  2
*U36
 10
0.0
 20
0.0
 30
0.0
1001
ACAD
1000
DSTYLE
1002
{
1070
    41
1040
25.0
1070
   147
1040
6.25
1070
    77
1070
     0
1070
    73
1070
     1
1070
    74
1070
     1
1070
   279
1070
     1
1070
   342
1005
DA
1002
}
  0
ARC
  5
17AF
  8
実形
 10
2133.5936297894718
 20
1433.67545567602
 30
0.0
 40
1300.0
 50
174.99476510883699
 51
185.00523489116301
  0
ARC
  5
17B0
  8
実形
 10
-106.4063702105277
 20
1433.67545567602
 30
0.0
 40
1300.0
 50
354.9947651088371
 51
5.0052348911629601
  0
DIMENSION
  5
17B2
  8
寸法
  2
*D25
 10
2035.3303338538849
 20
1173.67545567602
 30
0.0
 11
2016.5803338538849
 21
1303.67545567602
 31
0.0
 70
     0
 13
1703.5936297894721
 23
1433.67545567602
 33
0.0
 14
1883.5936297894721
 24
1173.67545567602
 34
0.0
 50
90.0
1001
ACAD
1000
DSTYLE
1002
{
1070
   371
1070
    18
1002
}
  0
DIMENSION
  5
17B3
  8
寸法
  2
*D26
 10
788.59362978947217
 20
1791.1585473092521
 30
0.0
 11
936.0936297894724
 21
1809.9085473092521
 31
0.0
 70
     0
 13
1083.5936297894721
 23
1491.67545567602
 33
0.0
 14
788.59362978947217
 24
1653.67545567602
 34
0.0
 50
180.0
1001
ACAD
1000
DSTYLE
1002
{
1070
   371
1070
    18
1002
}
  0
LINE
  5
17B4
  8
センタ_
 10
1083.5936297894721
 20
1583.6754556760191
 30
0.0
 11
1083.5936297894721
 21
1283.67545567602
 31
0.0
  0
CIRCLE
  5
17B5
  8
実形
 10
1083.5936297894721
 20
1433.67545567602
 30
0.0
 40
58.0
  0
CIRCLE
  5
17B6
  8
実形
 10
1083.5936297894721
 20
1433.67545567602
 30
0.0
 40
44.0
  0
LINE
  5
17BC
  8
実形
 10
818.59362978947217
 20
773.67545567601974
 30
0.0
 11
1208.5936297894721
 21
773.67545567601974
 31
0.0
  0
LINE
  5
17BD
  8
実形
 10
1208.5936297894721
 20
773.67545567601974
 30
0.0
 11
818.59362978947217
 21
773.67545567601974
 31
0.0
  0
LINE
  5
17BE
  8
実形
 10
1208.5936297894721
 20
773.67545567601974
 30
0.0
 11
818.59362978947217
 21
773.67545567601974
 31
0.0
  0
ARC
  5
17C0
  8
実形
 10
1013.5936297894719
 20
1673.67545567602
 30
0.0
 40
460.0
 50
259.22020619866788
 51
280.77979380133212
  0
LINE
  5
17C2
  8
センタ_
 10
1233.5936297894721
 20
1433.67545567602
 30
0.0
 11
933.59362978947286
 21
1433.67545567602
 31
0.0
  0
ARC
  5
17C4
  8
実形
 10
1079.0558395064591
 20
1329.8518103300819
 30
0.0
 40
110.0
 50
280.77979380133212
 51
354.9947651088371
  0
ARC
  5
17C8
  8
実形
 10
948.13142007248507
 20
1329.8518103300819
 30
0.0
 40
110.0
 50
185.00523489116301
 51
259.22020619866788
  0
ARC
  5
17CB
  8
実形
 10
1013.5936297894719
 20
1193.67545567602
 30
0.0
 40
460.0
 50
79.220206198667995
 51
100.779793801332
  0
ARC
  5
17CE
  8
実形
 10
1079.0558395064591
 20
1537.4991010219569
 30
0.0
 40
110.0
 50
5.0052348911629601
 51
79.220206198667995
  0
ARC
  5
17D0
  8
実形
 10
948.13142007248507
 20
1537.4991010219569
 30
0.0
 40
110.0
 50
100.779793801332
 51
174.99476510883699
  0
LINE
  5
189F
  8
補助
 10
1703.5936297894721
 20
1653.67545567602
 30
0.0
 11
1703.5936297894721
 21
1173.0239458873459
 31
0.0
  0
LINE
  5
1961
  8
補助
 10
589.72975319087163
 20
574.67545567601974
 30
0.0
 11
2000.0326041243429
 21
574.67545567601974
 31
0.0
  0
LINE
  5
1C45
  8
実形
 10
801.59362978947217
 20
763.67545567601974
 30
0.0
 11
1915.5936297894721
 21
763.67545567601974
 31
0.0
  0
LINE
  5
1C46
  8
実形
 10
793.59362978947217
 20
778.67545567601974
 30
0.0
 11
1923.5936297894721
 21
778.67545567601974
 31
0.0
  0
LINE
  5
1C47
  8
実形
 10
788.59362978947217
 20
773.67545567601974
 30
0.0
 11
1928.5936297894721
 21
773.67545567601974
 31
0.0
  0
LINE
  5
1C48
  8
実形
 10
1913.5936297894721
 20
773.67545567601974
 30
0.0
 11
803.59362978947206
 21
773.67545567601974
 31
0.0
  0
LINE
  5
1C49
  8
実形
 10
1913.5936297894721
 20
773.67545567601974
 30
0.0
 11
803.59362978947206
 21
773.67545567601974
 31
0.0
  0
LINE
  5
1C4A
  8
実形
 10
1915.5936297894721
 20
763.67545567601974
 30
0.0
 11
1915.5936297894721
 21
773.67545567601974
 31
0.0
  0
LINE
  5
1C4B
  8
実形
 10
1923.5936297894721
 20
778.67545567601974
 30
0.0
 11
1928.5936297894721
 21
773.67545567601974
 31
0.0
  0
LINE
  5
1C4C
  8
実形
 10
801.59362978947217
 20
773.67545567601974
 30
0.0
 11
801.59362978947217
 21
763.67545567601974
 31
0.0
  0
LINE
  5
1C4D
  8
実形
 10
793.59362978947217
 20
778.67545567601974
 30
0.0
 11
788.59362978947217
 21
773.67545567601974
 31
0.0
  0
LINE
  5
1D1D
  8
センタ_
 10
1533.593629789473
 20
1433.67545567602
 30
0.0
 11
1768.5936297894721
 21
1433.67545567602
 31
0.0
  0
LINE
  5
1D5D
  8
0
 10
2084.0
 20
184.0
 30
0.0
 11
2784.0
 21
184.0
 31
0.0
  0
LINE
  5
1D5E
  8
0
 10
2084.0
 20
249.0
 30
0.0
 11
2784.0
 21
249.0
 31
0.0
  0
LINE
  5
1D5F
  8
0
 10
2084.0
 20
119.0
 30
0.0
 11
2784.0
 21
119.0
 31
0.0
  0
TEXT
  5
1D60
  8
実形
 10
2106.666666666667
 20
199.0
 30
0.0
 40
35.0
  1
品番
 72
     4
 11
2144.0
 21
216.5
 31
0.0
  0
TEXT
  5
1D61
  8
実形
 10
2106.666666666667
 20
134.0
 30
0.0
 40
35.0
  1
尺度
 72
     4
 11
2144.0
 21
151.5
 31
0.0
  0
LINE
  5
1D62
  8
0
 10
2084.0
 20
54.0
 30
0.0
 11
2084.0
 21
249.0
 31
0.0
  0
LINE
  5
1D63
  8
0
 10
2204.0
 20
119.0
 30
0.0
 11
2784.0
 21
119.0
 31
0.0
  0
LINE
  5
1D66
  8
0
 10
2204.0
 20
119.0
 30
0.0
 11
2204.0
 21
249.0
 31
0.0
  0
TEXT
  5
1D75
  8
0
 10
2440.9166666666661
 20
134.0
 30
0.0
 40
35.0
  1
1：10
 72
     4
 11
2494.0
 21
151.5
 31
0.0
  0
LINE
  5
1D76
  8
0
 10
2784.0
 20
54.0
 30
0.0
 11
2784.0
 21
119.0
 31
0.0
  0
LINE
  5
1D77
  8
0
 10
2784.0
 20
184.0
 30
0.0
 11
2784.0
 21
249.0
 31
0.0
  0
LINE
  5
1D78
  8
CEN
 10
2784.0
 20
119.0
 30
0.0
 11
2784.0
 21
184.0
 31
0.0
  0
LINE
  5
1D89
  8
実形
 10
2784.0
 20
1974.0
 30
0.0
 11
2784.0000000000018
 21
1779.0
 31
0.0
  0
LINE
  5
1D8A
  8
0
 10
2784.0
 20
1779.0
 30
0.0
 11
2784.0
 21
1974.0
 31
0.0
  0
LINE
  5
1D8E
  8
補助
 10
2559.0
 20
2024.0
 30
0.0
 11
2254.0
 21
1959.0
 31
0.0
  0
LINE
  5
1D8F
  8
補助
 10
2254.0
 20
1959.0
 30
0.0
 11
2559.0
 21
1894.0
 31
0.0
  0
LINE
  5
1D90
  8
補助
 10
2559.0
 20
1894.0
 30
0.0
 11
2254.0
 21
1829.0
 31
0.0
  0
LINE
  5
1D91
  8
補助
 10
2254.0
 20
1829.0
 30
0.0
 11
2254.0
 21
1894.0
 31
0.0
  0
LINE
  5
1D92
  8
補助
 10
2254.0
 20
1894.0
 30
0.0
 11
2559.0
 21
1829.0
 31
0.0
  0
LINE
  5
1D93
  8
補助
 10
2254.0
 20
2024.0
 30
0.0
 11
2559.0
 21
1959.0
 31
0.0
  0
LINE
  5
1D94
  8
補助
 10
2559.0
 20
1959.0
 30
0.0
 11
2254.0
 21
1894.0
 31
0.0
  0
LINE
  5
1D96
  8
補助
 10
2204.0
 20
199.0
 30
0.0
 11
2784.0
 21
134.0
 31
0.0
  0
LINE
  5
1D97
  8
補助
 10
2784.0
 20
134.0
 30
0.0
 11
2204.0
 21
69.0
 31
0.0
  0
LINE
  5
1D98
  8
補助
 10
2784.0
 20
199.0
 30
0.0
 11
2204.0
 21
134.0
 31
0.0
  0
LINE
  5
1D99
  8
補助
 10
2204.0
 20
134.0
 30
0.0
 11
2784.0
 21
69.0
 31
0.0
  0
INSERT
  5
1DC7
  8
寸法
  2
*U48
 10
0.0
 20
0.0
 30
0.0
  0
TEXT
  5
1E37
  8
0
 10
2271.8574044843381
 20
200.00908872537411
 30
0.0
 40
35.0
  1
A1m/m1140-520W
 72
     4
 11
2493.5240711510041
 21
217.50908872537411
 31
0.0
  0
LINE
  5
1EA6
  8
補助
 10
790.78112978947252
 20
982.40279425448443
 30
0.0
 11
1930.7811297894721
 21
982.40279425448443
 31
0.0
  0
DIMENSION
  5
1EA7
  8
補助
  2
*D30
 10
1930.7811297894721
 20
955.94794471454225
 30
0.0
 11
1358.5936297894721
 21
974.69794471454225
 31
0.0
 70
     0
 13
786.40612978947206
 23
1062.2909443947319
 33
0.0
 14
1930.7811297894721
 24
1062.2909443947319
 34
0.0
1001
ACAD
1000
DSTYLE
1002
{
1070
   371
1070
    18
1070
   372
1070
    18
1002
}
  0
DIMENSION
  5
1EB4
  8
補助
  2
*D31
 10
1930.7811297894721
 20
981.33753940242605
 30
0.0
 11
1359.6873797894721
 21
1000.087539402426
 31
0.0
 70
     0
 13
788.59362978947217
 23
1062.2909443947319
 33
0.0
 14
1930.7811297894721
 24
1062.2909443947319
 34
0.0
1001
ACAD
1000
DSTYLE
1002
{
1070
   371
1070
    18
1070
   372
1070
    18
1002
}
  0
DIMENSION
  5
1F35
  8
寸法
  2
*D33
 10
1928.5936297894721
 20
980.89673094180762
 30
0.0
 11
1358.5936297894721
 21
999.64673094180762
 31
0.0
 70
     0
 13
788.59362978947217
 23
1064.4784443947319
 33
0.0
 14
1928.5936297894721
 24
1064.4784443947319
 34
0.0
1001
ACAD
1000
DSTYLE
1002
{
1070
   371
1070
    18
1070
   372
1070
    18
1002
}
  0
LINE
  5
1F53
  8
0
 10
2784.0
 20
1909.0
 30
0.0
 11
2064.0
 21
1909.0
 31
0.0
  0
LINE
  5
1F54
  8
0
 10
2784.0
 20
1844.0
 30
0.0
 11
2064.0
 21
1844.0
 31
0.0
  0
LINE
  5
1F55
  8
0
 10
2064.0
 20
1844.0
 30
0.0
 11
2064.0
 21
1974.0
 31
0.0
  0
TEXT
  5
1F56
  8
実形
 10
2567.166666666667
 20
1924.0
 30
0.0
 40
35.0
  1
素材寸法
 72
     4
 11
2646.5
 21
1941.5
 31
0.0
  0
TEXT
  5
1F57
  8
実形
 10
2578.25
 20
1859.0
 30
0.0
 40
35.0
  1
1.0ｍｍ
 72
     4
 11
2646.5
 21
1876.5
 31
0.0
  0
TEXT
  5
1F58
  8
実形
 10
2275.25
 20
1859.0
 30
0.0
 40
35.0
  1
SUS304
 72
     4
 11
2371.5
 21
1876.5
 31
0.0
  0
LINE
  5
1F59
  8
0
 10
2234.0
 20
1844.0
 30
0.0
 11
2234.0
 21
1974.0
 31
0.0
  0
TEXT
  5
1F5A
  8
実形
 10
2089.5
 20
1857.833333333333
 30
0.0
 40
35.0
  1
ボール
 72
     4
 11
2149.0
 21
1876.5
 31
0.0
  0
LINE
  5
1F5B
  8
0
 10
2509.0
 20
1844.0
 30
0.0
 11
2509.0
 21
1974.0
 31
0.0
  0
TEXT
  5
1F5C
  8
実形
 10
2334.1666666666661
 20
1924.0
 30
0.0
 40
35.0
  1
材質
 72
     4
 11
2371.5
 21
1941.5
 31
0.0
  0
TEXT
  5
1F5D
  8
実形
 10
2091.8333333333339
 20
1924.0
 30
0.0
 40
35.0
  1
部品名
 72
     4
 11
2149.0
 21
1941.5
 31
0.0
  0
VIEWPORT
  5
2E
 67
     1
  8
0
 10
144.7270812988281
 20
101.2295806407928
 30
0.0
 40
411.67362166824188
 41
222.15178063964851
 68
     1
 69
     1
1001
ACAD
1000
MVIEW
1002
{
1070
    16
1010
0.0
1020
0.0
1030
0.0
1010
0.0
1020
0.0
1030
1.0
1040
0.0
1040
222.15178063964851
1040
144.7270812988281
1040
101.2295806407928
1040
50.0
1040
0.0
1040
0.0
1070
     0
1070
   100
1070
     1
1070
     1
1070
     0
1070
     0
1070
     0
1070
     0
1040
0.0
1040
0.0
1040
0.0
1040
10.0
1040
10.0
1040
10.0
1040
10.0
1070
     0
1002
{
1002
}
1002
}
  0
VIEWPORT
  5
30
 67
     1
  8
0
 10
139.22375631332389
 20
101.2295821905136
 30
0.0
 40
222.7580101013184
 41
161.9673315048218
 68
     2
 69
     2
1001
ACAD
1000
MVIEW
1002
{
1070
    16
1010
0.0
1020
0.0
1030
0.0
1010
0.0
1020
0.0
1030
1.0
1040
0.0
1040
309.06867056471242
1040
210.0
1040
148.5
1040
50.0
1040
0.0
1040
0.0
1070
     0
1070
   100
1070
     1
1070
     3
1070
     0
1070
     0
1070
     0
1070
     0
1040
0.0
1040
0.0
1040
0.0
1040
10.0
1040
10.0
1040
10.0
1040
10.0
1070
     0
1002
{
1002
}
1002
}
  0
ENDSEC
  0
EOF
