  0
SECTION
  2
HEADER
  9
$ACADVER
  1
AC1009
  9
$INSBASE
 10
0.0
 20
0.0
 30
0.0
  9
$EXTMIN
 10
3.6255574361712202
 20
53.833056769610259
 30
-0.0000000349181948
  9
$EXTMAX
 10
2786.1877819595252
 20
1976.4404564356009
 30
0.0000000814935746
  9
$LIMMIN
 10
0.0
 20
0.0
  9
$LIMMAX
 10
29700.0
 20
21000.0
  9
$ORTHOMODE
 70
     1
  9
$REGENMODE
 70
     1
  9
$FILLMODE
 70
     1
  9
$QTEXTMODE
 70
     0
  9
$MIRRTEXT
 70
     1
  9
$DRAGMODE
 70
     2
  9
$LTSCALE
 40
4.0
  9
$OSMODE
 70
    37
  9
$ATTMODE
 70
     1
  9
$TEXTSIZE
 40
25.0
  9
$TRACEWID
 40
1.0
  9
$TEXTSTYLE
  7
STANDARD
  9
$CLAYER
  8
実形
  9
$CELTYPE
  6
BYLAYER
  9
$CECOLOR
 62
   256
  9
$DIMSCALE
 40
1.0
  9
$DIMASZ
 40
35.0
  9
$DIMEXO
 40
65.0
  9
$DIMDLI
 40
3.75
  9
$DIMRND
 40
0.0
  9
$DIMDLE
 40
0.0
  9
$DIMEXE
 40
0.0
  9
$DIMTP
 40
0.0
  9
$DIMTM
 40
0.0
  9
$DIMTXT
 40
25.0
  9
$DIMCEN
 40
2.5
  9
$DIMTSZ
 40
0.0
  9
$DIMTOL
 70
     0
  9
$DIMLIM
 70
     0
  9
$DIMTIH
 70
     0
  9
$DIMTOH
 70
     0
  9
$DIMSE1
 70
     0
  9
$DIMSE2
 70
     0
  9
$DIMTAD
 70
     1
  9
$DIMZIN
 70
     8
  9
$DIMBLK
  1
DOTSMALL
  9
$DIMASO
 70
     1
  9
$DIMSHO
 70
     1
  9
$DIMPOST
  1

  9
$DIMAPOST
  1

  9
$DIMALT
 70
     0
  9
$DIMALTD
 70
     3
  9
$DIMALTF
 40
0.03937007874016
  9
$DIMLFAC
 40
1.0
  9
$DIMTOFL
 70
     1
  9
$DIMTVP
 40
0.0
  9
$DIMTIX
 70
     0
  9
$DIMSOXD
 70
     0
  9
$DIMSAH
 70
     0
  9
$DIMBLK1
  1

  9
$DIMBLK2
  1

  9
$DIMSTYLE
  2
ISO-25
  9
$DIMCLRD
 70
     0
  9
$DIMCLRE
 70
     0
  9
$DIMCLRT
 70
     0
  9
$DIMTFAC
 40
1.0
  9
$DIMGAP
 40
6.25
  9
$LUNITS
 70
     2
  9
$LUPREC
 70
     2
  9
$SKETCHINC
 40
1.0
  9
$FILLETRAD
 40
80.0
  9
$AUNITS
 70
     0
  9
$AUPREC
 70
     0
  9
$MENU
  1
.
  9
$ELEVATION
 40
0.0
  9
$PELEVATION
 40
0.0
  9
$THICKNESS
 40
0.0
  9
$LIMCHECK
 70
     1
  9
$BLIPMODE
 70
     0
  9
$CHAMFERA
 40
10.0
  9
$CHAMFERB
 40
10.0
  9
$SKPOLY
 70
     0
  9
$TDCREATE
 40
2451673.5758021991
  9
$TDUPDATE
 40
2454203.6016972219
  9
$TDINDWG
 40
0.6519313194
  9
$TDUSRTIMER
 40
0.6519255556
  9
$USRTIMER
 70
     1
  9
$ANGBASE
 50
0.0
  9
$ANGDIR
 70
     0
  9
$PDMODE
 70
     3
  9
$PDSIZE
 40
0.0
  9
$PLINEWID
 40
0.0
  9
$COORDS
 70
     0
  9
$SPLFRAME
 70
     0
  9
$SPLINETYPE
 70
     6
  9
$SPLINESEGS
 70
     8
  9
$ATTDIA
 70
     0
  9
$ATTREQ
 70
     1
  9
$HANDLING
 70
     1
  9
$HANDSEED
  5
203A
  9
$SURFTAB1
 70
     6
  9
$SURFTAB2
 70
     6
  9
$SURFTYPE
 70
     6
  9
$SURFU
 70
     6
  9
$SURFV
 70
     6
  9
$UCSNAME
  2

  9
$UCSORG
 10
0.0
 20
0.0
 30
0.0
  9
$UCSXDIR
 10
1.0
 20
0.0
 30
0.0
  9
$UCSYDIR
 10
0.0
 20
1.0
 30
0.0
  9
$PUCSNAME
  2

  9
$PUCSORG
 10
0.0
 20
0.0
 30
0.0
  9
$PUCSXDIR
 10
1.0
 20
0.0
 30
0.0
  9
$PUCSYDIR
 10
0.0
 20
1.0
 30
0.0
  9
$USERI1
 70
     0
  9
$USERI2
 70
     0
  9
$USERI3
 70
     0
  9
$USERI4
 70
     0
  9
$USERI5
 70
     0
  9
$USERR1
 40
0.0
  9
$USERR2
 40
0.0
  9
$USERR3
 40
0.0
  9
$USERR4
 40
0.0
  9
$USERR5
 40
0.0
  9
$WORLDVIEW
 70
     1
  9
$SHADEDGE
 70
     3
  9
$SHADEDIF
 70
    70
  9
$TILEMODE
 70
     1
  9
$MAXACTVP
 70
    64
  9
$PLIMCHECK
 70
     0
  9
$PEXTMIN
 10
27.844751262664801
 20
20.245916438102711
 30
0.0
  9
$PEXTMAX
 10
250.60276136398309
 20
182.21324794292451
 30
0.0
  9
$PLIMMIN
 10
-3.757080078125
 20
-3.7570831775665279
  9
$PLIMMAX
 10
293.21124267578131
 20
206.21624445915219
  9
$UNITMODE
 70
     0
  9
$VISRETAIN
 70
     1
  9
$PLINEGEN
 70
     0
  9
$PSLTSCALE
 70
     1
  0
ENDSEC
  0
SECTION
  2
TABLES
  0
TABLE
  2
VPORT
 70
     4
  0
VPORT
  2
*ACTIVE
 70
     0
 10
0.0
 20
0.0
 11
1.0
 21
1.0
 12
1394.906669697848
 22
1015.136756602605
 13
0.0
 23
0.0
 14
10.0
 24
10.0
 15
10.0
 25
10.0
 16
0.0
 26
0.0
 36
1.0
 17
0.0
 27
0.0
 37
0.0
 40
2127.0820571520521
 41
1.316069057104913
 42
50.0
 43
0.0
 44
0.0
 50
0.0
 51
0.0
 71
     0
 72
   100
 73
     1
 74
     3
 75
     0
 76
     0
 77
     0
 78
     0
  0
ENDTAB
  0
TABLE
  2
LTYPE
 70
    46
  0
LTYPE
  2
CONTINUOUS
 70
     0
  3
Solid line
 72
    65
 73
     0
 40
0.0
  0
LTYPE
  2
ACAD_ISO02W100
 70
     0
  3
ISO dash __ __ __ __ __ __ __ __ __ __ __ __ __
 72
    65
 73
     2
 40
15.0
 49
12.0
 49
-3.0
  0
LTYPE
  2
ACAD_ISO03W100
 70
     0
  3
ISO dash space __    __    __    __    __    __
 72
    65
 73
     2
 40
30.0
 49
12.0
 49
-18.0
  0
LTYPE
  2
ACAD_ISO04W100
 70
     0
  3
ISO long-dash dot ____ . ____ . ____ . ____ . _
 72
    65
 73
     4
 40
30.0
 49
24.0
 49
-3.0
 49
0.0
 49
-3.0
  0
LTYPE
  2
ACAD_ISO05W100
 70
     0
  3
ISO long-dash double-dot ____ .. ____ .. ____ .
 72
    65
 73
     6
 40
34.0
 49
24.0
 49
-3.0
 49
0.5
 49
-3.0
 49
0.5
 49
-3.0
  0
LTYPE
  2
ACAD_ISO06W100
 70
     0
  3
ISO long-dash triple-dot ____ ... ____ ... ____
 72
    65
 73
     8
 40
37.5
 49
24.0
 49
-3.0
 49
0.5
 49
-3.0
 49
0.5
 49
-3.0
 49
0.5
 49
-3.0
  0
LTYPE
  2
ACAD_ISO07W100
 70
     0
  3
ISO dot . . . . . . . . . . . . . . . . . . . .
 72
    65
 73
     2
 40
3.0
 49
0.0
 49
-3.0
  0
LTYPE
  2
ACAD_ISO08W100
 70
     0
  3
ISO long-dash short-dash ____ __ ____ __ ____ _
 72
    65
 73
     4
 40
36.0
 49
24.0
 49
-3.0
 49
6.0
 49
-3.0
  0
LTYPE
  2
ACAD_ISO09W100
 70
     0
  3
ISO long-dash double-short-dash ____ __ __ ____
 72
    65
 73
     6
 40
45.0
 49
24.0
 49
-3.0
 49
6.0
 49
-3.0
 49
6.0
 49
-3.0
  0
LTYPE
  2
ACAD_ISO10W100
 70
     0
  3
ISO dash dot __ . __ . __ . __ . __ . __ . __ .
 72
    65
 73
     4
 40
18.0
 49
12.0
 49
-3.0
 49
0.0
 49
-3.0
  0
LTYPE
  2
ACAD_ISO11W100
 70
     0
  3
ISO double-dash dot __ __ . __ __ . __ __ . __ 
 72
    65
 73
     6
 40
33.0
 49
12.0
 49
-3.0
 49
12.0
 49
-3.0
 49
0.0
 49
-3.0
  0
LTYPE
  2
ACAD_ISO12W100
 70
     0
  3
ISO dash double-dot __ . . __ . . __ . . __ . .
 72
    65
 73
     6
 40
21.0
 49
12.0
 49
-3.0
 49
0.0
 49
-3.0
 49
0.0
 49
-3.0
  0
LTYPE
  2
ACAD_ISO13W100
 70
     0
  3
ISO double-dash double-dot __ __ . . __ __ . . 
 72
    65
 73
     8
 40
36.0
 49
12.0
 49
-3.0
 49
12.0
 49
-3.0
 49
0.0
 49
-3.0
 49
0.0
 49
-3.0
  0
LTYPE
  2
ACAD_ISO14W100
 70
     0
  3
ISO dash triple-dot __ . . . __ . . . __ . . . 
 72
    65
 73
     8
 40
24.0
 49
12.0
 49
-3.0
 49
0.0
 49
-3.0
 49
0.0
 49
-3.0
 49
0.0
 49
-3.0
  0
LTYPE
  2
ACAD_ISO15W100
 70
     0
  3
ISO double-dash triple-dot __ __ . . . __ __ . 
 72
    65
 73
    10
 40
39.0
 49
12.0
 49
-3.0
 49
12.0
 49
-3.0
 49
0.0
 49
-3.0
 49
0.0
 49
-3.0
 49
0.0
 49
-3.0
  0
LTYPE
  2
BATTING
 70
     0
  3
Batting SSSSSSSSSSSSSSSSSSSSSSSSSSSSSSSSSSSSSSS
 72
    65
 73
     4
 40
10.16254
 49
0.00254
 49
-2.54
 49
-5.0800000000000001
 49
-2.54
  0
LTYPE
  2
BORDER
 70
     0
  3
Border __ __ . __ __ . __ __ . __ __ . __ __ .
 72
    65
 73
     6
 40
44.450000000000003
 49
12.699999999999999
 49
-6.349999999999997
 49
12.699999999999999
 49
-6.349999999999997
 49
0.0
 49
-6.349999999999997
  0
LTYPE
  2
BORDER2
 70
     0
  3
Border (.5x) __.__.__.__.__.__.__.__.__.__.__.
 72
    65
 73
     6
 40
22.225000000000001
 49
6.349999999999997
 49
-3.174999999999998
 49
6.349999999999997
 49
-3.174999999999998
 49
0.0
 49
-3.174999999999998
  0
LTYPE
  2
BORDERX2
 70
     0
  3
Border (2x) ____  ____  .  ____  ____  .  ___
 72
    65
 73
     6
 40
88.900000000000006
 49
25.399999999999999
 49
-12.699999999999999
 49
25.399999999999999
 49
-12.699999999999999
 49
0.0
 49
-12.699999999999999
  0
LTYPE
  2
CENTER
 70
     0
  3
Center ____ _ ____ _ ____ _ ____ _ ____ _ ____
 72
    65
 73
     4
 40
50.799999999999997
 49
31.75
 49
-6.349999999999997
 49
6.349999999999997
 49
-6.349999999999997
  0
LTYPE
  2
CENTER2
 70
     0
  3
Center (.5x) ___ _ ___ _ ___ _ ___ _ ___ _ ___
 72
    65
 73
     4
 40
28.574999999999999
 49
19.050000000000001
 49
-3.174999999999998
 49
3.174999999999998
 49
-3.174999999999998
  0
LTYPE
  2
CENTERX2
 70
     0
  3
Center (2x) ________  __  ________  __  _____
 72
    65
 73
     4
 40
101.59999999999999
 49
63.5
 49
-12.699999999999999
 49
12.699999999999999
 49
-12.699999999999999
  0
LTYPE
  2
DASHDOT
 70
     0
  3
Dash dot __ . __ . __ . __ . __ . __ . __ . __
 72
    65
 73
     4
 40
25.399999999999999
 49
12.699999999999999
 49
-6.349999999999997
 49
0.0
 49
-6.349999999999997
  0
LTYPE
  2
DASHDOT2
 70
     0
  3
Dash dot (.5x) _._._._._._._._._._._._._._._.
 72
    65
 73
     4
 40
12.699999999999999
 49
6.349999999999997
 49
-3.174999999999998
 49
0.0
 49
-3.174999999999998
  0
LTYPE
  2
DASHDOTX2
 70
     0
  3
Dash dot (2x) ____  .  ____  .  ____  .  ___
 72
    65
 73
     4
 40
50.799999999999997
 49
25.399999999999999
 49
-12.699999999999999
 49
0.0
 49
-12.699999999999999
  0
LTYPE
  2
DASHED
 70
     0
  3
Dashed __ __ __ __ __ __ __ __ __ __ __ __ __ _
 72
    65
 73
     2
 40
19.050000000000001
 49
12.699999999999999
 49
-6.349999999999997
  0
LTYPE
  2
DASHED2
 70
     0
  3
Dashed (.5x) _ _ _ _ _ _ _ _ _ _ _ _ _ _ _ _ _
 72
    65
 73
     2
 40
9.5249999999999968
 49
6.349999999999997
 49
-3.174999999999998
  0
LTYPE
  2
DASHEDX2
 70
     0
  3
Dashed (2x) ____  ____  ____  ____  ____  ___
 72
    65
 73
     2
 40
38.100000000000001
 49
25.399999999999999
 49
-12.699999999999999
  0
LTYPE
  2
DIVIDE
 70
     0
  3
Divide ____ . . ____ . . ____ . . ____ . . ____
 72
    65
 73
     6
 40
31.75
 49
12.699999999999999
 49
-6.349999999999997
 49
0.0
 49
-6.349999999999997
 49
0.0
 49
-6.349999999999997
  0
LTYPE
  2
DIVIDE2
 70
     0
  3
Divide (.5x) __..__..__..__..__..__..__..__.._
 72
    65
 73
     6
 40
15.875
 49
6.349999999999997
 49
-3.174999999999998
 49
0.0
 49
-3.174999999999998
 49
0.0
 49
-3.174999999999998
  0
LTYPE
  2
DIVIDEX2
 70
     0
  3
Divide (2x) ________  .  .  ________  .  .  _
 72
    65
 73
     6
 40
63.499999999999993
 49
25.399999999999999
 49
-12.699999999999999
 49
0.0
 49
-12.699999999999999
 49
0.0
 49
-12.699999999999999
  0
LTYPE
  2
DOT
 70
     0
  3
Dot . . . . . . . . . . . . . . . . . . . . . .
 72
    65
 73
     2
 40
6.349999999999997
 49
0.0
 49
-6.349999999999997
  0
LTYPE
  2
DOT2
 70
     0
  3
Dot (.5x) .....................................
 72
    65
 73
     2
 40
3.174999999999998
 49
0.0
 49
-3.174999999999998
  0
LTYPE
  2
DOTX2
 70
     0
  3
Dot (2x) .  .  .  .  .  .  .  .  .  .  .  .  . 
 72
    65
 73
     2
 40
12.699999999999999
 49
0.0
 49
-12.699999999999999
  0
LTYPE
  2
FENCELINE1
 70
     0
  3
Fenceline circle ----0-----0----0-----0----0---
 72
    65
 73
     4
 40
36.829999999999998
 49
6.349999999999997
 49
-2.54
 49
-2.54
 49
25.399999999999999
  0
LTYPE
  2
FENCELINE2
 70
     0
  3
Fenceline square ----[]-----[]----[]-----[]----
 72
    65
 73
     4
 40
36.829999999999998
 49
6.349999999999997
 49
-2.54
 49
-2.54
 49
25.399999999999999
  0
LTYPE
  2
GAS_LINE
 70
     0
  3
Gas line ----GAS----GAS----GAS----GAS----GAS---
 72
    65
 73
     3
 40
24.129999999999999
 49
12.699999999999999
 49
-5.0800000000000001
 49
-6.349999999999997
  0
LTYPE
  2
HIDDEN
 70
     0
  3
Hidden __ __ __ __ __ __ __ __ __ __ __ __ __ _
 72
    65
 73
     2
 40
9.5249999999999968
 49
6.349999999999997
 49
-3.174999999999998
  0
LTYPE
  2
HIDDEN2
 70
     0
  3
Hidden (.5x) _ _ _ _ _ _ _ _ _ _ _ _ _ _ _ _ _
 72
    65
 73
     2
 40
4.7624999999999984
 49
3.174999999999998
 49
-1.587499999999999
  0
LTYPE
  2
HIDDENX2
 70
     0
  3
Hidden (2x) ____ ____ ____ ____ ____ ____ ____
 72
    65
 73
     2
 40
19.050000000000001
 49
12.699999999999999
 49
-6.349999999999997
  0
LTYPE
  2
HOT_WATER_SUPPLY
 70
     0
  3
Hot water supply ---- HW ---- HW ---- HW ----
 72
    65
 73
     3
 40
22.859999999999999
 49
12.699999999999999
 49
-5.0800000000000001
 49
-5.0800000000000001
  0
LTYPE
  2
PHANTOM
 70
     0
  3
Phantom ______  __  __  ______  __  __  ______
 72
    65
 73
     6
 40
63.5
 49
31.75
 49
-6.349999999999997
 49
6.349999999999997
 49
-6.349999999999997
 49
6.349999999999997
 49
-6.349999999999997
  0
LTYPE
  2
PHANTOM2
 70
     0
  3
Phantom (.5x) ___ _ _ ___ _ _ ___ _ _ ___ _ _
 72
    65
 73
     6
 40
31.75
 49
15.875
 49
-3.174999999999998
 49
3.174999999999998
 49
-3.174999999999998
 49
3.174999999999998
 49
-3.174999999999998
  0
LTYPE
  2
PHANTOMX2
 70
     0
  3
Phantom (2x) ____________    ____    ____   _
 72
    65
 73
     6
 40
127.0
 49
63.5
 49
-12.699999999999999
 49
12.699999999999999
 49
-12.699999999999999
 49
12.699999999999999
 49
-12.699999999999999
  0
LTYPE
  2
TRACKS
 70
     0
  3
Tracks -|-|-|-|-|-|-|-|-|-|-|-|-|-|-|-|-|-|-|-|
 72
    65
 73
     2
 40
7.6200000000000001
 49
3.8100000000000001
 49
3.8100000000000001
  0
LTYPE
  2
ZIGZAG
 70
     0
  3
Zig zag /\/\/\/\/\/\/\/\/\/\/\/\/\/\/\/\/\/\/\/
 72
    65
 73
     4
 40
20.32254
 49
0.00254
 49
-5.0800000000000001
 49
-10.16
 49
-5.0800000000000001
  0
ENDTAB
  0
TABLE
  2
LAYER
 70
     9
  0
LAYER
  2
0
 70
     0
 62
     7
  6
CONTINUOUS
  0
LAYER
  2
DEFPOINTS
 70
     0
 62
     7
  6
CONTINUOUS
  0
LAYER
  2
センタ_
 70
     0
 62
     7
  6
CENTER2
  0
LAYER
  2
実形
 70
     0
 62
     7
  6
CONTINUOUS
  0
LAYER
  2
補助
 70
     0
 62
    -4
  6
CONTINUOUS
  0
LAYER
  2
寸法
 70
     0
 62
     7
  6
CONTINUOUS
  0
LAYER
  2
ハッチング
 70
     0
 62
     7
  6
CONTINUOUS
  0
LAYER
  2
文字
 70
     0
 62
     7
  6
CONTINUOUS
  0
LAYER
  2
CEN
 70
     0
 62
     7
  6
CENTER2
  0
ENDTAB
  0
TABLE
  2
STYLE
 70
     2
  0
STYLE
  2
STANDARD
 70
     0
 40
0.0
 41
1.0
 50
0.0
 71
     0
 42
25.0
  3
txt.shx
  4
bigfont.shx
  0
STYLE
  2

 70
     1
 40
0.0
 41
1.0
 50
0.0
 71
     0
 42
2.5
  3
ltypeshp.shx
  4

  0
ENDTAB
  0
TABLE
  2
VIEW
 70
     0
  0
ENDTAB
  0
TABLE
  2
UCS
 70
     0
  0
ENDTAB
  0
TABLE
  2
APPID
 70
     2
  0
APPID
  2
ACAD
 70
     0
  0
APPID
  2
DCO15
 70
     0
  0
ENDTAB
  0
TABLE
  2
DIMSTYLE
 70
     1
  0
DIMSTYLE
  2
ISO-25
 70
     0
  3

  4

  5
DOTSMALL
  6

  7

 40
1.0
 41
35.0
 42
65.0
 43
3.75
 44
0.0
 45
0.0
 46
0.0
 47
0.0
 48
0.0
140
25.0
141
2.5
142
0.0
143
0.03937007874016
144
1.0
145
0.0
146
1.0
147
6.25
 71
     0
 72
     0
 73
     0
 74
     0
 75
     0
 76
     0
 77
     1
 78
     8
170
     0
171
     3
172
     1
173
     0
174
     0
175
     0
176
     0
177
     0
178
     0
  0
ENDTAB
  0
ENDSEC
  0
SECTION
  2
BLOCKS
  0
BLOCK
  8
0
  2
$MODEL_SPACE
 70
     0
 10
0.0
 20
0.0
 30
0.0
  3
$MODEL_SPACE
  1

  0
ENDBLK
  5
21
  8
0
  0
BLOCK
 67
     1
  8
0
  2
$PAPER_SPACE
 70
     0
 10
0.0
 20
0.0
 30
0.0
  3
$PAPER_SPACE
  1

  0
ENDBLK
  5
1D
 67
     1
  8
0
  0
BLOCK
  8
0
  2
_DOTSMALL
 70
     0
 10
0.0
 20
0.0
 30
0.0
  3
_DOTSMALL
  1

  0
POLYLINE
  5
D1
  8
0
 62
     0
 66
     1
 10
0.0
 20
0.0
 30
0.0
 70
     1
 40
0.5
 41
0.5
  0
VERTEX
  5
1FA3
  8
0
 62
     0
 10
-0.0625
 20
0.0
 30
0.0
 42
1.0
  0
VERTEX
  5
1FA4
  8
0
 62
     0
 10
0.0625
 20
0.0
 30
0.0
 42
1.0
  0
SEQEND
  5
1FA5
  8
0
 62
     0
  0
ENDBLK
  5
D3
  8
0
  0
BLOCK
  8
0
  2
_ORIGIN2
 70
     0
 10
0.0
 20
0.0
 30
0.0
  3
_ORIGIN2
  1

  0
CIRCLE
  5
D5
  8
0
 62
     0
 10
0.0
 20
0.0
 30
0.0
 40
0.5
  0
CIRCLE
  5
D6
  8
0
 62
     0
 10
0.0
 20
0.0
 30
0.0
 40
0.25
  0
LINE
  5
D7
  8
0
 62
     0
 10
-0.5
 20
0.0
 30
0.0
 11
-1.0
 21
0.0
 31
0.0
  0
ENDBLK
  5
D9
  8
0
  0
BLOCK
  8
0
  2
_OPEN30
 70
     0
 10
0.0
 20
0.0
 30
0.0
  3
_OPEN30
  1

  0
LINE
  5
DB
  8
0
 62
     0
 10
-1.0
 20
0.26794919
 30
0.0
 11
0.0
 21
0.0
 31
0.0
  0
LINE
  5
DC
  8
0
 62
     0
 10
0.0
 20
0.0
 30
0.0
 11
-1.0
 21
-0.26794919
 31
0.0
  0
LINE
  5
DD
  8
0
 62
     0
 10
0.0
 20
0.0
 30
0.0
 11
-1.0
 21
0.0
 31
0.0
  0
ENDBLK
  5
DF
  8
0
  0
BLOCK
  8
0
  2
*D4
 70
     1
 10
0.0
 20
0.0
 30
0.0
  3
*D4
  1

  0
LINE
  5
1FA6
  8
寸法
 62
     0
 10
793.59362978947217
 20
1703.67545567602
 30
0.0
 11
703.96290186307965
 21
1703.67545567602
 31
0.0
  0
LINE
  5
1FA7
  8
寸法
 62
     0
 10
793.59362978947217
 20
1685.67545567602
 30
0.0
 11
703.96290186307965
 21
1685.67545567602
 31
0.0
  0
LINE
  5
1FA8
  8
寸法
 62
     0
 10
703.96290186307965
 20
1703.67545567602
 30
0.0
 11
703.96290186307965
 21
1685.67545567602
 31
0.0
  0
TEXT
  8
寸法
  40
25
  5
2030
  62
0
  72
0
  71
0
 10
682.891
 20
1698.23
 30
0.000000
  1
18
  0
INSERT
  5
1FAA
  8
寸法
 62
     0
  2
_DOTSMALL
 10
703.96290186307965
 20
1703.67545567602
 30
0.0
 41
35.0
 42
35.0
 43
35.0
 50
90.0
  0
INSERT
  5
1FAB
  8
寸法
 62
     0
  2
_DOTSMALL
 10
703.96290186307965
 20
1685.67545567602
 30
0.0
 41
35.0
 42
35.0
 43
35.0
 50
270.0
  0
POINT
  5
1FAC
  8
DEFPOINTS
 62
     0
 10
858.59362978947217
 20
1703.67545567602
 30
0.0
  0
POINT
  5
1FAD
  8
DEFPOINTS
 62
     0
 10
858.59362978947217
 20
1685.67545567602
 30
0.0
  0
POINT
  5
1FAE
  8
DEFPOINTS
 62
     0
 10
703.96290186307965
 20
1685.67545567602
 30
0.0
  0
ENDBLK
  5
12AF
  8
0
  0
BLOCK
  8
0
  2
*D5
 70
     1
 10
0.0
 20
0.0
 30
0.0
  3
*D5
  1

  0
LINE
  5
1FAF
  8
寸法
 62
     0
 10
793.59362978947217
 20
1685.67545567602
 30
0.0
 11
703.96290186307965
 21
1685.67545567602
 31
0.0
  0
LINE
  5
1FB0
  8
寸法
 62
     0
 10
793.59362978947217
 20
1613.67545567602
 30
0.0
 11
703.96290186307965
 21
1613.67545567602
 31
0.0
  0
LINE
  5
1FB1
  8
寸法
 62
     0
 10
703.96290186307965
 20
1685.67545567602
 30
0.0
 11
703.96290186307965
 21
1613.67545567602
 31
0.0
  0
TEXT
  8
寸法
  40
25
  5
2031
  62
0
  72
0
  71
0
 10
683.025
 20
1617.37
 30
0.000000
  1
72
  0
INSERT
  5
1FB3
  8
寸法
 62
     0
  2
_DOTSMALL
 10
703.96290186307965
 20
1685.67545567602
 30
0.0
 41
35.0
 42
35.0
 43
35.0
 50
90.0
  0
INSERT
  5
1FB4
  8
寸法
 62
     0
  2
_DOTSMALL
 10
703.96290186307965
 20
1613.67545567602
 30
0.0
 41
35.0
 42
35.0
 43
35.0
 50
270.0
  0
POINT
  5
1FB5
  8
DEFPOINTS
 62
     0
 10
858.59362978947217
 20
1685.67545567602
 30
0.0
  0
POINT
  5
1FB6
  8
DEFPOINTS
 62
     0
 10
858.59362978947217
 20
1613.67545567602
 30
0.0
  0
POINT
  5
1FB7
  8
DEFPOINTS
 62
     0
 10
703.96290186307965
 20
1613.67545567602
 30
0.0
  0
ENDBLK
  5
12EC
  8
0
  0
BLOCK
  8
0
  2
*D6
 70
     1
 10
0.0
 20
0.0
 30
0.0
  3
*D6
  1

  0
LINE
  5
1FB8
  8
寸法
 62
     0
 10
793.59362978947217
 20
1685.67545567602
 30
0.0
 11
703.96290186307965
 21
1685.67545567602
 31
0.0
  0
LINE
  5
1FB9
  8
寸法
 62
     0
 10
793.59362978947217
 20
1191.67545567602
 30
0.0
 11
703.96290186307965
 21
1191.67545567602
 31
0.0
  0
LINE
  5
1FBA
  8
寸法
 62
     0
 10
703.96290186307965
 20
1685.67545567602
 30
0.0
 11
703.96290186307965
 21
1191.67545567602
 31
0.0
  0
INSERT
  5
1FBB
  8
寸法
 62
     0
  2
_DOTSMALL
 10
703.96290186307965
 20
1685.67545567602
 30
0.0
 41
35.0
 42
35.0
 43
35.0
 50
90.0
  0
INSERT
  5
1FBC
  8
寸法
 62
     0
  2
_DOTSMALL
 10
703.96290186307965
 20
1191.67545567602
 30
0.0
 41
35.0
 42
35.0
 43
35.0
 50
270.0
  0
TEXT
  8
寸法
  40
25
  5
2032
  62
0
  72
0
  71
0
 10
685.213
 20
1406.18
 30
0.000000
  1
410
  0
POINT
  5
1FBE
  8
DEFPOINTS
 62
     0
 10
858.59362978947217
 20
1685.67545567602
 30
0.0
  0
POINT
  5
1FBF
  8
DEFPOINTS
 62
     0
 10
858.59362978947217
 20
1191.67545567602
 30
0.0
  0
POINT
  5
1FC0
  8
DEFPOINTS
 62
     0
 10
703.96290186307965
 20
1191.67545567602
 30
0.0
  0
ENDBLK
  5
12F9
  8
0
  0
BLOCK
  8
0
  2
*D7
 70
     1
 10
0.0
 20
0.0
 30
0.0
  3
*D7
  1

  0
LINE
  5
1FC1
  8
寸法
 62
     0
 10
793.59362978947217
 20
1203.67545567602
 30
0.0
 11
703.96290186307965
 21
1203.67545567602
 31
0.0
  0
LINE
  5
1FC2
  8
寸法
 62
     0
 10
793.59362978947217
 20
1173.67545567602
 30
0.0
 11
703.96290186307965
 21
1173.67545567602
 31
0.0
  0
LINE
  5
1FC3
  8
寸法
 62
     0
 10
703.96290186307965
 20
1203.67545567602
 30
0.0
 11
703.96290186307965
 21
1173.67545567602
 31
0.0
  0
TEXT
  8
寸法
  40
25
  5
2033
  62
0
  72
0
  71
0
 10
684.928
 20
1194.20
 30
0.000000
  1
12
  0
INSERT
  5
1FC5
  8
寸法
 62
     0
  2
_DOTSMALL
 10
703.96290186307965
 20
1203.67545567602
 30
0.0
 41
35.0
 42
35.0
 43
35.0
 50
90.0
  0
INSERT
  5
1FC6
  8
寸法
 62
     0
  2
_DOTSMALL
 10
703.96290186307965
 20
1173.67545567602
 30
0.0
 41
35.0
 42
35.0
 43
35.0
 50
270.0
  0
POINT
  5
1FC7
  8
DEFPOINTS
 62
     0
 10
858.59362978947217
 20
1203.67545567602
 30
0.0
  0
POINT
  5
1FC8
  8
DEFPOINTS
 62
     0
 10
858.59362978947217
 20
1173.67545567602
 30
0.0
  0
POINT
  5
1FC9
  8
DEFPOINTS
 62
     0
 10
703.96290186307965
 20
1173.67545567602
 30
0.0
  0
ENDBLK
  5
1306
  8
0
  0
BLOCK
  8
0
  2
*D8
 70
     1
 10
0.0
 20
0.0
 30
0.0
  3
*D8
  1

  0
LINE
  5
1FCA
  8
寸法
 62
     0
 10
793.59362978947217
 20
1191.67545567602
 30
0.0
 11
703.96290186307965
 21
1191.67545567602
 31
0.0
  0
LINE
  5
1FCB
  8
寸法
 62
     0
 10
793.59362978947217
 20
1173.67545567602
 30
0.0
 11
703.96290186307965
 21
1173.67545567602
 31
0.0
  0
LINE
  5
1FCC
  8
寸法
 62
     0
 10
703.96290186307965
 20
1191.67545567602
 30
0.0
 11
703.96290186307965
 21
1173.67545567602
 31
0.0
  0
TEXT
  8
寸法
  40
25
  5
2034
  62
0
  72
0
  71
0
 10
688.420
 20
1110.60
 30
0.000000
  1
18
  0
INSERT
  5
1FCE
  8
寸法
 62
     0
  2
_DOTSMALL
 10
703.96290186307965
 20
1191.67545567602
 30
0.0
 41
35.0
 42
35.0
 43
35.0
 50
90.0
  0
INSERT
  5
1FCF
  8
寸法
 62
     0
  2
_DOTSMALL
 10
703.96290186307965
 20
1173.67545567602
 30
0.0
 41
35.0
 42
35.0
 43
35.0
 50
270.0
  0
POINT
  5
1FD0
  8
DEFPOINTS
 62
     0
 10
858.59362978947217
 20
1191.67545567602
 30
0.0
  0
POINT
  5
1FD1
  8
DEFPOINTS
 62
     0
 10
858.59362978947217
 20
1173.67545567602
 30
0.0
  0
POINT
  5
1FD2
  8
DEFPOINTS
 62
     0
 10
703.96290186307965
 20
1173.67545567602
 30
0.0
  0
ENDBLK
  5
1313
  8
0
  0
BLOCK
  8
0
  2
*D9
 70
     1
 10
0.0
 20
0.0
 30
0.0
  3
*D9
  1

  0
LINE
  5
1D78
  8
寸法
 62
     0
 10
793.59362978947217
 20
1703.67545567602
 30
0.0
 11
630.25095946181239
 21
1703.67545567602
 31
0.0
  0
LINE
  5
1D79
  8
寸法
 62
     0
 10
793.59362978947217
 20
1173.67545567602
 30
0.0
 11
630.25095946181216
 21
1173.67545567602
 31
0.0
  0
LINE
  5
1D7A
  8
寸法
 62
     0
 10
630.25095946181239
 20
1703.67545567602
 30
0.0
 11
630.25095946181216
 21
1173.67545567602
 31
0.0
  0
INSERT
  5
1D7B
  8
寸法
 62
     0
  2
_DOTSMALL
 10
630.25095946181239
 20
1703.67545567602
 30
0.0
 41
35.0
 42
35.0
 43
35.0
 50
90.0
  0
INSERT
  5
1D7C
  8
寸法
 62
     0
  2
_DOTSMALL
 10
630.25095946181216
 20
1173.67545567602
 30
0.0
 41
35.0
 42
35.0
 43
35.0
 50
270.0
  0
INSERT
  5
1D7D
  8
実形
  2
*U26
 10
0.0
 20
0.0
 30
0.0
  0
POINT
  5
1D7E
  8
DEFPOINTS
 62
     0
 10
858.59362978947217
 20
1703.67545567602
 30
0.0
  0
POINT
  5
1D7F
  8
DEFPOINTS
 62
     0
 10
858.59362978947217
 20
1173.67545567602
 30
0.0
  0
POINT
  5
1D80
  8
DEFPOINTS
 62
     0
 10
630.25095946181216
 20
1173.67545567602
 30
0.0
  0
ENDBLK
  5
133B
  8
0
  0
BLOCK
  8
0
  2
*D10
 70
     1
 10
0.0
 20
0.0
 30
0.0
  3
*D10
  1

  0
LINE
  5
1FD3
  8
寸法
 62
     0
 10
858.59362978947217
 20
1108.67545567602
 30
0.0
 11
858.59362978947217
 21
1062.2909443947319
 31
0.0
  0
LINE
  5
1FD4
  8
寸法
 62
     0
 10
876.59362978947217
 20
1108.67545567602
 30
0.0
 11
876.59362978947217
 21
1062.2909443947319
 31
0.0
  0
LINE
  5
1FD5
  8
寸法
 62
     0
 10
858.59362978947217
 20
1062.2909443947319
 30
0.0
 11
876.59362978947217
 21
1062.2909443947319
 31
0.0
  0
TEXT
  8
寸法
  40
25
  5
2035
  62
0
  72
0
  71
0
 10
822.835
 20
1041.20
 30
0.000000
  1
18
  0
INSERT
  5
1FD7
  8
寸法
 62
     0
  2
_DOTSMALL
 10
858.59362978947217
 20
1062.2909443947319
 30
0.0
 41
35.0
 42
35.0
 43
35.0
 50
180.0
  0
INSERT
  5
1FD8
  8
寸法
 62
     0
  2
_DOTSMALL
 10
876.59362978947217
 20
1062.2909443947319
 30
0.0
 41
35.0
 42
35.0
 43
35.0
  0
POINT
  5
1FD9
  8
DEFPOINTS
 62
     0
 10
858.59362978947217
 20
1173.67545567602
 30
0.0
  0
POINT
  5
1FDA
  8
DEFPOINTS
 62
     0
 10
876.59362978947217
 20
1173.67545567602
 30
0.0
  0
POINT
  5
1FDB
  8
DEFPOINTS
 62
     0
 10
876.59362978947217
 20
1062.2909443947319
 30
0.0
  0
ENDBLK
  5
135B
  8
0
  0
BLOCK
  8
0
  2
*D11
 70
     1
 10
0.0
 20
0.0
 30
0.0
  3
*D11
  1

  0
LINE
  5
1FDC
  8
寸法
 62
     0
 10
876.59362978947217
 20
1108.67545567602
 30
0.0
 11
876.59362978947217
 21
1062.2909443947319
 31
0.0
  0
LINE
  5
1FDD
  8
寸法
 62
     0
 10
928.59362978947229
 20
1108.67545567602
 30
0.0
 11
928.59362978947229
 21
1062.2909443947319
 31
0.0
  0
LINE
  5
1FDE
  8
寸法
 62
     0
 10
876.59362978947217
 20
1062.2909443947319
 30
0.0
 11
928.59362978947229
 21
1062.2909443947319
 31
0.0
  0
TEXT
  8
寸法
  40
25
  5
2036
  62
0
  72
0
  71
0
 10
891.362
 20
1002.40
 30
0.000000
  1
52
  0
INSERT
  5
1FE0
  8
寸法
 62
     0
  2
_DOTSMALL
 10
876.59362978947217
 20
1062.2909443947319
 30
0.0
 41
35.0
 42
35.0
 43
35.0
 50
180.0
  0
INSERT
  5
1FE1
  8
寸法
 62
     0
  2
_DOTSMALL
 10
928.59362978947229
 20
1062.2909443947319
 30
0.0
 41
35.0
 42
35.0
 43
35.0
  0
POINT
  5
1FE2
  8
DEFPOINTS
 62
     0
 10
876.59362978947217
 20
1173.67545567602
 30
0.0
  0
POINT
  5
1FE3
  8
DEFPOINTS
 62
     0
 10
928.59362978947229
 20
1173.67545567602
 30
0.0
  0
POINT
  5
1FE4
  8
DEFPOINTS
 62
     0
 10
928.59362978947229
 20
1062.2909443947319
 30
0.0
  0
ENDBLK
  5
1390
  8
0
  0
BLOCK
  8
0
  2
*D12
 70
     1
 10
0.0
 20
0.0
 30
0.0
  3
*D12
  1

  0
LINE
  5
1FE5
  8
寸法
 62
     0
 10
928.59362978947229
 20
1108.67545567602
 30
0.0
 11
928.59362978947229
 21
1062.2909443947319
 31
0.0
  0
LINE
  5
1FE6
  8
寸法
 62
     0
 10
1858.5936297894721
 20
1108.67545567602
 30
0.0
 11
1858.5936297894721
 21
1062.2909443947319
 31
0.0
  0
LINE
  5
1FE7
  8
寸法
 62
     0
 10
928.59362978947229
 20
1062.2909443947319
 30
0.0
 11
1858.5936297894721
 21
1062.2909443947319
 31
0.0
  0
INSERT
  5
1FE8
  8
寸法
 62
     0
  2
_DOTSMALL
 10
928.59362978947229
 20
1062.2909443947319
 30
0.0
 41
35.0
 42
35.0
 43
35.0
 50
180.0
  0
INSERT
  5
1FE9
  8
寸法
 62
     0
  2
_DOTSMALL
 10
1858.5936297894721
 20
1062.2909443947319
 30
0.0
 41
35.0
 42
35.0
 43
35.0
  0
TEXT
  8
寸法
  40
25
  5
2037
  62
0
  72
0
  71
0
 10
1393.59
 20
1048.54
 30
0.000000
  1
930
  0
POINT
  5
1FEB
  8
DEFPOINTS
 62
     0
 10
928.59362978947229
 20
1173.67545567602
 30
0.0
  0
POINT
  5
1FEC
  8
DEFPOINTS
 62
     0
 10
1858.5936297894721
 20
1173.67545567602
 30
0.0
  0
POINT
  5
1FED
  8
DEFPOINTS
 62
     0
 10
1858.5936297894721
 20
1062.2909443947319
 30
0.0
  0
ENDBLK
  5
13B9
  8
0
  0
BLOCK
  8
0
  2
*D13
 70
     1
 10
0.0
 20
0.0
 30
0.0
  3
*D13
  1

  0
LINE
  5
1FEE
  8
寸法
 62
     0
 10
1858.5936297894721
 20
1108.67545567602
 30
0.0
 11
1858.5936297894721
 21
1062.2909443947319
 31
0.0
  0
LINE
  5
1FEF
  8
寸法
 62
     0
 10
1910.5936297894721
 20
1108.67545567602
 30
0.0
 11
1910.5936297894721
 21
1062.2909443947319
 31
0.0
  0
LINE
  5
1FF0
  8
寸法
 62
     0
 10
1858.5936297894721
 20
1062.2909443947319
 30
0.0
 11
1910.5936297894721
 21
1062.2909443947319
 31
0.0
  0
TEXT
  8
寸法
  40
25
  5
2038
  62
0
  72
0
  71
0
 10
1897.23
 20
1002.40
 30
0.000000
  1
52
  0
INSERT
  5
1FF2
  8
寸法
 62
     0
  2
_DOTSMALL
 10
1858.5936297894721
 20
1062.2909443947319
 30
0.0
 41
35.0
 42
35.0
 43
35.0
 50
180.0
  0
INSERT
  5
1FF3
  8
寸法
 62
     0
  2
_DOTSMALL
 10
1910.5936297894721
 20
1062.2909443947319
 30
0.0
 41
35.0
 42
35.0
 43
35.0
  0
POINT
  5
1FF4
  8
DEFPOINTS
 62
     0
 10
1858.5936297894721
 20
1173.67545567602
 30
0.0
  0
POINT
  5
1FF5
  8
DEFPOINTS
 62
     0
 10
1910.5936297894721
 20
1173.67545567602
 30
0.0
  0
POINT
  5
1FF6
  8
DEFPOINTS
 62
     0
 10
1910.5936297894721
 20
1062.2909443947319
 30
0.0
  0
ENDBLK
  5
13C8
  8
0
  0
BLOCK
  8
0
  2
*D14
 70
     1
 10
0.0
 20
0.0
 30
0.0
  3
*D14
  1

  0
LINE
  5
1FF7
  8
寸法
 62
     0
 10
1910.5936297894721
 20
1108.67545567602
 30
0.0
 11
1910.5936297894721
 21
1062.2909443947319
 31
0.0
  0
LINE
  5
1FF8
  8
寸法
 62
     0
 10
1928.5936297894721
 20
1108.67545567602
 30
0.0
 11
1928.5936297894721
 21
1062.2909443947319
 31
0.0
  0
LINE
  5
1FF9
  8
寸法
 62
     0
 10
1910.5936297894721
 20
1062.2909443947319
 30
0.0
 11
1928.5936297894721
 21
1062.2909443947319
 31
0.0
  0
TEXT
  8
寸法
  40
25
  5
2039
  62
0
  72
0
  71
0
 10
1963.47
 20
1036.64
 30
0.000000
  1
18
  0
INSERT
  5
1FFB
  8
寸法
 62
     0
  2
_DOTSMALL
 10
1910.5936297894721
 20
1062.2909443947319
 30
0.0
 41
35.0
 42
35.0
 43
35.0
 50
180.0
  0
INSERT
  5
1FFC
  8
寸法
 62
     0
  2
_DOTSMALL
 10
1928.5936297894721
 20
1062.2909443947319
 30
0.0
 41
35.0
 42
35.0
 43
35.0
  0
POINT
  5
1FFD
  8
DEFPOINTS
 62
     0
 10
1910.5936297894721
 20
1173.67545567602
 30
0.0
  0
POINT
  5
1FFE
  8
DEFPOINTS
 62
     0
 10
1928.5936297894721
 20
1173.67545567602
 30
0.0
  0
POINT
  5
1FFF
  8
DEFPOINTS
 62
     0
 10
1928.5936297894721
 20
1062.2909443947319
 30
0.0
  0
ENDBLK
  5
13D7
  8
0
  0
BLOCK
  8
0
  2
*D15
 70
     1
 10
0.0
 20
0.0
 30
0.0
  3
*D15
  1

  0
LINE
  5
1D55
  8
寸法
 62
     0
 10
858.59362978947217
 20
1108.67545567602
 30
0.0
 11
858.59362978947217
 21
982.40279425448443
 31
0.0
  0
LINE
  5
1D56
  8
寸法
 62
     0
 10
1928.5936297894721
 20
1108.67545567602
 30
0.0
 11
1928.5936297894721
 21
982.40279425448443
 31
0.0
  0
LINE
  5
1D57
  8
寸法
 62
     0
 10
858.59362978947217
 20
982.40279425448443
 30
0.0
 11
1928.5936297894721
 21
982.40279425448443
 31
0.0
  0
INSERT
  5
1D58
  8
寸法
 62
     0
  2
_DOTSMALL
 10
858.59362978947217
 20
982.40279425448443
 30
0.0
 41
35.0
 42
35.0
 43
35.0
 50
180.0
  0
INSERT
  5
1D59
  8
寸法
 62
     0
  2
_DOTSMALL
 10
1928.5936297894721
 20
982.40279425448443
 30
0.0
 41
35.0
 42
35.0
 43
35.0
  0
INSERT
  5
1D5A
  8
実形
  2
*U24
 10
0.0
 20
0.0
 30
0.0
  0
POINT
  5
1D5B
  8
DEFPOINTS
 62
     0
 10
858.59362978947217
 20
1173.67545567602
 30
0.0
  0
POINT
  5
1D5C
  8
DEFPOINTS
 62
     0
 10
1928.5936297894721
 20
1173.67545567602
 30
0.0
  0
POINT
  5
1D5D
  8
DEFPOINTS
 62
     0
 10
1928.5936297894721
 20
982.40279425448443
 30
0.0
  0
ENDBLK
  5
147E
  8
0
  0
BLOCK
  8
0
  2
*D16
 70
     1
 10
0.0
 20
0.0
 30
0.0
  3
*D16
  1

  0
LINE
  5
1E39
  8
寸法
 62
     0
 10
1078.5936297894721
 20
1505.2183532400591
 30
0.0
 11
1078.5936297894721
 21
1815.5390801124761
 31
0.0
  0
LINE
  5
1E3A
  8
寸法
 62
     0
 10
858.59362978947217
 20
1750.6754556760191
 30
0.0
 11
858.59362978947217
 21
1815.5390801124761
 31
0.0
  0
LINE
  5
1E3B
  8
寸法
 62
     0
 10
1078.5936297894721
 20
1815.5390801124761
 30
0.0
 11
858.59362978947217
 21
1815.5390801124761
 31
0.0
  0
INSERT
  5
1E3C
  8
寸法
 62
     0
  2
_DOTSMALL
 10
1078.5936297894721
 20
1815.5390801124761
 30
0.0
 41
35.0
 42
35.0
 43
35.0
  0
INSERT
  5
1E3D
  8
寸法
 62
     0
  2
_DOTSMALL
 10
858.59362978947217
 20
1815.5390801124761
 30
0.0
 41
35.0
 42
35.0
 43
35.0
 50
180.0
  0
INSERT
  5
1E3E
  8
実形
  2
*U29
 10
0.0
 20
0.0
 30
0.0
  0
POINT
  5
1E3F
  8
DEFPOINTS
 62
     0
 10
1078.5936297894721
 20
1440.2183532400591
 30
0.0
  0
POINT
  5
1E40
  8
DEFPOINTS
 62
     0
 10
858.59362978947217
 20
1685.67545567602
 30
0.0
  0
POINT
  5
1E41
  8
DEFPOINTS
 62
     0
 10
858.59362978947217
 20
1815.5390801124761
 30
0.0
  0
ENDBLK
  5
158E
  8
0
  0
BLOCK
  8
0
  2
*D17
 70
     1
 10
0.0
 20
0.0
 30
0.0
  3
*D17
  1

  0
LINE
  5
1DEF
  8
寸法
 62
     0
 10
1169.0936297894721
 20
499.67545567601979
 30
0.0
 11
1169.0936297894721
 21
407.03864980601782
 31
0.0
  0
LINE
  5
1DF0
  8
寸法
 62
     0
 10
988.09362978947217
 20
499.67545567601968
 30
0.0
 11
988.09362978947217
 21
407.03864980601782
 31
0.0
  0
LINE
  5
1DF1
  8
寸法
 62
     0
 10
1169.0936297894721
 20
407.03864980601782
 30
0.0
 11
988.09362978947217
 21
407.03864980601782
 31
0.0
  0
INSERT
  5
1DF2
  8
寸法
 62
     0
  2
_DOTSMALL
 10
1169.0936297894721
 20
407.03864980601782
 30
0.0
 41
35.0
 42
35.0
 43
35.0
  0
INSERT
  5
1DF3
  8
寸法
 62
     0
  2
_DOTSMALL
 10
988.09362978947217
 20
407.03864980601782
 30
0.0
 41
35.0
 42
35.0
 43
35.0
 50
180.0
  0
INSERT
  5
1DF4
  8
実形
  2
*U28
 10
0.0
 20
0.0
 30
0.0
  0
POINT
  5
1DF5
  8
DEFPOINTS
 62
     0
 10
1169.0936297894721
 20
564.67545567601974
 30
0.0
  0
POINT
  5
1DF6
  8
DEFPOINTS
 62
     0
 10
988.09362978947217
 20
564.67545567601974
 30
0.0
  0
POINT
  5
1DF7
  8
DEFPOINTS
 62
     0
 10
988.09362978947217
 20
407.03864980601782
 30
0.0
  0
ENDBLK
  5
159A
  8
0
  0
BLOCK
  8
0
  2
*D18
 70
     1
 10
0.0
 20
0.0
 30
0.0
  3
*D18
  1

  0
LINE
  5
1DE6
  8
寸法
 62
     0
 10
1158.5936297894721
 20
499.67545567601968
 30
0.0
 11
1158.5936297894721
 21
448.24804837494679
 31
0.0
  0
LINE
  5
1DE7
  8
寸法
 62
     0
 10
998.59362978947217
 20
499.67545567601968
 30
0.0
 11
998.59362978947217
 21
448.24804837494679
 31
0.0
  0
LINE
  5
1DE8
  8
寸法
 62
     0
 10
1158.5936297894721
 20
448.24804837494679
 30
0.0
 11
998.59362978947217
 21
448.24804837494679
 31
0.0
  0
INSERT
  5
1DE9
  8
寸法
 62
     0
  2
_DOTSMALL
 10
1158.5936297894721
 20
448.24804837494679
 30
0.0
 41
35.0
 42
35.0
 43
35.0
  0
INSERT
  5
1DEA
  8
寸法
 62
     0
  2
_DOTSMALL
 10
998.59362978947217
 20
448.24804837494679
 30
0.0
 41
35.0
 42
35.0
 43
35.0
 50
180.0
  0
INSERT
  5
1DEB
  8
実形
  2
*U27
 10
0.0
 20
0.0
 30
0.0
  0
POINT
  5
1DEC
  8
DEFPOINTS
 62
     0
 10
1158.5936297894721
 20
564.67545567601974
 30
0.0
  0
POINT
  5
1DED
  8
DEFPOINTS
 62
     0
 10
998.59362978947217
 20
564.67545567601974
 30
0.0
  0
POINT
  5
1DEE
  8
DEFPOINTS
 62
     0
 10
998.59362978947217
 20
448.24804837494679
 30
0.0
  0
ENDBLK
  5
15A6
  8
0
  0
BLOCK
  8
0
  2
*D19
 70
     1
 10
0.0
 20
0.0
 30
0.0
  3
*D19
  1

  0
LINE
  5
1D5E
  8
寸法
 62
     0
 10
838.59362978947172
 20
773.67545567601974
 30
0.0
 11
745.96125496688319
 21
773.67545567601974
 31
0.0
  0
LINE
  5
1D5F
  8
寸法
 62
     0
 10
838.59362978947172
 20
574.67545567601974
 30
0.0
 11
745.96125496688319
 21
574.67545567601974
 31
0.0
  0
LINE
  5
1D60
  8
寸法
 62
     0
 10
745.96125496688319
 20
773.67545567601974
 30
0.0
 11
745.96125496688319
 21
574.67545567601974
 31
0.0
  0
INSERT
  5
1D61
  8
寸法
 62
     0
  2
_DOTSMALL
 10
745.96125496688319
 20
773.67545567601974
 30
0.0
 41
35.0
 42
35.0
 43
35.0
 50
90.0
  0
INSERT
  5
1D62
  8
寸法
 62
     0
  2
_DOTSMALL
 10
745.96125496688319
 20
574.67545567601974
 30
0.0
 41
35.0
 42
35.0
 43
35.0
 50
270.0
  0
INSERT
  5
1D63
  8
実形
  2
*U25
 10
0.0
 20
0.0
 30
0.0
  0
POINT
  5
1D64
  8
DEFPOINTS
 62
     0
 10
903.59362978947183
 20
773.67545567601974
 30
0.0
  0
POINT
  5
1D65
  8
DEFPOINTS
 62
     0
 10
903.59362978947183
 20
574.67545567601974
 30
0.0
  0
POINT
  5
1D66
  8
DEFPOINTS
 62
     0
 10
745.96125496688319
 20
574.67545567601974
 30
0.0
  0
ENDBLK
  5
15B2
  8
0
  0
BLOCK
  8
0
  2
*D20
 70
     1
 10
0.0
 20
0.0
 30
0.0
  3
*D20
  1

  0
LINE
  5
1D67
  8
寸法
 62
     0
 10
838.59362978947172
 20
589.67545567601974
 30
0.0
 11
784.70187930176473
 21
589.67545567601974
 31
0.0
  0
LINE
  5
1D68
  8
寸法
 62
     0
 10
838.59362978947172
 20
574.67545567601974
 30
0.0
 11
784.70187930176473
 21
574.67545567601974
 31
0.0
  0
LINE
  5
1D69
  8
寸法
 62
     0
 10
784.70187930176473
 20
589.67545567601974
 30
0.0
 11
784.70187930176473
 21
574.67545567601974
 31
0.0
  0
INSERT
  5
1D6A
  8
寸法
 62
     0
  2
_DOTSMALL
 10
784.70187930176473
 20
589.67545567601974
 30
0.0
 41
35.0
 42
35.0
 43
35.0
 50
90.0
  0
INSERT
  5
1D6B
  8
寸法
 62
     0
  2
_DOTSMALL
 10
784.70187930176473
 20
574.67545567601974
 30
0.0
 41
35.0
 42
35.0
 43
35.0
 50
270.0
  0
POINT
  5
1D6C
  8
DEFPOINTS
 62
     0
 10
903.59362978947183
 20
589.67545567601974
 30
0.0
  0
POINT
  5
1D6D
  8
DEFPOINTS
 62
     0
 10
903.59362978947183
 20
574.67545567601974
 30
0.0
  0
POINT
  5
1D6E
  8
DEFPOINTS
 62
     0
 10
784.70187930176473
 20
574.67545567601974
 30
0.0
  0
ENDBLK
  5
15BD
  8
0
  0
BLOCK
  8
0
  2
*D21
 70
     1
 10
0.0
 20
0.0
 30
0.0
  3
*D21
  1

  0
LINE
  5
1E42
  8
寸法
 62
     0
 10
1200.9886136546629
 20
1408.67545567602
 30
0.0
 11
1287.592469354855
 21
1408.67545567602
 31
0.0
  0
LINE
  5
1E43
  8
寸法
 62
     0
 10
933.59362978947217
 20
1173.6783319494441
 30
0.0
 11
1287.592469354855
 21
1173.6783319494441
 31
0.0
  0
LINE
  5
1E44
  8
寸法
 62
     0
 10
1287.592469354855
 20
1408.67545567602
 30
0.0
 11
1287.592469354855
 21
1173.6783319494441
 31
0.0
  0
INSERT
  5
1E45
  8
寸法
 62
     0
  2
_DOTSMALL
 10
1287.592469354855
 20
1408.67545567602
 30
0.0
 41
35.0
 42
35.0
 43
35.0
 50
90.0
  0
INSERT
  5
1E46
  8
寸法
 62
     0
  2
_DOTSMALL
 10
1287.592469354855
 20
1173.6783319494441
 30
0.0
 41
35.0
 42
35.0
 43
35.0
 50
270.0
  0
INSERT
  5
1E47
  8
実形
  2
*U30
 10
0.0
 20
0.0
 30
0.0
  0
POINT
  5
1E48
  8
DEFPOINTS
 62
     0
 10
1135.9886136546629
 20
1408.67545567602
 30
0.0
  0
POINT
  5
1E49
  8
DEFPOINTS
 62
     0
 10
868.59362978947217
 20
1173.6783319494441
 30
0.0
  0
POINT
  5
1E4A
  8
DEFPOINTS
 62
     0
 10
1287.592469354855
 20
1173.6783319494441
 30
0.0
  0
ENDBLK
  5
180B
  8
0
  0
BLOCK
  8
0
  2
*U23
 70
     1
 10
0.0
 20
0.0
 30
0.0
  3
*U23
  1

  0
INSERT
  5
2001
  8
0
  2
_OPEN30
 10
1841.9680745647661
 20
609.87436035416874
 30
0.0
 41
25.0
 42
25.0
 43
25.0
 50
327.54931019131652
  0
POLYLINE
  5
2002
  8
0
 66
     1
 10
0.0
 20
0.0
 30
0.0
  0
VERTEX
  5
2003
  8
0
 10
1820.871735889883
 20
623.28869949236878
 30
0.0
  0
VERTEX
  5
2004
  8
0
 10
1794.029576269716
 20
640.35658211862392
 30
0.0
  0
SEQEND
  5
2005
  8
0
  0
ENDBLK
  5
2007
  8
0
  0
BLOCK
  8
0
  2
*U24
 70
     1
 10
0.0
 20
0.0
 30
0.0
  3
*U24
  1

  0
TEXT
  5
2009
  8
寸法
 62
     0
 10
1356.0936297894721
 20
988.65279425448387
 30
0.0
 40
25.0
  1
1070
  0
ENDBLK
  5
200B
  8
0
  0
BLOCK
  8
0
  2
*U25
 70
     1
 10
0.0
 20
0.0
 30
0.0
  3
*U25
  1

  0
TEXT
  5
200D
  8
寸法
 62
     0
 10
739.71125496688308
 20
645.00878900935322
 30
0.0
 40
25.0
  1
199
 50
90.0
  0
ENDBLK
  5
200F
  8
0
  0
BLOCK
  8
0
  2
*U26
 70
     1
 10
0.0
 20
0.0
 30
0.0
  3
*U26
  1

  0
TEXT
  5
2011
  8
寸法
 62
     0
 10
624.00095946181204
 20
1407.42545567602
 30
0.0
 40
25.0
  1
530
 50
90.0
  0
ENDBLK
  5
2013
  8
0
  0
BLOCK
  8
0
  2
*U27
 70
     1
 10
0.0
 20
0.0
 30
0.0
  3
*U27
  1

  0
TEXT
  5
2015
  8
寸法
 62
     0
 10
1051.510296456139
 20
454.49804837494679
 30
0.0
 40
25.0
  1
160
  0
ENDBLK
  5
2017
  8
0
  0
BLOCK
  8
0
  2
*U28
 70
     1
 10
0.0
 20
0.0
 30
0.0
  3
*U28
  1

  0
TEXT
  5
2019
  8
寸法
 62
     0
 10
1053.5936297894721
 20
413.28864980601782
 30
0.0
 40
25.0
  1
181
  0
ENDBLK
  5
201B
  8
0
  0
BLOCK
  8
0
  2
*U29
 70
     1
 10
0.0
 20
0.0
 30
0.0
  3
*U29
  1

  0
TEXT
  5
201D
  8
寸法
 62
     0
 10
937.34362978947229
 20
1821.7890801124761
 30
0.0
 40
25.0
  1
220
  0
ENDBLK
  5
201F
  8
0
  0
BLOCK
  8
0
  2
*U30
 70
     1
 10
0.0
 20
0.0
 30
0.0
  3
*U30
  1

  0
TEXT
  5
2021
  8
寸法
 62
     0
 10
1281.342469354855
 20
1257.843560479399
 30
0.0
 40
25.0
  1
235
 50
90.0
  0
ENDBLK
  5
2023
  8
0
  0
BLOCK
  8
0
  2
*U31
 70
     1
 10
0.0
 20
0.0
 30
0.0
  3
*U31
  1

  0
TEXT
  5
2025
  8
実形
 10
184.49452190108329
 20
13.7308173709916
 30
0.0
 40
45.0
  1
 e
  0
TEXT
  5
2026
  8
実形
 10
236.9228984358719
 20
13.7308173709916
 30
0.0
 40
35.001000000000012
  1
-KITCHEN 
  0
TEXT
  5
2027
  8
実形
 10
481.4046446841665
 20
13.7308173709916
 30
0.0
 40
11.9983428
  1
U-ARCHITECTURE WORKS
  0
ENDBLK
  5
2029
  8
0
  0
BLOCK
  8
0
  2
*U32
 70
     1
 10
0.0
 20
0.0
 30
0.0
  3
*U32
  1

  0
TEXT
  5
202B
  8
実形
 10
2248.494526269883
 20
67.329028572244155
 30
0.0
 40
45.0
  1
 e
  0
TEXT
  5
202C
  8
実形
 10
2300.9229028046711
 20
67.329028572244155
 30
0.0
 40
35.001000000000012
  1
-KITCHEN 
  0
TEXT
  5
202D
  8
実形
 10
2545.4046490529659
 20
67.329028572244155
 30
0.0
 40
11.9983428
  1
U-ARCHITECTURE WORKS
  0
ENDBLK
  5
202F
  8
0
  0
ENDSEC
  0
SECTION
  2
ENTITIES
  0
LINE
  5
9C
  8
0
 10
4.0
 20
54.0
 30
0.0
 11
2784.0
 21
54.0
 31
0.0
  0
LINE
  5
9F
  8
0
 10
4.0
 20
1974.0
 30
0.0
 11
4.0
 21
54.0
 31
0.0
  0
LINE
  5
A0
  8
0
 10
2784.0
 20
1974.0
 30
0.0
 11
4.0
 21
1974.0
 31
0.0
  0
LINE
  5
A5
  8
0
 10
2784.0
 20
54.0
 30
0.0
 11
2784.0
 21
1974.0
 31
0.0
  0
TEXT
  5
8C9
  8
0
 10
249.2632881086038
 20
163.4338719187744
 30
0.0
 40
30.0
  1
※実寸には製造上の誤差が多少生ずる場合があります。シンクの穴あけ加工は現物合わせにてお願いします。
  0
LINE
  5
128A
  8
補助
 10
659.72975319087163
 20
1703.67545567602
 30
0.0
 11
2017.8983144517749
 21
1703.67545567602
 31
0.0
  0
LINE
  5
128C
  8
補助
 10
659.72975319087163
 20
1173.67545567602
 30
0.0
 11
2017.8983144517749
 21
1173.67545567602
 31
0.0
  0
LINE
  5
128D
  8
補助
 10
659.72975319087163
 20
773.67545567601974
 30
0.0
 11
2017.8983144517749
 21
773.67545567601974
 31
0.0
  0
LINE
  5
128F
  8
補助
 10
858.59362978947217
 20
1782.4117417374
 30
0.0
 11
858.59362978947217
 21
395.79436511040541
 31
0.0
  0
LINE
  5
1290
  8
補助
 10
1928.5936297894721
 20
1782.4117417374
 30
0.0
 11
1928.5936297894721
 21
395.79436511040541
 31
0.0
  0
LINE
  5
1292
  8
補助
 10
659.72975319087163
 20
1685.67545567602
 30
0.0
 11
2017.8983144517749
 21
1685.67545567602
 31
0.0
  0
LINE
  5
1293
  8
補助
 10
659.72975319087163
 20
1191.67545567602
 30
0.0
 11
2017.8983144517749
 21
1191.67545567602
 31
0.0
  0
LINE
  5
1294
  8
補助
 10
876.59362978947217
 20
1782.4117417374
 30
0.0
 11
876.59362978947217
 21
395.79436511040541
 31
0.0
  0
LINE
  5
1295
  8
補助
 10
1910.5936297894721
 20
1782.4117417374
 30
0.0
 11
1910.5936297894721
 21
395.79436511040541
 31
0.0
  0
DIMENSION
  5
12A2
  8
寸法
  2
*D4
 10
703.96290186307965
 20
1685.67545567602
 30
0.0
 11
682.89073998451568
 21
1730.733502835174
 31
0.0
 70
   128
 13
858.59362978947217
 23
1703.67545567602
 33
0.0
 14
858.59362978947217
 24
1685.67545567602
 34
0.0
 50
90.0
1001
ACAD
1000
DSTYLE
1002
{
1070
   287
1070
     5
1070
   279
1070
     2
1070
   371
1070
    18
1070
   372
1070
    18
1002
}
  0
DIMENSION
  5
12E0
  8
寸法
  2
*D5
 10
703.96290186307965
 20
1613.67545567602
 30
0.0
 11
701.77450076173409
 21
1649.8670331943799
 31
0.0
 70
   128
 13
858.59362978947217
 23
1685.67545567602
 33
0.0
 14
858.59362978947217
 24
1613.67545567602
 34
0.0
 50
90.0
1001
ACAD
1000
DSTYLE
1002
{
1070
   287
1070
     4
1070
   279
1070
     1
1070
   371
1070
    18
1070
   372
1070
    18
1002
}
  0
DIMENSION
  5
12ED
  8
寸法
  2
*D6
 10
703.96290186307965
 20
1191.67545567602
 30
0.0
 11
685.21290186307954
 21
1438.67545567602
 31
0.0
 70
     0
  1
410
 13
858.59362978947217
 23
1685.67545567602
 33
0.0
 14
858.59362978947217
 24
1191.67545567602
 34
0.0
 50
90.0
1001
ACAD
1000
DSTYLE
1002
{
1070
   287
1070
     4
1070
   279
1070
     1
1070
   371
1070
    18
1070
   372
1070
    18
1002
}
  0
DIMENSION
  5
12FA
  8
寸法
  2
*D7
 10
703.96290186307965
 20
1173.67545567602
 30
0.0
 11
684.92823200643932
 21
1226.699952865491
 31
0.0
 70
   128
  1
12
 13
858.59362978947217
 23
1203.67545567602
 33
0.0
 14
858.59362978947217
 24
1173.67545567602
 34
0.0
 50
90.0
1001
ACAD
1000
DSTYLE
1002
{
1070
   287
1070
     5
1070
   279
1070
     2
1070
   371
1070
    18
1070
   372
1070
    18
1002
}
  0
DIMENSION
  5
1307
  8
寸法
  2
*D8
 10
703.96290186307965
 20
1173.67545567602
 30
0.0
 11
707.16986464152956
 21
1143.1038335191911
 31
0.0
 70
   128
 13
858.59362978947217
 23
1191.67545567602
 33
0.0
 14
858.59362978947217
 24
1173.67545567602
 34
0.0
 50
90.0
1001
ACAD
1000
DSTYLE
1002
{
1070
   287
1070
     4
1070
   279
1070
     1
1070
   371
1070
    18
1070
   372
1070
    18
1002
}
  0
DIMENSION
  5
132F
  8
寸法
  2
*D9
 10
630.25095946181216
 20
1173.67545567602
 30
0.0
 11
611.50095946181204
 21
1438.67545567602
 31
0.0
 70
     0
 13
858.59362978947217
 23
1703.67545567602
 33
0.0
 14
858.59362978947217
 24
1173.67545567602
 34
0.0
 50
90.0
1001
ACAD
1000
DSTYLE
1002
{
1070
   371
1070
    18
1070
   372
1070
    18
1002
}
  0
DIMENSION
  5
134E
  8
寸法
  2
*D10
 10
876.59362978947217
 20
1062.2909443947319
 30
0.0
 11
822.8350914612281
 21
1073.7035372719099
 31
0.0
 70
   128
 13
858.59362978947217
 23
1173.67545567602
 33
0.0
 14
876.59362978947217
 24
1173.67545567602
 34
0.0
1001
ACAD
1000
DSTYLE
1002
{
1070
   287
1070
     5
1070
   279
1070
     2
1070
   371
1070
    18
1070
   372
1070
    18
1002
}
  0
DIMENSION
  5
1382
  8
寸法
  2
*D11
 10
928.59362978947229
 20
1062.2909443947319
 30
0.0
 11
891.36181986635415
 21
1034.9007185773
 31
0.0
 70
   128
 13
876.59362978947217
 23
1173.67545567602
 33
0.0
 14
928.59362978947229
 24
1173.67545567602
 34
0.0
1001
ACAD
1000
DSTYLE
1002
{
1070
   287
1070
     5
1070
   279
1070
     2
1070
   371
1070
    18
1070
   372
1070
    18
1002
}
  0
DIMENSION
  5
13AD
  8
寸法
  2
*D12
 10
1858.5936297894721
 20
1062.2909443947319
 30
0.0
 11
1393.5936297894721
 21
1081.0409443947319
 31
0.0
 70
     0
 13
928.59362978947229
 23
1173.67545567602
 33
0.0
 14
1858.5936297894721
 24
1173.67545567602
 34
0.0
1001
ACAD
1000
DSTYLE
1002
{
1070
   287
1070
     4
1070
   279
1070
     1
1070
   371
1070
    18
1070
   372
1070
    18
1002
}
  0
DIMENSION
  5
13BA
  8
寸法
  2
*D13
 10
1910.5936297894721
 20
1062.2909443947319
 30
0.0
 11
1897.231419637516
 21
1034.9007185773
 31
0.0
 70
   128
 13
1858.5936297894721
 23
1173.67545567602
 33
0.0
 14
1910.5936297894721
 24
1173.67545567602
 34
0.0
1001
ACAD
1000
DSTYLE
1002
{
1070
   287
1070
     5
1070
   279
1070
     2
1070
   371
1070
    18
1070
   372
1070
    18
1002
}
  0
DIMENSION
  5
13C9
  8
寸法
  2
*D14
 10
1928.5936297894721
 20
1062.2909443947319
 30
0.0
 11
1963.4739237624719
 21
1069.138497208834
 31
0.0
 70
   128
 13
1910.5936297894721
 23
1173.67545567602
 33
0.0
 14
1928.5936297894721
 24
1173.67545567602
 34
0.0
1001
ACAD
1000
DSTYLE
1002
{
1070
   287
1070
     5
1070
   279
1070
     2
1070
   371
1070
    18
1070
   372
1070
    18
1002
}
  0
DIMENSION
  5
1472
  8
寸法
  2
*D15
 10
1928.5936297894721
 20
982.40279425448443
 30
0.0
 11
1393.5936297894721
 21
1001.152794254484
 31
0.0
 70
     0
 13
858.59362978947217
 23
1173.67545567602
 33
0.0
 14
1928.5936297894721
 24
1173.67545567602
 34
0.0
1001
ACAD
1000
DSTYLE
1002
{
1070
   371
1070
    18
1070
   372
1070
    18
1002
}
  0
LINE
  5
14A3
  8
実形
 10
1928.5936297894721
 20
1693.6783319494441
 30
0.0
 11
1928.5936297894721
 21
1183.6783319494441
 31
0.0
  0
LINE
  5
14A4
  8
実形
 10
1923.5936297894721
 20
1693.6783319494441
 30
0.0
 11
1923.5936297894721
 21
1183.6783319494441
 31
0.0
  0
LINE
  5
14A5
  8
実形
 10
1910.5936297894721
 20
1221.6783319494441
 30
0.0
 11
1910.5936297894721
 21
1655.6783319494441
 31
0.0
  0
LINE
  5
14A6
  8
実形
 10
1915.5936297894721
 20
1221.6783319494441
 30
0.0
 11
1915.5936297894721
 21
1655.6783319494441
 31
0.0
  0
ARC
  5
14A7
  8
実形
 10
1880.5936297894721
 20
1221.6783319494441
 30
0.0
 40
30.0
 50
270.0
 51
0.0
  0
ARC
  5
14A8
  8
実形
 10
1880.5936297894721
 20
1221.6783319494441
 30
0.0
 40
35.0
 50
270.0
 51
0.0
  0
LINE
  5
14A9
  8
実形
 10
1918.5936297894721
 20
1178.6783319494441
 30
0.0
 11
868.59362978947217
 21
1178.6783319494441
 31
0.0
  0
ARC
  5
14AA
  8
実形
 10
1918.5936297894721
 20
1183.6783319494441
 30
0.0
 40
5.0
 50
270.0
 51
0.0
  0
ARC
  5
14AB
  8
実形
 10
1918.5936297894721
 20
1183.6783319494441
 30
0.0
 40
10.0
 50
270.0
 51
0.0
  0
LINE
  5
14AC
  8
実形
 10
906.59362978947206
 20
1191.6783319494441
 30
0.0
 11
1880.5936297894721
 21
1191.6783319494441
 31
0.0
  0
LINE
  5
14AD
  8
実形
 10
906.59362978947206
 20
1186.6783319494441
 30
0.0
 11
1880.5936297894721
 21
1186.6783319494441
 31
0.0
  0
LINE
  5
14AE
  8
実形
 10
1880.5936297894721
 20
1690.6783319494441
 30
0.0
 11
906.59362978947206
 21
1690.6783319494441
 31
0.0
  0
LINE
  5
14AF
  8
実形
 10
868.59362978947217
 20
1698.6783319494441
 30
0.0
 11
1918.5936297894721
 21
1698.6783319494441
 31
0.0
  0
LINE
  5
14B0
  8
実形
 10
868.59362978947217
 20
1703.6783319494441
 30
0.0
 11
1918.5936297894721
 21
1703.6783319494441
 31
0.0
  0
LINE
  5
14B1
  8
実形
 10
1880.5936297894721
 20
1685.678331949445
 30
0.0
 11
906.59362978947206
 21
1685.678331949445
 31
0.0
  0
ARC
  5
14B2
  8
実形
 10
906.59362978947206
 20
1655.6783319494441
 30
0.0
 40
35.0
 50
90.0
 51
180.0
  0
ARC
  5
14B3
  8
実形
 10
868.59362978947217
 20
1693.6783319494441
 30
0.0
 40
5.0
 50
90.0
 51
180.0
  0
ARC
  5
14B4
  8
実形
 10
868.59362978947217
 20
1693.6783319494441
 30
0.0
 40
10.0
 50
90.0
 51
180.0
  0
ARC
  5
14B5
  8
実形
 10
906.59362978947206
 20
1655.6783319494441
 30
0.0
 40
30.0
 50
90.0
 51
180.0
  0
ARC
  5
14B6
  8
実形
 10
1880.5936297894721
 20
1655.6783319494441
 30
0.0
 40
35.0
 50
0.0
 51
90.0
  0
ARC
  5
14B7
  8
実形
 10
1918.5936297894721
 20
1693.6783319494441
 30
0.0
 40
5.0
 50
0.0
 51
90.0
  0
ARC
  5
14B8
  8
実形
 10
1918.5936297894721
 20
1693.6783319494441
 30
0.0
 40
10.0
 50
0.0
 51
90.0
  0
ARC
  5
14B9
  8
実形
 10
1880.5936297894721
 20
1655.6783319494441
 30
0.0
 40
30.0
 50
0.0
 51
90.0
  0
LINE
  5
14BA
  8
実形
 10
871.59362978947206
 20
1655.6783319494441
 30
0.0
 11
871.59362978947206
 21
1221.6783319494441
 31
0.0
  0
LINE
  5
14BB
  8
実形
 10
863.59362978947206
 20
1183.6783319494441
 30
0.0
 11
863.59362978947206
 21
1693.6783319494441
 31
0.0
  0
LINE
  5
14BC
  8
実形
 10
858.59362978947217
 20
1183.6783319494441
 30
0.0
 11
858.59362978947217
 21
1693.6783319494441
 31
0.0
  0
LINE
  5
14BD
  8
実形
 10
876.59362978947217
 20
1655.6783319494441
 30
0.0
 11
876.59362978947217
 21
1221.6783319494441
 31
0.0
  0
ARC
  5
14BE
  8
実形
 10
868.59362978947217
 20
1183.6783319494441
 30
0.0
 40
5.0
 50
180.0
 51
270.0
  0
ARC
  5
14BF
  8
実形
 10
868.59362978947217
 20
1183.6783319494441
 30
0.0
 40
10.0
 50
180.0
 51
270.0
  0
ARC
  5
14C0
  8
実形
 10
906.59362978947206
 20
1221.6783319494441
 30
0.0
 40
35.0
 50
180.0
 51
270.0
  0
ARC
  5
14C1
  8
実形
 10
906.59362978947206
 20
1221.6783319494441
 30
0.0
 40
30.0
 50
180.0
 51
270.0
  0
LINE
  5
14C2
  8
実形
 10
1918.5936297894721
 20
1173.6783319494441
 30
0.0
 11
868.59362978947217
 21
1173.6783319494441
 31
0.0
  0
LINE
  5
14C4
  8
補助
 10
868.59362978947217
 20
1703.6783319494441
 30
0.0
 11
754.31641227581065
 21
1703.6454626970681
 31
0.0
  0
LINE
  5
14C5
  8
補助
 10
858.59362978947217
 20
1693.6783319494441
 30
0.0
 11
858.59362978947217
 21
1765.604206163142
 31
0.0
  0
LINE
  5
1549
  8
センタ_
 10
1214.132941600926
 20
1408.67545567602
 30
0.0
 11
943.05431797801805
 21
1408.67545567602
 31
0.0
  0
CIRCLE
  5
154A
  8
実形
 10
1078.5936297894721
 20
1408.67545567602
 30
0.0
 40
90.5
  0
CIRCLE
  5
154B
  8
実形
 10
1078.5936297894721
 20
1408.67545567602
 30
0.0
 40
80.0
  0
LINE
  5
154E
  8
センタ_
 10
1078.5936297894721
 20
1544.2147674874741
 30
0.0
 11
1078.5936297894721
 21
1273.1361438645649
 31
0.0
  0
DIMENSION
  5
1560
  8
寸法
  2
*D16
 10
858.59362978947217
 20
1815.5390801124761
 30
0.0
 11
968.59362978947229
 21
1834.2890801124761
 31
0.0
 70
     0
 13
1078.5936297894721
 23
1440.2183532400591
 33
0.0
 14
858.59362978947217
 24
1685.67545567602
 34
0.0
 50
180.0
1001
ACAD
1000
DSTYLE
1002
{
1070
   371
1070
    18
1002
}
  0
LINE
  5
1561
  8
実形
 10
1498.5936297894721
 20
773.67545567601974
 30
0.0
 11
888.59362978947172
 21
773.67545567601974
 31
0.0
  0
DIMENSION
  5
1562
  8
寸法
  2
*D17
 10
988.09362978947217
 20
407.03864980601782
 30
0.0
 11
1078.5936297894721
 21
407.03864980601782
 31
0.0
 70
   128
 13
1169.0936297894721
 23
564.67545567601974
 33
0.0
 14
988.09362978947217
 24
564.67545567601974
 34
0.0
 50
180.0
1001
ACAD
1000
DSTYLE
1002
{
1070
   371
1070
    18
1002
}
  0
DIMENSION
  5
1563
  8
寸法
  2
*D18
 10
998.59362978947217
 20
448.24804837494679
 30
0.0
 11
1078.5936297894721
 21
466.99804837494679
 31
0.0
 70
     0
 13
1158.5936297894721
 23
564.67545567601974
 33
0.0
 14
998.59362978947217
 24
564.67545567601974
 34
0.0
 50
180.0
1001
ACAD
1000
DSTYLE
1002
{
1070
   371
1070
    18
1002
}
  0
LINE
  5
1564
  8
実形
 10
1169.0936297894721
 20
564.67545567601974
 30
0.0
 11
988.09362978947217
 21
564.67545567601974
 31
0.0
  0
LINE
  5
1565
  8
実形
 10
1169.0936297894721
 20
574.67545567601974
 30
0.0
 11
998.59362978947217
 21
574.67545567601974
 31
0.0
  0
LINE
  5
1566
  8
実形
 10
1498.5936297894721
 20
773.67545567601974
 30
0.0
 11
888.59362978947172
 21
773.67545567601974
 31
0.0
  0
LINE
  5
1568
  8
センタ_
 10
1078.5936297894721
 20
652.8920795514332
 30
0.0
 11
1078.5936297894721
 21
496.47625924413302
 31
0.0
  0
LINE
  5
156A
  8
実形
 10
1169.0936297894721
 20
574.67545567601974
 30
0.0
 11
1169.0936297894721
 21
564.67545567601974
 31
0.0
  0
INSERT
  5
156D
  8
実形
  2
*U23
 10
0.0
 20
0.0
 30
0.0
1001
ACAD
1000
DSTYLE
1002
{
1070
    41
1040
25.0
1070
   147
1040
6.25
1070
    77
1070
     0
1070
    73
1070
     1
1070
    74
1070
     1
1070
   279
1070
     1
1070
   342
1005
DA
1002
}
  0
DIMENSION
  5
156E
  8
寸法
  2
*D19
 10
745.96125496688319
 20
574.67545567601974
 30
0.0
 11
727.21125496688308
 21
674.17545567601985
 31
0.0
 70
     0
 13
903.59362978947183
 23
773.67545567601974
 33
0.0
 14
903.59362978947183
 24
574.67545567601974
 34
0.0
 50
90.0
1001
ACAD
1000
DSTYLE
1002
{
1070
   371
1070
    18
1002
}
  0
LINE
  5
1570
  8
実形
 10
988.09362978947217
 20
564.67545567601974
 30
0.0
 11
988.09362978947217
 21
574.67545567601974
 31
0.0
  0
LINE
  5
1571
  8
実形
 10
988.09362978947217
 20
574.67545567601974
 30
0.0
 11
988.09362978947217
 21
574.67545567601974
 31
0.0
  0
LINE
  5
1572
  8
実形
 10
998.59362978947217
 20
574.67545567601974
 30
0.0
 11
988.09362978947217
 21
574.67545567601974
 31
0.0
  0
TEXT
  5
1573
  8
寸法
 10
806.26259828806496
 20
515.36957247278508
 30
0.0
 40
25.0
  1
15
 50
90.0
  0
DIMENSION
  5
1574
  8
寸法
  2
*D20
 10
784.70187930176473
 20
574.67545567601974
 30
0.0
 11
784.70187930176451
 21
582.17545567601996
 31
0.0
 70
     0
  1
 
 13
903.59362978947183
 23
589.67545567601974
 33
0.0
 14
903.59362978947183
 24
574.67545567601974
 34
0.0
 50
90.0
1001
ACAD
1000
DSTYLE
1002
{
1070
   371
1070
    18
1002
}
  0
TEXT
  5
1576
  8
寸法
 10
1720.2388798970601
 20
639.39982909919445
 30
0.0
 40
25.0
  1
30R
  0
DIMENSION
  5
17B2
  8
寸法
  2
*D21
 10
1287.592469354855
 20
1173.6783319494441
 30
0.0
 11
1268.842469354855
 21
1291.176893812732
 31
0.0
 70
     0
 13
1135.9886136546629
 23
1408.67545567602
 33
0.0
 14
868.59362978947217
 24
1173.6783319494441
 34
0.0
 50
90.0
1001
ACAD
1000
DSTYLE
1002
{
1070
   371
1070
    18
1002
}
  0
LINE
  5
17BC
  8
実形
 10
1898.5936297894721
 20
773.67545567601974
 30
0.0
 11
1508.5936297894721
 21
773.67545567601974
 31
0.0
  0
LINE
  5
17BD
  8
実形
 10
1508.5936297894721
 20
773.67545567601974
 30
0.0
 11
1898.5936297894721
 21
773.67545567601974
 31
0.0
  0
LINE
  5
17BE
  8
実形
 10
1508.5936297894721
 20
773.67545567601974
 30
0.0
 11
1898.5936297894721
 21
773.67545567601974
 31
0.0
  0
LINE
  5
1961
  8
補助
 10
659.72975319087163
 20
574.67545567601974
 30
0.0
 11
2017.8983144517749
 21
574.67545567601974
 31
0.0
  0
LINE
  5
1C45
  8
実形
 10
1915.5936297894721
 20
763.67545567601974
 30
0.0
 11
871.59362978947206
 21
763.67545567601974
 31
0.0
  0
LINE
  5
1C46
  8
実形
 10
1923.5936297894721
 20
778.67545567601974
 30
0.0
 11
863.59362978947206
 21
778.67545567601974
 31
0.0
  0
LINE
  5
1C47
  8
実形
 10
1928.5936297894721
 20
773.67545567601974
 30
0.0
 11
858.59362978947217
 21
773.67545567601974
 31
0.0
  0
LINE
  5
1C48
  8
実形
 10
873.59362978947217
 20
773.67545567601974
 30
0.0
 11
1913.5936297894721
 21
773.67545567601974
 31
0.0
  0
LINE
  5
1C49
  8
実形
 10
873.59362978947217
 20
773.67545567601974
 30
0.0
 11
1913.5936297894721
 21
773.67545567601974
 31
0.0
  0
LINE
  5
1C4A
  8
実形
 10
871.59362978947206
 20
763.67545567601974
 30
0.0
 11
871.59362978947206
 21
773.67545567601974
 31
0.0
  0
LINE
  5
1C4B
  8
実形
 10
863.59362978947206
 20
778.67545567601974
 30
0.0
 11
858.59362978947217
 21
773.67545567601974
 31
0.0
  0
LINE
  5
1C4C
  8
実形
 10
1915.5936297894721
 20
773.67545567601974
 30
0.0
 11
1915.5936297894721
 21
763.67545567601974
 31
0.0
  0
LINE
  5
1C4D
  8
実形
 10
1923.5936297894721
 20
778.67545567601974
 30
0.0
 11
1928.5936297894721
 21
773.67545567601974
 31
0.0
  0
LINE
  5
1CA5
  8
補助
 10
659.72975319087163
 20
1613.67545567602
 30
0.0
 11
2017.8983144517749
 21
1613.67545567602
 31
0.0
  0
LINE
  5
1CA6
  8
補助
 10
659.72975319087163
 20
1203.67545567602
 30
0.0
 11
2017.8983144517749
 21
1203.67545567602
 31
0.0
  0
LINE
  5
1CA7
  8
補助
 10
928.59362978947229
 20
1782.4117417374
 30
0.0
 11
928.59362978947229
 21
395.79436511040541
 31
0.0
  0
LINE
  5
1CA8
  8
補助
 10
1858.5936297894721
 20
1782.4117417374
 30
0.0
 11
1858.5936297894721
 21
395.79436511040541
 31
0.0
  0
LINE
  5
1DB7
  8
補助
 10
659.72975319087163
 20
1408.67545567602
 30
0.0
 11
2017.8983144517749
 21
1408.67545567602
 31
0.0
  0
LINE
  5
1DB8
  8
補助
 10
1078.5936297894721
 20
1782.4117417374
 30
0.0
 11
1078.5936297894721
 21
395.79436511040541
 31
0.0
  0
LINE
  5
1DF8
  8
補助
 10
659.72975319087163
 20
589.67545567601974
 30
0.0
 11
2017.8983144517749
 21
589.67545567601974
 31
0.0
  0
LINE
  5
1DF9
  8
実形
 10
928.59362978947229
 20
763.67545567601974
 30
0.0
 11
928.59362978947195
 21
613.05106893514369
 31
0.0
  0
LINE
  5
1DFA
  8
実形
 10
951.2600570296903
 20
583.96123032134267
 30
0.0
 11
988.09362978947217
 21
574.67545567601974
 31
0.0
  0
LINE
  5
1DFB
  8
実形
 10
1169.0936297894721
 20
574.67545567601974
 30
0.0
 11
1829.246122248946
 21
589.03700373532661
 31
0.0
  0
LINE
  5
1DFC
  8
実形
 10
1858.5936297894721
 20
619.02990712246674
 30
0.0
 11
1858.5936297894721
 21
763.67545567601974
 31
0.0
  0
ARC
  5
1DFD
  8
実形
 10
1828.5936297894721
 20
619.02990712246674
 30
0.0
 40
30.0
 50
271.24626707433652
 51
0.0
  0
ARC
  5
1DFE
  8
実形
 10
958.59362978947217
 20
613.05106893514369
 30
0.0
 40
30.0
 50
180.0
 51
255.8505239136548
  0
ARC
  5
1E00
  8
実形
 10
1393.5936297894721
 20
6203.6754556760197
 30
0.0
 40
5000.0
 50
265.56196780703073
 51
274.43803219296927
  0
ARC
  5
1E01
  8
実形
 10
1393.5936297894721
 20
-3386.3245443239812
 30
0.0
 40
5000.0
 50
85.561967807030754
 51
94.438032192969217
  0
ARC
  5
1E03
  8
実形
 10
2428.5936297894718
 20
1408.67545567602
 30
0.0
 40
1500.0
 50
175.54711039851961
 51
184.45288960148039
  0
ARC
  5
1E04
  8
実形
 10
358.59362978947257
 20
1408.67545567602
 30
0.0
 40
1500.0
 50
355.54711039851958
 51
4.452889601480396
  0
ARC
  5
1E05
  8
実形
 10
1774.3073715480659
 20
1518.9233644810549
 30
0.0
 40
80.0
 50
4.4528896014803472
 51
85.561967807030797
  0
ARC
  5
1E06
  8
実形
 10
1012.879888030879
 20
1518.9233644810549
 30
0.0
 40
80.0
 50
94.438032192969061
 51
175.54711039851961
  0
ARC
  5
1E07
  8
実形
 10
1012.879888030879
 20
1298.4275468709841
 30
0.0
 40
80.0
 50
184.45288960148011
 51
265.5619678070284
  0
ARC
  5
1E08
  8
実形
 10
1774.3073715480659
 20
1298.4275468709841
 30
0.0
 40
80.0
 50
274.4380321929699
 51
355.54711039851901
  0
TEXT
  5
1E8E
  8
実形
 10
2086.666666666667
 20
134.0
 30
0.0
 40
35.0
  1
尺度
 72
     4
 11
2124.0
 21
151.5
 31
0.0
  0
TEXT
  5
1E8F
  8
実形
 10
2086.666666666667
 20
199.0
 30
0.0
 40
35.0
  1
品番
 72
     4
 11
2124.0
 21
216.5
 31
0.0
  0
LINE
  5
1E90
  8
0
 10
2064.0
 20
119.0
 30
0.0
 11
2784.0
 21
119.0
 31
0.0
  0
LINE
  5
1E91
  8
0
 10
2064.0
 20
249.0
 30
0.0
 11
2784.0
 21
249.0
 31
0.0
  0
LINE
  5
1E92
  8
0
 10
2064.0
 20
184.0
 30
0.0
 11
2784.0
 21
184.0
 31
0.0
  0
LINE
  5
1E93
  8
0
 10
2064.0
 20
54.0
 30
0.0
 11
2064.0
 21
249.0
 31
0.0
  0
TEXT
  5
1E95
  8
0
 10
2265.25
 20
199.0
 30
0.0
 40
35.0
  1
A1m/m1070-530S
 72
     4
 11
2484.0
 21
216.5
 31
0.0
  0
LINE
  5
1E96
  8
0
 10
2184.0
 20
119.0
 30
0.0
 11
2784.0
 21
119.0
 31
0.0
  0
LINE
  5
1EA5
  8
0
 10
2184.0
 20
119.0
 30
0.0
 11
2184.0
 21
249.0
 31
0.0
  0
TEXT
  5
1EA6
  8
0
 10
2430.916666666667
 20
134.0
 30
0.0
 40
35.0
  1
1：10
 72
     4
 11
2484.0
 21
151.5
 31
0.0
  0
LINE
  5
1EA7
  8
CEN
 10
2784.0
 20
119.0
 30
0.0
 11
2784.0
 21
184.0
 31
0.0
  0
LINE
  5
1EA8
  8
0
 10
2784.0
 20
184.0
 30
0.0
 11
2784.0
 21
249.0
 31
0.0
  0
LINE
  5
1EA9
  8
0
 10
2784.0
 20
54.0
 30
0.0
 11
2784.0
 21
119.0
 31
0.0
  0
LINE
  5
1F71
  8
0
 10
2784.0
 20
1909.8546410300801
 30
0.0
 11
2064.0
 21
1909.8546410300801
 31
0.0
  0
LINE
  5
1F72
  8
0
 10
2784.0
 20
1844.854641030081
 30
0.0
 11
2064.0
 21
1844.854641030081
 31
0.0
  0
LINE
  5
1F73
  8
0
 10
2064.0
 20
1844.854641030081
 30
0.0
 11
2064.0
 21
1974.8546410300801
 31
0.0
  0
TEXT
  5
1F74
  8
実形
 10
2567.166666666667
 20
1924.8546410300801
 30
0.0
 40
35.0
  1
素材寸法
 72
     4
 11
2646.5
 21
1942.3546410300801
 31
0.0
  0
TEXT
  5
1F75
  8
実形
 10
2578.25
 20
1859.8546410300801
 30
0.0
 40
35.0
  1
1.0ｍｍ
 72
     4
 11
2646.5
 21
1877.3546410300801
 31
0.0
  0
TEXT
  5
1F76
  8
実形
 10
2275.25
 20
1859.8546410300801
 30
0.0
 40
35.0
  1
SUS304
 72
     4
 11
2371.5
 21
1877.3546410300801
 31
0.0
  0
LINE
  5
1F77
  8
0
 10
2234.0
 20
1844.854641030081
 30
0.0
 11
2234.0
 21
1974.8546410300801
 31
0.0
  0
TEXT
  5
1F78
  8
実形
 10
2089.5
 20
1858.687974363414
 30
0.0
 40
35.0
  1
ボール
 72
     4
 11
2149.0
 21
1877.3546410300801
 31
0.0
  0
LINE
  5
1F79
  8
0
 10
2509.0
 20
1844.854641030081
 30
0.0
 11
2509.0
 21
1974.8546410300801
 31
0.0
  0
TEXT
  5
1F7A
  8
実形
 10
2334.1666666666661
 20
1924.8546410300801
 30
0.0
 40
35.0
  1
材質
 72
     4
 11
2371.5
 21
1942.3546410300801
 31
0.0
  0
TEXT
  5
1F7B
  8
実形
 10
2091.8333333333339
 20
1924.8546410300801
 30
0.0
 40
35.0
  1
部品名
 72
     4
 11
2149.0
 21
1942.3546410300801
 31
0.0
  0
INSERT
  5
1F7C
  8
実形
  2
*U32
 10
0.0
 20
0.0
 30
0.0
  0
VIEWPORT
  5
2E
 67
     1
  8
0
 10
144.7270812988281
 20
101.2295806407928
 30
0.0
 40
411.67362166824188
 41
222.15178063964851
 68
     1
 69
     1
1001
ACAD
1000
MVIEW
1002
{
1070
    16
1010
0.0
1020
0.0
1030
0.0
1010
0.0
1020
0.0
1030
1.0
1040
0.0
1040
222.15178063964851
1040
144.7270812988281
1040
101.2295806407928
1040
50.0
1040
0.0
1040
0.0
1070
     0
1070
   100
1070
     1
1070
     1
1070
     0
1070
     0
1070
     0
1070
     0
1040
0.0
1040
0.0
1040
0.0
1040
10.0
1040
10.0
1040
10.0
1040
10.0
1070
     0
1002
{
1002
}
1002
}
  0
VIEWPORT
  5
30
 67
     1
  8
0
 10
139.22375631332389
 20
101.2295821905136
 30
0.0
 40
222.7580101013184
 41
161.9673315048218
 68
     2
 69
     2
1001
ACAD
1000
MVIEW
1002
{
1070
    16
1010
0.0
1020
0.0
1030
0.0
1010
0.0
1020
0.0
1030
1.0
1040
0.0
1040
309.06867056471242
1040
210.0
1040
148.5
1040
50.0
1040
0.0
1040
0.0
1070
     0
1070
   100
1070
     1
1070
     3
1070
     0
1070
     0
1070
     0
1070
     0
1040
0.0
1040
0.0
1040
0.0
1040
10.0
1040
10.0
1040
10.0
1040
10.0
1070
     0
1002
{
1002
}
1002
}
  0
ENDSEC
  0
EOF
